<?xml version="1.0" standalone="no"?>
<!DOCTYPE svg PUBLIC "-//W3C//DTD SVG 1.1//EN" "http://www.w3.org/Graphics/SVG/1.1/DTD/svg11.dtd" >
<svg xmlns="http://www.w3.org/2000/svg" xmlns:xlink="http://www.w3.org/1999/xlink" version="1.1">
<metadata>
Created by FontForge 20170731 at Thu Feb 19 13:23:12 2015
 By Aleksey,,,
Atlantic Cruise (c) Kustomtype 2014. All Rights Reserved
</metadata>
<defs>
<font id="AtlanticCruise" horiz-adv-x="300" >
  <font-face 
    font-family="Atlantic Cruise"
    font-weight="400"
    font-style="italic"
    font-stretch="normal"
    units-per-em="1000"
    panose-1="2 0 0 0 0 0 0 9 0 0"
    ascent="800"
    descent="-200"
    x-height="569"
    cap-height="699"
    bbox="-18 -159 965 854"
    underline-thickness="50"
    underline-position="-175"
    slope="-8"
    unicode-range="U+0020-2122"
  />
<missing-glyph horiz-adv-x="184" 
 />
    <glyph glyph-name=".notdef" horiz-adv-x="184" 
 />
    <glyph glyph-name=".null" horiz-adv-x="0" 
 />
    <glyph glyph-name="nonmarkingreturn" horiz-adv-x="333" 
 />
    <glyph glyph-name="space" unicode=" " horiz-adv-x="184" 
 />
    <glyph glyph-name="exclam" unicode="!" horiz-adv-x="150" 
d="M104 0h-58v58h58v-58zM47 125v575h56v-575h-56z" />
    <glyph glyph-name="quotedbl" unicode="&#x22;" horiz-adv-x="222" 
d="M189 535h-37v165h42zM73 535h-42v165h42v-165z" />
    <glyph glyph-name="numbersign" unicode="#" horiz-adv-x="422" 
d="M179 398l-26 -118h88l27 118h-89zM84 168l14 67h-70l11 45h68l26 118h-73l10 45h73l13 63h46l-13 -63h88l14 63h46l-14 -63h72l-11 -45h-71l-26 -118h76l-10 -45h-75l-14 -67h-46l14 67h-88l-15 -67h-45z" />
    <glyph glyph-name="dollar" unicode="$" horiz-adv-x="474" 
d="M266 -73h-55v75q-118 27 -185 109l45 37q71 -95 176 -95q32 0 58 10q28 9 47 27q20 18 30 43q11 25 11 54q-1 40 -33 79q-35 39 -102 73l-48 24q-49 25 -82 48q-16 11 -28.5 22t-20.5 22q-18 23 -24 44q-6 22 -6 47v4q0 30 12 59q10 26 32 48q22 20 50 32q30 11 64 11h4
v68h55v-75q78 -23 114 -72l-42 -32q-74 53 -122 53q-52 0 -81 -25q-31 -26 -32 -70q11 -86 153 -146l33 -14l18 -9q4 -2 7.5 -4t7.5 -3h-1q129 -75 129 -181q0 -35 -14 -71q-15 -35 -40 -60q-25 -27 -58 -43q-35 -17 -72 -18v-71z" />
    <glyph glyph-name="percent" unicode="%" horiz-adv-x="688" 
d="M662 186q0 -189 -132 -189q-134 0 -134 189t134 189q132 0 132 -189zM454 186q0 -135 76 -135q74 0 74 135t-74 135q-76 0 -76 -135zM292 515q0 -189 -133 -189t-133 189t133 189t133 -189zM84 515q0 -135 75 -135t75 135t-75 135t-75 -135zM470 701h54l-313 -701h-54z
" />
    <glyph glyph-name="ampersand" unicode="&#x26;" horiz-adv-x="614" 
d="M463 336h-76v56h207v-56h-76v-314l-2 -1q-73 -26 -131 -26q-73 0 -136 28q-65 27 -113 75q-47 47 -76 113t-29 138t28 135q26 63 75 113q48 48 113 77q63 28 138 28q58 0 131 -26v-60q-62 30 -131 30q-54 0 -105 -20q-50 -19 -91 -54t-66 -81q-27 -46 -34 -98h223v-55
h-226q2 -59 25 -110t65 -91q41 -41 94 -63q54 -24 115 -24q29 0 78 11v275z" />
    <glyph glyph-name="quotesingle" unicode="'" horiz-adv-x="112" 
d="M77 481h-42v219h42v-219z" />
    <glyph glyph-name="parenleft" unicode="(" horiz-adv-x="205" 
d="M172 -140q-148 172 -148 426q0 263 150 434h48q-153 -176 -153 -433q0 -243 151 -427h-48z" />
    <glyph glyph-name="parenright" unicode=")" horiz-adv-x="204" 
d="M-16 -140q151 184 151 427q0 257 -153 433h48q150 -173 150 -434q0 -254 -148 -426h-48z" />
    <glyph glyph-name="asterisk" unicode="*" horiz-adv-x="364" 
d="M183 503l36 -122h120l-96 -76l37 -122l-97 76l-98 -76l37 122l-97 76h120z" />
    <glyph glyph-name="plus" unicode="+" horiz-adv-x="466" 
d="M254 581v-186h186v-42h-186v-186h-42v186h-186v42h186v186h42z" />
    <glyph glyph-name="comma" unicode="," horiz-adv-x="103" 
d="M80 0q0 -82 -57 -82v27q28 0 28 55h-28v58h57v-58z" />
    <glyph glyph-name="hyphen" unicode="-" horiz-adv-x="351" 
d="M322 353h-293v43h293v-43z" />
    <glyph glyph-name="period" unicode="." horiz-adv-x="96" 
d="M77 0h-58v58h58v-58z" />
    <glyph glyph-name="slash" unicode="/" horiz-adv-x="387" 
d="M367 703l-300 -749l-46 20l300 749z" />
    <glyph glyph-name="colon" unicode=":" horiz-adv-x="148" 
d="M106 0h-64v64h64v-64zM106 333h-64v64h64v-64z" />
    <glyph glyph-name="semicolon" unicode=";" horiz-adv-x="154" 
d="M109 0q0 -91 -64 -91v30q31 0 31 61h-31v63h64v-63zM109 333h-64v64h64v-64z" />
    <glyph glyph-name="less" unicode="&#x3c;" horiz-adv-x="310" 
d="M258 350l-176 -104l176 -105v-52l-231 139v34q8 5 20 11.5t26 16.5q14 9 32.5 20t41.5 24l111 66v-50z" />
    <glyph glyph-name="equal" unicode="=" horiz-adv-x="290" 
d="M241 357h-192v39h192v-39zM241 257h-192v38h192v-38z" />
    <glyph glyph-name="greater" unicode="&#x3e;" horiz-adv-x="310" 
d="M52 400l231 -138v-34l-231 -139v52l175 105l-175 104v50z" />
    <glyph glyph-name="question" unicode="?" horiz-adv-x="305" 
d="M98 204l-1 26q0 85 68 207q47 86 47 132q0 77 -62 77q-30 0 -48 -23q-18 -24 -18 -59v-3l-53 5q1 60 33 96q30 36 90 36q58 0 90 -35q31 -34 31 -92v-2q0 -59 -61 -159l-25 -41q-42 -68 -42 -146l1 -19h-50zM86 0v85h74v-85h-74z" />
    <glyph glyph-name="at" unicode="@" horiz-adv-x="649" 
d="M506 115q-67 0 -93 71q-38 -38 -111 -38q-59 0 -94 47t-35 121q0 35 12 65q10 28 32 52q10 11 21.5 19.5t25.5 15.5q27 12 59 12q34 0 87 -29v34h49v-265q0 -59 50 -59q15 0 28 13q11 12 22 36q9 23 15 52q2 15 3.5 31t1.5 33q0 65 -16 114q-17 50 -48 86q-31 34 -77 54
q-44 19 -103 19q-55 0 -100 -22q-47 -23 -82 -61q-36 -39 -55 -88q-21 -51 -21 -107q0 -63 19 -113q18 -52 52 -87q33 -38 81 -57q48 -20 104 -20q66 0 122 15v-47q-57 -12 -122 -12t-120 24t-94 67q-39 40 -62 101q-23 60 -23 130q0 67 24 126q22 58 64 103q40 43 95 68
q54 25 118 25q67 0 118 -22q53 -23 91 -64q37 -41 58 -100q20 -60 20 -130q0 -43 -8 -83q-9 -40 -24 -68q-17 -29 -37 -45q-23 -17 -47 -17zM410 398q-59 27 -81 27q-106 0 -106 -113q0 -116 94 -116q48 0 93 36v166z" />
    <glyph glyph-name="A" unicode="A" horiz-adv-x="385" 
d="M205 699l174 -699h-65l-24 98h-195l-25 -98h-64l173 699h26zM274 161l-81 328l-83 -328h164z" />
    <glyph glyph-name="B" unicode="B" horiz-adv-x="369" 
d="M122 699q75 -10 119 -53q43 -43 43 -112q0 -64 -49 -110q27 -14 48 -34q11 -11 20 -22.5t17 -24.5q15 -26 24 -56q8 -32 8 -60q0 -33 -11 -68q-11 -33 -32 -63q-20 -28 -50 -51q-29 -23 -63 -33q-36 -12 -137 -12v699h63zM129 63q33 0 62 13q31 13 52 34q23 23 36 52
t13 65q0 34 -13 63q-14 31 -35 52q-11 11 -24.5 19.5t-27.5 15.5q-29 13 -63 13h-7v-327h7zM126 442q19 0 38 8q18 8 31 21q14 14 21 31q7 15 7 37q0 21 -7 38q-8 18 -21 31q-14 14 -31 21t-38 7h-4v-194h4z" />
    <glyph glyph-name="C" unicode="C" horiz-adv-x="405" 
d="M396 641q-1 1 -20 1q-58 0 -112 -23q-53 -22 -94 -63t-63 -93q-24 -54 -24 -114q0 -58 23 -112t62 -93q40 -41 93 -63q52 -24 115 -24h20v-61q-1 -1 -20 -1q-73 0 -136 28q-32 14 -60.5 33t-52.5 44q-25 24 -44 52.5t-33 60.5q-28 63 -28 136q0 74 28 137q26 63 75 113
q47 47 113 76q63 28 138 28q19 0 20 -1v-61z" />
    <glyph glyph-name="D.001" unicode="D" horiz-adv-x="455" 
d="M59 699h52q103 0 205 -93q117 -108 117 -256q0 -53 -15 -102q-8 -25 -19 -48t-25 -44q-29 -44 -68 -76q-20 -17 -42 -30t-47 -23q-65 -27 -106 -27h-52v699zM122 63q52 7 99 33q45 25 79 64q33 37 53 88q19 47 19 102q0 54 -19 102q-20 48 -54 87q-17 19 -36.5 35
t-42.5 29q-47 26 -98 33v-573z" />
    <glyph glyph-name="E.001" unicode="E" horiz-adv-x="376" 
d="M59 699h303v-63h-239v-131h183v-63h-183v-379h239v-63h-303v699z" />
    <glyph glyph-name="F.001" unicode="F" horiz-adv-x="377" 
d="M362 636h-240v-131h184v-63h-184v-442h-63v699h303v-63z" />
    <glyph glyph-name="G.001" unicode="G" horiz-adv-x="434" 
d="M377 645q-59 0 -113 -23q-54 -24 -93 -63q-41 -41 -63 -93q-24 -53 -24 -113q0 -55 19 -103q18 -49 51 -88q34 -40 79 -65q47 -27 99 -34v306h66l-1 -370q-1 -1 -20 -1q-73 0 -136 28q-32 14 -60.5 33t-52.5 44q-47 47 -76 113t-29 137q0 74 28 137q26 63 75 113
q47 47 113 76q63 28 138 28q19 0 20 -1v-61h-20z" />
    <glyph glyph-name="H.001" unicode="H" horiz-adv-x="408" 
d="M286 699h63v-699h-63v442h-164v-442h-63v699h63v-194h164v194z" />
    <glyph glyph-name="I" unicode="I" horiz-adv-x="181" 
d="M122 699v-699h-63v699h63z" />
    <glyph glyph-name="J.001" unicode="J" horiz-adv-x="427" 
d="M66 173q3 -52 37 -83q34 -33 85 -33q28 0 49 10q22 9 39 26q15 15 26 38q9 22 9 48v520h61v-520q0 -36 -14 -70q-15 -33 -40 -58q-26 -26 -59 -41q-35 -15 -71 -15q-32 0 -62 12q-29 10 -54 32q-26 19 -42 48q-17 30 -23 62z" />
    <glyph glyph-name="K.001" unicode="K" horiz-adv-x="432" 
d="M59 0v699h63v-261l219 261h82l-277 -330l310 -369h-82l-252 300v-300h-63z" />
    <glyph glyph-name="L" unicode="L" horiz-adv-x="374" 
d="M362 0h-303v699h64v-636h239v-63z" />
    <glyph glyph-name="M" unicode="M" horiz-adv-x="646" 
d="M206 699l117 -472l118 472h25l174 -699h-65l-122 489l-121 -489h-17l-122 489l-122 -489h-65l174 699h26z" />
    <glyph glyph-name="N.001" unicode="N" horiz-adv-x="408" 
d="M84 699l203 -544v544h62v-699h-72l-155 415v-415h-63v699h25z" />
    <glyph glyph-name="O.001" unicode="O" horiz-adv-x="752" 
d="M730 349q0 -74 -28 -137q-29 -66 -76 -113q-48 -48 -112 -76q-63 -28 -138 -28q-73 0 -136 28q-32 14 -60.5 33t-52.5 44q-25 24 -44 52.5t-33 60.5q-28 63 -28 136q0 74 28 137q26 63 75 113q47 47 113 76q63 28 138 28q74 0 137 -28q64 -28 113 -76q48 -49 76 -113
q28 -63 28 -137zM133 511q-50 -74 -50 -162q0 -58 23 -112t62 -93q40 -41 93 -63q52 -24 115 -24q59 0 112 24q52 22 93 63q39 38 64 92q23 54 23 113q0 58 -23 113q-24 52 -63 93q-40 40 -93 64q-54 23 -113 23q-72 0 -136 -34q-66 -35 -107 -97z" />
    <glyph glyph-name="P.001" unicode="P" horiz-adv-x="369" 
d="M122 291q34 1 64 15t53 38q24 24 37 54t13 66t-13 66t-37 54t-53 37q-16 7 -31.5 11t-32.5 5v-346zM122 0h-63v699h63q46 -2 87 -21q42 -20 73 -51q16 -16 28 -34.5t22 -39.5q18 -42 18 -89t-18 -89q-20 -45 -50 -75q-31 -31 -73 -51q-20 -10 -42 -14.5t-45 -5.5v-229z
" />
    <glyph glyph-name="Q.001" unicode="Q" horiz-adv-x="753" 
d="M731 351q0 -49 -13 -92q-13 -44 -36 -86q-25 -42 -57 -74q-17 -17 -35 -31t-38 -25q34 -67 90 -73v-63q-35 8 -54 16q-22 7 -37 21q-17 14 -27 31q-11 17 -24 44q-50 -22 -123 -22q-74 0 -137 28q-66 29 -113 76t-76 113q-28 63 -28 137t28 137q28 64 76 113
q47 47 113 76q63 28 137 28t137 -28q64 -28 113 -76q48 -49 76 -113q28 -63 28 -137zM487 154q7 -7 17 -22q9 -13 20 -34q34 19 60 46q26 26 46 61q19 33 30 71q10 36 10 75q0 58 -23 113q-23 52 -63 93q-40 40 -93 64q-55 23 -114 23q-58 0 -112 -23q-53 -23 -93 -63
q-41 -41 -63 -93q-24 -53 -24 -114q0 -59 23 -113t61 -92q39 -41 93 -63q52 -24 115 -24q48 0 95 15q-11 21 -23 34q-11 13 -23 21z" />
    <glyph glyph-name="R.001" unicode="R" horiz-adv-x="379" 
d="M122 699q47 -2 89 -21q40 -20 72 -51q30 -30 49 -74q18 -42 18 -89q0 -154 -148 -218q5 -6 9.5 -12t9.5 -13q10 -15 17 -29l29 -59q40 -64 89 -75v-63q-97 30 -126 83l-26 55q-5 11 -10 20.5t-10 17.5t-10 15t-10 13l-17 17l-18 14q-6 0 -7 -1v-229h-63v699h63zM122 291
q37 2 67 16t53 38q21 21 35 54q12 31 12 65q0 37 -13 67q-14 31 -36 54q-24 24 -53 37q-32 14 -65 15v-346z" />
    <glyph glyph-name="S.001" unicode="S" horiz-adv-x="314" 
d="M11 113q49 -49 110 -49q22 0 46 8q22 7 39 23q8 7 14.5 15.5t11.5 19.5q10 19 10 45q-2 46 -58 126l-52 73q-91 127 -91 192q0 29 12 55q10 24 30 42q17 17 42 28q24 9 50 9q61 0 101 -52q-40 -40 -44 -40l1 1q-35 29 -65 29q-67 0 -67 -65q0 -35 53 -115l52 -77
q95 -143 95 -219q0 -36 -12 -66t-34 -52q-23 -23 -54 -35q-30 -13 -70 -13q-59 0 -120 37v80z" />
    <glyph glyph-name="T.001" unicode="T" horiz-adv-x="327" 
d="M132 0v636h-120v63h303v-63h-120v-636h-63z" />
    <glyph glyph-name="U.001" unicode="U" horiz-adv-x="468" 
d="M413 699v-520q0 -35 -14 -68q-15 -33 -39 -57q-26 -26 -57 -39q-33 -15 -69 -15q-37 0 -68 15q-32 13 -57 39q-26 24 -39 57q-15 31 -15 68v520h62v-520q0 -23 9 -44q7 -20 24 -37q18 -18 37 -26q20 -10 47 -10q25 0 46 10q21 9 37 25q15 14 26 37q9 21 9 45v520h61z" />
    <glyph glyph-name="V" unicode="V" horiz-adv-x="383" 
d="M178 0l-173 699h64l123 -490l121 490h65l-174 -699h-26z" />
    <glyph glyph-name="W.001" unicode="W" horiz-adv-x="692" 
d="M178 0l-173 699h64l123 -490l121 490h66l121 -490l122 490h65l-174 -699h-26l-141 569l-142 -569h-26z" />
    <glyph glyph-name="X.001" unicode="X" horiz-adv-x="386" 
d="M8 0l151 353l-149 346h69l114 -266l114 266h69l-149 -346l151 -353h-68l-117 272l-117 -272h-68z" />
    <glyph glyph-name="Y.001" unicode="Y" horiz-adv-x="529" 
d="M233 0v352l-234 347h76l190 -281l191 281h76l-236 -347v-352h-63z" />
    <glyph glyph-name="Z.001" unicode="Z" horiz-adv-x="311" 
d="M10 636v63h291l-205 -636h205v-63h-291l204 636h-204z" />
    <glyph glyph-name="bracketleft" unicode="[" horiz-adv-x="199" 
d="M195 0h-150v780h150v-51h-97v-679h97v-50z" />
    <glyph glyph-name="backslash" unicode="\" horiz-adv-x="417" 
d="M396 24l-48 -24l-326 692l48 24z" />
    <glyph glyph-name="bracketright" unicode="]" horiz-adv-x="199" 
d="M4 50h97v679h-97v51h150v-780h-150v50z" />
    <glyph glyph-name="asciicircum" unicode="^" horiz-adv-x="297" 
d="M266 685l-24 -38l-93 79l-94 -79l-24 38l118 96z" />
    <glyph glyph-name="underscore" unicode="_" horiz-adv-x="390" 
d="M390 -78h-390v31h390v-31z" />
    <glyph glyph-name="grave" unicode="`" 
d="M168 609l-71 90h62l43 -90h-34z" />
    <glyph glyph-name="A.001" unicode="a" horiz-adv-x="319" 
d="M173 569l142 -569h-62l-19 78h-149l-19 -78h-62l141 569h28zM218 138l-59 238l-59 -238h118z" />
    <glyph glyph-name="B.001" unicode="b" horiz-adv-x="307" 
d="M104 569q134 -21 134 -132q0 -60 -36 -91q19 -11 36 -27q18 -20 29 -40q11 -21 19 -46q7 -24 7 -47q0 -41 -16 -74q-16 -34 -43 -59q-29 -26 -66 -39q-39 -14 -83 -14h-37v569h56zM109 60q26 0 50 11q11 5 21.5 12t18.5 16q16 16 27 40q9 22 9 47q0 27 -10 48
q-11 24 -27 40q-20 18 -41 28t-48 10v-252zM107 363q27 0 50 21q22 19 22 52q0 28 -21 51q-21 21 -51 21v-145z" />
    <glyph glyph-name="C.001" unicode="c" horiz-adv-x="337" 
d="M115 410q-39 -59 -39 -127q0 -49 19 -88q17 -40 50 -73t73 -50q40 -18 88 -18q20 0 21 1v-59q-1 -1 -21 -1q-57 0 -111 23q-53 22 -92 62q-40 39 -62 92q-23 54 -23 111q0 59 23 113q22 52 63 91q40 40 91 62t111 22q20 0 21 -1v-59q-1 1 -21 1q-59 0 -108 -27
q-52 -27 -83 -75z" />
    <glyph glyph-name="D" unicode="d" horiz-adv-x="374" 
d="M47 568q1 1 21 1q61 0 112 -22t91 -62t62 -90q23 -54 23 -110q0 -58 -22 -108q-22 -51 -62 -91q-39 -41 -91 -63q-54 -23 -113 -23h-21v568zM107 62q39 4 75 26q36 21 61 51q24 28 40 68q14 39 14 78q0 41 -15 79t-40 67q-24 29 -61 51q-36 20 -74 26v-446z" />
    <glyph glyph-name="E" unicode="e" horiz-adv-x="313" 
d="M48 569h252v-61h-191v-94h146v-60h-146v-294h191v-60h-252v569z" />
    <glyph glyph-name="F" unicode="f" horiz-adv-x="311" 
d="M299 508h-191v-94h146v-60h-146v-354h-60v569h251v-61z" />
    <glyph glyph-name="G" unicode="g" horiz-adv-x="359" 
d="M115 413q-39 -59 -39 -127q0 -40 15 -77q13 -38 39 -69q26 -32 60 -53q34 -23 75 -27v244h60l2 -305q-1 -1 -22 -1q-55 0 -109 23q-53 22 -91 61q-40 39 -63 92q-24 52 -24 112q0 59 23 113q22 52 63 91q40 40 91 62t111 22q20 0 21 -1v-59q-1 1 -21 1q-59 0 -108 -27
q-52 -27 -83 -75z" />
    <glyph glyph-name="H" unicode="h" horiz-adv-x="338" 
d="M229 569h61v-569h-61v354h-121v-354h-60v569h60v-155h121v155z" />
    <glyph glyph-name="I.001" unicode="i" horiz-adv-x="154" 
d="M107 569v-569h-60v569h60z" />
    <glyph glyph-name="J" unicode="j" horiz-adv-x="350" 
d="M61 154q2 -43 27 -68q24 -27 66 -27q20 0 35 7q18 8 30 19q12 12 20 29q8 18 8 37v418h59v-418q0 -30 -12 -57q-14 -29 -34 -49q-21 -21 -48 -33q-29 -12 -58 -12t-53 10q-13 5 -24.5 12t-21.5 16q-19 16 -33 41q-14 24 -18 52z" />
    <glyph glyph-name="K" unicode="k" horiz-adv-x="361" 
d="M48 0v569h60v-200l168 200h79l-226 -269l252 -300h-79l-194 231v-231h-60z" />
    <glyph glyph-name="L.001" unicode="l" horiz-adv-x="310" 
d="M300 0h-252v569h61v-509h191v-60z" />
    <glyph glyph-name="M.001" unicode="m" horiz-adv-x="528" 
d="M174 569l90 -362l90 362h29l141 -569h-62l-94 376l-93 -376h-21l-94 376l-94 -376h-62l142 569h28z" />
    <glyph glyph-name="N" unicode="n" horiz-adv-x="338" 
d="M76 569l154 -413v413h60v-569h-66l-116 310v-310h-60v569h28z" />
    <glyph glyph-name="O" unicode="o" horiz-adv-x="612" 
d="M594 283q0 -59 -22 -110t-62 -91q-39 -41 -91 -63q-53 -24 -113 -24q-57 0 -111 23q-53 22 -92 62q-40 39 -62 92q-23 54 -23 111q0 59 23 113q22 52 63 91q40 40 91 62t111 22t111 -22q26 -11 49 -26.5t43 -35.5q40 -40 62 -91q23 -54 23 -113zM115 410
q-39 -59 -39 -127q0 -49 19 -88q17 -40 50 -73t73 -50q40 -18 88 -18q46 0 88 18q40 17 73 50q30 30 50 73q18 40 18 88q0 45 -18 87q-19 42 -48 73q-30 30 -73 50q-41 19 -90 19q-59 0 -108 -27q-52 -27 -83 -75z" />
    <glyph glyph-name="P" unicode="p" horiz-adv-x="305" 
d="M108 243q27 2 48 13q22 10 39 29q16 18 27 42q10 21 10 49q0 26 -10 49q-11 22 -27 42q-17 18 -39 30q-11 5 -23 8.5t-25 4.5v-267zM108 0h-60v569l60 -1q36 -1 70 -17q32 -16 58 -42q25 -25 40 -60q14 -36 14 -73q0 -36 -14 -72t-39 -61q-26 -26 -58 -42
q-31 -15 -71 -17v-184z" />
    <glyph glyph-name="Q" unicode="q" horiz-adv-x="609" 
d="M594 288q0 -40 -10 -74q-11 -39 -28 -69q-20 -33 -45 -60q-26 -26 -59 -45q24 -49 70 -52v-61q-28 7 -43 12q-16 4 -31 14q-14 9 -24 24q-5 8 -11 17.5t-11 21.5q-35 -16 -96 -16q-58 0 -112 23q-53 22 -92 62q-38 38 -61 92t-23 111q0 59 23 113q22 52 63 91
q40 40 91 62t111 22t111 -22q26 -11 49 -26.5t43 -35.5q40 -40 62 -91q23 -54 23 -113zM395 136q5 -5 9.5 -11t8.5 -11t7.5 -11t5.5 -11q109 69 109 196q0 45 -17 88q-19 43 -49 73t-73 50q-42 18 -90 18t-88 -18q-43 -20 -73 -50q-33 -33 -50 -73q-19 -41 -19 -88
q0 -49 19 -88q17 -40 50 -73t73 -50q40 -18 88 -18t69 10q-13 22 -39 43z" />
    <glyph glyph-name="R" unicode="r" horiz-adv-x="315" 
d="M108 570q37 -2 72 -18q17 -8 31 -19t27 -24q24 -27 39 -61q14 -36 14 -71q0 -26 -8 -55q-9 -29 -24 -51q-8 -11 -17 -21.5t-20 -19.5q-21 -18 -47 -29q2 -4 5 -7.5t6 -8.5t6.5 -10.5t7.5 -12.5l24 -47q23 -45 71 -59v-61q-17 5 -29.5 10t-22.5 10q-20 8 -32 18
q-12 8 -20 22q-4 7 -8 14.5t-8 17.5l-10 24l-4.5 9t-6.5 12q-8 13 -21 30l-13 13l-7 7q-2 1 -3 2t-3 2h2v-185h-61v569h60zM108 244q24 2 46 12t40 28t28 41q10 21 10 52q0 26 -9 50q-11 24 -27 41q-17 18 -39 30q-11 5 -23.5 8.5t-25.5 4.5v-267z" />
    <glyph glyph-name="S" unicode="s" horiz-adv-x="261" 
d="M10 106q50 -47 97 -47q14 0 31 6q8 3 15 7.5t14 9.5q13 11 20 27q8 16 8 34q0 26 -46 99l-42 58q-73 100 -73 155q0 50 32 82q31 31 80 31q51 0 87 -47l-40 -37q-28 25 -53 25q-49 0 -49 -45q0 -37 73 -137q87 -140 87 -193q0 -27 -11 -54q-10 -25 -30 -43
q-20 -20 -45 -30q-27 -11 -57 -11q-48 0 -98 32v78z" />
    <glyph glyph-name="T" unicode="t" horiz-adv-x="269" 
d="M105 0v508h-96v61h251v-61h-95v-508h-60z" />
    <glyph glyph-name="U" unicode="u" horiz-adv-x="384" 
d="M340 569v-423q0 -31 -11 -59q-12 -28 -32 -48t-47 -32t-58 -12t-56 12q-27 12 -47 32q-21 19 -33 47q-12 27 -12 57v426h59l1 -426q1 -38 27 -63q26 -26 61 -26q20 0 35 7q16 6 28 18q11 11 19 29q7 15 7 35v426h59z" />
    <glyph glyph-name="V.001" unicode="v" horiz-adv-x="320" 
d="M146 0l-142 569h62l94 -377l94 377h62l-142 -569h-28z" />
    <glyph glyph-name="W" unicode="w" horiz-adv-x="567" 
d="M146 0l-142 569h62l94 -377l94 377h59l94 -377l94 377h62l-142 -569h-28l-109 440l-110 -440h-28z" />
    <glyph glyph-name="X" unicode="x" horiz-adv-x="324" 
d="M6 0l123 287l-121 282h65l89 -206l88 206h65l-121 -282l124 -287h-66l-90 210l-91 -210h-65z" />
    <glyph glyph-name="Y" unicode="y" horiz-adv-x="450" 
d="M195 0v285l-193 284h73l150 -221l149 221h73l-192 -284v-285h-60z" />
    <glyph glyph-name="Z" unicode="z" horiz-adv-x="262" 
d="M10 508v61h244l-164 -509h162v-60h-244l164 508h-162z" />
    <glyph glyph-name="braceleft" unicode="{" horiz-adv-x="213" 
d="M207 -83q-125 5 -125 142v145q0 115 -76 127v31q76 10 76 118v154q0 136 125 142v-41q-45 -3 -61 -28q-17 -26 -17 -87v-143q0 -109 -71 -130v-2q71 -23 71 -137v-135q0 -63 18 -88q16 -26 60 -27v-41z" />
    <glyph glyph-name="bar" unicode="|" horiz-adv-x="136" 
d="M45 -71v849h46v-849h-46z" />
    <glyph glyph-name="braceright" unicode="}" horiz-adv-x="213" 
d="M6 -42q42 1 60 27q18 25 18 88v135q0 114 71 137v2q-71 21 -71 130v143q0 61 -17 87q-16 25 -61 28v41q125 -6 125 -142v-154q0 -108 76 -118v-31q-76 -12 -76 -127v-145q0 -137 -125 -142v41z" />
    <glyph glyph-name="asciitilde" unicode="~" horiz-adv-x="513" 
d="M468 352q-8 -128 -119 -128q-49 0 -101 42q-49 40 -83 40q-64 0 -70 -77h-48q6 128 119 128q49 0 98 -40q52 -43 87 -43q61 0 70 78h47z" />
    <glyph glyph-name="currency" unicode="&#xa4;" horiz-adv-x="416" 
d="M76 453q8 29 20 55t26 49t31 42.5t36 36.5q39 33 82 50q45 17 93 17q16 0 17 -1v-61q-1 1 -17 1q-38 0 -71 -13q-36 -14 -65 -36q-30 -21 -55 -56q-12 -17 -21.5 -35.5t-16.5 -38.5l-4 -10h170v-53h-182q-4 -12 -4 -51q0 -17 1 -18h185v-53h-178q10 -47 33 -88
q11 -20 24.5 -38t29.5 -32q31 -30 71 -46q40 -17 83 -17h17v-61q-1 -1 -17 -1q-54 0 -102 22q-48 20 -88 59q-39 37 -66 90q-29 51 -39 112h-42v53h37q-1 1 -1 18q0 25 3 51h-39v53h49z" />
    <glyph glyph-name="brokenbar" unicode="&#xa6;" horiz-adv-x="143" 
d="M49 410v366h46v-366h-46zM48 -60v366h46v-366h-46z" />
    <glyph glyph-name="section" unicode="&#xa7;" horiz-adv-x="477" 
d="M148 -36q-59 0 -120 37v81q53 -50 110 -50q22 0 46 8q22 7 39 23q8 7 14.5 15.5t11.5 19.5q10 19 10 45q-2 47 -58 127l-52 72q-23 32 -40 59.5t-28 51.5q-23 48 -23 83q0 27 11 52q11 26 29 42q17 17 43 28q23 10 52 10q2 23 14 43q13 21 30 35q18 15 41 24q24 8 46 8
q64 0 101 -52l-42 -39q-38 29 -70 29q-29 0 -45 -19q-17 -20 -17 -46q0 -30 53 -116l38 -56q79 -135 81 -135h1l-1 1q28 -52 28 -105q0 -62 -38 -108q-39 -47 -105 -57l-18 -37q-45 -74 -142 -74zM340 160q52 33 52 92q0 38 -84 163l-27 37q-14 20 -26.5 39t-22.5 38
q-20 35 -33 68l-3 8l-11 1q-67 0 -67 -64q0 -20 14 -50q13 -29 39 -66l52 -76q90 -132 95 -201z" />
    <glyph glyph-name="dieresis" unicode="&#xa8;" 
d="M181 628v73h64v-73h-64zM55 628v73h63v-73h-63z" />
    <glyph glyph-name="copyright" unicode="&#xa9;" horiz-adv-x="575" 
d="M543 250q0 -49 -20 -97q-21 -47 -56 -82t-81 -56q-47 -21 -98 -21t-99 20q-47 19 -82 55q-36 35 -55 82q-20 48 -20 99q0 50 20 98q10 23 24 43.5t31 38.5q35 35 81 56q48 20 100 20q51 0 99 -20q46 -21 81 -56q34 -35 55 -82q20 -48 20 -98zM177 251q0 -26 11 -51
q11 -26 29 -42q17 -18 43 -29q25 -11 51 -11h14v-39q-1 -1 -14 -1q-32 0 -65 14q-32 13 -55 37q-24 23 -38 55q-15 31 -15 67q0 34 14 67q13 30 38 55q23 23 55 37q33 14 66 14q13 0 14 -1v-39q-1 1 -14 1q-30 0 -57 -11q-26 -12 -42 -31q-18 -21 -26 -43q-9 -24 -9 -49z
M491 251q0 42 -16 78t-45 65t-65 45t-78 16t-77 -16q-36 -16 -65 -45t-45 -65q-17 -39 -17 -78q0 -40 17 -79q8 -19 19 -35t25 -30q27 -28 65 -44q39 -17 78 -17q43 0 79 16q37 16 65 44q28 29 44 66q16 36 16 79z" />
    <glyph glyph-name="guillemotleft" unicode="&#xab;" horiz-adv-x="360" 
d="M314 82h-51l-111 159l111 159h51l-100 -159zM188 82h-51l-111 159l111 159h51l-100 -159z" />
    <glyph glyph-name="logicalnot" unicode="&#xac;" horiz-adv-x="419" 
d="M370 292v-143h-48v96h-273v47h321z" />
    <glyph glyph-name="softhyphen" unicode="&#xad;" horiz-adv-x="351" 
d="M322 353h-293v43h293v-43z" />
    <glyph glyph-name="registered" unicode="&#xae;" horiz-adv-x="574" 
d="M267 402q9 -1 18 -3.5t17 -6.5q15 -8 29 -22q13 -14 20 -32q7 -17 7 -37q0 -16 -4 -28q-5 -14 -12 -27t-18 -22q-9 -9 -21 -14q1 0 9 -15l12 -23q10 -20 36 -28v-41q-52 15 -64 40l-11 23q-6 13 -15 24l-3 4v-86h-40v294h40zM267 239q7 0 16 6q9 5 17 14q7 7 14 19
q5 12 5 23q0 41 -37 56l-15 6v-124zM542 250q0 -49 -20 -97q-21 -47 -56 -82t-81 -56q-47 -21 -98 -21t-97 21q-47 19 -82 55q-36 35 -56 82q-21 46 -21 98q0 51 21 98q19 45 56 82q35 35 82 56q48 20 97 20q51 0 99 -20q47 -21 81 -55q33 -33 55 -82q20 -48 20 -99z
M491 251q0 41 -16 77q-17 37 -45 66q-29 28 -66 45q-36 16 -77 16q-43 0 -79 -16q-38 -17 -65 -45q-28 -28 -44 -65q-17 -39 -17 -78q0 -43 16 -79q17 -39 44 -66t66 -44q36 -16 79 -16q39 0 78 17q37 16 65 44q28 27 45 65q16 36 16 79z" />
    <glyph glyph-name="degree" unicode="&#xb0;" horiz-adv-x="224" 
d="M213 675q0 -20 -8 -39q-7 -18 -22 -33t-32 -22q-21 -8 -39 -8q-19 0 -38 8q-18 7 -33 22t-22 33q-8 19 -8 39q0 21 9 39q7 17 22 32t32 22q19 8 38 8t40 -8q18 -9 32 -23q13 -13 21 -32q8 -21 8 -38zM171 675q0 22 -17 41q-19 17 -42 17q-24 0 -41 -17t-17 -41
q0 -26 19 -42q19 -17 39 -17q24 0 42 18q17 17 17 41z" />
    <glyph glyph-name="plusminus" unicode="&#xb1;" horiz-adv-x="381" 
d="M337 244h-124v-127h-43v127h-126v42h126v126h43v-126h124v-42zM337 0h-293v42h293v-42z" />
    <glyph glyph-name="acute" unicode="&#xb4;" 
d="M140 699h62l-71 -90h-34z" />
    <glyph glyph-name="mu" unicode="&#xb5;" horiz-adv-x="392" 
d="M109 143q2 -2 5 -16q1 -12 11 -30q9 -16 26 -30q16 -13 47 -13q21 0 36 7q16 7 28 19q11 11 19 28q7 15 7 35v428h58v-425q0 -31 -11 -59q-12 -28 -32 -48t-47 -32t-58 -12q-52 0 -89 30v-123h-60v670h60v-429z" />
    <glyph glyph-name="paragraph" unicode="&#xb6;" horiz-adv-x="485" 
d="M193 311q-35 3 -65 18q-30 13 -54 37q-23 22 -36 54q-14 31 -14 65v8q0 73 46 119q45 47 130 48l225 1v-771h-63v709h-104v-709h-65v421z" />
    <glyph glyph-name="periodcentered" unicode="&#xb7;" horiz-adv-x="148" 
d="M73 177q-18 0 -28 13q-11 13 -11 27t11 28q10 12 28 12q16 0 29 -11q11 -13 11 -29q0 -13 -11 -27q-10 -13 -29 -13z" />
    <glyph glyph-name="cedilla" unicode="&#xb8;" 
d="M166 -7q51 -8 51 -56q0 -71 -93 -71l-41 2v46l51 -3q34 0 34 26q0 23 -51 23v57h49v-24z" />
    <glyph glyph-name="guillemotright" unicode="&#xbb;" horiz-adv-x="360" 
d="M146 241l-100 159h51l111 -159l-111 -159h-51zM273 241l-101 159h51l111 -159l-111 -159h-51z" />
    <glyph glyph-name="Aacute" unicode="&#xc1;" horiz-adv-x="385" 
d="M205 699l174 -699h-65l-24 98h-195l-25 -98h-64l173 699h26zM274 161l-81 328l-83 -328h164zM198 824h62l-71 -90h-34z" />
    <glyph glyph-name="Acircumflex.001" unicode="&#xc2;" horiz-adv-x="385" 
d="M205 699l174 -699h-65l-24 98h-195l-25 -98h-64l173 699h26zM274 161l-81 328l-83 -328h164zM277 725h-49l-34 50l-34 -50h-48l59 100h47z" />
    <glyph glyph-name="Adieresis.001" unicode="&#xc4;" horiz-adv-x="385" 
d="M205 699l174 -699h-65l-24 98h-195l-25 -98h-64l173 699h26zM274 161l-81 328l-83 -328h164zM224 751v73h64v-73h-64zM98 751v73h63v-73h-63z" />
    <glyph glyph-name="Ccedilla" unicode="&#xc7;" horiz-adv-x="406" 
d="M307 0q-62 13 -114 45q-54 33 -91 78q-39 48 -59 103q-21 57 -21 121q0 74 28 137q28 64 76 113q47 47 113 76q63 28 137 28q20 0 21 -1v-61q-1 1 -21 1q-58 0 -112 -23q-53 -23 -93 -63q-41 -41 -63 -93q-24 -53 -24 -114q0 -59 23 -113q22 -53 63 -93q39 -40 92 -63
q54 -23 114 -23h21v-61q-1 -1 -21 -1q-29 0 -30 1v-10q52 -6 52 -51q0 -66 -89 -66h-22q-13 0 -14 1v37l39 -3q47 0 47 31q0 28 -52 28v39z" />
    <glyph glyph-name="Eacute.001" unicode="&#xc9;" horiz-adv-x="376" 
d="M59 699h303v-63h-239v-131h183v-63h-183v-379h239v-63h-303v699zM223 824h62l-71 -90h-34z" />
    <glyph glyph-name="Edieresis.001" unicode="&#xcb;" horiz-adv-x="376" 
d="M59 699h303v-63h-239v-131h183v-63h-183v-379h239v-63h-303v699zM244 754v73h64v-73h-64zM118 754v73h63v-73h-63z" />
    <glyph glyph-name="Iacute" unicode="&#xcd;" horiz-adv-x="181" 
d="M122 699v-699h-63v699h63zM101 824h62l-71 -90h-34z" />
    <glyph glyph-name="Icircumflex" unicode="&#xce;" horiz-adv-x="181" 
d="M122 699v-699h-63v699h63zM173 725h-49l-34 50l-34 -50h-48l59 100h47z" />
    <glyph glyph-name="Oacute" unicode="&#xd3;" horiz-adv-x="752" 
d="M730 349q0 -74 -28 -137q-29 -66 -76 -113q-48 -48 -112 -76q-63 -28 -138 -28q-73 0 -136 28q-32 14 -60.5 33t-52.5 44q-25 24 -44 52.5t-33 60.5q-28 63 -28 136q0 74 28 137q26 63 75 113q47 47 113 76q63 28 138 28q74 0 137 -28q64 -28 113 -76q48 -49 76 -113
q28 -63 28 -137zM133 511q-50 -74 -50 -162q0 -58 23 -112t62 -93q40 -41 93 -63q52 -24 115 -24q59 0 112 24q52 22 93 63q39 38 64 92q23 54 23 113q0 58 -23 113q-24 52 -63 93q-40 40 -93 64q-54 23 -113 23q-72 0 -136 -34q-66 -35 -107 -97zM386 824h62l-71 -90h-34z
" />
    <glyph glyph-name="Ocircumflex.001" unicode="&#xd4;" horiz-adv-x="752" 
d="M730 349q0 -74 -28 -137q-29 -66 -76 -113q-48 -48 -112 -76q-63 -28 -138 -28q-73 0 -136 28q-32 14 -60.5 33t-52.5 44q-25 24 -44 52.5t-33 60.5q-28 63 -28 136q0 74 28 137q26 63 75 113q47 47 113 76q63 28 138 28q74 0 137 -28q64 -28 113 -76q48 -49 76 -113
q28 -63 28 -137zM133 511q-50 -74 -50 -162q0 -58 23 -112t62 -93q40 -41 93 -63q52 -24 115 -24q59 0 112 24q52 22 93 63q39 38 64 92q23 54 23 113q0 58 -23 113q-24 52 -63 93q-40 40 -93 64q-54 23 -113 23q-72 0 -136 -34q-66 -35 -107 -97zM458 725h-49l-34 50
l-34 -50h-48l59 100h47z" />
    <glyph glyph-name="Odieresis" unicode="&#xd6;" horiz-adv-x="752" 
d="M730 349q0 -74 -28 -137q-29 -66 -76 -113q-48 -48 -112 -76q-63 -28 -138 -28q-73 0 -136 28q-32 14 -60.5 33t-52.5 44q-25 24 -44 52.5t-33 60.5q-28 63 -28 136q0 74 28 137q26 63 75 113q47 47 113 76q63 28 138 28q74 0 137 -28q64 -28 113 -76q48 -49 76 -113
q28 -63 28 -137zM133 511q-50 -74 -50 -162q0 -58 23 -112t62 -93q40 -41 93 -63q52 -24 115 -24q59 0 112 24q52 22 93 63q39 38 64 92q23 54 23 113q0 58 -23 113q-24 52 -63 93q-40 40 -93 64q-54 23 -113 23q-72 0 -136 -34q-66 -35 -107 -97zM407 754v73h64v-73h-64z
M281 754v73h63v-73h-63z" />
    <glyph glyph-name="multiply" unicode="&#xd7;" horiz-adv-x="419" 
d="M343 167l-134 134l-133 -134l-38 37l134 134l-134 135l38 37l133 -135l134 135l38 -37l-134 -135l134 -134z" />
    <glyph glyph-name="Uacute" unicode="&#xda;" horiz-adv-x="468" 
d="M413 699v-520q0 -35 -14 -68q-15 -33 -39 -57q-26 -26 -57 -39q-33 -15 -69 -15q-37 0 -68 15q-32 13 -57 39q-26 24 -39 57q-15 31 -15 68v520h62v-520q0 -23 9 -44q7 -20 24 -37q18 -18 37 -26q20 -10 47 -10q25 0 46 10q21 9 37 25q15 14 26 37q9 21 9 45v520h61z
M244 824h62l-71 -90h-34z" />
    <glyph glyph-name="Udieresis.001" unicode="&#xdc;" horiz-adv-x="468" 
d="M413 699v-520q0 -35 -14 -68q-15 -33 -39 -57q-26 -26 -57 -39q-33 -15 -69 -15q-37 0 -68 15q-32 13 -57 39q-26 24 -39 57q-15 31 -15 68v520h62v-520q0 -23 9 -44q7 -20 24 -37q18 -18 37 -26q20 -10 47 -10q25 0 46 10q21 9 37 25q15 14 26 37q9 21 9 45v520h61z
M265 754v73h64v-73h-64zM139 754v73h63v-73h-63z" />
    <glyph glyph-name="Yacute" unicode="&#xdd;" horiz-adv-x="529" 
d="M233 0v352l-234 347h76l190 -281l191 281h76l-236 -347v-352h-63zM275 829h62l-71 -90h-34z" />
    <glyph glyph-name="germandbls" unicode="&#xdf;" horiz-adv-x="376" 
d="M145 95q37 -31 73 -31q19 0 34 7q15 5 29 18q13 12 21 29q8 18 8 36q-2 37 -46 105l-42 63q-74 110 -74 175q2 25 10 45q9 20 24 35t35 24q19 9 42 9q-26 26 -63 26q-18 0 -36 -8q-17 -8 -29 -21q-7 -7 -11.5 -15t-8.5 -17q-8 -19 -8 -38v-452h-59v452q0 31 12 61
q11 29 32 52q19 22 48 36q27 13 60 13q115 0 152 -139l-40 -40q-32 26 -53 26q-49 0 -49 -48q1 -7 3.5 -16.5t7.5 -21.5q10 -27 31 -60l41 -66q19 -31 33.5 -57.5t24.5 -49.5q19 -45 19 -83q0 -31 -10 -57q-11 -28 -30 -47q-21 -22 -44 -32q-26 -12 -57 -12q-41 0 -80 21v78
z" />
    <glyph glyph-name="Abreve" unicode="&#x102;" horiz-adv-x="385" 
d="M205 699l174 -699h-65l-24 98h-195l-25 -98h-64l173 699h26zM274 161l-81 328l-83 -328h164zM141 823q1 -24 13 -39q10 -13 37 -13t37 13q12 15 13 39h37q0 -55 -22 -80q-23 -27 -65 -27t-64 27q-23 26 -23 80h37z" />
    <glyph glyph-name="Aogonek.001" unicode="&#x104;" horiz-adv-x="385" 
d="M205 699l174 -699h-65l-24 98h-195l-25 -98h-64l173 699h26zM274 161l-81 328l-83 -328h164zM379 0q-57 -45 -57 -80q0 -24 30 -24h34v-55h-34q-83 0 -83 63q0 47 70 101z" />
    <glyph glyph-name="Aogonek" unicode="&#x105;" horiz-adv-x="319" 
d="M173 569l142 -569h-62l-19 78h-149l-19 -78h-62l141 569h28zM218 138l-59 238l-59 -238h118zM315 0q-57 -45 -57 -80q0 -24 30 -24h34v-55h-34q-83 0 -83 63q0 47 70 101z" />
    <glyph glyph-name="Cacute" unicode="&#x106;" horiz-adv-x="405" 
d="M396 641q-1 1 -20 1q-58 0 -112 -23q-53 -22 -94 -63t-63 -93q-24 -54 -24 -114q0 -58 23 -112t62 -93q40 -41 93 -63q52 -24 115 -24h20v-61q-1 -1 -20 -1q-73 0 -136 28q-32 14 -60.5 33t-52.5 44q-25 24 -44 52.5t-33 60.5q-28 63 -28 136q0 74 28 137q26 63 75 113
q47 47 113 76q63 28 138 28q19 0 20 -1v-61zM284 824h62l-71 -90h-34z" />
    <glyph glyph-name="Ccaron" unicode="&#x10c;" horiz-adv-x="405" 
d="M396 641q-1 1 -20 1q-58 0 -112 -23q-53 -22 -94 -63t-63 -93q-24 -54 -24 -114q0 -58 23 -112t62 -93q40 -41 93 -63q52 -24 115 -24h20v-61q-1 -1 -20 -1q-73 0 -136 28q-32 14 -60.5 33t-52.5 44q-25 24 -44 52.5t-33 60.5q-28 63 -28 136q0 74 28 137q26 63 75 113
q47 47 113 76q63 28 138 28q19 0 20 -1v-61zM339 725h-47l-59 100h48l34 -50l34 50h49z" />
    <glyph glyph-name="Dcaron" unicode="&#x10e;" horiz-adv-x="455" 
d="M59 699h52q103 0 205 -93q117 -108 117 -256q0 -53 -15 -102q-8 -25 -19 -48t-25 -44q-29 -44 -68 -76q-20 -17 -42 -30t-47 -23q-65 -27 -106 -27h-52v699zM122 63q52 7 99 33q45 25 79 64q33 37 53 88q19 47 19 102q0 54 -19 102q-20 48 -54 87q-17 19 -36.5 35
t-42.5 29q-47 26 -98 33v-573zM217 725h-47l-59 100h48l34 -50l34 50h49z" />
    <glyph glyph-name="Dcroat.001" unicode="&#x110;" horiz-adv-x="456" 
d="M190 402v-53h-68v-286q27 4 52 12.5t48 21.5q45 25 79 64q32 36 52 87q19 47 19 102q0 53 -19 101q-20 50 -53 87q-17 19 -36.5 35t-42.5 29t-48 21.5t-51 12.5v-234h68zM59 402v297h20q72 0 137 -27q63 -28 113 -75q47 -45 76 -110q28 -63 28 -137q0 -73 -28 -136
q-29 -65 -76 -111q-48 -48 -112 -75q-63 -28 -138 -28h-20v348h-49v54h49z" />
    <glyph glyph-name="Eogonek.001" unicode="&#x118;" horiz-adv-x="376" 
d="M59 699h303v-63h-239v-131h183v-63h-183v-379h239v-63h-303v699zM362 0q-57 -45 -57 -80q0 -24 30 -24h34v-55h-34q-83 0 -83 63q0 47 70 101z" />
    <glyph glyph-name="Ecaron" unicode="&#x11a;" horiz-adv-x="376" 
d="M59 699h303v-63h-239v-131h183v-63h-183v-379h239v-63h-303v699zM236 725h-47l-59 100h48l34 -50l34 50h49z" />
    <glyph glyph-name="Lacute" unicode="&#x139;" horiz-adv-x="374" 
d="M362 0h-303v699h64v-636h239v-63zM111 824h62l-71 -90h-34z" />
    <glyph glyph-name="Lcaron.001" unicode="&#x13d;" horiz-adv-x="374" 
d="M362 0h-303v699h64v-636h239v-63zM221 644q0 -82 -58 -82v27q29 0 29 55h-29v57h58v-57z" />
    <glyph glyph-name="Lcaron" unicode="&#x13e;" horiz-adv-x="310" 
d="M300 0h-252v569h61v-509h191v-60zM226 512q0 -82 -58 -82v27q29 0 29 55h-29v57h58v-57z" />
    <glyph glyph-name="Lslash.001" unicode="&#x141;" horiz-adv-x="377" 
d="M126 369v-306h239v-63h-303v308l-39 -37l-30 32l69 66v330h64v-269l39 36l30 -31z" />
    <glyph glyph-name="Lslash" unicode="&#x142;" horiz-adv-x="317" 
d="M116 298v-238h191v-60h-252v240l-34 -32l-30 32l65 61v268h60v-210l47 44l30 -32z" />
    <glyph glyph-name="Nacute.001" unicode="&#x143;" horiz-adv-x="408" 
d="M84 699l203 -544v544h62v-699h-72l-155 415v-415h-63v699h25zM215 824h62l-71 -90h-34z" />
    <glyph glyph-name="Ncaron" unicode="&#x147;" horiz-adv-x="408" 
d="M84 699l203 -544v544h62v-699h-72l-155 415v-415h-63v699h25zM228 725h-47l-59 100h48l34 -50l34 50h49z" />
    <glyph glyph-name="Ohungarumlaut" unicode="&#x150;" horiz-adv-x="752" 
d="M730 349q0 -74 -28 -137q-29 -66 -76 -113q-48 -48 -112 -76q-63 -28 -138 -28q-73 0 -136 28q-32 14 -60.5 33t-52.5 44q-25 24 -44 52.5t-33 60.5q-28 63 -28 136q0 74 28 137q26 63 75 113q47 47 113 76q63 28 138 28q74 0 137 -28q64 -28 113 -76q48 -49 76 -113
q28 -63 28 -137zM133 511q-50 -74 -50 -162q0 -58 23 -112t62 -93q40 -41 93 -63q52 -24 115 -24q59 0 112 24q52 22 93 63q39 38 64 92q23 54 23 113q0 58 -23 113q-24 52 -63 93q-40 40 -93 64q-54 23 -113 23q-72 0 -136 -34q-66 -35 -107 -97zM386 733l56 93h59l-81 -93
h-34zM307 733l49 93h59l-73 -93h-35z" />
    <glyph glyph-name="Racute" unicode="&#x154;" horiz-adv-x="379" 
d="M122 699q47 -2 89 -21q40 -20 72 -51q30 -30 49 -74q18 -42 18 -89q0 -154 -148 -218q5 -6 9.5 -12t9.5 -13q10 -15 17 -29l29 -59q40 -64 89 -75v-63q-97 30 -126 83l-26 55q-5 11 -10 20.5t-10 17.5t-10 15t-10 13l-17 17l-18 14q-6 0 -7 -1v-229h-63v699h63zM122 291
q37 2 67 16t53 38q21 21 35 54q12 31 12 65q0 37 -13 67q-14 31 -36 54q-24 24 -53 37q-32 14 -65 15v-346zM198 824h62l-71 -90h-34z" />
    <glyph glyph-name="Rcaron" unicode="&#x158;" horiz-adv-x="379" 
d="M122 699q47 -2 89 -21q40 -20 72 -51q30 -30 49 -74q18 -42 18 -89q0 -154 -148 -218q5 -6 9.5 -12t9.5 -13q10 -15 17 -29l29 -59q40 -64 89 -75v-63q-97 30 -126 83l-26 55q-5 11 -10 20.5t-10 17.5t-10 15t-10 13l-17 17l-18 14q-6 0 -7 -1v-229h-63v699h63zM122 291
q37 2 67 16t53 38q21 21 35 54q12 31 12 65q0 37 -13 67q-14 31 -36 54q-24 24 -53 37q-32 14 -65 15v-346zM211 725h-47l-59 100h48l34 -50l34 50h49z" />
    <glyph glyph-name="Sacute.001" unicode="&#x15a;" horiz-adv-x="314" 
d="M11 113q49 -49 110 -49q22 0 46 8q22 7 39 23q8 7 14.5 15.5t11.5 19.5q10 19 10 45q-2 46 -58 126l-52 73q-91 127 -91 192q0 29 12 55q10 24 30 42q17 17 42 28q24 9 50 9q61 0 101 -52q-40 -40 -44 -40l1 1q-35 29 -65 29q-67 0 -67 -65q0 -35 53 -115l52 -77
q95 -143 95 -219q0 -36 -12 -66t-34 -52q-23 -23 -54 -35q-30 -13 -70 -13q-59 0 -120 37v80zM167 824h62l-71 -90h-34z" />
    <glyph glyph-name="Sacute" unicode="&#x15b;" horiz-adv-x="261" 
d="M10 106q50 -47 97 -47q14 0 31 6q8 3 15 7.5t14 9.5q13 11 20 27q8 16 8 34q0 26 -46 99l-42 58q-73 100 -73 155q0 50 32 82q31 31 80 31q51 0 87 -47l-40 -37q-28 25 -53 25q-49 0 -49 -45q0 -37 73 -137q87 -140 87 -193q0 -27 -11 -54q-10 -25 -30 -43
q-20 -20 -45 -30q-27 -11 -57 -11q-48 0 -98 32v78zM146 699h62l-71 -90h-34z" />
    <glyph glyph-name="Scedilla.001" unicode="&#x15e;" horiz-adv-x="314" 
d="M172 -7q51 -8 51 -56q0 -71 -93 -71l-41 2v46l51 -3q34 0 34 26q0 23 -51 23v36q-58 4 -112 37v80q49 -49 110 -49q22 0 46 8q22 7 39 23q8 7 14.5 15.5t11.5 19.5q10 19 10 45q-2 46 -58 126l-52 73q-91 127 -91 192q0 29 12 55q10 24 30 42q17 17 42 28q24 9 50 9
q61 0 101 -52q-40 -40 -44 -40l1 1q-35 29 -65 29q-67 0 -67 -65q0 -35 53 -115l52 -77q95 -143 95 -219q0 -125 -129 -162v-7z" />
    <glyph glyph-name="Scedilla" unicode="&#x15f;" horiz-adv-x="261" 
d="M10 106q50 -47 97 -47q14 0 31 6q8 3 15 7.5t14 9.5q13 11 20 27q8 16 8 34q0 26 -46 99l-42 58q-73 100 -73 155q0 50 32 82q31 31 80 31q51 0 87 -47l-40 -37q-28 25 -53 25q-49 0 -49 -45q0 -37 73 -137q87 -140 87 -193q0 -27 -11 -54q-10 -25 -30 -43
q-20 -20 -45 -30q-27 -11 -57 -11q-48 0 -98 32v78zM148 -7q51 -8 51 -56q0 -71 -93 -71l-41 2v46l51 -3q34 0 34 26q0 23 -51 23v57h49v-24z" />
    <glyph glyph-name="Scaron.001" unicode="&#x160;" horiz-adv-x="314" 
d="M11 113q49 -49 110 -49q22 0 46 8q22 7 39 23q8 7 14.5 15.5t11.5 19.5q10 19 10 45q-2 46 -58 126l-52 73q-91 127 -91 192q0 29 12 55q10 24 30 42q17 17 42 28q24 9 50 9q61 0 101 -52q-40 -40 -44 -40l1 1q-35 29 -65 29q-67 0 -67 -65q0 -35 53 -115l52 -77
q95 -143 95 -219q0 -36 -12 -66t-34 -52q-23 -23 -54 -35q-30 -13 -70 -13q-59 0 -120 37v80zM180 725h-47l-59 100h48l34 -50l34 50h49z" />
    <glyph glyph-name="Scaron" unicode="&#x161;" horiz-adv-x="261" 
d="M10 106q50 -47 97 -47q14 0 31 6q8 3 15 7.5t14 9.5q13 11 20 27q8 16 8 34q0 26 -46 99l-42 58q-73 100 -73 155q0 50 32 82q31 31 80 31q51 0 87 -47l-40 -37q-28 25 -53 25q-49 0 -49 -45q0 -37 73 -137q87 -140 87 -193q0 -27 -11 -54q-10 -25 -30 -43
q-20 -20 -45 -30q-27 -11 -57 -11q-48 0 -98 32v78zM160 600h-47l-59 100h48l34 -50l34 50h49z" />
    <glyph glyph-name="Tcedilla.001" unicode="&#x162;" horiz-adv-x="327" 
d="M132 0v636h-120v63h303v-63h-120v-636h-63zM188 -7q51 -8 51 -56q0 -71 -93 -71l-41 2v46l51 -3q34 0 34 26q0 23 -51 23v57h49v-24z" />
    <glyph glyph-name="Tcaron" unicode="&#x164;" horiz-adv-x="327" 
d="M132 0v636h-120v63h303v-63h-120v-636h-63zM187 725h-47l-59 100h48l34 -50l34 50h49z" />
    <glyph glyph-name="Tcaron.001" unicode="&#x165;" horiz-adv-x="269" 
d="M105 0v508h-96v61h251v-61h-95v-508h-60zM158 600h-47l-59 100h48l34 -50l34 50h49z" />
    <glyph glyph-name="Uring" unicode="&#x16e;" horiz-adv-x="468" 
d="M413 699v-520q0 -35 -14 -68q-15 -33 -39 -57q-26 -26 -57 -39q-33 -15 -69 -15q-37 0 -68 15q-32 13 -57 39q-26 24 -39 57q-15 31 -15 68v520h62v-520q0 -23 9 -44q7 -20 24 -37q18 -18 37 -26q20 -10 47 -10q25 0 46 10q21 9 37 25q15 14 26 37q9 21 9 45v520h61z
M234 716q-29 0 -49 20t-20 49t20 49t49 20t49 -20t20 -49t-20 -49t-49 -20zM234 755q13 0 22 9q8 8 8 21q0 12 -8 22q-10 8 -22 8q-13 0 -21 -8q-9 -9 -9 -22q0 -14 9 -21q7 -9 21 -9z" />
    <glyph glyph-name="Uhungarumlaut.001" unicode="&#x170;" horiz-adv-x="468" 
d="M413 699v-520q0 -35 -14 -68q-15 -33 -39 -57q-26 -26 -57 -39q-33 -15 -69 -15q-37 0 -68 15q-32 13 -57 39q-26 24 -39 57q-15 31 -15 68v520h62v-520q0 -23 9 -44q7 -20 24 -37q18 -18 37 -26q20 -10 47 -10q25 0 46 10q21 9 37 25q15 14 26 37q9 21 9 45v520h61z
M244 733l56 93h59l-81 -93h-34zM165 733l49 93h59l-73 -93h-35z" />
    <glyph glyph-name="Zacute.001" unicode="&#x179;" horiz-adv-x="311" 
d="M10 636v63h291l-205 -636h205v-63h-291l204 636h-204zM166 824h62l-71 -90h-34z" />
    <glyph glyph-name="Zacute" unicode="&#x17a;" horiz-adv-x="262" 
d="M10 508v61h244l-164 -509h162v-60h-244l164 508h-162zM144 699h62l-71 -90h-34z" />
    <glyph glyph-name="Zdotaccent.001" unicode="&#x17b;" horiz-adv-x="311" 
d="M10 636v63h291l-205 -636h205v-63h-291l204 636h-204zM120 744v84h72v-84h-72z" />
    <glyph glyph-name="Zdotaccent" unicode="&#x17c;" horiz-adv-x="262" 
d="M10 508v61h244l-164 -509h162v-60h-244l164 508h-162zM99 619v84h72v-84h-72z" />
    <glyph glyph-name="Zcaron.001" unicode="&#x17d;" horiz-adv-x="311" 
d="M10 636v63h291l-205 -636h205v-63h-291l204 636h-204zM179 725h-47l-59 100h48l34 -50l34 50h49z" />
    <glyph glyph-name="Zcaron" unicode="&#x17e;" horiz-adv-x="262" 
d="M10 508v61h244l-164 -509h162v-60h-244l164 508h-162zM158 600h-47l-59 100h48l34 -50l34 50h49z" />
    <glyph glyph-name="caron" unicode="&#x2c7;" 
d="M173 600h-47l-59 100h48l34 -50l34 50h49z" />
    <glyph glyph-name="breve" unicode="&#x2d8;" 
d="M100 713q1 -24 13 -39q10 -13 37 -13t37 13q12 15 13 39h37q0 -55 -22 -80q-23 -27 -65 -27t-64 27q-23 26 -23 80h37z" />
    <glyph glyph-name="ogonek" unicode="&#x2db;" 
d="M201 0q-57 -45 -57 -80q0 -24 30 -24h34v-55h-34q-83 0 -83 63q0 47 70 101z" />
    <glyph glyph-name="hungarumlaut" unicode="&#x2dd;" 
d="M132 609l56 93h59l-81 -93h-34zM53 609l49 93h59l-73 -93h-35z" />
    <glyph glyph-name="endash" unicode="&#x2013;" horiz-adv-x="433" 
d="M397 236h-361v45h361v-45z" />
    <glyph glyph-name="emdash" unicode="&#x2014;" horiz-adv-x="654" 
d="M618 235h-582v45h582v-45z" />
    <glyph glyph-name="quoteleft" unicode="&#x2018;" horiz-adv-x="107" 
d="M82 625v-58h-58v58q0 81 58 81v-27q-28 0 -28 -54h28z" />
    <glyph glyph-name="quoteright" unicode="&#x2019;" horiz-adv-x="103" 
d="M84 642q0 -82 -58 -82v27q28 0 28 55h-28v57h58v-57z" />
    <glyph glyph-name="quotesinglbase" unicode="&#x201a;" horiz-adv-x="104" 
d="M81 0q0 -82 -58 -82v27q28 0 28 55h-28v58h58v-58z" />
    <glyph glyph-name="quotedblleft" unicode="&#x201c;" horiz-adv-x="208" 
d="M82 625v-58h-58v58q0 81 58 81v-27q-28 0 -28 -54h28zM183 625v-58h-58v58q0 81 58 81v-27q-28 0 -28 -54h28z" />
    <glyph glyph-name="quotedblright" unicode="&#x201d;" horiz-adv-x="205" 
d="M85 644q0 -82 -58 -82v27q28 0 28 55h-28v57h58v-57zM186 644q0 -82 -58 -82v27q28 0 28 55h-28v57h58v-57z" />
    <glyph glyph-name="quotedblbase" unicode="&#x201e;" horiz-adv-x="191" 
d="M81 0q0 -82 -58 -82v27q28 0 28 55h-28v58h58v-58zM168 0q0 -82 -58 -82v27q29 0 29 55h-29v58h58v-58z" />
    <glyph glyph-name="dagger" unicode="&#x2020;" horiz-adv-x="466" 
d="M254 699v-186h186v-42h-186v-470h-42v470h-186v42h186v186h42z" />
    <glyph glyph-name="daggerdbl" unicode="&#x2021;" horiz-adv-x="478" 
d="M218 699h42v-186h186v-42h-186v-140h186v-42h-186v-288h-42v288h-186v42h186v140h-186v42h186v186z" />
    <glyph glyph-name="bullet" unicode="&#x2022;" horiz-adv-x="246" 
d="M123 296q20 0 37 -15q15 -17 15 -37q0 -24 -16 -37q-17 -15 -36 -15q-22 0 -37 15t-15 37q0 21 16 37q15 15 36 15z" />
    <glyph glyph-name="ellipsis" unicode="&#x2026;" horiz-adv-x="426" 
d="M83 0h-64v64h64v-64zM245 0h-64v64h64v-64zM407 0h-64v64h64v-64z" />
    <glyph glyph-name="perthousand" unicode="&#x2030;" horiz-adv-x="991" 
d="M662 186q0 -189 -132 -189q-134 0 -134 189t134 189q132 0 132 -189zM454 186q0 -135 76 -135q74 0 74 135t-74 135q-76 0 -76 -135zM292 515q0 -189 -133 -189t-133 189t133 189t133 -189zM84 515q0 -135 75 -135t75 135t-75 135t-75 -135zM470 701h54l-313 -701h-54z
M965 186q0 -189 -133 -189t-133 189t133 189t133 -189zM757 186q0 -135 75 -135t75 135t-75 135t-75 -135z" />
    <glyph glyph-name="guilsinglleft" unicode="&#x2039;" horiz-adv-x="234" 
d="M188 82h-51l-111 159l111 159h51l-100 -159z" />
    <glyph glyph-name="guilsinglright" unicode="&#x203a;" horiz-adv-x="234" 
d="M147 241l-101 159h51l111 -159l-111 -159h-51z" />
    <glyph glyph-name="Euro" unicode="&#x20ac;" horiz-adv-x="416" 
d="M76 453l10 34q9 24 21 46t26 42t30 37.5t35 31.5q34 27 79 44q42 15 87 15q16 0 17 -1v-61q-1 1 -17 1q-40 0 -73 -13q-35 -13 -66 -38q-31 -23 -54 -56t-36 -72l-4 -10h170v-53h-182q-4 -12 -4 -51q0 -17 1 -18h185v-53h-178q5 -23 13 -45t19 -42t24.5 -38t29.5 -32
q16 -15 33.5 -27t37.5 -20q40 -17 84 -17h17v-61q-1 -1 -17 -1q-52 0 -103 23q-50 23 -90 61q-40 37 -67 90q-28 52 -35 109h-42v53h36v18q0 25 3 51h-39v53h49z" />
    <glyph glyph-name="trademark" unicode="&#x2122;" horiz-adv-x="492" 
d="M82 411v255h-54v34h146v-34h-54v-255h-38zM263 700l49 -175l49 175h19l81 -289h-39l-52 183l-50 -183h-16l-51 183l-51 -183h-39l81 289h19z" />
    </font>
</defs>
</svg>
