<?xml version="1.0" standalone="no"?>
<!DOCTYPE svg PUBLIC "-//W3C//DTD SVG 1.1//EN" "http://www.w3.org/Graphics/SVG/1.1/DTD/svg11.dtd" >
<svg xmlns="http://www.w3.org/2000/svg" xmlns:xlink="http://www.w3.org/1999/xlink" version="1.1">
<metadata>
Created by FontForge 20170731 at Sun Jun 15 22:30:58 2014
 By Aleksey,,,
(c) Lauren Thompson, 2009, 2010, 2011, 2012. All rights reserved.
</metadata>
<defs>
<font id="Champagne&#38;Limousines" horiz-adv-x="1800" >
  <font-face 
    font-family="Champagne &#38; Limousines"
    font-weight="400"
    font-stretch="normal"
    units-per-em="2048"
    panose-1="2 11 5 2 2 2 2 2 2 4"
    ascent="1638"
    descent="-410"
    x-height="855"
    cap-height="1414"
    bbox="-400 -394 1979 1719"
    underline-thickness="150"
    underline-position="-442"
    unicode-range="U+0020-FF9F"
  />
<missing-glyph horiz-adv-x="1088" 
d="M522 616q0 -6 5.5 -18.5t50.5 -23.5q-45 -14 -120 -60q-24 -15 -47 -15q-51 0 -99 72q28 14 39 21t11 13v252q0 30 -47 44q123 59 176 96q25 -3 31 -73v-3q20 8 36 17l163 59q11 -59 25 -107q14 -47 28 -138q2 -17 2 -34q0 -75 -51 -155q-63 -98 -178 -199q73 134 73 250
q0 32 -5 62q-26 141 -43 178q-50 -37 -50 -76v-162zM76 1412v-1409h936v1409h-936zM1044 1447v-1480h-1000v1480h1000z" />
    <glyph glyph-name=".notdef" horiz-adv-x="1088" 
d="M522 616q0 -6 5.5 -18.5t50.5 -23.5q-45 -14 -120 -60q-24 -15 -47 -15q-51 0 -99 72q28 14 39 21t11 13v252q0 30 -47 44q123 59 176 96q25 -3 31 -73v-3q20 8 36 17l163 59q11 -59 25 -107q14 -47 28 -138q2 -17 2 -34q0 -75 -51 -155q-63 -98 -178 -199q73 134 73 250
q0 32 -5 62q-26 141 -43 178q-50 -37 -50 -76v-162zM76 1412v-1409h936v1409h-936zM1044 1447v-1480h-1000v1480h1000z" />
    <glyph glyph-name=".null" horiz-adv-x="0" 
 />
    <glyph glyph-name="nonmarkingreturn" horiz-adv-x="508" 
 />
    <glyph glyph-name="space" unicode=" " horiz-adv-x="508" 
 />
    <glyph glyph-name="space" unicode="&#xa0;" horiz-adv-x="508" 
 />
    <glyph glyph-name="exclam" unicode="!" horiz-adv-x="269" 
d="M190.5 123q23.5 -23 23.5 -56t-23.5 -56t-55.5 -23q-33 0 -56.5 23t-23.5 56t23.5 56t56.5 23q32 0 55.5 -23zM173 1414v-1170h-80v1170h80z" />
    <glyph glyph-name="quotedbl" unicode="&#x22;" horiz-adv-x="397" 
d="M55 881v530h80v-530h-80zM263 881v530h79v-530h-79z" />
    <glyph glyph-name="numbersign" unicode="#" horiz-adv-x="909" 
d="M498 446h-225l-85 -346h-75l85 346h-218l41 80h197l79 320h-200l42 80h177l88 358h75l-88 -358h225l88 358h75l-88 -358h198l-42 -80h-175l-79 -320h178l-41 -80h-157l-85 -346h-75zM293 526h225l79 320h-225z" />
    <glyph glyph-name="dollar" unicode="$" horiz-adv-x="1070" 
d="M579 761v-589q88 13 155 80q83 83 83 202q0 117 -83 200q-65 66 -155 107zM499 1254q-54 -9 -95 -51q-54 -53 -54 -129t53 -129q37 -37 96 -70v379zM499 792q-91 40 -150 99q-76 75 -76 183q0 105 76 181q64 65 150 75v89h80v-91q78 -14 137 -72q41 -40 59 -95l-69 -28
q-15 41 -45 71q-36 35 -82 47v-410q121 -47 208 -134q106 -105 106 -253q0 -150 -106 -255q-89 -90 -208 -104v-99h-80v98q-127 10 -221 105q-84 84 -102 199l72 27q11 -102 84 -173q71 -72 167 -82v622z" />
    <glyph glyph-name="percent" unicode="%" horiz-adv-x="1070" 
d="M973 1161l-811 -1158l-65 45l811 1158zM414.5 1014q59.5 -60 59.5 -145q0 -84 -59.5 -144t-144.5 -60t-144.5 60t-59.5 144q0 85 59.5 145t144.5 60t144.5 -60zM270 997q-53 0 -90 -37.5t-37 -90.5t37 -90t90 -37q52 0 89.5 37t37.5 90t-37.5 90.5t-89.5 37.5z
M944.5 483.5q59.5 -59.5 59.5 -144.5t-59.5 -144.5t-144.5 -59.5t-144.5 59.5t-59.5 144.5t59.5 144.5t144.5 59.5t144.5 -59.5zM800 467q-53 0 -90 -37.5t-37 -90.5t37 -90t90 -37q52 0 90 37t38 90t-38 90.5t-90 37.5z" />
    <glyph glyph-name="ampersand" unicode="&#x26;" horiz-adv-x="1167" 
d="M815 292q-11 5 -22 11q-42 24 -106 90q-42 39 -60 49q-19 10 -39 10q-11 0 -22 -2q-32 -9 -48 -37q-11 -20 -11 -39q0 -11 3 -22q9 -32 35 -46q17 -9 46 -9q16 0 36 3l-8 -73q-22 -6 -44 -6q-35 0 -69 18q-53 30 -70 92q-6 22 -6 43q0 39 21 76q33 56 95 73q22 6 43 6
q39 0 75 -21q35 -19 92 -79q51 -46 75 -60q27 -15 55 -15q16 0 32 5q46 12 70 54q15 27 15 55q0 15 -5 31q-12 45 -53 69q-25 14 -56 14q-22 0 -47 -7l-1 79q25 7 49 7q47 0 92 -26q69 -39 90 -115q7 -27 7 -52q0 -48 -25 -92q-39 -69 -117 -91q-23 -6 -44 -7
q-29 -95 -105 -171q-123 -124 -296 -124t-296 123t-123 297q0 173 121 302q83 89 216 134q-64 27 -130.5 98t-66.5 196q0 122 87.5 210t211.5 88t212 -88q49 -47 67 -105l-71 -28q-16 43 -52 79q-65 64 -156 64t-155.5 -64t-64.5 -156q0 -91 62.5 -157.5t115.5 -86.5
t132 -21v-75l-63 -1q-194 -37 -291 -143t-97 -246q0 -141 99.5 -241t241.5 -100q140 0 240 100q58 58 83 130z" />
    <glyph glyph-name="quotesingle" unicode="'" horiz-adv-x="190" 
d="M55 881v530h80v-530h-80z" />
    <glyph glyph-name="parenleft" unicode="(" horiz-adv-x="552" 
d="M497 1483q-83 -50 -186 -188q-150 -204 -150 -561v-90q0 -358 150 -562q103 -138 186 -188h-89q-76 53 -142 130q-211 243 -211 665q0 421 211 664q66 77 142 130h89z" />
    <glyph glyph-name="parenright" unicode=")" horiz-adv-x="552" 
d="M144 1483q76 -53 142 -130q211 -243 211 -664q0 -422 -211 -665q-66 -77 -142 -130h-89q83 50 186 188q150 204 150 562v90q0 357 -150 561q-103 138 -186 188h89z" />
    <glyph glyph-name="asterisk" unicode="*" horiz-adv-x="730" 
d="M405 1223l204 108l46 -66l-221 -119l221 -119l-46 -66l-204 108v-188h-79v189l-205 -109l-46 66l221 119l-221 119l46 66l205 -109v189h79v-188z" />
    <glyph glyph-name="plus" unicode="+" horiz-adv-x="1070" 
d="M495 633h-410v80h410v410h80v-410h410v-80h-410v-410h-80v410z" />
    <glyph glyph-name="comma" unicode="," horiz-adv-x="336" 
d="M238 147l-164 -341h-74l91 341h147z" />
    <glyph glyph-name="hyphen" unicode="-" horiz-adv-x="596" 
d="M48 563h500v-80h-500v80z" />
    <glyph glyph-name="hyphen" unicode="&#xad;" horiz-adv-x="596" 
d="M48 563h500v-80h-500v80z" />
    <glyph glyph-name="period" unicode="." horiz-adv-x="269" 
d="M190.5 123q23.5 -23 23.5 -56t-23.5 -56t-55.5 -23q-33 0 -56.5 23t-23.5 56t23.5 56t56.5 23q32 0 55.5 -23z" />
    <glyph glyph-name="slash" unicode="/" horiz-adv-x="627" 
d="M588 1414h91l-641 -1414h-90z" />
    <glyph glyph-name="zero" unicode="0" horiz-adv-x="1070" 
d="M936 695q0 300 -117.5 467t-283.5 167t-283.5 -167t-117.5 -467q0 -301 117.5 -468t283.5 -167t283.5 167t117.5 468zM1020 695q0 -335 -141.5 -527.5t-342.5 -192.5t-343.5 192.5t-142.5 527.5q0 334 142.5 526.5t343.5 192.5t342.5 -192.5t141.5 -526.5z" />
    <glyph glyph-name="one" unicode="1" horiz-adv-x="1070" 
d="M499 80v1176l-147 -96l-62 45l288 209v-1334h307v-80h-700v80h314z" />
    <glyph glyph-name="two" unicode="2" horiz-adv-x="1070" 
d="M170 0q555 847 598 922.5t43 144.5q0 34 -8 69q-25 110 -119 169q-67 40 -139 40q-32 0 -64 -7q-108 -25 -167 -119q-33 -52 -40 -103l-82 12q6 67 49 134q80 125 221 157q43 10 84 10q98 0 185 -55q124 -78 156 -219q12 -52 12 -99q0 -83 -47.5 -168.5t-523.5 -807.5
h571v-80h-729z" />
    <glyph glyph-name="three" unicode="3" horiz-adv-x="1070" 
d="M485 789l-66 2v79q82 1 134.5 21.5t114 86t61.5 155.5q0 91 -63.5 154t-153.5 63q-89 0 -154 -63q-35 -36 -52 -81l-76 30q19 62 68 109q89 88 214 88q126 0 214 -88.5t88 -211.5q0 -126 -67 -198t-126 -96q128 -42 212 -132q121 -130 121 -304q0 -175 -123.5 -298.5
t-298.5 -123.5q-174 0 -298 124q-98 99 -118 232l80 29q13 -118 98 -203q99 -98 238 -98q141 0 240 98.5t99 239.5q0 140 -96.5 245t-289.5 141z" />
    <glyph glyph-name="four" unicode="4" horiz-adv-x="1070" 
d="M799 1474v-1031h135v-79h-135v-364h-80v364h-583zM719 1192l-446 -749h446v749z" />
    <glyph glyph-name="five" unicode="5" horiz-adv-x="1070" 
d="M231 975q44 14 99 26q56 10 109 10q98 0 187 -31q199 -68 297 -251q61 -114 61 -233q0 -75 -23 -150q-61 -198 -244 -297q-112 -59 -230 -59q-75 0 -153 24q-159 49 -249 172l57 62q75 -111 217 -154q64 -20 125 -20q99 0 193 50q153 81 204 247q20 64 20 126
q0 99 -51 193q-81 152 -247 210q-72 25 -157 25q-113 0 -250 -43l-63 55l162 448v29h442v-80h-375z" />
    <glyph glyph-name="six" unicode="6" horiz-adv-x="1070" 
d="M226 373q0 -128 90.5 -217.5t218.5 -89.5q127 0 217.5 89.5t90.5 217.5t-90.5 218.5t-217.5 90.5q-128 0 -218.5 -90.5t-90.5 -218.5zM297 687q103 80 238 80q163 0 277.5 -115t114.5 -279q0 -162 -114.5 -277.5t-277.5 -115.5q-162 0 -277.5 115.5t-115.5 277.5
q9 228 130.5 476t334.5 565h106q-247 -361 -416 -727z" />
    <glyph glyph-name="seven" unicode="7" horiz-adv-x="1070" 
d="M764 924q-182 -260 -298 -503q-116 -244 -125 -421h-83q9 212 131 460q121 248 280 481q158 233 192 393h-743v80h833q-5 -230 -187 -490z" />
    <glyph glyph-name="eight" unicode="8" horiz-adv-x="1070" 
d="M536 66q195 9 284 102.5t89 234.5q0 140 -96 245q-94 102 -278 139q-185 -37 -279 -139q-96 -105 -96 -245q0 -141 89 -234.5t287 -102.5zM535 -9q-231 0 -344.5 118.5t-113.5 293.5q0 174 121 304q84 90 211 132q-58 24 -125 96t-67 198q0 123 87.5 209t234.5 87
q138 -1 226 -87t88 -209q0 -126 -67.5 -198t-125.5 -96q127 -42 211 -132q121 -130 121 -304q0 -175 -113 -293.5t-344 -118.5zM534 1349q-135 -9 -184 -67t-49 -149q0 -90 61.5 -155.5t172.5 -100.5q110 35 171.5 100.5t61.5 155.5q0 91 -48.5 149t-183.5 67h-2z" />
    <glyph glyph-name="nine" unicode="9" horiz-adv-x="1070" 
d="M843 1041q0 128 -90.5 217.5t-218.5 89.5q-127 0 -217.5 -89.5t-90.5 -217.5t90.5 -218.5t217.5 -90.5q128 0 218.5 90.5t90.5 218.5zM772 727q-103 -80 -238 -80q-163 0 -277.5 115t-114.5 279q0 162 114.5 277.5t277.5 115.5q162 0 277.5 -115.5t115.5 -293.5
q-9 -212 -130.5 -460t-334.5 -565h-106q247 341 416 727z" />
    <glyph glyph-name="colon" unicode=":" horiz-adv-x="269" 
d="M190.5 123q23.5 -23 23.5 -56t-23.5 -56t-55.5 -23q-33 0 -56.5 23t-23.5 56t23.5 56t56.5 23q32 0 55.5 -23zM190.5 740q23.5 -23 23.5 -56t-23.5 -56t-55.5 -23q-33 0 -56.5 23t-23.5 56t23.5 56t56.5 23q32 0 55.5 -23z" />
    <glyph glyph-name="semicolon" unicode=";" horiz-adv-x="293" 
d="M238 147l-164 -341h-74l91 341h147zM214.5 740q23.5 -23 23.5 -56t-23.5 -56t-55.5 -23q-33 0 -56.5 23t-23.5 56t23.5 56t56.5 23q32 0 55.5 -23z" />
    <glyph glyph-name="semicolon" unicode="&#x37e;" horiz-adv-x="293" 
d="M238 147l-164 -341h-74l91 341h147zM214.5 740q23.5 -23 23.5 -56t-23.5 -56t-55.5 -23q-33 0 -56.5 23t-23.5 56t23.5 56t56.5 23q32 0 55.5 -23z" />
    <glyph glyph-name="less" unicode="&#x3c;" horiz-adv-x="1070" 
d="M258 772l723 -334v-92l-892 426l892 426v-92z" />
    <glyph glyph-name="equal" unicode="=" horiz-adv-x="1070" 
d="M85 855h900v-80h-900v80zM89 572h892v-80h-892v80z" />
    <glyph glyph-name="greater" unicode="&#x3e;" horiz-adv-x="1070" 
d="M89 1106v92l892 -426l-892 -426v92l723 334z" />
    <glyph glyph-name="question" unicode="?" horiz-adv-x="752" 
d="M349 67q0 -33 -23.5 -56t-55.5 -23q-33 0 -56.5 23t-23.5 56t23.5 56t56.5 23q32 0 55.5 -23t23.5 -56zM214 335q-1 14 -1 27q0 197 148 379q176 217 201 309q10 36 10 69q0 52 -24 96q-39 73 -124 104q-39 14 -76 14q-47 0 -92 -21q-83 -39 -114 -124q-12 -33 -13 -94
l-77 -5q0 83 16 124q53 127 171 174q59 23 117 23q59 0 117 -23q116 -48 158 -160q21 -56 21 -110q0 -55 -21 -108q-42 -106 -200 -302q-140 -174 -140 -332q0 -20 2 -40h-79z" />
    <glyph glyph-name="at" unicode="@" horiz-adv-x="1547" 
d="M1055 609l8 137q-14 79 -69 138q-82 87 -203 87q-122 0 -212 -86t-97 -226q0 -109 75 -188q80 -86 202 -86q121 0 212 85q62 60 84 139zM1044 431q-134 -134 -292 -134q-157 0 -263 113q-99 103 -99 244q11 181 128.5 293t275.5 112q157 0 277 -133l6 118h85l-56 -497
v-26q0 -125 45 -134q88 6 169 98t93 328q0 193 -148 341q-159 158 -457 158q-263 0 -459.5 -187t-212.5 -489q0 -237 164 -409q175 -186 438 -186q180 0 265 51l56 -63q-129 -73 -326 -73q-297 0 -497 212q-186 194 -186 462q18 342 241.5 554t521.5 212q334 0 515 -182
q169 -172 169 -386q-13 -262 -124 -384q-102 -113 -229 -113q-102 11 -102 82q0 8 2 18z" />
    <glyph glyph-name="A" unicode="A" horiz-adv-x="1116" 
d="M774 701l-215 593l-216 -593h431zM600 1414l513 -1414h-84l-226 622h-489l-230 -622h-85l519 1414h82z" />
    <glyph glyph-name="B" unicode="B" horiz-adv-x="1033" 
d="M519 80q157 0 268 111.5t111 269.5t-111 270t-268 112h-327v-763h327zM192 1335v-412h360q87 9 130 52q61 61 61 149q0 87 -61.5 149t-148.5 62h-341zM703 887q78 -33 143 -99q135 -135 135 -327q0 -191 -135 -326q-113 -113 -275 -135h-459v1414h422q121 0 205.5 -85
t84.5 -205t-85 -205q-18 -19 -36 -32z" />
    <glyph glyph-name="C" unicode="C" horiz-adv-x="1347" 
d="M1224 225l61 -54q-207 -188 -487 -188q-301 0 -512.5 211.5t-211.5 512.5q0 299 211.5 511.5t512.5 212.5q280 0 487 -189l-61 -54q-182 161 -426 161q-266 0 -454.5 -188t-188.5 -454q0 -267 188.5 -455t454.5 -188q244 0 426 161z" />
    <glyph glyph-name="D" unicode="D" horiz-adv-x="1189" 
d="M374 1414q349 -2 541 -195q212 -213 212 -512q0 -301 -212 -513q-192 -192 -541 -194h-262v1414h262zM192 1331v-1249h181q305 0 481 170q188 188 188 455q0 266 -188 455q-176 169 -481 169h-181z" />
    <glyph glyph-name="E" unicode="E" horiz-adv-x="931" 
d="M819 1414v-80h-627v-587h627v-80h-627v-587h627v-80h-707v1414h707z" />
    <glyph glyph-name="F" unicode="F" horiz-adv-x="783" 
d="M731 1414v-80h-539v-587h539v-80h-539v-667h-80v1414h619z" />
    <glyph glyph-name="G" unicode="G" horiz-adv-x="1359" 
d="M1279 176q-201 -193 -481 -193q-301 0 -512.5 211.5t-211.5 512.5q0 299 211.5 511.5t512.5 212.5q280 0 487 -189l-61 -54q-182 161 -426 161q-266 0 -454.5 -188t-188.5 -454q0 -267 188.5 -455t454.5 -188q228 0 402 140v431h79v-459z" />
    <glyph glyph-name="H" unicode="H" horiz-adv-x="1072" 
d="M174 667v-667h-80v1414h80v-667h724v667h80v-1414h-80v667h-724z" />
    <glyph glyph-name="I" unicode="I" horiz-adv-x="324" 
d="M202 1414v-1414h-80v1414h80z" />
    <glyph glyph-name="J" unicode="J" horiz-adv-x="306" 
d="M192 -27q0 -108 -73 -178t-180 -70v73q73 0 124 50q49 49 49 135v1431h80v-1441z" />
    <glyph glyph-name="K" unicode="K" horiz-adv-x="999" 
d="M762 1414l-367 -531l618 -883h-97l-572 817l-152 -218v-599h-80v1414h80v-677l473 677h97z" />
    <glyph glyph-name="L" unicode="L" horiz-adv-x="783" 
d="M112 0v1414h80v-1334h539v-80h-619z" />
    <glyph glyph-name="M" unicode="M" horiz-adv-x="1442" 
d="M1349 1414v-1414h-80v1328l-547 -717l-548 717v-1328h-80v1414h116l512 -670l511 670h116z" />
    <glyph glyph-name="N" unicode="N" horiz-adv-x="1339" 
d="M210 1414l940 -1317v1317h80v-1414h-123l-918 1286v-1286h-80v1414h101z" />
    <glyph glyph-name="O" unicode="O" horiz-adv-x="1575" 
d="M1300.5 1221.5q212.5 -212.5 212.5 -512.5q0 -301 -212.5 -513.5t-513.5 -212.5q-300 0 -512.5 212.5t-212.5 513.5q0 300 212.5 512.5t512.5 212.5q301 0 513.5 -212.5zM787 1353q-266 0 -455 -189t-189 -455q0 -267 189 -456t455 -189q267 0 456 189t189 456
q0 266 -189 455t-456 189z" />
    <glyph glyph-name="P" unicode="P" horiz-adv-x="959" 
d="M192 490v-490h-80v1414h371q162 -22 275 -135q135 -136 135 -326q0 -192 -135 -327.5t-326 -135.5h-240zM192 1333v-762h240q157 0 269 111.5t112 270.5q0 158 -112 269t-269 111h-240z" />
    <glyph glyph-name="Q" unicode="Q" horiz-adv-x="1575" 
d="M787 1353q-266 0 -455 -189t-189 -455q0 -267 189 -456t455 -189q267 0 456 189t189 456q0 266 -189 455t-456 189zM779 -17q-295 3 -504 213q-213 212 -213 513q0 300 212.5 512.5t512.5 212.5q301 0 513.5 -212.5t212.5 -512.5q0 -301 -212 -513q-154 -154 -353 -196
q74 -20 183 -89q74 -40 152 -51q107 3 117 120h80q-23 -172 -178 -184q-127 0 -238 67q-124 65 -196 70q-67 -5 -100 -35t-44.5 -71t-12.5 -51h-80q27 175 148 207z" />
    <glyph glyph-name="R" unicode="R" horiz-adv-x="959" 
d="M192 1333v-762h240q157 0 269 111.5t112 270.5q0 158 -112 269t-269 111h-240zM456 490h-264v-490h-80v1414h371q162 -22 275 -135q135 -136 135 -326q0 -192 -135 -327q-94 -94 -215 -123l326 -503h-98z" />
    <glyph glyph-name="S" unicode="S" horiz-adv-x="942" 
d="M495 783q-151 50 -238.5 137.5t-87.5 212.5q0 122 87.5 210t212.5 88q123 0 212 -88q48 -47 67 -105l-72 -28q-16 43 -52 79q-64 64 -155 64t-155.5 -64t-64.5 -156q0 -91 64 -156q60 -59 166 -108q170 -55 286 -171q122 -122 122 -295q0 -174 -122.5 -297t-295.5 -123
q-174 0 -296 124q-99 98 -118 228l75 27q12 -115 98 -200q100 -100 241 -100t241 100t100 241q0 140 -100 240q-88 88 -215 140z" />
    <glyph glyph-name="T" unicode="T" horiz-adv-x="859" 
d="M469 1334v-1334h-79v1334h-358v80h795v-80h-358z" />
    <glyph glyph-name="U" unicode="U" horiz-adv-x="1147" 
d="M955 1414h80v-1016q-22 -162 -135 -275q-135 -135 -326 -135q-192 0 -327 135t-135 326v965h80v-965q0 -157 112 -269t270 -112t269.5 112t111.5 269v965z" />
    <glyph glyph-name="V" unicode="V" horiz-adv-x="1065" 
d="M981 1414h84l-508 -1414h-49l-508 1414h84l449 -1270z" />
    <glyph glyph-name="W" unicode="W" horiz-adv-x="1602" 
d="M824 1039l352 -910l345 1285h81l-380 -1414h-80l-341 894l-341 -894h-80l-380 1414h81l346 -1285l351 910h46z" />
    <glyph glyph-name="X" unicode="X" horiz-adv-x="1018" 
d="M15 0l448 777l-368 637h91l322 -559l323 559h91l-369 -637l450 -777h-91l-404 698l-403 -698h-90z" />
    <glyph glyph-name="Y" unicode="Y" horiz-adv-x="1116" 
d="M518 572l-486 842h91l435 -754l435 754h91l-486 -842v-572h-80v572z" />
    <glyph glyph-name="Z" unicode="Z" horiz-adv-x="1075" 
d="M854 1334h-670v80h807l-771 -1334h841v-80h-977z" />
    <glyph glyph-name="bracketleft" unicode="[" horiz-adv-x="384" 
d="M135 -40h194v-79h-274v1665h274v-79h-194v-1507z" />
    <glyph glyph-name="backslash" unicode="\" horiz-adv-x="627" 
d="M679 0h-90l-641 1414h91z" />
    <glyph glyph-name="bracketright" unicode="]" horiz-adv-x="384" 
d="M249 1467h-194v79h274v-1665h-274v79h194v1507z" />
    <glyph glyph-name="asciicircum" unicode="^" horiz-adv-x="833" 
d="M463 1414l272 -472h-92l-226 391l-226 -391h-93l273 472h92z" />
    <glyph glyph-name="underscore" unicode="_" horiz-adv-x="794" 
d="M-45 -27h884v-79h-884v79z" />
    <glyph glyph-name="grave" unicode="`" horiz-adv-x="441" 
d="M222 1137l144 -165h-75l-216 165h147z" />
    <glyph glyph-name="a" unicode="a" horiz-adv-x="1122" 
d="M1033 0h-80v177q-23 -31 -50 -59q-142 -143 -344 -143q-200 0 -342.5 142.5t-142.5 342.5q0 202 142.5 344t342.5 142q202 0 344 -142q27 -28 50 -59v123h80v-868zM953 382v157q-22 117 -110 205q-118 118 -284 118t-283.5 -118t-117.5 -284t117.5 -283t283.5 -117
t284 118q88 88 110 204z" />
    <glyph glyph-name="b" unicode="b" horiz-adv-x="1131" 
d="M99 1414h80v-668q22 30 50 58q142 142 343 142t343 -142t142 -344q0 -200 -142 -342.5t-343 -142.5t-343 143q-28 28 -50 58v-176h-80v1414zM179 543v-166q22 -113 109 -199q118 -118 284 -118t283.5 117t117.5 283t-117.5 284t-283.5 118t-284 -118q-87 -87 -109 -201z
" />
    <glyph glyph-name="c" unicode="c" horiz-adv-x="985" 
d="M849 209l84 -31q-23 -31 -52 -60q-142 -143 -344 -143q-200 0 -342.5 142.5t-142.5 343.5t142.5 343t342.5 142q202 0 344 -142q29 -29 52 -60l-84 -31q-13 16 -28 32q-118 117 -284 117q-165 0 -282.5 -117.5t-117.5 -283.5t117.5 -283.5t282.5 -117.5q166 0 284 118
q15 15 28 31z" />
    <glyph glyph-name="d" unicode="d" horiz-adv-x="1122" 
d="M1033 0h-80v177q-23 -31 -50 -59q-142 -143 -344 -143q-200 0 -342.5 142.5t-142.5 342.5q0 202 142.5 344t342.5 142q202 0 344 -142q27 -28 50 -59v669h80v-1414zM953 382v157q-22 117 -110 205q-118 118 -284 118t-283.5 -118t-117.5 -284t117.5 -283t283.5 -117
t284 118q88 88 110 204z" />
    <glyph glyph-name="e" unicode="e" horiz-adv-x="1042" 
d="M154 586h762q-28 91 -95 158q-118 118 -284 118t-284 -118q-70 -71 -99 -158zM139 505q-3 -21 -3 -45q0 -166 117.5 -283t283.5 -117t284 118q20 20 38 42l85 -30q-15 -25 -63 -72q-142 -143 -344 -143q-200 0 -342.5 142.5t-142.5 342.5q0 202 142.5 344t342.5 142
q202 0 344 -142q125 -126 125 -299h-867z" />
    <glyph glyph-name="f" unicode="f" horiz-adv-x="383" 
d="M190 788v-788h-80v788h-88v80h88v235q6 98 75 169q73 67 167 67q50 0 105 -19l-25 -71q-37 16 -72 16q-62 0 -118 -50q-49 -49 -52 -118v-229h177v-80h-177z" />
    <glyph glyph-name="g" unicode="g" horiz-adv-x="1083" 
d="M930 543q-23 114 -109 201q-118 118 -284 118t-283.5 -118t-117.5 -284t117.5 -283.5t283.5 -117.5t284 118q85 85 109 199v167zM929 172q-23 -28 -48 -54q-142 -143 -344 -143q-200 0 -342.5 142.5t-142.5 342.5q0 202 142.5 343.5t342.5 141.5q202 0 344 -141
q27 -28 50 -59v123h80v-674q0 -196 -139 -334q-142 -143 -343 -143t-344 143q-29 29 -52 60l84 31q13 -16 29 -31q117 -118 283 -118q165 0 283 118q107 107 117 252z" />
    <glyph glyph-name="h" unicode="h" horiz-adv-x="859" 
d="M94 1414h80v-591q100 97 242 97q153 0 249.5 -96.5t99.5 -242.5v-581h-80v573q0 111 -80 189t-189 78q-110 0 -189 -77q-36 -35 -53 -73v-690h-80v1414z" />
    <glyph glyph-name="i" unicode="i" horiz-adv-x="317" 
d="M198 868v-868h-79v868h79zM214.5 1152q23.5 -23 23.5 -55q0 -34 -23.5 -57t-55.5 -23q-33 0 -56.5 23t-23.5 57q0 32 23.5 55t56.5 23q32 0 55.5 -23z" />
    <glyph glyph-name="j" unicode="j" horiz-adv-x="284" 
d="M-11 -122q107 12 107 120v870h79v-868q0 -179 -186 -194v72zM191.5 1152q23.5 -23 23.5 -55q0 -34 -23.5 -57t-55.5 -23q-33 0 -56.5 23t-23.5 57q0 32 23.5 55t56.5 23q32 0 55.5 -23z" />
    <glyph glyph-name="k" unicode="k" horiz-adv-x="635" 
d="M522 868l-214 -265l341 -603h-98l-295 539l-77 -96v-443h-80v1237h80v-667l241 298h102z" />
    <glyph glyph-name="l" unicode="l" horiz-adv-x="300" 
d="M190 1414v-1414h-80v1414h80z" />
    <glyph glyph-name="m" unicode="m" horiz-adv-x="1148" 
d="M99 868h80v-21q74 72 177 72q107 0 182 -75q20 -20 35 -44q16 23 37 44q75 75 182 75t182 -75q71 -73 75 -174v-670h-80v670h1q-3 69 -52 117q-53 52 -126 52q-74 0 -126.5 -52t-52.5 -130v-657h-79v670h1q-4 69 -53 117q-53 52 -126 52t-125 -52q-46 -45 -52 -110v-677
h-80v868z" />
    <glyph glyph-name="n" unicode="n" horiz-adv-x="879" 
d="M179 674v-674h-80v868h80v-56q108 108 252 108q154 0 250.5 -96.5t98.5 -242.5v-581h-79v573q0 111 -80 189t-190 78q-109 0 -189 -77q-43 -43 -63 -89z" />
    <glyph glyph-name="o" unicode="o" horiz-adv-x="1114" 
d="M557 946q202 0 343.5 -142t141.5 -344q0 -200 -141.5 -342.5t-343.5 -142.5q-200 0 -342.5 142.5t-142.5 342.5q0 202 142.5 344t342.5 142zM273.5 744q-117.5 -118 -117.5 -284t117.5 -283t283.5 -117t283.5 117t117.5 283t-117.5 284t-283.5 118t-283.5 -118z" />
    <glyph glyph-name="p" unicode="p" horiz-adv-x="1110" 
d="M92 868h80v-122q22 30 50 58q142 141 343 141t343 -141.5t142 -343.5q0 -200 -142 -342.5t-343 -142.5t-343 143q-28 28 -50 58v-507h-80v1199zM172 543v-166q22 -114 109 -200q118 -118 284 -118t283.5 117.5t117.5 283.5t-117.5 284t-283.5 118t-284 -118
q-87 -87 -109 -201z" />
    <glyph glyph-name="q" unicode="q" horiz-adv-x="1107" 
d="M1019 -331h-80v508q-23 -31 -50 -59q-142 -143 -344 -143q-200 0 -342.5 142.5t-142.5 342.5q0 202 142.5 343.5t342.5 141.5q202 0 344 -141q27 -28 50 -59v123h80v-1199zM939 382v157q-22 117 -110 205q-118 118 -284 118t-283.5 -118t-117.5 -284t117.5 -283.5
t283.5 -117.5t284 118q88 88 110 205z" />
    <glyph glyph-name="r" unicode="r" horiz-adv-x="406" 
d="M406 798q-85 -13 -167 -108t-82 -192v-498h-80v868h80v-188q50 131 205 195z" />
    <glyph glyph-name="s" unicode="s" horiz-adv-x="644" 
d="M324 466q-101 55 -140 94q-61 61 -61 147t61 147.5t147 61.5t143 -57q55 -55 55 -126v-4l-69 -28q-9 67 -42 101t-87 34q-53 0 -91 -38t-38 -91t38 -91q22 -23 93 -68q113 -61 161 -109q75 -76 75 -181q0 -108 -75 -183.5t-182 -75.5t-182 75.5t-75 165.5l79 20
q0 -77 52.5 -129.5t125.5 -52.5t126 52.5t53 127.5q0 73 -53 125q-28 28 -114 83z" />
    <glyph glyph-name="t" unicode="t" horiz-adv-x="497" 
d="M209 868v369h79v-369h177v-80h-177v-788h-79v788h-177v80h177z" />
    <glyph glyph-name="u" unicode="u" horiz-adv-x="880" 
d="M445 -12q-163 0 -259 96t-99 243v542h80v-535q0 -110 80 -188q79 -79 197 -79q110 0 189.5 78.5t79.5 188.5v535h80v-542q-3 -147 -99 -243t-249 -96z" />
    <glyph glyph-name="v" unicode="v" horiz-adv-x="814" 
d="M814 868l-388 -868h-42l-384 868h93l312 -723l316 723h93z" />
    <glyph glyph-name="w" unicode="w" horiz-adv-x="1094" 
d="M1094 868l-295 -868h-50l-202 566l-202 -566h-51l-294 868h91l230 -713l204 565h45l204 -565l229 713h91z" />
    <glyph glyph-name="x" unicode="x" horiz-adv-x="662" 
d="M285 459l-255 409h93l208 -335l208 335h93l-255 -409l285 -459h-92l-239 384l-239 -384h-92z" />
    <glyph glyph-name="y" unicode="y" horiz-adv-x="779" 
d="M205 -330h-89l229 491l-330 707h89l285 -606l286 606h89z" />
    <glyph glyph-name="z" unicode="z" horiz-adv-x="743" 
d="M510 776h-448v79h585l-449 -775h483v-80h-619z" />
    <glyph glyph-name="braceleft" unicode="{" horiz-adv-x="516" 
d="M90 724q141 29 141 325v32q0 442 230 468v-60q-156 -41 -156 -424v-42q0 -228 -92 -305q92 -77 92 -305v-42q0 -383 156 -424v-60q-230 26 -230 468v32q0 296 -141 325v12z" />
    <glyph glyph-name="bar" unicode="|" horiz-adv-x="480" 
d="M280 1414v-1540h-80v1540h80z" />
    <glyph glyph-name="braceright" unicode="}" horiz-adv-x="516" 
d="M426 712q-141 -29 -141 -325v-32q0 -442 -230 -468v60q156 41 156 424v42q0 228 92 305q-92 77 -92 305v42q0 383 -156 424v60q230 -26 230 -468v-32q0 -296 141 -325v-12z" />
    <glyph glyph-name="asciitilde" unicode="~" horiz-adv-x="1057" 
d="M528 761q166 -97 242 -97q13 0 23 3q68 20 96 88q13 34 13 69l80 -13q-3 -42 -20 -86q-41 -98 -138 -130q-22 -7 -49 -7q-93 0 -246 87q-168 96 -242 96q-12 0 -23 -2q-68 -21 -95 -89q-14 -34 -14 -68l-80 13q2 42 19 85q41 98 139 131q22 7 49 7q93 0 246 -87z" />
    <glyph glyph-name="exclamdown" unicode="&#xa1;" horiz-adv-x="269" 
d="M72.5 1291q-23.5 23 -23.5 56t23.5 56t55.5 23q33 0 56.5 -23t23.5 -56t-23.5 -56t-56.5 -23q-32 0 -55.5 23zM90 0v1170h80v-1170h-80z" />
    <glyph glyph-name="cent" unicode="&#xa2;" horiz-adv-x="1070" 
d="M575 563q127 2 218 93q11 11 24 27l77 -28q-23 -31 -46 -55q-114 -114 -273 -116v-136h-79v142q-116 21 -204 110q-116 115 -116 278t116 279q88 88 204 109v143h79v-137q159 -1 273 -115q23 -24 46 -54l-77 -29q-13 16 -24 28q-91 90 -218 92v-631zM496 1186
q-84 -20 -149 -84q-92 -93 -92 -224q0 -130 92 -222q65 -66 149 -85v615z" />
    <glyph glyph-name="sterling" unicode="&#xa3;" horiz-adv-x="892" 
d="M210 80h612v-80h-719v78q175 171 175 323q0 45 -7 89h-201v80h184q-23 84 -66 167q-98 159 -112 337q0 122 81 220q101 108 252 115q11 1 23 1q135 0 225 -75l-32 -72q-70 67 -188 67h-16q-129 -5 -199 -89q-62 -75 -62 -167q10 -127 70 -253q76 -122 107 -251h175v-80
h-160q5 -40 5 -82q0 -153 -147 -328z" />
    <glyph glyph-name="currency" unicode="&#xa4;" horiz-adv-x="1070" 
d="M311 992q96 78 224 78t223 -78l123 123l57 -57l-123 -123q79 -95 79 -223t-79 -224l123 -123l-57 -56l-123 123q-95 -79 -223 -79t-224 79l-122 -123l-57 56l123 123q-79 96 -79 224t79 223l-123 123l57 57zM702 935q-72 56 -167 56q-96 0 -167 -56q-16 -11 -30 -25
q-15 -15 -27 -31q-55 -72 -55 -167q0 -96 55 -167q12 -16 27 -30q14 -15 30 -27q71 -55 167 -55q95 0 167 55q16 12 31 27q14 14 25 30q56 71 56 167q0 95 -56 167q-11 16 -25 31q-15 14 -31 25z" />
    <glyph glyph-name="yen" unicode="&#xa5;" horiz-adv-x="1070" 
d="M539 667l431 747h91l-432 -747h260v-79h-306l-8 -16v-90h314v-80h-314v-402h-80v402h-313v80h313v90l-9 16h-304v79h258l-431 747h91l430 -747h9z" />
    <glyph glyph-name="brokenbar" unicode="&#xa6;" horiz-adv-x="480" 
d="M280 1414v-662h-80v662h80zM280 531v-662h-80v662h80z" />
    <glyph glyph-name="section" unicode="&#xa7;" horiz-adv-x="1070" 
d="M802 195q10 12 23 25q56 56 56 198q0 140 -100 240q-88 87 -215 139q-151 51 -238 138q-38 38 -60 83q-9 -12 -23 -25q-55 -56 -55 -197t100 -241q87 -87 214 -139q151 -51 239 -138q38 -38 59 -83zM245 1093q-5 26 -5 54q0 122 87.5 205t212.5 83q123 0 212 -77
q48 -47 67 -105l-72 -29q-16 44 -52 80q-64 63 -155 63t-155.5 -64t-64.5 -156q0 -91 64 -155q60 -59 166 -109q170 -55 286 -170q122 -122 122 -295q0 -175 -78 -253q-32 -32 -54 -45q4 -26 4 -54q0 -122 -87.5 -205t-211.5 -83t-212 78q-49 46 -67 105l71 28
q16 -43 52 -80q65 -63 156 -63t155.5 64t64.5 156q0 91 -65 155q-60 60 -166 109q-169 55 -285 171q-123 122 -123 295q0 174 79 252q31 32 54 45z" />
    <glyph glyph-name="dieresis" unicode="&#xa8;" horiz-adv-x="574" 
d="M210.5 1112q23.5 -23 23.5 -55q0 -34 -23.5 -57t-55.5 -23q-33 0 -56.5 23t-23.5 57q0 32 23.5 55t56.5 23q32 0 55.5 -23zM475.5 1112q23.5 -23 23.5 -55q0 -34 -23.5 -57t-55.5 -23q-33 0 -56.5 23t-23.5 57q0 32 23.5 55t56.5 23q32 0 55.5 -23z" />
    <glyph glyph-name="copyright" unicode="&#xa9;" horiz-adv-x="1217" 
d="M812 412l73 -28q-24 -32 -41 -50q-88 -88 -212 -88t-212 88t-88 212t88 211.5t212 87.5t212 -87q17 -19 41 -51l-73 -27q-13 15 -22 25q-66 65 -158 65q-93 0 -159 -65.5t-66 -158.5t66 -159t159 -66q92 0 158 66q9 9 22 25zM1003.5 940q163.5 -164 163.5 -395
t-163.5 -394.5t-395.5 -163.5q-231 0 -394.5 163.5t-163.5 394.5t163.5 395t394.5 164q232 0 395.5 -164zM608 1028q-199 0 -340.5 -141.5t-141.5 -341.5t141.5 -341t340.5 -141q200 0 341.5 141t141.5 341t-141.5 341.5t-341.5 141.5z" />
    <glyph glyph-name="ordfeminine" unicode="&#xaa;" horiz-adv-x="554" 
d="M520 941h-60v86q-11 -15 -24 -28q-69 -70 -167 -70q-97 0 -166.5 69.5t-69.5 166.5q0 98 69.5 167t166.5 69q98 0 167 -69q13 -14 24 -29v60h60v-422zM439 1131v68q-9 51 -47 89q-52 51 -123 51q-72 0 -123 -51t-51 -123t51 -122.5t123 -50.5q71 0 123 51q38 38 47 88z
" />
    <glyph glyph-name="guillemotleft" unicode="&#xab;" horiz-adv-x="816" 
d="M359 425l402 425v-113l-290 -312l290 -311v-114zM55 425l396 425v-113l-291 -312l291 -311v-114z" />
    <glyph glyph-name="logicalnot" unicode="&#xac;" horiz-adv-x="1070" 
d="M939 292h-80v339h-720v80h800v-419z" />
    <glyph glyph-name="registered" unicode="&#xae;" horiz-adv-x="1175" 
d="M526 1043v-192h69q125 0 130 103q0 89 -120 89h-79zM573 781h-47v-195h-87v526h148q210 -2 221 -162q0 -119 -160 -157q117 -194 225 -194q13 0 25 3q120 25 150 256q0 191 -134.5 326t-325.5 135t-326 -135t-135 -326t135 -326t431 -135q147 0 295 110v-77
q-156 -110 -311 -110q-312 0 -469.5 157.5t-157.5 380.5t157.5 375.5t380.5 152.5q222 0 379.5 -152.5t157.5 -375.5q-30 -293 -230 -317q-17 -3 -34 -3q-177 0 -288 243z" />
    <glyph glyph-name="macron" unicode="&#xaf;" horiz-adv-x="671" 
d="M75 1053h521v-80h-521v80z" />
    <glyph glyph-name="degree" unicode="&#xb0;" horiz-adv-x="382" 
d="M295 1313.5q43 -43.5 43 -103.5q0 -61 -43 -104t-104 -43t-104 43t-43 104q0 60 43 103.5t104 43.5t104 -43.5zM191 1292q-34 0 -58 -24t-24 -58t24 -58.5t58 -24.5t58 24.5t24 58.5t-24 58t-58 24z" />
    <glyph glyph-name="plusminus" unicode="&#xb1;" horiz-adv-x="1070" 
d="M495 230v403h-410v80h410v410h80v-410h410v-80h-410v-403h-80zM85 0v80h900v-80h-900z" />
    <glyph glyph-name="uni00B2" unicode="&#xb2;" horiz-adv-x="750" 
d="M133 589q395 461 395 598q-4 140 -142 141q-92 -5 -122 -61l-77 32q62 94 200 100q230 -5 230 -208q0 -158 -333 -534h333v-68h-484z" />
    <glyph glyph-name="uni00B3" unicode="&#xb3;" horiz-adv-x="750" 
d="M343 1033h-55v67q63 1 90.5 11t61.5 43t34 79q0 47 -33.5 77t-78.5 30t-78 -29q-19 -18 -35 -55l-77 28q15 44 47 73q59 53 143 53t141.5 -53t57.5 -124q0 -113 -129 -168q84 -7 137 -60q76 -75 76 -173q0 -100 -78.5 -172.5t-192.5 -72.5q-113 0 -193 74q-62 57 -76 141
l83 28q10 -80 57 -124q54 -48 129 -48q76 0 130.5 49.5t54.5 124.5q0 73 -54 127t-162 74z" />
    <glyph glyph-name="acute" unicode="&#xb4;" horiz-adv-x="441" 
d="M366 1137l-217 -165h-74l144 165h147z" />
    <glyph glyph-name="mu" unicode="&#xb5;" horiz-adv-x="815" 
d="M659 98q-4 -4 -9 -10q-97 -96 -250 -96q-142 0 -242 97v-420h-80v1199h80v-646q17 -38 53 -74q79 -76 189 -76q109 0 190 78q51 51 69 115v603h78v-868h-78v98z" />
    <glyph glyph-name="paragraph" unicode="&#xb6;" horiz-adv-x="1070" 
d="M752 1336v-1597h-79v752h-135q-191 0 -326 135t-135 327q0 191 135 326q113 113 275 135h71v1h434v-79h-78v-1597h-80v1597h-82z" />
    <glyph glyph-name="periodcentered" unicode="&#xb7;" horiz-adv-x="245" 
d="M170 754.5q20 -19.5 20 -47.5t-20 -47.5t-47 -19.5q-28 0 -48 19.5t-20 47.5t20 47.5t48 19.5q27 0 47 -19.5z" />
    <glyph glyph-name="periodcentered" unicode="&#x2219;" horiz-adv-x="245" 
d="M170 754.5q20 -19.5 20 -47.5t-20 -47.5t-47 -19.5q-28 0 -48 19.5t-20 47.5t20 47.5t48 19.5q27 0 47 -19.5z" />
    <glyph glyph-name="cedilla" unicode="&#xb8;" horiz-adv-x="464" 
d="M258 16l-26 -68q92 -7 118 -61q14 -29 14 -56q0 -23 -11 -44q-23 -45 -85 -55q-23 -4 -43 -4q-34 0 -58 11q-39 17 -67 39l37 40q34 -35 73 -35q10 0 21 3q47 11 47 57v6q-3 43 -99 43q-17 0 -37 -1l52 125h64z" />
    <glyph glyph-name="uni00B9" unicode="&#xb9;" horiz-adv-x="750" 
d="M335 637v608l-70 -42l-62 41l216 144v-751h184v-68h-456v68h188z" />
    <glyph glyph-name="ordmasculine" unicode="&#xba;" horiz-adv-x="565" 
d="M269 1339q-72 0 -123 -51t-51 -123t51 -122.5t123 -50.5h26q72 0 123 50.5t51 122.5t-51 123t-123 51h-26zM269 929q-97 0 -166.5 69.5t-69.5 166.5q0 98 69.5 167t166.5 69h26q97 0 166.5 -69t69.5 -167q0 -97 -69.5 -166.5t-166.5 -69.5h-26z" />
    <glyph glyph-name="guillemotright" unicode="&#xbb;" horiz-adv-x="816" 
d="M55 0v114l289 311l-289 312v113l402 -425zM365 0v114l290 311l-290 312v113l396 -425z" />
    <glyph glyph-name="onequarter" unicode="&#xbc;" horiz-adv-x="1667" 
d="M335 637v608l-70 -42l-62 41l216 144v-751h184v-68h-456v68h188zM1467 1414l-1015 -1414h-102l1013 1414h104zM1473 880v-612h81v-67h-81v-201h-84v201h-359zM1389 610l-222 -342h222v342z" />
    <glyph glyph-name="onehalf" unicode="&#xbd;" horiz-adv-x="1667" 
d="M335 637v608l-70 -42l-62 41l216 144v-751h184v-68h-456v68h188zM1467 1414l-1015 -1414h-102l1013 1414h104zM1050 0q395 461 395 598q-4 140 -142 141q-92 -5 -122 -61l-77 32q62 94 200 100q230 -5 230 -208q0 -158 -333 -534h333v-68h-484z" />
    <glyph glyph-name="threequarters" unicode="&#xbe;" horiz-adv-x="1667" 
d="M343 1033h-55v67q63 1 90.5 11t61.5 43t34 79q0 47 -33.5 77t-78.5 30t-78 -29q-19 -18 -35 -55l-77 28q15 44 47 73q59 53 143 53t141.5 -53t57.5 -124q0 -113 -129 -168q84 -7 137 -60q76 -75 76 -173q0 -100 -78.5 -172.5t-192.5 -72.5q-113 0 -193 74q-62 57 -76 141
l83 28q10 -80 57 -124q54 -48 129 -48q76 0 130.5 49.5t54.5 124.5q0 73 -54 127t-162 74zM1467 1414l-1015 -1414h-102l1013 1414h104zM1473 880v-612h81v-67h-81v-201h-84v201h-359zM1389 610l-222 -342h222v342z" />
    <glyph glyph-name="questiondown" unicode="&#xbf;" horiz-adv-x="752" 
d="M353 1331q0 33 23.5 56t55.5 23q33 0 56.5 -23t23.5 -56t-23.5 -56t-56.5 -23q-32 0 -55.5 23t-23.5 56zM488 1063q1 -14 1 -27q0 -197 -148 -379q-176 -217 -201 -309q-10 -36 -10 -69q0 -52 24 -96q39 -73 124 -104q39 -14 76 -14q47 0 92 21q83 39 114 124
q14 39 14 76q0 9 -1 18l77 5q2 -15 2 -31q0 -46 -18 -93q-53 -127 -171 -174q-59 -23 -117 -23q-59 0 -117 23q-116 48 -158 160q-21 56 -21 110q0 55 21 108q42 106 200 302q140 174 140 332q0 20 -2 40h79z" />
    <glyph glyph-name="Agrave" unicode="&#xc0;" horiz-adv-x="1116" 
d="M774 701l-215 593l-216 -593h431zM600 1414l513 -1414h-84l-226 622h-489l-230 -622h-85l519 1414h82zM509 1683l144 -165h-75l-216 165h147z" />
    <glyph glyph-name="Aacute" unicode="&#xc1;" horiz-adv-x="1116" 
d="M774 701l-215 593l-216 -593h431zM600 1414l513 -1414h-84l-226 622h-489l-230 -622h-85l519 1414h82zM750 1683l-217 -165h-74l144 165h147z" />
    <glyph glyph-name="Acircumflex" unicode="&#xc2;" horiz-adv-x="1116" 
d="M774 701l-215 593l-216 -593h431zM600 1414l513 -1414h-84l-226 622h-489l-230 -622h-85l519 1414h82zM789 1519h-92l-145 106l-135 -106h-93l228 187z" />
    <glyph glyph-name="Atilde" unicode="&#xc3;" horiz-adv-x="1116" 
d="M774 701l-215 593l-216 -593h431zM600 1414l513 -1414h-84l-226 622h-489l-230 -622h-85l519 1414h82zM566 1633q59 -43 82 -43h4q18 7 26 32q4 14 4 49l66 -13q-2 -37 -10 -61q-18 -55 -62 -74q-12 -4 -25 -4q-41 0 -105 45q-59 44 -82 44q-3 0 -4 -1q-17 -6 -25 -32
q-5 -14 -5 -49l-65 14q1 37 9 60q18 55 63 74q11 5 25 5q41 0 104 -46z" />
    <glyph glyph-name="Adieresis" unicode="&#xc4;" horiz-adv-x="1116" 
d="M774 701l-215 593l-216 -593h431zM600 1414l513 -1414h-84l-226 622h-489l-230 -622h-85l519 1414h82zM479.5 1658q23.5 -23 23.5 -55q0 -34 -23.5 -57t-55.5 -23q-33 0 -56.5 23t-23.5 57q0 32 23.5 55t56.5 23q32 0 55.5 -23zM744.5 1658q23.5 -23 23.5 -55
q0 -34 -23.5 -57t-55.5 -23q-33 0 -56.5 23t-23.5 57q0 32 23.5 55t56.5 23q32 0 55.5 -23z" />
    <glyph glyph-name="Aring" unicode="&#xc5;" horiz-adv-x="1116" 
d="M774 701l-215 593l-216 -593h431zM556 1573q-21 0 -36 -15t-15 -37q0 -21 15 -36.5t36 -15.5t36 15.5t15 36.5q0 22 -15 37t-36 15zM600 1414l513 -1414h-84l-226 622h-489l-230 -622h-85l519 1414q-20 5 -42 27q-33 33 -33 80t33 80t80 33t80 -33t33 -80t-33 -80
q-22 -22 -36 -27z" />
    <glyph glyph-name="AE" unicode="&#xc6;" horiz-adv-x="1443" 
d="M1331 747v-80h-627v-587h627v-80h-706v542h-300l-241 -542h-85l615 1414h717v-80h-627v-587h627zM625 621v629l-271 -629h271z" />
    <glyph glyph-name="Ccedilla" unicode="&#xc7;" horiz-adv-x="1347" 
d="M729 -14q-257 22 -443 209q-212 211 -212 512q0 299 211.5 511.5t512.5 212.5q280 0 487 -189l-61 -54q-182 161 -426 161q-266 0 -454.5 -188t-188.5 -454q0 -267 188.5 -455t454.5 -188q244 0 426 161l61 -54q-207 -188 -487 -188h-5l-13 -35q92 -7 118 -61
q14 -29 14 -56q0 -23 -11 -44q-23 -45 -85 -55q-23 -4 -43 -4q-34 0 -58 11q-39 17 -67 39l37 40q34 -35 73 -35q10 0 21 3q47 11 47 57v6q-3 43 -99 43q-17 0 -37 -1z" />
    <glyph glyph-name="Egrave" unicode="&#xc8;" horiz-adv-x="931" 
d="M819 1414v-80h-627v-587h627v-80h-627v-587h627v-80h-707v1414h707zM419 1683l144 -165h-75l-216 165h147z" />
    <glyph glyph-name="Eacute" unicode="&#xc9;" horiz-adv-x="931" 
d="M819 1414v-80h-627v-587h627v-80h-627v-587h627v-80h-707v1414h707zM660 1683l-217 -165h-74l144 165h147z" />
    <glyph glyph-name="Ecircumflex" unicode="&#xca;" horiz-adv-x="931" 
d="M819 1414v-80h-627v-587h627v-80h-627v-587h627v-80h-707v1414h707zM698 1519h-92l-145 106l-135 -106h-93l228 187z" />
    <glyph glyph-name="Edieresis" unicode="&#xcb;" horiz-adv-x="931" 
d="M819 1414v-80h-627v-587h627v-80h-627v-587h627v-80h-707v1414h707zM389.5 1658q23.5 -23 23.5 -55q0 -34 -23.5 -57t-55.5 -23q-33 0 -56.5 23t-23.5 57q0 32 23.5 55t56.5 23q32 0 55.5 -23zM654.5 1658q23.5 -23 23.5 -55q0 -34 -23.5 -57t-55.5 -23q-33 0 -56.5 23
t-23.5 57q0 32 23.5 55t56.5 23q32 0 55.5 -23z" />
    <glyph glyph-name="Igrave" unicode="&#xcc;" horiz-adv-x="324" 
d="M202 1414v-1414h-80v1414h80zM115 1683l144 -165h-75l-216 165h147z" />
    <glyph glyph-name="Iacute" unicode="&#xcd;" horiz-adv-x="324" 
d="M202 1414v-1414h-80v1414h80zM356 1683l-217 -165h-74l144 165h147z" />
    <glyph glyph-name="Icircumflex" unicode="&#xce;" horiz-adv-x="324" 
d="M183 1414v-1414h-80v1414h80zM375 1519h-92l-145 106l-135 -106h-93l228 187z" />
    <glyph glyph-name="Idieresis" unicode="&#xcf;" horiz-adv-x="324" 
d="M202 1414v-1414h-80v1414h80zM85.5 1658q23.5 -23 23.5 -55q0 -34 -23.5 -57t-55.5 -23q-33 0 -56.5 23t-23.5 57q0 32 23.5 55t56.5 23q32 0 55.5 -23zM350.5 1658q23.5 -23 23.5 -55q0 -34 -23.5 -57t-55.5 -23q-33 0 -56.5 23t-23.5 57q0 32 23.5 55t56.5 23
q32 0 55.5 -23z" />
    <glyph glyph-name="Eth" unicode="&#xd0;" horiz-adv-x="1240" 
d="M228 667v-585h181q305 0 481 170q188 188 188 455q0 266 -188 455q-176 169 -481 169h-181v-584h492v-80h-492zM148 747v667h262q349 -2 541 -195q212 -213 212 -512q0 -301 -212 -513q-192 -192 -541 -194h-262v667h-128v80h128z" />
    <glyph glyph-name="Ntilde" unicode="&#xd1;" horiz-adv-x="1339" 
d="M210 1414l940 -1317v1317h80v-1414h-123l-918 1286v-1286h-80v1414h101zM679 1633q59 -43 82 -43h4q18 7 26 32q4 14 4 49l66 -13q-2 -37 -10 -61q-18 -55 -62 -74q-12 -4 -25 -4q-41 0 -105 45q-59 44 -82 44q-3 0 -4 -1q-17 -6 -25 -32q-5 -14 -5 -49l-65 14q1 37 9 60
q18 55 63 74q11 5 25 5q41 0 104 -46z" />
    <glyph glyph-name="Ograve" unicode="&#xd2;" horiz-adv-x="1575" 
d="M1300.5 1221.5q212.5 -212.5 212.5 -512.5q0 -301 -212.5 -513.5t-513.5 -212.5q-300 0 -512.5 212.5t-212.5 513.5q0 300 212.5 512.5t512.5 212.5q301 0 513.5 -212.5zM787 1353q-266 0 -455 -189t-189 -455q0 -267 189 -456t455 -189q267 0 456 189t189 456
q0 266 -189 455t-456 189zM741 1683l144 -165h-75l-216 165h147z" />
    <glyph glyph-name="Oacute" unicode="&#xd3;" horiz-adv-x="1575" 
d="M1300.5 1221.5q212.5 -212.5 212.5 -512.5q0 -301 -212.5 -513.5t-513.5 -212.5q-300 0 -512.5 212.5t-212.5 513.5q0 300 212.5 512.5t512.5 212.5q301 0 513.5 -212.5zM787 1353q-266 0 -455 -189t-189 -455q0 -267 189 -456t455 -189q267 0 456 189t189 456
q0 266 -189 455t-456 189zM982 1683l-217 -165h-74l144 165h147z" />
    <glyph glyph-name="Ocircumflex" unicode="&#xd4;" horiz-adv-x="1575" 
d="M1300.5 1221.5q212.5 -212.5 212.5 -512.5q0 -301 -212.5 -513.5t-513.5 -212.5q-300 0 -512.5 212.5t-212.5 513.5q0 300 212.5 512.5t512.5 212.5q301 0 513.5 -212.5zM787 1353q-266 0 -455 -189t-189 -455q0 -267 189 -456t455 -189q267 0 456 189t189 456
q0 266 -189 455t-456 189zM1020 1519h-92l-145 106l-135 -106h-93l228 187z" />
    <glyph glyph-name="Otilde" unicode="&#xd5;" horiz-adv-x="1575" 
d="M1300.5 1221.5q212.5 -212.5 212.5 -512.5q0 -301 -212.5 -513.5t-513.5 -212.5q-300 0 -512.5 212.5t-212.5 513.5q0 300 212.5 512.5t512.5 212.5q301 0 513.5 -212.5zM787 1353q-266 0 -455 -189t-189 -455q0 -267 189 -456t455 -189q267 0 456 189t189 456
q0 266 -189 455t-456 189zM797 1633q59 -43 82 -43h4q18 7 26 32q4 14 4 49l66 -13q-2 -37 -10 -61q-18 -55 -62 -74q-12 -4 -25 -4q-41 0 -105 45q-59 44 -82 44q-3 0 -4 -1q-17 -6 -25 -32q-5 -14 -5 -49l-65 14q1 37 9 60q18 55 63 74q11 5 25 5q41 0 104 -46z" />
    <glyph glyph-name="Odieresis" unicode="&#xd6;" horiz-adv-x="1575" 
d="M1300.5 1221.5q212.5 -212.5 212.5 -512.5q0 -301 -212.5 -513.5t-513.5 -212.5q-300 0 -512.5 212.5t-212.5 513.5q0 300 212.5 512.5t512.5 212.5q301 0 513.5 -212.5zM787 1353q-266 0 -455 -189t-189 -455q0 -267 189 -456t455 -189q267 0 456 189t189 456
q0 266 -189 455t-456 189zM711.5 1658q23.5 -23 23.5 -55q0 -34 -23.5 -57t-55.5 -23q-33 0 -56.5 23t-23.5 57q0 32 23.5 55t56.5 23q32 0 55.5 -23zM976.5 1658q23.5 -23 23.5 -55q0 -34 -23.5 -57t-55.5 -23q-33 0 -56.5 23t-23.5 57q0 32 23.5 55t56.5 23q32 0 55.5 -23
z" />
    <glyph glyph-name="multiply" unicode="&#xd7;" horiz-adv-x="1070" 
d="M534 616l-289 -289l-57 56l290 290l-290 290l57 56l289 -289l290 289l57 -56l-290 -290l290 -290l-57 -56z" />
    <glyph glyph-name="Oslash" unicode="&#xd8;" horiz-adv-x="1647" 
d="M1059 1310q-108 43 -236 43q-266 0 -455 -189t-189 -455q0 -267 189 -456q68 -68 147 -113zM587 107q109 -43 236 -43q267 0 456 189t189 456q0 266 -189 456q-69 68 -147 111zM1166 1350q91 -49 171 -128q212 -213 212 -513q0 -301 -212.5 -513.5t-513.5 -212.5
q-145 0 -270 51l-76 -163l-72 34l76 162q-91 50 -170 129q-213 212 -213 513q0 300 212.5 512.5t512.5 212.5q146 0 271 -50l76 162l72 -33z" />
    <glyph glyph-name="Ugrave" unicode="&#xd9;" horiz-adv-x="1147" 
d="M955 1414h80v-1016q-22 -162 -135 -275q-135 -135 -326 -135q-192 0 -327 135t-135 326v965h80v-965q0 -157 112 -269t270 -112t269.5 112t111.5 269v965zM527 1683l144 -165h-75l-216 165h147z" />
    <glyph glyph-name="Uacute" unicode="&#xda;" horiz-adv-x="1147" 
d="M955 1414h80v-1016q-22 -162 -135 -275q-135 -135 -326 -135q-192 0 -327 135t-135 326v965h80v-965q0 -157 112 -269t270 -112t269.5 112t111.5 269v965zM768 1683l-217 -165h-74l144 165h147z" />
    <glyph glyph-name="Ucircumflex" unicode="&#xdb;" horiz-adv-x="1147" 
d="M955 1414h80v-1016q-22 -162 -135 -275q-135 -135 -326 -135q-192 0 -327 135t-135 326v965h80v-965q0 -157 112 -269t270 -112t269.5 112t111.5 269v965zM806 1519h-92l-145 106l-135 -106h-93l228 187z" />
    <glyph glyph-name="Udieresis" unicode="&#xdc;" horiz-adv-x="1147" 
d="M955 1414h80v-1016q-22 -162 -135 -275q-135 -135 -326 -135q-192 0 -327 135t-135 326v965h80v-965q0 -157 112 -269t270 -112t269.5 112t111.5 269v965zM497.5 1658q23.5 -23 23.5 -55q0 -34 -23.5 -57t-55.5 -23q-33 0 -56.5 23t-23.5 57q0 32 23.5 55t56.5 23
q32 0 55.5 -23zM762.5 1658q23.5 -23 23.5 -55q0 -34 -23.5 -57t-55.5 -23q-33 0 -56.5 23t-23.5 57q0 32 23.5 55t56.5 23q32 0 55.5 -23z" />
    <glyph glyph-name="Yacute" unicode="&#xdd;" horiz-adv-x="1116" 
d="M518 572l-486 842h91l435 -754l435 754h91l-486 -842v-572h-80v572zM752 1683l-217 -165h-74l144 165h147z" />
    <glyph glyph-name="Thorn" unicode="&#xde;" horiz-adv-x="946" 
d="M178 1169h291q162 -22 275 -135q135 -135 135 -326q0 -192 -135 -327t-326 -135h-240v-246h-80v1414h80v-245zM178 326h240q157 0 269 112t112 270t-112 269.5t-269 111.5h-240v-763z" />
    <glyph glyph-name="germandbls" unicode="&#xdf;" horiz-adv-x="990" 
d="M498 1265q-112 0 -164.5 -49.5t-55.5 -118.5v-1097h-80v788h-88v80h88v235q6 98 77 167t215 69q250 -14 251 -236q0 -112 -104 -195q-109 -86 -109 -157q5 -68 204 -163q198 -96 198 -281q0 -158 -90 -238q-90 -81 -197 -81q-147 0 -222 76l57 56q52 -53 165 -53
q73 0 141 58q68 57 68 182q-10 153 -204 238t-197 201q0 115 108 194q103 75 103 167q-1 138 -164 158z" />
    <glyph glyph-name="agrave" unicode="&#xe0;" horiz-adv-x="1122" 
d="M1033 0h-80v177q-23 -31 -50 -59q-142 -143 -344 -143q-200 0 -342.5 142.5t-142.5 342.5q0 202 142.5 344t342.5 142q202 0 344 -142q27 -28 50 -59v123h80v-868zM953 382v157q-22 117 -110 205q-118 118 -284 118t-283.5 -118t-117.5 -284t117.5 -283t283.5 -117
t284 118q88 88 110 204zM507 1217l144 -165h-75l-216 165h147z" />
    <glyph glyph-name="aacute" unicode="&#xe1;" horiz-adv-x="1122" 
d="M1033 0h-80v177q-23 -31 -50 -59q-142 -143 -344 -143q-200 0 -342.5 142.5t-142.5 342.5q0 202 142.5 344t342.5 142q202 0 344 -142q27 -28 50 -59v123h80v-868zM953 382v157q-22 117 -110 205q-118 118 -284 118t-283.5 -118t-117.5 -284t117.5 -283t283.5 -117
t284 118q88 88 110 204zM748 1217l-217 -165h-74l144 165h147z" />
    <glyph glyph-name="acircumflex" unicode="&#xe2;" horiz-adv-x="1122" 
d="M1033 0h-80v177q-23 -31 -50 -59q-142 -143 -344 -143q-200 0 -342.5 142.5t-142.5 342.5q0 202 142.5 344t342.5 142q202 0 344 -142q27 -28 50 -59v123h80v-868zM953 382v157q-22 117 -110 205q-118 118 -284 118t-283.5 -118t-117.5 -284t117.5 -283t283.5 -117
t284 118q88 88 110 204zM786 1053h-92l-145 106l-135 -106h-93l228 187z" />
    <glyph glyph-name="atilde" unicode="&#xe3;" horiz-adv-x="1122" 
d="M1033 0h-80v177q-23 -31 -50 -59q-142 -143 -344 -143q-200 0 -342.5 142.5t-142.5 342.5q0 202 142.5 344t342.5 142q202 0 344 -142q27 -28 50 -59v123h80v-868zM953 382v157q-22 117 -110 205q-118 118 -284 118t-283.5 -118t-117.5 -284t117.5 -283t283.5 -117
t284 118q88 88 110 204zM563 1167q59 -43 82 -43h4q18 7 26 32q4 14 4 49l66 -13q-2 -37 -10 -61q-18 -55 -62 -74q-12 -4 -25 -4q-41 0 -105 45q-59 44 -82 44q-3 0 -4 -1q-17 -6 -25 -32q-5 -14 -5 -49l-65 14q1 37 9 60q18 55 63 74q11 5 25 5q41 0 104 -46z" />
    <glyph glyph-name="adieresis" unicode="&#xe4;" horiz-adv-x="1122" 
d="M1033 0h-80v177q-23 -31 -50 -59q-142 -143 -344 -143q-200 0 -342.5 142.5t-142.5 342.5q0 202 142.5 344t342.5 142q202 0 344 -142q27 -28 50 -59v123h80v-868zM953 382v157q-22 117 -110 205q-118 118 -284 118t-283.5 -118t-117.5 -284t117.5 -283t283.5 -117
t284 118q88 88 110 204zM477.5 1192q23.5 -23 23.5 -55q0 -34 -23.5 -57t-55.5 -23q-33 0 -56.5 23t-23.5 57q0 32 23.5 55t56.5 23q32 0 55.5 -23zM742.5 1192q23.5 -23 23.5 -55q0 -34 -23.5 -57t-55.5 -23q-33 0 -56.5 23t-23.5 57q0 32 23.5 55t56.5 23q32 0 55.5 -23z
" />
    <glyph glyph-name="aring" unicode="&#xe5;" horiz-adv-x="1122" 
d="M953 382v157q-22 117 -110 205q-118 118 -284 118t-283.5 -118t-117.5 -284t117.5 -283t283.5 -117t284 118q88 88 110 204zM554 1109q-22 0 -37 -15t-15 -37q0 -21 15 -36.5t37 -15.5q21 0 36 15.5t15 36.5q0 22 -15 37t-36 15zM575 946q192 -6 328 -142q27 -28 50 -59
v123h80v-868h-80v177q-23 -31 -50 -59q-142 -143 -344 -143q-200 0 -342.5 142.5t-142.5 342.5q0 202 143 344q133 133 318 141q-35 6 -61 32q-34 33 -34 80t33.5 80t80.5 33q46 0 79.5 -33t33.5 -80t-33 -80q-26 -25 -59 -31z" />
    <glyph glyph-name="ae" unicode="&#xe6;" horiz-adv-x="1873" 
d="M912 653q-27 49 -69 91q-118 118 -284 118t-283.5 -118t-117.5 -284t117.5 -283t283.5 -117t284 118q42 42 69 90q30 53 41 114v157q-11 61 -41 114zM1738 586q-28 91 -96 158q-117 118 -283 118t-284 -118q-24 -24 -42 -49v-109h705zM1033 226q18 -25 42 -48
q118 -118 284 -118t283 118q21 20 38 42l85 -30q-15 -25 -63 -72q-142 -143 -343 -143q-189 0 -326 127v-102h-80v177q-23 -31 -50 -59q-142 -143 -344 -143q-200 0 -342.5 142.5t-142.5 342.5q0 202 142.5 344t342.5 142q202 0 344 -142q27 -28 50 -59v123h80v-48
q137 126 326 126q201 0 343 -142q126 -126 131 -299l-800 1v-280z" />
    <glyph glyph-name="ccedilla" unicode="&#xe7;" horiz-adv-x="985" 
d="M442 -16q-140 26 -247 134q-143 142 -143 343t142.5 343t342.5 142q202 0 344 -142q29 -29 52 -60l-84 -31q-13 16 -28 32q-118 117 -284 117q-165 0 -282.5 -117.5t-117.5 -283.5t117.5 -283.5t282.5 -117.5q166 0 284 118q15 15 28 31l84 -31q-23 -31 -52 -60
q-142 -143 -344 -143q-17 0 -33 1l-11 -28q92 -7 118 -61q14 -29 14 -56q0 -23 -11 -44q-23 -45 -85 -55q-23 -4 -43 -4q-34 0 -58 11q-39 17 -67 39l37 40q34 -35 73 -35q10 0 21 3q47 11 47 57v6q-3 43 -99 43q-17 0 -37 -1z" />
    <glyph glyph-name="egrave" unicode="&#xe8;" horiz-adv-x="1042" 
d="M154 586h762q-28 91 -95 158q-118 118 -284 118t-284 -118q-70 -71 -99 -158zM139 505q-3 -21 -3 -45q0 -166 117.5 -283t283.5 -117t284 118q20 20 38 42l85 -30q-15 -25 -63 -72q-142 -143 -344 -143q-200 0 -342.5 142.5t-142.5 342.5q0 202 142.5 344t342.5 142
q202 0 344 -142q125 -126 125 -299h-867zM482 1217l144 -165h-75l-216 165h147z" />
    <glyph glyph-name="eacute" unicode="&#xe9;" horiz-adv-x="1042" 
d="M154 586h762q-28 91 -95 158q-118 118 -284 118t-284 -118q-70 -71 -99 -158zM139 505q-3 -21 -3 -45q0 -166 117.5 -283t283.5 -117t284 118q20 20 38 42l85 -30q-15 -25 -63 -72q-142 -143 -344 -143q-200 0 -342.5 142.5t-142.5 342.5q0 202 142.5 344t342.5 142
q202 0 344 -142q125 -126 125 -299h-867zM723 1217l-217 -165h-74l144 165h147z" />
    <glyph glyph-name="ecircumflex" unicode="&#xea;" horiz-adv-x="1042" 
d="M154 586h762q-28 91 -95 158q-118 118 -284 118t-284 -118q-70 -71 -99 -158zM139 505q-3 -21 -3 -45q0 -166 117.5 -283t283.5 -117t284 118q20 20 38 42l85 -30q-15 -25 -63 -72q-142 -143 -344 -143q-200 0 -342.5 142.5t-142.5 342.5q0 202 142.5 344t342.5 142
q202 0 344 -142q125 -126 125 -299h-867zM762 1053h-92l-145 106l-135 -106h-93l228 187z" />
    <glyph glyph-name="edieresis" unicode="&#xeb;" horiz-adv-x="1042" 
d="M154 586h762q-28 91 -95 158q-118 118 -284 118t-284 -118q-70 -71 -99 -158zM139 505q-3 -21 -3 -45q0 -166 117.5 -283t283.5 -117t284 118q20 20 38 42l85 -30q-15 -25 -63 -72q-142 -143 -344 -143q-200 0 -342.5 142.5t-142.5 342.5q0 202 142.5 344t342.5 142
q202 0 344 -142q125 -126 125 -299h-867zM452.5 1192q23.5 -23 23.5 -55q0 -34 -23.5 -57t-55.5 -23q-33 0 -56.5 23t-23.5 57q0 32 23.5 55t56.5 23q32 0 55.5 -23zM717.5 1192q23.5 -23 23.5 -55q0 -34 -23.5 -57t-55.5 -23q-33 0 -56.5 23t-23.5 57q0 32 23.5 55t56.5 23
q32 0 55.5 -23z" />
    <glyph glyph-name="igrave" unicode="&#xec;" horiz-adv-x="317" 
d="M198 868v-868h-79v868h79zM112 1217l144 -165h-75l-216 165h147z" />
    <glyph glyph-name="iacute" unicode="&#xed;" horiz-adv-x="317" 
d="M198 868v-868h-79v868h79zM353 1217l-217 -165h-74l144 165h147z" />
    <glyph glyph-name="icircumflex" unicode="&#xee;" horiz-adv-x="317" 
d="M178 868v-868h-79v868h79zM371 1053h-92l-145 106l-135 -106h-93l228 187z" />
    <glyph glyph-name="idieresis" unicode="&#xef;" horiz-adv-x="317" 
d="M199 868v-868h-79v868h79zM82.5 1192q23.5 -23 23.5 -55q0 -34 -23.5 -57t-55.5 -23q-33 0 -56.5 23t-23.5 57q0 32 23.5 55t56.5 23q32 0 55.5 -23zM347.5 1192q23.5 -23 23.5 -55q0 -34 -23.5 -57t-55.5 -23q-33 0 -56.5 23t-23.5 57q0 32 23.5 55t56.5 23
q32 0 55.5 -23z" />
    <glyph glyph-name="eth" unicode="&#xf0;" horiz-adv-x="1114" 
d="M156 460q0 -166 117.5 -283t283.5 -117t283.5 117t117.5 283t-117.5 284t-283.5 118t-283.5 -118t-117.5 -284zM901 804q141 -142 141 -344q0 -200 -141.5 -342.5t-343.5 -142.5q-200 0 -342.5 142.5t-142.5 342.5q0 202 142.5 344t342.5 142q39 0 95 -5l-195 176
l-143 -143h-114l200 200l-197 196h112l141 -140l137 137h114l-194 -194q343 -325 388 -369z" />
    <glyph glyph-name="ntilde" unicode="&#xf1;" horiz-adv-x="879" 
d="M179 674v-674h-80v868h80v-56q108 108 252 108q154 0 250.5 -96.5t98.5 -242.5v-581h-79v573q0 111 -80 189t-190 78q-109 0 -189 -77q-43 -43 -63 -89zM449 1167q59 -43 82 -43h4q18 7 26 32q4 14 4 49l66 -13q-2 -37 -10 -61q-18 -55 -62 -74q-12 -4 -25 -4
q-41 0 -105 45q-59 44 -82 44q-3 0 -4 -1q-17 -6 -25 -32q-5 -14 -5 -49l-65 14q1 37 9 60q18 55 63 74q11 5 25 5q41 0 104 -46z" />
    <glyph glyph-name="ograve" unicode="&#xf2;" horiz-adv-x="1114" 
d="M557 946q202 0 343.5 -142t141.5 -344q0 -200 -141.5 -342.5t-343.5 -142.5q-200 0 -342.5 142.5t-142.5 342.5q0 202 142.5 344t342.5 142zM273.5 744q-117.5 -118 -117.5 -284t117.5 -283t283.5 -117t283.5 117t117.5 283t-117.5 284t-283.5 118t-283.5 -118zM510 1217
l144 -165h-75l-216 165h147z" />
    <glyph glyph-name="oacute" unicode="&#xf3;" horiz-adv-x="1114" 
d="M557 946q202 0 343.5 -142t141.5 -344q0 -200 -141.5 -342.5t-343.5 -142.5q-200 0 -342.5 142.5t-142.5 342.5q0 202 142.5 344t342.5 142zM273.5 744q-117.5 -118 -117.5 -284t117.5 -283t283.5 -117t283.5 117t117.5 283t-117.5 284t-283.5 118t-283.5 -118zM751 1217
l-217 -165h-74l144 165h147z" />
    <glyph glyph-name="ocircumflex" unicode="&#xf4;" horiz-adv-x="1114" 
d="M557 946q202 0 343.5 -142t141.5 -344q0 -200 -141.5 -342.5t-343.5 -142.5q-200 0 -342.5 142.5t-142.5 342.5q0 202 142.5 344t342.5 142zM273.5 744q-117.5 -118 -117.5 -284t117.5 -283t283.5 -117t283.5 117t117.5 283t-117.5 284t-283.5 118t-283.5 -118zM790 1053
h-92l-145 106l-135 -106h-93l228 187z" />
    <glyph glyph-name="otilde" unicode="&#xf5;" horiz-adv-x="1114" 
d="M557 946q202 0 343.5 -142t141.5 -344q0 -200 -141.5 -342.5t-343.5 -142.5q-200 0 -342.5 142.5t-142.5 342.5q0 202 142.5 344t342.5 142zM273.5 744q-117.5 -118 -117.5 -284t117.5 -283t283.5 -117t283.5 117t117.5 283t-117.5 284t-283.5 118t-283.5 -118zM567 1167
q59 -43 82 -43h4q18 7 26 32q4 14 4 49l66 -13q-2 -37 -10 -61q-18 -55 -62 -74q-12 -4 -25 -4q-41 0 -105 45q-59 44 -82 44q-3 0 -4 -1q-17 -6 -25 -32q-5 -14 -5 -49l-65 14q1 37 9 60q18 55 63 74q11 5 25 5q41 0 104 -46z" />
    <glyph glyph-name="odieresis" unicode="&#xf6;" horiz-adv-x="1114" 
d="M557 946q202 0 343.5 -142t141.5 -344q0 -200 -141.5 -342.5t-343.5 -142.5q-200 0 -342.5 142.5t-142.5 342.5q0 202 142.5 344t342.5 142zM273.5 744q-117.5 -118 -117.5 -284t117.5 -283t283.5 -117t283.5 117t117.5 283t-117.5 284t-283.5 118t-283.5 -118z
M480.5 1192q23.5 -23 23.5 -55q0 -34 -23.5 -57t-55.5 -23q-33 0 -56.5 23t-23.5 57q0 32 23.5 55t56.5 23q32 0 55.5 -23zM745.5 1192q23.5 -23 23.5 -55q0 -34 -23.5 -57t-55.5 -23q-33 0 -56.5 23t-23.5 57q0 32 23.5 55t56.5 23q32 0 55.5 -23z" />
    <glyph glyph-name="divide" unicode="&#xf7;" horiz-adv-x="1070" 
d="M85 633v80h900v-80h-900zM591.5 421q23.5 -23 23.5 -56t-23.5 -56t-55.5 -23q-33 0 -56.5 23t-23.5 56t23.5 56t56.5 23q32 0 55.5 -23zM591.5 1038q23.5 -23 23.5 -56t-23.5 -56t-55.5 -23q-33 0 -56.5 23t-23.5 56t23.5 56t56.5 23q32 0 55.5 -23z" />
    <glyph glyph-name="oslash" unicode="&#xf8;" horiz-adv-x="1080" 
d="M706 828q-76 34 -166 34q-166 0 -283.5 -117.5t-117.5 -283.5t117 -283q24 -24 51 -43zM774 787l-400 -692q76 -34 166 -34q166 0 283.5 117t117.5 283t-117 284q-24 24 -50 42zM264 62q-35 25 -67 56q-142 143 -142 343q0 202 142.5 344t342.5 142q114 0 210 -46
l107 188l70 -37l-110 -190q35 -25 67 -57q141 -142 141 -344q0 -200 -141.5 -342.5t-343.5 -142.5q-114 0 -208 46l-109 -188l-70 33z" />
    <glyph glyph-name="ugrave" unicode="&#xf9;" horiz-adv-x="880" 
d="M445 -12q-163 0 -259 96t-99 243v542h80v-535q0 -110 80 -188q79 -79 197 -79q110 0 189.5 78.5t79.5 188.5v535h80v-542q-3 -147 -99 -243t-249 -96zM393 1217l144 -165h-75l-216 165h147z" />
    <glyph glyph-name="uacute" unicode="&#xfa;" horiz-adv-x="880" 
d="M445 -12q-163 0 -259 96t-99 243v542h80v-535q0 -110 80 -188q79 -79 197 -79q110 0 189.5 78.5t79.5 188.5v535h80v-542q-3 -147 -99 -243t-249 -96zM634 1217l-217 -165h-74l144 165h147z" />
    <glyph glyph-name="ucircumflex" unicode="&#xfb;" horiz-adv-x="880" 
d="M445 -12q-163 0 -259 96t-99 243v542h80v-535q0 -110 80 -188q79 -79 197 -79q110 0 189.5 78.5t79.5 188.5v535h80v-542q-3 -147 -99 -243t-249 -96zM673 1053h-92l-145 106l-135 -106h-93l228 187z" />
    <glyph glyph-name="udieresis" unicode="&#xfc;" horiz-adv-x="880" 
d="M445 -12q-163 0 -259 96t-99 243v542h80v-535q0 -110 80 -188q79 -79 197 -79q110 0 189.5 78.5t79.5 188.5v535h80v-542q-3 -147 -99 -243t-249 -96zM363.5 1192q23.5 -23 23.5 -55q0 -34 -23.5 -57t-55.5 -23q-33 0 -56.5 23t-23.5 57q0 32 23.5 55t56.5 23
q32 0 55.5 -23zM628.5 1192q23.5 -23 23.5 -55q0 -34 -23.5 -57t-55.5 -23q-33 0 -56.5 23t-23.5 57q0 32 23.5 55t56.5 23q32 0 55.5 -23z" />
    <glyph glyph-name="yacute" unicode="&#xfd;" horiz-adv-x="779" 
d="M434 163l-229 -493h-89l229 491l-330 707h89l285 -606l286 606h89l-329 -705h-1zM584 1217l-217 -165h-74l144 165h147z" />
    <glyph glyph-name="thorn" unicode="&#xfe;" horiz-adv-x="1204" 
d="M207 559v-198q25 -104 106 -184q117 -118 283 -118t283.5 117.5t117.5 283.5t-117.5 284t-283.5 118t-283 -118q-81 -80 -106 -185zM207 750q21 28 46 54q143 141 343 141q202 0 343.5 -141.5t141.5 -343.5q0 -200 -141.5 -342.5t-343.5 -142.5q-200 0 -343 143
q-25 25 -46 53v-487h-80v1553h80v-487z" />
    <glyph glyph-name="ydieresis" unicode="&#xff;" horiz-adv-x="779" 
d="M434 163l-229 -493h-89l229 491l-330 707h89l285 -606l286 606h89l-329 -705h-1zM313.5 1192q23.5 -23 23.5 -55q0 -34 -23.5 -57t-55.5 -23q-33 0 -56.5 23t-23.5 57q0 32 23.5 55t56.5 23q32 0 55.5 -23zM578.5 1192q23.5 -23 23.5 -55q0 -34 -23.5 -57t-55.5 -23
q-33 0 -56.5 23t-23.5 57q0 32 23.5 55t56.5 23q32 0 55.5 -23z" />
    <glyph glyph-name="Amacron" unicode="&#x100;" horiz-adv-x="1116" 
d="M774 701l-215 593l-216 -593h431zM600 1414l513 -1414h-84l-226 622h-489l-230 -622h-85l519 1414h82zM296 1580h521v-62h-521v62z" />
    <glyph glyph-name="amacron" unicode="&#x101;" horiz-adv-x="1122" 
d="M1033 0h-80v177q-23 -31 -50 -59q-142 -143 -344 -143q-200 0 -342.5 142.5t-142.5 342.5q0 202 142.5 344t342.5 142q202 0 344 -142q27 -28 50 -59v123h80v-868zM953 382v157q-22 117 -110 205q-118 118 -284 118t-283.5 -118t-117.5 -284t117.5 -283t283.5 -117
t284 118q88 88 110 204zM293 1134h521v-62h-521v62z" />
    <glyph glyph-name="Abreve" unicode="&#x102;" horiz-adv-x="1116" 
d="M774 701l-215 593l-216 -593h431zM600 1414l513 -1414h-84l-226 622h-489l-230 -622h-85l519 1414h82zM755 1685q-14 -46 -51 -83q-60 -61 -146 -61q-88 0 -148 61q-39 39 -53 83h70q11 -20 28 -37q42 -43 103 -43q59 0 101 43q18 17 28 37h68z" />
    <glyph glyph-name="abreve" unicode="&#x103;" horiz-adv-x="1122" 
d="M1033 0h-80v177q-23 -31 -50 -59q-142 -143 -344 -143q-200 0 -342.5 142.5t-142.5 342.5q0 202 142.5 344t342.5 142q202 0 344 -142q27 -28 50 -59v123h80v-868zM953 382v157q-22 117 -110 205q-118 118 -284 118t-283.5 -118t-117.5 -284t117.5 -283t283.5 -117
t284 118q88 88 110 204zM753 1219q-15 -46 -52 -83q-60 -61 -146 -61q-88 0 -148 61q-38 39 -53 83h71q10 -20 27 -37q42 -43 103 -43q59 0 101 43q18 17 28 37h69z" />
    <glyph glyph-name="Aogonek" unicode="&#x104;" horiz-adv-x="1116" 
d="M774 701l-215 593l-216 -593h431zM1017 34l-214 588h-489l-230 -622h-85l519 1414h82l513 -1414h-59q-54 -18 -79 -40q-29 -25 -31 -62v-6q0 -33 22 -59q24 -28 58 -30q3 -1 6 -1q31 0 66 23l17 -48l-4 -3q-32 -28 -78 -28h-12q-57 4 -96 49q-35 41 -35 93q0 7 1 14
q5 61 50 100q36 30 78 32z" />
    <glyph glyph-name="aogonek" unicode="&#x105;" horiz-adv-x="1122" 
d="M953 382v157q-22 117 -110 205q-118 118 -284 118t-283.5 -118t-117.5 -284t117.5 -283t283.5 -117t284 118q88 88 110 204zM953 34v143q-23 -31 -50 -59q-142 -143 -344 -143q-200 0 -342.5 142.5t-142.5 342.5q0 202 142.5 344t342.5 142q202 0 344 -142q27 -28 50 -59
v123h80v-868h-59q-54 -18 -79 -40q-29 -25 -31 -62v-6q0 -33 22 -59q24 -28 58 -30q3 -1 6 -1q31 0 66 23l17 -48l-4 -3q-32 -28 -78 -28h-12q-57 4 -96 49q-35 41 -35 93q0 7 1 14q5 61 50 100q38 32 83 32h11z" />
    <glyph glyph-name="Cacute" unicode="&#x106;" horiz-adv-x="1347" 
d="M1224 225l61 -54q-207 -188 -487 -188q-301 0 -512.5 211.5t-211.5 512.5q0 299 211.5 511.5t512.5 212.5q280 0 487 -189l-61 -54q-182 161 -426 161q-266 0 -454.5 -188t-188.5 -454q0 -267 188.5 -455t454.5 -188q244 0 426 161zM874 1683l-217 -165h-74l144 165h147z
" />
    <glyph glyph-name="cacute" unicode="&#x107;" horiz-adv-x="985" 
d="M849 209l84 -31q-23 -31 -52 -60q-142 -143 -344 -143q-200 0 -342.5 142.5t-142.5 343.5t142.5 343t342.5 142q202 0 344 -142q29 -29 52 -60l-84 -31q-13 16 -28 32q-118 117 -284 117q-165 0 -282.5 -117.5t-117.5 -283.5t117.5 -283.5t282.5 -117.5q166 0 284 118
q15 15 28 31zM687 1217l-217 -165h-74l144 165h147z" />
    <glyph glyph-name="Ccircumflex" unicode="&#x108;" horiz-adv-x="1347" 
d="M1224 225l61 -54q-207 -188 -487 -188q-301 0 -512.5 211.5t-211.5 512.5q0 299 211.5 511.5t512.5 212.5q280 0 487 -189l-61 -54q-182 161 -426 161q-266 0 -454.5 -188t-188.5 -454q0 -267 188.5 -455t454.5 -188q244 0 426 161zM912 1519h-92l-145 106l-135 -106h-93
l228 187z" />
    <glyph glyph-name="ccircumflex" unicode="&#x109;" horiz-adv-x="985" 
d="M849 209l84 -31q-23 -31 -52 -60q-142 -143 -344 -143q-200 0 -342.5 142.5t-142.5 343.5t142.5 343t342.5 142q202 0 344 -142q29 -29 52 -60l-84 -31q-13 16 -28 32q-118 117 -284 117q-165 0 -282.5 -117.5t-117.5 -283.5t117.5 -283.5t282.5 -117.5q166 0 284 118
q15 15 28 31zM725 1053h-92l-145 106l-135 -106h-93l228 187z" />
    <glyph glyph-name="Cdotaccent" unicode="&#x10a;" horiz-adv-x="1347" 
d="M1224 225l61 -54q-207 -188 -487 -188q-301 0 -512.5 211.5t-211.5 512.5q0 299 211.5 511.5t512.5 212.5q280 0 487 -189l-61 -54q-182 161 -426 161q-266 0 -454.5 -188t-188.5 -454q0 -267 188.5 -455t454.5 -188q244 0 426 161zM727 1667.5q20 -19.5 20 -47.5
t-20 -47.5t-47 -19.5q-28 0 -48 19.5t-20 47.5t20 47.5t48 19.5q27 0 47 -19.5z" />
    <glyph glyph-name="cdotaccent" unicode="&#x10b;" horiz-adv-x="985" 
d="M849 209l84 -31q-23 -31 -52 -60q-142 -143 -344 -143q-200 0 -342.5 142.5t-142.5 343.5t142.5 343t342.5 142q202 0 344 -142q29 -29 52 -60l-84 -31q-13 16 -28 32q-118 117 -284 117q-165 0 -282.5 -117.5t-117.5 -283.5t117.5 -283.5t282.5 -117.5q166 0 284 118
q15 15 28 31zM540 1201.5q20 -19.5 20 -47.5t-20 -47.5t-47 -19.5q-28 0 -48 19.5t-20 47.5t20 47.5t48 19.5q27 0 47 -19.5z" />
    <glyph glyph-name="Ccaron" unicode="&#x10c;" horiz-adv-x="1347" 
d="M1224 225l61 -54q-207 -188 -487 -188q-301 0 -512.5 211.5t-211.5 512.5q0 299 211.5 511.5t512.5 212.5q280 0 487 -189l-61 -54q-182 161 -426 161q-266 0 -454.5 -188t-188.5 -454q0 -267 188.5 -455t454.5 -188q244 0 426 161zM675 1489l-228 187h93l135 -106
l145 106h92z" />
    <glyph glyph-name="ccaron" unicode="&#x10d;" horiz-adv-x="985" 
d="M849 209l84 -31q-23 -31 -52 -60q-142 -143 -344 -143q-200 0 -342.5 142.5t-142.5 343.5t142.5 343t342.5 142q202 0 344 -142q29 -29 52 -60l-84 -31q-13 16 -28 32q-118 117 -284 117q-165 0 -282.5 -117.5t-117.5 -283.5t117.5 -283.5t282.5 -117.5q166 0 284 118
q15 15 28 31zM488 1033l-228 187h93l135 -106l145 106h92z" />
    <glyph glyph-name="Dcaron" unicode="&#x10e;" horiz-adv-x="1189" 
d="M374 1414q349 -2 541 -195q212 -213 212 -512q0 -301 -212 -513q-192 -192 -541 -194h-262v1414h262zM192 1331v-1249h181q305 0 481 170q188 188 188 455q0 266 -188 455q-176 169 -481 169h-181zM615 1489l-228 187h93l135 -106l145 106h92z" />
    <glyph glyph-name="dcaron" unicode="&#x10f;" horiz-adv-x="1269" 
d="M1033 0h-80v177q-23 -31 -50 -59q-142 -143 -344 -143q-200 0 -342.5 142.5t-142.5 342.5q0 202 142.5 344t342.5 142q202 0 344 -142q27 -28 50 -59v669h80v-1414zM953 382v157q-22 117 -110 205q-118 118 -284 118t-283.5 -118t-117.5 -284t117.5 -283t283.5 -117
t284 118q88 88 110 204zM1169 1268q-20 4 -35 20q-24 23 -24 57q0 33 23.5 55.5t56.5 22.5q32 0 55.5 -22.5t23.5 -55.5q0 -19 -6 -35l-87 -175h-57z" />
    <glyph glyph-name="Dcroat" unicode="&#x110;" horiz-adv-x="1261" 
d="M228 667v-585h181q305 0 481 170q188 188 188 455q0 266 -188 455q-176 169 -481 169h-181v-584h492v-80h-492zM148 747v667h262q349 -2 541 -195q212 -213 212 -512q0 -301 -212 -513q-192 -192 -541 -194h-262v667h-128v80h128z" />
    <glyph glyph-name="dcroat" unicode="&#x111;" horiz-adv-x="1145" 
d="M953 382v157q-22 117 -110 205q-118 118 -284 118t-283.5 -118t-117.5 -284t117.5 -283t283.5 -117t284 118q88 88 110 204zM1033 1134v-1134h-80v177q-23 -31 -50 -59q-142 -143 -344 -143q-200 0 -342.5 142.5t-142.5 342.5q0 202 142.5 344t342.5 142q202 0 344 -142
q27 -28 50 -59v389h-306v79h306v201h80v-201h114v-79h-114z" />
    <glyph glyph-name="Emacron" unicode="&#x112;" horiz-adv-x="931" 
d="M819 1414v-80h-627v-587h627v-80h-627v-587h627v-80h-707v1414h707zM205 1580h521v-62h-521v62z" />
    <glyph glyph-name="emacron" unicode="&#x113;" horiz-adv-x="1042" 
d="M154 586h762q-28 91 -95 158q-118 118 -284 118t-284 -118q-70 -71 -99 -158zM139 505q-3 -21 -3 -45q0 -166 117.5 -283t283.5 -117t284 118q20 20 38 42l85 -30q-15 -25 -63 -72q-142 -143 -344 -143q-200 0 -342.5 142.5t-142.5 342.5q0 202 142.5 344t342.5 142
q202 0 344 -142q125 -126 125 -299h-867zM269 1134h521v-62h-521v62z" />
    <glyph glyph-name="Ebreve" unicode="&#x114;" horiz-adv-x="931" 
d="M819 1414v-80h-627v-587h627v-80h-627v-587h627v-80h-707v1414h707zM664 1685q-14 -46 -51 -83q-60 -61 -146 -61q-88 0 -148 61q-39 39 -53 83h70q11 -20 28 -37q42 -43 103 -43q59 0 101 43q18 17 28 37h68z" />
    <glyph glyph-name="ebreve" unicode="&#x115;" horiz-adv-x="1042" 
d="M154 586h762q-28 91 -95 158q-118 118 -284 118t-284 -118q-70 -71 -99 -158zM139 505q-3 -21 -3 -45q0 -166 117.5 -283t283.5 -117t284 118q20 20 38 42l85 -30q-15 -25 -63 -72q-142 -143 -344 -143q-200 0 -342.5 142.5t-142.5 342.5q0 202 142.5 344t342.5 142
q202 0 344 -142q125 -126 125 -299h-867zM728 1219q-15 -46 -51 -83q-60 -61 -146 -61q-88 0 -148 61q-39 39 -53 83h70q11 -20 28 -37q42 -43 103 -43q59 0 101 43q17 17 28 37h68z" />
    <glyph glyph-name="Edotaccent" unicode="&#x116;" horiz-adv-x="931" 
d="M819 1414v-80h-627v-587h627v-80h-627v-587h627v-80h-707v1414h707zM513 1667.5q20 -19.5 20 -47.5t-20 -47.5t-47 -19.5q-28 0 -48 19.5t-20 47.5t20 47.5t48 19.5q27 0 47 -19.5z" />
    <glyph glyph-name="edotaccent" unicode="&#x117;" horiz-adv-x="1042" 
d="M154 586h762q-28 91 -95 158q-118 118 -284 118t-284 -118q-70 -71 -99 -158zM139 505q-3 -21 -3 -45q0 -166 117.5 -283t283.5 -117t284 118q20 20 38 42l85 -30q-15 -25 -63 -72q-142 -143 -344 -143q-200 0 -342.5 142.5t-142.5 342.5q0 202 142.5 344t342.5 142
q202 0 344 -142q125 -126 125 -299h-867zM577 1201.5q20 -19.5 20 -47.5t-20 -47.5t-47 -19.5q-28 0 -48 19.5t-20 47.5t20 47.5t48 19.5q27 0 47 -19.5z" />
    <glyph glyph-name="Eogonek" unicode="&#x118;" horiz-adv-x="931" 
d="M643 0h-531v1414h707v-80h-627v-587h627v-80h-627v-587h627v-80h-59q-54 -18 -79 -40q-29 -25 -31 -62v-6q0 -33 22 -59q24 -28 58 -30q3 -1 6 -1q31 0 66 23l17 -48l-4 -3q-32 -28 -78 -28h-12q-57 4 -96 49q-35 41 -35 93q0 7 1 14q5 59 48 98z" />
    <glyph glyph-name="eogonek" unicode="&#x119;" horiz-adv-x="1038" 
d="M154 586h762q-28 91 -95 158q-118 118 -284 118t-284 -118q-70 -71 -99 -158zM691 -2q-72 -23 -154 -23q-200 0 -342.5 142.5t-142.5 342.5q0 202 142.5 344t342.5 142q202 0 344 -142q125 -126 125 -299h-867q-3 -21 -3 -45q0 -166 117.5 -283t283.5 -117t284 118
q20 20 38 42l85 -30q-15 -25 -63 -72q-20 -20 -41 -37q-101 -90 -103 -127v-6q0 -33 22 -59q24 -28 58 -30q3 -1 6 -1q31 0 66 23l17 -48l-4 -3q-32 -28 -78 -28h-12q-57 4 -96 49q-35 41 -35 93q0 7 1 14q2 22 9 40z" />
    <glyph glyph-name="Ecaron" unicode="&#x11a;" horiz-adv-x="931" 
d="M819 1414v-80h-627v-587h627v-80h-627v-587h627v-80h-707v1414h707zM461 1489l-228 187h93l135 -106l145 106h92z" />
    <glyph glyph-name="ecaron" unicode="&#x11b;" horiz-adv-x="1042" 
d="M154 586h762q-28 91 -95 158q-118 118 -284 118t-284 -118q-70 -71 -99 -158zM139 505q-3 -21 -3 -45q0 -166 117.5 -283t283.5 -117t284 118q20 20 38 42l85 -30q-15 -25 -63 -72q-142 -143 -344 -143q-200 0 -342.5 142.5t-142.5 342.5q0 202 142.5 344t342.5 142
q202 0 344 -142q125 -126 125 -299h-867zM525 1033l-228 187h93l135 -106l145 106h92z" />
    <glyph glyph-name="Gcircumflex" unicode="&#x11c;" horiz-adv-x="1359" 
d="M1279 176q-201 -193 -481 -193q-301 0 -512.5 211.5t-211.5 512.5q0 299 211.5 511.5t512.5 212.5q280 0 487 -189l-61 -54q-182 161 -426 161q-266 0 -454.5 -188t-188.5 -454q0 -267 188.5 -455t454.5 -188q228 0 402 140v431h79v-459zM912 1519h-92l-145 106
l-135 -106h-93l228 187z" />
    <glyph glyph-name="gcircumflex" unicode="&#x11d;" horiz-adv-x="1083" 
d="M930 543q-23 114 -109 201q-118 118 -284 118t-283.5 -118t-117.5 -284t117.5 -283.5t283.5 -117.5t284 118q85 85 109 199v167zM929 172q-23 -28 -48 -54q-142 -143 -344 -143q-200 0 -342.5 142.5t-142.5 342.5q0 202 142.5 343.5t342.5 141.5q202 0 344 -141
q27 -28 50 -59v123h80v-674q0 -196 -139 -334q-142 -143 -343 -143t-344 143q-29 29 -52 60l84 31q13 -16 29 -31q117 -118 283 -118q165 0 283 118q107 107 117 252zM764 1053h-92l-145 106l-135 -106h-93l228 187z" />
    <glyph glyph-name="Gbreve" unicode="&#x11e;" horiz-adv-x="1359" 
d="M1279 176q-201 -193 -481 -193q-301 0 -512.5 211.5t-211.5 512.5q0 299 211.5 511.5t512.5 212.5q280 0 487 -189l-61 -54q-182 161 -426 161q-266 0 -454.5 -188t-188.5 -454q0 -267 188.5 -455t454.5 -188q228 0 402 140v431h79v-459zM878 1685q-14 -46 -51 -83
q-60 -61 -146 -61q-88 0 -148 61q-39 39 -53 83h70q11 -20 28 -37q42 -43 103 -43q59 0 101 43q18 17 28 37h68z" />
    <glyph glyph-name="gbreve" unicode="&#x11f;" horiz-adv-x="1083" 
d="M930 543q-23 114 -109 201q-118 118 -284 118t-283.5 -118t-117.5 -284t117.5 -283.5t283.5 -117.5t284 118q85 85 109 199v167zM929 172q-23 -28 -48 -54q-142 -143 -344 -143q-200 0 -342.5 142.5t-142.5 342.5q0 202 142.5 343.5t342.5 141.5q202 0 344 -141
q27 -28 50 -59v123h80v-674q0 -196 -139 -334q-142 -143 -343 -143t-344 143q-29 29 -52 60l84 31q13 -16 29 -31q117 -118 283 -118q165 0 283 118q107 107 117 252zM731 1219q-15 -46 -52 -83q-60 -61 -146 -61q-88 0 -148 61q-38 39 -53 83h71q10 -20 27 -37
q42 -43 103 -43q59 0 101 43q18 17 28 37h69z" />
    <glyph glyph-name="Gdotaccent" unicode="&#x120;" horiz-adv-x="1359" 
d="M1279 176q-201 -193 -481 -193q-301 0 -512.5 211.5t-211.5 512.5q0 299 211.5 511.5t512.5 212.5q280 0 487 -189l-61 -54q-182 161 -426 161q-266 0 -454.5 -188t-188.5 -454q0 -267 188.5 -455t454.5 -188q228 0 402 140v431h79v-459zM727 1667.5q20 -19.5 20 -47.5
t-20 -47.5t-47 -19.5q-28 0 -48 19.5t-20 47.5t20 47.5t48 19.5q27 0 47 -19.5z" />
    <glyph glyph-name="gdotaccent" unicode="&#x121;" horiz-adv-x="1083" 
d="M930 543q-23 114 -109 201q-118 118 -284 118t-283.5 -118t-117.5 -284t117.5 -283.5t283.5 -117.5t284 118q85 85 109 199v167zM929 172q-23 -28 -48 -54q-142 -143 -344 -143q-200 0 -342.5 142.5t-142.5 342.5q0 202 142.5 343.5t342.5 141.5q202 0 344 -141
q27 -28 50 -59v123h80v-674q0 -196 -139 -334q-142 -143 -343 -143t-344 143q-29 29 -52 60l84 31q13 -16 29 -31q117 -118 283 -118q165 0 283 118q107 107 117 252zM579 1201.5q20 -19.5 20 -47.5t-20 -47.5t-47 -19.5q-28 0 -48 19.5t-20 47.5t20 47.5t48 19.5
q27 0 47 -19.5z" />
    <glyph glyph-name="Gcommaaccent" unicode="&#x122;" horiz-adv-x="1359" 
d="M729 -14q-257 22 -443 209q-212 211 -212 512q0 299 211.5 511.5t512.5 212.5q280 0 487 -189l-61 -54q-182 161 -426 161q-266 0 -454.5 -188t-188.5 -454q0 -267 188.5 -455t454.5 -188q228 0 402 140v431h79v-459q-201 -193 -481 -193h-5l-13 -35q92 -7 118 -61
q14 -29 14 -56q0 -23 -11 -44q-23 -45 -85 -55q-23 -4 -43 -4q-34 0 -58 11q-39 17 -67 39l37 40q34 -35 73 -35q10 0 21 3q47 11 47 57v6q-3 43 -99 43q-17 0 -37 -1z" />
    <glyph glyph-name="gcommaaccent" unicode="&#x123;" horiz-adv-x="1083" 
d="M930 543q-23 114 -109 201q-118 118 -284 118t-283.5 -118t-117.5 -284t117.5 -283.5t283.5 -117.5t284 118q85 85 109 199v167zM929 172q-23 -28 -48 -54q-142 -143 -344 -143q-200 0 -342.5 142.5t-142.5 342.5q0 202 142.5 343.5t342.5 141.5q202 0 344 -141
q27 -28 50 -59v123h80v-674q0 -196 -139 -334q-142 -143 -343 -143t-344 143q-29 29 -52 60l84 31q13 -16 29 -31q117 -118 283 -118q165 0 283 118q107 107 117 252zM545 1196q20 -4 35 -20q24 -23 24 -57q0 -33 -23.5 -55.5t-56.5 -22.5q-32 0 -55.5 22.5t-23.5 55.5
q0 19 6 35l87 135h57z" />
    <glyph glyph-name="Hcircumflex" unicode="&#x124;" horiz-adv-x="1072" 
d="M174 667v-667h-80v1414h80v-667h724v667h80v-1414h-80v667h-724zM769 1519h-92l-145 106l-135 -106h-93l228 187z" />
    <glyph glyph-name="hcircumflex" unicode="&#x125;" horiz-adv-x="859" 
d="M94 1414h80v-591q100 97 242 97q153 0 249.5 -96.5t99.5 -242.5v-581h-80v573q0 111 -80 189t-189 78q-110 0 -189 -77q-36 -35 -53 -73v-690h-80v1414zM662 1522h-92l-145 106l-135 -106h-93l228 187z" />
    <glyph glyph-name="Hbar" unicode="&#x126;" horiz-adv-x="1072" 
d="M978 1134v-1134h-80v667h-724v-667h-80v1134h-83v79h83v201h80v-201h724v201h80v-201h83v-79h-83zM174 1134v-387h724v387h-724z" />
    <glyph glyph-name="hbar" unicode="&#x127;" horiz-adv-x="839" 
d="M84 1213v201h80v-201h194v-79h-194v-311q100 97 242 97q153 0 249.5 -96.5t99.5 -242.5v-581h-80v573q0 111 -80 189t-189 78q-110 0 -189 -77q-36 -35 -53 -73v-690h-80v1134h-100v79h100z" />
    <glyph glyph-name="Itilde" unicode="&#x128;" horiz-adv-x="324" 
d="M203 1414v-1414h-80v1414h80zM172 1633q59 -43 82 -43h4q18 7 26 32q4 14 4 49l66 -13q-2 -37 -10 -61q-18 -55 -62 -74q-12 -4 -25 -4q-41 0 -105 45q-59 44 -82 44q-3 0 -4 -1q-17 -6 -25 -32q-5 -14 -5 -49l-65 14q1 37 9 60q18 55 63 74q11 5 25 5q41 0 104 -46z" />
    <glyph glyph-name="itilde" unicode="&#x129;" horiz-adv-x="317" 
d="M198 868v-868h-79v868h79zM168 1167q59 -43 82 -43h4q18 7 26 32q4 14 4 49l66 -13q-2 -37 -10 -61q-18 -55 -62 -74q-12 -4 -25 -4q-41 0 -105 45q-59 44 -82 44q-3 0 -4 -1q-17 -6 -25 -32q-5 -14 -5 -49l-65 14q1 37 9 60q18 55 63 74q11 5 25 5q41 0 104 -46z" />
    <glyph glyph-name="Imacron" unicode="&#x12a;" horiz-adv-x="324" 
d="M203 1414v-1414h-80v1414h80zM-48 1580h421v-62h-421v62z" />
    <glyph glyph-name="imacron" unicode="&#x12b;" horiz-adv-x="317" 
d="M198 868v-868h-79v868h79zM-52 1134h421v-62h-421v62z" />
    <glyph glyph-name="Ibreve" unicode="&#x12c;" horiz-adv-x="324" 
d="M202 1414v-1414h-80v1414h80zM361 1685q-14 -46 -51 -83q-60 -61 -146 -61q-88 0 -148 61q-39 39 -53 83h70q11 -20 28 -37q42 -43 103 -43q59 0 101 43q18 17 28 37h68z" />
    <glyph glyph-name="ibreve" unicode="&#x12d;" horiz-adv-x="317" 
d="M198 868v-868h-79v868h79zM357 1219q-14 -46 -51 -83q-60 -61 -146 -61q-88 0 -148 61q-39 39 -53 83h70q11 -20 28 -37q42 -43 103 -43q59 0 101 43q18 17 28 37h68z" />
    <glyph glyph-name="Iogonek" unicode="&#x12e;" horiz-adv-x="324" 
d="M118 34v1380h80v-1414h-59q-54 -18 -79 -40q-29 -25 -31 -62v-6q0 -33 22 -59q24 -28 58 -30q3 -1 6 -1q31 0 66 23l17 -48l-4 -3q-32 -28 -78 -28h-12q-57 4 -96 49q-35 41 -35 93q0 7 1 14q5 61 50 100q38 32 83 32h11z" />
    <glyph glyph-name="iogonek" unicode="&#x12f;" horiz-adv-x="297" 
d="M200.5 1152q23.5 -23 23.5 -55q0 -34 -23.5 -57t-55.5 -23q-33 0 -56.5 23t-23.5 57q0 32 23.5 55t56.5 23q32 0 55.5 -23zM105 31v837h79v-868h-19q-54 -18 -79 -40q-29 -25 -31 -62v-6q0 -33 22 -59q24 -28 58 -30q3 -1 6 -1q31 0 66 23l17 -48l-4 -3q-32 -28 -78 -28
h-12q-57 4 -96 49q-35 41 -35 93q0 7 1 14q5 61 50 100q26 22 55 29z" />
    <glyph glyph-name="Idotaccent" unicode="&#x130;" horiz-adv-x="324" 
d="M203 1414v-1414h-80v1414h80zM210 1667.5q20 -19.5 20 -47.5t-20 -47.5t-47 -19.5q-28 0 -48 19.5t-20 47.5t20 47.5t48 19.5q27 0 47 -19.5z" />
    <glyph glyph-name="dotlessi" unicode="&#x131;" horiz-adv-x="317" 
d="M198 868v-868h-79v868h79z" />
    <glyph glyph-name="IJ" unicode="&#x132;" horiz-adv-x="630" 
d="M202 1414v-1414h-80v1414h80zM516 -27q0 -108 -73 -178t-180 -70v73q73 0 124 50q49 49 49 135v1431h80v-1441z" />
    <glyph glyph-name="ij" unicode="&#x133;" horiz-adv-x="601" 
d="M198 868v-868h-79v868h79zM214.5 1152q23.5 -23 23.5 -55q0 -34 -23.5 -57t-55.5 -23q-33 0 -56.5 23t-23.5 57q0 32 23.5 55t56.5 23q32 0 55.5 -23zM306 -122q107 12 107 120v870h79v-868q0 -179 -186 -194v72zM508.5 1152q23.5 -23 23.5 -55q0 -34 -23.5 -57
t-55.5 -23q-33 0 -56.5 23t-23.5 57q0 32 23.5 55t56.5 23q32 0 55.5 -23z" />
    <glyph glyph-name="Jcircumflex" unicode="&#x134;" horiz-adv-x="306" 
d="M192 -27q0 -108 -73 -181.5t-180 -73.5v80q73 0 124 50q49 49 49 135v1431h80v-1441zM398 1519h-92l-145 106l-135 -106h-93l228 187z" />
    <glyph glyph-name="jcircumflex" unicode="&#x135;" horiz-adv-x="284" 
d="M-11 -122q107 12 107 120v870h79v-868q0 -186 -186 -201v79zM364 1053h-92l-145 106l-135 -106h-93l228 187z" />
    <glyph glyph-name="Kcommaaccent" unicode="&#x136;" horiz-adv-x="999" 
d="M762 1414l-367 -531l618 -883h-97l-572 817l-152 -218v-599h-80v1414h80v-677l473 677h97zM434 -50q75 0 104 -23q40 -31 40 -74v-9q-5 -49 -61 -90q-49 -28 -104 -28q-31 0 -65 9l17 51q28 -11 55 -11q31 0 60 15q25 18 30 43q1 5 1 11q0 18 -14 32q-18 17 -63 18v56z
" />
    <glyph glyph-name="kcommaaccent" unicode="&#x137;" horiz-adv-x="635" 
d="M522 868l-214 -265l341 -603h-98l-295 539l-77 -96v-443h-80v1237h80v-667l241 298h102zM334 -50q75 0 104 -23q40 -31 40 -74v-9q-5 -49 -61 -90q-49 -28 -104 -28q-31 0 -65 9l17 51q28 -11 55 -11q31 0 60 15q25 18 30 43q1 5 1 11q0 18 -14 32q-18 17 -63 18v56z" />
    <glyph glyph-name="kgreenlandic" unicode="&#x138;" horiz-adv-x="635" 
d="M522 868l-214 -265l341 -603h-98l-295 539l-77 -96v-443h-80v868h80v-298l241 298h102z" />
    <glyph glyph-name="Lacute" unicode="&#x139;" horiz-adv-x="783" 
d="M112 0v1414h80v-1334h539v-80h-619zM616 1683l-217 -165h-74l144 165h147z" />
    <glyph glyph-name="lacute" unicode="&#x13a;" horiz-adv-x="300" 
d="M191 1414v-1414h-80v1414h80zM296 1719l-217 -165h-74l144 165h147z" />
    <glyph glyph-name="Lcommaaccent" unicode="&#x13b;" horiz-adv-x="783" 
d="M112 0v1414h80v-1334h539v-80h-619zM334 -50q75 0 104 -23q40 -31 40 -74v-9q-5 -49 -61 -90q-49 -28 -104 -28q-31 0 -65 9l17 51q28 -11 55 -11q31 0 60 15q25 18 30 43q1 5 1 11q0 18 -14 32q-18 17 -63 18v56z" />
    <glyph glyph-name="lcommaaccent" unicode="&#x13c;" horiz-adv-x="274" 
d="M177 1414v-1414h-80v1414h80zM108 -50q75 0 104 -23q40 -31 40 -74v-9q-5 -49 -61 -90q-49 -28 -104 -28q-31 0 -65 9l17 51q28 -11 55 -11q31 0 60 15q25 18 30 43q1 5 1 11q0 18 -14 32q-18 17 -63 18v56z" />
    <glyph glyph-name="Lcaron" unicode="&#x13d;" horiz-adv-x="783" 
d="M112 0v1414h80v-1334h539v-80h-619zM589 1268q-20 4 -35 20q-24 23 -24 57q0 33 23.5 55.5t56.5 22.5q32 0 55.5 -22.5t23.5 -55.5q0 -19 -6 -35l-87 -175h-57z" />
    <glyph glyph-name="lcaron" unicode="&#x13e;" horiz-adv-x="439" 
d="M192 1414v-1414h-80v1414h80zM339 1268q-20 4 -35 20q-24 23 -24 57q0 33 23.5 55.5t56.5 22.5q32 0 55.5 -22.5t23.5 -55.5q0 -19 -6 -35l-87 -175h-57z" />
    <glyph glyph-name="Ldot" unicode="&#x13f;" horiz-adv-x="783" 
d="M112 0v1414h80v-1334h539v-80h-619zM671 754.5q20 -19.5 20 -47.5t-20 -47.5t-47 -19.5q-28 0 -48 19.5t-20 47.5t20 47.5t48 19.5q27 0 47 -19.5z" />
    <glyph glyph-name="ldot" unicode="&#x140;" horiz-adv-x="440" 
d="M179 1414v-1414h-80v1414h80zM394 754.5q20 -19.5 20 -47.5t-20 -47.5t-47 -19.5q-28 0 -48 19.5t-20 47.5t20 47.5t48 19.5q27 0 47 -19.5z" />
    <glyph glyph-name="Lslash" unicode="&#x141;" horiz-adv-x="871" 
d="M282 696l402 327v-94l-402 -327v-522h539v-80h-619v536l-202 -164v94l202 164v784h80v-718z" />
    <glyph glyph-name="lslash" unicode="&#x142;" horiz-adv-x="376" 
d="M148 712v702h80v-637l148 121v-94l-148 -121v-683h-80v618l-148 -121v94z" />
    <glyph glyph-name="Nacute" unicode="&#x143;" horiz-adv-x="1339" 
d="M210 1414l940 -1317v1317h80v-1414h-123l-918 1286v-1286h-80v1414h101zM864 1683l-217 -165h-74l144 165h147z" />
    <glyph glyph-name="nacute" unicode="&#x144;" horiz-adv-x="879" 
d="M179 674v-674h-80v868h80v-56q108 108 252 108q154 0 250.5 -96.5t98.5 -242.5v-581h-79v573q0 111 -80 189t-190 78q-109 0 -189 -77q-43 -43 -63 -89zM634 1217l-217 -165h-74l144 165h147z" />
    <glyph glyph-name="Ncommaaccent" unicode="&#x145;" horiz-adv-x="1339" 
d="M210 1414l940 -1317v1317h80v-1414h-123l-918 1286v-1286h-80v1414h101zM608 -50q75 0 104 -23q40 -31 40 -74v-9q-5 -49 -61 -90q-49 -28 -104 -28q-31 0 -65 9l17 51q28 -11 55 -11q31 0 60 15q25 18 30 43q1 5 1 11q0 18 -14 32q-18 17 -63 18v56z" />
    <glyph glyph-name="ncommaaccent" unicode="&#x146;" horiz-adv-x="879" 
d="M179 674v-674h-80v868h80v-56q108 108 252 108q154 0 250.5 -96.5t98.5 -242.5v-581h-79v573q0 111 -80 189t-190 78q-109 0 -189 -77q-43 -43 -63 -89zM408 -50q75 0 104 -23q40 -31 40 -74v-9q-5 -49 -61 -90q-49 -28 -104 -28q-31 0 -65 9l17 51q28 -11 55 -11
q31 0 60 15q25 18 30 43q1 5 1 11q0 18 -14 32q-18 17 -63 18v56z" />
    <glyph glyph-name="Ncaron" unicode="&#x147;" horiz-adv-x="1339" 
d="M210 1414l940 -1317v1317h80v-1414h-123l-918 1286v-1286h-80v1414h101zM665 1489l-228 187h93l135 -106l145 106h92z" />
    <glyph glyph-name="ncaron" unicode="&#x148;" horiz-adv-x="879" 
d="M179 674v-674h-80v868h80v-56q108 108 252 108q154 0 250.5 -96.5t98.5 -242.5v-581h-79v573q0 111 -80 189t-190 78q-109 0 -189 -77q-43 -43 -63 -89zM435 1033l-228 187h93l135 -106l145 106h92z" />
    <glyph glyph-name="napostrophe" unicode="&#x149;" horiz-adv-x="998" 
d="M298 674v-674h-80v868h80v-56q108 108 252 108q154 0 250.5 -96.5t98.5 -242.5v-581h-79v573q0 111 -80 189t-190 78q-109 0 -189 -77q-43 -43 -63 -89zM79 1053q-20 4 -35 20q-24 23 -24 57q0 33 23.5 55.5t56.5 22.5q32 0 55.5 -22.5t23.5 -55.5q0 -19 -6 -35l-87 -175
h-57z" />
    <glyph glyph-name="Eng" unicode="&#x14a;" horiz-adv-x="1163" 
d="M974 84l-785 1102v-1186h-80v1436l865 -1213v1191h80v-1464q0 -108 -73 -181.5t-180 -73.5v80q73 0 124 50q49 49 49 135v124z" />
    <glyph glyph-name="eng" unicode="&#x14b;" horiz-adv-x="885" 
d="M704 573q0 111 -80 189t-190 78q-109 0 -189 -77q-43 -43 -63 -89v-674h-80v868h80v-56q108 108 252 108q154 0 250.5 -96.5t98.5 -242.5v-460h1v-171q0 -108 -73 -181.5t-180 -73.5v80q73 0 124 50q49 49 49 135v613z" />
    <glyph glyph-name="Omacron" unicode="&#x14c;" horiz-adv-x="1575" 
d="M1300.5 1221.5q212.5 -212.5 212.5 -512.5q0 -301 -212.5 -513.5t-513.5 -212.5q-300 0 -512.5 212.5t-212.5 513.5q0 300 212.5 512.5t512.5 212.5q301 0 513.5 -212.5zM787 1353q-266 0 -455 -189t-189 -455q0 -267 189 -456t455 -189q267 0 456 189t189 456
q0 266 -189 455t-456 189zM527 1580h521v-62h-521v62z" />
    <glyph glyph-name="omacron" unicode="&#x14d;" horiz-adv-x="1114" 
d="M557 946q202 0 343.5 -142t141.5 -344q0 -200 -141.5 -342.5t-343.5 -142.5q-200 0 -342.5 142.5t-142.5 342.5q0 202 142.5 344t342.5 142zM273.5 744q-117.5 -118 -117.5 -284t117.5 -283t283.5 -117t283.5 117t117.5 283t-117.5 284t-283.5 118t-283.5 -118zM297 1134
h521v-62h-521v62z" />
    <glyph glyph-name="Obreve" unicode="&#x14e;" horiz-adv-x="1575" 
d="M1300.5 1221.5q212.5 -212.5 212.5 -512.5q0 -301 -212.5 -513.5t-513.5 -212.5q-300 0 -512.5 212.5t-212.5 513.5q0 300 212.5 512.5t512.5 212.5q301 0 513.5 -212.5zM787 1353q-266 0 -455 -189t-189 -455q0 -267 189 -456t455 -189q267 0 456 189t189 456
q0 266 -189 455t-456 189zM986 1685q-14 -46 -51 -83q-60 -61 -146 -61q-88 0 -148 61q-39 39 -53 83h70q11 -20 28 -37q42 -43 103 -43q59 0 101 43q18 17 28 37h68z" />
    <glyph glyph-name="obreve" unicode="&#x14f;" horiz-adv-x="1114" 
d="M557 946q202 0 343.5 -142t141.5 -344q0 -200 -141.5 -342.5t-343.5 -142.5q-200 0 -342.5 142.5t-142.5 342.5q0 202 142.5 344t342.5 142zM273.5 744q-117.5 -118 -117.5 -284t117.5 -283t283.5 -117t283.5 117t117.5 283t-117.5 284t-283.5 118t-283.5 -118zM756 1219
q-15 -46 -51 -83q-60 -61 -146 -61q-88 0 -148 61q-39 39 -53 83h70q11 -20 28 -37q42 -43 103 -43q59 0 101 43q17 17 28 37h68z" />
    <glyph glyph-name="Ohungarumlaut" unicode="&#x150;" horiz-adv-x="1575" 
d="M1300.5 1221.5q212.5 -212.5 212.5 -512.5q0 -301 -212.5 -513.5t-513.5 -212.5q-300 0 -512.5 212.5t-212.5 513.5q0 300 212.5 512.5t512.5 212.5q301 0 513.5 -212.5zM787 1353q-266 0 -455 -189t-189 -455q0 -267 189 -456t455 -189q267 0 456 189t189 456
q0 266 -189 455t-456 189zM832 1676l-217 -165h-74l144 165h147zM1034 1676l-216 -165h-75l144 165h147z" />
    <glyph glyph-name="ohungarumlaut" unicode="&#x151;" horiz-adv-x="1114" 
d="M557 946q202 0 343.5 -142t141.5 -344q0 -200 -141.5 -342.5t-343.5 -142.5q-200 0 -342.5 142.5t-142.5 342.5q0 202 142.5 344t342.5 142zM273.5 744q-117.5 -118 -117.5 -284t117.5 -283t283.5 -117t283.5 117t117.5 283t-117.5 284t-283.5 118t-283.5 -118zM602 1220
l-217 -165h-74l144 165h147zM804 1220l-216 -165h-75l144 165h147z" />
    <glyph glyph-name="OE" unicode="&#x152;" horiz-adv-x="2014" 
d="M1184 1334q76 -46 143 -112q199 -200 211 -475h388v-80h-388q-14 -274 -211 -471q-70 -70 -149 -116h748v-80h-884q-107 -17 -229 -17q-300 0 -512.5 212.5t-212.5 513.5q0 300 212.5 512.5t512.5 212.5q122 0 229 -20h884v-80h-742zM1457 747q-13 242 -188 418
q-69 68 -147 111q-39 21 -80 37q-106 40 -229 40q-266 0 -455 -189t-189 -455q0 -267 189 -456t455 -189q123 0 229 39q41 16 80 37q78 44 147 113q174 174 188 414q1 20 1 42q0 19 -1 38z" />
    <glyph glyph-name="oe" unicode="&#x153;" horiz-adv-x="1826" 
d="M150 460q0 -166 117.5 -283t283.5 -117t283.5 117t117.5 283t-117.5 284t-283.5 118t-283.5 -118t-117.5 -284zM981 688q26 -48 40 -102h670q-28 91 -95 158q-118 118 -284 118t-284 -118q-26 -27 -47 -56zM981 232q21 -28 47 -54q118 -118 284 -118t284 118q20 20 38 42
l84 -30q-15 -25 -62 -72q-143 -143 -344 -143t-343 143q-20 20 -37 41q-18 -21 -37 -41q-142 -143 -344 -143q-200 0 -342.5 142.5t-142.5 342.5q0 202 142.5 344t342.5 142q202 0 344 -142q19 -20 37 -41q17 21 37 41q142 142 343 142t344 -142q125 -126 130 -299l-752 1
q2 -23 2 -46q0 -125 -55 -228z" />
    <glyph glyph-name="Racute" unicode="&#x154;" horiz-adv-x="959" 
d="M192 1333v-762h240q157 0 269 111.5t112 270.5q0 158 -112 269t-269 111h-240zM456 490h-264v-490h-80v1414h371q162 -22 275 -135q135 -136 135 -326q0 -192 -135 -327q-94 -94 -215 -123l326 -503h-98zM697 1683l-217 -165h-74l144 165h147z" />
    <glyph glyph-name="racute" unicode="&#x155;" horiz-adv-x="406" 
d="M406 798q-85 -13 -167 -108t-82 -232v-458h-80v868h80v-158q24 35 57 68q73 73 148 97zM436 1217l-217 -165h-74l144 165h147z" />
    <glyph glyph-name="Rcommaaccent" unicode="&#x156;" horiz-adv-x="959" 
d="M192 1333v-762h240q157 0 269 111.5t112 270.5q0 158 -112 269t-269 111h-240zM456 491q-12 -1 -24 -1h-240v-490h-80v1414h371q162 -22 275 -135q135 -136 135 -326q0 -192 -135 -327q-94 -94 -215 -123l326 -503h-98zM408 -50q75 0 104 -23q40 -31 40 -74v-9
q-5 -49 -61 -90q-49 -28 -104 -28q-31 0 -65 9l17 51q28 -11 55 -11q31 0 60 15q25 18 30 43q1 5 1 11q0 18 -14 32q-18 17 -63 18v56z" />
    <glyph glyph-name="rcommaaccent" unicode="&#x157;" horiz-adv-x="406" 
d="M406 798q-65 -13 -132 -81q-113 -112 -117 -269v-448h-80v868h80v-158q24 35 57 68q73 73 148 97zM108 -50q75 0 104 -23q40 -31 40 -74v-9q-5 -49 -61 -90q-49 -28 -104 -28q-31 0 -65 9l17 51q28 -11 55 -11q31 0 60 15q25 18 30 43q1 5 1 11q0 18 -14 32
q-18 17 -63 18v56z" />
    <glyph glyph-name="Rcaron" unicode="&#x158;" horiz-adv-x="959" 
d="M192 1333v-762h240q157 0 269 111.5t112 270.5q0 158 -112 269t-269 111h-240zM456 491q-12 -1 -24 -1h-240v-490h-80v1414h371q162 -22 275 -135q135 -136 135 -326q0 -192 -135 -327q-94 -94 -215 -123l326 -503h-98zM498 1489l-228 187h93l135 -106l145 106h92z" />
    <glyph glyph-name="rcaron" unicode="&#x159;" horiz-adv-x="406" 
d="M386 798q-85 -13 -167 -108t-82 -232v-458h-80v868h80v-158q24 35 57 68q73 73 148 97zM217 1033l-228 187h93l135 -106l145 106h92z" />
    <glyph glyph-name="Sacute" unicode="&#x15a;" horiz-adv-x="942" 
d="M495 783q-151 50 -238.5 137.5t-87.5 212.5q0 122 87.5 210t212.5 88q123 0 212 -88q48 -47 67 -105l-72 -28q-16 43 -52 79q-64 64 -155 64t-155.5 -64t-64.5 -156q0 -91 64 -156q60 -59 166 -108q170 -55 286 -171q122 -122 122 -295q0 -174 -122.5 -297t-295.5 -123
q-174 0 -296 124q-99 98 -118 228l75 27q12 -115 98 -200q100 -100 241 -100t241 100t100 241q0 140 -100 240q-88 88 -215 140zM665 1683l-217 -165h-74l144 165h147z" />
    <glyph glyph-name="sacute" unicode="&#x15b;" horiz-adv-x="644" 
d="M324 466q-101 55 -140 94q-61 61 -61 147t61 147.5t147 61.5t143 -57q55 -55 55 -126v-4l-69 -28q-9 67 -42 101t-87 34q-53 0 -91 -38t-38 -91t38 -91q22 -23 93 -68q113 -61 161 -109q75 -76 75 -181q0 -108 -75 -183.5t-182 -75.5t-182 75.5t-75 165.5l79 20
q0 -77 52.5 -129.5t125.5 -52.5t126 52.5t53 127.5q0 73 -53 125q-28 28 -114 83zM506 1217l-217 -165h-74l144 165h147z" />
    <glyph glyph-name="Scircumflex" unicode="&#x15c;" horiz-adv-x="942" 
d="M495 783q-151 50 -238.5 137.5t-87.5 212.5q0 122 87.5 210t212.5 88q123 0 212 -88q48 -47 67 -105l-72 -28q-16 43 -52 79q-64 64 -155 64t-155.5 -64t-64.5 -156q0 -91 64 -156q60 -59 166 -108q170 -55 286 -171q122 -122 122 -295q0 -174 -122.5 -297t-295.5 -123
q-174 0 -296 124q-99 98 -118 228l75 27q12 -115 98 -200q100 -100 241 -100t241 100t100 241q0 140 -100 240q-88 88 -215 140zM704 1519h-92l-145 106l-135 -106h-93l228 187z" />
    <glyph glyph-name="scircumflex" unicode="&#x15d;" horiz-adv-x="644" 
d="M324 466q-101 55 -140 94q-61 61 -61 147t61 147.5t147 61.5t143 -57q55 -55 55 -126v-4l-69 -28q-9 67 -42 101t-87 34q-53 0 -91 -38t-38 -91t38 -91q22 -23 93 -68q113 -61 161 -109q75 -76 75 -181q0 -108 -75 -183.5t-182 -75.5t-182 75.5t-75 165.5l79 20
q0 -77 52.5 -129.5t125.5 -52.5t126 52.5t53 127.5q0 73 -53 125q-28 28 -114 83zM545 1053h-92l-145 106l-135 -106h-93l228 187z" />
    <glyph glyph-name="Scedilla" unicode="&#x15e;" horiz-adv-x="942" 
d="M420 -14q-142 15 -247 121q-99 98 -118 228l75 27q12 -115 98 -200q100 -100 241 -100t241 100t100 241q0 140 -100 240q-88 88 -215 140q-151 50 -238.5 137.5t-87.5 212.5q0 122 87.5 210t212.5 88q123 0 212 -88q48 -47 67 -105l-72 -28q-16 43 -52 79q-64 64 -155 64
t-155.5 -64t-64.5 -156q0 -91 64 -156q60 -59 166 -108q170 -55 286 -171q122 -122 122 -295q0 -174 -122 -297q-117 -117 -281 -123l-13 -35q92 -7 118 -61q14 -29 14 -56q0 -23 -11 -44q-23 -45 -85 -55q-23 -4 -43 -4q-34 0 -58 11q-39 17 -67 39l37 40q34 -35 73 -35
q10 0 21 3q47 11 47 57v6q-3 43 -99 43q-17 0 -37 -1z" />
    <glyph glyph-name="scedilla" unicode="&#x15f;" horiz-adv-x="644" 
d="M268 2q-79 13 -138 73q-75 75 -75 165l79 20q0 -77 52.5 -129.5t125.5 -52.5t126 52.5t53 127.5q0 73 -53 125q-28 28 -114 83q-101 55 -140 94q-61 61 -61 147t61 147.5t147 61.5t143 -57q55 -55 55 -126v-4l-69 -28q-9 67 -42 101t-87 34q-53 0 -91 -38t-38 -91t38 -91
q22 -23 93 -68q113 -61 161 -109q75 -76 75 -181q0 -108 -75 -183q-68 -69 -162 -75l-20 -52q92 -7 118 -61q14 -29 14 -56q0 -23 -11 -44q-23 -45 -85 -55q-23 -4 -43 -4q-34 0 -58 11q-39 17 -67 39l37 40q34 -35 73 -35q10 0 21 3q47 11 47 57v6q-3 43 -99 43
q-17 0 -37 -1z" />
    <glyph glyph-name="Scaron" unicode="&#x160;" horiz-adv-x="942" 
d="M495 783q-151 50 -238.5 137.5t-87.5 212.5q0 122 87.5 210t212.5 88q123 0 212 -88q48 -47 67 -105l-72 -28q-16 43 -52 79q-64 64 -155 64t-155.5 -64t-64.5 -156q0 -91 64 -156q60 -59 166 -108q170 -55 286 -171q122 -122 122 -295q0 -174 -122.5 -297t-295.5 -123
q-174 0 -296 124q-99 98 -118 228l75 27q12 -115 98 -200q100 -100 241 -100t241 100t100 241q0 140 -100 240q-88 88 -215 140zM467 1489l-228 187h93l135 -106l145 106h92z" />
    <glyph glyph-name="scaron" unicode="&#x161;" horiz-adv-x="644" 
d="M324 466q-101 55 -140 94q-61 61 -61 147t61 147.5t147 61.5t143 -57q55 -55 55 -126v-4l-69 -28q-9 67 -42 101t-87 34q-53 0 -91 -38t-38 -91t38 -91q22 -23 93 -68q113 -61 161 -109q75 -76 75 -181q0 -108 -75 -183.5t-182 -75.5t-182 75.5t-75 165.5l79 20
q0 -77 52.5 -129.5t125.5 -52.5t126 52.5t53 127.5q0 73 -53 125q-28 28 -114 83zM308 1033l-228 187h93l135 -106l145 106h92z" />
    <glyph glyph-name="Tcommaaccent" unicode="&#x162;" horiz-adv-x="859" 
d="M469 1334v-1334h-79v1334h-358v80h795v-80h-358zM408 -50q75 0 104 -23q40 -31 40 -74v-9q-5 -49 -61 -90q-49 -28 -104 -28q-31 0 -65 9l17 51q28 -11 55 -11q31 0 60 15q25 18 30 43q1 5 1 11q0 18 -14 32q-18 17 -63 18v56z" />
    <glyph glyph-name="tcommaaccent" unicode="&#x163;" horiz-adv-x="497" 
d="M209 868v369h79v-369h177v-80h-177v-788h-79v788h-177v80h177zM208 -50q75 0 104 -23q40 -31 40 -74v-9q-5 -49 -61 -90q-49 -28 -104 -28q-31 0 -65 9l17 51q28 -11 55 -11q31 0 60 15q25 18 30 43q1 5 1 11q0 18 -14 32q-18 17 -63 18v56z" />
    <glyph glyph-name="Tcaron" unicode="&#x164;" horiz-adv-x="859" 
d="M469 1334v-1334h-79v1334h-358v80h795v-80h-358zM425 1489l-228 187h93l135 -106l145 106h92z" />
    <glyph glyph-name="tcaron" unicode="&#x165;" horiz-adv-x="564" 
d="M209 868v369h79v-369h177v-80h-177v-788h-79v788h-177v80h177zM464 1239q-20 4 -35 20q-24 23 -24 57q0 33 23.5 55.5t56.5 22.5q32 0 55.5 -22.5t23.5 -55.5q0 -19 -6 -35l-87 -175h-57z" />
    <glyph glyph-name="Tbar" unicode="&#x166;" horiz-adv-x="859" 
d="M391 747v587h-358v80h795v-80h-358v-587h260v-79h-260v-668h-79v668h-261v79h261z" />
    <glyph glyph-name="tbar" unicode="&#x167;" horiz-adv-x="497" 
d="M210 788h-177v80h177v369h79v-369h177v-80h-177v-239h177v-80h-177v-469h-79v469h-177v80h177v239z" />
    <glyph glyph-name="Utilde" unicode="&#x168;" horiz-adv-x="1147" 
d="M955 1414h80v-1016q-22 -162 -135 -275q-135 -135 -326 -135q-192 0 -327 135t-135 326v965h80v-965q0 -157 112 -269t270 -112t269.5 112t111.5 269v965zM583 1633q59 -43 82 -43h4q18 7 26 32q4 14 4 49l66 -13q-2 -37 -10 -61q-18 -55 -62 -74q-12 -4 -25 -4
q-41 0 -105 45q-59 44 -82 44q-3 0 -4 -1q-17 -6 -25 -32q-5 -14 -5 -49l-65 14q1 37 9 60q18 55 63 74q11 5 25 5q41 0 104 -46z" />
    <glyph glyph-name="utilde" unicode="&#x169;" horiz-adv-x="880" 
d="M445 -12q-163 0 -259 96t-99 243v542h80v-535q0 -110 80 -188q79 -79 197 -79q110 0 189.5 78.5t79.5 188.5v535h80v-542q-3 -147 -99 -243t-249 -96zM450 1167q59 -43 82 -43h4q18 7 26 32q4 14 4 49l66 -13q-2 -37 -10 -61q-18 -55 -62 -74q-12 -4 -25 -4
q-41 0 -105 45q-59 44 -82 44q-3 0 -4 -1q-17 -6 -25 -32q-5 -14 -5 -49l-65 14q1 37 9 60q18 55 63 74q11 5 25 5q41 0 104 -46z" />
    <glyph glyph-name="Umacron" unicode="&#x16a;" horiz-adv-x="1147" 
d="M955 1414h80v-1016q-22 -162 -135 -275q-135 -135 -326 -135q-192 0 -327 135t-135 326v965h80v-965q0 -157 112 -269t270 -112t269.5 112t111.5 269v965zM313 1580h521v-62h-521v62z" />
    <glyph glyph-name="umacron" unicode="&#x16b;" horiz-adv-x="880" 
d="M445 -12q-163 0 -259 96t-99 243v542h80v-535q0 -110 80 -188q79 -79 197 -79q110 0 189.5 78.5t79.5 188.5v535h80v-542q-3 -147 -99 -243t-249 -96zM180 1134h521v-62h-521v62z" />
    <glyph glyph-name="Ubreve" unicode="&#x16c;" horiz-adv-x="1147" 
d="M955 1414h80v-1016q-22 -162 -135 -275q-135 -135 -326 -135q-192 0 -327 135t-135 326v965h80v-965q0 -157 112 -269t270 -112t269.5 112t111.5 269v965zM772 1685q-14 -46 -51 -83q-60 -61 -146 -61q-88 0 -148 61q-39 39 -53 83h70q11 -20 28 -37q42 -43 103 -43
q59 0 101 43q18 17 28 37h68z" />
    <glyph glyph-name="ubreve" unicode="&#x16d;" horiz-adv-x="880" 
d="M445 -12q-163 0 -259 96t-99 243v542h80v-535q0 -110 80 -188q79 -79 197 -79q110 0 189.5 78.5t79.5 188.5v535h80v-542q-3 -147 -99 -243t-249 -96zM639 1229q-15 -46 -51 -83q-60 -61 -146 -61q-88 0 -148 61q-39 39 -53 83h70q11 -20 28 -37q42 -43 103 -43
q59 0 101 43q17 17 28 37h68z" />
    <glyph glyph-name="Uring" unicode="&#x16e;" horiz-adv-x="1147" 
d="M955 1414h80v-1016q-22 -162 -135 -275q-135 -135 -326 -135q-192 0 -327 135t-135 326v965h80v-965q0 -157 112 -269t270 -112t269.5 112t111.5 269v965zM653.5 1653q33.5 -33 33.5 -80t-33.5 -80t-79.5 -33q-47 0 -80.5 33t-33.5 80t33.5 80t80.5 33q46 0 79.5 -33z
M574 1625q-22 0 -37 -15t-15 -37q0 -21 15 -36.5t37 -15.5q21 0 36 15.5t15 36.5q0 22 -15 37t-36 15z" />
    <glyph glyph-name="uring" unicode="&#x16f;" horiz-adv-x="880" 
d="M445 -12q-163 0 -259 96t-99 243v542h80v-535q0 -110 80 -188q79 -79 197 -79q110 0 189.5 78.5t79.5 188.5v535h80v-542q-3 -147 -99 -243t-249 -96zM520 1177q33 -33 33 -80t-33 -80t-80 -33t-80 33t-33 80t33 80t80 33t80 -33zM440 1149q-21 0 -36 -15t-15 -37
q0 -21 15 -36.5t36 -15.5t36 15.5t15 36.5q0 22 -15 37t-36 15z" />
    <glyph glyph-name="Uhungarumlaut" unicode="&#x170;" horiz-adv-x="1147" 
d="M955 1414h80v-1016q-22 -162 -135 -275q-135 -135 -326 -135q-192 0 -327 135t-135 326v965h80v-965q0 -157 112 -269t270 -112t269.5 112t111.5 269v965zM618 1676l-217 -165h-74l144 165h147zM820 1676l-216 -165h-75l144 165h147z" />
    <glyph glyph-name="uhungarumlaut" unicode="&#x171;" horiz-adv-x="880" 
d="M445 -12q-163 0 -259 96t-99 243v542h80v-535q0 -110 80 -188q79 -79 197 -79q110 0 189.5 78.5t79.5 188.5v535h80v-542q-3 -147 -99 -243t-249 -96zM485 1220l-217 -165h-74l144 165h147zM687 1220l-216 -165h-75l144 165h147z" />
    <glyph glyph-name="Uogonek" unicode="&#x172;" horiz-adv-x="1147" 
d="M678 -1q-50 -11 -104 -11q-192 0 -327 135t-135 326v965h80v-965q0 -157 112 -269t270 -112t269.5 112t111.5 269v965h80v-1016q-22 -162 -135 -275q-69 -69 -153 -103q-17 -23 -17 -49q0 -8 1 -15l1 -6q6 -32 33 -54q24 -19 52 -19q5 0 10 1h6q31 6 61 35l26 -43l-4 -4
q-26 -34 -71 -42l-12 -3q-9 -1 -17 -1q-46 0 -86 31q-43 33 -53 84q-1 7 -1 14q-1 10 -1 19q0 16 3 31z" />
    <glyph glyph-name="uogonek" unicode="&#x173;" horiz-adv-x="880" 
d="M478 -11q-16 -1 -33 -1q-163 0 -259 96t-99 243v542h80v-535q0 -110 80 -188q79 -79 197 -79q110 0 189.5 78.5t79.5 188.5v535h80v-542q-3 -147 -99 -243q-64 -64 -155 -86q-9 -17 -9 -37q0 -7 1 -15l1 -6q6 -32 33 -54q24 -19 52 -19q5 0 10 1h6q31 6 61 35l26 -43
l-4 -4q-26 -34 -71 -42l-12 -3q-9 -1 -17 -1q-46 0 -86 31q-43 33 -53 84q-1 7 -1 14q-1 10 -1 19q0 16 3 31z" />
    <glyph glyph-name="Wcircumflex" unicode="&#x174;" horiz-adv-x="1642" 
d="M824 1039l352 -910l345 1285h81l-380 -1414h-80l-341 894l-341 -894h-80l-380 1414h81l346 -1285l351 910h46zM1034 1519h-92l-145 106l-135 -106h-93l228 187z" />
    <glyph glyph-name="wcircumflex" unicode="&#x175;" horiz-adv-x="1094" 
d="M1094 868l-295 -868h-50l-202 566l-202 -566h-51l-294 868h91l230 -713l204 565h45l204 -565l229 713h91zM780 1053h-92l-145 106l-135 -106h-93l228 187z" />
    <glyph glyph-name="Ycircumflex" unicode="&#x176;" horiz-adv-x="1116" 
d="M518 572l-486 842h91l435 -754l435 754h91l-486 -842v-572h-80v572zM791 1519h-92l-145 106l-135 -106h-93l228 187z" />
    <glyph glyph-name="ycircumflex" unicode="&#x177;" horiz-adv-x="779" 
d="M434 163l-229 -493h-89l229 491l-330 707h89l285 -606l286 606h89l-329 -705h-1zM622 1053h-92l-145 106l-135 -106h-93l228 187z" />
    <glyph glyph-name="Ydieresis" unicode="&#x178;" horiz-adv-x="1116" 
d="M518 572l-486 842h91l435 -754l435 754h91l-486 -842v-572h-80v572zM481.5 1658q23.5 -23 23.5 -55q0 -34 -23.5 -57t-55.5 -23q-33 0 -56.5 23t-23.5 57q0 32 23.5 55t56.5 23q32 0 55.5 -23zM746.5 1658q23.5 -23 23.5 -55q0 -34 -23.5 -57t-55.5 -23q-33 0 -56.5 23
t-23.5 57q0 32 23.5 55t56.5 23q32 0 55.5 -23z" />
    <glyph glyph-name="Zacute" unicode="&#x179;" horiz-adv-x="1075" 
d="M854 1334h-670v80h807l-771 -1334h841v-80h-977zM767 1683l-217 -165h-74l144 165h147z" />
    <glyph glyph-name="zacute" unicode="&#x17a;" horiz-adv-x="743" 
d="M510 776h-448v79h585l-449 -775h483v-80h-619zM566 1217l-217 -165h-74l144 165h147z" />
    <glyph glyph-name="Zdotaccent" unicode="&#x17b;" horiz-adv-x="1075" 
d="M854 1334h-670v80h807l-771 -1334h841v-80h-977zM620 1667.5q20 -19.5 20 -47.5t-20 -47.5t-47 -19.5q-28 0 -48 19.5t-20 47.5t20 47.5t48 19.5q27 0 47 -19.5z" />
    <glyph glyph-name="zdotaccent" unicode="&#x17c;" horiz-adv-x="743" 
d="M510 776h-448v79h585l-449 -775h483v-80h-619zM419 1201.5q20 -19.5 20 -47.5t-20 -47.5t-47 -19.5q-28 0 -48 19.5t-20 47.5t20 47.5t48 19.5q27 0 47 -19.5z" />
    <glyph glyph-name="Zcaron" unicode="&#x17d;" horiz-adv-x="1075" 
d="M854 1334h-670v80h807l-771 -1334h841v-80h-977zM568 1489l-228 187h93l135 -106l145 106h92z" />
    <glyph glyph-name="zcaron" unicode="&#x17e;" horiz-adv-x="743" 
d="M510 776h-448v79h585l-449 -775h483v-80h-619zM367 1033l-228 187h93l135 -106l145 106h92z" />
    <glyph glyph-name="longs" unicode="&#x17f;" horiz-adv-x="383" 
d="M190 0h-80v1103q6 98 75 169q73 67 167 67q50 0 105 -19l-25 -71q-37 16 -72 16q-62 0 -118 -50q-49 -49 -52 -118v-1097z" />
    <glyph glyph-name="florin" unicode="&#x192;" horiz-adv-x="395" 
d="M202 0h-1v-70q-10 -251 -256 -251v74q167 0 177 175v860h-88v80h88v235q6 98 75 169q73 67 167 67q50 0 105 -19l-25 -71q-37 16 -72 16q-62 0 -118 -50q-49 -49 -52 -118v-229h177v-80h-177v-788z" />
    <glyph glyph-name="Aringacute" unicode="&#x1fa;" horiz-adv-x="1116" 
d="M784 631l-225 593l-226 -593h451zM557 1494q-22 0 -37 -15t-15 -37q0 -20 15 -35t37 -15q20 0 35 15t15 35q0 22 -15 37t-35 15zM533 1549l95 134h147l-173 -142q17 -8 32 -22q31 -32 31 -77q0 -44 -31 -75q-16 -16 -34 -23l513 -1344h-84l-216 552h-509l-220 -552h-85
l518 1342q-20 8 -37 25q-32 31 -32 75q0 45 32 77q23 23 53 30z" />
    <glyph glyph-name="aringacute" unicode="&#x1fb;" horiz-adv-x="1122" 
d="M953 382v97q-22 117 -110 205q-118 118 -284 118t-283.5 -108t-117.5 -264t117.5 -263t283.5 -107t284 118q88 88 110 204zM554 1038q-22 0 -37 -15t-15 -37q0 -20 15 -35t37 -15q20 0 35 15t15 35q0 22 -15 37t-35 15zM597 1086q18 -8 34 -23q31 -32 31 -77
q0 -44 -31 -75q-18 -18 -40 -26q181 -10 312 -141q27 -28 50 -59v123h80v-808h-80v177q-23 -31 -50 -59q-142 -143 -344 -143q-200 0 -342.5 132.5t-142.5 322.5q0 192 135 316.5t310 138.5q-23 7 -42 26q-32 31 -32 75q0 45 32 77q21 21 49 28l135 151h147z" />
    <glyph glyph-name="AEacute" unicode="&#x1fc;" horiz-adv-x="1443" 
d="M1331 747v-80h-627v-587h627v-80h-706v542h-300l-241 -542h-85l615 1414h717v-80h-627v-587h627zM625 621v629l-271 -629h271zM859 1683l-217 -165h-74l144 165h147z" />
    <glyph glyph-name="aeacute" unicode="&#x1fd;" horiz-adv-x="1873" 
d="M912 653q-27 49 -69 91q-118 118 -284 118t-283.5 -118t-117.5 -284t117.5 -283t283.5 -117t284 118q42 42 69 90q30 53 41 114v157q-11 61 -41 114zM1738 586q-28 91 -96 158q-117 118 -283 118t-284 -118q-24 -24 -42 -49v-109h705zM1033 226q18 -25 42 -48
q118 -118 284 -118t283 118q21 20 38 42l85 -30q-15 -25 -63 -72q-142 -143 -343 -143q-189 0 -326 127v-102h-80v177q-23 -31 -50 -59q-142 -143 -344 -143q-200 0 -342.5 142.5t-142.5 342.5q0 202 142.5 344t342.5 142q202 0 344 -142q27 -28 50 -59v123h80v-48
q137 126 326 126q201 0 343 -142q126 -126 131 -299l-800 1v-280zM1148 1217l-217 -165h-74l144 165h147z" />
    <glyph glyph-name="Oslashacute" unicode="&#x1fe;" horiz-adv-x="1647" 
d="M1059 1310q-108 43 -236 43q-266 0 -455 -189t-189 -455q0 -267 189 -456q68 -68 147 -113zM587 107q109 -43 236 -43q267 0 456 189t189 456q0 266 -189 456q-69 68 -147 111zM1166 1350q91 -49 171 -128q212 -213 212 -513q0 -301 -212.5 -513.5t-513.5 -212.5
q-145 0 -270 51l-76 -163l-72 34l76 162q-91 50 -170 129q-213 212 -213 513q0 300 212.5 512.5t512.5 212.5q146 0 271 -50l76 162l72 -33zM1018 1683l-217 -165h-74l144 165h147z" />
    <glyph glyph-name="oslashacute" unicode="&#x1ff;" horiz-adv-x="1080" 
d="M706 828q-76 34 -166 34q-166 0 -283.5 -117.5t-117.5 -283.5t117 -283q24 -24 51 -43zM774 787l-400 -692q76 -34 166 -34q166 0 283.5 117t117.5 283t-117 284q-24 24 -50 42zM264 62q-35 25 -67 56q-142 143 -142 343q0 202 142.5 344t342.5 142q114 0 210 -46
l107 188l70 -37l-110 -190q35 -25 67 -57q141 -142 141 -344q0 -200 -141.5 -342.5t-343.5 -142.5q-114 0 -208 46l-109 -188l-70 33zM734 1217l-217 -165h-74l144 165h147z" />
    <glyph glyph-name="Scommaaccent" unicode="&#x218;" horiz-adv-x="942" 
d="M495 783q-151 50 -238.5 137.5t-87.5 212.5q0 122 87.5 210t212.5 88q123 0 212 -88q48 -47 67 -105l-72 -28q-16 43 -52 79q-64 64 -155 64t-155.5 -64t-64.5 -156q0 -91 64 -156q60 -59 166 -108q170 -55 286 -171q122 -122 122 -295q0 -174 -122.5 -297t-295.5 -123
q-174 0 -296 124q-99 98 -118 228l75 27q12 -115 98 -200q100 -100 241 -100t241 100t100 241q0 140 -100 240q-88 88 -215 140zM494 -203q-20 3 -35 16q-24 18 -24 45q0 26 23.5 44t56.5 18q32 0 55.5 -18t23.5 -44q0 -15 -6 -28l-87 -139h-57z" />
    <glyph glyph-name="scommaaccent" unicode="&#x219;" horiz-adv-x="644" 
d="M324 466q-101 55 -140 94q-61 61 -61 147t61 147.5t147 61.5t143 -57q55 -55 55 -126v-4l-69 -28q-9 67 -42 101t-87 34q-53 0 -91 -38t-38 -91t38 -91q22 -23 93 -68q113 -61 161 -109q75 -76 75 -181q0 -108 -75 -183.5t-182 -75.5t-182 75.5t-75 165.5l79 20
q0 -77 52.5 -129.5t125.5 -52.5t126 52.5t53 127.5q0 73 -53 125q-28 28 -114 83zM314 -203q-20 3 -35 16q-24 18 -24 45q0 26 23.5 44t56.5 18q32 0 55.5 -18t23.5 -44q0 -15 -6 -28l-87 -139h-57z" />
    <glyph glyph-name="uni021A" unicode="&#x21a;" horiz-adv-x="859" 
d="M391 1334h-358v80h795v-80h-358v-1334h-79v1334zM414 -203q-20 3 -35 16q-24 18 -24 45q0 26 23.5 44t56.5 18q32 0 55.5 -18t23.5 -44q0 -15 -6 -28l-87 -139h-57z" />
    <glyph glyph-name="uni021B" unicode="&#x21b;" horiz-adv-x="497" 
d="M234 -203q-20 3 -35 16q-24 18 -24 45q0 26 23.5 44t56.5 18q32 0 55.5 -18t23.5 -44q0 -15 -6 -28l-87 -139h-57zM209 868v369h79v-369h177v-80h-177v-788h-79v788h-177v80h177z" />
    <glyph glyph-name="circumflex" unicode="&#x2c6;" horiz-adv-x="655" 
d="M560 973h-92l-145 106l-135 -106h-93l228 187z" />
    <glyph glyph-name="caron" unicode="&#x2c7;" horiz-adv-x="655" 
d="M323 943l-228 187h93l135 -106l145 106h92z" />
    <glyph glyph-name="uni02C9" unicode="&#x2c9;" horiz-adv-x="671" 
d="M75 1034h521v-62h-521v62z" />
    <glyph glyph-name="breve" unicode="&#x2d8;" horiz-adv-x="565" 
d="M481 1139q-14 -46 -51 -83q-60 -61 -146 -61q-88 0 -148 61q-39 39 -53 83h70q11 -20 28 -37q42 -43 103 -43q59 0 101 43q18 17 28 37h68z" />
    <glyph glyph-name="dotaccent" unicode="&#x2d9;" horiz-adv-x="285" 
d="M190 1121.5q20 -19.5 20 -47.5t-20 -47.5t-47 -19.5q-28 0 -48 19.5t-20 47.5t20 47.5t48 19.5q27 0 47 -19.5z" />
    <glyph glyph-name="ring" unicode="&#x2da;" horiz-adv-x="494" 
d="M327 1057q33 -33 33 -80t-33 -80t-80 -33t-80 33t-33 80t33 80t80 33t80 -33zM247 1029q-21 0 -36 -15t-15 -37q0 -21 15 -36.5t36 -15.5t36.5 15.5t15.5 36.5q0 22 -15.5 37t-36.5 15z" />
    <glyph glyph-name="ogonek" unicode="&#x2db;" horiz-adv-x="434" 
d="M270 4q-63 -20 -91 -44q-29 -25 -31 -62v-6q0 -33 22 -59q24 -28 58 -30q3 -1 6 -1q31 0 66 23l17 -48l-4 -3q-32 -28 -78 -28h-12q-57 4 -96 49q-35 41 -35 93q0 7 1 14q5 61 50 100q38 32 83 32q9 0 18 -1z" />
    <glyph glyph-name="tilde" unicode="&#x2dc;" horiz-adv-x="533" 
d="M276 1087q59 -43 82 -43h4q18 7 26 32q4 14 4 49l66 -13q-2 -37 -10 -61q-18 -55 -62 -74q-12 -4 -25 -4q-41 0 -105 45q-59 44 -82 44q-3 0 -4 -1q-17 -6 -25 -32q-5 -14 -5 -49l-65 14q1 37 9 60q18 55 63 74q11 5 25 5q41 0 104 -46z" />
    <glyph glyph-name="hungarumlaut" unicode="&#x2dd;" horiz-adv-x="643" 
d="M366 1130l-217 -165h-74l144 165h147zM568 1130l-216 -165h-75l144 165h147z" />
    <glyph glyph-name="tonos" unicode="&#x384;" horiz-adv-x="386" 
d="M366 1414l-217 -165h-74l144 165h147z" />
    <glyph glyph-name="dieresistonos" unicode="&#x385;" horiz-adv-x="711" 
d="M511 1414l-177 -165h-74l104 165h147zM584.5 1342q16.5 -16 16.5 -38q0 -24 -16.5 -40t-38.5 -16q-23 0 -39.5 16t-16.5 40q0 22 16.5 38t39.5 16q22 0 38.5 -16zM204.5 1342q16.5 -16 16.5 -38q0 -24 -16.5 -40t-38.5 -16q-23 0 -39.5 16t-16.5 40q0 22 16.5 38t39.5 16
q22 0 38.5 -16z" />
    <glyph glyph-name="Alphatonos" unicode="&#x386;" horiz-adv-x="1001" 
d="M427 1414l-217 -165h-74l144 165h147zM734 701l-215 593l-216 -593h431zM560 1414l513 -1414h-84l-226 622h-489l-230 -622h-85l519 1414h82z" />
    <glyph glyph-name="anoteleia" unicode="&#x387;" horiz-adv-x="245" 
d="M170 982.5q20 -19.5 20 -47.5t-20 -47.5t-47 -19.5q-28 0 -48 19.5t-20 47.5t20 47.5t48 19.5q27 0 47 -19.5z" />
    <glyph glyph-name="Epsilontonos" unicode="&#x388;" horiz-adv-x="1044" 
d="M198 1414l-217 -165h-74l144 165h147zM951 1414v-80h-627v-587h627v-80h-627v-587h627v-80h-707v1414h707z" />
    <glyph glyph-name="Etatonos" unicode="&#x389;" horiz-adv-x="1243" 
d="M201 1414l-217 -165h-74l144 165h147zM327 667v-667h-80v1414h80v-667h724v667h80v-1414h-80v667h-724z" />
    <glyph glyph-name="Iotatonos" unicode="&#x38a;" horiz-adv-x="402" 
d="M188 1414l-217 -165h-74l144 165h147zM306 1414v-1414h-80v1414h80z" />
    <glyph glyph-name="Omicrontonos" unicode="&#x38c;" horiz-adv-x="1532" 
d="M274 1414l-217 -165h-74l144 165h147zM1229.5 1221.5q212.5 -212.5 212.5 -512.5q0 -301 -212.5 -513.5t-513.5 -212.5q-300 0 -512.5 212.5t-212.5 513.5q0 300 212.5 512.5t512.5 212.5q301 0 513.5 -212.5zM716 1353q-266 0 -455 -189t-189 -455q0 -267 189 -456
t455 -189q267 0 456 189t189 456q0 266 -189 455t-456 189z" />
    <glyph glyph-name="Upsilontonos" unicode="&#x38e;" horiz-adv-x="1201" 
d="M130 1414l-217 -165h-74l144 165h147zM664 572l-486 842h91l435 -754l435 754h91l-486 -842v-572h-80v572z" />
    <glyph glyph-name="Omegatonos" unicode="&#x38f;" horiz-adv-x="1367" 
d="M255 1414l-217 -165h-74l144 165h147zM650 1434q283 0 454.5 -200t171.5 -539q0 -250 -136.5 -419t-246.5 -196h292v-80h-480v80q194 45 342 201.5t148 413.5q0 306 -149.5 488.5t-400.5 182.5h-4q-251 0 -400.5 -182.5t-149.5 -488.5q0 -257 148 -413.5t342 -201.5v-80
h-480v80h292q-110 27 -246.5 196t-136.5 419q0 339 171.5 539t454.5 200h14z" />
    <glyph glyph-name="iotadieresistonos" unicode="&#x390;" horiz-adv-x="369" 
d="M224 868v-868h-79v868h79zM340 1217l-177 -165h-74l104 165h147zM413.5 1145q16.5 -16 16.5 -38q0 -24 -16.5 -40t-38.5 -16q-23 0 -39.5 16t-16.5 40q0 22 16.5 38t39.5 16q22 0 38.5 -16zM33.5 1145q16.5 -16 16.5 -38q0 -24 -16.5 -40t-38.5 -16q-23 0 -39.5 16
t-16.5 40q0 22 16.5 38t39.5 16q22 0 38.5 -16z" />
    <glyph glyph-name="Alpha" unicode="&#x391;" horiz-adv-x="1116" 
d="M774 701l-215 593l-216 -593h431zM600 1414l513 -1414h-84l-226 622h-489l-230 -622h-85l519 1414h82z" />
    <glyph glyph-name="Beta" unicode="&#x392;" horiz-adv-x="1033" 
d="M519 80q157 0 268 111.5t111 269.5t-111 270t-268 112h-327v-763h327zM192 1335v-412h360q87 9 130 52q61 61 61 149q0 87 -61.5 149t-148.5 62h-341zM703 887q78 -33 143 -99q135 -135 135 -327q0 -191 -135 -326q-113 -113 -275 -135h-459v1414h422q121 0 205.5 -85
t84.5 -205t-85 -205q-18 -19 -36 -32z" />
    <glyph glyph-name="Gamma" unicode="&#x393;" horiz-adv-x="753" 
d="M731 1414v-80h-539v-1334h-80v1414h619z" />
    <glyph glyph-name="uni0394" unicode="&#x394;" horiz-adv-x="1103" 
d="M30 1h-60l515 1413h97l521 -1414h-1073v1zM989 80l-456 1234l-450 -1234h906z" />
    <glyph glyph-name="Epsilon" unicode="&#x395;" horiz-adv-x="909" 
d="M819 1414v-80h-627v-587h627v-80h-627v-587h627v-80h-707v1414h707z" />
    <glyph glyph-name="Zeta" unicode="&#x396;" horiz-adv-x="1075" 
d="M854 1334h-670v80h807l-771 -1334h841v-80h-977z" />
    <glyph glyph-name="Eta" unicode="&#x397;" horiz-adv-x="1104" 
d="M190 667v-667h-80v1414h80v-667h724v667h80v-1414h-80v667h-724z" />
    <glyph glyph-name="Theta" unicode="&#x398;" horiz-adv-x="1575" 
d="M1300.5 1221.5q212.5 -212.5 212.5 -512.5q0 -301 -212.5 -513.5t-513.5 -212.5q-300 0 -512.5 212.5t-212.5 513.5q0 300 212.5 512.5t512.5 212.5q301 0 513.5 -212.5zM787 1353q-266 0 -455 -189t-189 -455q0 -267 189 -456t455 -189q267 0 456 189t189 456
q0 266 -189 455t-456 189zM388 749h800v-80h-800v80z" />
    <glyph glyph-name="Iota" unicode="&#x399;" horiz-adv-x="324" 
d="M202 1414v-1414h-80v1414h80z" />
    <glyph glyph-name="Kappa" unicode="&#x39a;" horiz-adv-x="999" 
d="M762 1414l-367 -531l618 -883h-97l-572 817l-152 -218v-599h-80v1414h80v-677l473 677h97z" />
    <glyph glyph-name="Lambda" unicode="&#x39b;" horiz-adv-x="1133" 
d="M612 1414l521 -1414h-84l-486 1314l-479 -1313h-84l515 1413h97z" />
    <glyph glyph-name="Mu" unicode="&#x39c;" horiz-adv-x="1442" 
d="M1349 1414v-1414h-80v1328l-547 -717l-548 717v-1328h-80v1414h116l512 -670l511 670h116z" />
    <glyph glyph-name="Nu" unicode="&#x39d;" horiz-adv-x="1339" 
d="M210 1414l940 -1317v1317h80v-1414h-123l-918 1286v-1286h-80v1414h101z" />
    <glyph glyph-name="Xi" unicode="&#x39e;" horiz-adv-x="1100" 
d="M149 749h800v-80h-800v80zM50 1415h1000v-80h-1000v80zM50 81h1000v-80h-1000v80z" />
    <glyph glyph-name="Omicron" unicode="&#x39f;" horiz-adv-x="1575" 
d="M1300.5 1221.5q212.5 -212.5 212.5 -512.5q0 -301 -212.5 -513.5t-513.5 -212.5q-300 0 -512.5 212.5t-212.5 513.5q0 300 212.5 512.5t512.5 212.5q301 0 513.5 -212.5zM787 1353q-266 0 -455 -189t-189 -455q0 -267 189 -456t455 -189q267 0 456 189t189 456
q0 266 -189 455t-456 189z" />
    <glyph glyph-name="Pi" unicode="&#x3a0;" horiz-adv-x="1072" 
d="M174 1334v-1334h-80v1414h884v-1414h-80v1334h-724z" />
    <glyph glyph-name="Rho" unicode="&#x3a1;" horiz-adv-x="959" 
d="M192 490v-490h-80v1414h371q162 -22 275 -135q135 -136 135 -326q0 -192 -135 -327.5t-326 -135.5h-240zM192 1333v-762h240q157 0 269 111.5t112 270.5q0 158 -112 269t-269 111h-240z" />
    <glyph glyph-name="Sigma" unicode="&#x3a3;" horiz-adv-x="1062" 
d="M24 1413h1014v-80h-928l517 -627l-517 -626h928v-80h-1014v116l500 590l-500 591v116z" />
    <glyph glyph-name="Tau" unicode="&#x3a4;" horiz-adv-x="899" 
d="M489 1334v-1334h-79v1334h-358v80h795v-80h-358z" />
    <glyph glyph-name="Upsilon" unicode="&#x3a5;" horiz-adv-x="1052" 
d="M518 572l-486 842h91l435 -754l435 754h91l-486 -842v-572h-80v572z" />
    <glyph glyph-name="Phi" unicode="&#x3a6;" horiz-adv-x="1579" 
d="M749 295v800q-271 -7 -427 -116q-167 -118 -167 -284t167 -283q156 -110 427 -117zM829 211v-207h-80v207q-306 8 -486 142q-193 142 -193 343t193 343q180 132 486 140v233h80v-233q307 -8 488 -140q192 -142 192 -343t-192 -343q-181 -134 -488 -142zM829 1095v-800
q272 7 428 117q167 117 167 283t-167 284q-156 109 -428 116z" />
    <glyph glyph-name="Chi" unicode="&#x3a7;" horiz-adv-x="1018" 
d="M15 0l448 777l-368 637h91l322 -559l323 559h91l-369 -637l450 -777h-91l-404 698l-403 -698h-90z" />
    <glyph glyph-name="Psi" unicode="&#x3a8;" horiz-adv-x="1614" 
d="M844 311v-307h-80v307q-306 8 -486 142q-183 142 -188 346v613h80v-617q0 -166 167 -283q156 -110 427 -117v1017h80v-1017q272 7 428 117q167 117 167 287h5v613h80v-618q-1 -200 -192 -341q-181 -134 -488 -142z" />
    <glyph glyph-name="uni03A9" unicode="&#x3a9;" horiz-adv-x="1446" 
d="M730 1434q283 0 454.5 -200t171.5 -539q0 -250 -136.5 -419t-246.5 -196h292v-80h-480v80q194 45 342 201.5t148 413.5q0 306 -149.5 488.5t-400.5 182.5h-4q-251 0 -400.5 -182.5t-149.5 -488.5q0 -257 148 -413.5t342 -201.5v-80h-480v80h292q-110 27 -246.5 196
t-136.5 419q0 339 171.5 539t454.5 200h14z" />
    <glyph glyph-name="Iotadieresis" unicode="&#x3aa;" horiz-adv-x="324" 
d="M202 1414v-1414h-80v1414h80zM85.5 1658q23.5 -23 23.5 -55q0 -34 -23.5 -57t-55.5 -23q-33 0 -56.5 23t-23.5 57q0 32 23.5 55t56.5 23q32 0 55.5 -23zM350.5 1658q23.5 -23 23.5 -55q0 -34 -23.5 -57t-55.5 -23q-33 0 -56.5 23t-23.5 57q0 32 23.5 55t56.5 23
q32 0 55.5 -23z" />
    <glyph glyph-name="Upsilondieresis" unicode="&#x3ab;" horiz-adv-x="1052" 
d="M518 572l-486 842h91l435 -754l435 754h91l-486 -842v-572h-80v572zM481.5 1658q23.5 -23 23.5 -55q0 -34 -23.5 -57t-55.5 -23q-33 0 -56.5 23t-23.5 57q0 32 23.5 55t56.5 23q32 0 55.5 -23zM746.5 1658q23.5 -23 23.5 -55q0 -34 -23.5 -57t-55.5 -23q-33 0 -56.5 23
t-23.5 57q0 32 23.5 55t56.5 23q32 0 55.5 -23z" />
    <glyph glyph-name="alphatonos" unicode="&#x3ac;" horiz-adv-x="1162" 
d="M980 207q-30 -47 -71 -89q-142 -143 -344 -143q-200 0 -342.5 142.5t-142.5 342.5q0 202 142.5 344t342.5 142q202 0 344 -142q44 -45 71 -136l63 200h79l-100 -434l100 -434h-79zM849 744q-118 118 -284 118t-283.5 -118t-117.5 -284t117.5 -283t283.5 -117t284 117
q90 90 93 261q0 210 -93 306zM795 1217l-217 -165h-74l144 165h147z" />
    <glyph glyph-name="epsilontonos" unicode="&#x3ad;" horiz-adv-x="754" 
d="M221.5 354.5q-57.5 -41.5 -57.5 -127.5q0 -66 65 -113.5t171 -47.5q155 10 264 165l-1 -130q-118 -119 -263 -119q-131 0 -220.5 67.5t-89.5 188.5q0 119 141 205q-141 86 -141 215q0 121 89.5 172.5t220.5 51.5q142 0 263 -112v-108q-107 136 -263 136
q-106 0 -171 -32.5t-65 -98.5q0 -96 57.5 -137t90.5 -49h218v-79h-218q-33 -6 -90.5 -47.5zM571 1217l-217 -165h-74l144 165h147z" />
    <glyph glyph-name="etatonos" unicode="&#x3ae;" horiz-adv-x="841" 
d="M170 674v-674h-80v868h80v-56q108 108 252 108q154 0 250.5 -96.5t98.5 -242.5v-912h-79v904q0 111 -80 189t-190 78q-109 0 -189 -77q-43 -43 -63 -89zM625 1217l-217 -165h-74l144 165h147z" />
    <glyph glyph-name="iotatonos" unicode="&#x3af;" horiz-adv-x="369" 
d="M224 868v-868h-79v868h79zM379 1217l-217 -165h-74l144 165h147z" />
    <glyph glyph-name="upsilondieresistonos" unicode="&#x3b0;" horiz-adv-x="880" 
d="M445 -12q-163 0 -259 96t-99 243v542h80v-535q0 -110 80 -188q79 -79 197 -79q110 0 189.5 78.5t79.5 188.5v535h80v-542q-3 -147 -99 -243t-249 -96zM596 1217l-177 -165h-74l104 165h147zM669.5 1145q16.5 -16 16.5 -38q0 -24 -16.5 -40t-39.5 -16t-39.5 16t-16.5 40
q0 22 16.5 38t39.5 16t39.5 -16zM289.5 1145q16.5 -16 16.5 -38q0 -24 -16.5 -40t-39.5 -16t-39.5 16t-16.5 40q0 22 16.5 38t39.5 16t39.5 -16z" />
    <glyph glyph-name="alpha" unicode="&#x3b1;" horiz-adv-x="1162" 
d="M980 207q-30 -47 -71 -89q-142 -143 -344 -143q-200 0 -342.5 142.5t-142.5 342.5q0 202 142.5 344t342.5 142q202 0 344 -142q44 -45 71 -136l63 200h79l-100 -434l100 -434h-79zM849 744q-118 118 -284 118t-283.5 -118t-117.5 -284t117.5 -283t283.5 -117t284 117
q90 90 93 261q0 210 -93 306z" />
    <glyph glyph-name="beta" unicode="&#x3b2;" horiz-adv-x="911" 
d="M409 1433q126 0 214 -88.5t88 -211.5q0 -126 -67 -198t-126 -96q128 -42 212 -132q121 -130 121 -304q0 -175 -123.5 -298.5t-298.5 -123.5q-89 0 -165 32l26 81q64 -29 139 -29q141 0 240 98.5t99 239.5q0 140 -96.5 245t-289.5 141l-66 2v79q82 1 134.5 21.5t114 86
t61.5 155.5q0 91 -63.5 154t-153.5 63q-89 0 -149 -66.5t-60 -179.5v-1432h-80v1442q0 143 82 231t207 88z" />
    <glyph glyph-name="gamma" unicode="&#x3b3;" horiz-adv-x="894" 
d="M404 0l-364 868h93l312 -743l316 743h93l-366 -863v-336h-84v331z" />
    <glyph glyph-name="delta" unicode="&#x3b4;" horiz-adv-x="1114" 
d="M156 460q0 -166 117.5 -283t283.5 -117t283.5 117t117.5 283t-117.5 284t-283.5 118t-283.5 -118t-117.5 -284zM921.5 783q120.5 -121 120.5 -323q0 -200 -141.5 -342.5t-343.5 -142.5q-200 0 -342.5 142.5t-142.5 342.5q0 202 143 344q125 125 355 150l-377 455h629v-80
h-441q250 -342 335 -383.5t205.5 -162.5z" />
    <glyph glyph-name="epsilon" unicode="&#x3b5;" horiz-adv-x="754" 
d="M221.5 354.5q-57.5 -41.5 -57.5 -127.5q0 -66 65 -113.5t171 -47.5q155 10 264 165l-1 -130q-118 -119 -263 -119q-131 0 -220.5 67.5t-89.5 188.5q0 119 141 205q-141 86 -141 215q0 121 89.5 172.5t220.5 51.5q142 0 263 -112v-108q-107 136 -263 136
q-106 0 -171 -32.5t-65 -98.5q0 -96 57.5 -137t90.5 -49h218v-79h-218q-33 -6 -90.5 -47.5z" />
    <glyph glyph-name="zeta" unicode="&#x3b6;" horiz-adv-x="790" 
d="M810 1388q-544 -546 -620 -929q-12 -61 -12 -112q0 -274 341 -285q247 -8 247 -191q-30 -160 -180 -165v83q94 0 100 93v5q0 94 -161 94q-425 9 -425 352q0 41 7 87q56 428 566 914h-536v80h673v-26z" />
    <glyph glyph-name="eta" unicode="&#x3b7;" horiz-adv-x="841" 
d="M170 674v-674h-80v868h80v-56q108 108 252 108q154 0 250.5 -96.5t98.5 -242.5v-912h-79v904q0 111 -80 189t-190 78q-109 0 -189 -77q-43 -43 -63 -89z" />
    <glyph glyph-name="theta" unicode="&#x3b8;" horiz-adv-x="1130" 
d="M966 695q0 300 -117.5 467t-283.5 167t-283.5 -167t-117.5 -467q0 -301 117.5 -468t283.5 -167t283.5 167t117.5 468zM1050 695q0 -335 -141.5 -527.5t-342.5 -192.5t-343.5 192.5t-142.5 527.5q0 334 142.5 526.5t343.5 192.5t342.5 -192.5t141.5 -526.5zM294 735h543
v-80h-543v80z" />
    <glyph glyph-name="iota" unicode="&#x3b9;" horiz-adv-x="369" 
d="M224 868v-868h-79v868h79z" />
    <glyph glyph-name="kappa" unicode="&#x3ba;" horiz-adv-x="738" 
d="M623 868l-214 -265l341 -603h-98l-295 539l-177 -196v-343h-80v868h80v-398l341 398h102z" />
    <glyph glyph-name="lambda" unicode="&#x3bb;" horiz-adv-x="849" 
d="M470 705l329 -705h-89l-286 606l-285 -606h-89l330 707l-249 531h89l249 -533h1z" />
    <glyph glyph-name="uni03BC" unicode="&#x3bc;" horiz-adv-x="879" 
d="M691 98q-4 -4 -9 -10q-97 -96 -250 -96q-142 0 -242 97v-420h-80v1199h80v-646q17 -38 53 -74q79 -76 189 -76q109 0 190 78q51 51 69 115v603h78v-868h-78v98z" />
    <glyph glyph-name="nu" unicode="&#x3bd;" horiz-adv-x="834" 
d="M136 868l279 -663l282 663h93l-375 -898l-372 898h93z" />
    <glyph glyph-name="xi" unicode="&#x3be;" horiz-adv-x="893" 
d="M203.5 119.5q-123.5 108.5 -123.5 283.5q0 174 121 304q84 90 212 132q-59 24 -126 86t-67 188q16 299 385 300l217 1v-73h-188q-319 0 -319 -221v-7q0 -90 56.5 -145.5t161.5 -96.5l282 -1v-79l-266 2q-193 -40 -289.5 -145t-96.5 -245q0 -141 99 -224.5t370 -114
t271 -223.5v-20q-30 -120 -188 -135v93q102 0 108 73v5q0 114 -248 134t-371.5 128.5z" />
    <glyph glyph-name="omicron" unicode="&#x3bf;" horiz-adv-x="1114" 
d="M557 946q202 0 343.5 -142t141.5 -344q0 -200 -141.5 -342.5t-343.5 -142.5q-200 0 -342.5 142.5t-142.5 342.5q0 202 142.5 344t342.5 142zM273.5 744q-117.5 -118 -117.5 -284t117.5 -283t283.5 -117t283.5 117t117.5 283t-117.5 284t-283.5 118t-283.5 -118z" />
    <glyph glyph-name="pi" unicode="&#x3c0;" horiz-adv-x="1115" 
d="M397 788v-788h-79v788h-258v80h995v-80h-258v-788h-79v788h-321z" />
    <glyph glyph-name="rho" unicode="&#x3c1;" horiz-adv-x="1110" 
d="M92 578q38 144 155 255.5t318 111.5t343 -141.5t142 -343.5q0 -200 -142 -342.5t-343 -142.5t-343 143q-28 28 -50 58v-507h-80v909zM172 543v-166q22 -114 109 -200q118 -118 284 -118t283.5 117.5t117.5 283.5t-117.5 284t-283.5 118t-284 -118q-87 -87 -109 -201z" />
    <glyph glyph-name="sigma1" unicode="&#x3c2;" horiz-adv-x="905" 
d="M243.5 124.5q-143.5 103.5 -143.5 278.5q0 174 121 304q132 146 423 164l191 -1v-79h-146q-273 -8 -389.5 -128t-116.5 -260q0 -141 119 -219.5t320 -124t201 -188.5v-20q-30 -140 -188 -155v93q102 0 108 93v5q0 64 -178 99t-321.5 138.5z" />
    <glyph glyph-name="sigma" unicode="&#x3c3;" horiz-adv-x="1197" 
d="M166 460q0 -166 117.5 -283t283.5 -117t283.5 117t117.5 283t-117.5 284t-283.5 118t-283.5 -118t-117.5 -284zM926 788q126 -137 126 -328q0 -200 -141.5 -342.5t-343.5 -142.5q-200 0 -342.5 142.5t-142.5 342.5q0 202 142.5 344t342.5 142q150 0 266 -78h294v-80h-201
z" />
    <glyph glyph-name="tau" unicode="&#x3c4;" horiz-adv-x="919" 
d="M499 788v-788h-79v788h-358v80h795v-80h-358z" />
    <glyph glyph-name="upsilon" unicode="&#x3c5;" horiz-adv-x="880" 
d="M445 -12q-163 0 -259 96t-99 243v542h80v-535q0 -110 80 -188q79 -79 197 -79q110 0 189.5 78.5t79.5 188.5v535h80v-542q-3 -147 -99 -243t-249 -96z" />
    <glyph glyph-name="phi" unicode="&#x3c6;" horiz-adv-x="1131" 
d="M536 -15q-182 10 -313 142q-143 142 -143 342q0 202 143 344q47 48 72 63l30 -85q-22 -18 -42 -38q-118 -118 -118 -284t117 -283q114 -115 241 -115h7v743q15 94 107 94q64 0 166 -45q248 -112 248 -394q0 -200 -142 -342q-124 -125 -293 -141v-312h-80v311zM610 87
q169 29 239 98q118 118 118 284q0 206 -174 306q-89 51 -134 51t-48 -49z" />
    <glyph glyph-name="chi" unicode="&#x3c7;" horiz-adv-x="967" 
d="M484 238l-344 -564h-90l388 638l-338 556h91l293 -481l292 481h91l-338 -556l388 -638h-90z" />
    <glyph glyph-name="psi" unicode="&#x3c8;" horiz-adv-x="1166" 
d="M626 -15v-301h-86v301q-178 12 -307 142q-143 142 -143 342v400h85v-400q0 -166 117 -283q114 -115 241 -115h7v798h86v-798h7q127 0 241 115q117 117 117 283v400h85v-400q0 -200 -143 -342q-129 -130 -307 -142z" />
    <glyph glyph-name="omega" unicode="&#x3c9;" horiz-adv-x="1360" 
d="M647 197h-6v468h79v-468h-8l14 -20q5 -7 11 -13q52 -115 188 -115t208.5 105t72.5 331q0 206 -106 369v14h78q112 -191 112 -383q0 -251 -91.5 -380.5t-262.5 -129.5q-169 0 -255 141q-86 -141 -255 -141q-171 0 -263.5 129.5t-92.5 380.5q0 195 119 383h80v-8
q-115 -150 -115 -375q0 -226 72.5 -331t208.5 -105t189 115l10 14q7 9 13 19z" />
    <glyph glyph-name="iotadieresis" unicode="&#x3ca;" horiz-adv-x="369" 
d="M225 868v-868h-79v868h79zM108.5 1192q23.5 -23 23.5 -55q0 -34 -23.5 -57t-55.5 -23q-33 0 -56.5 23t-23.5 57q0 32 23.5 55t56.5 23q32 0 55.5 -23zM373.5 1192q23.5 -23 23.5 -55q0 -34 -23.5 -57t-55.5 -23q-33 0 -56.5 23t-23.5 57q0 32 23.5 55t56.5 23
q32 0 55.5 -23z" />
    <glyph glyph-name="upsilondieresis" unicode="&#x3cb;" horiz-adv-x="880" 
d="M445 -12q-163 0 -259 96t-99 243v542h80v-535q0 -110 80 -188q79 -79 197 -79q110 0 189.5 78.5t79.5 188.5v535h80v-542q-3 -147 -99 -243t-249 -96zM363.5 1192q23.5 -23 23.5 -55q0 -34 -23.5 -57t-55.5 -23q-33 0 -56.5 23t-23.5 57q0 32 23.5 55t56.5 23
q32 0 55.5 -23zM628.5 1192q23.5 -23 23.5 -55q0 -34 -23.5 -57t-55.5 -23q-33 0 -56.5 23t-23.5 57q0 32 23.5 55t56.5 23q32 0 55.5 -23z" />
    <glyph glyph-name="omicrontonos" unicode="&#x3cc;" horiz-adv-x="1114" 
d="M557 946q202 0 343.5 -142t141.5 -344q0 -200 -141.5 -342.5t-343.5 -142.5q-200 0 -342.5 142.5t-142.5 342.5q0 202 142.5 344t342.5 142zM273.5 744q-117.5 -118 -117.5 -284t117.5 -283t283.5 -117t283.5 117t117.5 283t-117.5 284t-283.5 118t-283.5 -118zM751 1217
l-217 -165h-74l144 165h147z" />
    <glyph glyph-name="upsilontonos" unicode="&#x3cd;" horiz-adv-x="880" 
d="M445 -12q-163 0 -259 96t-99 243v542h80v-535q0 -110 80 -188q79 -79 197 -79q110 0 189.5 78.5t79.5 188.5v535h80v-542q-3 -147 -99 -243t-249 -96zM634 1217l-217 -165h-74l144 165h147z" />
    <glyph glyph-name="omegatonos" unicode="&#x3ce;" horiz-adv-x="1360" 
d="M641 197v468h79v-468q7 -33 38 -90.5t167 -57.5t208.5 105t72.5 331q0 206 -106 369v14h78q112 -191 112 -383q0 -251 -91.5 -380.5t-262.5 -129.5q-169 0 -255 141q-86 -141 -255 -141q-171 0 -263.5 129.5t-92.5 380.5q0 195 119 383h80v-8q-115 -150 -115 -375
q0 -226 72.5 -331t208.5 -105t167.5 57.5t38.5 90.5zM874 1217l-217 -165h-74l144 165h147z" />
    <glyph glyph-name="afii10023" unicode="&#x401;" horiz-adv-x="931" 
d="M819 1414v-80h-627v-587h627v-80h-627v-587h627v-80h-707v1414h707zM389.5 1658q23.5 -23 23.5 -55q0 -34 -23.5 -57t-55.5 -23q-33 0 -56.5 23t-23.5 57q0 32 23.5 55t56.5 23q32 0 55.5 -23zM654.5 1658q23.5 -23 23.5 -55q0 -34 -23.5 -57t-55.5 -23q-33 0 -56.5 23
t-23.5 57q0 32 23.5 55t56.5 23q32 0 55.5 -23z" />
    <glyph glyph-name="afii10051" unicode="&#x402;" horiz-adv-x="1447" 
d="M497 496v-496h-79v1334h-358v80h795v-80h-358v-622q24 32 55 61q133 122 339 122t345 -122q131 -99 131 -357q0 -259 -131 -367q-38 -33 -80 -58l-53 58q33 20 64 47q118 103 120 310q-2 206 -120 309q-120 105 -285 105q-166 0 -276 -105q-100 -95 -109 -219z" />
    <glyph glyph-name="afii10052" unicode="&#x403;" horiz-adv-x="783" 
d="M731 1414v-80h-539v-1334h-80v1414h619zM616 1683l-217 -165h-74l144 165h147z" />
    <glyph glyph-name="afii10053" unicode="&#x404;" horiz-adv-x="1553" 
d="M1050 749v-80h-871q13 -241 188 -416q189 -189 455 -189q267 0 456 189q101 101 148 225h87q-52 -157 -177 -282q-213 -213 -514 -213q-300 0 -512.5 212.5t-212.5 513.5q0 300 212.5 512.5t512.5 212.5q301 0 514 -212q62 -63 105 -132h-98q-29 38 -65 74
q-189 189 -456 189q-266 0 -455 -189q-175 -175 -188 -415h871z" />
    <glyph glyph-name="afii10054" unicode="&#x405;" horiz-adv-x="942" 
d="M495 783q-151 50 -238.5 137.5t-87.5 212.5q0 122 87.5 210t212.5 88q123 0 212 -88q48 -47 67 -105l-72 -28q-16 43 -52 79q-64 64 -155 64t-155.5 -64t-64.5 -156q0 -91 64 -156q60 -59 166 -108q170 -55 286 -171q122 -122 122 -295q0 -174 -122.5 -297t-295.5 -123
q-174 0 -296 124q-99 98 -118 228l75 27q12 -115 98 -200q100 -100 241 -100t241 100t100 241q0 140 -100 240q-88 88 -215 140z" />
    <glyph glyph-name="afii10055" unicode="&#x406;" horiz-adv-x="324" 
d="M202 1414v-1414h-80v1414h80z" />
    <glyph glyph-name="afii10056" unicode="&#x407;" horiz-adv-x="324" 
d="M202 1414v-1414h-80v1414h80zM85.5 1658q23.5 -23 23.5 -55q0 -34 -23.5 -57t-55.5 -23q-33 0 -56.5 23t-23.5 57q0 32 23.5 55t56.5 23q32 0 55.5 -23zM350.5 1658q23.5 -23 23.5 -55q0 -34 -23.5 -57t-55.5 -23q-33 0 -56.5 23t-23.5 57q0 32 23.5 55t56.5 23
q32 0 55.5 -23z" />
    <glyph glyph-name="afii10057" unicode="&#x408;" horiz-adv-x="306" 
d="M192 -27q0 -108 -73 -178t-180 -70v73q73 0 124 50q49 49 49 135v1431h80v-1441z" />
    <glyph glyph-name="afii10058" unicode="&#x409;" horiz-adv-x="1986" 
d="M1027 0v1334h-724v-1084q0 -108 -73 -181.5t-180 -73.5v80q73 0 124 50q49 49 49 135v1154h884v-669h463q147 -3 243 -108.5t96 -258.5q0 -163 -96 -269t-243 -109h-543zM1107 665v-585h456q110 0 188.5 89.5t78.5 207.5q0 110 -78.5 199t-188.5 89h-456z" />
    <glyph glyph-name="afii10059" unicode="&#x40a;" horiz-adv-x="1865" 
d="M904 0v667h-724v-667h-80v1414h80v-667h724v667h80v-669h472q147 -3 243 -108.5t96 -258.5q0 -163 -96 -269t-243 -109h-552zM984 665v-585h465q110 0 188.5 89.5t78.5 207.5q0 110 -78.5 199t-188.5 89h-465z" />
    <glyph glyph-name="afii10060" unicode="&#x40b;" horiz-adv-x="1445" 
d="M489 496v-496h-79v1334h-358v80h795v-80h-358v-622q24 32 55 61q133 122 339 122t335 -122q127 -122 127 -382v-391h-87l1 399q0 211 -110 321q-105 105 -261 105h-14q-166 -5 -276 -110q-99 -95 -109 -219z" />
    <glyph glyph-name="afii10061" unicode="&#x40c;" horiz-adv-x="999" 
d="M762 1414l-367 -531l618 -883h-97l-572 817l-152 -218v-599h-80v1414h80v-677l473 677h97zM616 1683l-217 -165h-74l144 165h147z" />
    <glyph glyph-name="uni040D" unicode="&#x40d;" horiz-adv-x="1339" 
d="M1230 1414v-1414h-80v1286l-918 -1286h-123v1414h80v-1317l940 1317h101zM604 1683l144 -165h-75l-216 165h147z" />
    <glyph glyph-name="afii10062" unicode="&#x40e;" horiz-adv-x="1127" 
d="M325 57q-88 -68 -164 -68q-49 0 -94 28l39 70q44 -24 84 -24q18 0 35 5q54 15 200 239l125 204l-590 903h91l542 -828l483 828h91q-698 -1245 -842 -1357zM762 1685q-14 -46 -51 -83q-60 -61 -146 -61q-88 0 -148 61q-39 39 -53 83h70q11 -20 28 -37q42 -43 103 -43
q59 0 101 43q18 17 28 37h68z" />
    <glyph glyph-name="afii10145" unicode="&#x40f;" horiz-adv-x="1127" 
d="M520 1h-430v1413h80v-1333h787v1333h80v-1414h-438v-331h-79v332z" />
    <glyph glyph-name="afii10017" unicode="&#x410;" horiz-adv-x="1116" 
d="M774 701l-215 593l-216 -593h431zM600 1414l513 -1414h-84l-226 622h-489l-230 -622h-85l519 1414h82z" />
    <glyph glyph-name="afii10018" unicode="&#x411;" horiz-adv-x="1031" 
d="M105 747v667h619v-80h-539v-587h457q147 -3 243 -108.5t96 -258.5q0 -163 -96 -269t-243 -109h-457v-2h-80v2h-5v80h5v585h-5v80h5zM185 667v-585h450q110 0 188.5 89.5t78.5 207.5q0 110 -78.5 199t-188.5 89h-450z" />
    <glyph glyph-name="afii10019" unicode="&#x412;" horiz-adv-x="1033" 
d="M519 80q157 0 268 111.5t111 269.5t-111 270t-268 112h-327v-763h327zM192 1335v-412h360q87 9 130 52q61 61 61 149q0 87 -61.5 149t-148.5 62h-341zM703 887q78 -33 143 -99q135 -135 135 -327q0 -191 -135 -326q-113 -113 -275 -135h-459v1414h422q121 0 205.5 -85
t84.5 -205t-85 -205q-18 -19 -36 -32z" />
    <glyph glyph-name="afii10020" unicode="&#x413;" horiz-adv-x="783" 
d="M731 1414v-80h-539v-1334h-80v1414h619z" />
    <glyph glyph-name="afii10021" unicode="&#x414;" horiz-adv-x="1169" 
d="M920 87v1247h-511q29 -143 29 -308q0 -602 -315 -939h797zM1001 87h78v-418h-79v331h-901v-331h-79v418h9q329 378 329 939q0 166 -51 388h693z" />
    <glyph glyph-name="afii10022" unicode="&#x415;" horiz-adv-x="931" 
d="M819 1414v-80h-627v-587h627v-80h-627v-587h627v-80h-707v1414h707z" />
    <glyph glyph-name="afii10024" unicode="&#x416;" horiz-adv-x="1693" 
d="M887 738l472 676h97l-367 -531l618 -883h-97l-572 817l-151 -217v-600h-81v600l-151 217l-572 -817h-97l618 883l-367 531h97l472 -676v676h81v-676z" />
    <glyph glyph-name="afii10025" unicode="&#x417;" horiz-adv-x="923" 
d="M487 672h-334v79h334q134 0 208 84.5t74 220.5t-95 213.5t-221 77.5q-206 0 -363 -116v78q151 112 343 112q181 0 300.5 -96.5t119.5 -257.5q0 -249 -171 -355q171 -86 171 -355q0 -161 -119.5 -258.5t-300.5 -97.5q-195 0 -343 119v100q118 -135 343 -135
q126 0 231 72.5t105 208.5t-74 221t-208 85z" />
    <glyph glyph-name="afii10026" unicode="&#x418;" horiz-adv-x="1339" 
d="M1230 1414v-1414h-80v1286l-918 -1286h-123v1414h80v-1317l940 1317h101z" />
    <glyph glyph-name="afii10027" unicode="&#x419;" horiz-adv-x="1339" 
d="M1230 1414v-1414h-80v1286l-918 -1286h-123v1414h80v-1317l940 1317h101zM868 1685q-14 -46 -51 -83q-60 -61 -146 -61q-88 0 -148 61q-39 39 -53 83h70q11 -20 28 -37q42 -43 103 -43q59 0 101 43q18 17 28 37h68z" />
    <glyph glyph-name="afii10028" unicode="&#x41a;" horiz-adv-x="999" 
d="M762 1414l-367 -531l618 -883h-97l-572 817l-152 -218v-599h-80v1414h80v-677l473 677h97z" />
    <glyph glyph-name="afii10029" unicode="&#x41b;" horiz-adv-x="1201" 
d="M303 250q0 -108 -73 -181.5t-180 -73.5v80q73 0 124 50q49 49 49 135v1154h884v-1414h-80v1334h-724v-1084z" />
    <glyph glyph-name="afii10030" unicode="&#x41c;" horiz-adv-x="1442" 
d="M1349 1414v-1414h-80v1328l-547 -717l-548 717v-1328h-80v1414h116l512 -670l511 670h116z" />
    <glyph glyph-name="afii10031" unicode="&#x41d;" horiz-adv-x="1072" 
d="M174 667v-667h-80v1414h80v-667h724v667h80v-1414h-80v667h-724z" />
    <glyph glyph-name="afii10032" unicode="&#x41e;" horiz-adv-x="1575" 
d="M1300.5 1221.5q212.5 -212.5 212.5 -512.5q0 -301 -212.5 -513.5t-513.5 -212.5q-300 0 -512.5 212.5t-212.5 513.5q0 300 212.5 512.5t512.5 212.5q301 0 513.5 -212.5zM787 1353q-266 0 -455 -189t-189 -455q0 -267 189 -456t455 -189q267 0 456 189t189 456
q0 266 -189 455t-456 189z" />
    <glyph glyph-name="afii10033" unicode="&#x41f;" horiz-adv-x="1072" 
d="M174 1334v-1334h-80v1414h884v-1414h-80v1334h-724z" />
    <glyph glyph-name="afii10034" unicode="&#x420;" horiz-adv-x="959" 
d="M192 490v-490h-80v1414h371q162 -22 275 -135q135 -136 135 -326q0 -192 -135 -327.5t-326 -135.5h-240zM192 1333v-762h240q157 0 269 111.5t112 270.5q0 158 -112 269t-269 111h-240z" />
    <glyph glyph-name="afii10035" unicode="&#x421;" horiz-adv-x="1347" 
d="M1224 225l61 -54q-207 -188 -487 -188q-301 0 -512.5 211.5t-211.5 512.5q0 299 211.5 511.5t512.5 212.5q280 0 487 -189l-61 -54q-182 161 -426 161q-266 0 -454.5 -188t-188.5 -454q0 -267 188.5 -455t454.5 -188q244 0 426 161z" />
    <glyph glyph-name="afii10036" unicode="&#x422;" horiz-adv-x="899" 
d="M489 1334v-1334h-79v1334h-358v80h795v-80h-358z" />
    <glyph glyph-name="afii10037" unicode="&#x423;" horiz-adv-x="1127" 
d="M325 57q-88 -68 -164 -68q-49 0 -94 28l39 70q44 -24 84 -24q18 0 35 5q54 15 200 239l125 204l-590 903h91l542 -828l483 828h91q-698 -1245 -842 -1357z" />
    <glyph glyph-name="afii10038" unicode="&#x424;" horiz-adv-x="1415" 
d="M667 347v695q-236 -7 -373 -101q-148 -102 -148 -246q0 -145 148 -247q137 -94 373 -101zM747 259v-255h-80v255q-272 8 -433 128q-174 128 -174 308q0 181 174 309q161 118 433 126v282h80v-282q274 -8 435 -126q173 -128 173 -309q0 -180 -173 -308
q-161 -120 -435 -128zM747 1042v-695q237 7 374 101q148 102 148 247q0 144 -148 246q-137 94 -374 101z" />
    <glyph glyph-name="afii10039" unicode="&#x425;" horiz-adv-x="1018" 
d="M15 0l448 777l-368 637h91l322 -559l323 559h91l-369 -637l450 -777h-91l-404 698l-403 -698h-90z" />
    <glyph glyph-name="afii10040" unicode="&#x426;" horiz-adv-x="1142" 
d="M1043 1h-943v1413h80v-1333h787v1333h80v-1327h75v-418h-79v332z" />
    <glyph glyph-name="afii10041" unicode="&#x427;" horiz-adv-x="1097" 
d="M937 919v495h79v-1414h-79v703q-24 -32 -55 -60q-133 -123 -339 -123t-334 123q-128 121 -128 381v390h87l-1 -398q0 -211 110 -321q105 -105 261 -105h15q165 5 275 110q99 95 109 219z" />
    <glyph glyph-name="afii10042" unicode="&#x428;" horiz-adv-x="1614" 
d="M100 1414h80v-1333h587v1333h80v-1333h587v1333h80v-1413h-1414v1413z" />
    <glyph glyph-name="afii10043" unicode="&#x429;" horiz-adv-x="1616" 
d="M1510 1h-1410v1413h80v-1333h587v1333h80v-1333h587v1333h80v-1327h75v-418h-79v332z" />
    <glyph glyph-name="afii10044" unicode="&#x42a;" horiz-adv-x="1333" 
d="M359 745v589h-339v80h419v-669h461q147 -3 243 -108.5t96 -258.5q0 -163 -96 -269t-243 -109h-542v80h1v585h-1v80h1zM439 665v-585h454q110 0 188.5 89.5t78.5 207.5q0 110 -78.5 199t-188.5 89h-454z" />
    <glyph glyph-name="afii10045" unicode="&#x42b;" horiz-adv-x="1396" 
d="M1305 1414v-1414h-80v1414h80zM93 0v1414h80v-669h470q147 -3 243 -108.5t96 -258.5q0 -163 -96 -269t-243 -109h-550zM173 665v-585h463q110 0 188.5 89.5t78.5 207.5q0 110 -78.5 199t-188.5 89h-463z" />
    <glyph glyph-name="afii10046" unicode="&#x42c;" horiz-adv-x="1032" 
d="M93 0v1414h80v-669h470q147 -3 243 -108.5t96 -258.5q0 -163 -96 -269t-243 -109h-550zM173 665v-585h463q110 0 188.5 89.5t78.5 207.5q0 110 -78.5 199t-188.5 89h-463z" />
    <glyph glyph-name="afii10047" unicode="&#x42d;" horiz-adv-x="1568" 
d="M1396 749q-13 240 -188 415q-189 189 -455 189q-267 0 -456 -189q-36 -36 -65 -74h-99q44 69 106 132q213 212 514 212q300 0 512.5 -212.5t212.5 -512.5q0 -301 -212.5 -513.5t-512.5 -212.5q-301 0 -514 213q-126 125 -177 282h86q47 -124 149 -225q189 -189 456 -189
q266 0 455 189q175 175 188 416h-871v80h871z" />
    <glyph glyph-name="afii10048" unicode="&#x42e;" horiz-adv-x="2041" 
d="M1253 1353q-266 0 -455 -189t-189 -455q0 -267 189 -456t455 -189q267 0 456 189t189 456q0 266 -189 455t-456 189zM529 667h-349v-667h-80v1414h80v-667h349q13 276 212 475q212 212 512 212q301 0 513.5 -212.5t212.5 -512.5q0 -301 -212.5 -513.5t-513.5 -212.5
q-300 0 -512 213q-198 197 -212 471z" />
    <glyph glyph-name="afii10049" unicode="&#x42f;" horiz-adv-x="961" 
d="M541 1333q-157 0 -269 -111t-112 -269q0 -159 112 -270.5t269 -111.5h240v762h-240zM202 0h-98l326 503q-121 29 -215 123q-135 135 -135 327q0 190 135 326q113 113 275 135h371v-1414h-80v490h-240q-12 0 -24 1z" />
    <glyph glyph-name="afii10065" unicode="&#x430;" horiz-adv-x="1122" 
d="M1033 0h-80v177q-23 -31 -50 -59q-142 -143 -344 -143q-200 0 -342.5 142.5t-142.5 342.5q0 202 142.5 344t342.5 142q202 0 344 -142q27 -28 50 -59v123h80v-868zM953 382v157q-22 117 -110 205q-118 118 -284 118t-283.5 -118t-117.5 -284t117.5 -283t283.5 -117
t284 118q88 88 110 204z" />
    <glyph glyph-name="afii10066" unicode="&#x431;" horiz-adv-x="1178" 
d="M220 460q0 -166 117.5 -283t283.5 -117t283.5 117t117.5 283t-117.5 284t-283.5 118t-283.5 -118t-117.5 -284zM181 667q35 74 98 137q142 142 342 142q202 0 343.5 -142t141.5 -344q0 -200 -141.5 -342.5t-343.5 -142.5q-200 0 -342 143q-127 126 -141 298h-7
q-34 168 -34 309q0 281 133 460q164 222 380 222q45 0 91 -9q123 -25 200 -25q93 0 117 37v-79q-24 -35 -111 -35q-73 0 -192 25q-47 10 -90 10q-200 0 -339 -205q-107 -157 -107 -398q0 -30 2 -61z" />
    <glyph glyph-name="afii10067" unicode="&#x432;" horiz-adv-x="755" 
d="M179 479h247v1q86 4 132.5 50.5t46.5 104.5q0 57 -46.5 103.5t-132.5 50.5v1h-247v-311zM179 391v-311h247v1q86 4 132.5 50.5t46.5 103.5q0 58 -46.5 104.5t-132.5 50.5v1h-247zM100 870h329v-1q115 -5 185.5 -75.5t70.5 -158.5v-1q0 -88 -70 -158q-25 -25 -54 -41
q29 -16 54 -40q70 -71 70 -159v-1q0 -88 -70.5 -158.5t-185.5 -75.5v-1h-329v870z" />
    <glyph glyph-name="afii10068" unicode="&#x433;" horiz-adv-x="607" 
d="M179 788v-788h-79v868h437v-80h-358z" />
    <glyph glyph-name="afii10069" unicode="&#x434;" horiz-adv-x="949" 
d="M829 87h70v-418h-79v331h-691v-331h-79v418h71q2 2 4 3q188 188 188 555q0 75 -8 143q-5 41 -13 80h537v-781zM225 80h525v708h-363q7 -68 7 -143q0 -358 -169 -565z" />
    <glyph glyph-name="afii10070" unicode="&#x435;" horiz-adv-x="1042" 
d="M154 586h762q-28 91 -95 158q-118 118 -284 118t-284 -118q-70 -71 -99 -158zM139 505q-3 -21 -3 -45q0 -166 117.5 -283t283.5 -117t284 118q20 20 38 42l85 -30q-15 -25 -63 -72q-142 -143 -344 -143q-200 0 -342.5 142.5t-142.5 342.5q0 202 142.5 344t342.5 142
q202 0 344 -142q125 -126 125 -299h-867z" />
    <glyph glyph-name="afii10072" unicode="&#x436;" horiz-adv-x="1195" 
d="M638 471l340 397h102l-214 -265l341 -603h-98l-295 539l-176 -195v-344h-81v344l-176 195l-295 -539h-98l341 603l-214 265h102l340 -397v397h81v-397z" />
    <glyph glyph-name="afii10073" unicode="&#x437;" horiz-adv-x="756" 
d="M543 437q27 -14 51 -32q92 -70 92 -168t-92 -168t-222 -70t-222 70t-92 168v9h85v-9q0 -72 67 -122.5t162 -50.5t162 50.5t67 122.5t-67 123q-40 29 -89 42h-200v79h228q33 13 61 34q67 50 67 122t-67 122.5t-162 50.5t-162 -50q-58 -45 -66 -105h-85q8 87 91 150
q92 70 222 70t222 -70t92 -168t-92 -168q-24 -18 -51 -32z" />
    <glyph glyph-name="afii10074" unicode="&#x438;" horiz-adv-x="899" 
d="M90 868h79v-735l555 735h85v-868h-79v742l-561 -741v-1h-79v868z" />
    <glyph glyph-name="afii10075" unicode="&#x439;" horiz-adv-x="899" 
d="M90 868h79v-735l555 735h85v-868h-79v742l-561 -741v-1h-79v868zM649 1219q-15 -46 -52 -83q-60 -61 -146 -61q-88 0 -148 61q-38 39 -53 83h71q10 -20 27 -37q42 -43 103 -43q59 0 101 43q18 17 28 37h69z" />
    <glyph glyph-name="afii10076" unicode="&#x43a;" horiz-adv-x="738" 
d="M623 868l-214 -265l341 -603h-98l-295 539l-177 -196v-343h-80v868h80v-398l341 398h102z" />
    <glyph glyph-name="afii10077" unicode="&#x43b;" horiz-adv-x="984" 
d="M894 868v-868h-79v788h-579v-588q0 -186 -186 -201v79q107 12 107 120v670h737z" />
    <glyph glyph-name="afii10078" unicode="&#x43c;" horiz-adv-x="979" 
d="M490 119l324 749h85v-868h-79v672l-291 -672h-79l-291 672v-672h-79v868h85z" />
    <glyph glyph-name="afii10079" unicode="&#x43d;" horiz-adv-x="897" 
d="M817 0h-79v430h-579v-430h-79v868h79v-358h579v358h79v-868z" />
    <glyph glyph-name="afii10080" unicode="&#x43e;" horiz-adv-x="1114" 
d="M557 946q202 0 343.5 -142t141.5 -344q0 -200 -141.5 -342.5t-343.5 -142.5q-200 0 -342.5 142.5t-142.5 342.5q0 202 142.5 344t342.5 142zM273.5 744q-117.5 -118 -117.5 -284t117.5 -283t283.5 -117t283.5 117t117.5 283t-117.5 284t-283.5 118t-283.5 -118z" />
    <glyph glyph-name="afii10081" unicode="&#x43f;" horiz-adv-x="917" 
d="M169 788v-788h-79v868h737v-868h-79v788h-579z" />
    <glyph glyph-name="afii10082" unicode="&#x440;" horiz-adv-x="1110" 
d="M92 868h80v-122q22 30 50 58q142 141 343 141t343 -141.5t142 -343.5q0 -200 -142 -342.5t-343 -142.5t-343 143q-28 28 -50 58v-507h-80v1199zM172 543v-166q22 -114 109 -200q118 -118 284 -118t283.5 117.5t117.5 283.5t-117.5 284t-283.5 118t-284 -118
q-87 -87 -109 -201z" />
    <glyph glyph-name="afii10083" unicode="&#x441;" horiz-adv-x="985" 
d="M849 209l84 -31q-23 -31 -52 -60q-142 -143 -344 -143q-200 0 -342.5 142.5t-142.5 343.5t142.5 343t342.5 142q202 0 344 -142q29 -29 52 -60l-84 -31q-13 16 -28 32q-118 117 -284 117q-165 0 -282.5 -117.5t-117.5 -283.5t117.5 -283.5t282.5 -117.5q166 0 284 118
q15 15 28 31z" />
    <glyph glyph-name="afii10084" unicode="&#x442;" horiz-adv-x="955" 
d="M517 788v-788h-79v788h-358v80h795v-80h-358z" />
    <glyph glyph-name="afii10085" unicode="&#x443;" horiz-adv-x="779" 
d="M205 -330h-89l229 491l-330 707h89l285 -606l286 606h89z" />
    <glyph glyph-name="afii10086" unicode="&#x444;" horiz-adv-x="1968" 
d="M1024 559v-198q25 -104 106 -184q117 -118 283 -118t283.5 117.5t117.5 283.5t-117.5 284t-283.5 118t-283 -118q-81 -80 -106 -185zM944 361v198q-25 105 -106 185q-117 118 -283 118t-283.5 -118t-117.5 -284t117.5 -283.5t283.5 -117.5t283 118q81 80 106 184z
M1024 750q21 28 46 54q143 141 343 141q202 0 343.5 -141.5t141.5 -343.5q0 -200 -141.5 -342.5t-343.5 -142.5q-200 0 -343 143q-25 25 -46 53v-487h-80v487q-21 -28 -46 -53q-143 -143 -343 -143q-202 0 -343.5 142.5t-141.5 342.5q0 202 141.5 343.5t343.5 141.5
q200 0 343 -141q25 -26 46 -54v487h80v-487z" />
    <glyph glyph-name="afii10087" unicode="&#x445;" horiz-adv-x="637" 
d="M285 459l-255 409h93l208 -335l208 335h93l-255 -409l285 -459h-92l-239 384l-239 -384h-92z" />
    <glyph glyph-name="afii10088" unicode="&#x446;" horiz-adv-x="949" 
d="M828 0h-728v868h79v-788h579v788h79v-781h70v-418h-79v331z" />
    <glyph glyph-name="afii10089" unicode="&#x447;" horiz-adv-x="1057" 
d="M887 718v156h79v-874h-79v495q-20 -28 -45 -52q-123 -123 -329 -123t-324 123q-118 121 -118 381v50h87l-1 -58q0 -211 100 -321q96 -105 251 -105h15q165 5 265 110q90 94 99 218z" />
    <glyph glyph-name="afii10090" unicode="&#x448;" horiz-adv-x="1194" 
d="M90 868h80v-787h387v787h80v-787h387v787h80v-867h-1014v867z" />
    <glyph glyph-name="afii10091" unicode="&#x449;" horiz-adv-x="1239" 
d="M1120 1h-1010v867h80v-787h387v787h80v-787h387v787h80v-781h75v-418h-79v332z" />
    <glyph glyph-name="afii10092" unicode="&#x44a;" horiz-adv-x="1061" 
d="M254 0v788h-224v80h303v-357h372v-1q115 -5 195 -75q81 -71 81 -179v-1q0 -108 -81 -179q-80 -70 -195 -75v-1h-451zM333 80h369v1q86 4 143 51q56 46 56 123q0 78 -56 125q-57 46 -143 50v1h-369v-351z" />
    <glyph glyph-name="afii10093" unicode="&#x44b;" horiz-adv-x="1279" 
d="M179 80h469v1q86 4 143 51q56 46 56 123q0 78 -56 125q-57 46 -143 50v1h-469v-351zM1179 0h-79v868h79v-868zM100 0v868h79v-357h472v-1q115 -5 195 -75q81 -71 81 -179v-1q0 -108 -81 -179q-80 -70 -195 -75v-1h-551z" />
    <glyph glyph-name="afii10094" unicode="&#x44c;" horiz-adv-x="897" 
d="M179 80h369v1q86 4 143 51q56 46 56 123q0 78 -56 125q-57 46 -143 50v1h-369v-351zM100 0v868h79v-357h372v-1q115 -5 195 -75q81 -71 81 -179v-1q0 -108 -81 -179q-80 -70 -195 -75v-1h-451z" />
    <glyph glyph-name="afii10095" unicode="&#x44d;" horiz-adv-x="1082" 
d="M904 586q-29 87 -99 158q-118 118 -284 118t-284 -118q-48 -48 -76 -108h-89q30 92 105 168q142 142 344 142q200 0 342.5 -142t142.5 -344q0 -200 -142.5 -342.5t-342.5 -142.5q-202 0 -344 143q-28 27 -45 47h118q114 -105 271 -105q166 0 283.5 117t117.5 283
q0 24 -3 45h-543v81h528z" />
    <glyph glyph-name="afii10096" unicode="&#x44e;" horiz-adv-x="1519" 
d="M563 460q0 -166 117.5 -283t283.5 -117t283.5 117t117.5 283t-117.5 284t-283.5 118t-283.5 -118t-117.5 -284zM480 430h-301v-430h-79v868h79v-358h302q16 170 141 294q142 142 342 142q202 0 343.5 -142t141.5 -344q0 -200 -141.5 -342.5t-343.5 -142.5
q-200 0 -342 143q-132 131 -142 312z" />
    <glyph glyph-name="afii10097" unicode="&#x44f;" horiz-adv-x="797" 
d="M618 788h-269v-1q-86 -4 -142 -50q-57 -47 -57 -124q0 -78 57 -124q56 -47 142 -51v-1h269v351zM697 868v-868h-79v357h-213l-19 -41l-51 -109l-96 -207h-88l168 360q-98 11 -168 73q-81 71 -81 179v1q0 108 81 179q80 70 195 75v1h351z" />
    <glyph glyph-name="afii10071" unicode="&#x451;" horiz-adv-x="1042" 
d="M154 586h762q-28 91 -95 158q-118 118 -284 118t-284 -118q-70 -71 -99 -158zM139 505q-3 -21 -3 -45q0 -166 117.5 -283t283.5 -117t284 118q20 20 38 42l85 -30q-15 -25 -63 -72q-142 -143 -344 -143q-200 0 -342.5 142.5t-142.5 342.5q0 202 142.5 344t342.5 142
q202 0 344 -142q125 -126 125 -299h-867zM452.5 1192q23.5 -23 23.5 -55q0 -34 -23.5 -57t-55.5 -23q-33 0 -56.5 23t-23.5 57q0 32 23.5 55t56.5 23q32 0 55.5 -23zM717.5 1192q23.5 -23 23.5 -55q0 -34 -23.5 -57t-55.5 -23q-33 0 -56.5 23t-23.5 57q0 32 23.5 55t56.5 23
q32 0 55.5 -23z" />
    <glyph glyph-name="afii10099" unicode="&#x452;" horiz-adv-x="891" 
d="M711 573q0 111 -80 189t-189 78q-110 0 -189 -77q-36 -35 -53 -73v-690h-80v1134h-100v79h100v201h80v-201h194v-79h-194v-311q100 97 242 97q153 0 249.5 -96.5t99.5 -242.5v-631q0 -108 -73 -181.5t-180 -73.5v80q73 0 124 50q49 49 49 135v613z" />
    <glyph glyph-name="afii10100" unicode="&#x453;" horiz-adv-x="589" 
d="M179 788v-788h-79v868h437v-80h-358zM513 1217l-217 -165h-74l144 165h147z" />
    <glyph glyph-name="afii10101" unicode="&#x454;" horiz-adv-x="1070" 
d="M710 586v-81h-543q-3 -21 -3 -45q0 -166 117.5 -283t283.5 -117q157 0 270 105h118q-16 -20 -44 -47q-142 -143 -344 -143q-200 0 -342.5 142.5t-142.5 342.5q0 202 142.5 344t342.5 142q202 0 344 -142q75 -76 105 -168h-89q-28 60 -76 108q-118 118 -284 118t-284 -118
q-70 -71 -99 -158h528z" />
    <glyph glyph-name="afii10102" unicode="&#x455;" horiz-adv-x="644" 
d="M324 466q-101 55 -140 94q-61 61 -61 147t61 147.5t147 61.5t143 -57q55 -55 55 -126v-4l-69 -28q-9 67 -42 101t-87 34q-53 0 -91 -38t-38 -91t38 -91q22 -23 93 -68q113 -61 161 -109q75 -76 75 -181q0 -108 -75 -183.5t-182 -75.5t-182 75.5t-75 165.5l79 20
q0 -77 52.5 -129.5t125.5 -52.5t126 52.5t53 127.5q0 73 -53 125q-28 28 -114 83z" />
    <glyph glyph-name="afii10103" unicode="&#x456;" horiz-adv-x="317" 
d="M198 868v-868h-79v868h79zM214.5 1152q23.5 -23 23.5 -55q0 -34 -23.5 -57t-55.5 -23q-33 0 -56.5 23t-23.5 57q0 32 23.5 55t56.5 23q32 0 55.5 -23z" />
    <glyph glyph-name="afii10104" unicode="&#x457;" horiz-adv-x="317" 
d="M199 868v-868h-79v868h79zM82.5 1192q23.5 -23 23.5 -55q0 -34 -23.5 -57t-55.5 -23q-33 0 -56.5 23t-23.5 57q0 32 23.5 55t56.5 23q32 0 55.5 -23zM347.5 1192q23.5 -23 23.5 -55q0 -34 -23.5 -57t-55.5 -23q-33 0 -56.5 23t-23.5 57q0 32 23.5 55t56.5 23
q32 0 55.5 -23z" />
    <glyph glyph-name="afii10105" unicode="&#x458;" horiz-adv-x="284" 
d="M-11 -122q107 12 107 120v870h79v-868q0 -179 -186 -194v72zM191.5 1152q23.5 -23 23.5 -55q0 -34 -23.5 -57t-55.5 -23q-33 0 -56.5 23t-23.5 57q0 32 23.5 55t56.5 23q32 0 55.5 -23z" />
    <glyph glyph-name="afii10106" unicode="&#x459;" horiz-adv-x="1615" 
d="M897 80h369v1q86 4 143 51q56 46 56 123q0 78 -56 125q-57 46 -143 50v1h-369v-351zM896 511h373v-1q115 -5 195 -75q81 -71 81 -179v-1q0 -108 -81 -179q-80 -70 -195 -75v-1h-452v788h-579v-588q0 -186 -186 -201v79q107 12 107 120v670h737v-357z" />
    <glyph glyph-name="afii10107" unicode="&#x45a;" horiz-adv-x="1545" 
d="M827 80h369v1q86 4 143 51q56 46 56 123q0 78 -56 125q-57 46 -143 50v1h-369v-351zM748 0v430h-579v-430h-79v868h79v-358h579v358h79v-357h372v-1q115 -5 195 -75q81 -71 81 -179v-1q0 -108 -81 -179q-80 -70 -195 -75v-1h-451z" />
    <glyph glyph-name="afii10108" unicode="&#x45b;" horiz-adv-x="891" 
d="M120 1213v201h80v-201h194v-79h-194v-311q100 97 242 97q153 0 249.5 -96.5t99.5 -242.5v-581h-80v573q0 111 -80 189t-189 78q-110 0 -189 -77q-36 -35 -53 -73v-690h-80v1134h-100v79h100z" />
    <glyph glyph-name="afii10109" unicode="&#x45c;" horiz-adv-x="738" 
d="M623 868l-214 -265l341 -603h-98l-295 539l-177 -196v-343h-80v868h80v-398l341 398h102zM519 1218l-217 -165h-74l144 165h147z" />
    <glyph glyph-name="uni045D" unicode="&#x45d;" horiz-adv-x="899" 
d="M90 868h79v-735l555 735h85v-868h-79v742l-561 -741v-1h-79v868zM437 1217l144 -165h-74l-217 165h147z" />
    <glyph glyph-name="afii10110" unicode="&#x45e;" horiz-adv-x="779" 
d="M434 163l-229 -493h-89l229 491l-330 707h89l285 -606l286 606h89l-329 -705h-1zM589 1219q-15 -46 -52 -83q-60 -61 -146 -61q-88 0 -148 61q-38 39 -53 83h71q10 -20 27 -37q42 -43 103 -43q59 0 101 43q18 17 28 37h69z" />
    <glyph glyph-name="afii10193" unicode="&#x45f;" horiz-adv-x="917" 
d="M419 0h-329v868h79v-788h579v788h79v-868h-329v-331h-79v331z" />
    <glyph glyph-name="afii10050" unicode="&#x490;" horiz-adv-x="837" 
d="M731 1336v-2h-539v-1334h-80v1414h596v240h79v-318h-56z" />
    <glyph glyph-name="afii10098" unicode="&#x491;" horiz-adv-x="641" 
d="M179 788v-788h-79v868h412v239h79v-319h-412z" />
    <glyph glyph-name="uni1E02" unicode="&#x1e02;" horiz-adv-x="1033" 
d="M519 80q157 0 268 111.5t111 269.5t-111 270t-268 112h-327v-763h327zM192 1335v-412h360q87 9 130 52q61 61 61 149q0 87 -61.5 149t-148.5 62h-341zM703 887q78 -33 143 -99q135 -135 135 -327q0 -191 -135 -326q-113 -113 -275 -135h-459v1414h422q121 0 205.5 -85
t84.5 -205t-85 -205q-18 -19 -36 -32zM594 1667.5q20 -19.5 20 -47.5t-20 -47.5t-47 -19.5q-28 0 -48 19.5t-20 47.5t20 47.5t48 19.5q27 0 47 -19.5z" />
    <glyph glyph-name="uni1E03" unicode="&#x1e03;" horiz-adv-x="1131" 
d="M99 1414h80v-668q22 30 50 58q142 142 343 142t343 -142t142 -344q0 -200 -142 -342.5t-343 -142.5t-343 143q-28 28 -50 58v-176h-80v1414zM179 543v-166q22 -113 109 -199q118 -118 284 -118t283.5 117t117.5 283t-117.5 284t-283.5 118t-284 -118q-87 -87 -109 -201z
M693 1121.5q20 -19.5 20 -47.5t-20 -47.5t-47 -19.5q-28 0 -48 19.5t-20 47.5t20 47.5t48 19.5q27 0 47 -19.5z" />
    <glyph glyph-name="uni1E0A" unicode="&#x1e0a;" horiz-adv-x="1189" 
d="M374 1414q349 -2 541 -195q212 -213 212 -512q0 -301 -212 -513q-192 -192 -541 -194h-262v1414h262zM192 1331v-1249h181q305 0 481 170q188 188 188 455q0 266 -188 455q-176 169 -481 169h-181zM667 1667.5q20 -19.5 20 -47.5t-20 -47.5t-47 -19.5q-28 0 -48 19.5
t-20 47.5t20 47.5t48 19.5q27 0 47 -19.5z" />
    <glyph glyph-name="uni1E0B" unicode="&#x1e0b;" horiz-adv-x="1122" 
d="M1033 0h-80v177q-23 -31 -50 -59q-142 -143 -344 -143q-200 0 -342.5 142.5t-142.5 342.5q0 202 142.5 344t342.5 142q202 0 344 -142q27 -28 50 -59v669h80v-1414zM953 382v157q-22 117 -110 205q-118 118 -284 118t-283.5 -118t-117.5 -284t117.5 -283t283.5 -117
t284 118q88 88 110 204zM604 1174q0 -28 -20 -47.5t-47 -19.5q-28 0 -48 19.5t-20 47.5t20 47.5t48 19.5q27 0 47 -19.5t20 -47.5z" />
    <glyph glyph-name="uni1E1E" unicode="&#x1e1e;" horiz-adv-x="783" 
d="M731 1414v-80h-539v-587h539v-80h-539v-667h-80v1414h619zM469 1667.5q20 -19.5 20 -47.5t-20 -47.5t-47 -19.5q-28 0 -48 19.5t-20 47.5t20 47.5t48 19.5q27 0 47 -19.5z" />
    <glyph glyph-name="uni1E1F" unicode="&#x1e1f;" horiz-adv-x="383" 
d="M190 788v-788h-80v788h-88v80h88v235q6 98 75 169q73 67 167 67q50 0 105 -19l-25 -71q-37 16 -72 16q-62 0 -118 -50q-49 -49 -52 -118v-229h177v-80h-177zM287 1667.5q20 -19.5 20 -47.5t-20 -47.5t-47 -19.5q-28 0 -48 19.5t-20 47.5t20 47.5t48 19.5q27 0 47 -19.5z
" />
    <glyph glyph-name="uni1E40" unicode="&#x1e40;" horiz-adv-x="1442" 
d="M1349 1414v-1414h-80v1328l-547 -717l-548 717v-1328h-80v1414h116l512 -670l511 670h116zM769 1667.5q20 -19.5 20 -47.5t-20 -47.5t-47 -19.5q-28 0 -48 19.5t-20 47.5t20 47.5t48 19.5q27 0 47 -19.5z" />
    <glyph glyph-name="uni1E41" unicode="&#x1e41;" horiz-adv-x="1148" 
d="M99 868h80v-21q74 72 177 72q107 0 182 -75q20 -20 35 -44q16 23 37 44q75 75 182 75t182 -75q71 -73 75 -174v-670h-80v670h1q-3 69 -52 117q-53 52 -126 52q-74 0 -126.5 -52t-52.5 -130v-657h-79v670h1q-4 69 -53 117q-53 52 -126 52t-125 -52q-46 -45 -52 -110v-677
h-80v868zM622 1121.5q20 -19.5 20 -47.5t-20 -47.5t-47 -19.5q-28 0 -48 19.5t-20 47.5t20 47.5t48 19.5q27 0 47 -19.5z" />
    <glyph glyph-name="uni1E6A" unicode="&#x1e6a;" horiz-adv-x="859" 
d="M469 1334v-1334h-79v1334h-358v80h795v-80h-358zM477 1667.5q20 -19.5 20 -47.5t-20 -47.5t-47 -19.5q-28 0 -48 19.5t-20 47.5t20 47.5t48 19.5q27 0 47 -19.5z" />
    <glyph glyph-name="uni1E6B" unicode="&#x1e6b;" horiz-adv-x="497" 
d="M209 868v369h79v-369h177v-80h-177v-788h-79v788h-177v80h177zM296 1521.5q20 -19.5 20 -47.5t-20 -47.5t-47 -19.5q-28 0 -48 19.5t-20 47.5t20 47.5t48 19.5q27 0 47 -19.5z" />
    <glyph glyph-name="Wgrave" unicode="&#x1e80;" horiz-adv-x="1642" 
d="M824 1039l352 -910l345 1285h81l-380 -1414h-80l-341 894l-341 -894h-80l-380 1414h81l346 -1285l351 910h46zM754 1683l144 -165h-75l-216 165h147z" />
    <glyph glyph-name="wgrave" unicode="&#x1e81;" horiz-adv-x="1094" 
d="M1094 868l-295 -868h-50l-202 566l-202 -566h-51l-294 868h91l230 -713l204 565h45l204 -565l229 713h91zM500 1217l144 -165h-75l-216 165h147z" />
    <glyph glyph-name="Wacute" unicode="&#x1e82;" horiz-adv-x="1642" 
d="M824 1039l352 -910l345 1285h81l-380 -1414h-80l-341 894l-341 -894h-80l-380 1414h81l346 -1285l351 910h46zM995 1683l-217 -165h-74l144 165h147z" />
    <glyph glyph-name="wacute" unicode="&#x1e83;" horiz-adv-x="1094" 
d="M1094 868l-295 -868h-50l-202 566l-202 -566h-51l-294 868h91l230 -713l204 565h45l204 -565l229 713h91zM741 1217l-217 -165h-74l144 165h147z" />
    <glyph glyph-name="Wdieresis" unicode="&#x1e84;" horiz-adv-x="1642" 
d="M824 1039l352 -910l345 1285h81l-380 -1414h-80l-341 894l-341 -894h-80l-380 1414h81l346 -1285l351 910h46zM724.5 1658q23.5 -23 23.5 -55q0 -34 -23.5 -57t-55.5 -23q-33 0 -56.5 23t-23.5 57q0 32 23.5 55t56.5 23q32 0 55.5 -23zM989.5 1658q23.5 -23 23.5 -55
q0 -34 -23.5 -57t-55.5 -23q-33 0 -56.5 23t-23.5 57q0 32 23.5 55t56.5 23q32 0 55.5 -23z" />
    <glyph glyph-name="wdieresis" unicode="&#x1e85;" horiz-adv-x="1094" 
d="M1094 868l-295 -868h-50l-202 566l-202 -566h-51l-294 868h91l230 -713l204 565h45l204 -565l229 713h91zM470.5 1192q23.5 -23 23.5 -55q0 -34 -23.5 -57t-55.5 -23q-33 0 -56.5 23t-23.5 57q0 32 23.5 55t56.5 23q32 0 55.5 -23zM735.5 1192q23.5 -23 23.5 -55
q0 -34 -23.5 -57t-55.5 -23q-33 0 -56.5 23t-23.5 57q0 32 23.5 55t56.5 23q32 0 55.5 -23z" />
    <glyph glyph-name="Ygrave" unicode="&#x1ef2;" horiz-adv-x="1116" 
d="M518 572l-486 842h91l435 -754l435 754h91l-486 -842v-572h-80v572zM511 1683l144 -165h-75l-216 165h147z" />
    <glyph glyph-name="ygrave" unicode="&#x1ef3;" horiz-adv-x="779" 
d="M434 163l-229 -493h-89l229 491l-330 707h89l285 -606l286 606h89l-329 -705h-1zM343 1217l144 -165h-75l-216 165h147z" />
    <glyph glyph-name="endash" unicode="&#x2013;" horiz-adv-x="681" 
d="M0 563h681v-80h-681v80z" />
    <glyph glyph-name="emdash" unicode="&#x2014;" horiz-adv-x="1254" 
d="M0 563h1254v-80h-1254v80z" />
    <glyph glyph-name="afii00208" unicode="&#x2015;" horiz-adv-x="3072" 
d="M0 563h1881v-80h-1881v80z" />
    <glyph glyph-name="underscoredbl" unicode="&#x2017;" horiz-adv-x="794" 
d="M-45 -224h884v-79h-884v79zM-45 -27h884v-79h-884v79z" />
    <glyph glyph-name="quoteleft" unicode="&#x2018;" horiz-adv-x="255" 
d="M149 1282q20 -4 36 -20q23 -23 23 -57q0 -33 -23.5 -56t-55.5 -23q-33 0 -56.5 23t-23.5 56q0 19 6 35l87 174h57z" />
    <glyph glyph-name="quoteright" unicode="&#x2019;" horiz-adv-x="255" 
d="M107 1268q-20 4 -35 20q-24 23 -24 57q0 33 23.5 55.5t56.5 22.5q32 0 55.5 -22.5t23.5 -55.5q0 -19 -6 -35l-87 -175h-57z" />
    <glyph glyph-name="quotesinglbase" unicode="&#x201a;" horiz-adv-x="255" 
d="M107 -11q-20 4 -35 20q-24 23 -24 56t23.5 56t56.5 23q32 0 55.5 -23t23.5 -56q0 -18 -6 -34l-87 -175h-57z" />
    <glyph glyph-name="quotereversed" unicode="&#x201b;" horiz-adv-x="255" 
d="M148 1268q20 4 35 20q24 23 24 57q0 33 -23.5 55.5t-56.5 22.5q-32 0 -55.5 -22.5t-23.5 -55.5q0 -19 6 -35l87 -175h57z" />
    <glyph glyph-name="quotedblleft" unicode="&#x201c;" horiz-adv-x="478" 
d="M148 1282q20 -4 36 -20q23 -23 23 -57q0 -33 -23.5 -56t-55.5 -23q-33 0 -56.5 23t-23.5 56q0 19 6 35l87 174h57zM371 1282q20 -4 36 -20q23 -23 23 -57q0 -33 -23.5 -56t-55.5 -23q-33 0 -56.5 23t-23.5 56q0 19 6 35l87 174h57z" />
    <glyph glyph-name="quotedblright" unicode="&#x201d;" horiz-adv-x="478" 
d="M107 1268q-20 4 -35 20q-24 23 -24 57q0 33 23.5 55.5t56.5 22.5q32 0 55.5 -22.5t23.5 -55.5q0 -19 -6 -35l-87 -175h-57zM330 1268q-20 4 -35 20q-24 23 -24 57q0 33 23.5 55.5t56.5 22.5q32 0 55.5 -22.5t23.5 -55.5q0 -19 -6 -35l-87 -175h-57z" />
    <glyph glyph-name="quotedblbase" unicode="&#x201e;" horiz-adv-x="478" 
d="M107 -11q-20 4 -35 20q-24 23 -24 57q0 33 23.5 55.5t56.5 22.5q32 0 55.5 -22.5t23.5 -55.5q0 -19 -6 -35l-87 -175h-57zM330 -11q-20 4 -35 20q-24 23 -24 57q0 33 23.5 55.5t56.5 22.5q32 0 55.5 -22.5t23.5 -55.5q0 -19 -6 -35l-87 -175h-57z" />
    <glyph glyph-name="dagger" unicode="&#x2020;" horiz-adv-x="689" 
d="M317 1221v193h51v-193h221v-51h-221v-1206h-51v1206h-221v51h221z" />
    <glyph glyph-name="daggerdbl" unicode="&#x2021;" horiz-adv-x="689" 
d="M323 1170h-221v51h221v193h51v-193h221v-51h-221v-429h221v-51h-221v-726h-51v726h-221v51h221v429z" />
    <glyph glyph-name="bullet" unicode="&#x2022;" horiz-adv-x="670" 
d="M430 752q40 -39 40 -95t-40 -95t-94 -39q-56 0 -96 39t-40 95t40 95t96 39q54 0 94 -39z" />
    <glyph glyph-name="ellipsis" unicode="&#x2026;" horiz-adv-x="2048" 
d="M190.5 123q23.5 -23 23.5 -56t-23.5 -56t-55.5 -23q-33 0 -56.5 23t-23.5 56t23.5 56t56.5 23q32 0 55.5 -23zM873.5 123q23.5 -23 23.5 -56t-23.5 -56t-55.5 -23q-33 0 -56.5 23t-23.5 56t23.5 56t56.5 23q32 0 55.5 -23zM1556.5 123q23.5 -23 23.5 -56t-23.5 -56
t-55.5 -23q-33 0 -56.5 23t-23.5 56t23.5 56t56.5 23q32 0 55.5 -23z" />
    <glyph glyph-name="perthousand" unicode="&#x2030;" horiz-adv-x="1580" 
d="M985 1161l-811 -1158l-65 45l811 1158zM426.5 1014q59.5 -60 59.5 -145q0 -84 -59.5 -144t-144.5 -60t-144.5 60t-59.5 144q0 85 59.5 145t144.5 60t144.5 -60zM282 997q-53 0 -90 -37.5t-37 -90.5t37 -90t90 -37q52 0 89.5 37t37.5 90t-37.5 90.5t-89.5 37.5z
M956.5 483.5q59.5 -59.5 59.5 -144.5t-59.5 -144.5t-144.5 -59.5t-144.5 59.5t-59.5 144.5t59.5 144.5t144.5 59.5t144.5 -59.5zM812 467q-53 0 -90 -37.5t-37 -90.5t37 -90t90 -37q52 0 90 37t38 90t-38 90.5t-90 37.5zM1442.5 483.5q59.5 -59.5 59.5 -144.5t-59.5 -144.5
t-144.5 -59.5t-144.5 59.5t-59.5 144.5t59.5 144.5t144.5 59.5t144.5 -59.5zM1298 467q-53 0 -90 -37.5t-37 -90.5t37 -90t90 -37q52 0 89.5 37t37.5 90t-37.5 90.5t-89.5 37.5z" />
    <glyph glyph-name="minute" unicode="&#x2032;" horiz-adv-x="326" 
d="M123 884v530h80v-530h-80z" />
    <glyph glyph-name="second" unicode="&#x2033;" horiz-adv-x="486" 
d="M123 884v530h80v-530h-80zM283 884v530h80v-530h-80z" />
    <glyph glyph-name="guilsinglleft" unicode="&#x2039;" horiz-adv-x="596" 
d="M100 425l396 425v-113l-291 -312l291 -311v-114z" />
    <glyph glyph-name="guilsinglright" unicode="&#x203a;" horiz-adv-x="596" 
d="M100 0v114l290 311l-290 312v113l396 -425z" />
    <glyph glyph-name="exclamdbl" unicode="&#x203c;" horiz-adv-x="538" 
d="M190.5 123q23.5 -23 23.5 -56t-23.5 -56t-55.5 -23q-33 0 -56.5 23t-23.5 56t23.5 56t56.5 23q32 0 55.5 -23zM173 1414v-1170h-80v1170h80zM459.5 123q23.5 -23 23.5 -56t-23.5 -56t-55.5 -23q-33 0 -56.5 23t-23.5 56t23.5 56t56.5 23q32 0 55.5 -23zM442 1414v-1170
h-80v1170h80z" />
    <glyph glyph-name="uni203E" unicode="&#x203e;" horiz-adv-x="794" 
d="M-45 1613h884v-79h-884v79z" />
    <glyph glyph-name="fraction" unicode="&#x2044;" horiz-adv-x="167" 
d="M717 1414l-1015 -1414h-102l1013 1414h104z" />
    <glyph glyph-name="fraction" unicode="&#x2215;" horiz-adv-x="167" 
d="M717 1414l-1015 -1414h-102l1013 1414h104z" />
    <glyph glyph-name="uni2070" unicode="&#x2070;" horiz-adv-x="750" 
d="M598 1001q0 162 -67 249t-156 87t-156 -87t-67 -249q0 -164 67 -251t156 -87t156 87t67 251zM684 1001q0 -187 -88.5 -297.5t-219.5 -110.5t-220.5 110.5t-89.5 297.5q0 186 89.5 296.5t220.5 110.5t219.5 -110.5t88.5 -296.5z" />
    <glyph glyph-name="uni2074" unicode="&#x2074;" horiz-adv-x="750" 
d="M556 1503v-612h81v-67h-81v-201h-84v201h-359zM472 1233l-222 -342h222v342z" />
    <glyph glyph-name="uni2075" unicode="&#x2075;" horiz-adv-x="750" 
d="M218 1134q44 23 160 23q266 -28 286 -276q-2 -118 -85 -197t-245 -79q-156 9 -248 106l57 57q95 -81 219 -81q205 11 216 195q-5 161 -168 210q-47 9 -93 9q-71 0 -139 -22l-52 42l88 277h302v-68h-230z" />
    <glyph glyph-name="uni2076" unicode="&#x2076;" horiz-adv-x="750" 
d="M207 813q0 -66 50 -111t118 -45q67 0 117 45t50 111q0 67 -50 112.5t-117 45.5q-68 0 -118 -45.5t-50 -112.5zM375 1042q106 0 179.5 -67.5t73.5 -161.5q0 -92 -73.5 -160t-179.5 -68t-180 68t-74 160q5 128 79 265.5t207 319.5h101q-168 -195 -264 -405q65 49 131 49z
" />
    <glyph glyph-name="uni2077" unicode="&#x2077;" horiz-adv-x="750" 
d="M530 1113q-110 -144 -179 -276q-69 -133 -75 -241h-86q6 131 80 268q74 138 168 265q95 128 112 201h-443v68h536q-3 -141 -113 -285z" />
    <glyph glyph-name="uni2078" unicode="&#x2078;" horiz-adv-x="750" 
d="M375 665q97 0 151.5 49.5t54.5 124.5q0 73 -54 128q-53 52 -152 70q-100 -18 -153 -70q-54 -55 -54 -128q0 -75 54.5 -124.5t152.5 -49.5zM375 594q-136 0 -214.5 72.5t-78.5 172.5q0 98 76 173q53 53 123 63q-115 92 -115 165q0 71 57 124t152 53q94 0 151.5 -53
t57.5 -124q0 -73 -116 -166q70 -9 123 -62q76 -75 76 -173q0 -100 -78.5 -172.5t-213.5 -72.5zM375 1347q-55 0 -89 -30t-34 -77q0 -46 34 -79t89 -50q54 17 88 50t34 79q0 47 -33.5 77t-88.5 30z" />
    <glyph glyph-name="uni2079" unicode="&#x2079;" horiz-adv-x="750" 
d="M542 1190q0 67 -50 112t-118 45q-67 0 -117 -45t-50 -112t50 -112.5t117 -45.5q68 0 118 45.5t50 112.5zM374 961q-106 0 -179.5 67.5t-73.5 161.5q0 92 73.5 160t179.5 68t180 -68t74 -160q-5 -127 -79 -265t-207 -320h-101q178 195 267 399q-32 -42 -134 -43z" />
    <glyph glyph-name="uni207A" unicode="&#x207a;" horiz-adv-x="750" 
d="M333 964h-246v68h246v225h84v-225h246v-68h-246v-226h-84v226z" />
    <glyph glyph-name="uni207B" unicode="&#x207b;" horiz-adv-x="750" 
d="M97 967v68h576v-68h-576z" />
    <glyph glyph-name="uni207C" unicode="&#x207c;" horiz-adv-x="750" 
d="M87 1129h576v-68h-576v68zM89 973h572v-68h-572v68z" />
    <glyph glyph-name="uni207F" unicode="&#x207f;" horiz-adv-x="579" 
d="M138 1250v-416h-88v549h88v-10q44 41 146 41q108 0 175.5 -62.5t69.5 -154.5v-363h-88v358q0 61 -47 103.5t-110 42.5t-109 -41q-26 -24 -37 -47z" />
    <glyph glyph-name="uni2080" unicode="&#x2080;" horiz-adv-x="750" 
d="M598 296q0 163 -67 250t-156 87t-156 -87t-67 -250t67 -250t156 -87t156 87t67 250zM684 296q0 -187 -88.5 -297.5t-219.5 -110.5t-220.5 110.5t-89.5 297.5q0 186 89.5 297t220.5 111t219.5 -111t88.5 -297z" />
    <glyph glyph-name="uni2081" unicode="&#x2081;" horiz-adv-x="750" 
d="M335 -43v608l-70 -42l-62 41l216 144v-751h184v-68h-456v68h188z" />
    <glyph glyph-name="uni2082" unicode="&#x2082;" horiz-adv-x="750" 
d="M133 -111q395 461 395 598q-4 140 -142 141q-92 -5 -122 -61l-77 32q62 94 200 100q230 -5 230 -208q0 -158 -333 -534h333v-68h-484z" />
    <glyph glyph-name="uni2083" unicode="&#x2083;" horiz-adv-x="750" 
d="M343 332l-55 1v67q63 1 90.5 11t61.5 43t34 79q0 47 -33.5 77t-78.5 30t-78 -29q-19 -18 -35 -55l-77 28q15 44 47 73q59 53 143 53t141.5 -53t57.5 -124q0 -113 -129 -168q84 -7 137 -60q76 -75 76 -173q0 -100 -78.5 -172.5t-192.5 -72.5q-113 0 -193 74
q-62 57 -76 141l83 28q10 -80 57 -124q54 -48 129 -48q76 0 130.5 49.5t54.5 124.5q0 73 -54 127t-162 73z" />
    <glyph glyph-name="uni2084" unicode="&#x2084;" horiz-adv-x="750" 
d="M556 766v-612h81v-67h-81v-201h-84v201h-359zM472 496l-222 -342h222v342z" />
    <glyph glyph-name="uni2085" unicode="&#x2085;" horiz-adv-x="750" 
d="M218 418q44 23 160 23q266 -28 286 -276q-2 -118 -85 -197t-245 -79q-156 9 -248 106l57 57q95 -81 219 -81q205 11 216 195q-5 161 -168 210q-47 9 -93 9q-71 0 -139 -22l-52 42l88 277h302v-68h-230z" />
    <glyph glyph-name="uni2086" unicode="&#x2086;" horiz-adv-x="750" 
d="M207 116q0 -66 50 -111t118 -45q67 0 117 45t50 111q0 67 -50 112.5t-117 45.5q-68 0 -118 -45.5t-50 -112.5zM375 345q106 0 179.5 -67.5t73.5 -161.5q0 -92 -73.5 -160t-179.5 -68t-180 68t-74 160q5 128 79 265.5t207 319.5h101q-168 -195 -264 -405q65 49 131 49z
" />
    <glyph glyph-name="uni2087" unicode="&#x2087;" horiz-adv-x="750" 
d="M530 406q-110 -144 -179 -276.5t-75 -240.5h-86q6 131 80 268.5t168.5 265t111.5 200.5h-443v68h536q-3 -141 -113 -285z" />
    <glyph glyph-name="uni2088" unicode="&#x2088;" horiz-adv-x="750" 
d="M375 -42q97 0 151.5 49.5t54.5 124.5q0 73 -54 128q-53 52 -152 70q-100 -18 -153 -70q-54 -55 -54 -128q0 -75 54.5 -124.5t152.5 -49.5zM375 -113q-136 0 -214.5 72.5t-78.5 172.5q0 98 76 173q53 53 123 63q-115 92 -115 165q0 71 57 124t152 53q94 0 151.5 -53
t57.5 -124q0 -73 -116 -166q70 -9 123 -62q76 -75 76 -173q0 -100 -78.5 -172.5t-213.5 -72.5zM375 640q-55 0 -89 -30t-34 -77q0 -46 34 -79t89 -50q54 17 88 50t34 79q0 47 -33.5 77t-88.5 30z" />
    <glyph glyph-name="uni2089" unicode="&#x2089;" horiz-adv-x="750" 
d="M542 473q0 67 -50 112t-118 45q-67 0 -117 -45t-50 -112t50 -112.5t117 -45.5q68 0 118 45.5t50 112.5zM374 244q-106 0 -179.5 67.5t-73.5 161.5q0 92 73.5 160t179.5 68t180 -68t74 -160q-5 -127 -79 -265t-207 -320h-101q178 195 267 399q-32 -42 -134 -43z" />
    <glyph glyph-name="uni208A" unicode="&#x208a;" horiz-adv-x="750" 
d="M333 241h-246v68h246v225h84v-225h246v-68h-246v-226h-84v226z" />
    <glyph glyph-name="uni208B" unicode="&#x208b;" horiz-adv-x="750" 
d="M87 56v68h576v-68h-576z" />
    <glyph glyph-name="uni208C" unicode="&#x208c;" horiz-adv-x="750" 
d="M87 266h576v-68h-576v68zM89 110h572v-68h-572v68z" />
    <glyph glyph-name="franc" unicode="&#x20a3;" horiz-adv-x="892" 
d="M193 414v1000h619v-80h-539v-587h539v-80h-539v-253h254v-80h-254v-334h-80v334h-143v80h143z" />
    <glyph glyph-name="lira" unicode="&#x20a4;" horiz-adv-x="902" 
d="M168 1060v-6q0 -104 73 -228q75 -127 106 -256h174v-80h-159q5 -40 5 -90h154v-80h-166q-29 -114 -135 -240h612v-80h-719v78q129 126 163 242h-196v80h208v1q0 45 -7 89h-201v80h184q-23 84 -103 221q-78 131 -78 261v10q3 134 84 232q101 108 275 116q135 0 225 -75
l-32 -72q-67 65 -192 65h-9q-132 -3 -202 -87q-62 -75 -64 -181z" />
    <glyph glyph-name="peseta" unicode="&#x20a7;" horiz-adv-x="1614" 
d="M192 1333v-762h176q161 0 272 101.5t111 280.5q0 178 -111 279t-252 101h-196zM798 788q-30 -89 -97 -162q-122 -136 -343 -136h-166v-490h-72v1414h284q195 -22 297 -135q122 -136 122 -326q0 -45 -6 -85h74v369h80v-369h219q47 28 105 28q87 0 143 -57q55 -55 55 -126
v-4l-69 -28q-9 67 -42 101t-87 34q-53 0 -91 -38t-38 -91t38 -91q22 -23 94 -68q113 -61 161 -109q75 -76 75 -181q0 -108 -75 -183.5t-182 -75.5t-182 75.5t-75 165.5l78 20q0 -77 52.5 -129.5t126.5 -52.5q73 0 125.5 52.5t52.5 127.5q0 73 -52 125q-28 28 -114 83
q-102 55 -140 94q-61 61 -61 147q0 55 25 101h-142v-788h-80v788h-93z" />
    <glyph glyph-name="Euro" unicode="&#x20ac;" horiz-adv-x="1044" 
d="M951 1234q-115 99 -293 99q-216 -10 -318 -167q-89 -135 -112 -375h534l-16 -80h-522v-21q0 -52 4 -99h514l-16 -80h-488q37 -163 107 -270q107 -167 367 -172q190 6 307 105v-105q-130 -80 -312 -80q-290 0 -432 192q-97 132 -128 330h-157l20 80h128q-5 57 -5 120h-123
l20 80h105q15 275 131 435q132 182 396 187q192 0 294 -90z" />
    <glyph glyph-name="afii61248" unicode="&#x2105;" horiz-adv-x="1692" 
d="M680 872l83 -31q-155 -163 -312 -163q-156 0 -266 109.5t-110 262.5t110 262.5t266 109.5q157 0 312 -163l-83 -31q-111 115 -229 115t-203 -85t-85 -208q0 -122 85 -207t203 -85t229 114zM1242 718q157 0 266 -109.5t109 -263.5q0 -152 -109 -262t-266 -110t-266.5 110
t-109.5 262q0 154 109.5 263.5t266.5 109.5zM1038 553q-85 -86 -85 -208t85 -207t204 -85q118 0 203 85t85 207t-85 208t-203 86q-119 0 -204 -86zM1420 1414l-1015 -1414h-102l1013 1414h104z" />
    <glyph glyph-name="afii61352" unicode="&#x2116;" horiz-adv-x="1553" 
d="M776 283v1131h80v-1422l-676 1134v-1126h-80v1416zM1240 1013q103 0 175.5 -72.5t72.5 -176.5q0 -102 -72.5 -175t-175.5 -73q-102 0 -175 73t-73 175q0 104 73 176.5t175 72.5zM1109 895.5q-54 -54.5 -54 -131.5q0 -76 54 -130.5t131 -54.5t131 54.5t54 130.5
q0 77 -54 131.5t-131 54.5t-131 -54.5zM1468 412v-78h-456v78h456z" />
    <glyph glyph-name="trademark" unicode="&#x2122;" horiz-adv-x="1255" 
d="M561 1344h-216v-534h-74v534h-221v70h579l229 -352l228 352h69v-604h-74v462l-223 -343l-224 344v-463h-73v534z" />
    <glyph glyph-name="Omega" unicode="&#x2126;" horiz-adv-x="1406" 
d="M710 1434q283 0 454.5 -200t171.5 -539q0 -250 -136.5 -419t-246.5 -196h292v-80h-480v80q194 45 342 201.5t148 413.5q0 306 -149.5 488.5t-400.5 182.5h-4q-251 0 -400.5 -182.5t-149.5 -488.5q0 -257 148 -413.5t342 -201.5v-80h-480v80h292q-110 27 -246.5 196
t-136.5 419q0 339 171.5 539t454.5 200h14z" />
    <glyph glyph-name="estimated" unicode="&#x212e;" horiz-adv-x="1575" 
d="M1104 1045q-127 115 -300 115q-185 0 -316 -129v-294h616v308zM693 681l-1 1l-7 -1h-348q10 -169 132 -291q132 -133 319 -133q186 0 319 133q24 23 43 49l51 -27q-24 -33 -54 -62q-149 -149 -359 -149t-359 148.5t-149 359.5q0 210 149 358.5t359 148.5t359 -148.5
t149 -358.5q0 -14 -1 -28h-602z" />
    <glyph glyph-name="oneeighth" unicode="&#x215b;" horiz-adv-x="1667" 
d="M335 637v608l-70 -42l-62 41l216 144v-751h184v-68h-456v68h188zM1467 1414l-1015 -1414h-102l1013 1414h104zM1292 41q97 0 151.5 49.5t54.5 124.5q0 73 -54 128q-53 52 -152 70q-100 -18 -153 -70q-54 -55 -54 -128q0 -75 54.5 -124.5t152.5 -49.5zM1292 -30
q-136 0 -214.5 72.5t-78.5 172.5q0 98 76 173q53 53 123 63q-115 92 -115 165q0 71 57 124t152 53q94 0 151.5 -53t57.5 -124q0 -73 -116 -166q70 -9 123 -62q76 -75 76 -173q0 -100 -78.5 -172.5t-213.5 -72.5zM1292 723q-55 0 -89 -30t-34 -77q0 -46 34 -79t89 -50
q54 17 88 50t34 79q0 47 -33.5 77t-88.5 30z" />
    <glyph glyph-name="threeeighths" unicode="&#x215c;" horiz-adv-x="1667" 
d="M343 1033h-55v67q63 1 90.5 11t61.5 43t34 79q0 47 -33.5 77t-78.5 30t-78 -29q-19 -18 -35 -55l-77 28q15 44 47 73q59 53 143 53t141.5 -53t57.5 -124q0 -113 -129 -168q84 -7 137 -60q76 -75 76 -173q0 -100 -78.5 -172.5t-192.5 -72.5q-113 0 -193 74q-62 57 -76 141
l83 28q10 -80 57 -124q54 -48 129 -48q76 0 130.5 49.5t54.5 124.5q0 73 -54 127t-162 74zM1467 1414l-1015 -1414h-102l1013 1414h104zM1292 41q97 0 151.5 49.5t54.5 124.5q0 73 -54 128q-53 52 -152 70q-100 -18 -153 -70q-54 -55 -54 -128q0 -75 54.5 -124.5
t152.5 -49.5zM1292 -30q-136 0 -214.5 72.5t-78.5 172.5q0 98 76 173q53 53 123 63q-115 92 -115 165q0 71 57 124t152 53q94 0 151.5 -53t57.5 -124q0 -73 -116 -166q70 -9 123 -62q76 -75 76 -173q0 -100 -78.5 -172.5t-213.5 -72.5zM1292 723q-55 0 -89 -30t-34 -77
q0 -46 34 -79t89 -50q54 17 88 50t34 79q0 47 -33.5 77t-88.5 30z" />
    <glyph glyph-name="fiveeighths" unicode="&#x215d;" horiz-adv-x="1667" 
d="M218 1134q44 23 160 23q266 -28 286 -276q-2 -118 -85 -197t-245 -79q-156 9 -248 106l57 57q95 -81 219 -81q205 11 216 195q-5 161 -168 210q-47 9 -93 9q-71 0 -139 -22l-52 42l88 277h302v-68h-230zM1467 1414l-1015 -1414h-102l1013 1414h104zM1292 41
q97 0 151.5 49.5t54.5 124.5q0 73 -54 128q-53 52 -152 70q-100 -18 -153 -70q-54 -55 -54 -128q0 -75 54.5 -124.5t152.5 -49.5zM1292 -30q-136 0 -214.5 72.5t-78.5 172.5q0 98 76 173q53 53 123 63q-115 92 -115 165q0 71 57 124t152 53q94 0 151.5 -53t57.5 -124
q0 -73 -116 -166q70 -9 123 -62q76 -75 76 -173q0 -100 -78.5 -172.5t-213.5 -72.5zM1292 723q-55 0 -89 -30t-34 -77q0 -46 34 -79t89 -50q54 17 88 50t34 79q0 47 -33.5 77t-88.5 30z" />
    <glyph glyph-name="seveneighths" unicode="&#x215e;" horiz-adv-x="1667" 
d="M530 1113q-110 -144 -179 -276q-69 -133 -75 -241h-86q6 131 80 268q74 138 168 265q95 128 112 201h-443v68h536q-3 -141 -113 -285zM1467 1414l-1015 -1414h-102l1013 1414h104zM1292 41q97 0 151.5 49.5t54.5 124.5q0 73 -54 128q-53 52 -152 70q-100 -18 -153 -70
q-54 -55 -54 -128q0 -75 54.5 -124.5t152.5 -49.5zM1292 -30q-136 0 -214.5 72.5t-78.5 172.5q0 98 76 173q53 53 123 63q-115 92 -115 165q0 71 57 124t152 53q94 0 151.5 -53t57.5 -124q0 -73 -116 -166q70 -9 123 -62q76 -75 76 -173q0 -100 -78.5 -172.5t-213.5 -72.5z
M1292 723q-55 0 -89 -30t-34 -77q0 -46 34 -79t89 -50q54 17 88 50t34 79q0 47 -33.5 77t-88.5 30z" />
    <glyph glyph-name="arrowleft" unicode="&#x2190;" horiz-adv-x="1599" 
d="M251 851v-112h1247v-80h-1247v-113l-151 153z" />
    <glyph glyph-name="arrowup" unicode="&#x2191;" horiz-adv-x="905" 
d="M605 1250h-113v-1247h-80v1247h-112l152 151z" />
    <glyph glyph-name="arrowright" unicode="&#x2192;" horiz-adv-x="1599" 
d="M1498 699l-151 -153v113h-1247v80h1247v112z" />
    <glyph glyph-name="arrowdown" unicode="&#x2193;" horiz-adv-x="905" 
d="M452 3l-152 151h112v1247h80v-1247h113z" />
    <glyph glyph-name="arrowboth" unicode="&#x2194;" horiz-adv-x="1599" 
d="M1347 739v112l151 -152l-151 -153v113h-1096v-113l-151 153l151 152v-112h1096z" />
    <glyph glyph-name="arrowupdn" unicode="&#x2195;" horiz-adv-x="1599" 
d="M840 154h112l-152 -151l-153 151h113v1096h-113l153 151l152 -151h-112v-1096z" />
    <glyph glyph-name="arrowupdnbse" unicode="&#x21a8;" horiz-adv-x="1599" 
d="M841 154h112l-152 -151l-153 151h113v1096h-113l153 151l152 -151h-112v-1096zM648 1487h305v-80h-305v80zM648 0h305v-80h-305v80z" />
    <glyph glyph-name="partialdiff" unicode="&#x2202;" horiz-adv-x="875" 
d="M740 677q-483 -61 -602 -361q-12 -46 -12 -83q0 -156 213 -158q286 30 401 602zM742 750q7 86 7 159q0 387 -188 422q-37 6 -72 6q-174 0 -289 -167l-37 74q130 157 318 157q62 0 131 -17q213 -54 213 -452q0 -118 -19 -266q-102 -648 -470 -657q-286 0 -286 219
q0 44 12 98q113 354 680 424z" />
    <glyph glyph-name="Delta" unicode="&#x2206;" horiz-adv-x="1103" 
d="M30 1h-60l515 1413h97l521 -1414h-1073v1zM989 80l-456 1234l-450 -1234h906z" />
    <glyph glyph-name="product" unicode="&#x220f;" horiz-adv-x="1172" 
d="M174 1334v-1664h-80v1744h984v-1744h-80v1664h-824z" />
    <glyph glyph-name="summation" unicode="&#x2211;" horiz-adv-x="1047" 
d="M957 1414v-80h-787l370 -792l-370 -792h787v-80h-907l400 872l-400 872h907z" />
    <glyph glyph-name="minus" unicode="&#x2212;" horiz-adv-x="1070" 
d="M85 633v80h900v-80h-900z" />
    <glyph glyph-name="radical" unicode="&#x221a;" horiz-adv-x="1356" 
d="M766 260l505 1278h85l-621 -1608l-559 705l-86 -39l-40 50l262 148z" />
    <glyph glyph-name="infinity" unicode="&#x221e;" horiz-adv-x="1070" 
d="M934 720q0 86 -60.5 147t-147.5 61q-86 0 -151 -59q-63 -58 -86 -172q23 -114 86 -172q65 -59 151 -59q87 0 147.5 61t60.5 193zM917.5 483q-79.5 -79 -191.5 -79t-195 77q-58 54 -80 123q-11 -26 -57.5 -69t-127.5 -43q-80 0 -137 56.5t-57 158.5q0 82 57 139t137 57
q81 0 127.5 -43.5t57.5 -69.5q22 69 80 123q83 77 195 77t191.5 -79t79.5 -191q0 -158 -79.5 -237zM134 698q0 -65 38.5 -104t93.5 -39t95 37.5t61 104.5q-21 67 -61 104.5t-95 37.5t-93.5 -38.5t-38.5 -102.5z" />
    <glyph glyph-name="orthogonal" unicode="&#x221f;" horiz-adv-x="1658" 
d="M122 1414h80v-1334h1334v-80h-1414v1414z" />
    <glyph glyph-name="intersection" unicode="&#x2229;" horiz-adv-x="1147" 
d="M955 953q0 157 -111.5 269t-269.5 112t-270 -112t-112 -269v-965h-80v965q0 191 135 326t327 135q191 0 326 -135q113 -113 135 -275v-1016h-80v965z" />
    <glyph glyph-name="integral" unicode="&#x222b;" horiz-adv-x="497" 
d="M288 -70q-10 -251 -256 -251v74q167 0 177 175v1338q20 251 257 251l1 -64q-160 -5 -179 -185v-1338z" />
    <glyph glyph-name="approxequal" unicode="&#x2248;" horiz-adv-x="1070" 
d="M534 866q166 -97 242 -97q13 0 23 3q68 20 96 88q13 34 13 69l80 -13q-3 -42 -20 -86q-41 -98 -138 -130q-22 -7 -49 -7q-93 0 -246 87q-168 96 -242 96q-12 0 -23 -2q-68 -21 -95 -89q-14 -34 -14 -68l-80 13q2 42 19 85q41 98 139 131q22 7 49 7q93 0 246 -87zM534 571
q166 -97 242 -97q13 0 23 3q68 20 96 88q13 34 13 69l80 -13q-3 -42 -20 -86q-41 -98 -138 -130q-22 -7 -49 -7q-93 0 -246 87q-168 96 -242 96q-12 0 -23 -2q-68 -21 -95 -89q-14 -34 -14 -68l-80 13q2 42 19 85q41 98 139 131q22 7 49 7q93 0 246 -87z" />
    <glyph glyph-name="notequal" unicode="&#x2260;" horiz-adv-x="1070" 
d="M582 775h-497v80h569l156 172h91l-156 -172h240v-80h-312l-185 -203h493v-80h-565l-156 -172h-90l156 172h-237v80h309z" />
    <glyph glyph-name="equivalence" unicode="&#x2261;" horiz-adv-x="1070" 
d="M85 633v80h900v-80h-900zM85 933v80h900v-80h-900zM85 333v80h900v-80h-900z" />
    <glyph glyph-name="lessequal" unicode="&#x2264;" horiz-adv-x="1070" 
d="M258 772l723 -334v-92l-892 426l892 426v-92zM85 0v80h900v-80h-900z" />
    <glyph glyph-name="greaterequal" unicode="&#x2265;" horiz-adv-x="1070" 
d="M89 1106v92l892 -426l-892 -426v92l723 334zM85 0v80h900v-80h-900z" />
    <glyph glyph-name="house" unicode="&#x2302;" horiz-adv-x="1137" 
d="M1037 0h-937v898l459 401l478 -401v-898zM179 853v-773h779v770l-399 340z" />
    <glyph glyph-name="revlogicalnot" unicode="&#x2310;" horiz-adv-x="1070" 
d="M135 705h800v-80h-720v-339h-80v419z" />
    <glyph glyph-name="integraltp" unicode="&#x2320;" horiz-adv-x="558" 
d="M279 -320h-79v1586q20 251 257 251l1 -64q-160 -5 -179 -185v-1588z" />
    <glyph glyph-name="integralbt" unicode="&#x2321;" horiz-adv-x="558" 
d="M279 1517h79v-1586q-20 -251 -258 -251v64q160 5 179 185v1588z" />
    <glyph glyph-name="triagup" unicode="&#x25b2;" horiz-adv-x="1836" 
d="M435 268l483 965l483 -965h-966z" />
    <glyph glyph-name="triagrt" unicode="&#x25ba;" horiz-adv-x="1836" 
d="M436 1233l964 -482l-964 -483v965z" />
    <glyph glyph-name="triagdn" unicode="&#x25bc;" horiz-adv-x="1836" 
d="M1401 1233l-483 -965l-483 965h966z" />
    <glyph glyph-name="triaglf" unicode="&#x25c4;" horiz-adv-x="1836" 
d="M1400 268l-964 482l964 483v-965z" />
    <glyph glyph-name="lozenge" unicode="&#x25ca;" horiz-adv-x="1836" 
d="M1371 709l-452 -708l-454 709l454 708zM919 1249l-346 -540l346 -539l344 540z" />
    <glyph glyph-name="circle" unicode="&#x25cb;" horiz-adv-x="1836" 
d="M1390 756q0 -195 -138.5 -333.5t-333.5 -138.5q-196 0 -334 138.5t-138 333.5q0 196 138 334t334 138q195 0 333.5 -138t138.5 -334zM918 1135q-157 0 -267 -111t-110 -268q0 -156 110 -266t267 -110q156 0 267 110t111 266q0 157 -111 268t-267 111z" />
    <glyph glyph-name="H18533" unicode="&#x25cf;" horiz-adv-x="1836" 
d="M1390 756q0 -195 -138.5 -333.5t-333.5 -138.5q-196 0 -334 138.5t-138 333.5q0 196 138 334t334 138q195 0 333.5 -138t138.5 -334z" />
    <glyph glyph-name="invbullet" unicode="&#x25d8;" horiz-adv-x="1836" 
d="M1429 1247v-972h-1023v972h1023zM917 1019q-106 0 -181.5 -75.5t-75.5 -182.5t75.5 -182.5t181.5 -75.5q107 0 182.5 75.5t75.5 182.5t-75.5 182.5t-182.5 75.5z" />
    <glyph glyph-name="invcircle" unicode="&#x25d9;" horiz-adv-x="1836" 
d="M1429 1247v-972h-1023v972h1023zM917 1197q-180 0 -307.5 -127.5t-127.5 -308.5q0 -180 127.5 -308t307.5 -128q181 0 308.5 128t127.5 308q0 181 -127.5 308.5t-308.5 127.5zM1256 761q0 -140 -99 -239t-240 -99t-239 99t-98 239t98 239t239 99t240 -99t99 -239z" />
    <glyph glyph-name="openbullet" unicode="&#x25e6;" horiz-adv-x="1836" 
d="M1227 761q0 -128 -90.5 -218.5t-219.5 -90.5q-128 0 -218.5 90.5t-90.5 218.5t90.5 219t218.5 91q129 0 219.5 -91t90.5 -219zM917 980q-90 0 -154 -64t-64 -155q0 -90 64 -154t154 -64q91 0 155 64t64 154q0 91 -64 155t-155 64z" />
    <glyph glyph-name="smileface" unicode="&#x263a;" horiz-adv-x="1836" 
d="M1041 778v222h70v-222h-70zM881 383q-344 0 -361 344h34q7 -220 327 -220t344 220h33q-33 -344 -377 -344zM670 778v222h70v-222h-70zM1317 1236q372 -35 408 -295q0 -145 -161 -281q150 -120 150 -233t-110.5 -185.5t-264.5 -84.5q-12 -59 -63 -104q-72 -62 -172 -62
q-96 0 -198 92q-151 -135 -316 -135q-164 0 -280.5 102t-116.5 247q0 107 65 194q-42 13 -75 44q-72 62 -72 148q0 87 72 149q48 42 109 55q-75 102 -75 231q0 181 146 309t352 128q185 0 341 -114q40 20 68 20q78 0 133.5 -56t59.5 -169zM705 1494q-170 0 -290 -104
t-120 -252q0 -202 84 -266q-74 -9 -144.5 -64t-70.5 -133t72 -132q65 -53 117 -55q-81 -49 -81 -214q0 -110 89 -186.5t214 -76.5q272 0 356 146q4 -111 184 -111q139 0 193 176q290 5 345 188q0 174 -171 239q168 99 168 301q-21 221 -412 242q2 25 4 51q-4 59 -45 100
q-37 36 -89 42q-12 1 -24 1q-37 0 -66 -14q-107 122 -313 122z" />
    <glyph glyph-name="invsmileface" unicode="&#x263b;" horiz-adv-x="1836" 
d="M1111 778v222h-70v-222h70zM1258 727h-33q-24 -220 -344 -220t-327 220h-34q17 -344 361 -344t377 344zM740 778v222h-70v-222h70zM1317 1236q372 -35 408 -295q0 -145 -161 -281q150 -120 150 -233t-110.5 -185.5t-264.5 -84.5q-12 -59 -63 -104q-72 -62 -172 -62
q-96 0 -198 92q-151 -135 -316 -135q-164 0 -280.5 102t-116.5 247q0 107 65 194q-42 13 -75 44q-72 62 -72 148q0 87 72 149q48 42 109 55q-75 102 -75 231q0 181 146 309t352 128q185 0 341 -114q40 20 68 20q78 0 133.5 -56t59.5 -169z" />
    <glyph glyph-name="sun" unicode="&#x263c;" horiz-adv-x="1836" 
d="M918 1129q-199 0 -340.5 -141.5t-141.5 -341.5t141.5 -341.5t340.5 -141.5q200 0 341.5 141.5t141.5 341.5t-141.5 341.5t-341.5 141.5zM1341 280l150 -150l-56 -57l-151 151q-140 -123 -326 -135v-213h-80v213q-185 12 -325 135l-151 -151l-56 57l151 151
q-124 139 -136 325h-213v80h213q12 185 135 326l-150 150l56 57l151 -151q139 123 325 135v213h80v-213q186 -12 327 -134l150 150l56 -57l-150 -150q123 -140 135 -326h212v-80h-212q-12 -186 -135 -326z" />
    <glyph glyph-name="female" unicode="&#x2640;" horiz-adv-x="1836" 
d="M918 1271q-132 0 -225.5 -93.5t-93.5 -225.5t93.5 -225.5t225.5 -93.5t225.5 93.5t93.5 225.5t-93.5 225.5t-225.5 93.5zM878 563q-136 12 -236 113q-115 114 -115 276t114.5 276.5t276.5 114.5t276.5 -114.5t114.5 -276.5t-114 -276q-101 -101 -237 -113v-180h310v-80
h-310v-303h-80v303h-310v80h310v180z" />
    <glyph glyph-name="male" unicode="&#x2642;" horiz-adv-x="1836" 
d="M755 700q-132 0 -225.5 -93.5t-93.5 -225.5t93.5 -225.5t225.5 -93.5t225.5 93.5t93.5 225.5t-93.5 225.5t-225.5 93.5zM1066 619q80 -102 80 -238q0 -162 -114 -276q-101 -101 -277 -107q-176 6 -276 107q-115 114 -115 276t114.5 276.5t276.5 114.5q148 0 256 -95
l310 310l-229 12l-81 81l439 -20l21 -440l-80 80l-14 230z" />
    <glyph glyph-name="spade" unicode="&#x2660;" horiz-adv-x="1836" 
d="M908 649q-19 -47 -57 -86q-77 -80 -186 -80t-186 80.5t-77 194.5q0 184 229 300t291 259q53 -143 282 -259t229 -300q0 -114 -77.5 -194.5t-186.5 -80.5t-185 80q-36 38 -56 82v-24q21 -272 344 -301h-708q322 29 344 301v28z" />
    <glyph glyph-name="club" unicode="&#x2663;" horiz-adv-x="1836" 
d="M928 643v-22q22 -272 344 -301h-708q323 29 344 301v22q-28 -61 -120 -103q-68 -31 -141 -31q-52 0 -108 16q-133 38 -158 181q-5 26 -5 49q0 106 92 167q48 31 113 31q86 0 201 -56q-91 46 -126 171q-10 37 -10 71q0 79 58 137q83 83 201 83q117 0 200 -83
q61 -61 61 -145q0 -30 -8 -63q-30 -125 -136 -174q134 60 229 60q68 0 116 -31q93 -61 93 -168q0 -24 -5 -49q-25 -143 -158 -181q-56 -16 -108 -16q-73 0 -140 31q-93 42 -121 103z" />
    <glyph glyph-name="heart" unicode="&#x2665;" horiz-adv-x="1836" 
d="M402 942q0 114 77 194.5t186 80.5t186 -81q48 -50 66 -112q19 62 66 112q77 81 186 81t186.5 -80.5t77.5 -194.5q0 -184 -229.5 -350.5t-282.5 -308.5q-61 142 -290 308.5t-229 350.5z" />
    <glyph glyph-name="diamond" unicode="&#x2666;" horiz-adv-x="1836" 
d="M1367 850h1v-1h-1q-314 -290 -448 -580q-135 290 -450 580h-1v1h1q315 290 450 580q134 -290 448 -580z" />
    <glyph glyph-name="musicalnote" unicode="&#x266a;" horiz-adv-x="1836" 
d="M862 1248q90 -50 179 -50t178 50l-79 -90q-49 -35 -99 -35t-100 35v-740q1 -7 1 -15q0 -52 -47.5 -88.5t-115.5 -36.5q-67 0 -115 36.5t-48 88.5t48 88t115 36q46 0 83 -17v738z" />
    <glyph glyph-name="musicalnotedbl" unicode="&#x266b;" horiz-adv-x="1836" 
d="M672 1248l737 130v-863q0 -65 -46 -100q-48 -37 -116 -37q-67 0 -115 36.5t-48 88.5t48 88t115 36q46 0 83 -17v678l-579 -100v-773q0 -65 -46 -100q-48 -37 -116 -37q-67 0 -115 36.5t-48 88.5t48 88t115 36q46 0 83 -17v738z" />
    <glyph glyph-name="uni3000" unicode="&#x3000;" 
 />
    <glyph glyph-name="uni3001" unicode="&#x3001;" 
d="M1044 -230l-82 -27q-80 198 -207 344l73 35q131 -151 216 -352z" />
    <glyph glyph-name="uni3002" unicode="&#x3002;" 
d="M1004 223.5q43 -43.5 43 -103.5q0 -61 -43 -104t-104 -43t-104 43t-43 104q0 60 43 103.5t104 43.5t104 -43.5zM900 202q-34 0 -58 -24t-24 -58t24 -58.5t58 -24.5t58 24.5t24 58.5t-24 58t-58 24z" />
    <glyph glyph-name="uni3003" unicode="&#x3003;" 
d="M613 790l-67 43l340 499l67 -43zM913 790l-67 43l340 499l67 -43z" />
    <glyph glyph-name="uni3005" unicode="&#x3005;" 
d="M692 1071q-65 -172 -256 -507l-64 33q258 450 276 602l76 -19q-2 -13 -6 -28h710q-16 -39 -36 -81h1q-60 -124 -149 -244q-123 -166 -273 -270q188 -157 294 -359l-46 -72q-122 244 -334 409q-51 39 -100 72l46 55q38 -26 77 -55q165 108 286 274q66 92 116 190h-618z
" />
    <glyph glyph-name="uni3006" unicode="&#x3006;" 
d="M1029 650q-19 -29 -40 -58q-262 -354 -546 -465l-13 86q263 96 510 436l32 46q-177 133 -340 192l15 75q179 -68 363 -205q177 297 180 649l72 -55q-10 -338 -193 -640q193 -160 301 -366l-46 -73q-110 222 -295 378z" />
    <glyph glyph-name="uni3041" unicode="&#x3041;" 
d="M853 625l-1 106l74 5l2 -105h24q134 0 223 -49q113 -64 141 -195q9 -47 9 -91q0 -79 -30 -151q-49 -114 -160 -142l-23 65q84 20 121 110q23 57 23 118q0 36 -8 75q-23 98 -108 150q-66 40 -165 40q-26 0 -47 -2q-7 -296 -95 -438q23 -41 50 -79l-57 -51q-28 42 -41 66
q-55 -63 -131 -63q-20 0 -42 6q-119 30 -134 201q-2 21 -2 41q0 143 90 245q28 32 60 55q-8 72 -8 146q0 60 5 117q-41 0 -102 1v68q65 -1 109 -1q13 104 43 225l67 -26q-27 -104 -40 -199q252 4 393 42l-4 -69q-137 -37 -396 -40q-6 -63 -6 -125q0 -55 4 -100q65 34 162 44
zM745 131q-79 160 -106 323q-89 -104 -89 -229l1 -1q0 -125 81 -145q12 -4 23 -4q47 0 90 56zM701 502q24 -165 88 -298q54 105 61 344q-86 -9 -149 -46z" />
    <glyph glyph-name="uni3042" unicode="&#x3042;" 
d="M848 805l-2 137l78 5l3 -136q21 1 42 1q175 0 290 -62q148 -82 184 -251q12 -61 12 -119q0 -103 -40 -196q-64 -145 -194 -178l-27 77q110 25 160 145q31 74 31 152q0 47 -11 97q-31 129 -146 197q-92 54 -229 54q-35 0 -72 -3q-10 -388 -127 -572q31 -52 66 -102
l-63 -55q-29 43 -55 88q-82 -92 -176 -92q-25 0 -52 7q-153 38 -172 258q-3 27 -3 54q0 185 120 318q36 40 80 71q-11 93 -11 190q0 77 7 156q-65 0 -136 1v80q76 -1 145 -1q18 140 56 288l70 -27q-36 -134 -54 -261q350 5 524 51l-5 -80q-175 -47 -528 -51q-8 -85 -8 -166
q0 -71 6 -140q102 51 237 65zM704 166q-106 208 -145 436q-17 -15 -32 -32q-105 -121 -105 -283q0 -1 1 -1q0 -163 115 -191q18 -5 35 -5q70 0 131 76zM623 648q33 -214 129 -407q82 157 92 472q-131 -13 -221 -65z" />
    <glyph glyph-name="uni3043" unicode="&#x3043;" 
d="M1291 269q-52 440 -189 623l45 63q160 -229 212 -663zM692 118q57 97 86 225l70 -14q-35 -149 -151 -344q-256 371 -256 741q0 91 16 187l70 -15q-15 -89 -15 -177q0 -311 180 -603z" />
    <glyph glyph-name="uni3044" unicode="&#x3044;" 
d="M1431 354q-68 562 -251 801l50 67q202 -283 271 -845zM623 133q87 143 124 303l73 -15q-47 -192 -191 -429q-330 466 -330 947q0 118 20 236l73 -15q-20 -114 -20 -227q0 -404 251 -800z" />
    <glyph glyph-name="uni3045" unicode="&#x3045;" 
d="M1233 694q19 -64 19 -127q0 -125 -75 -249q-114 -190 -461 -339l-32 65q331 155 429 314q66 106 66 209q0 52 -17 104q-50 148 -212 149h-1q-165 0 -367 -151l-33 63q208 158 409 158h9q208 -4 266 -196zM1034 990l-359 75l13 67l359 -75z" />
    <glyph glyph-name="uni3046" unicode="&#x3046;" 
d="M1333 898q25 -83 25 -165q0 -163 -100 -325q-151 -244 -598 -431l-38 76q440 200 572 408q88 138 88 271q0 68 -23 135q-67 197 -293 198h-1q-226 0 -485 -189l-38 70q272 202 535 202h12q268 -5 344 -250zM1069 1288l-459 93l16 79l459 -93z" />
    <glyph glyph-name="uni3047" unicode="&#x3047;" 
d="M1117 990l-360 75l14 67l359 -75zM837 343q69 -6 175 -176q63 -102 149 -102q51 0 112 35q8 5 26 18l36 -59q-16 -11 -30 -20q-85 -42 -154 -42q-122 0 -196 123q-92 154 -161 154q-13 0 -25 -5l-254 -280l-51 51l732 807l-559 -37l-5 68l697 47l-7 -50z" />
    <glyph glyph-name="uni3048" unicode="&#x3048;" 
d="M1180 1288l-459 93l16 79l459 -93zM803 439q97 -8 236 -226q87 -137 209 -137q73 0 157 48q11 7 23 15l42 -66q-20 -13 -38 -24q-109 -53 -198 -53q-154 0 -250 156q-126 204 -226 204q-21 0 -41 -9l-331 -355l-57 56l981 1053l-750 -48l-6 80l907 60l-9 -61z" />
    <glyph glyph-name="uni3049" unicode="&#x3049;" 
d="M1436 690l-44 -55l-350 315l45 55zM680 390v-390h-60l-14 10l-187 123l-55 37l44 44q109 110 196 198v410q-44 -1 -101 -1q-43 0 -96 1v67q54 -1 96 -1q57 0 101 2v205h76v-201q123 9 224 36l-4 -68q-95 -26 -220 -35v-338l15 16q136 138 343 139h1q206 0 284 -138
q47 -85 47 -176q0 -53 -16 -108q-44 -151 -193 -221l-22 66q120 58 153 188q11 42 11 81q0 83 -48 154q-62 88 -191 88h-33q-156 -13 -273 -116q-35 -31 -78 -72zM604 95v219q-50 -49 -129 -134z" />
    <glyph glyph-name="uni304A" unicode="&#x304a;" 
d="M1604 892l-51 -61l-454 399l51 61zM595 502v-502h-64l-16 11l-249 160l-71 46q30 29 58 57q145 142 262 258v536q-69 -2 -145 -2q-57 0 -118 1v80q61 -1 118 -1q76 0 145 2v266h80v-261q177 12 298 44l-5 -80q-119 -32 -293 -44v-462q21 20 41 40q178 176 447 177h1
q267 0 368 -174q63 -111 63 -229q0 -69 -21 -141q-59 -195 -239 -278l-27 77q160 75 205 245q14 54 14 104q0 108 -64 200q-86 119 -265 119q-22 0 -45 -1q-214 -17 -373 -153q-47 -40 -105 -95zM515 105v320q-87 -85 -193 -195z" />
    <glyph glyph-name="uni304B" unicode="&#x304b;" 
d="M1592 892l-51 -61l-454 399l51 61zM587 1097q154 0 260 -19q268 -50 319 -324q19 -104 19 -200q0 -158 -52 -295q-84 -220 -214 -253l-27 77q110 25 180 220q40 111 40 239q0 96 -22 202q-53 246 -320 268q-61 5 -136 5q-32 0 -67 -1l-256 -1029l-78 19l251 1006
q-125 -6 -277 -23l5 86q161 16 292 20l87 348l75 -29z" />
    <glyph glyph-name="uni304C" unicode="&#x304c;" 
d="M1495 892l-51 -61l-454 399l51 61zM1465 1084l-53 -43l-157 197l40 58zM1589 1179l-53 -43l-157 197l40 58zM590 1097q154 0 260 -19q268 -50 319 -324q19 -104 19 -200q0 -158 -52 -295q-84 -220 -214 -253l-27 77q110 25 180 220q40 111 40 239q0 96 -22 202
q-53 246 -320 268q-61 5 -136 5q-32 0 -67 -1l-256 -1029l-78 19l251 1006q-125 -6 -277 -23l5 86q161 16 292 20l87 348l75 -29z" />
    <glyph glyph-name="uni304D" unicode="&#x304d;" 
d="M1096 999q175 17 274 43l-5 -80q-89 -24 -241 -40l114 -309l-48 -43q-34 36 -74 62q-80 51 -181 60q-28 2 -55 2q-129 0 -215 -56q-105 -68 -117 -208q-2 -18 -2 -34q0 -118 79 -193q89 -87 255 -101q29 -2 56 -2q132 0 244 55l28 -87q-127 -53 -269 -53q-33 0 -67 3
q-201 18 -307 131q-93 98 -93 244q0 21 2 43q15 175 141 267q105 76 263 76q31 0 64 -3q85 -7 182 -52l-74 191q-210 -18 -521 -23v80q288 5 491 20l-75 193q-209 -18 -516 -23v80q285 5 486 20l-50 130l71 39l60 -162q175 17 274 43l-5 -80q-89 -24 -241 -40z" />
    <glyph glyph-name="uni304E" unicode="&#x304e;" 
d="M1329 1084l-53 -43l-157 197l40 58zM1453 1179l-53 -43l-157 197l40 58zM1041 922l114 -309l-48 -43q-34 36 -74 62q-80 51 -181 60q-28 2 -55 2q-129 0 -215 -56q-105 -68 -117 -208q-2 -18 -2 -34q0 -118 79 -193q89 -87 255 -101q29 -2 56 -2q132 0 244 55l28 -87
q-127 -53 -269 -53q-33 0 -67 3q-201 18 -307 131q-93 98 -93 244q0 21 2 43q15 175 141 267q105 76 263 76q31 0 64 -3q85 -7 182 -52l-74 191q-210 -18 -521 -23v80q288 5 491 20l-75 193q-209 -18 -516 -23v80q285 5 486 20l-50 130l71 39l60 -162q80 8 144 17l30 -74
q-64 -11 -146 -20l72 -193q124 12 209 29l39 -71q-85 -21 -220 -35z" />
    <glyph glyph-name="uni304F" unicode="&#x304f;" 
d="M722 706l454 -642l-56 -60l-497 702l497 702l56 -60z" />
    <glyph glyph-name="uni3050" unicode="&#x3050;" 
d="M1182 884l-53 -43l-157 197l40 58zM1306 979l-53 -43l-157 197l40 58zM592 706l454 -642l-56 -60l-497 702l497 702l56 -60z" />
    <glyph glyph-name="uni3051" unicode="&#x3051;" 
d="M1283 830q3 -69 3 -135q0 -194 -26 -365q-35 -231 -151 -365q-110 -127 -286 -127h-21l-3 94q26 -3 50 -3q136 0 218 110q96 129 123 328q17 134 17 292q0 78 -4 162q-189 -19 -558 -24v80q367 5 556 24q-7 201 -19 460l83 6q12 -255 16 -457q122 15 205 37l-5 -80
q-80 -22 -198 -37zM314 651q0 257 106 663l70 -27q-106 -396 -106 -637q0 -203 38 -387v-1q26 150 77 267l63 -55q-74 -154 -92 -432l-53 -46q-103 335 -103 655z" />
    <glyph glyph-name="uni3052" unicode="&#x3052;" 
d="M1636 1179l-53 -43l-157 197l40 58zM1512 1084l-53 -43l-157 197l40 58zM1283 830q3 -69 3 -135q0 -194 -26 -365q-35 -231 -151 -365q-110 -127 -286 -127h-21l-3 94q26 -3 50 -3q136 0 218 110q96 129 123 328q17 134 17 292q0 78 -4 162q-189 -19 -558 -24v80
q367 5 556 24q-7 201 -19 460l83 6q12 -255 16 -457q122 15 205 37l-5 -80q-80 -22 -198 -37zM314 651q0 257 106 663l70 -27q-106 -396 -106 -637q0 -203 38 -387v-1q26 150 77 267l63 -55q-74 -154 -92 -432l-53 -46q-103 335 -103 655z" />
    <glyph glyph-name="uni3053" unicode="&#x3053;" 
d="M371 316q-37 79 -37 167q0 125 74 266l58 -59q-62 -109 -62 -205q0 -76 39 -144q86 -156 291 -173q40 -3 93 -3q213 0 626 55l12 -83q-376 -50 -606 -50q-92 0 -160 8q-239 28 -328 221zM758 1002l-47 85q94 41 221 103h-543v80h733v-80q-218 -106 -364 -188z" />
    <glyph glyph-name="uni3054" unicode="&#x3054;" 
d="M1376 1084l-53 -43l-157 197l40 58zM1500 1179l-53 -43l-157 197l40 58zM336 316q-37 79 -37 167q0 125 74 266l58 -59q-62 -109 -62 -205q0 -76 39 -144q86 -156 291 -173q40 -3 93 -3q213 0 626 55l12 -83q-376 -50 -606 -50q-92 0 -160 8q-239 28 -328 221zM723 1002
l-47 85q94 41 221 103h-543v80h733v-80q-218 -106 -364 -188z" />
    <glyph glyph-name="uni3055" unicode="&#x3055;" 
d="M1051 1098q182 17 284 44l-5 -80q-92 -25 -251 -41l151 -408l-48 -43q-34 36 -74 62q-80 51 -181 60q-28 2 -55 2q-129 0 -215 -56q-105 -68 -117 -208q-2 -18 -2 -34q0 -118 79 -193q89 -87 255 -101q29 -2 56 -2q132 0 244 55l28 -87q-127 -53 -269 -53q-33 0 -67 3
q-201 18 -307 131q-93 98 -93 244q0 21 2 43q15 175 141 267q105 76 263 76q31 0 64 -3q85 -7 182 -52l-112 290q-208 -17 -510 -22v80q280 5 480 19l-117 301l71 39z" />
    <glyph glyph-name="uni3056" unicode="&#x3056;" 
d="M983 1021l151 -408l-48 -43q-34 36 -74 62q-80 51 -181 60q-28 2 -55 2q-129 0 -215 -56q-105 -68 -117 -208q-2 -18 -2 -34q0 -118 79 -193q89 -87 255 -101q29 -2 56 -2q132 0 244 55l28 -87q-127 -53 -269 -53q-33 0 -67 3q-201 18 -307 131q-93 98 -93 244q0 21 2 43
q15 175 141 267q105 76 263 76q31 0 64 -3q85 -7 182 -52l-112 290q-208 -17 -510 -22v80q280 5 480 19l-117 301l71 39l123 -333q85 8 152 18l24 -76q-65 -11 -148 -19zM1308 1084l-53 -43l-157 197l40 58zM1432 1179l-53 -43l-157 197l40 58z" />
    <glyph glyph-name="uni3057" unicode="&#x3057;" 
d="M881 3h-15q-311 0 -389 255q-58 189 -58 415q0 86 9 178q30 332 92 563l91 -6q-81 -239 -105 -592q-6 -85 -6 -161q0 -239 59 -388q70 -180 293 -180q20 0 42 2q257 18 424 320l63 -47q-177 -353 -500 -359z" />
    <glyph glyph-name="uni3058" unicode="&#x3058;" 
d="M1201 1084l-53 -43l-157 197l40 58zM1325 1179l-53 -43l-157 197l40 58zM881 3h-15q-311 0 -389 255q-58 189 -58 415q0 86 9 178q30 332 92 563l91 -6q-81 -239 -105 -592q-6 -85 -6 -161q0 -239 59 -388q70 -180 293 -180q20 0 42 2q257 18 424 320l63 -47
q-177 -353 -500 -359z" />
    <glyph glyph-name="uni3059" unicode="&#x3059;" 
d="M871 496v39q-18 47 -48 76q-37 34 -86 34q-50 0 -84.5 -35t-34.5 -93q0 -59 34.5 -94.5t84.5 -35.5q49 0 86 34q30 29 48 75zM863 1105q-4 120 -11 256l83 6q6 -136 10 -258q46 2 93 2q259 0 527 -52l-33 -67q-243 43 -478 43q-53 0 -106 -2q7 -224 7 -392
q0 -281 -30 -436.5t-143 -261t-289 -105.5h-21l-3 94q26 -3 50 -3q136 0 240.5 106.5t111.5 325.5q-54 -50 -134 -50q-81 0 -138 56.5t-57 148.5t57 149t138 57q80 0 127 -43q6 -6 12 -14q-2 155 -10 364q-309 -24 -605 -125l-26 74q307 105 628 127z" />
    <glyph glyph-name="uni305A" unicode="&#x305a;" 
d="M1426 1084l-53 -43l-157 197l40 58zM1550 1179l-53 -43l-157 197l40 58zM885 496v39q-18 47 -48 76q-37 34 -86 34q-50 0 -84.5 -35t-34.5 -93q0 -59 34.5 -94.5t84.5 -35.5q49 0 86 34q30 29 48 75zM1068 1035q-53 0 -106 -2q7 -224 7 -392q0 -281 -26.5 -440t-143 -261
t-292.5 -102h-21l-3 94q26 -3 50 -3q136 0 240.5 104.5t111.5 327.5q-54 -50 -134 -50q-81 0 -138 56.5t-57 148.5t57 149t138 57q80 0 127 -43q6 -6 12 -14q-2 155 -10 364q-309 -24 -605 -125l-26 74q307 105 628 127q-4 120 -11 256l83 6q6 -136 10 -258q46 2 93 2
q115 0 232 -10l29 -78q-124 12 -245 12z" />
    <glyph glyph-name="uni305B" unicode="&#x305b;" 
d="M527 885q-164 -46 -266 -81l-26 74q115 39 292 87v418h79v-401q180 29 429 29q47 0 94 -2q-7 182 -34 343l73 36q31 -177 37 -382q178 -12 360 -47l-33 -67q-165 29 -325 39v-23q0 -311 -51 -683l-67 -2q-33 195 -95 377l75 25q24 -71 44 -145q19 204 19 388q0 33 -1 66
q-39 1 -78 1q-258 0 -447 -32v-642q19 -160 179 -165l597 -1v-83h-598q-237 0 -257 251v622z" />
    <glyph glyph-name="uni305C" unicode="&#x305c;" 
d="M1446 1084l-53 -43l-157 197l40 58zM1570 1179l-53 -43l-157 197l40 58zM521 885q-164 -46 -266 -81l-26 74q115 39 292 87v418h79v-401q180 29 429 29q47 0 94 -2q-7 182 -34 343l73 36q31 -177 37 -382q178 -12 360 -47l-33 -67q-165 29 -325 39v-23q0 -311 -51 -683
l-67 -2q-33 195 -95 377l75 25q24 -71 44 -145q19 204 19 388q0 33 -1 66q-39 1 -78 1q-258 0 -447 -32v-642q19 -160 179 -165l597 -1v-83h-598q-237 0 -257 251v622z" />
    <glyph glyph-name="uni305D" unicode="&#x305d;" 
d="M1131 1251l-650 -48l-6 80l807 60l-9 -61l-493 -504l728 154l16 -79l-391 -83q-179 -80 -248 -193q-48 -78 -48 -165q0 -41 11 -83q33 -134 151 -192q80 -39 212 -39q64 0 140 9l13 -82q-86 -13 -160 -13q-162 0 -265 63q-152 91 -178 245q-7 40 -7 78q0 111 56 213
q32 58 87 109l-606 -128l-16 79l364 77z" />
    <glyph glyph-name="uni305E" unicode="&#x305e;" 
d="M1451 1084l-53 -43l-157 197l40 58zM1575 1179l-53 -43l-157 197l40 58zM1080 1251l-650 -48l-6 80l807 60l-9 -61l-493 -504l728 154l16 -79l-391 -83q-179 -80 -248 -193q-48 -78 -48 -165q0 -41 11 -83q33 -134 151 -192q80 -39 212 -39q64 0 140 9l13 -82
q-86 -13 -160 -13q-162 0 -265 63q-152 91 -178 245q-7 40 -7 78q0 111 56 213q32 58 87 109l-606 -128l-16 79l364 77z" />
    <glyph glyph-name="uni305F" unicode="&#x305f;" 
d="M1085 21q-239 28 -328 221l-6 12l62 45q7 -16 16 -32q86 -156 291 -173q50 -4 109 -4q135 0 319 22l6 -83q-160 -17 -291 -17q-97 0 -178 9zM583 1009l-254 -1022l-78 19l249 1001q-58 -1 -122 -1t-133 1v80q75 -1 144 -1t131 1l89 356l75 -29l-81 -324q246 10 383 47
l-5 -80q-141 -38 -398 -48zM897 742v80q157 30 291 30t245 -30l5 -80q-112 30 -248 30q-135 0 -293 -30z" />
    <glyph glyph-name="uni3060" unicode="&#x3060;" 
d="M1401 1084l-53 -43l-157 197l40 58zM1525 1179l-53 -43l-157 197l40 58zM1085 21q-239 28 -328 221l-6 12l62 45q7 -16 16 -32q86 -156 291 -173q50 -4 109 -4q135 0 319 22l6 -83q-160 -17 -291 -17q-97 0 -178 9zM583 1009l-254 -1022l-78 19l249 1001q-58 -1 -122 -1
t-133 1v80q75 -1 144 -1t131 1l89 356l75 -29l-81 -324q246 10 383 47l-5 -80q-141 -38 -398 -48zM897 742v80q157 30 291 30t245 -30l5 -80q-112 30 -248 30q-135 0 -293 -30z" />
    <glyph glyph-name="uni3061" unicode="&#x3061;" 
d="M789 1094q295 3 503 29l-5 -80q-213 -27 -518 -29l-70 -283q84 38 169 45q33 3 64 3q158 0 263 -76q126 -92 142 -267q1 -22 1 -43q0 -146 -92 -244q-107 -113 -308 -131q-34 -3 -67 -3q-142 0 -269 53l28 87q112 -55 244 -55q27 0 56 2q166 14 256 101q78 75 78 193
q0 16 -1 34q-13 140 -117 208q-87 56 -216 56q-27 0 -55 -2q-101 -9 -181 -60q-40 -26 -74 -62l-24 59l94 384q-109 1 -229 4v80q130 -4 248 -4l85 350l75 -29z" />
    <glyph glyph-name="uni3062" unicode="&#x3062;" 
d="M1250 1084l-53 -43l-157 197l40 58zM1374 1179l-53 -43l-157 197l40 58zM733 1014l-70 -283q84 38 169 45q33 3 64 3q158 0 263 -76q126 -92 142 -267q1 -22 1 -43q0 -146 -92 -244q-107 -113 -308 -131q-34 -3 -67 -3q-142 0 -269 53l28 87q112 -55 244 -55q27 0 56 2
q166 14 256 101q78 75 78 193q0 16 -1 34q-13 140 -117 208q-87 56 -216 56q-27 0 -55 -2q-101 -9 -181 -60q-40 -26 -74 -62l-24 59l94 384q-109 1 -229 4v80q130 -4 248 -4l85 350l75 -29l-80 -320q181 2 330 12l44 -76q-173 -15 -394 -16z" />
    <glyph glyph-name="uni3063" unicode="&#x3063;" 
d="M1395 519q2 -26 2 -50q0 -185 -129 -303q-146 -135 -490 -190l-18 72q303 39 441 150q124 101 124 267q0 17 -1 35q-14 191 -208 207q-27 2 -55 2q-168 0 -342 -83q-125 -60 -215 -60q-58 0 -102 24l22 70q24 -21 70 -21q79 0 226 64q173 76 337 76q53 0 106 -8
q212 -33 232 -252z" />
    <glyph glyph-name="uni3064" unicode="&#x3064;" 
d="M1567 838q21 -77 21 -150q0 -198 -155 -372q-214 -238 -656 -307l-21 86q399 50 605 261q151 156 151 332q0 63 -19 129q-73 249 -337 270q-38 3 -76 3q-228 0 -459 -107q-170 -79 -288 -79q-70 0 -122 27l25 77q26 -23 79 -23q103 0 308 88q235 100 452 100
q69 0 136 -10q277 -42 356 -325z" />
    <glyph glyph-name="uni3065" unicode="&#x3065;" 
d="M1558 838q21 -77 21 -150q0 -198 -155 -372q-214 -238 -656 -307l-21 86q399 50 605 261q151 156 151 332q0 63 -19 129q-73 249 -337 270q-38 3 -76 3q-228 0 -459 -107q-170 -79 -288 -79q-70 0 -122 27l25 77q26 -23 79 -23q103 0 308 88q235 100 452 100
q69 0 136 -10q277 -42 356 -325zM1473 1184l-53 -43l-157 197l40 58zM1597 1279l-53 -43l-157 197l40 58z" />
    <glyph glyph-name="uni3066" unicode="&#x3066;" 
d="M1508 1312l16 -79l-323 -68q-171 -83 -286 -288q-94 -169 -94 -339q0 -47 7 -94q33 -219 201 -292q121 -53 277 -53q60 0 125 8l13 -82q-77 -12 -149 -12q-182 0 -326 77q-202 106 -228 345q-4 41 -4 82q0 198 103 394q65 123 152 209l-701 -148l-16 79z" />
    <glyph glyph-name="uni3067" unicode="&#x3067;" 
d="M1491 1084l-53 -43l-157 197l40 58zM1615 1179l-53 -43l-157 197l40 58zM1110 1165q-171 -83 -286 -288q-94 -169 -94 -339q0 -47 7 -94q33 -219 201 -292q121 -53 277 -53q60 0 125 8l13 -82q-77 -12 -149 -12q-182 0 -326 77q-202 106 -228 345q-4 41 -4 82
q0 198 103 394q65 123 152 209l-701 -148l-16 79l1044 221l30 -76z" />
    <glyph glyph-name="uni3068" unicode="&#x3068;" 
d="M879 839q136 38 294 65q52 9 96 18l27 -84q-40 -9 -83 -15q-298 -47 -539 -142q-223 -89 -223 -280q0 -15 2 -31q19 -215 294 -273q89 -19 191 -19q209 0 467 80l16 -87q-257 -71 -468 -71q-143 0 -264 33q-301 80 -310 339q-1 10 -1 20q0 243 225 347q91 42 198 77
l-111 542l77 29z" />
    <glyph glyph-name="uni3069" unicode="&#x3069;" 
d="M1182 1084l-53 -43l-157 197l40 58zM1306 1179l-53 -43l-157 197l40 58zM879 839q136 38 294 65q52 9 96 18l27 -84q-40 -9 -83 -15q-298 -47 -539 -142q-223 -89 -223 -280q0 -15 2 -31q19 -215 294 -273q89 -19 191 -19q209 0 467 80l16 -87q-257 -71 -468 -71
q-143 0 -264 33q-301 80 -310 339q-1 10 -1 20q0 243 225 347q91 42 198 77l-111 542l77 29z" />
    <glyph glyph-name="uni306A" unicode="&#x306a;" 
d="M1096 231q-81 47 -156 52q-11 1 -22 1q-60 0 -105 -22q-54 -26 -68 -71q-5 -17 -5 -31q0 -28 17 -50q26 -36 93 -50q28 -7 55 -7q42 0 86 13q105 16 105 157v8zM877 1033q-117 -18 -282 -24l-254 -1022l-78 19l249 1001q-58 -1 -122 -1t-133 1v80q75 -1 144 -1t131 1
l89 356l75 -29l-81 -324q152 6 262 23v-80zM1543 692l-51 -61l-454 399l51 61zM1098 324q-1 276 -24 437l83 6q20 -144 20 -385q0 -51 3 -107q119 -85 235 -234l-64 -61q-91 138 -179 196q-2 -28 -23.5 -87.5t-122.5 -96.5q-63 -23 -123 -23q-38 0 -75 10q-97 23 -139 90
q-27 43 -27 89q0 27 9 55q24 76 106 119q69 36 154 36q14 0 28 -1q66 -5 139 -43z" />
    <glyph glyph-name="uni306B" unicode="&#x306b;" 
d="M1487 29q-160 -17 -291 -17q-97 0 -178 9q-239 28 -328 221l-6 12l62 45q7 -16 16 -32q86 -156 291 -173q50 -4 109 -4q135 0 319 22zM830 742v80q157 30 291 30t245 -30l5 -80q-112 30 -248 30q-135 0 -293 -30zM313 651q0 257 106 663l70 -27q-106 -396 -106 -637
q0 -203 38 -387v-1q26 150 77 267l63 -55q-74 -154 -92 -432l-53 -46q-103 335 -103 655z" />
    <glyph glyph-name="uni306C" unicode="&#x306c;" 
d="M1176 88q44 0 80 28.5t67 68.5q-21 60 -57 98.5t-85 48.5q-11 2 -21 2q-36 0 -62 -26q-35 -35 -35 -92q0 -58 34.5 -93t78.5 -35zM407 775q-68 144 -129 308l62 46q57 -145 118 -274q135 182 377 226h1q-36 148 -91 294l70 33q54 -157 89 -317q45 5 87 5q169 0 287 -81
q168 -117 204 -351q10 -71 10 -138q0 -155 -58 -292q-13 -30 -27 -55q12 -23 18 -34q16 -33 79 -91q8 -7 17 -14l-38 -67q-17 12 -33 27q-58 54 -80 123q-31 -36 -72.5 -74t-116.5 -38q-76 0 -133 56.5t-57 148.5t57 149q45 45 110 45q17 0 36 -3q89 -15 152 -122
q9 -16 18 -31q5 14 9 24q49 118 49 248q0 56 -9 116q-31 194 -161 292q-116 87 -284 87q-21 0 -42 -1q31 -203 31 -364q0 -281 -94 -433q63 -68 129 -124l-37 -75q-73 60 -141 132q-129 -158 -251 -158q-25 0 -51 7q-160 45 -192 309q-6 51 -6 101q0 190 93 360zM760 215
q-169 196 -309 472q-63 -133 -63 -269q0 -40 5 -80q29 -215 149 -248q16 -5 33 -5q88 0 185 130zM498 773q146 -289 310 -486q74 132 74 371q0 149 -29 341q-230 -32 -355 -226z" />
    <glyph glyph-name="uni306D" unicode="&#x306d;" 
d="M1329 202q-10 45 -44 82q-36 38 -85 48q-11 2 -21 2q-36 0 -62 -26q-35 -35 -35 -92q0 -58 35 -93q30 -31 63 -31q5 0 10 1q39 5 79 40t60 69zM497 1114v300h80v-289q69 11 137 28l67 -48l-181 -392q22 24 46 49q214 227 427 227q36 0 72 -6q248 -45 319 -274
q32 -106 32 -209q0 -122 -45 -241q-15 -38 -31 -70q17 -30 24 -44q16 -33 79 -91q8 -7 17 -14l-38 -67q-17 12 -33 27q-58 54 -90 133q-14 -16 -29 -32q-55 -68 -140 -79q-14 -2 -28 -2q-67 0 -115 48q-57 56 -57 148t64 156q47 47 110 47q21 0 44 -5q91 -22 148 -148
q47 130 47 247q0 90 -28 174q-66 189 -260 218q-22 3 -44 3q-176 0 -381 -200q-59 -57 -133 -141v-567h-80v474q-59 -70 -126 -153l-63 54l110 137l79 171v351q-82 -8 -166 -8q-35 0 -71 1v80q36 -1 71 -1q84 0 166 8zM577 1045v-189l96 208q-48 -11 -96 -19z" />
    </font>
</defs>
</svg>
