<?xml version="1.0" standalone="no"?>
<!DOCTYPE svg PUBLIC "-//W3C//DTD SVG 1.1//EN" "http://www.w3.org/Graphics/SVG/1.1/DTD/svg11.dtd" >
<svg xmlns="http://www.w3.org/2000/svg" xmlns:xlink="http://www.w3.org/1999/xlink" version="1.1">
<metadata>
Created by FontForge 20170731 at Tue Mar 31 03:36:50 2015
 By Aleksey,,,
(c) Lauren Thompson, 2009, 2010. All rights reserved.
</metadata>
<defs>
<font id="Champagne&#38;Limousines-Bold" horiz-adv-x="956" >
  <font-face 
    font-family="Champagne &#38; Limousines"
    font-weight="700"
    font-stretch="normal"
    units-per-em="2048"
    panose-1="2 11 7 2 2 2 2 2 5 4"
    ascent="1638"
    descent="-410"
    x-height="902"
    cap-height="1439"
    bbox="-400 -379 2008 1838"
    underline-thickness="150"
    underline-position="-442"
    unicode-range="U+0020-FF9F"
  />
<missing-glyph horiz-adv-x="1088" 
d="M522 616q0 -6 5.5 -18.5t50.5 -23.5q-45 -14 -120 -60q-24 -15 -47 -15q-51 0 -99 72q28 14 39 21t11 13v252q0 30 -47 44q123 59 176 96q25 -3 31 -73v-3q20 8 36 17l163 59q11 -59 25 -107q14 -47 28 -138q2 -17 2 -34q0 -75 -51 -155q-63 -98 -178 -199q73 134 73 250
q0 32 -5 62q-26 141 -43 178q-50 -37 -50 -76v-162zM76 1412v-1409h936v1409h-936zM1044 1447v-1480h-1000v1480h1000z" />
    <glyph glyph-name=".notdef" horiz-adv-x="1088" 
d="M522 616q0 -6 5.5 -18.5t50.5 -23.5q-45 -14 -120 -60q-24 -15 -47 -15q-51 0 -99 72q28 14 39 21t11 13v252q0 30 -47 44q123 59 176 96q25 -3 31 -73v-3q20 8 36 17l163 59q11 -59 25 -107q14 -47 28 -138q2 -17 2 -34q0 -75 -51 -155q-63 -98 -178 -199q73 134 73 250
q0 32 -5 62q-26 141 -43 178q-50 -37 -50 -76v-162zM76 1412v-1409h936v1409h-936zM1044 1447v-1480h-1000v1480h1000z" />
    <glyph glyph-name=".null" horiz-adv-x="0" 
 />
    <glyph glyph-name="nonmarkingreturn" horiz-adv-x="508" 
 />
    <glyph glyph-name="space" unicode=" " horiz-adv-x="508" 
 />
    <glyph glyph-name="space" unicode="&#xa0;" horiz-adv-x="508" 
 />
    <glyph glyph-name="exclam" unicode="!" horiz-adv-x="367" 
d="M275.5 184.5q36.5 -35.5 36.5 -80.5t-36.5 -80.5t-91.5 -35.5q-57 0 -93 35.5t-36 80.5t36 80.5t93 35.5q55 0 91.5 -35.5zM272 1439v-1104h-181v1104h181z" />
    <glyph glyph-name="quotedbl" unicode="&#x22;" horiz-adv-x="540" 
d="M55 847v589h181v-589h-181zM305 847v589h180v-589h-180z" />
    <glyph glyph-name="numbersign" unicode="#" horiz-adv-x="1026" 
d="M491 429h-111l-81 -333h-178l82 333h-223l80 157h182l56 227h-206l82 157h162l84 344h178l-85 -344h111l84 344h178l-85 -344h204l-82 -157h-160l-56 -227h185l-81 -157h-143l-81 -333h-178zM419 586h111l56 227h-111z" />
    <glyph glyph-name="dollar" unicode="$" horiz-adv-x="1149" 
d="M671 254q124 41 124 222q0 100 -68 169l-57 57zM490 1172q-39 -40 -39 -100t39 -95v195zM490 778q-70 31 -133 94q-84 83 -84 200q0 114 84 198q74 76 133 83v91h181v-96q52 -9 120 -76q47 -46 76 -136l-159 -65q-9 65 -37 116v-314q97 -38 188 -129q113 -112 113 -268
q0 -157 -112 -269q-99 -99 -189 -110v-101h-181v98q-97 8 -201 113q-90 90 -113 239l171 64q15 -205 143 -261v529z" />
    <glyph glyph-name="percent" unicode="%" horiz-adv-x="1136" 
d="M1053 1165l-829 -1185l-141 98l829 1185zM491.5 1041q70.5 -71 70.5 -166q0 -93 -70.5 -164.5t-177.5 -71.5t-177.5 71.5t-70.5 164.5q0 95 70.5 166t177.5 71t177.5 -71zM314 958q-26 0 -48 -22.5t-22 -60.5t22 -60t48 -22q25 0 47.5 22.5t22.5 59.5q0 38 -22.5 60.5
t-47.5 22.5zM999.5 531.5q70.5 -70.5 70.5 -165.5t-70.5 -165.5t-176.5 -70.5q-107 0 -177.5 70.5t-70.5 165.5t70.5 165.5t177.5 70.5q106 0 176.5 -70.5zM823 449q-26 0 -48 -22.5t-22 -60.5t22 -60t48 -22q25 0 48 22t23 60t-23 60.5t-48 22.5z" />
    <glyph glyph-name="ampersand" unicode="&#x26;" horiz-adv-x="1231" 
d="M912 715q60 -1 116 -32q83 -47 107 -136q8 -29 8 -57q0 -54 -28 -104q-47 -82 -161 -117q-21 -70 -102 -150q-133 -135 -325 -135q-191 0 -322.5 131.5t-131.5 311.5q0 179 126 314q88 94 153 101q-145 155 -145 287q0 130 97.5 228.5t241.5 98.5q145 0 245 -101
q54 -52 83 -146l-160 -63q-31 81 -59 109q-46 46 -109 46q-62 0 -110.5 -48.5t-48.5 -123.5t51 -129.5t91 -69.5t156 -16v-151l-106 -2q-162 -30 -244.5 -120.5t-82.5 -213.5q0 -122 82 -204.5t193 -82.5q110 0 194 84q45 45 56 78q-38 24 -103 91q-35 33 -46 39q-5 3 -9 3
t-6 -1q-7 -2 -13 -12q-6 -12 -6 -22q0 -7 1 -14q5 -15 12 -19q2 -1 10 -1v-154h-10q-49 0 -96 25q-68 39 -88 114q-7 25 -7 49q0 45 24 88q42 70 122 93q30 8 58 8q55 0 102 -28q40 -22 99 -84q44 -40 62 -50q12 -7 22 -7q6 0 14 3q23 6 37 29q10 19 10 38q0 10 -4 22
q-8 29 -30 42q-9 4 -20 5v156z" />
    <glyph glyph-name="quotesingle" unicode="'" horiz-adv-x="291" 
d="M55 847v589h181v-589h-181z" />
    <glyph glyph-name="parenleft" unicode="(" horiz-adv-x="736" 
d="M681 1506q-190 -115 -283 -240q-137 -187 -137 -520v-87q0 -334 137 -521q93 -125 283 -240h-255q-93 65 -160 143q-211 244 -211 661t211 660q67 79 160 144h255z" />
    <glyph glyph-name="parenright" unicode=")" horiz-adv-x="736" 
d="M310 1506q93 -65 160 -144q211 -243 211 -660t-211 -661q-67 -78 -160 -143h-255q190 115 283 240q138 187 138 521v87q0 333 -138 520q-93 125 -283 240h255z" />
    <glyph glyph-name="asterisk" unicode="*" horiz-adv-x="841" 
d="M511 1291l162 86l93 -133l-189 -102l189 -102l-93 -134l-162 86v-145h-180v146l-163 -87l-93 134l189 102l-189 102l93 134l163 -87v145h180v-145z" />
    <glyph glyph-name="plus" unicode="+" horiz-adv-x="1138" 
d="M479 609h-394v156h394v395h180v-395h394v-156h-394v-395h-180v395z" />
    <glyph glyph-name="comma" unicode="," horiz-adv-x="464" 
d="M367 221l-196 -407h-171l109 407h258z" />
    <glyph glyph-name="hyphen" unicode="-" horiz-adv-x="680" 
d="M48 621h584v-157h-584v157z" />
    <glyph glyph-name="hyphen" unicode="&#xad;" horiz-adv-x="680" 
d="M48 621h584v-157h-584v157z" />
    <glyph glyph-name="period" unicode="." horiz-adv-x="367" 
d="M275.5 184.5q36.5 -35.5 36.5 -80.5t-36.5 -80.5t-91.5 -35.5q-57 0 -93 35.5t-36 80.5t36 80.5t93 35.5q55 0 91.5 -35.5z" />
    <glyph glyph-name="slash" unicode="/" horiz-adv-x="744" 
d="M599 1439h197l-652 -1439h-196z" />
    <glyph glyph-name="zero" unicode="0" horiz-adv-x="1135" 
d="M901 708q0 279 -102.5 424.5t-230.5 145.5q-129 0 -231 -145.5t-102 -424.5q0 -280 102 -425t231 -145q128 0 230.5 145t102.5 425zM1085 708q0 -332 -147 -532t-369 -200q-223 0 -371 200t-148 532q0 331 148 531t371 200q222 0 369 -200t147 -531z" />
    <glyph glyph-name="one" unicode="1" horiz-adv-x="1146" 
d="M486 157v1004l-90 -59l-133 96l403 294v-1335h295v-157h-776v157h301z" />
    <glyph glyph-name="two" unicode="2" horiz-adv-x="1177" 
d="M170 0q570 871 608.5 939t38.5 127q0 29 -7 60q-20 91 -94 137q-50 30 -102 30q-24 0 -47 -5q-82 -19 -128 -93q-28 -44 -39 -130l-180 27q10 107 55 178q88 137 245 172q48 12 95 12q112 0 210 -62q135 -85 169 -235q12 -53 12 -102q0 -87 -48 -173.5t-468 -724.5h516
v-157h-836z" />
    <glyph glyph-name="three" unicode="3" horiz-adv-x="1144" 
d="M519 759l-108 3v154q118 1 157.5 16.5t89.5 69t50 127.5q0 75 -47.5 122t-108.5 47t-107 -45q-27 -28 -58 -111l-165 65q30 98 84 150q101 101 246 101q146 0 244 -99t98 -230q0 -133 -137 -279q56 -11 145 -107q126 -136 126 -316q0 -181 -132 -313t-325 -132
q-192 0 -327 135q-103 104 -128 271l178 64q18 -159 90 -231q79 -79 187 -79q111 0 192.5 81.5t81.5 203.5q0 123 -82 212t-244 120z" />
    <glyph glyph-name="four" unicode="4" horiz-adv-x="1171" 
d="M905 1639v-1133h130v-156h-130v-350h-181v350h-588zM724 1003l-295 -497h295v497z" />
    <glyph glyph-name="five" unicode="5" horiz-adv-x="1147" 
d="M369 1041q60 11 117 11q105 0 200 -33q210 -72 313 -264q62 -116 62 -238q0 -77 -23 -153q-64 -205 -256 -310q-121 -64 -250 -64q-82 0 -166 26q-170 53 -281 205l122 134q103 -152 221 -187q52 -17 101 -17q79 0 156 41q130 69 174 213q18 58 18 113q0 87 -45 171
q-69 131 -209 180q-60 20 -130 20q-99 0 -255 -49l-103 91l161 445v63h528v-157h-373z" />
    <glyph glyph-name="six" unicode="6" horiz-adv-x="1143" 
d="M327 399q0 -110 73 -183t171 -73q97 0 170.5 73t73.5 183t-73.5 183.5t-170.5 73.5q-98 0 -171 -73.5t-73 -183.5zM409 765q42 52 162 52q182 0 305.5 -124t123.5 -294q0 -169 -123.5 -293.5t-305.5 -124.5q-180 0 -304.5 124.5t-124.5 293.5q9 226 127.5 468.5
t339.5 571.5h219q-275 -402 -419 -674z" />
    <glyph glyph-name="seven" unicode="7" horiz-adv-x="1142" 
d="M833 905q-170 -242 -280 -473q-109 -229 -119 -432h-183q10 251 130 496q118 240 272 466q148 219 169 320h-704v157h905q-6 -271 -190 -534z" />
    <glyph glyph-name="eight" unicode="8" horiz-adv-x="1137" 
d="M570 144q160 7 233 83.5t73 199.5t-83 213q-79 86 -224 115q-147 -29 -226 -115q-82 -90 -82 -213t73 -199.5t236 -83.5zM569 -9q-248 0 -370 128t-122 308t126 316q90 96 154 96q-146 157 -146 290q0 132 97.5 228t264.5 97q157 -1 255 -97t98 -228q0 -133 -147 -290
q65 0 154 -96q126 -136 126 -316t-121.5 -308t-368.5 -128zM431.5 1247.5q-35.5 -42.5 -35.5 -118.5q0 -74 49.5 -127t123.5 -76q72 23 121.5 76t49.5 127q0 76 -35 118.5t-137 49.5q-101 -7 -136.5 -49.5z" />
    <glyph glyph-name="nine" unicode="9" horiz-adv-x="1143" 
d="M815 1021q0 110 -73.5 183t-171.5 73q-97 0 -170 -73t-73 -183t73 -183.5t170 -73.5q98 0 171.5 73.5t73.5 183.5zM733 655q-42 -52 -163 -52q-181 0 -304.5 124t-123.5 294q0 169 123.5 293.5t304.5 124.5t305.5 -124.5t124.5 -293.5q-9 -226 -128 -468.5t-340 -571.5
h-218q275 402 419 674z" />
    <glyph glyph-name="colon" unicode=":" horiz-adv-x="367" 
d="M275.5 184.5q36.5 -35.5 36.5 -80.5t-36.5 -80.5t-91.5 -35.5q-57 0 -93 35.5t-36 80.5t36 80.5t93 35.5q55 0 91.5 -35.5zM275.5 778q36.5 -35 36.5 -80t-36.5 -80.5t-91.5 -35.5q-57 0 -93 35.5t-36 80.5t36 80t93 35q55 0 91.5 -35z" />
    <glyph glyph-name="semicolon" unicode=";" horiz-adv-x="421" 
d="M367 221l-196 -407h-171l109 407h258zM308 778q36 -35 36 -80t-36 -80.5t-92 -35.5t-92.5 35.5t-36.5 80.5t36.5 80t92.5 35t92 -35z" />
    <glyph glyph-name="semicolon" unicode="&#x37e;" horiz-adv-x="421" 
d="M367 221l-196 -407h-171l109 407h258zM308 778q36 -35 36 -80t-36 -80.5t-92 -35.5t-92.5 35.5t-36.5 80.5t36.5 80t92.5 35t92 -35z" />
    <glyph glyph-name="less" unicode="&#x3c;" horiz-adv-x="1184" 
d="M449 782l646 -299v-182l-1006 481l1006 481v-182z" />
    <glyph glyph-name="equal" unicode="=" horiz-adv-x="1138" 
d="M85 902h968v-157h-968v157zM89 630h960v-157h-960v157z" />
    <glyph glyph-name="greater" unicode="&#x3e;" horiz-adv-x="1184" 
d="M89 1081v182l1006 -481l-1006 -481v182l646 299z" />
    <glyph glyph-name="question" unicode="?" horiz-adv-x="832" 
d="M441 104q0 -45 -36 -80.5t-92 -35.5t-92.5 35.5t-36.5 80.5t36.5 80.5t92.5 35.5t92 -35.5t36 -80.5zM52 1076q2 102 18 141q57 139 191 192q67 26 135 26q69 0 136 -26q131 -55 177 -175q23 -63 23 -120q0 -59 -24 -119q-41 -103 -196 -296q-127 -157 -127 -299
q0 -17 6 -78h-181q-3 52 -3 66q0 200 150 385q163 202 186 284q8 31 8 59q0 42 -19 77q-30 56 -92 79q-27 9 -52 9q-31 0 -62 -14q-61 -29 -85 -95q-9 -24 -12 -96h-177z" />
    <glyph glyph-name="at" unicode="@" horiz-adv-x="1593" 
d="M1015 630l7 125q-11 63 -56 112q-62 66 -153 66q-92 0 -165 -69.5t-79 -190.5q0 -92 62 -157q61 -66 152 -66q92 0 163 67q51 49 69 113zM776 286q-177 0 -294 125q-106 110 -106 259q12 187 138 307.5t302 120.5q178 0 220 -47l2 33h188l-64 -561q4 -39 28 -39
q25 0 70 42q88 81 98 296q0 172 -131 303q-136 136 -397 136q-229 0 -404 -167t-189 -443q0 -215 147 -370q152 -162 378 -162q156 0 266 67l113 -127q-178 -101 -383 -101q-311 0 -519 220q-189 197 -189 468q18 343 246 559.5t538 216.5q346 0 536 -191q173 -176 173 -396
q-13 -264 -128 -391q-114 -126 -266 -126q-147 16 -147 119q-49 -151 -226 -151z" />
    <glyph glyph-name="A" unicode="A" horiz-adv-x="1208" 
d="M743 754l-138 382l-139 -382h277zM684 1439l521 -1439h-188l-217 598h-391l-221 -598h-189l528 1439h157z" />
    <glyph glyph-name="B" unicode="B" horiz-adv-x="1102" 
d="M555 157q125 0 218.5 93.5t93.5 232.5t-93.5 233t-218.5 94h-262v-653h262zM293 1283v-316h290q59 6 91 39q44 43 44 115q0 70 -46 116t-104 46h-275zM910 821q140 -140 140 -338q0 -196 -145 -341q-117 -118 -296 -142h-497v1439h457q141 0 236 -95t95 -223
q0 -129 -93 -221q33 -8 103 -79z" />
    <glyph glyph-name="C" unicode="C" horiz-adv-x="1419" 
d="M1230 317l126 -112q-243 -221 -535 -221q-314 0 -530.5 216.5t-216.5 519.5q0 300 216.5 518t530.5 218q292 0 535 -222l-126 -112q-198 175 -409 175q-230 0 -397.5 -167.5t-167.5 -409.5q0 -244 167.5 -411t397.5 -167q211 0 409 175z" />
    <glyph glyph-name="D" unicode="D" horiz-adv-x="1252" 
d="M416 1439q360 -2 560 -203q214 -216 214 -516q0 -303 -218 -522q-196 -196 -556 -198h-304v1439h304zM293 1279v-1120h122q268 0 421 148q169 169 169 413q0 242 -169 413q-153 146 -421 146h-122z" />
    <glyph glyph-name="E" unicode="E" horiz-adv-x="1007" 
d="M895 1439v-157h-602v-484h602v-157h-602v-484h602v-157h-783v1439h783z" />
    <glyph glyph-name="F" unicode="F" horiz-adv-x="862" 
d="M810 1439v-157h-517v-484h517v-157h-517v-641h-181v1439h698z" />
    <glyph glyph-name="G" unicode="G" horiz-adv-x="1431" 
d="M1335 196q-221 -212 -514 -212q-314 0 -530.5 216.5t-216.5 519.5q0 300 216.5 518t530.5 218q292 0 535 -222l-126 -112q-198 175 -409 175q-230 0 -397.5 -167.5t-167.5 -409.5q0 -244 167.5 -411t397.5 -167q197 0 334 110v438h180v-494z" />
    <glyph glyph-name="H" unicode="H" horiz-adv-x="1141" 
d="M275 641v-641h-181v1439h181v-641h591v641h181v-1439h-181v641h-591z" />
    <glyph glyph-name="I" unicode="I" horiz-adv-x="425" 
d="M303 1439v-1439h-181v1439h181z" />
    <glyph glyph-name="J" unicode="J" horiz-adv-x="400" 
d="M286 14q0 -117 -84 -197.5t-263 -80.5v150q97 0 130 32q36 36 36 106v1415h181v-1425z" />
    <glyph glyph-name="K" unicode="K" horiz-adv-x="1102" 
d="M874 1439l-380 -550l622 -889h-211l-518 741l-94 -135v-606h-181v1439h181v-532l371 532h210z" />
    <glyph glyph-name="L" unicode="L" horiz-adv-x="862" 
d="M112 0v1439h181v-1282h517v-157h-698z" />
    <glyph glyph-name="M" unicode="M" horiz-adv-x="1496" 
d="M1403 1439v-1439h-181v1170l-473 -621l-474 621v-1170h-181v1439h193l462 -605l461 605h193z" />
    <glyph glyph-name="N" unicode="N" horiz-adv-x="1398" 
d="M288 1439l820 -1150v1150h181v-1439h-200l-799 1121v-1121h-181v1439h179z" />
    <glyph glyph-name="O" unicode="O" horiz-adv-x="1621" 
d="M1341.5 1241q217.5 -218 217.5 -519q0 -303 -217.5 -520.5t-531.5 -217.5q-313 0 -530.5 217.5t-217.5 520.5q0 301 217.5 519t530.5 218q314 0 531.5 -218zM810 1301q-230 0 -398 -168.5t-168 -410.5q0 -244 168 -412t398 -168q231 0 399 168t168 412q0 242 -168 410.5
t-399 168.5z" />
    <glyph glyph-name="P" unicode="P" horiz-adv-x="1032" 
d="M293 471v-471h-181v1439h412q180 -24 301 -146q141 -141 141 -337q0 -197 -143 -341t-352 -144h-178zM293 1281v-652h178q126 0 220 93.5t94 233.5q0 139 -94 232t-220 93h-178z" />
    <glyph glyph-name="Q" unicode="Q" horiz-adv-x="1621" 
d="M810 1301q-230 0 -398 -168.5t-168 -410.5q0 -244 168 -412t398 -168q231 0 399 168t168 412q0 242 -168 410.5t-399 168.5zM277 204q-215 215 -215 518q0 301 217.5 519t530.5 218q314 0 531.5 -218t217.5 -519q0 -303 -219 -522q-154 -155 -302 -165q193 -81 252 -89
q50 1 60 115h183q-32 -242 -226 -257q-142 0 -261 72q-107 56 -158 59q-39 -2 -59.5 -20.5t-29.5 -52t-14 -77.5h-183q28 149 136 237q-284 5 -461 182z" />
    <glyph glyph-name="R" unicode="R" horiz-adv-x="1041" 
d="M293 1281v-652h178q126 0 220 93.5t94 233.5q0 139 -94 232t-220 93h-178zM462 471h-169v-471h-181v1439h412q180 -24 301 -146q141 -141 141 -337q0 -197 -145 -342q-96 -97 -170 -115l323 -499h-209z" />
    <glyph glyph-name="S" unicode="S" horiz-adv-x="1017" 
d="M511 757q-155 51 -249 145t-94 227q0 130 97.5 228.5t242.5 98.5q143 0 245 -101q53 -52 83 -146l-162 -63q-30 81 -54 105q-49 50 -112 50q-62 0 -110.5 -48.5t-48.5 -123.5q0 -74 50 -126q52 -50 142 -92q172 -56 288 -172q133 -132 133 -312t-131.5 -311.5
t-322.5 -131.5q-192 0 -325 135q-104 103 -128 267l174 63q16 -157 89 -229q80 -80 190 -80q111 0 193.5 82.5t82.5 204.5t-81 203q-82 81 -192 127z" />
    <glyph glyph-name="T" unicode="T" horiz-adv-x="931" 
d="M556 1282v-1282h-180v1282h-344v157h867v-157h-343z" />
    <glyph glyph-name="U" unicode="U" horiz-adv-x="1214" 
d="M921 1439h181v-1018q-23 -169 -145 -291q-141 -142 -349 -142q-210 0 -353 143.5t-143 340.5v967h181v-967q0 -138 94 -232.5t221 -94.5q126 0 219.5 94.5t93.5 232.5v967z" />
    <glyph glyph-name="V" unicode="V" horiz-adv-x="1158" 
d="M970 1439h189l-517 -1439h-126l-516 1439h188l392 -1108z" />
    <glyph glyph-name="W" unicode="W" horiz-adv-x="1665" 
d="M893 1079l291 -751l298 1111h183l-386 -1439h-158l-288 758l-289 -758h-158l-386 1439h184l299 -1111l289 751h121z" />
    <glyph glyph-name="X" unicode="X" horiz-adv-x="1137" 
d="M15 0l453 787l-376 652h200l276 -479l276 479h201l-377 -652l455 -787h-201l-354 613l-354 -613h-199z" />
    <glyph glyph-name="Y" unicode="Y" horiz-adv-x="1233" 
d="M526 582l-494 857h200l385 -666l384 666h200l-494 -857v-582h-181v582z" />
    <glyph glyph-name="Z" unicode="Z" horiz-adv-x="1168" 
d="M823 1282h-615v157h906l-740 -1282h780v-157h-1070z" />
    <glyph glyph-name="bracketleft" unicode="[" horiz-adv-x="477" 
d="M236 42h186v-156h-367v1680h367v-156h-186v-1368z" />
    <glyph glyph-name="backslash" unicode="\" horiz-adv-x="744" 
d="M796 0h-196l-652 1439h197z" />
    <glyph glyph-name="bracketright" unicode="]" horiz-adv-x="477" 
d="M241 1410h-186v156h367v-1680h-367v156h186v1368z" />
    <glyph glyph-name="asciicircum" unicode="^" horiz-adv-x="967" 
d="M562 1439l307 -533h-202l-183 317l-184 -317h-202l308 533h156z" />
    <glyph glyph-name="underscore" unicode="_" horiz-adv-x="863" 
d="M-45 54h953v-156h-953v156z" />
    <glyph glyph-name="grave" unicode="`" horiz-adv-x="651" 
d="M369 1273l208 -239h-190l-312 239h294z" />
    <glyph glyph-name="a" unicode="a" horiz-adv-x="1188" 
d="M1099 0h-181v160q-107 -184 -326 -184q-217 0 -367.5 150.5t-150.5 355.5q0 207 150.5 357t367.5 150q219 0 326 -182v107h181v-914zM918 410v146q-19 99 -91 171q-101 102 -235 102q-135 0 -234 -100t-99 -247q0 -146 99 -245t234 -99q134 0 235 101q72 72 91 171z" />
    <glyph glyph-name="b" unicode="b" horiz-adv-x="1197" 
d="M99 1439h181v-630q107 180 325 180t368 -150t150 -357q0 -205 -150 -355.5t-368 -150.5t-325 181v-157h-181v1439zM280 559v-154q18 -96 93 -170q98 -97 232 -97t233.5 99t99.5 245q0 147 -99.5 247t-233.5 100t-236 -102q-71 -71 -89 -168z" />
    <glyph glyph-name="c" unicode="c" horiz-adv-x="1074" 
d="M850 292l172 -63q-51 -69 -81 -100q-152 -153 -371 -153q-217 0 -367.5 150.5t-150.5 356.5t150.5 356t367.5 150q219 0 367 -148q34 -34 85 -103l-172 -64q-36 45 -49 59q-97 96 -231 96t-233 -99.5t-99 -246.5q0 -146 99 -245.5t233 -99.5t235 101q9 9 45 53z" />
    <glyph glyph-name="d" unicode="d" horiz-adv-x="1188" 
d="M1099 0h-181v160q-107 -184 -326 -184q-217 0 -367.5 150.5t-150.5 355.5q0 207 150.5 357t367.5 150q219 0 326 -182v632h181v-1439zM918 410v146q-19 99 -91 171q-101 102 -235 102q-135 0 -234 -100t-99 -247q0 -146 99 -245t234 -99q134 0 235 101q72 72 91 171z" />
    <glyph glyph-name="e" unicode="e" horiz-adv-x="1108" 
d="M269 643h599q-64 186 -298 186q-235 0 -301 -186zM237 485v-3q0 -146 99 -245t234 -99q134 0 235 101q14 14 54 63l170 -60q-38 -64 -88 -113q-152 -153 -371 -153q-217 0 -367.5 150.5t-150.5 355.5q0 207 150.5 357t367.5 150q219 0 371 -152q131 -132 131 -352h-835z
" />
    <glyph glyph-name="f" unicode="f" horiz-adv-x="480" 
d="M287 758v-758h-181v758h-84v156h84v187q7 107 84 186q87 80 201 80q88 0 162 -36l-53 -150q-61 35 -102 35q-36 0 -73 -33q-35 -36 -38 -89v-180h170v-156h-170z" />
    <glyph glyph-name="g" unicode="g" horiz-adv-x="1149" 
d="M895 559q-20 97 -94 172q-97 98 -231 98q-135 0 -234 -100t-99 -247q0 -146 99 -245.5t234 -99.5q134 0 235 101q70 70 90 166v155zM883 155q-94 -179 -313 -179q-217 0 -367.5 150.5t-150.5 355.5q0 207 150.5 356.5t367.5 149.5q218 0 326 -181v107h181v-688
q0 -201 -145 -345q-152 -153 -370 -153t-367 149q-34 35 -86 104l173 63q35 -44 49 -56q97 -98 231 -98q283 0 321 265z" />
    <glyph glyph-name="h" unicode="h" horiz-adv-x="936" 
d="M94 1439h181v-525q46 50 190 50q173 0 279 -106t108 -259v-599h-180v591q0 93 -63 154.5t-144 61.5q-80 0 -141 -58q-35 -35 -49 -67v-682h-181v1439z" />
    <glyph glyph-name="i" unicode="i" horiz-adv-x="415" 
d="M297 914v-914h-180v914h180zM299.5 1174.5q36.5 -35.5 36.5 -79.5q0 -46 -36.5 -81.5t-91.5 -35.5q-57 0 -93 35.5t-36 81.5q0 44 36 79.5t93 35.5q55 0 91.5 -35.5z" />
    <glyph glyph-name="j" unicode="j" horiz-adv-x="379" 
d="M-11 -43q103 12 103 81v876h180v-874q0 -208 -283 -231v148zM274 1174.5q36 -35.5 36 -79.5q0 -46 -36 -81.5t-92 -35.5t-92.5 35.5t-36.5 81.5q0 44 36.5 79.5t92.5 35.5t92 -35.5z" />
    <glyph glyph-name="k" unicode="k" horiz-adv-x="744" 
d="M650 914l-240 -298l348 -616h-207l-258 472l-13 -17v-455h-181v1269h181v-541l151 186h219z" />
    <glyph glyph-name="l" unicode="l" horiz-adv-x="401" 
d="M291 1439v-1439h-181v1439h181z" />
    <glyph glyph-name="m" unicode="m" horiz-adv-x="1214" 
d="M280 753v-753h-181v914h113q74 49 184 49q128 0 211 -64q81 64 209 64t216 -88q79 -81 83 -190v-685h-181v724q-12 83 -118 83q-88 0 -121 -78v-729h-181v724h-1q-11 83 -117 83q-74 0 -116 -54z" />
    <glyph glyph-name="n" unicode="n" 
d="M280 682v-682h-181v914h181q46 50 190 50q173 0 279 -106t108 -259v-599h-180v591q0 93 -63 154.5t-144 61.5q-80 0 -141 -58q-35 -35 -49 -67z" />
    <glyph glyph-name="o" unicode="o" horiz-adv-x="1179" 
d="M590 989q219 0 368 -150t149 -357q0 -205 -149 -355.5t-368 -150.5q-217 0 -367.5 150.5t-150.5 355.5q0 207 150.5 357t367.5 150zM356 729q-99 -100 -99 -247q0 -146 99 -245t234 -99q134 0 233.5 99t99.5 245q0 147 -99.5 247t-233.5 100q-135 0 -234 -100z" />
    <glyph glyph-name="p" unicode="p" horiz-adv-x="1176" 
d="M92 914h181v-105q107 179 325 179t368 -149.5t150 -356.5q0 -205 -150 -355.5t-368 -150.5t-325 181v-475h-181v1232zM273 559v-154q18 -97 93 -171q98 -97 232 -97t233.5 99.5t99.5 245.5q0 147 -99.5 247t-233.5 100t-236 -102q-71 -71 -89 -168z" />
    <glyph glyph-name="q" unicode="q" horiz-adv-x="1173" 
d="M1085 -318h-181v478q-107 -184 -326 -184q-217 0 -367.5 150.5t-150.5 355.5q0 207 150.5 356.5t367.5 149.5q218 0 326 -181v107h181v-1232zM904 410v146q-19 99 -91 171q-101 102 -235 102q-135 0 -234 -100t-99 -247q0 -146 99 -245.5t234 -99.5q134 0 235 101
q72 72 91 172z" />
    <glyph glyph-name="r" unicode="r" horiz-adv-x="570" 
d="M518 778q-124 -19 -192 -98.5t-68 -199.5v-480h-181v914h181v-130q40 107 172 149z" />
    <glyph glyph-name="s" unicode="s" horiz-adv-x="727" 
d="M334 456q-102 56 -140 94q-74 74 -74 170q0 95 72 168t180 73t174 -67q68 -68 68 -149v-28l-162 -66q-15 113 -34.5 133t-45.5 20t-49 -23t-23 -61t26 -64q17 -18 79 -57q113 -62 165 -113q82 -84 82 -198q0 -117 -85 -203t-213 -86t-213.5 86t-85.5 215l180 45
q0 -116 37 -153t82 -37t82.5 37t37.5 96q0 57 -40 96q-24 23 -100 72z" />
    <glyph glyph-name="t" unicode="t" horiz-adv-x="584" 
d="M202 914v355h180v-355h170v-156h-170v-758h-180v758h-170v156h170z" />
    <glyph glyph-name="u" unicode="u" 
d="M483 -12q-182 0 -287.5 106t-108.5 260v561h181v-554q0 -92 65 -156q61 -61 149 -61q80 0 143 62.5t63 154.5v554h181v-561q-3 -154 -110 -262q-104 -104 -276 -104z" />
    <glyph glyph-name="v" unicode="v" horiz-adv-x="926" 
d="M926 914l-408 -914h-114l-404 914h199l262 -609l266 609h199z" />
    <glyph glyph-name="w" unicode="w" horiz-adv-x="1184" 
d="M1185 914l-311 -914h-127l-155 433l-154 -433h-129l-309 914h195l183 -568l154 426h122l153 -426l182 568h196z" />
    <glyph glyph-name="x" unicode="x" horiz-adv-x="800" 
d="M298 481l-269 433h204l167 -269l167 269h204l-270 -433l299 -481h-203l-197 317l-197 -317h-203z" />
    <glyph glyph-name="y" unicode="y" horiz-adv-x="896" 
d="M307 -317h-195l238 512l-335 719h195l238 -505l238 505h195z" />
    <glyph glyph-name="z" unicode="z" horiz-adv-x="850" 
d="M492 746h-402v156h693l-431 -745h436v-157h-726z" />
    <glyph glyph-name="braceleft" unicode="{" horiz-adv-x="605" 
d="M90 767q135 27 135 281v31q0 460 325 496v-132q-150 -40 -150 -379v-41q0 -234 -70 -293q70 -59 70 -293v-40q0 -340 150 -379v-133q-325 37 -325 496v31q0 254 -135 282v73z" />
    <glyph glyph-name="bar" unicode="|" horiz-adv-x="581" 
d="M381 1439v-1560h-181v1560h181z" />
    <glyph glyph-name="braceright" unicode="}" horiz-adv-x="605" 
d="M515 694q-135 -28 -135 -282v-31q0 -459 -325 -496v133q150 39 150 379v40q0 234 70 293q-70 59 -70 293v41q0 339 -150 379v132q325 -36 325 -496v-31q0 -254 135 -281v-73z" />
    <glyph glyph-name="asciitilde" unicode="~" horiz-adv-x="1129" 
d="M594 804q146 -86 202 -86q3 0 4 1q41 12 60 58q10 27 10 104l184 -29q-6 -79 -24 -126q-47 -113 -163 -151q-31 -10 -66 -10q-106 0 -267 92q-147 84 -202 84h-7q-38 -12 -56 -58q-12 -28 -12 -104l-182 30q4 78 22 125q47 112 164 151q30 10 66 10q106 0 267 -91z" />
    <glyph glyph-name="exclamdown" unicode="&#xa1;" horiz-adv-x="367" 
d="M85 1254.5q-36 35.5 -36 80.5t36 80.5t92 35.5t92.5 -35.5t36.5 -80.5t-36.5 -80.5t-92.5 -35.5t-92 35.5zM88 0v1105h181v-1105h-181z" />
    <glyph glyph-name="cent" unicode="&#xa2;" horiz-adv-x="1166" 
d="M483 642v484q-2 -4 -50 -51q-77 -78 -77 -191q0 -112 77 -189q48 -49 50 -53zM663 622q44 1 121 77q4 5 40 49l166 -61q-51 -68 -76 -94q-125 -125 -251 -127v-131h-180v144q-89 17 -185 114q-122 121 -122 291t127 296q91 93 180 109v145h180v-132q126 0 251 -126
q25 -25 76 -93l-166 -62q-36 45 -45 55q-71 70 -116 71v-525z" />
    <glyph glyph-name="sterling" unicode="&#xa3;" horiz-adv-x="966" 
d="M351 157h545v-157h-794v128q168 165 168 297q0 42 -1 46h-199v157h165q-9 30 -48 105q-97 159 -111 338q0 130 87 235q112 121 280 128q12 1 27 1q151 0 274 -102l-71 -160q-110 106 -199 106h-14q-96 -4 -148 -67q-52 -62 -52 -138q9 -116 64 -230q75 -120 98 -216h176
v-157h-148v-39q0 -158 -99 -275z" />
    <glyph glyph-name="currency" unicode="&#xa4;" horiz-adv-x="1168" 
d="M373 1055q66 54 211 54t210 -54l122 122l120 -120l-120 -120q65 -78 65 -213q0 -134 -65 -213l120 -120l-120 -119l-121 122q-66 -55 -211 -55t-211 55l-121 -122l-120 119l120 120q-65 79 -65 213q0 135 65 213l-120 120l120 120zM709 910q-55 43 -125 43
q-71 0 -125 -43q-13 -9 -27 -23q-8 -8 -18 -22q-46 -60 -46 -141t46 -140q9 -13 22 -25q12 -12 24 -22q53 -41 124 -41q70 0 124 42q13 9 29 25q7 7 16 20q47 60 47 141t-47 142q-10 14 -20 25q-10 10 -24 19z" />
    <glyph glyph-name="yen" unicode="&#xa5;" horiz-adv-x="1187" 
d="M503 565h-300v156h220l-414 718h201l383 -668l385 668h200l-415 -718h222v-156h-301v-72h301v-157h-301v-336h-181v336h-300v157h300v72z" />
    <glyph glyph-name="brokenbar" unicode="&#xa6;" horiz-adv-x="581" 
d="M381 1439v-716h-181v716h181zM381 590v-716h-181v716h181z" />
    <glyph glyph-name="section" unicode="&#xa7;" horiz-adv-x="1140" 
d="M840 317q10 1 10 125q0 121 -85 206q-77 77 -187 122q-156 53 -243 141l-31 15q-13 0 -13 -121q0 -122 81 -203q80 -81 190 -126q156 -53 249 -145zM236 1108q-1 5 -1 35q0 131 98 223.5t242 92.5q141 0 243 -88q54 -53 85 -147l-162 -66q-30 83 -58 111q-46 45 -108 45
q-63 0 -111 -48t-48 -123t50 -125q51 -51 141 -93q173 -56 293 -176q128 -128 128 -307q0 -181 -90 -272q-31 -31 -34 -32q1 -5 1 -35q0 -130 -97.5 -223t-241.5 -93q-142 0 -243 89q-55 52 -84 148l160 63q30 -81 58 -110q46 -45 109 -45t111 48t48 123t-51 125
q-51 52 -141 93q-172 56 -292 177q-129 128 -129 307q0 181 87 266q34 36 37 37z" />
    <glyph glyph-name="dieresis" unicode="&#xa8;" horiz-adv-x="691" 
d="M295.5 1235.5q36.5 -35.5 36.5 -79.5q0 -46 -36.5 -81.5t-91.5 -35.5q-57 0 -93 35.5t-36 81.5q0 44 36 79.5t93 35.5q55 0 91.5 -35.5zM580 1235.5q36 -35.5 36 -79.5q0 -46 -36 -81.5t-92 -35.5t-92.5 35.5t-36.5 81.5q0 44 36.5 79.5t92.5 35.5t92 -35.5z" />
    <glyph glyph-name="copyright" unicode="&#xa9;" horiz-adv-x="1276" 
d="M815 488l161 -62q-52 -69 -70 -88q-101 -102 -245 -102t-242 98.5t-98 230.5t98 229.5t242 97.5t245 -100q19 -21 70 -90l-160 -59q-38 43 -45 51q-47 46 -110 46q-65 0 -114.5 -49.5t-49.5 -125.5t50 -126t114 -50q63 0 115 51q2 3 39 48zM1056 970q170 -171 170 -406
t-170.5 -405.5t-417.5 -170.5t-417.5 170.5t-170.5 405.5t170.5 406t417.5 171q248 0 418 -171zM638 988q-166 0 -288.5 -122.5t-122.5 -301.5t122.5 -301t288.5 -122q167 0 289 122t122 301t-122 301.5t-289 122.5z" />
    <glyph glyph-name="ordfeminine" unicode="&#xaa;" horiz-adv-x="639" 
d="M605 905h-162v71q-12 -83 -131 -83t-199 80.5t-80 186.5q0 107 80 187t199 80t131 -83v46h162v-485zM423 1130v60q-7 36 -34 64q-34 33 -77 33q-44 0 -79.5 -35.5t-35.5 -91.5t35 -91t80 -35q43 0 77 33q27 28 34 63z" />
    <glyph glyph-name="guillemotleft" unicode="&#xab;" horiz-adv-x="903" 
d="M347 449l501 531v-244l-267 -287l267 -287v-245zM55 449l496 532v-245l-268 -287l268 -287v-246z" />
    <glyph glyph-name="logicalnot" unicode="&#xac;" horiz-adv-x="1142" 
d="M1011 281h-181v326h-691v156h872v-482z" />
    <glyph glyph-name="registered" unicode="&#xae;" horiz-adv-x="1236" 
d="M611 1003v-105h14q70 0 73 60q0 45 -63 45h-24zM611 671v-108h-188v586h195q250 -2 264 -195q0 -145 -134 -176q72 -122 142 -122q8 0 16 2q77 16 102 209q0 168 -115.5 284.5t-274.5 116.5q-158 0 -274 -116.5t-116 -286.5q0 -80 26 -149q29 -77 90 -138
q110 -110 350 -116h25q18 0 38 3q1 1 177 -100l-12 -6q-13 -6 -27 -11q-26 -10 -51 -18q-13 -4 -26 -7q-29 -8 -58 -11h-3q-26 -4 -53 -4h-16q-313 4 -473 165q-104 103 -142 232q-23 76 -23 160q0 228 165 387.5t403 159.5t403 -159.5t165 -389.5q-32 -314 -266 -343
q-23 -3 -46 -3q-162 0 -263 154z" />
    <glyph glyph-name="macron" unicode="&#xaf;" horiz-adv-x="754" 
d="M75 1092h604v-157h-604v157z" />
    <glyph glyph-name="degree" unicode="&#xb0;" horiz-adv-x="474" 
d="M375.5 1329q54.5 -55 54.5 -126q0 -72 -54.5 -126.5t-138.5 -54.5t-138.5 54.5t-54.5 126.5q0 71 54.5 126t138.5 55t138.5 -55zM237 1276q-33 0 -55 -22.5t-22 -50.5t22 -50t55 -22q34 0 55.5 22t21.5 50t-21.5 50.5t-55.5 22.5z" />
    <glyph glyph-name="plusminus" unicode="&#xb1;" horiz-adv-x="1138" 
d="M479 221v388h-394v156h394v395h180v-395h394v-156h-394v-388h-180zM85 0v157h968v-157h-968z" />
    <glyph glyph-name="uni00B2" unicode="&#xb2;" horiz-adv-x="879" 
d="M133 566q423 495 423 615q-3 95 -83 96q-54 -3 -92 -75l-169 70q96 146 260 153q274 -6 274 -240q0 -164 -274 -473h274v-146h-613z" />
    <glyph glyph-name="uni00B3" unicode="&#xb3;" horiz-adv-x="836" 
d="M384 993h-99v144q101 1 117 7t39 28t23 53t-18 47t-38 16t-35 -13q-12 -11 -43 -83l-165 60q28 83 67 118q72 65 176 65q105 0 174 -64t69 -146q0 -122 -68 -130l65 -65q84 -83 84 -190q0 -110 -89.5 -193t-222.5 -83t-225 86q-70 64 -90 185l181 62q15 -121 49 -153
q36 -31 85 -31t87 34.5t38 92.5q0 57 -40.5 97.5t-120.5 55.5z" />
    <glyph glyph-name="acute" unicode="&#xb4;" horiz-adv-x="652" 
d="M577 1273l-313 -239h-189l208 239h294z" />
    <glyph glyph-name="mu" unicode="&#xb5;" horiz-adv-x="893" 
d="M636 77q-25 -85 -197 -85q-161 0 -180 19v-329h-181v1232h181v-654q11 -25 39 -53q60 -58 141 -58q80 0 142 60q41 41 55 90v615h179v-914h-179v77z" />
    <glyph glyph-name="paragraph" unicode="&#xb6;" horiz-adv-x="1236" 
d="M829 1284v-1535h-180v723h-77q-209 0 -352 143.5t-143 340.5t145 342q117 117 296 141h21v1h620v-156h-74v-1535h-181v1535h-75z" />
    <glyph glyph-name="periodcentered" unicode="&#xb7;" horiz-adv-x="344" 
d="M256 792q33 -32 33 -72q0 -41 -33 -73t-84 -32t-84 32t-33 73q0 40 33 72t84 32t84 -32z" />
    <glyph glyph-name="periodcentered" unicode="&#x2219;" horiz-adv-x="344" 
d="M256 792q33 -32 33 -72q0 -41 -33 -73t-84 -32t-84 32t-33 73q0 40 33 72t84 32t84 -32z" />
    <glyph glyph-name="cedilla" unicode="&#xb8;" horiz-adv-x="494" 
d="M170 -127l31 172h109l-27 -70q58 -4 95 -81q16 -34 16 -66q0 -30 -14 -57q-32 -64 -119 -78q-27 -4 -52 -4q-46 0 -81 15q-13 6 -28 14l55 84q15 -8 35 -8q25 0 43 12t18 29q0 16 -18 28t-43 12q-11 0 -20 -2z" />
    <glyph glyph-name="uni00B9" unicode="&#xb9;" horiz-adv-x="836" 
d="M327 692v463l-16 -10l-137 91l338 226v-770h177v-145h-542v145h180z" />
    <glyph glyph-name="ordmasculine" unicode="&#xba;" horiz-adv-x="649" 
d="M312 1287q-44 0 -79.5 -35.5t-35.5 -91.5t35 -91t80 -35h25q44 0 79.5 35t35.5 91t-35.5 91.5t-79.5 35.5h-25zM312 893q-119 0 -199 80.5t-80 186.5q0 107 80 187t199 80h25q118 0 198 -80t80 -187q0 -106 -80 -186.5t-198 -80.5h-25z" />
    <glyph glyph-name="guillemotright" unicode="&#xbb;" horiz-adv-x="903" 
d="M55 -83v245l266 287l-266 287v244l502 -531zM353 -84v246l267 287l-267 287v245l495 -532z" />
    <glyph glyph-name="onequarter" unicode="&#xbc;" horiz-adv-x="1998" 
d="M327 692v463l-16 -10l-137 91l338 226v-770h177v-145h-542v145h180zM1684 1439l-1032 -1439h-216l1030 1439h218zM1807 1054v-716h78v-145h-78v-193h-185v193h-376zM1622 457l-77 -119h77v119z" />
    <glyph glyph-name="onehalf" unicode="&#xbd;" horiz-adv-x="2012" 
d="M327 692v463l-16 -10l-137 91l338 226v-770h177v-145h-542v145h180zM1684 1439l-1032 -1439h-216l1030 1439h218zM1266 0q423 495 423 615q-3 95 -83 96q-54 -3 -92 -75l-169 70q96 146 260 153q274 -6 274 -240q0 -164 -274 -473h274v-146h-613z" />
    <glyph glyph-name="threequarters" unicode="&#xbe;" horiz-adv-x="1998" 
d="M384 993h-99v144q101 1 117 7t39 28t23 53t-18 47t-38 16t-35 -13q-12 -11 -43 -83l-165 60q28 83 67 118q72 65 176 65q105 0 174 -64t69 -146q0 -122 -68 -130l65 -65q84 -83 84 -190q0 -110 -89.5 -193t-222.5 -83t-225 86q-70 64 -90 185l181 62q15 -121 49 -153
q36 -31 85 -31t87 34.5t38 92.5q0 57 -40.5 97.5t-120.5 55.5zM1684 1439l-1032 -1439h-216l1030 1439h218zM1807 1054v-716h78v-145h-78v-193h-185v193h-376zM1622 457l-77 -119h77v119z" />
    <glyph glyph-name="questiondown" unicode="&#xbf;" horiz-adv-x="832" 
d="M405 1238.5q-36 -35.5 -92 -35.5t-92.5 35.5t-36.5 80.5t36.5 80.5t92.5 35.5t92 -35.5t36 -80.5t-36 -80.5zM229 347q3 -72 12 -96q24 -66 85 -95q31 -14 62 -14q25 0 52 9q62 23 92 79q19 35 19 77q0 28 -8 59q-23 82 -186 284q-150 185 -150 385q0 14 3 66h181
q-6 -61 -6 -78q0 -142 127 -299q155 -193 196 -296q24 -60 24 -119q0 -57 -23 -120q-46 -120 -177 -175q-67 -26 -136 -26q-68 0 -135 26q-134 53 -191 192q-16 39 -18 141h177z" />
    <glyph glyph-name="Agrave" unicode="&#xc0;" horiz-adv-x="1208" 
d="M743 754l-138 382l-139 -382h277zM684 1439l521 -1439h-188l-217 598h-391l-221 -598h-189l528 1439h157zM562 1798l208 -239h-190l-312 239h294z" />
    <glyph glyph-name="Aacute" unicode="&#xc1;" horiz-adv-x="1208" 
d="M743 754l-138 382l-139 -382h277zM684 1439l521 -1439h-188l-217 598h-391l-221 -598h-189l528 1439h157zM937 1798l-313 -239h-189l208 239h294z" />
    <glyph glyph-name="Acircumflex" unicode="&#xc2;" horiz-adv-x="1208" 
d="M743 754l-138 382l-139 -382h277zM684 1439l521 -1439h-188l-217 598h-391l-221 -598h-189l528 1439h157zM946 1560h-231l-117 87l-110 -87h-230l338 278z" />
    <glyph glyph-name="Atilde" unicode="&#xc3;" horiz-adv-x="1208" 
d="M743 754l-138 382l-139 -382h277zM684 1439l521 -1439h-188l-217 598h-391l-221 -598h-189l528 1439h157zM534 1631q-2 -22 -2 -77l-167 36q2 71 11 98q23 70 86 96q22 10 49 10q59 0 135 -55q14 -10 23 -16q1 22 1 75l169 -33q-4 -72 -13 -99q-22 -70 -87 -98
q-24 -8 -47 -8q-59 0 -136 55q-13 10 -22 16z" />
    <glyph glyph-name="Adieresis" unicode="&#xc4;" horiz-adv-x="1208" 
d="M743 754l-138 382l-139 -382h277zM684 1439l521 -1439h-188l-217 598h-391l-221 -598h-189l528 1439h157zM552.5 1760.5q36.5 -35.5 36.5 -79.5q0 -46 -36.5 -81.5t-91.5 -35.5q-57 0 -93 35.5t-36 81.5q0 44 36 79.5t93 35.5q55 0 91.5 -35.5zM837 1760.5
q36 -35.5 36 -79.5q0 -46 -36 -81.5t-92 -35.5t-92.5 35.5t-36.5 81.5q0 44 36.5 79.5t92.5 35.5t92 -35.5z" />
    <glyph glyph-name="Aring" unicode="&#xc5;" horiz-adv-x="1208" 
d="M743 754l-138 382l-139 -382h277zM602 1549q-21 0 -34.5 -13.5t-13.5 -31.5q0 -17 13.5 -30.5t34.5 -13.5t34.5 13.5t13.5 30.5q0 18 -13.5 31.5t-34.5 13.5zM703 1388l502 -1388h-188l-217 598h-391l-221 -598h-189l508 1384q-11 8 -20 17q-45 45 -45 103t45 103.5
t115 45.5t115.5 -45.5t45.5 -103.5t-45 -103q-8 -7 -15 -13z" />
    <glyph glyph-name="AE" unicode="&#xc6;" horiz-adv-x="1514" 
d="M1402 798v-157h-602v-484h602v-157h-782v521h-199l-231 -521h-191l625 1439h778v-157h-602v-484h602zM620 677v317l-136 -317h136z" />
    <glyph glyph-name="Ccedilla" unicode="&#xc7;" horiz-adv-x="1419" 
d="M661 -1q-212 43 -370 202q-217 216 -217 519q0 300 216.5 518t530.5 218q292 0 535 -222l-126 -112q-198 175 -409 175q-230 0 -397.5 -167.5t-167.5 -409.5q0 -244 167.5 -411t397.5 -167q211 0 409 175l126 -112q-243 -221 -535 -221q-33 0 -66 2l-4 -11q58 -4 95 -81
q16 -34 16 -66q0 -30 -14 -57q-32 -64 -119 -78q-27 -4 -52 -4q-46 0 -81 15q-13 6 -28 14l55 84q15 -8 35 -8q25 0 43 12t18 29q0 16 -18 28t-43 12q-11 0 -20 -2z" />
    <glyph glyph-name="Egrave" unicode="&#xc8;" horiz-adv-x="1007" 
d="M895 1439v-157h-602v-484h602v-157h-602v-484h602v-157h-783v1439h783zM463 1798l208 -239h-190l-312 239h294z" />
    <glyph glyph-name="Eacute" unicode="&#xc9;" horiz-adv-x="1007" 
d="M895 1439v-157h-602v-484h602v-157h-602v-484h602v-157h-783v1439h783zM838 1798l-313 -239h-189l208 239h294z" />
    <glyph glyph-name="Ecircumflex" unicode="&#xca;" horiz-adv-x="1007" 
d="M895 1439v-157h-602v-484h602v-157h-602v-484h602v-157h-783v1439h783zM847 1560h-231l-117 87l-110 -87h-230l338 278z" />
    <glyph glyph-name="Edieresis" unicode="&#xcb;" horiz-adv-x="1007" 
d="M895 1439v-157h-602v-484h602v-157h-602v-484h602v-157h-783v1439h783zM453.5 1760.5q36.5 -35.5 36.5 -79.5q0 -46 -36.5 -81.5t-91.5 -35.5q-57 0 -93 35.5t-36 81.5q0 44 36 79.5t93 35.5q55 0 91.5 -35.5zM738 1760.5q36 -35.5 36 -79.5q0 -46 -36 -81.5t-92 -35.5
t-92.5 35.5t-36.5 81.5q0 44 36.5 79.5t92.5 35.5t92 -35.5z" />
    <glyph glyph-name="Igrave" unicode="&#xcc;" horiz-adv-x="425" 
d="M303 1439v-1439h-181v1439h181zM172 1798l208 -239h-190l-312 239h294z" />
    <glyph glyph-name="Iacute" unicode="&#xcd;" horiz-adv-x="425" 
d="M303 1439v-1439h-181v1439h181zM547 1798l-313 -239h-189l208 239h294z" />
    <glyph glyph-name="Icircumflex" unicode="&#xce;" horiz-adv-x="425" 
d="M303 1439v-1439h-181v1439h181zM556 1560h-231l-117 87l-110 -87h-230l338 278z" />
    <glyph glyph-name="Idieresis" unicode="&#xcf;" horiz-adv-x="425" 
d="M303 1439v-1439h-181v1439h181zM162.5 1760.5q36.5 -35.5 36.5 -79.5q0 -46 -36.5 -81.5t-91.5 -35.5q-57 0 -93 35.5t-36 81.5q0 44 36 79.5t93 35.5q55 0 91.5 -35.5zM447 1760.5q36 -35.5 36 -79.5q0 -46 -36 -81.5t-92 -35.5t-92.5 35.5t-36.5 81.5q0 44 36.5 79.5
t92.5 35.5t92 -35.5z" />
    <glyph glyph-name="Eth" unicode="&#xd0;" horiz-adv-x="1298" 
d="M324 641v-482h121q269 0 421 148q170 169 170 413q0 242 -170 413q-152 146 -421 146h-121v-481h472v-157h-472zM143 798v641h304q360 -2 560 -203q214 -216 214 -516q0 -303 -218 -522q-196 -196 -556 -198h-304v641h-123v157h123z" />
    <glyph glyph-name="Ntilde" unicode="&#xd1;" horiz-adv-x="1398" 
d="M288 1439l820 -1150v1150h181v-1439h-200l-799 1121v-1121h-181v1439h179zM631 1631q-2 -22 -2 -77l-167 36q2 71 11 98q23 70 86 96q22 10 49 10q59 0 135 -55q14 -10 23 -16q1 22 1 75l169 -33q-4 -72 -13 -99q-22 -70 -87 -98q-24 -8 -47 -8q-59 0 -136 55
q-13 10 -22 16z" />
    <glyph glyph-name="Ograve" unicode="&#xd2;" horiz-adv-x="1621" 
d="M1341.5 1241q217.5 -218 217.5 -519q0 -303 -217.5 -520.5t-531.5 -217.5q-313 0 -530.5 217.5t-217.5 520.5q0 301 217.5 519t530.5 218q314 0 531.5 -218zM810 1301q-230 0 -398 -168.5t-168 -410.5q0 -244 168 -412t398 -168q231 0 399 168t168 412q0 242 -168 410.5
t-399 168.5zM770 1798l208 -239h-190l-312 239h294z" />
    <glyph glyph-name="Oacute" unicode="&#xd3;" horiz-adv-x="1621" 
d="M1341.5 1241q217.5 -218 217.5 -519q0 -303 -217.5 -520.5t-531.5 -217.5q-313 0 -530.5 217.5t-217.5 520.5q0 301 217.5 519t530.5 218q314 0 531.5 -218zM810 1301q-230 0 -398 -168.5t-168 -410.5q0 -244 168 -412t398 -168q231 0 399 168t168 412q0 242 -168 410.5
t-399 168.5zM1145 1798l-313 -239h-189l208 239h294z" />
    <glyph glyph-name="Ocircumflex" unicode="&#xd4;" horiz-adv-x="1621" 
d="M1341.5 1241q217.5 -218 217.5 -519q0 -303 -217.5 -520.5t-531.5 -217.5q-313 0 -530.5 217.5t-217.5 520.5q0 301 217.5 519t530.5 218q314 0 531.5 -218zM810 1301q-230 0 -398 -168.5t-168 -410.5q0 -244 168 -412t398 -168q231 0 399 168t168 412q0 242 -168 410.5
t-399 168.5zM1154 1560h-231l-117 87l-110 -87h-230l338 278z" />
    <glyph glyph-name="Otilde" unicode="&#xd5;" horiz-adv-x="1621" 
d="M1341.5 1241q217.5 -218 217.5 -519q0 -303 -217.5 -520.5t-531.5 -217.5q-313 0 -530.5 217.5t-217.5 520.5q0 301 217.5 519t530.5 218q314 0 531.5 -218zM810 1301q-230 0 -398 -168.5t-168 -410.5q0 -244 168 -412t398 -168q231 0 399 168t168 412q0 242 -168 410.5
t-399 168.5zM742 1631q-2 -22 -2 -77l-167 36q2 71 11 98q23 70 86 96q22 10 49 10q59 0 135 -55q14 -10 23 -16q1 22 1 75l169 -33q-4 -72 -13 -99q-22 -70 -87 -98q-24 -8 -47 -8q-59 0 -136 55q-13 10 -22 16z" />
    <glyph glyph-name="Odieresis" unicode="&#xd6;" horiz-adv-x="1621" 
d="M1341.5 1241q217.5 -218 217.5 -519q0 -303 -217.5 -520.5t-531.5 -217.5q-313 0 -530.5 217.5t-217.5 520.5q0 301 217.5 519t530.5 218q314 0 531.5 -218zM810 1301q-230 0 -398 -168.5t-168 -410.5q0 -244 168 -412t398 -168q231 0 399 168t168 412q0 242 -168 410.5
t-399 168.5zM760.5 1760.5q36.5 -35.5 36.5 -79.5q0 -46 -36.5 -81.5t-91.5 -35.5q-57 0 -93 35.5t-36 81.5q0 44 36 79.5t93 35.5q55 0 91.5 -35.5zM1045 1760.5q36 -35.5 36 -79.5q0 -46 -36 -81.5t-92 -35.5t-92.5 35.5t-36.5 81.5q0 44 36.5 79.5t92.5 35.5t92 -35.5z
" />
    <glyph glyph-name="multiply" unicode="&#xd7;" horiz-adv-x="1172" 
d="M585 567l-277 -277l-120 118l279 279l-279 279l120 118l277 -277l279 277l120 -118l-279 -279l279 -279l-120 -118z" />
    <glyph glyph-name="Oslash" unicode="&#xd8;" horiz-adv-x="1693" 
d="M1009 1280q-52 21 -163 21q-230 0 -398 -168.5t-168 -410.5q0 -244 166 -411q65 -64 79 -73zM683 162q53 -20 163 -20q231 0 399 168t168 412q0 242 -170 414q-61 60 -75 68zM1237 1353q61 -33 143 -114q215 -216 215 -517q0 -303 -217.5 -520.5t-531.5 -217.5
q-152 0 -231 32l-74 -160l-159 76l74 158q-62 33 -143 114q-215 215 -215 518q0 301 217.5 519t530.5 218q152 0 232 -32l74 158l159 -73z" />
    <glyph glyph-name="Ugrave" unicode="&#xd9;" horiz-adv-x="1214" 
d="M921 1439h181v-1018q-23 -169 -145 -291q-141 -142 -349 -142q-210 0 -353 143.5t-143 340.5v967h181v-967q0 -138 94 -232.5t221 -94.5q126 0 219.5 94.5t93.5 232.5v967zM567 1798l208 -239h-190l-312 239h294z" />
    <glyph glyph-name="Uacute" unicode="&#xda;" horiz-adv-x="1214" 
d="M921 1439h181v-1018q-23 -169 -145 -291q-141 -142 -349 -142q-210 0 -353 143.5t-143 340.5v967h181v-967q0 -138 94 -232.5t221 -94.5q126 0 219.5 94.5t93.5 232.5v967zM942 1798l-313 -239h-189l208 239h294z" />
    <glyph glyph-name="Ucircumflex" unicode="&#xdb;" horiz-adv-x="1214" 
d="M921 1439h181v-1018q-23 -169 -145 -291q-141 -142 -349 -142q-210 0 -353 143.5t-143 340.5v967h181v-967q0 -138 94 -232.5t221 -94.5q126 0 219.5 94.5t93.5 232.5v967zM951 1560h-231l-117 87l-110 -87h-230l338 278z" />
    <glyph glyph-name="Udieresis" unicode="&#xdc;" horiz-adv-x="1214" 
d="M921 1439h181v-1018q-23 -169 -145 -291q-141 -142 -349 -142q-210 0 -353 143.5t-143 340.5v967h181v-967q0 -138 94 -232.5t221 -94.5q126 0 219.5 94.5t93.5 232.5v967zM557.5 1760.5q36.5 -35.5 36.5 -79.5q0 -46 -36.5 -81.5t-91.5 -35.5q-57 0 -93 35.5t-36 81.5
q0 44 36 79.5t93 35.5q55 0 91.5 -35.5zM842 1760.5q36 -35.5 36 -79.5q0 -46 -36 -81.5t-92 -35.5t-92.5 35.5t-36.5 81.5q0 44 36.5 79.5t92.5 35.5t92 -35.5z" />
    <glyph glyph-name="Yacute" unicode="&#xdd;" horiz-adv-x="1233" 
d="M526 582l-494 857h200l385 -666l384 666h200l-494 -857v-582h-181v582zM951 1798l-313 -239h-189l208 239h294z" />
    <glyph glyph-name="Thorn" unicode="&#xde;" horiz-adv-x="1019" 
d="M279 1204h231q180 -25 297 -142q145 -145 145 -341q0 -198 -143 -341.5t-352 -143.5h-178v-236h-181v1439h181v-235zM279 393h178q126 0 220 94.5t94 233.5q0 138 -94 232t-220 94h-178v-654z" />
    <glyph glyph-name="germandbls" unicode="&#xdf;" horiz-adv-x="1061" 
d="M531 1216q-80 0 -116.5 -34.5t-39.5 -87.5v-1094h-181v758h-84v156h84v187q7 108 88.5 187t246.5 79q290 -16 291 -267q0 -123 -115 -215q-90 -71 -90 -122q3 -44 171 -124q215 -104 215 -304q0 -166 -99 -254q-102 -93 -228 -93q-167 0 -279 114l121 118q75 -76 158 -76
q47 0 97 43q51 43 51 147q-8 125 -164 193q-217 95 -221 230q0 127 121 216q82 59 82 131q-1 99 -109 112z" />
    <glyph glyph-name="agrave" unicode="&#xe0;" horiz-adv-x="1188" 
d="M1099 0h-181v160q-107 -184 -326 -184q-217 0 -367.5 150.5t-150.5 355.5q0 207 150.5 357t367.5 150q219 0 326 -182v107h181v-914zM918 410v146q-19 99 -91 171q-101 102 -235 102q-135 0 -234 -100t-99 -247q0 -146 99 -245t234 -99q134 0 235 101q72 72 91 171z
M546 1273l208 -239h-190l-312 239h294z" />
    <glyph glyph-name="aacute" unicode="&#xe1;" horiz-adv-x="1188" 
d="M1099 0h-181v160q-107 -184 -326 -184q-217 0 -367.5 150.5t-150.5 355.5q0 207 150.5 357t367.5 150q219 0 326 -182v107h181v-914zM918 410v146q-19 99 -91 171q-101 102 -235 102q-135 0 -234 -100t-99 -247q0 -146 99 -245t234 -99q134 0 235 101q72 72 91 171z
M921 1273l-313 -239h-189l208 239h294z" />
    <glyph glyph-name="acircumflex" unicode="&#xe2;" horiz-adv-x="1188" 
d="M1099 0h-181v160q-107 -184 -326 -184q-217 0 -367.5 150.5t-150.5 355.5q0 207 150.5 357t367.5 150q219 0 326 -182v107h181v-914zM918 410v146q-19 99 -91 171q-101 102 -235 102q-135 0 -234 -100t-99 -247q0 -146 99 -245t234 -99q134 0 235 101q72 72 91 171z
M930 1035h-231l-117 87l-110 -87h-230l338 278z" />
    <glyph glyph-name="atilde" unicode="&#xe3;" horiz-adv-x="1188" 
d="M1099 0h-181v160q-107 -184 -326 -184q-217 0 -367.5 150.5t-150.5 355.5q0 207 150.5 357t367.5 150q219 0 326 -182v107h181v-914zM918 410v146q-19 99 -91 171q-101 102 -235 102q-135 0 -234 -100t-99 -247q0 -146 99 -245t234 -99q134 0 235 101q72 72 91 171z
M518 1106q-2 -22 -2 -77l-167 36q2 71 11 98q23 70 86 96q22 10 49 10q59 0 135 -55q14 -10 23 -16q1 22 1 75l169 -33q-4 -72 -13 -99q-22 -70 -87 -98q-24 -8 -47 -8q-59 0 -136 55q-13 10 -22 16z" />
    <glyph glyph-name="adieresis" unicode="&#xe4;" horiz-adv-x="1188" 
d="M1099 0h-181v160q-107 -184 -326 -184q-217 0 -367.5 150.5t-150.5 355.5q0 207 150.5 357t367.5 150q219 0 326 -182v107h181v-914zM918 410v146q-19 99 -91 171q-101 102 -235 102q-135 0 -234 -100t-99 -247q0 -146 99 -245t234 -99q134 0 235 101q72 72 91 171z
M536.5 1235.5q36.5 -35.5 36.5 -79.5q0 -46 -36.5 -81.5t-91.5 -35.5q-57 0 -93 35.5t-36 81.5q0 44 36 79.5t93 35.5q55 0 91.5 -35.5zM821 1235.5q36 -35.5 36 -79.5q0 -46 -36 -81.5t-92 -35.5t-92.5 35.5t-36.5 81.5q0 44 36.5 79.5t92.5 35.5t92 -35.5z" />
    <glyph glyph-name="aring" unicode="&#xe5;" horiz-adv-x="1188" 
d="M918 410v146q-19 99 -91 171q-101 102 -235 102q-135 0 -234 -100t-99 -247q0 -146 99 -245t234 -99q134 0 235 101q72 72 91 171zM586 1124q-21 0 -34.5 -13.5t-13.5 -31.5q0 -17 13.5 -30.5t34.5 -13.5t34.5 13.5t13.5 30.5q0 18 -13.5 31.5t-34.5 13.5zM918 807v107
h181v-914h-181v160q-107 -184 -326 -184q-217 0 -367.5 150.5t-150.5 355.5q0 207 151 357q106 106 246 137q-45 45 -45 103t45 103.5t115 45.5q71 0 116 -45.5t45 -103.5t-45 -103q138 -36 216 -169z" />
    <glyph glyph-name="ae" unicode="&#xe6;" horiz-adv-x="1908" 
d="M883 653q-24 42 -56 74q-101 102 -235 102q-135 0 -234 -100t-99 -247q0 -146 99 -245t234 -99q134 0 235 101q32 32 56 74q26 46 35 97v146q-9 51 -35 97zM1658 643q-10 31 -68 88q-96 98 -230 98q-135 0 -236 -102q-17 -16 -25 -29v-55h559zM1099 267q8 -12 29 -32
q97 -97 232 -97q134 0 231 97q18 18 56 68l171 -61q-38 -64 -88 -113q-152 -153 -370 -153q-206 0 -261 52v-28h-181v160q-107 -184 -326 -184q-217 0 -367.5 150.5t-150.5 355.5q0 207 150.5 357t367.5 150q219 0 326 -182v107h181q55 75 261 75q218 0 366 -148
q135 -136 142 -356l-769 1v-219z" />
    <glyph glyph-name="ccedilla" unicode="&#xe7;" horiz-adv-x="1074" 
d="M480 -17q-159 25 -277 144q-151 150 -151 356t150.5 356t367.5 150q219 0 367 -148q34 -34 85 -103l-172 -64q-36 45 -49 59q-97 96 -231 96t-233 -99.5t-99 -246.5q0 -146 99 -245.5t233 -99.5t235 101q9 9 45 53l172 -63q-51 -69 -81 -100q-151 -152 -368 -153v-1
q58 -4 95 -81q16 -34 16 -66q0 -30 -14 -57q-32 -64 -119 -78q-27 -4 -52 -4q-46 0 -81 15q-13 6 -28 14l55 84q15 -8 35 -8q25 0 43 12t18 29q0 16 -18 28t-43 12q-11 0 -20 -2z" />
    <glyph glyph-name="egrave" unicode="&#xe8;" horiz-adv-x="1108" 
d="M269 643h599q-64 186 -298 186q-235 0 -301 -186zM237 485v-3q0 -146 99 -245t234 -99q134 0 235 101q14 14 54 63l170 -60q-38 -64 -88 -113q-152 -153 -371 -153q-217 0 -367.5 150.5t-150.5 355.5q0 207 150.5 357t367.5 150q219 0 371 -152q131 -132 131 -352h-835z
M522 1273l208 -239h-190l-312 239h294z" />
    <glyph glyph-name="eacute" unicode="&#xe9;" horiz-adv-x="1108" 
d="M269 643h599q-64 186 -298 186q-235 0 -301 -186zM237 485v-3q0 -146 99 -245t234 -99q134 0 235 101q14 14 54 63l170 -60q-38 -64 -88 -113q-152 -153 -371 -153q-217 0 -367.5 150.5t-150.5 355.5q0 207 150.5 357t367.5 150q219 0 371 -152q131 -132 131 -352h-835z
M897 1273l-313 -239h-189l208 239h294z" />
    <glyph glyph-name="ecircumflex" unicode="&#xea;" horiz-adv-x="1108" 
d="M269 643h599q-64 186 -298 186q-235 0 -301 -186zM237 485v-3q0 -146 99 -245t234 -99q134 0 235 101q14 14 54 63l170 -60q-38 -64 -88 -113q-152 -153 -371 -153q-217 0 -367.5 150.5t-150.5 355.5q0 207 150.5 357t367.5 150q219 0 371 -152q131 -132 131 -352h-835z
M906 1035h-231l-117 87l-110 -87h-230l338 278z" />
    <glyph glyph-name="edieresis" unicode="&#xeb;" horiz-adv-x="1108" 
d="M269 643h599q-64 186 -298 186q-235 0 -301 -186zM237 485v-3q0 -146 99 -245t234 -99q134 0 235 101q14 14 54 63l170 -60q-38 -64 -88 -113q-152 -153 -371 -153q-217 0 -367.5 150.5t-150.5 355.5q0 207 150.5 357t367.5 150q219 0 371 -152q131 -132 131 -352h-835z
M511.5 1235.5q36.5 -35.5 36.5 -79.5q0 -46 -36.5 -81.5t-91.5 -35.5q-57 0 -93 35.5t-36 81.5q0 44 36 79.5t93 35.5q55 0 91.5 -35.5zM796 1235.5q36 -35.5 36 -79.5q0 -46 -36 -81.5t-92 -35.5t-92.5 35.5t-36.5 81.5q0 44 36.5 79.5t92.5 35.5t92 -35.5z" />
    <glyph glyph-name="igrave" unicode="&#xec;" horiz-adv-x="418" 
d="M299 914v-914h-180v914h180zM168 1273l208 -239h-190l-312 239h294z" />
    <glyph glyph-name="iacute" unicode="&#xed;" horiz-adv-x="418" 
d="M299 914v-914h-180v914h180zM544 1273l-313 -239h-189l208 239h294z" />
    <glyph glyph-name="icircumflex" unicode="&#xee;" horiz-adv-x="418" 
d="M299 914v-914h-180v914h180zM553 1035h-231l-117 87l-110 -87h-230l338 278z" />
    <glyph glyph-name="idieresis" unicode="&#xef;" horiz-adv-x="418" 
d="M299 914v-914h-180v914h180zM158.5 1235.5q36.5 -35.5 36.5 -79.5q0 -46 -36.5 -81.5t-91.5 -35.5q-57 0 -93 35.5t-36 81.5q0 44 36 79.5t93 35.5q55 0 91.5 -35.5zM443 1235.5q36 -35.5 36 -79.5q0 -46 -36 -81.5t-92 -35.5t-92.5 35.5t-36.5 81.5q0 44 36.5 79.5
t92.5 35.5t92 -35.5z" />
    <glyph glyph-name="eth" unicode="&#xf0;" horiz-adv-x="1179" 
d="M257 482q0 -146 99 -245t234 -99q134 0 233.5 99t99.5 245q0 147 -99.5 247t-233.5 100q-135 0 -234 -100t-99 -247zM613 1168q304 -288 348 -331q146 -148 146 -355q0 -205 -149 -355.5t-368 -150.5q-217 0 -367.5 150.5t-150.5 355.5q0 207 150.5 357t333.5 157l-60 55
l-48 -48l-191 49l117 117l-230 228h238l110 -110l61 61l177 -63z" />
    <glyph glyph-name="ntilde" unicode="&#xf1;" 
d="M280 682v-682h-181v914h181q46 50 190 50q173 0 279 -106t108 -259v-599h-180v591q0 93 -63 154.5t-144 61.5q-80 0 -141 -58q-35 -35 -49 -67zM410 1106q-2 -22 -2 -77l-167 36q2 71 11 98q23 70 86 96q22 10 49 10q59 0 135 -55q14 -10 23 -16q1 22 1 75l169 -33
q-4 -72 -13 -99q-22 -70 -87 -98q-24 -8 -47 -8q-59 0 -136 55q-13 10 -22 16z" />
    <glyph glyph-name="ograve" unicode="&#xf2;" horiz-adv-x="1179" 
d="M590 989q219 0 368 -150t149 -357q0 -205 -149 -355.5t-368 -150.5q-217 0 -367.5 150.5t-150.5 355.5q0 207 150.5 357t367.5 150zM356 729q-99 -100 -99 -247q0 -146 99 -245t234 -99q134 0 233.5 99t99.5 245q0 147 -99.5 247t-233.5 100q-135 0 -234 -100zM549 1273
l208 -239h-190l-312 239h294z" />
    <glyph glyph-name="oacute" unicode="&#xf3;" horiz-adv-x="1179" 
d="M590 989q219 0 368 -150t149 -357q0 -205 -149 -355.5t-368 -150.5q-217 0 -367.5 150.5t-150.5 355.5q0 207 150.5 357t367.5 150zM356 729q-99 -100 -99 -247q0 -146 99 -245t234 -99q134 0 233.5 99t99.5 245q0 147 -99.5 247t-233.5 100q-135 0 -234 -100zM924 1273
l-313 -239h-189l208 239h294z" />
    <glyph glyph-name="ocircumflex" unicode="&#xf4;" horiz-adv-x="1179" 
d="M590 989q219 0 368 -150t149 -357q0 -205 -149 -355.5t-368 -150.5q-217 0 -367.5 150.5t-150.5 355.5q0 207 150.5 357t367.5 150zM356 729q-99 -100 -99 -247q0 -146 99 -245t234 -99q134 0 233.5 99t99.5 245q0 147 -99.5 247t-233.5 100q-135 0 -234 -100zM933 1035
h-231l-117 87l-110 -87h-230l338 278z" />
    <glyph glyph-name="otilde" unicode="&#xf5;" horiz-adv-x="1179" 
d="M590 989q219 0 368 -150t149 -357q0 -205 -149 -355.5t-368 -150.5q-217 0 -367.5 150.5t-150.5 355.5q0 207 150.5 357t367.5 150zM356 729q-99 -100 -99 -247q0 -146 99 -245t234 -99q134 0 233.5 99t99.5 245q0 147 -99.5 247t-233.5 100q-135 0 -234 -100zM522 1106
q-2 -22 -2 -77l-167 36q2 71 11 98q23 70 86 96q22 10 49 10q59 0 135 -55q14 -10 23 -16q1 22 1 75l169 -33q-4 -72 -13 -99q-22 -70 -87 -98q-24 -8 -47 -8q-59 0 -136 55q-13 10 -22 16z" />
    <glyph glyph-name="odieresis" unicode="&#xf6;" horiz-adv-x="1179" 
d="M590 989q219 0 368 -150t149 -357q0 -205 -149 -355.5t-368 -150.5q-217 0 -367.5 150.5t-150.5 355.5q0 207 150.5 357t367.5 150zM356 729q-99 -100 -99 -247q0 -146 99 -245t234 -99q134 0 233.5 99t99.5 245q0 147 -99.5 247t-233.5 100q-135 0 -234 -100z
M539.5 1235.5q36.5 -35.5 36.5 -79.5q0 -46 -36.5 -81.5t-91.5 -35.5q-57 0 -93 35.5t-36 81.5q0 44 36 79.5t93 35.5q55 0 91.5 -35.5zM824 1235.5q36 -35.5 36 -79.5q0 -46 -36 -81.5t-92 -35.5t-92.5 35.5t-36.5 81.5q0 44 36.5 79.5t92.5 35.5t92 -35.5z" />
    <glyph glyph-name="divide" unicode="&#xf7;" horiz-adv-x="1138" 
d="M85 609v156h968v-156h-968zM661.5 471.5q36.5 -35.5 36.5 -80.5t-36.5 -80.5t-91.5 -35.5q-56 0 -92.5 35.5t-36.5 80.5t36.5 80.5t92.5 35.5q55 0 91.5 -35.5zM661.5 1064.5q36.5 -35.5 36.5 -80.5t-36.5 -80.5t-91.5 -35.5q-56 0 -92.5 35.5t-36.5 80.5t36.5 80.5
t92.5 35.5q55 0 91.5 -35.5z" />
    <glyph glyph-name="oslash" unicode="&#xf8;" horiz-adv-x="1145" 
d="M666 819q-20 10 -93 10q-135 0 -234 -99.5t-99 -246.5q0 -146 97 -244zM816 730l-337 -582q21 -9 94 -9q134 0 233.5 99t99.5 245q0 147 -90 247zM246 90q-10 7 -44 39q-147 149 -147 354q0 207 150.5 357t367.5 150q123 0 178 -26l104 183l154 -82l-108 -187
q9 -7 43 -40q146 -148 146 -355q0 -205 -149 -355.5t-368 -150.5q-124 0 -177 26l-104 -180l-156 73z" />
    <glyph glyph-name="ugrave" unicode="&#xf9;" 
d="M483 -12q-182 0 -287.5 106t-108.5 260v561h181v-554q0 -92 65 -156q61 -61 149 -61q80 0 143 62.5t63 154.5v554h181v-561q-3 -154 -110 -262q-104 -104 -276 -104zM437 1273l208 -239h-190l-312 239h294z" />
    <glyph glyph-name="uacute" unicode="&#xfa;" 
d="M483 -12q-182 0 -287.5 106t-108.5 260v561h181v-554q0 -92 65 -156q61 -61 149 -61q80 0 143 62.5t63 154.5v554h181v-561q-3 -154 -110 -262q-104 -104 -276 -104zM812 1273l-313 -239h-189l208 239h294z" />
    <glyph glyph-name="ucircumflex" unicode="&#xfb;" 
d="M483 -12q-182 0 -287.5 106t-108.5 260v561h181v-554q0 -92 65 -156q61 -61 149 -61q80 0 143 62.5t63 154.5v554h181v-561q-3 -154 -110 -262q-104 -104 -276 -104zM822 1035h-231l-117 87l-110 -87h-230l338 278z" />
    <glyph glyph-name="udieresis" unicode="&#xfc;" 
d="M483 -12q-182 0 -287.5 106t-108.5 260v561h181v-554q0 -92 65 -156q61 -61 149 -61q80 0 143 62.5t63 154.5v554h181v-561q-3 -154 -110 -262q-104 -104 -276 -104zM427.5 1235.5q36.5 -35.5 36.5 -79.5q0 -46 -36.5 -81.5t-91.5 -35.5q-57 0 -93 35.5t-36 81.5
q0 44 36 79.5t93 35.5q55 0 91.5 -35.5zM712 1235.5q36 -35.5 36 -79.5q0 -46 -36 -81.5t-92 -35.5t-92.5 35.5t-36.5 81.5q0 44 36.5 79.5t92.5 35.5t92 -35.5z" />
    <glyph glyph-name="yacute" unicode="&#xfd;" horiz-adv-x="896" 
d="M307 -317h-195l238 512l-335 719h195l238 -505l238 505h195zM783 1273l-313 -239h-189l208 239h294z" />
    <glyph glyph-name="thorn" unicode="&#xfe;" horiz-adv-x="1270" 
d="M308 574v-184q21 -87 91 -156q96 -97 230 -97q135 0 234 99.5t99 245.5q0 147 -99.5 247t-233.5 100t-230 -98q-70 -69 -91 -157zM308 850q104 138 321 138q219 0 368.5 -149.5t149.5 -356.5q0 -205 -149.5 -355.5t-368.5 -150.5q-217 0 -321 129v-409h-181v1573h181
v-419z" />
    <glyph glyph-name="ydieresis" unicode="&#xff;" horiz-adv-x="896" 
d="M307 -317h-195l238 512l-335 719h195l238 -505l238 505h195zM398.5 1235.5q36.5 -35.5 36.5 -79.5q0 -46 -36.5 -81.5t-91.5 -35.5q-57 0 -93 35.5t-36 81.5q0 44 36 79.5t93 35.5q55 0 91.5 -35.5zM683 1235.5q36 -35.5 36 -79.5q0 -46 -36 -81.5t-92 -35.5t-92.5 35.5
t-36.5 81.5q0 44 36.5 79.5t92.5 35.5t92 -35.5z" />
    <glyph glyph-name="Amacron" unicode="&#x100;" horiz-adv-x="1208" 
d="M743 754l-138 382l-139 -382h277zM684 1439l521 -1439h-188l-217 598h-391l-221 -598h-189l528 1439h157zM300 1699h604v-140h-604v140z" />
    <glyph glyph-name="amacron" unicode="&#x101;" horiz-adv-x="1188" 
d="M1099 0h-181v160q-107 -184 -326 -184q-217 0 -367.5 150.5t-150.5 355.5q0 207 150.5 357t367.5 150q219 0 326 -182v107h181v-914zM918 410v146q-19 99 -91 171q-101 102 -235 102q-135 0 -234 -100t-99 -247q0 -146 99 -245t234 -99q134 0 235 101q72 72 91 171z
M284 1174h604v-140h-604v140z" />
    <glyph glyph-name="Abreve" unicode="&#x102;" horiz-adv-x="1208" 
d="M743 754l-138 382l-139 -382h277zM684 1439l521 -1439h-188l-217 598h-391l-221 -598h-189l528 1439h157zM859 1800q-31 -101 -74 -144q-73 -75 -181 -75q-110 0 -183 75q-44 45 -76 144h168q21 -40 33 -52q25 -25 58 -25q31 0 56 26q13 11 32 51h167z" />
    <glyph glyph-name="abreve" unicode="&#x103;" horiz-adv-x="1188" 
d="M1099 0h-181v160q-107 -184 -326 -184q-217 0 -367.5 150.5t-150.5 355.5q0 207 150.5 357t367.5 150q219 0 326 -182v107h181v-914zM918 410v146q-19 99 -91 171q-101 102 -235 102q-135 0 -234 -100t-99 -247q0 -146 99 -245t234 -99q134 0 235 101q72 72 91 171z
M843 1275q-31 -101 -74 -144q-73 -75 -181 -75q-110 0 -183 75q-44 45 -76 144h168q21 -40 33 -52q25 -25 58 -25q31 0 56 26q13 11 32 51h167z" />
    <glyph glyph-name="Aogonek" unicode="&#x104;" horiz-adv-x="1208" 
d="M743 754l-138 382l-139 -382h277zM1028 0h-11l-217 598h-391l-221 -598h-189l528 1439h157l521 -1439h-26q-27 -17 -40.5 -30.5t-13.5 -31.5q0 -17 13.5 -30.5t34.5 -13.5q11 0 19 3l13 -105q-15 -2 -32 -2q-70 0 -115 45t-45 103q0 33 15 62z" />
    <glyph glyph-name="aogonek" unicode="&#x105;" horiz-adv-x="1188" 
d="M918 410v146q-19 99 -91 171q-101 102 -235 102q-135 0 -234 -100t-99 -247q0 -146 99 -245t234 -99q134 0 235 101q72 72 91 171zM922 0h-4v160q-107 -184 -326 -184q-217 0 -367.5 150.5t-150.5 355.5q0 207 150.5 357t367.5 150q219 0 326 -182v107h181v-914h-26
q-27 -17 -40.5 -30.5t-13.5 -31.5q0 -17 13.5 -30.5t34.5 -13.5q10 0 19 3l13 -105q-16 -2 -32 -2q-70 0 -115 45t-45 103q0 33 15 62z" />
    <glyph glyph-name="Cacute" unicode="&#x106;" horiz-adv-x="1419" 
d="M1230 317l126 -112q-243 -221 -535 -221q-314 0 -530.5 216.5t-216.5 519.5q0 300 216.5 518t530.5 218q292 0 535 -222l-126 -112q-198 175 -409 175q-230 0 -397.5 -167.5t-167.5 -409.5q0 -244 167.5 -411t397.5 -167q211 0 409 175zM1050 1798l-313 -239h-189
l208 239h294z" />
    <glyph glyph-name="cacute" unicode="&#x107;" horiz-adv-x="1074" 
d="M850 292l172 -63q-51 -69 -81 -100q-152 -153 -371 -153q-217 0 -367.5 150.5t-150.5 356.5t150.5 356t367.5 150q219 0 367 -148q34 -34 85 -103l-172 -64q-36 45 -49 59q-97 96 -231 96t-233 -99.5t-99 -246.5q0 -146 99 -245.5t233 -99.5t235 101q9 9 45 53zM872 1273
l-313 -239h-189l208 239h294z" />
    <glyph glyph-name="Ccircumflex" unicode="&#x108;" horiz-adv-x="1419" 
d="M1230 317l126 -112q-243 -221 -535 -221q-314 0 -530.5 216.5t-216.5 519.5q0 300 216.5 518t530.5 218q292 0 535 -222l-126 -112q-198 175 -409 175q-230 0 -397.5 -167.5t-167.5 -409.5q0 -244 167.5 -411t397.5 -167q211 0 409 175zM1059 1560h-231l-117 87l-110 -87
h-230l338 278z" />
    <glyph glyph-name="ccircumflex" unicode="&#x109;" horiz-adv-x="1074" 
d="M850 292l172 -63q-51 -69 -81 -100q-152 -153 -371 -153q-217 0 -367.5 150.5t-150.5 356.5t150.5 356t367.5 150q219 0 367 -148q34 -34 85 -103l-172 -64q-36 45 -49 59q-97 96 -231 96t-233 -99.5t-99 -246.5q0 -146 99 -245.5t233 -99.5t235 101q9 9 45 53zM881 1035
h-231l-117 87l-110 -87h-230l338 278z" />
    <glyph glyph-name="Cdotaccent" unicode="&#x10a;" horiz-adv-x="1419" 
d="M1230 317l126 -112q-243 -221 -535 -221q-314 0 -530.5 216.5t-216.5 519.5q0 300 216.5 518t530.5 218q292 0 535 -222l-126 -112q-198 175 -409 175q-230 0 -397.5 -167.5t-167.5 -409.5q0 -244 167.5 -411t397.5 -167q211 0 409 175zM799 1770q33 -32 33 -73
q0 -40 -33 -72t-84 -32t-84 32t-33 72q0 41 33 73t84 32t84 -32z" />
    <glyph glyph-name="cdotaccent" unicode="&#x10b;" horiz-adv-x="1074" 
d="M850 292l172 -63q-51 -69 -81 -100q-152 -153 -371 -153q-217 0 -367.5 150.5t-150.5 356.5t150.5 356t367.5 150q219 0 367 -148q34 -34 85 -103l-172 -64q-36 45 -49 59q-97 96 -231 96t-233 -99.5t-99 -246.5q0 -146 99 -245.5t233 -99.5t235 101q9 9 45 53zM621 1245
q33 -32 33 -73q0 -40 -33 -72t-84 -32t-84 32t-33 72q0 41 33 73t84 32t84 -32z" />
    <glyph glyph-name="Ccaron" unicode="&#x10c;" horiz-adv-x="1419" 
d="M1230 317l126 -112q-243 -221 -535 -221q-314 0 -530.5 216.5t-216.5 519.5q0 300 216.5 518t530.5 218q292 0 535 -222l-126 -112q-198 175 -409 175q-230 0 -397.5 -167.5t-167.5 -409.5q0 -244 167.5 -411t397.5 -167q211 0 409 175zM709 1514l-338 277h230l110 -86
l117 86h231z" />
    <glyph glyph-name="ccaron" unicode="&#x10d;" horiz-adv-x="1074" 
d="M850 292l172 -63q-51 -69 -81 -100q-152 -153 -371 -153q-217 0 -367.5 150.5t-150.5 356.5t150.5 356t367.5 150q219 0 367 -148q34 -34 85 -103l-172 -64q-36 45 -49 59q-97 96 -231 96t-233 -99.5t-99 -246.5q0 -146 99 -245.5t233 -99.5t235 101q9 9 45 53zM531 989
l-338 277h230l110 -86l117 86h231z" />
    <glyph glyph-name="Dcaron" unicode="&#x10e;" horiz-adv-x="1252" 
d="M416 1439q360 -2 560 -203q214 -216 214 -516q0 -303 -218 -522q-196 -196 -556 -198h-304v1439h304zM293 1279v-1120h122q268 0 421 148q169 169 169 413q0 242 -169 413q-153 146 -421 146h-122zM645 1514l-338 277h230l110 -86l117 86h231z" />
    <glyph glyph-name="dcaron" unicode="&#x10f;" horiz-adv-x="1418" 
d="M1099 0h-181v110q-107 -134 -326 -134q-217 0 -367.5 150.5t-150.5 355.5q0 207 150.5 357t367.5 150q219 0 326 -132v582h181v-1439zM918 410v146q-19 99 -91 171q-101 102 -235 102q-135 0 -234 -100t-99 -247q0 -146 99 -245t234 -99q134 0 235 101q72 72 91 171z
M1193 1231l-11 23q-33 33 -33 79q0 45 36 80t92 35q55 0 91.5 -35t36.5 -80q0 -24 -8 -46l-98 -196h-159z" />
    <glyph glyph-name="Dcroat" unicode="&#x110;" horiz-adv-x="1319" 
d="M324 641v-482h121q269 0 421 148q170 169 170 413q0 242 -170 413q-152 146 -421 146h-121v-481h472v-157h-472zM143 798v641h304q360 -2 560 -203q214 -216 214 -516q0 -303 -218 -522q-196 -196 -556 -198h-304v641h-123v157h123z" />
    <glyph glyph-name="dcroat" unicode="&#x111;" horiz-adv-x="1206" 
d="M918 410v146q-19 99 -91 171q-101 102 -235 102q-135 0 -234 -100t-99 -247q0 -146 99 -245t234 -99q134 0 235 101q72 72 91 171zM1099 1090v-1090h-181v90q-107 -114 -326 -114q-217 0 -367.5 150.5t-150.5 355.5q0 207 150.5 357t367.5 150q219 0 326 -132v233h-294
v156h294v193h181v-193h109v-156h-109z" />
    <glyph glyph-name="Emacron" unicode="&#x112;" horiz-adv-x="1007" 
d="M895 1439v-157h-602v-484h602v-157h-602v-484h602v-157h-783v1439h783zM201 1699h604v-140h-604v140z" />
    <glyph glyph-name="emacron" unicode="&#x113;" horiz-adv-x="1108" 
d="M269 643h599q-64 186 -298 186q-235 0 -301 -186zM237 485v-3q0 -146 99 -245t234 -99q134 0 235 101q14 14 54 63l170 -60q-38 -64 -88 -113q-152 -153 -371 -153q-217 0 -367.5 150.5t-150.5 355.5q0 207 150.5 357t367.5 150q219 0 371 -152q131 -132 131 -352h-835z
M260 1174h604v-140h-604v140z" />
    <glyph glyph-name="Ebreve" unicode="&#x114;" horiz-adv-x="1007" 
d="M895 1439v-157h-602v-484h602v-157h-602v-484h602v-157h-783v1439h783zM761 1800q-31 -101 -74 -144q-73 -75 -181 -75q-110 0 -183 75q-44 45 -76 144h168q21 -40 33 -52q25 -25 58 -25q31 0 56 26q13 11 32 51h167z" />
    <glyph glyph-name="ebreve" unicode="&#x115;" horiz-adv-x="1108" 
d="M269 643h599q-64 186 -298 186q-235 0 -301 -186zM237 485v-3q0 -146 99 -245t234 -99q134 0 235 101q14 14 54 63l170 -60q-38 -64 -88 -113q-152 -153 -371 -153q-217 0 -367.5 150.5t-150.5 355.5q0 207 150.5 357t367.5 150q219 0 371 -152q131 -132 131 -352h-835z
M819 1275q-31 -101 -74 -144q-73 -75 -181 -75q-110 0 -183 75q-44 45 -76 144h168q21 -40 33 -52q25 -25 58 -25q31 0 56 26q13 11 32 51h167z" />
    <glyph glyph-name="Edotaccent" unicode="&#x116;" horiz-adv-x="1007" 
d="M895 1439v-157h-602v-484h602v-157h-602v-484h602v-157h-783v1439h783zM588 1770q33 -32 33 -73q0 -40 -33 -72t-84 -32t-84 32t-33 72q0 41 33 73t84 32t84 -32z" />
    <glyph glyph-name="edotaccent" unicode="&#x117;" horiz-adv-x="1108" 
d="M269 643h599q-64 186 -298 186q-235 0 -301 -186zM237 485v-3q0 -146 99 -245t234 -99q134 0 235 101q14 14 54 63l170 -60q-38 -64 -88 -113q-152 -153 -371 -153q-217 0 -367.5 150.5t-150.5 355.5q0 207 150.5 357t367.5 150q219 0 371 -152q131 -132 131 -352h-835z
M646 1245q33 -32 33 -73q0 -40 -33 -72t-84 -32t-84 32t-33 72q0 41 33 73t84 32t84 -32z" />
    <glyph glyph-name="Eogonek" unicode="&#x118;" horiz-adv-x="1007" 
d="M718 0h-606v1439h783v-157h-602v-484h602v-157h-602v-484h602v-157h-26q-27 -17 -40.5 -30.5t-13.5 -31.5q0 -17 13.5 -30.5t34.5 -13.5q10 0 19 3l13 -105q-16 -2 -32 -2q-70 0 -115 45t-45 103q0 33 15 62z" />
    <glyph glyph-name="eogonek" unicode="&#x119;" horiz-adv-x="1108" 
d="M269 643h599q-64 186 -298 186q-235 0 -301 -186zM701 -9q-62 -15 -131 -15q-217 0 -367.5 150.5t-150.5 355.5q0 207 150.5 357t367.5 150q219 0 371 -152q131 -132 131 -352h-835v-3q0 -146 99 -245t234 -99q134 0 235 101q14 14 54 63l170 -60q-38 -64 -88 -113
q-36 -36 -75 -63q-27 -15 -40.5 -28.5t-13.5 -31.5q0 -17 13.5 -30.5t34.5 -13.5q10 0 19 3l13 -105q-15 -2 -32 -2q-70 0 -115 45q-39 39 -44 88z" />
    <glyph glyph-name="Ecaron" unicode="&#x11a;" horiz-adv-x="1007" 
d="M895 1439v-157h-602v-484h602v-157h-602v-484h602v-157h-783v1439h783zM497 1514l-338 277h230l110 -86l117 86h231z" />
    <glyph glyph-name="ecaron" unicode="&#x11b;" horiz-adv-x="1108" 
d="M269 643h599q-64 186 -298 186q-235 0 -301 -186zM237 485v-3q0 -146 99 -245t234 -99q134 0 235 101q14 14 54 63l170 -60q-38 -64 -88 -113q-152 -153 -371 -153q-217 0 -367.5 150.5t-150.5 355.5q0 207 150.5 357t367.5 150q219 0 371 -152q131 -132 131 -352h-835z
M556 989l-338 277h230l110 -86l117 86h231z" />
    <glyph glyph-name="Gcircumflex" unicode="&#x11c;" horiz-adv-x="1431" 
d="M1335 196q-221 -212 -514 -212q-314 0 -530.5 216.5t-216.5 519.5q0 300 216.5 518t530.5 218q292 0 535 -222l-126 -112q-198 175 -409 175q-230 0 -397.5 -167.5t-167.5 -409.5q0 -244 167.5 -411t397.5 -167q197 0 334 110v438h180v-494zM1059 1560h-231l-117 87
l-110 -87h-230l338 278z" />
    <glyph glyph-name="gcircumflex" unicode="&#x11d;" horiz-adv-x="1149" 
d="M895 559q-20 97 -94 172q-97 98 -231 98q-135 0 -234 -100t-99 -247q0 -146 99 -245.5t234 -99.5q134 0 235 101q70 70 90 166v155zM883 155q-94 -179 -313 -179q-217 0 -367.5 150.5t-150.5 355.5q0 207 150.5 356.5t367.5 149.5q218 0 326 -181v107h181v-688
q0 -201 -145 -345q-152 -153 -370 -153t-367 149q-34 35 -86 104l173 63q35 -44 49 -56q97 -98 231 -98q283 0 321 265zM908 1035h-231l-117 87l-110 -87h-230l338 278z" />
    <glyph glyph-name="Gbreve" unicode="&#x11e;" horiz-adv-x="1431" 
d="M1335 196q-221 -212 -514 -212q-314 0 -530.5 216.5t-216.5 519.5q0 300 216.5 518t530.5 218q292 0 535 -222l-126 -112q-198 175 -409 175q-230 0 -397.5 -167.5t-167.5 -409.5q0 -244 167.5 -411t397.5 -167q197 0 334 110v438h180v-494zM972 1800q-31 -101 -74 -144
q-73 -75 -181 -75q-110 0 -183 75q-44 45 -76 144h168q21 -40 33 -52q25 -25 58 -25q31 0 56 26q13 11 32 51h167z" />
    <glyph glyph-name="gbreve" unicode="&#x11f;" horiz-adv-x="1149" 
d="M895 559q-20 97 -94 172q-97 98 -231 98q-135 0 -234 -100t-99 -247q0 -146 99 -245.5t234 -99.5q134 0 235 101q70 70 90 166v155zM883 155q-94 -179 -313 -179q-217 0 -367.5 150.5t-150.5 355.5q0 207 150.5 356.5t367.5 149.5q218 0 326 -181v107h181v-688
q0 -201 -145 -345q-152 -153 -370 -153t-367 149q-34 35 -86 104l173 63q35 -44 49 -56q97 -98 231 -98q283 0 321 265zM821 1275q-31 -101 -74 -144q-73 -75 -181 -75q-110 0 -183 75q-44 45 -76 144h168q21 -40 33 -52q25 -25 58 -25q31 0 56 26q13 11 32 51h167z" />
    <glyph glyph-name="Gdotaccent" unicode="&#x120;" horiz-adv-x="1431" 
d="M1335 196q-221 -212 -514 -212q-314 0 -530.5 216.5t-216.5 519.5q0 300 216.5 518t530.5 218q292 0 535 -222l-126 -112q-198 175 -409 175q-230 0 -397.5 -167.5t-167.5 -409.5q0 -244 167.5 -411t397.5 -167q197 0 334 110v438h180v-494zM799 1770q33 -32 33 -73
q0 -40 -33 -72t-84 -32t-84 32t-33 72q0 41 33 73t84 32t84 -32z" />
    <glyph glyph-name="gdotaccent" unicode="&#x121;" horiz-adv-x="1149" 
d="M895 559q-20 97 -94 172q-97 98 -231 98q-135 0 -234 -100t-99 -247q0 -146 99 -245.5t234 -99.5q134 0 235 101q70 70 90 166v155zM883 155q-94 -179 -313 -179q-217 0 -367.5 150.5t-150.5 355.5q0 207 150.5 356.5t367.5 149.5q218 0 326 -181v107h181v-688
q0 -201 -145 -345q-152 -153 -370 -153t-367 149q-34 35 -86 104l173 63q35 -44 49 -56q97 -98 231 -98q283 0 321 265zM649 1245q33 -32 33 -73q0 -40 -33 -72t-84 -32t-84 32t-33 72q0 41 33 73t84 32t84 -32z" />
    <glyph glyph-name="Gcommaaccent" unicode="&#x122;" horiz-adv-x="1431" 
d="M721 -10q-249 29 -430 211q-217 216 -217 519q0 300 216.5 518t530.5 218q292 0 535 -222l-126 -112q-198 175 -409 175q-230 0 -397.5 -167.5t-167.5 -409.5q0 -244 167.5 -411t397.5 -167q197 0 334 110v438h180v-494q-221 -212 -514 -212h-5l-3 -9q58 -4 95 -81
q16 -34 16 -66q0 -30 -14 -57q-32 -64 -119 -78q-27 -4 -52 -4q-46 0 -81 15q-13 6 -28 14l55 84q15 -8 35 -8q25 0 43 12t18 29q0 16 -18 28t-43 12q-11 0 -20 -2z" />
    <glyph glyph-name="gcommaaccent" unicode="&#x123;" horiz-adv-x="1149" 
d="M895 559q-20 97 -94 172q-97 98 -231 98q-135 0 -234 -100t-99 -247q0 -146 99 -245.5t234 -99.5q134 0 235 101q70 70 90 166v155zM883 155q-94 -179 -313 -179q-217 0 -367.5 150.5t-150.5 355.5q0 207 150.5 356.5t367.5 149.5q218 0 326 -181v107h181v-688
q0 -201 -145 -345q-152 -153 -370 -153t-367 149q-34 35 -86 104l173 63q35 -44 49 -56q97 -98 231 -98q283 0 321 265zM648 1254l10 -23q34 -33 34 -79q0 -45 -36.5 -80t-92.5 -35q-55 0 -91.5 35t-36.5 80q0 24 9 46l97 196h159z" />
    <glyph glyph-name="Hcircumflex" unicode="&#x124;" horiz-adv-x="1141" 
d="M275 641v-641h-181v1439h181v-641h591v641h181v-1439h-181v641h-591zM914 1560h-231l-117 87l-110 -87h-230l338 278z" />
    <glyph glyph-name="hcircumflex" unicode="&#x125;" horiz-adv-x="936" 
d="M94 1439h181v-525q46 50 190 50q173 0 279 -106t108 -259v-599h-180v591q0 93 -63 154.5t-144 61.5q-80 0 -141 -58q-35 -35 -49 -67v-682h-181v1439zM817 1441h-231l-117 87l-110 -87h-230l338 278z" />
    <glyph glyph-name="Hbar" unicode="&#x126;" horiz-adv-x="1134" 
d="M1043 1090v-1090h-180v641h-592v-641h-180v1090h-80v156h80v193h180v-193h592v193h180v-193h80v-156h-80zM271 1090v-292h592v292h-592z" />
    <glyph glyph-name="hbar" unicode="&#x127;" horiz-adv-x="912" 
d="M80 1246v193h181v-193h186v-156h-186v-194q19 68 180 68q172 0 278 -106t109 -259v-599h-181v591q0 93 -63 154.5t-143 61.5q-81 0 -141 -58q-29 -28 -39 -52v-697h-181v1090h-96v156h96z" />
    <glyph glyph-name="Itilde" unicode="&#x128;" horiz-adv-x="425" 
d="M303 1439v-1439h-181v1439h181zM144 1631q-2 -22 -2 -77l-167 36q2 71 11 98q23 70 86 96q22 10 49 10q59 0 135 -55q14 -10 23 -16q1 22 1 75l169 -33q-4 -72 -13 -99q-22 -70 -87 -98q-24 -8 -47 -8q-59 0 -136 55q-13 10 -22 16z" />
    <glyph glyph-name="itilde" unicode="&#x129;" horiz-adv-x="418" 
d="M299 914v-914h-180v914h180zM141 1106q-2 -22 -2 -77l-167 36q2 71 11 98q23 70 86 96q22 10 49 10q59 0 135 -55q14 -10 23 -16q1 22 1 75l169 -33q-4 -72 -13 -99q-22 -70 -87 -98q-24 -8 -47 -8q-59 0 -136 55q-13 10 -22 16z" />
    <glyph glyph-name="Imacron" unicode="&#x12a;" horiz-adv-x="425" 
d="M303 1439v-1439h-181v1439h181zM-90 1699h604v-140h-604v140z" />
    <glyph glyph-name="imacron" unicode="&#x12b;" horiz-adv-x="418" 
d="M299 914v-914h-180v914h180zM-93 1174h604v-140h-604v140z" />
    <glyph glyph-name="Ibreve" unicode="&#x12c;" horiz-adv-x="425" 
d="M303 1439v-1439h-181v1439h181zM470 1800q-31 -101 -74 -144q-73 -75 -181 -75q-110 0 -183 75q-44 45 -76 144h168q21 -40 33 -52q25 -25 58 -25q31 0 56 26q13 11 32 51h167z" />
    <glyph glyph-name="ibreve" unicode="&#x12d;" horiz-adv-x="418" 
d="M299 914v-914h-180v914h180zM466 1275q-31 -101 -74 -144q-73 -75 -181 -75q-110 0 -183 75q-44 45 -76 144h168q21 -40 33 -52q25 -25 58 -25q31 0 56 26q13 11 32 51h167z" />
    <glyph glyph-name="Iogonek" unicode="&#x12e;" horiz-adv-x="425" 
d="M126 0h-4v1439h181v-1439h-26q-27 -17 -40.5 -30.5t-13.5 -31.5q0 -17 13.5 -30.5t34.5 -13.5q10 0 19 3l13 -105q-15 -2 -32 -2q-70 0 -115 45t-45 103q0 33 15 62z" />
    <glyph glyph-name="iogonek" unicode="&#x12f;" horiz-adv-x="415" 
d="M299.5 1174.5q36.5 -35.5 36.5 -79.5q0 -46 -36.5 -81.5t-91.5 -35.5q-57 0 -93 35.5t-36 81.5q0 44 36 79.5t93 35.5q55 0 91.5 -35.5zM130 0h-13v914h180v-914h-31q-9 -3 -16 -10q-14 -14 -14 -32q0 -17 13.5 -30.5t34.5 -13.5q10 0 19 3l13 -105q-16 -2 -32 -2
q-70 0 -115 45t-45 103q0 22 6 42z" />
    <glyph glyph-name="Idotaccent" unicode="&#x130;" horiz-adv-x="425" 
d="M303 1439v-1439h-181v1439h181zM297 1770q33 -32 33 -73q0 -40 -33 -72t-84 -32t-84 32t-33 72q0 41 33 73t84 32t84 -32z" />
    <glyph glyph-name="dotlessi" unicode="&#x131;" horiz-adv-x="418" 
d="M299 914v-914h-180v914h180z" />
    <glyph glyph-name="IJ" unicode="&#x132;" horiz-adv-x="825" 
d="M303 1439v-1439h-181v1439h181zM711 14q0 -117 -84 -197.5t-263 -80.5v150q97 0 130 32q36 36 36 106v1415h181v-1425z" />
    <glyph glyph-name="ij" unicode="&#x133;" horiz-adv-x="794" 
d="M297 914v-914h-180v914h180zM299.5 1174.5q36.5 -35.5 36.5 -79.5q0 -46 -36.5 -81.5t-91.5 -35.5q-57 0 -93 35.5t-36 81.5q0 44 36 79.5t93 35.5q55 0 91.5 -35.5zM404 -43q103 12 103 81v876h180v-874q0 -208 -283 -231v148zM689 1174.5q36 -35.5 36 -79.5
q0 -46 -36 -81.5t-92 -35.5t-92.5 35.5t-36.5 81.5q0 44 36.5 79.5t92.5 35.5t92 -35.5z" />
    <glyph glyph-name="Jcircumflex" unicode="&#x134;" horiz-adv-x="529" 
d="M353 14q0 -117 -83.5 -201t-263.5 -84v157q97 0 130 32q36 36 36 106v1415h181v-1425zM621 1520h-231l-117 86l-110 -86h-230l338 277z" />
    <glyph glyph-name="jcircumflex" unicode="&#x135;" horiz-adv-x="507" 
d="M53 -43q102 12 102 81v876h180v-874q0 -215 -282 -238v155zM587 1032h-231l-117 86l-110 -86h-230l338 277z" />
    <glyph glyph-name="Kcommaaccent" unicode="&#x136;" horiz-adv-x="1102" 
d="M874 1439l-380 -550l622 -889h-211l-518 741l-94 -135v-606h-181v1439h181v-532l371 532h210zM421 32q146 0 189 -34q53 -42 53 -99v-10q-6 -64 -77 -116q-64 -36 -133 -36q-38 0 -125 23l45 132q73 -28 87 -28t25 6q8 5 10 17v3q0 4 -2 6q-1 2 -72 3v133z" />
    <glyph glyph-name="kcommaaccent" unicode="&#x137;" horiz-adv-x="744" 
d="M650 914l-240 -298l348 -616h-207l-258 472l-13 -17v-455h-181v1269h181v-541l151 186h219zM325 32q145 0 188 -34q54 -42 54 -99v-10q-7 -64 -78 -116q-63 -36 -133 -36q-38 0 -124 23l44 132q73 -28 87 -28q15 0 26 6q7 5 10 17v3q0 4 -2 6t-72 3v133z" />
    <glyph glyph-name="kgreenlandic" unicode="&#x138;" horiz-adv-x="744" 
d="M650 914l-240 -298l348 -616h-207l-258 472l-13 -17v-455h-181v914h181v-186l151 186h219z" />
    <glyph glyph-name="Lacute" unicode="&#x139;" horiz-adv-x="862" 
d="M112 0v1439h181v-1282h517v-157h-698zM796 1798l-313 -239h-189l208 239h294z" />
    <glyph glyph-name="lacute" unicode="&#x13a;" horiz-adv-x="401" 
d="M291 1439v-1439h-181v1439h181zM451 1719l-313 -239h-189l208 239h294z" />
    <glyph glyph-name="Lcommaaccent" unicode="&#x13b;" horiz-adv-x="862" 
d="M112 0v1439h181v-1282h517v-157h-698zM325 -8q146 0 189 -34q53 -42 53 -99v-10q-6 -64 -77 -116q-64 -36 -133 -36q-38 0 -125 23l45 132q73 -28 87 -28t25 6q8 5 10 17v3q0 4 -2 6q-1 2 -72 3v133z" />
    <glyph glyph-name="lcommaaccent" unicode="&#x13c;" horiz-adv-x="379" 
d="M285 1439v-1439h-181v1439h181zM115 -18q145 0 188 -34q54 -42 54 -99v-10q-7 -64 -78 -116q-63 -36 -132 -36q-39 0 -125 23l44 132q73 -28 87 -28q15 0 26 6q7 5 10 17v3q0 4 -2 6t-72 3v133z" />
    <glyph glyph-name="Lcaron" unicode="&#x13d;" horiz-adv-x="862" 
d="M112 0v1439h181v-1282h517v-157h-698zM557 1231l-10 23q-34 33 -34 79q0 45 36.5 80t92.5 35q55 0 91.5 -35t36.5 -80q0 -24 -8 -46l-98 -196h-159z" />
    <glyph glyph-name="lcaron" unicode="&#x13e;" horiz-adv-x="636" 
d="M293 1439v-1439h-181v1439h181zM417 1231l-10 23q-34 33 -34 79q0 45 36.5 80t92.5 35q55 0 91.5 -35t36.5 -80q0 -24 -8 -46l-98 -196h-159z" />
    <glyph glyph-name="Ldot" unicode="&#x13f;" horiz-adv-x="862" 
d="M112 0v1439h181v-1282h517v-157h-698zM739 792q33 -32 33 -72q0 -41 -33 -73t-83 -32q-52 0 -85 32t-33 73q0 40 33 72t85 32q50 0 83 -32z" />
    <glyph glyph-name="ldot" unicode="&#x140;" horiz-adv-x="618" 
d="M280 1439v-1439h-181v1439h181zM572.5 792q32.5 -32 32.5 -72q0 -41 -32.5 -73t-83.5 -32t-84 32t-33 73q0 40 33 72t84 32t83.5 -32z" />
    <glyph glyph-name="Lslash" unicode="&#x141;" horiz-adv-x="942" 
d="M375 809l386 315v-206l-386 -315v-446h517v-157h-698v455l-194 -157v205l194 158v778h181v-630z" />
    <glyph glyph-name="lslash" unicode="&#x142;" horiz-adv-x="465" 
d="M142 740v699h181v-552l142 117v-206l-142 -117v-681h-181v534l-142 -117v206z" />
    <glyph glyph-name="Nacute" unicode="&#x143;" horiz-adv-x="1398" 
d="M288 1439l820 -1150v1150h181v-1439h-200l-799 1121v-1121h-181v1439h179zM1034 1798l-313 -239h-189l208 239h294z" />
    <glyph glyph-name="nacute" unicode="&#x144;" 
d="M280 682v-682h-181v914h181q46 50 190 50q173 0 279 -106t108 -259v-599h-180v591q0 93 -63 154.5t-144 61.5q-80 0 -141 -58q-35 -35 -49 -67zM812 1273l-313 -239h-189l208 239h294z" />
    <glyph glyph-name="Ncommaaccent" unicode="&#x145;" horiz-adv-x="1398" 
d="M288 1439l820 -1150v1150h181v-1439h-200l-799 1121v-1121h-181v1439h179zM588 32q145 0 189 -34q53 -42 53 -99v-10q-6 -64 -77 -116q-64 -36 -133 -36q-38 0 -125 23l45 132q73 -28 87 -28t25 6q7 5 10 17v3q0 4 -2 6q-1 2 -72 3v133z" />
    <glyph glyph-name="ncommaaccent" unicode="&#x146;" 
d="M280 682v-682h-181v914h181q46 50 190 50q173 0 279 -106t108 -259v-599h-180v591q0 93 -63 154.5t-144 61.5q-80 0 -141 -58q-35 -35 -49 -67zM403 32q146 0 189 -34q53 -42 53 -99v-10q-6 -64 -77 -116q-64 -36 -133 -36q-38 0 -125 23l45 132q73 -28 87 -28t25 6
q8 5 10 17v3q0 4 -2 6q-1 2 -72 3v133z" />
    <glyph glyph-name="Ncaron" unicode="&#x147;" horiz-adv-x="1398" 
d="M288 1439l820 -1150v1150h181v-1439h-200l-799 1121v-1121h-181v1439h179zM693 1514l-338 277h230l110 -86l117 86h231z" />
    <glyph glyph-name="ncaron" unicode="&#x148;" 
d="M280 682v-682h-181v914h181q46 50 190 50q173 0 279 -106t108 -259v-599h-180v591q0 93 -63 154.5t-144 61.5q-80 0 -141 -58q-35 -35 -49 -67zM472 989l-338 277h230l110 -86l117 86h231z" />
    <glyph glyph-name="napostrophe" unicode="&#x149;" horiz-adv-x="1168" 
d="M492 682v-682h-181v914h181q46 50 189 50q173 0 279 -106t109 -259v-599h-180v591q0 93 -63.5 154.5t-144.5 61.5q-80 0 -140 -58q-36 -35 -49 -67zM64 1231l-10 23q-34 33 -34 79q0 45 36.5 80t92.5 35q55 0 91.5 -35t36.5 -80q0 -24 -8 -46l-98 -196h-159z" />
    <glyph glyph-name="Eng" unicode="&#x14a;" horiz-adv-x="1229" 
d="M939 111l-649 913v-1024h-181v1576l830 -1166v1029h181v-1447q0 -117 -83.5 -201t-263.5 -84v157q98 0 130 32q36 36 36 106v109z" />
    <glyph glyph-name="eng" unicode="&#x14b;" horiz-adv-x="962" 
d="M680 591q0 93 -63 154.5t-144 61.5q-80 0 -141 -58q-35 -35 -49 -67v-682h-181v914h181q26 50 190 50q173 0 279 -106t108 -259v-403h1v-204q0 -117 -83.5 -201t-263.5 -84v157q97 0 130 32q36 36 36 106v589z" />
    <glyph glyph-name="Omacron" unicode="&#x14c;" horiz-adv-x="1621" 
d="M1341.5 1241q217.5 -218 217.5 -519q0 -303 -217.5 -520.5t-531.5 -217.5q-313 0 -530.5 217.5t-217.5 520.5q0 301 217.5 519t530.5 218q314 0 531.5 -218zM810 1301q-230 0 -398 -168.5t-168 -410.5q0 -244 168 -412t398 -168q231 0 399 168t168 412q0 242 -168 410.5
t-399 168.5zM508 1699h604v-140h-604v140z" />
    <glyph glyph-name="omacron" unicode="&#x14d;" horiz-adv-x="1179" 
d="M590 989q219 0 368 -150t149 -357q0 -205 -149 -355.5t-368 -150.5q-217 0 -367.5 150.5t-150.5 355.5q0 207 150.5 357t367.5 150zM356 729q-99 -100 -99 -247q0 -146 99 -245t234 -99q134 0 233.5 99t99.5 245q0 147 -99.5 247t-233.5 100q-135 0 -234 -100zM288 1174
h604v-140h-604v140z" />
    <glyph glyph-name="Obreve" unicode="&#x14e;" horiz-adv-x="1621" 
d="M1341.5 1241q217.5 -218 217.5 -519q0 -303 -217.5 -520.5t-531.5 -217.5q-313 0 -530.5 217.5t-217.5 520.5q0 301 217.5 519t530.5 218q314 0 531.5 -218zM810 1301q-230 0 -398 -168.5t-168 -410.5q0 -244 168 -412t398 -168q231 0 399 168t168 412q0 242 -168 410.5
t-399 168.5zM1068 1800q-31 -101 -74 -144q-73 -75 -181 -75q-110 0 -183 75q-44 45 -76 144h168q21 -40 33 -52q25 -25 58 -25q31 0 56 26q13 11 32 51h167z" />
    <glyph glyph-name="obreve" unicode="&#x14f;" horiz-adv-x="1179" 
d="M590 989q219 0 368 -150t149 -357q0 -205 -149 -355.5t-368 -150.5q-217 0 -367.5 150.5t-150.5 355.5q0 207 150.5 357t367.5 150zM356 729q-99 -100 -99 -247q0 -146 99 -245t234 -99q134 0 233.5 99t99.5 245q0 147 -99.5 247t-233.5 100q-135 0 -234 -100zM847 1275
q-31 -101 -74 -144q-73 -75 -181 -75q-110 0 -183 75q-44 45 -76 144h168q21 -40 33 -52q25 -25 58 -25q31 0 56 26q13 11 32 51h167z" />
    <glyph glyph-name="Ohungarumlaut" unicode="&#x150;" horiz-adv-x="1621" 
d="M1341.5 1241q217.5 -218 217.5 -519q0 -303 -217.5 -520.5t-531.5 -217.5q-313 0 -530.5 217.5t-217.5 520.5q0 301 217.5 519t530.5 218q314 0 531.5 -218zM810 1301q-230 0 -398 -168.5t-168 -410.5q0 -244 168 -412t398 -168q231 0 399 168t168 412q0 242 -168 410.5
t-399 168.5zM910 1791l-313 -238h-189l208 238h294zM1214 1791l-312 -238h-190l208 238h294z" />
    <glyph glyph-name="ohungarumlaut" unicode="&#x151;" horiz-adv-x="1179" 
d="M590 989q219 0 368 -150t149 -357q0 -205 -149 -355.5t-368 -150.5q-217 0 -367.5 150.5t-150.5 355.5q0 207 150.5 357t367.5 150zM356 729q-99 -100 -99 -247q0 -146 99 -245t234 -99q134 0 233.5 99t99.5 245q0 147 -99.5 247t-233.5 100q-135 0 -234 -100zM689 1266
l-313 -238h-189l208 238h294zM993 1266l-312 -238h-190l208 238h294z" />
    <glyph glyph-name="OE" unicode="&#x152;" horiz-adv-x="2044" 
d="M1342 1282l28 -43q202 -203 212 -441h374v-157h-374q-12 -237 -216 -441l-26 -43h616v-157h-895q-103 -16 -225 -16q-313 0 -530.5 217.5t-217.5 520.5q0 301 217.5 519t530.5 218q123 0 226 -20h894v-157h-614zM1402 757q-12 220 -169 379q-61 60 -130 98q-34 18 -70 32
q-90 35 -197 35q-230 0 -398 -168.5t-168 -410.5q0 -244 168 -412t398 -168q107 0 198 33q35 14 69 32q68 39 134 104q153 153 165 372q1 18 1 39q0 17 -1 35z" />
    <glyph glyph-name="oe" unicode="&#x153;" horiz-adv-x="1862" 
d="M251 482q0 -146 99 -245t234 -99q134 0 233.5 99t99.5 245q0 147 -99.5 247t-233.5 100q-135 0 -234 -100t-99 -247zM1054 699q17 -33 23 -56h535q-9 31 -62 84q-102 102 -236 102t-231 -98q-23 -23 -29 -32zM1054 266q6 -8 24 -27q102 -101 236 -101t236 101
q13 14 54 63l168 -60q-38 -64 -91 -117q-149 -149 -367 -149t-366 143q-145 -143 -364 -143q-217 0 -367.5 150.5t-150.5 355.5q0 207 150.5 357t367.5 150q219 0 364 -148q148 148 366 148t371 -152q131 -132 137 -352l-719 1l-1 9q-1 0 -1 -13q0 -127 -47 -216z" />
    <glyph glyph-name="Racute" unicode="&#x154;" horiz-adv-x="1041" 
d="M293 1281v-652h178q126 0 220 93.5t94 233.5q0 139 -94 232t-220 93h-178zM462 471h-169v-471h-181v1439h412q180 -24 301 -146q141 -141 141 -337q0 -197 -145 -342q-96 -97 -170 -115l323 -499h-209zM878 1798l-313 -239h-189l208 239h294z" />
    <glyph glyph-name="racute" unicode="&#x155;" horiz-adv-x="570" 
d="M518 778q-124 -19 -192 -98.5t-68 -199.5v-480h-181v914h181v-130q40 107 172 149zM632 1273l-313 -239h-189l208 239h294z" />
    <glyph glyph-name="Rcommaaccent" unicode="&#x156;" horiz-adv-x="1041" 
d="M293 1281v-652h178q126 0 220 93.5t94 233.5q0 139 -94 232t-220 93h-178zM464 469l-171 2v-471h-181v1439h412q180 -24 301 -146q141 -141 141 -337q0 -197 -145 -342q-96 -97 -170 -115l323 -499h-209zM396 32q146 0 189 -34q53 -42 53 -99v-10q-6 -64 -77 -116
q-64 -36 -133 -36q-38 0 -125 23l45 132q73 -28 87 -28t25 6q8 5 10 17v3q0 4 -2 6q-1 2 -72 3v133z" />
    <glyph glyph-name="rcommaaccent" unicode="&#x157;" horiz-adv-x="570" 
d="M518 778q-124 -19 -192 -98.5t-68 -199.5v-480h-181v914h181v-130q40 107 172 149zM166 -16q145 0 189 -34q53 -42 53 -99v-10q-6 -64 -77 -116q-64 -36 -133 -36q-38 0 -125 23l45 132q73 -28 87 -28t25 6q7 5 10 17v3q0 4 -2 6q-1 2 -72 3v133z" />
    <glyph glyph-name="Rcaron" unicode="&#x158;" horiz-adv-x="1041" 
d="M293 1281v-652h178q126 0 220 93.5t94 233.5q0 139 -94 232t-220 93h-178zM462 471h-169v-471h-181v1439h412q180 -24 301 -146q141 -141 141 -337q0 -197 -145 -342q-96 -97 -170 -115l323 -499h-209zM537 1514l-338 277h230l110 -86l117 86h231z" />
    <glyph glyph-name="rcaron" unicode="&#x159;" horiz-adv-x="570" 
d="M518 778q-124 -19 -192 -98.5t-68 -199.5v-480h-181v914h181v-130q40 107 172 149zM291 989l-338 277h230l110 -86l117 86h231z" />
    <glyph glyph-name="Sacute" unicode="&#x15a;" horiz-adv-x="1017" 
d="M511 757q-155 51 -249 145t-94 227q0 130 97.5 228.5t242.5 98.5q143 0 245 -101q53 -52 83 -146l-162 -63q-30 81 -54 105q-49 50 -112 50q-62 0 -110.5 -48.5t-48.5 -123.5q0 -74 50 -126q52 -50 142 -92q172 -56 288 -172q133 -132 133 -312t-131.5 -311.5
t-322.5 -131.5q-192 0 -325 135q-104 103 -128 267l174 63q16 -157 89 -229q80 -80 190 -80q111 0 193.5 82.5t82.5 204.5t-81 203q-82 81 -192 127zM843 1798l-313 -239h-189l208 239h294z" />
    <glyph glyph-name="sacute" unicode="&#x15b;" horiz-adv-x="727" 
d="M334 456q-102 56 -140 94q-74 74 -74 170q0 95 72 168t180 73t174 -67q68 -68 68 -149v-28l-162 -66q-15 113 -34.5 133t-45.5 20t-49 -23t-23 -61t26 -64q17 -18 79 -57q113 -62 165 -113q82 -84 82 -198q0 -117 -85 -203t-213 -86t-213.5 86t-85.5 215l180 45
q0 -116 37 -153t82 -37t82.5 37t37.5 96q0 57 -40 96q-24 23 -100 72zM688 1273l-313 -239h-189l208 239h294z" />
    <glyph glyph-name="Scircumflex" unicode="&#x15c;" horiz-adv-x="1017" 
d="M511 757q-155 51 -249 145t-94 227q0 130 97.5 228.5t242.5 98.5q143 0 245 -101q53 -52 83 -146l-162 -63q-30 81 -54 105q-49 50 -112 50q-62 0 -110.5 -48.5t-48.5 -123.5q0 -74 50 -126q52 -50 142 -92q172 -56 288 -172q133 -132 133 -312t-131.5 -311.5
t-322.5 -131.5q-192 0 -325 135q-104 103 -128 267l174 63q16 -157 89 -229q80 -80 190 -80q111 0 193.5 82.5t82.5 204.5t-81 203q-82 81 -192 127zM852 1560h-231l-117 87l-110 -87h-230l338 278z" />
    <glyph glyph-name="scircumflex" unicode="&#x15d;" horiz-adv-x="727" 
d="M334 456q-102 56 -140 94q-74 74 -74 170q0 95 72 168t180 73t174 -67q68 -68 68 -149v-28l-162 -66q-15 113 -34.5 133t-45.5 20t-49 -23t-23 -61t26 -64q17 -18 79 -57q113 -62 165 -113q82 -84 82 -198q0 -117 -85 -203t-213 -86t-213.5 86t-85.5 215l180 45
q0 -116 37 -153t82 -37t82.5 37t37.5 96q0 57 -40 96q-24 23 -100 72zM698 1035h-231l-117 87l-110 -87h-230l338 278z" />
    <glyph glyph-name="Scedilla" unicode="&#x15e;" horiz-adv-x="1017" 
d="M452 -13q-156 17 -269 132q-104 103 -128 267l174 63q16 -157 89 -229q80 -80 190 -80q111 0 193.5 82.5t82.5 204.5t-81 203q-82 81 -192 127q-155 51 -249 145t-94 227q0 130 97.5 228.5t242.5 98.5q143 0 245 -101q53 -52 83 -146l-162 -63q-30 81 -54 105
q-49 50 -112 50q-62 0 -110.5 -48.5t-48.5 -123.5q0 -74 50 -126q52 -50 142 -92q172 -56 288 -172q133 -132 133 -312t-131 -311q-118 -118 -283 -131l-4 -10q58 -4 95 -81q16 -34 16 -66q0 -30 -14 -57q-32 -64 -119 -78q-27 -4 -52 -4q-46 0 -81 15q-13 6 -28 14l55 84
q15 -8 35 -8q25 0 43 12t18 29q0 16 -18 28t-43 12q-11 0 -20 -2z" />
    <glyph glyph-name="scedilla" unicode="&#x15f;" horiz-adv-x="727" 
d="M300 3q-93 15 -159 82q-86 86 -86 215l180 45q0 -116 37 -153t82 -37t82.5 37t37.5 96q0 57 -40 96q-24 23 -100 72q-102 56 -140 94q-74 74 -74 170q0 95 72 168t180 73t174 -67q68 -68 68 -149v-28l-162 -66q-15 113 -34.5 133t-45.5 20t-49 -23t-23 -61t26 -64
q17 -18 79 -57q113 -62 165 -113q82 -84 82 -198q0 -117 -85 -203q-69 -70 -167 -83l-10 -27q58 -4 95 -81q16 -34 16 -66q0 -30 -14 -57q-32 -64 -119 -78q-27 -4 -52 -4q-46 0 -81 15q-13 6 -28 14l54 84q16 -8 36 -8q25 0 43 12t18 29q0 16 -18 28t-43 12q-11 0 -20 -2z
" />
    <glyph glyph-name="Scaron" unicode="&#x160;" horiz-adv-x="1017" 
d="M511 757q-155 51 -249 145t-94 227q0 130 97.5 228.5t242.5 98.5q143 0 245 -101q53 -52 83 -146l-162 -63q-30 81 -54 105q-49 50 -112 50q-62 0 -110.5 -48.5t-48.5 -123.5q0 -74 50 -126q52 -50 142 -92q172 -56 288 -172q133 -132 133 -312t-131.5 -311.5
t-322.5 -131.5q-192 0 -325 135q-104 103 -128 267l174 63q16 -157 89 -229q80 -80 190 -80q111 0 193.5 82.5t82.5 204.5t-81 203q-82 81 -192 127zM502 1514l-338 277h230l110 -86l117 86h231z" />
    <glyph glyph-name="scaron" unicode="&#x161;" horiz-adv-x="727" 
d="M334 456q-102 56 -140 94q-74 74 -74 170q0 95 72 168t180 73t174 -67q68 -68 68 -149v-28l-162 -66q-15 113 -34.5 133t-45.5 20t-49 -23t-23 -61t26 -64q17 -18 79 -57q113 -62 165 -113q82 -84 82 -198q0 -117 -85 -203t-213 -86t-213.5 86t-85.5 215l180 45
q0 -116 37 -153t82 -37t82.5 37t37.5 96q0 57 -40 96q-24 23 -100 72zM348 989l-338 277h230l110 -86l117 86h231z" />
    <glyph glyph-name="Tcommaaccent" unicode="&#x162;" horiz-adv-x="931" 
d="M556 1282v-1282h-180v1282h-344v157h867v-157h-343zM393 -18q145 0 188 -34q54 -42 54 -99v-10q-6 -64 -77 -116q-64 -36 -133 -36q-38 0 -125 23l45 132q73 -28 87 -28t25 6q7 5 10 17v3q0 4 -2 6t-72 3v133z" />
    <glyph glyph-name="tcommaaccent" unicode="&#x163;" horiz-adv-x="584" 
d="M202 914v355h180v-355h170v-156h-170v-758h-180v758h-170v156h170zM201 -18q145 0 188 -34q54 -42 54 -99v-10q-6 -64 -77 -116q-64 -36 -133 -36q-38 0 -125 23l45 132q73 -28 87 -28t25 6q7 5 10 17v3q0 4 -2 6t-72 3v133z" />
    <glyph glyph-name="Tcaron" unicode="&#x164;" horiz-adv-x="931" 
d="M556 1282v-1282h-180v1282h-344v157h867v-157h-343zM459 1514l-338 277h230l110 -86l117 86h231z" />
    <glyph glyph-name="tcaron" unicode="&#x165;" horiz-adv-x="708" 
d="M202 914v355h180v-355h170v-156h-170v-758h-180v758h-170v156h170zM484 1203l-10 23q-34 33 -34 79q0 45 36.5 80t92.5 35q55 0 91.5 -35t36.5 -80q0 -23 -9 -46l-97 -196h-159z" />
    <glyph glyph-name="Tbar" unicode="&#x166;" horiz-adv-x="931" 
d="M377 798v484h-344v157h867v-157h-343v-484h249v-156h-249v-642h-180v642h-251v156h251z" />
    <glyph glyph-name="tbar" unicode="&#x167;" horiz-adv-x="584" 
d="M203 758h-170v156h170v355h180v-355h170v-156h-170v-150h170v-157h-170v-451h-180v451h-170v157h170v150z" />
    <glyph glyph-name="Utilde" unicode="&#x168;" horiz-adv-x="1214" 
d="M921 1439h181v-1018q-23 -169 -145 -291q-141 -142 -349 -142q-210 0 -353 143.5t-143 340.5v967h181v-967q0 -138 94 -232.5t221 -94.5q126 0 219.5 94.5t93.5 232.5v967zM539 1631q-2 -22 -2 -77l-167 36q2 71 11 98q23 70 86 96q22 10 49 10q59 0 135 -55
q14 -10 23 -16q1 22 1 75l169 -33q-4 -72 -13 -99q-22 -70 -87 -98q-24 -8 -47 -8q-59 0 -136 55q-13 10 -22 16z" />
    <glyph glyph-name="utilde" unicode="&#x169;" 
d="M483 -12q-182 0 -287.5 106t-108.5 260v561h181v-554q0 -92 65 -156q61 -61 149 -61q80 0 143 62.5t63 154.5v554h181v-561q-3 -154 -110 -262q-104 -104 -276 -104zM410 1106q-2 -22 -2 -77l-167 36q2 71 11 98q23 70 86 96q22 10 49 10q59 0 135 -55q14 -10 23 -16
q1 22 1 75l169 -33q-4 -72 -13 -99q-22 -70 -87 -98q-24 -8 -47 -8q-59 0 -136 55q-13 10 -22 16z" />
    <glyph glyph-name="Umacron" unicode="&#x16a;" horiz-adv-x="1214" 
d="M921 1439h181v-1018q-23 -169 -145 -291q-141 -142 -349 -142q-210 0 -353 143.5t-143 340.5v967h181v-967q0 -138 94 -232.5t221 -94.5q126 0 219.5 94.5t93.5 232.5v967zM305 1699h604v-140h-604v140z" />
    <glyph glyph-name="umacron" unicode="&#x16b;" 
d="M483 -12q-182 0 -287.5 106t-108.5 260v561h181v-554q0 -92 65 -156q61 -61 149 -61q80 0 143 62.5t63 154.5v554h181v-561q-3 -154 -110 -262q-104 -104 -276 -104zM176 1174h604v-140h-604v140z" />
    <glyph glyph-name="Ubreve" unicode="&#x16c;" horiz-adv-x="1214" 
d="M921 1439h181v-1018q-23 -169 -145 -291q-141 -142 -349 -142q-210 0 -353 143.5t-143 340.5v967h181v-967q0 -138 94 -232.5t221 -94.5q126 0 219.5 94.5t93.5 232.5v967zM864 1800q-31 -101 -74 -144q-73 -75 -181 -75q-110 0 -183 75q-44 45 -76 144h168
q21 -40 33 -52q25 -25 58 -25q31 0 56 26q13 11 32 51h167z" />
    <glyph glyph-name="ubreve" unicode="&#x16d;" 
d="M483 -12q-182 0 -287.5 106t-108.5 260v561h181v-554q0 -92 65 -156q61 -61 149 -61q80 0 143 62.5t63 154.5v554h181v-561q-3 -154 -110 -262q-104 -104 -276 -104zM735 1275q-31 -101 -74 -144q-73 -75 -181 -75q-110 0 -183 75q-44 45 -76 144h168q21 -40 33 -52
q25 -25 58 -25q31 0 56 26q13 11 32 51h167z" />
    <glyph glyph-name="Uring" unicode="&#x16e;" horiz-adv-x="1214" 
d="M921 1439h181v-1018q-23 -169 -145 -291q-141 -142 -349 -142q-210 0 -353 143.5t-143 340.5v967h181v-967q0 -138 94 -232.5t221 -94.5q126 0 219.5 94.5t93.5 232.5v967zM723 1707.5q45 -45.5 45 -103.5t-45 -103t-116 -45q-70 0 -115 45t-45 103t45 103.5t115 45.5
q71 0 116 -45.5zM607 1649q-21 0 -34.5 -13.5t-13.5 -31.5q0 -17 13.5 -30.5t34.5 -13.5q22 0 35.5 13.5t13.5 30.5q0 18 -13.5 31.5t-35.5 13.5z" />
    <glyph glyph-name="uring" unicode="&#x16f;" 
d="M483 -12q-182 0 -287.5 106t-108.5 260v561h181v-554q0 -92 65 -156q61 -61 149 -61q80 0 143 62.5t63 154.5v554h181v-561q-3 -154 -110 -262q-104 -104 -276 -104zM593 1182.5q45 -45.5 45 -103.5t-45 -103t-116 -45q-70 0 -115 45t-45 103t45 103.5t115 45.5
q71 0 116 -45.5zM477 1124q-21 0 -34.5 -13.5t-13.5 -31.5q0 -17 13.5 -30.5t34.5 -13.5q22 0 35.5 13.5t13.5 30.5q0 18 -13.5 31.5t-35.5 13.5z" />
    <glyph glyph-name="Uhungarumlaut" unicode="&#x170;" horiz-adv-x="1214" 
d="M921 1439h181v-1018q-23 -169 -145 -291q-141 -142 -349 -142q-210 0 -353 143.5t-143 340.5v967h181v-967q0 -138 94 -232.5t221 -94.5q126 0 219.5 94.5t93.5 232.5v967zM706 1791l-313 -238h-189l208 238h294zM1010 1791l-312 -238h-190l208 238h294z" />
    <glyph glyph-name="uhungarumlaut" unicode="&#x171;" 
d="M483 -12q-182 0 -287.5 106t-108.5 260v561h181v-554q0 -92 65 -156q61 -61 149 -61q80 0 143 62.5t63 154.5v554h181v-561q-3 -154 -110 -262q-104 -104 -276 -104zM577 1266l-313 -238h-189l208 238h294zM881 1266l-312 -238h-190l208 238h294z" />
    <glyph glyph-name="Uogonek" unicode="&#x172;" horiz-adv-x="1214" 
d="M803 25q-89 -37 -195 -37q-210 0 -353 143.5t-143 340.5v967h181v-967q0 -138 94 -232.5t221 -94.5q126 0 219.5 94.5t93.5 232.5v967h181v-1018q-23 -169 -145 -291l-6 -6q-44 -91 -44 -145q0 -17 13.5 -30.5t34.5 -13.5q10 0 19 3l13 -104q-15 -3 -32 -3q-70 0 -115 45
t-45 103q0 24 8 46z" />
    <glyph glyph-name="uogonek" unicode="&#x173;" 
d="M638 14q-69 -26 -155 -26q-182 0 -287.5 106t-108.5 260v561h181v-554q0 -92 65 -156q61 -61 149 -61q80 0 143 62.5t63 154.5v554h181v-561q-2 -128 -77 -224q-37 -73 -44 -138q0 -17 13.5 -30.5t34.5 -13.5q10 0 19 3l13 -105q-16 -2 -32 -2q-70 0 -115 45t-45 103
q0 11 2 22z" />
    <glyph glyph-name="Wcircumflex" unicode="&#x174;" horiz-adv-x="1665" 
d="M893 1079l291 -751l298 1111h183l-386 -1439h-158l-288 758l-289 -758h-158l-386 1439h184l299 -1111l289 751h121zM1177 1560h-231l-117 87l-110 -87h-230l338 278z" />
    <glyph glyph-name="wcircumflex" unicode="&#x175;" horiz-adv-x="1184" 
d="M1185 914l-311 -914h-127l-155 433l-154 -433h-129l-309 914h195l183 -568l154 426h122l153 -426l182 568h196zM936 1035h-231l-117 87l-110 -87h-230l338 278z" />
    <glyph glyph-name="Ycircumflex" unicode="&#x176;" horiz-adv-x="1233" 
d="M526 582l-494 857h200l385 -666l384 666h200l-494 -857v-582h-181v582zM960 1560h-231l-117 87l-110 -87h-230l338 278z" />
    <glyph glyph-name="ycircumflex" unicode="&#x177;" horiz-adv-x="896" 
d="M307 -317h-195l238 512l-335 719h195l238 -505l238 505h195zM792 1035h-231l-117 87l-110 -87h-230l338 278z" />
    <glyph glyph-name="Ydieresis" unicode="&#x178;" horiz-adv-x="1233" 
d="M526 582l-494 857h200l385 -666l384 666h200l-494 -857v-582h-181v582zM566.5 1760.5q36.5 -35.5 36.5 -79.5q0 -46 -36.5 -81.5t-91.5 -35.5q-57 0 -93 35.5t-36 81.5q0 44 36 79.5t93 35.5q55 0 91.5 -35.5zM851 1760.5q36 -35.5 36 -79.5q0 -46 -36 -81.5t-92 -35.5
t-92.5 35.5t-36.5 81.5q0 44 36.5 79.5t92.5 35.5t92 -35.5z" />
    <glyph glyph-name="Zacute" unicode="&#x179;" horiz-adv-x="1168" 
d="M823 1282h-615v157h906l-740 -1282h780v-157h-1070zM953 1798l-313 -239h-189l208 239h294z" />
    <glyph glyph-name="zacute" unicode="&#x17a;" horiz-adv-x="850" 
d="M492 746h-402v156h693l-431 -745h436v-157h-726zM760 1273l-313 -239h-189l208 239h294z" />
    <glyph glyph-name="Zdotaccent" unicode="&#x17b;" horiz-adv-x="1168" 
d="M823 1282h-615v157h906l-740 -1282h780v-157h-1070zM703 1770q33 -32 33 -73q0 -40 -33 -72t-84 -32t-84 32t-33 72q0 41 33 73t84 32t84 -32z" />
    <glyph glyph-name="zdotaccent" unicode="&#x17c;" horiz-adv-x="850" 
d="M492 746h-402v156h693l-431 -745h436v-157h-726zM509 1245q33 -32 33 -73q0 -40 -33 -72t-84 -32t-84 32t-33 72q0 41 33 73t84 32t84 -32z" />
    <glyph glyph-name="Zcaron" unicode="&#x17d;" horiz-adv-x="1168" 
d="M823 1282h-615v157h906l-740 -1282h780v-157h-1070zM613 1514l-338 277h230l110 -86l117 86h231z" />
    <glyph glyph-name="zcaron" unicode="&#x17e;" horiz-adv-x="850" 
d="M492 746h-402v156h693l-431 -745h436v-157h-726zM419 989l-338 277h230l110 -86l117 86h231z" />
    <glyph glyph-name="longs" unicode="&#x17f;" horiz-adv-x="483" 
d="M291 0h-181v1101q7 107 83 186q87 80 201 80q59 0 163 -36l-53 -150q-81 35 -102 35q-36 0 -73 -33q-36 -36 -38 -89v-1094z" />
    <glyph glyph-name="florin" unicode="&#x192;" horiz-adv-x="488" 
d="M296 0h-1v-28q-11 -281 -350 -281v152q163 0 170 129v786h-85v156h85v187q6 107 83 186q87 80 201 80q59 0 163 -36l-53 -150q-82 35 -102 35q-36 0 -73 -33q-36 -36 -38 -89v-180h170v-156h-170v-758z" />
    <glyph glyph-name="Aringacute" unicode="&#x1fa;" horiz-adv-x="1210" 
d="M753 687l-147 387l-148 -387h295zM546 1563l96 135h291l-214 -173q41 -43 41 -99q0 -55 -45 -100l-8 -15l500 -1311h-188l-208 531h-411l-212 -531h-189l505 1310l-15 20q-41 41 -41 96q0 56 45 102q29 29 53 35zM599 1470q-17 0 -28 -11.5t-11 -27.5t11 -27.5t28 -11.5
q16 0 27.5 11.5t11.5 27.5t-11.5 27.5t-27.5 11.5z" />
    <glyph glyph-name="aringacute" unicode="&#x1fb;" horiz-adv-x="1188" 
d="M918 410v146q-19 99 -91 171q-101 102 -235 102q-135 0 -234 -100t-99 -247q0 -146 99 -245t234 -99q134 0 235 101q72 72 91 171zM582 1115q-17 0 -28 -11.5t-11 -27.5t11 -27.5t28 -11.5q16 0 27.5 11.5t11.5 27.5t-11.5 27.5t-27.5 11.5zM702 976q138 -36 216 -169
v107h181v-914h-181v160q-107 -184 -326 -184q-217 0 -367.5 150.5t-150.5 355.5q0 207 151 357q106 106 246 137q-40 41 -40 95q0 56 45 102q29 29 53 35l26 65h291l-144 -103q41 -43 41 -99q0 -52 -41 -95z" />
    <glyph glyph-name="AEacute" unicode="&#x1fc;" horiz-adv-x="1514" 
d="M1402 798v-157h-602v-484h602v-157h-782v521h-199l-231 -521h-191l625 1439h778v-157h-602v-484h602zM620 677v317l-136 -317h136zM1035 1798l-313 -239h-189l208 239h294z" />
    <glyph glyph-name="aeacute" unicode="&#x1fd;" horiz-adv-x="1908" 
d="M883 653q-24 42 -56 74q-101 102 -235 102q-135 0 -234 -100t-99 -247q0 -146 99 -245t234 -99q134 0 235 101q32 32 56 74q26 46 35 97v146q-9 51 -35 97zM1658 643q-10 31 -68 88q-96 98 -230 98q-135 0 -236 -102q-17 -16 -25 -29v-55h559zM1099 267q8 -12 29 -32
q97 -97 232 -97q134 0 231 97q18 18 56 68l171 -61q-38 -64 -88 -113q-152 -153 -370 -153q-206 0 -261 52v-28h-181v160q-107 -184 -326 -184q-217 0 -367.5 150.5t-150.5 355.5q0 207 150.5 357t367.5 150q219 0 326 -182v107h181q55 75 261 75q218 0 366 -148
q135 -136 142 -356l-769 1v-219zM1306 1273l-313 -239h-189l208 239h294z" />
    <glyph glyph-name="Oslashacute" unicode="&#x1fe;" horiz-adv-x="1693" 
d="M1009 1280q-52 21 -163 21q-230 0 -398 -168.5t-168 -410.5q0 -244 166 -411q65 -64 79 -73zM683 162q53 -20 163 -20q231 0 399 168t168 412q0 242 -170 414q-61 60 -75 68zM1237 1353q61 -33 143 -114q215 -216 215 -517q0 -303 -217.5 -520.5t-531.5 -217.5
q-152 0 -231 32l-74 -160l-159 76l74 158q-62 33 -143 114q-215 215 -215 518q0 301 217.5 519t530.5 218q152 0 232 -32l74 158l159 -73zM1181 1798l-313 -239h-189l208 239h294z" />
    <glyph glyph-name="oslashacute" unicode="&#x1ff;" horiz-adv-x="1145" 
d="M666 819q-20 10 -93 10q-135 0 -234 -99.5t-99 -246.5q0 -146 97 -244zM816 730l-337 -582q21 -9 94 -9q134 0 233.5 99t99.5 245q0 147 -90 247zM246 90q-10 7 -44 39q-147 149 -147 354q0 207 150.5 357t367.5 150q123 0 178 -26l104 183l154 -82l-108 -187
q9 -7 43 -40q146 -148 146 -355q0 -205 -149 -355.5t-368 -150.5q-124 0 -177 26l-104 -180l-156 73zM907 1273l-313 -239h-189l208 239h294z" />
    <glyph glyph-name="Scommaaccent" unicode="&#x218;" horiz-adv-x="1017" 
d="M511 757q-155 51 -249 145t-94 227q0 130 97.5 228.5t242.5 98.5q143 0 245 -101q53 -52 83 -146l-162 -63q-30 81 -54 105q-49 50 -112 50q-62 0 -110.5 -48.5t-48.5 -123.5q0 -74 50 -126q52 -50 142 -92q172 -56 288 -172q133 -132 133 -312t-131.5 -311.5
t-322.5 -131.5q-192 0 -325 135q-104 103 -128 267l174 63q16 -157 89 -229q80 -80 190 -80q111 0 193.5 82.5t82.5 204.5t-81 203q-82 81 -192 127zM445 -225l-8 14q-27 21 -27 49t29 50t73 22q43 0 72 -22t29 -50q0 -14 -7 -28l-77 -122h-125z" />
    <glyph glyph-name="scommaaccent" unicode="&#x219;" horiz-adv-x="727" 
d="M334 456q-102 56 -140 94q-74 74 -74 170q0 95 72 168t180 73t174 -67q68 -68 68 -149v-28l-162 -66q-15 113 -34.5 133t-45.5 20t-49 -23t-23 -61t26 -64q17 -18 79 -57q113 -62 165 -113q82 -84 82 -198q0 -117 -85 -203t-213 -86t-213.5 86t-85.5 215l180 45
q0 -116 37 -153t82 -37t82.5 37t37.5 96q0 57 -40 96q-24 23 -100 72zM290 -225l-8 14q-27 21 -27 49t29 50t73 22q43 0 72 -22t29 -50q0 -14 -7 -28l-77 -122h-125z" />
    <glyph glyph-name="uni021A" unicode="&#x21a;" horiz-adv-x="931" 
d="M377 1282h-344v157h867v-157h-343v-1282h-180v1282zM403 -225l-8 14q-27 21 -27 49t29 50t73 22q43 0 72 -22t29 -50q0 -14 -7 -28l-77 -122h-125z" />
    <glyph glyph-name="uni021B" unicode="&#x21b;" horiz-adv-x="584" 
d="M203 758h-170v156h170v355h180v-355h170v-156h-170v-758h-180v758zM229 -225l-7 14q-27 21 -27 49t28.5 50t73.5 22q43 0 72 -22t29 -50q0 -14 -8 -28l-76 -122h-126z" />
    <glyph glyph-name="circumflex" unicode="&#x2c6;" horiz-adv-x="878" 
d="M783 1035h-231l-117 87l-110 -87h-230l338 278z" />
    <glyph glyph-name="caron" unicode="&#x2c7;" horiz-adv-x="878" 
d="M433 989l-338 277h230l110 -86l117 86h231z" />
    <glyph glyph-name="uni02C9" unicode="&#x2c9;" horiz-adv-x="754" 
d="M75 1174h604v-140h-604v140z" />
    <glyph glyph-name="breve" unicode="&#x2d8;" horiz-adv-x="681" 
d="M597 1275q-31 -101 -74 -144q-73 -75 -181 -75q-110 0 -183 75q-44 45 -76 144h168q21 -40 33 -52q25 -25 58 -25q31 0 56 26q13 11 32 51h167z" />
    <glyph glyph-name="dotaccent" unicode="&#x2d9;" horiz-adv-x="384" 
d="M276 1245q33 -32 33 -73q0 -40 -33 -72t-84 -32t-84 32t-33 72q0 41 33 73t84 32t84 -32z" />
    <glyph glyph-name="ring" unicode="&#x2da;" horiz-adv-x="589" 
d="M410 1182.5q45 -45.5 45 -103.5t-45 -103t-116 -45q-70 0 -115 45t-45 103t45 103.5t115 45.5q71 0 116 -45.5zM294 1124q-21 0 -34.5 -13.5t-13.5 -31.5q0 -17 13.5 -30.5t34.5 -13.5q22 0 35.5 13.5t13.5 30.5q0 18 -13.5 31.5t-35.5 13.5z" />
    <glyph glyph-name="ogonek" unicode="&#x2db;" horiz-adv-x="535" 
d="M303 -17q-21 0 -34.5 -13.5t-13.5 -31.5q0 -17 13.5 -30.5t34.5 -13.5q10 0 19 3l13 -105q-15 -2 -32 -2q-70 0 -115 45t-45 103t45 104q43 43 110 45l13 -104h-8z" />
    <glyph glyph-name="tilde" unicode="&#x2dc;" horiz-adv-x="625" 
d="M244 1106q-2 -22 -2 -77l-167 36q2 71 11 98q23 70 86 96q22 10 49 10q59 0 135 -55q14 -10 23 -16q1 22 1 75l169 -33q-4 -72 -13 -99q-22 -70 -87 -98q-24 -8 -47 -8q-59 0 -136 55q-13 10 -22 16z" />
    <glyph glyph-name="hungarumlaut" unicode="&#x2dd;" horiz-adv-x="854" 
d="M526 1266l-313 -238h-189l208 238h294zM830 1266l-312 -238h-190l208 238h294z" />
    <glyph glyph-name="tonos" unicode="&#x384;" horiz-adv-x="597" 
d="M577 1439l-313 -238h-189l208 238h294z" />
    <glyph glyph-name="dieresistonos" unicode="&#x385;" horiz-adv-x="795" 
d="M637 1439l-236 -238h-158l131 238h263zM715.5 1356.5q29.5 -28.5 29.5 -62.5q0 -37 -29.5 -65.5t-74.5 -28.5q-47 0 -76.5 28.5t-29.5 65.5q0 34 29.5 62.5t76.5 28.5q45 0 74.5 -28.5zM231 1356.5q30 -28.5 30 -62.5q0 -37 -30 -65.5t-75 -28.5q-47 0 -76.5 28.5
t-29.5 65.5q0 34 29.5 62.5t76.5 28.5q45 0 75 -28.5z" />
    <glyph glyph-name="Alphatonos" unicode="&#x386;" horiz-adv-x="1093" 
d="M403 1439l-314 -238h-189l208 238h295zM703 754l-138 382l-139 -382h277zM644 1439l521 -1439h-188l-217 598h-391l-221 -598h-189l528 1439h157z" />
    <glyph glyph-name="anoteleia" unicode="&#x387;" horiz-adv-x="344" 
d="M256 1091q33 -32 33 -72q0 -41 -33 -73t-84 -32t-84 32t-33 73q0 40 33 72t84 32t84 -32z" />
    <glyph glyph-name="Epsilontonos" unicode="&#x388;" horiz-adv-x="1151" 
d="M209 1439l-313 -238h-189l208 238h294zM1058 1439v-157h-602v-484h602v-157h-602v-484h602v-157h-783v1439h783z" />
    <glyph glyph-name="Etatonos" unicode="&#x389;" horiz-adv-x="1343" 
d="M212 1439l-313 -238h-189l208 238h294zM459 641v-641h-181v1439h181v-641h591v641h181v-1439h-181v641h-591z" />
    <glyph glyph-name="Iotatonos" unicode="&#x38a;" horiz-adv-x="535" 
d="M199 1439l-313 -238h-189l208 238h294zM439 1439v-1439h-181v1439h181z" />
    <glyph glyph-name="Omicrontonos" unicode="&#x38c;" horiz-adv-x="1623" 
d="M285 1439l-313 -238h-189l208 238h294zM1315.5 1241q217.5 -218 217.5 -519q0 -303 -217.5 -520.5t-531.5 -217.5q-313 0 -530.5 217.5t-217.5 520.5q0 301 217.5 519t530.5 218q314 0 531.5 -218zM784 1301q-231 0 -399 -168.5t-168 -410.5q0 -244 168 -412t399 -168
t399 168t168 412q0 242 -168 410.5t-399 168.5z" />
    <glyph glyph-name="Upsilontonos" unicode="&#x38e;" horiz-adv-x="1322" 
d="M141 1439l-313 -238h-189l208 238h294zM676 582l-494 857h200l384 -666l384 666h201l-494 -857v-582h-181v582z" />
    <glyph glyph-name="Omegatonos" unicode="&#x38f;" horiz-adv-x="1464" 
d="M266 1439l-313 -238h-189l208 238h294zM720 1459q299 0 475.5 -207t176.5 -544q0 -251 -330 -551h243v-157h-465v147q107 48 239 187t132 374q0 283 -132 444t-344 161h-4q-213 0 -344.5 -161t-131.5 -444q0 -235 131.5 -374t238.5 -187v-147h-465v157h244
q-331 300 -331 551q0 337 177 544t476 207h14z" />
    <glyph glyph-name="iotadieresistonos" unicode="&#x390;" horiz-adv-x="470" 
d="M326 914v-914h-180v914h180zM475 1279l-236 -238h-158l131 238h263zM553.5 1196.5q29.5 -28.5 29.5 -62.5q0 -37 -29.5 -65.5t-74.5 -28.5q-47 0 -76.5 28.5t-29.5 65.5q0 34 29.5 62.5t76.5 28.5q45 0 74.5 -28.5zM69 1196.5q30 -28.5 30 -62.5q0 -37 -30 -65.5
t-75 -28.5q-47 0 -76.5 28.5t-29.5 65.5q0 34 29.5 62.5t76.5 28.5q45 0 75 -28.5z" />
    <glyph glyph-name="Alpha" unicode="&#x391;" horiz-adv-x="1208" 
d="M743 754l-138 382l-139 -382h277zM684 1439l521 -1439h-188l-217 598h-391l-221 -598h-189l528 1439h157z" />
    <glyph glyph-name="Beta" unicode="&#x392;" horiz-adv-x="1102" 
d="M555 157q125 0 218.5 93.5t93.5 232.5t-93.5 233t-218.5 94h-262v-653h262zM293 1283v-316h290q59 6 91 39q44 43 44 115q0 70 -46 116t-104 46h-275zM910 821q140 -140 140 -338q0 -196 -145 -341q-117 -118 -296 -142h-497v1439h457q141 0 236 -95t95 -223
q0 -129 -93 -221q33 -8 103 -79z" />
    <glyph glyph-name="Gamma" unicode="&#x393;" horiz-adv-x="832" 
d="M810 1439v-157h-517v-1282h-181v1439h698z" />
    <glyph glyph-name="uni0394" unicode="&#x394;" horiz-adv-x="1195" 
d="M44 1h-74l524 1438h171l530 -1439h-1151v1zM948 157l-369 999l-364 -999h733z" />
    <glyph glyph-name="Epsilon" unicode="&#x395;" horiz-adv-x="985" 
d="M895 1439v-157h-602v-484h602v-157h-602v-484h602v-157h-783v1439h783z" />
    <glyph glyph-name="Zeta" unicode="&#x396;" horiz-adv-x="1168" 
d="M823 1282h-615v157h906l-740 -1282h780v-157h-1070z" />
    <glyph glyph-name="Eta" unicode="&#x397;" horiz-adv-x="1173" 
d="M291 641v-641h-181v1439h181v-641h591v641h181v-1439h-181v641h-591z" />
    <glyph glyph-name="Theta" unicode="&#x398;" horiz-adv-x="1621" 
d="M1341.5 1241q217.5 -218 217.5 -519q0 -303 -217.5 -520.5t-531.5 -217.5q-313 0 -530.5 217.5t-217.5 520.5q0 301 217.5 519t530.5 218q314 0 531.5 -218zM810 1301q-230 0 -398 -168.5t-168 -410.5q0 -244 168 -412t398 -168q231 0 399 168t168 412q0 242 -168 410.5
t-399 168.5zM375 800h872v-157h-872v157z" />
    <glyph glyph-name="Iota" unicode="&#x399;" horiz-adv-x="425" 
d="M303 1439v-1439h-181v1439h181z" />
    <glyph glyph-name="Kappa" unicode="&#x39a;" horiz-adv-x="1102" 
d="M874 1439l-380 -550l622 -889h-211l-518 741l-94 -135v-606h-181v1439h181v-532l371 532h210z" />
    <glyph glyph-name="Lambda" unicode="&#x39b;" horiz-adv-x="1225" 
d="M695 1439l530 -1439h-189l-427 1156l-421 -1155h-188l524 1438h171z" />
    <glyph glyph-name="Mu" unicode="&#x39c;" horiz-adv-x="1496" 
d="M1403 1439v-1439h-181v1170l-473 -621l-474 621v-1170h-181v1439h193l462 -605l461 605h193z" />
    <glyph glyph-name="Nu" unicode="&#x39d;" horiz-adv-x="1398" 
d="M288 1439l820 -1150v1150h181v-1439h-200l-799 1121v-1121h-181v1439h179z" />
    <glyph glyph-name="Xi" unicode="&#x39e;" horiz-adv-x="1164" 
d="M145 800h872v-157h-872v157zM50 1440h1064v-157h-1064v157zM50 158h1064v-157h-1064v157z" />
    <glyph glyph-name="Omicron" unicode="&#x39f;" horiz-adv-x="1621" 
d="M1341.5 1241q217.5 -218 217.5 -519q0 -303 -217.5 -520.5t-531.5 -217.5q-313 0 -530.5 217.5t-217.5 520.5q0 301 217.5 519t530.5 218q314 0 531.5 -218zM810 1301q-230 0 -398 -168.5t-168 -410.5q0 -244 168 -412t398 -168q231 0 399 168t168 412q0 242 -168 410.5
t-399 168.5z" />
    <glyph glyph-name="Pi" unicode="&#x3a0;" horiz-adv-x="1141" 
d="M275 1282v-1282h-181v1439h953v-1439h-181v1282h-591z" />
    <glyph glyph-name="Rho" unicode="&#x3a1;" horiz-adv-x="1032" 
d="M293 471v-471h-181v1439h412q180 -24 301 -146q141 -141 141 -337q0 -197 -143 -341t-352 -144h-178zM293 1281v-652h178q126 0 220 93.5t94 233.5q0 139 -94 232t-220 93h-178z" />
    <glyph glyph-name="Sigma" unicode="&#x3a3;" horiz-adv-x="1125" 
d="M24 1438h1077v-157h-848l463 -562l-463 -562h848v-157h-1077v163l470 556l-470 557v162z" />
    <glyph glyph-name="Tau" unicode="&#x3a4;" horiz-adv-x="971" 
d="M576 1282v-1282h-180v1282h-344v157h867v-157h-343z" />
    <glyph glyph-name="Upsilon" unicode="&#x3a5;" horiz-adv-x="1169" 
d="M526 582l-494 857h200l385 -666l384 666h200l-494 -857v-582h-181v582z" />
    <glyph glyph-name="Phi" unicode="&#x3a6;" horiz-adv-x="1625" 
d="M722 365v686q-188 -5 -324 -99q-142 -101 -142 -244q0 -142 142 -242q136 -96 324 -101zM903 204v-200h-181v200q-263 7 -450 147q-202 148 -202 358t202 359q187 137 450 144v225h181v-225q263 -7 452 -144q200 -149 200 -359t-200 -358q-189 -140 -452 -147zM903 1051
v-686q188 5 324 101q143 100 143 242q0 143 -143 244q-135 94 -324 99z" />
    <glyph glyph-name="Chi" unicode="&#x3a7;" horiz-adv-x="1137" 
d="M15 0l453 787l-376 652h200l276 -479l276 479h201l-377 -652l455 -787h-201l-354 613l-354 -613h-199z" />
    <glyph glyph-name="Psi" unicode="&#x3a8;" horiz-adv-x="1661" 
d="M918 300v-296h-181v296q-263 7 -451 147q-191 149 -196 361v629h181v-633q0 -142 143 -242q135 -96 323 -101v976h181v-976q189 5 324 101q143 100 143 286h5v589h181v-634q-1 -209 -201 -356q-188 -140 -452 -147z" />
    <glyph glyph-name="uni03A9" unicode="&#x3a9;" horiz-adv-x="1519" 
d="M766 1459q300 0 476.5 -207t176.5 -544q0 -251 -330 -551h243v-157h-465v147q107 48 239 187t132 374q0 283 -132 444t-344 161h-4q-213 0 -344.5 -161t-131.5 -444q0 -235 131.5 -374t238.5 -187v-147h-465l-1 157h244q-330 300 -330 551q0 337 177 544t476 207h13z" />
    <glyph glyph-name="Iotadieresis" unicode="&#x3aa;" horiz-adv-x="425" 
d="M303 1439v-1439h-181v1439h181zM162.5 1760.5q36.5 -35.5 36.5 -79.5q0 -46 -36.5 -81.5t-91.5 -35.5q-57 0 -93 35.5t-36 81.5q0 44 36 79.5t93 35.5q55 0 91.5 -35.5zM447 1760.5q36 -35.5 36 -79.5q0 -46 -36 -81.5t-92 -35.5t-92.5 35.5t-36.5 81.5q0 44 36.5 79.5
t92.5 35.5t92 -35.5z" />
    <glyph glyph-name="Upsilondieresis" unicode="&#x3ab;" horiz-adv-x="1169" 
d="M526 582l-494 857h200l385 -666l384 666h200l-494 -857v-582h-181v582zM566.5 1760.5q36.5 -35.5 36.5 -79.5q0 -46 -36.5 -81.5t-91.5 -35.5q-57 0 -93 35.5t-36 81.5q0 44 36 79.5t93 35.5q55 0 91.5 -35.5zM851 1760.5q36 -35.5 36 -79.5q0 -46 -36 -81.5t-92 -35.5
t-92.5 35.5t-36.5 81.5q0 44 36.5 79.5t92.5 35.5t92 -35.5z" />
    <glyph glyph-name="alphatonos" unicode="&#x3ac;" horiz-adv-x="1234" 
d="M969 130q-152 -154 -371 -154q-217 0 -367.5 150.5t-150.5 355.5q0 207 150.5 357t367.5 150q219 0 371 -152l47 77h178l-105 -457l105 -457h-179zM829 731q-97 98 -231 98q-135 0 -234 -100t-99 -247q0 -146 99 -245t234 -99q134 0 231 96q76 76 79 227q0 189 -79 270z
M972 1279l-313 -238h-189l208 238h294z" />
    <glyph glyph-name="epsilontonos" unicode="&#x3ad;" horiz-adv-x="838" 
d="M166 460q-108 83 -108 192q0 111 104 190t250 79q145 0 249 -79q94 -71 107 -212h-184q-11 80 -53 112q-49 37 -119 37q-71 0 -119.5 -37t-48.5 -90q0 -52 48 -88q21 -16 35 -22h259v-156h-236q-29 -7 -58 -29q-48 -36 -48 -89t48.5 -89.5t119.5 -36.5q70 0 119 36.5
t49 89.5v48h185v-48q0 -111 -104 -190t-249 -79q-146 0 -250 79t-104 190q0 109 108 192zM372 1269l208 -238h-188l-314 238h294z" />
    <glyph glyph-name="etatonos" unicode="&#x3ae;" horiz-adv-x="918" 
d="M271 682v-682h-181v914h181q26 50 190 50q173 0 279 -106t108 -259v-917h-180v909q0 93 -63 154.5t-144 61.5q-80 0 -141 -58q-35 -35 -49 -67zM804 1279l-314 -238h-189l208 238h295z" />
    <glyph glyph-name="iotatonos" unicode="&#x3af;" horiz-adv-x="470" 
d="M325 914v-914h-180v914h180zM570 1279l-314 -238h-188l207 238h295z" />
    <glyph glyph-name="upsilondieresistonos" unicode="&#x3b0;" 
d="M483 -12q-182 0 -287.5 106t-108.5 260v561h181v-554q0 -92 65 -156q61 -61 149 -61q80 0 143 62.5t63 154.5v554h181v-561q-3 -154 -110 -262q-104 -104 -276 -104zM717 1269l-236 -238h-157l130 238h263zM796 1186.5q30 -28.5 30 -62.5q0 -37 -30 -65.5t-75 -28.5
q-47 0 -76.5 28.5t-29.5 65.5q0 34 29.5 62.5t76.5 28.5q45 0 75 -28.5zM311.5 1186.5q29.5 -28.5 29.5 -62.5q0 -37 -29.5 -65.5t-75.5 -28.5q-47 0 -76.5 28.5t-29.5 65.5q0 34 29.5 62.5t76.5 28.5q46 0 75.5 -28.5z" />
    <glyph glyph-name="alpha" unicode="&#x3b1;" horiz-adv-x="1234" 
d="M969 130q-152 -154 -371 -154q-217 0 -367.5 150.5t-150.5 355.5q0 207 150.5 357t367.5 150q219 0 371 -152l47 77h178l-105 -457l105 -457h-179zM829 731q-97 98 -231 98q-135 0 -234 -100t-99 -247q0 -146 99 -245t234 -99q134 0 231 96q76 76 79 227q0 189 -79 270z
" />
    <glyph glyph-name="beta" unicode="&#x3b2;" horiz-adv-x="986" 
d="M469 142q110 0 191.5 81.5t81.5 203.5q0 123 -82 212t-243 120l-59 3v154q69 1 108 16.5t89.5 69t50.5 127.5q0 75 -47.5 122t-109.5 47q-58 0 -103 -50t-45 -147v-1416h-181v1426q0 150 91.5 248.5t237.5 98.5q147 0 244.5 -99t97.5 -230q0 -133 -117 -279
q36 -11 126 -107q126 -136 126 -316q0 -181 -132 -313t-325 -132q-65 0 -140 22l76 148q37 -10 64 -10z" />
    <glyph glyph-name="gamma" unicode="&#x3b3;" horiz-adv-x="1004" 
d="M409 34l-369 880h198l262 -625l266 625h198l-371 -875v-357h-184v352z" />
    <glyph glyph-name="delta" unicode="&#x3b4;" horiz-adv-x="1179" 
d="M257 482q0 -146 99 -245t234 -99q134 0 233.5 99t99.5 245q0 147 -99.5 247t-233.5 100q-135 0 -234 -100t-99 -247zM983 814q124 -125 124 -332q0 -205 -149 -355.5t-368 -150.5q-217 0 -367.5 150.5t-150.5 355.5q0 207 148 355q134 133 295 151l-369 446h750v-156
h-387q190 -261 270 -300t204 -164z" />
    <glyph glyph-name="epsilon" unicode="&#x3b5;" horiz-adv-x="838" 
d="M166 460q-108 83 -108 192q0 111 104 190t250 79q145 0 249 -79q94 -71 107 -212h-184q-11 80 -53 112q-49 37 -119 37q-71 0 -119.5 -37t-48.5 -90q0 -52 48 -88q21 -16 35 -22h259v-156h-236q-29 -7 -58 -29q-48 -36 -48 -89t48.5 -89.5t119.5 -36.5q70 0 119 36.5
t49 89.5v48h185v-48q0 -111 -104 -190t-249 -79q-146 0 -250 79t-104 190q0 109 108 192z" />
    <glyph glyph-name="zeta" unicode="&#x3b6;" horiz-adv-x="866" 
d="M886 1361q-525 -527 -596 -885q-11 -56 -11 -102q0 -225 277 -234q287 -10 287 -227q-35 -189 -276 -197v161q92 0 96 50v4q0 51 -104 51q-459 9 -459 378q0 42 7 88q55 422 487 834h-458v157h750v-78z" />
    <glyph glyph-name="eta" unicode="&#x3b7;" horiz-adv-x="918" 
d="M271 682v-682h-181v914h181q26 50 190 50q173 0 279 -106t108 -259v-917h-180v909q0 93 -63 154.5t-144 61.5q-80 0 -141 -58q-35 -35 -49 -67z" />
    <glyph glyph-name="theta" unicode="&#x3b8;" horiz-adv-x="1195" 
d="M931 708q0 279 -102.5 424.5t-230.5 145.5q-129 0 -231 -145.5t-102 -424.5q0 -280 102 -425t231 -145q128 0 230.5 145t102.5 425zM1115 708q0 -332 -147 -532t-369 -200q-223 0 -371 200t-148 532q0 331 148 531t371 200q222 0 369 -200t147 -531zM385 787h426v-157
h-426v157z" />
    <glyph glyph-name="iota" unicode="&#x3b9;" horiz-adv-x="470" 
d="M325 914v-914h-180v914h180z" />
    <glyph glyph-name="kappa" unicode="&#x3ba;" horiz-adv-x="843" 
d="M747 914l-240 -298l348 -616h-207l-261 476l-106 -118v-358h-181v914h181v-289l248 289h218z" />
    <glyph glyph-name="lambda" unicode="&#x3bb;" horiz-adv-x="966" 
d="M916 0h-195l-238 506l-238 -506h-195l335 720l-257 550h195z" />
    <glyph glyph-name="uni03BC" unicode="&#x3bc;" horiz-adv-x="957" 
d="M668 67q-25 -75 -197 -75q-161 0 -180 19v-329h-181v1232h181v-654q11 -25 39 -53q60 -58 141 -58q80 0 142 60q41 41 55 90v615h179v-914h-179v67z" />
    <glyph glyph-name="nu" unicode="&#x3bd;" horiz-adv-x="946" 
d="M241 914l230 -548l233 548h198l-431 -1034l-428 1034h198z" />
    <glyph glyph-name="xi" unicode="&#x3be;" horiz-adv-x="964" 
d="M212 128.5q-132 116.5 -132 298.5q0 180 126 316q90 96 126 107q-118 125 -118 261q18 326 422 327l260 2v-151h-232q-254 0 -254 -172v-7q0 -73 44.5 -117.5t124.5 -75.5l311 -1v-156l-301 2q-161 -33 -243 -122.5t-82 -212.5q0 -120 81.5 -189t355 -100t273.5 -251v-23
q-37 -148 -284 -171v175q101 0 103 31v4q0 73 -224.5 91t-356.5 134.5z" />
    <glyph glyph-name="omicron" unicode="&#x3bf;" horiz-adv-x="1179" 
d="M590 989q219 0 368 -150t149 -357q0 -205 -149 -355.5t-368 -150.5q-217 0 -367.5 150.5t-150.5 355.5q0 207 150.5 357t367.5 150zM356 729q-99 -100 -99 -247q0 -146 99 -245t234 -99q134 0 233.5 99t99.5 245q0 147 -99.5 247t-233.5 100q-135 0 -234 -100z" />
    <glyph glyph-name="pi" unicode="&#x3c0;" horiz-adv-x="1179" 
d="M488 758v-758h-180v758h-248v156h1059v-156h-247v-758h-180v758h-204z" />
    <glyph glyph-name="rho" unicode="&#x3c1;" horiz-adv-x="1176" 
d="M92 599q40 152 164.5 270.5t341.5 118.5q218 0 368 -149.5t150 -356.5q0 -205 -150 -355.5t-368 -150.5t-325 132v-426h-181v917zM273 559v-154q18 -97 93 -171q98 -97 232 -97t233.5 99.5t99.5 245.5q0 147 -99.5 247t-233.5 100t-236 -102q-71 -71 -89 -168z" />
    <glyph glyph-name="sigma1" unicode="&#x3c2;" horiz-adv-x="980" 
d="M251 133q-151 109 -151 294q0 180 126 315q141 156 446 175l238 -1v-156h-192q-236 -7 -335 -109t-99 -224q0 -117 100.5 -183.5t307 -113.5t206.5 -214v-22q-36 -168 -284 -191v174q100 0 103 50v4q0 31 -157.5 62t-308.5 140z" />
    <glyph glyph-name="sigma" unicode="&#x3c3;" horiz-adv-x="1259" 
d="M267 482q0 -146 99 -245t234 -99q134 0 233.5 99t99.5 245q0 147 -99.5 247t-233.5 100q-135 0 -234 -100t-99 -247zM1044 758q73 -80 73 -276q0 -205 -149 -355.5t-368 -150.5q-217 0 -367.5 150.5t-150.5 355.5q0 207 150.5 357t367.5 150q163 0 274 -75h315v-156h-145
z" />
    <glyph glyph-name="tau" unicode="&#x3c4;" horiz-adv-x="991" 
d="M586 758v-758h-180v758h-344v156h867v-156h-343z" />
    <glyph glyph-name="upsilon" unicode="&#x3c5;" 
d="M483 -12q-182 0 -287.5 106t-108.5 260v561h181v-554q0 -92 65 -156q61 -61 149 -61q80 0 143 62.5t63 154.5v554h181v-561q-3 -154 -110 -262q-104 -104 -276 -104z" />
    <glyph glyph-name="phi" unicode="&#x3c6;" horiz-adv-x="1196" 
d="M518 -12q-150 9 -290 150q-148 147 -148 353q0 207 148 354q49 51 140 105l57 -160q-40 -33 -61 -54q-98 -99 -98 -245q0 -147 101 -248q94 -95 145 -95v677q20 128 155 128q74 0 184 -49q265 -119 265 -413q0 -205 -147 -353q-133 -134 -270 -147v-304h-181v301z
M693 174q81 13 136 68q103 102 103 249q0 178 -146 262q-60 34 -84 34q-5 0 -8 -1z" />
    <glyph glyph-name="chi" unicode="&#x3c7;" horiz-adv-x="1095" 
d="M548 175l-298 -488h-200l397 653l-349 574h201l249 -408l248 408h201l-349 -574l397 -653h-200z" />
    <glyph glyph-name="psi" unicode="&#x3c8;" horiz-adv-x="1231" 
d="M709 -11v-293h-187v293q-146 10 -284 149q-148 147 -148 353v424h186v-424q0 -147 101 -248q94 -95 145 -95v767h187v-767q51 0 145 95q101 101 101 248v424h186v-424q0 -206 -149 -353q-138 -139 -283 -149z" />
    <glyph glyph-name="omega" unicode="&#x3c9;" horiz-adv-x="1415" 
d="M618 189v530h180v-530q51 -62 145 -62q99 0 158.5 85.5t59.5 293.5q0 189 -102 346v62h160q126 -215 126 -408q0 -251 -98.5 -390.5t-293.5 -139.5t-244 82q-50 -82 -245 -82t-294.5 139.5t-99.5 390.5q0 196 134 408h161v-58q-110 -144 -110 -350q0 -208 59 -293.5
t158 -85.5q94 0 146 62z" />
    <glyph glyph-name="iotadieresis" unicode="&#x3ca;" horiz-adv-x="470" 
d="M325 914v-914h-180v914h180zM184.5 1235.5q36.5 -35.5 36.5 -79.5q0 -46 -36.5 -81.5t-91.5 -35.5q-57 0 -93 35.5t-36 81.5q0 44 36 79.5t93 35.5q55 0 91.5 -35.5zM469 1235.5q36 -35.5 36 -79.5q0 -46 -36 -81.5t-92 -35.5t-92.5 35.5t-36.5 81.5q0 44 36.5 79.5
t92.5 35.5t92 -35.5z" />
    <glyph glyph-name="upsilondieresis" unicode="&#x3cb;" 
d="M483 -12q-182 0 -287.5 106t-108.5 260v561h181v-554q0 -92 65 -156q61 -61 149 -61q80 0 143 62.5t63 154.5v554h181v-561q-3 -154 -110 -262q-104 -104 -276 -104zM427.5 1235.5q36.5 -35.5 36.5 -79.5q0 -46 -36.5 -81.5t-91.5 -35.5q-57 0 -93 35.5t-36 81.5
q0 44 36 79.5t93 35.5q55 0 91.5 -35.5zM712 1235.5q36 -35.5 36 -79.5q0 -46 -36 -81.5t-92 -35.5t-92.5 35.5t-36.5 81.5q0 44 36.5 79.5t92.5 35.5t92 -35.5z" />
    <glyph glyph-name="omicrontonos" unicode="&#x3cc;" horiz-adv-x="1179" 
d="M590 989q219 0 368 -150t149 -357q0 -205 -149 -355.5t-368 -150.5q-217 0 -367.5 150.5t-150.5 355.5q0 207 150.5 357t367.5 150zM356 729q-99 -100 -99 -247q0 -146 99 -245t234 -99q134 0 233.5 99t99.5 245q0 147 -99.5 247t-233.5 100q-135 0 -234 -100zM902 1270
l-314 -239h-188l207 239h295z" />
    <glyph glyph-name="upsilontonos" unicode="&#x3cd;" 
d="M483 -12q-182 0 -287.5 106t-108.5 260v561h181v-554q0 -92 65 -156q61 -61 149 -61q80 0 143 62.5t63 154.5v554h181v-561q-3 -154 -110 -262q-104 -104 -276 -104zM790 1270l-313 -239h-189l208 239h294z" />
    <glyph glyph-name="omegatonos" unicode="&#x3ce;" horiz-adv-x="1415" 
d="M618 189v530h180v-530q51 -62 145 -62q99 0 158.5 85.5t59.5 293.5q0 189 -102 346v62h160q126 -215 126 -408q0 -251 -98.5 -390.5t-293.5 -139.5t-244 82q-50 -82 -245 -82t-294.5 139.5t-99.5 390.5q0 196 134 408h161v-58q-110 -144 -110 -350q0 -208 59 -293.5
t158 -85.5q94 0 146 62zM1042 1269l-313 -238h-189l208 238h294z" />
    <glyph glyph-name="afii10023" unicode="&#x401;" horiz-adv-x="1007" 
d="M895 1439v-157h-602v-484h602v-157h-602v-484h602v-157h-783v1439h783zM453.5 1760.5q36.5 -35.5 36.5 -79.5q0 -46 -36.5 -81.5t-91.5 -35.5q-57 0 -93 35.5t-36 81.5q0 44 36 79.5t93 35.5q55 0 91.5 -35.5zM738 1760.5q36 -35.5 36 -79.5q0 -46 -36 -81.5t-92 -35.5
t-92.5 35.5t-36.5 81.5q0 44 36.5 79.5t92.5 35.5t92 -35.5z" />
    <glyph glyph-name="afii10051" unicode="&#x402;" horiz-adv-x="1499" 
d="M584 516v-516h-180v1282h-344v157h867v-157h-343v-469q104 127 326 127q221 0 368 -130q141 -106 141 -370t-140 -380q-39 -34 -126 -86l-110 121q67 40 93 64q100 87 102 271q-2 184 -102 271q-99 87 -235 87q-135 0 -225 -85q-85 -82 -92 -187z" />
    <glyph glyph-name="afii10052" unicode="&#x403;" horiz-adv-x="862" 
d="M810 1439v-157h-517v-1282h-181v1439h698zM796 1798l-313 -239h-189l208 239h294z" />
    <glyph glyph-name="afii10053" unicode="&#x404;" horiz-adv-x="1615" 
d="M1116 800v-157h-834q10 -178 163 -332q170 -169 400 -169q231 0 401 169q86 87 140 229h189q-69 -209 -200 -340q-216 -216 -530 -216q-313 0 -530.5 217.5t-217.5 520.5q0 301 217.5 519t530.5 218q314 0 535 -220q63 -64 141 -191h-205q-42 54 -70 83
q-170 170 -401 170q-230 0 -400 -170q-154 -154 -163 -331h834z" />
    <glyph glyph-name="afii10054" unicode="&#x405;" horiz-adv-x="1017" 
d="M511 757q-155 51 -249 145t-94 227q0 130 97.5 228.5t242.5 98.5q143 0 245 -101q53 -52 83 -146l-162 -63q-30 81 -54 105q-49 50 -112 50q-62 0 -110.5 -48.5t-48.5 -123.5q0 -74 50 -126q52 -50 142 -92q172 -56 288 -172q133 -132 133 -312t-131.5 -311.5
t-322.5 -131.5q-192 0 -325 135q-104 103 -128 267l174 63q16 -157 89 -229q80 -80 190 -80q111 0 193.5 82.5t82.5 204.5t-81 203q-82 81 -192 127z" />
    <glyph glyph-name="afii10055" unicode="&#x406;" horiz-adv-x="425" 
d="M303 1439v-1439h-181v1439h181z" />
    <glyph glyph-name="afii10056" unicode="&#x407;" horiz-adv-x="425" 
d="M303 1439v-1439h-181v1439h181zM162.5 1760.5q36.5 -35.5 36.5 -79.5q0 -46 -36.5 -81.5t-91.5 -35.5q-57 0 -93 35.5t-36 81.5q0 44 36 79.5t93 35.5q55 0 91.5 -35.5zM447 1760.5q36 -35.5 36 -79.5q0 -46 -36 -81.5t-92 -35.5t-92.5 35.5t-36.5 81.5q0 44 36.5 79.5
t92.5 35.5t92 -35.5z" />
    <glyph glyph-name="afii10057" unicode="&#x408;" horiz-adv-x="400" 
d="M286 14q0 -117 -84 -197.5t-263 -80.5v150q97 0 130 32q36 36 36 106v1415h181v-1425z" />
    <glyph glyph-name="afii10058" unicode="&#x409;" horiz-adv-x="2016" 
d="M988 0v1282h-591v-1002q0 -116 -83.5 -200.5t-263.5 -84.5v157q97 0 130 32q36 36 36 106v1149h953v-643h393q167 -3 272 -118.5t105 -274.5q0 -168 -105 -284t-272 -119h-574zM1169 639v-482h385q79 0 142 72t63 173q0 94 -63 165.5t-142 71.5h-385z" />
    <glyph glyph-name="afii10059" unicode="&#x40a;" horiz-adv-x="1901" 
d="M872 0v641h-591v-641h-181v1439h181v-641h591v641h181v-643h401q168 -3 272.5 -118.5t104.5 -274.5q0 -168 -104.5 -284t-272.5 -119h-582zM1053 639v-482h394q78 0 141 72t63 173q0 94 -62.5 165.5t-141.5 71.5h-394z" />
    <glyph glyph-name="afii10060" unicode="&#x40b;" horiz-adv-x="1497" 
d="M576 516v-516h-180v1282h-344v157h867v-157h-343v-469q104 127 326 127t362 -132q133 -129 133 -392v-416h-187l1 424q0 189 -91 280q-89 89 -213 89h-13q-135 -4 -226 -90q-84 -82 -92 -187z" />
    <glyph glyph-name="afii10061" unicode="&#x40c;" horiz-adv-x="1102" 
d="M874 1439l-380 -550l622 -889h-211l-518 741l-94 -135v-606h-181v1439h181v-532l371 532h210zM796 1798l-313 -239h-189l208 239h294z" />
    <glyph glyph-name="uni040D" unicode="&#x40d;" horiz-adv-x="1398" 
d="M1289 1439v-1439h-181v1121l-799 -1121h-200v1439h181v-1150l820 1150h179zM732 1798l208 -239h-190l-312 239h294z" />
    <glyph glyph-name="afii10062" unicode="&#x40e;" horiz-adv-x="1242" 
d="M431 67q-100 -78 -194 -78q-65 0 -153 55l78 141q80 -44 103 -44q8 0 16 2q32 9 162 209l110 179l-593 908h203l486 -743l433 743h199q-705 -1259 -850 -1372zM878 1800q-31 -101 -74 -144q-73 -75 -181 -75q-110 0 -183 75q-44 45 -76 144h168q21 -40 33 -52
q25 -25 58 -25q31 0 56 26q13 11 32 51h167z" />
    <glyph glyph-name="afii10145" unicode="&#x40f;" horiz-adv-x="1193" 
d="M503 1h-413v1438h181v-1281h651v1281h181v-1439h-420v-318h-180v319z" />
    <glyph glyph-name="afii10017" unicode="&#x410;" horiz-adv-x="1208" 
d="M743 754l-138 382l-139 -382h277zM684 1439l521 -1439h-188l-217 598h-391l-221 -598h-189l528 1439h157z" />
    <glyph glyph-name="afii10018" unicode="&#x411;" horiz-adv-x="1100" 
d="M105 798v641h698v-157h-517v-484h387q168 -3 272.5 -118.5t104.5 -274.5q0 -168 -104.5 -284t-272.5 -119h-387v-2h-181v2h-5v157h5v482h-5v157h5zM286 641v-482h380q78 0 141 72t63 173q0 94 -63 165.5t-141 71.5h-380z" />
    <glyph glyph-name="afii10019" unicode="&#x412;" horiz-adv-x="1102" 
d="M555 157q125 0 218.5 93.5t93.5 232.5t-93.5 233t-218.5 94h-262v-653h262zM293 1283v-316h290q59 6 91 39q44 43 44 115q0 70 -46 116t-104 46h-275zM910 821q140 -140 140 -338q0 -196 -145 -341q-117 -118 -296 -142h-497v1439h457q141 0 236 -95t95 -223
q0 -129 -93 -221q33 -8 103 -79z" />
    <glyph glyph-name="afii10020" unicode="&#x413;" horiz-adv-x="862" 
d="M810 1439v-157h-517v-1282h-181v1439h698z" />
    <glyph glyph-name="afii10021" unicode="&#x414;" horiz-adv-x="1231" 
d="M884 164v1118h-378q19 -94 19 -256q0 -591 -253 -862h612zM1066 164h75v-482h-180v318h-761v-318h-180v482h33q291 335 291 862q0 157 -58 413h779z" />
    <glyph glyph-name="afii10022" unicode="&#x415;" horiz-adv-x="1007" 
d="M895 1439v-157h-602v-484h602v-157h-602v-484h602v-157h-783v1439h783z" />
    <glyph glyph-name="afii10024" unicode="&#x416;" horiz-adv-x="1797" 
d="M990 908l370 531h210l-380 -550l621 -889h-210l-518 741l-93 -134v-607h-182v607l-93 134l-519 -741h-210l621 889l-380 550h210l371 -531v531h182v-531z" />
    <glyph glyph-name="afii10025" unicode="&#x417;" horiz-adv-x="996" 
d="M523 646h-373v156h373q102 0 160.5 67t58.5 186q0 115 -76 177.5t-176 62.5q-177 0 -400 -165v185q177 131 381 131q196 0 325.5 -105t129.5 -275q0 -258 -128 -338q128 -65 128 -345q0 -170 -129.5 -276t-325.5 -106q-209 0 -381 139v242q192 -220 381 -220
q102 0 186.5 58t84.5 172q0 119 -59 186.5t-160 67.5z" />
    <glyph glyph-name="afii10026" unicode="&#x418;" horiz-adv-x="1398" 
d="M1289 1439v-1439h-181v1121l-799 -1121h-200v1439h181v-1150l820 1150h179z" />
    <glyph glyph-name="afii10027" unicode="&#x419;" horiz-adv-x="1398" 
d="M1289 1439v-1439h-181v1121l-799 -1121h-200v1439h181v-1150l820 1150h179zM956 1800q-31 -101 -74 -144q-73 -75 -181 -75q-110 0 -183 75q-44 45 -76 144h168q21 -40 33 -52q25 -25 58 -25q31 0 56 26q13 11 32 51h167z" />
    <glyph glyph-name="afii10028" unicode="&#x41a;" horiz-adv-x="1102" 
d="M874 1439l-380 -550l622 -889h-211l-518 741l-94 -135v-606h-181v1439h181v-532l371 532h210z" />
    <glyph glyph-name="afii10029" unicode="&#x41b;" horiz-adv-x="1263" 
d="M397 280q0 -116 -83.5 -200.5t-263.5 -84.5v157q97 0 130 32q36 36 36 106v1149h953v-1439h-181v1282h-591v-1002z" />
    <glyph glyph-name="afii10030" unicode="&#x41c;" horiz-adv-x="1496" 
d="M1403 1439v-1439h-181v1170l-473 -621l-474 621v-1170h-181v1439h193l462 -605l461 605h193z" />
    <glyph glyph-name="afii10031" unicode="&#x41d;" horiz-adv-x="1141" 
d="M275 641v-641h-181v1439h181v-641h591v641h181v-1439h-181v641h-591z" />
    <glyph glyph-name="afii10032" unicode="&#x41e;" horiz-adv-x="1621" 
d="M1341.5 1241q217.5 -218 217.5 -519q0 -303 -217.5 -520.5t-531.5 -217.5q-313 0 -530.5 217.5t-217.5 520.5q0 301 217.5 519t530.5 218q314 0 531.5 -218zM810 1301q-230 0 -398 -168.5t-168 -410.5q0 -244 168 -412t398 -168q231 0 399 168t168 412q0 242 -168 410.5
t-399 168.5z" />
    <glyph glyph-name="afii10033" unicode="&#x41f;" horiz-adv-x="1141" 
d="M275 1282v-1282h-181v1439h953v-1439h-181v1282h-591z" />
    <glyph glyph-name="afii10034" unicode="&#x420;" horiz-adv-x="1032" 
d="M293 471v-471h-181v1439h412q180 -24 301 -146q141 -141 141 -337q0 -197 -143 -341t-352 -144h-178zM293 1281v-652h178q126 0 220 93.5t94 233.5q0 139 -94 232t-220 93h-178z" />
    <glyph glyph-name="afii10035" unicode="&#x421;" horiz-adv-x="1419" 
d="M1230 317l126 -112q-243 -221 -535 -221q-314 0 -530.5 216.5t-216.5 519.5q0 300 216.5 518t530.5 218q292 0 535 -222l-126 -112q-198 175 -409 175q-230 0 -397.5 -167.5t-167.5 -409.5q0 -244 167.5 -411t397.5 -167q211 0 409 175z" />
    <glyph glyph-name="afii10036" unicode="&#x422;" horiz-adv-x="971" 
d="M576 1282v-1282h-180v1282h-344v157h867v-157h-343z" />
    <glyph glyph-name="afii10037" unicode="&#x423;" horiz-adv-x="1242" 
d="M431 67q-100 -78 -194 -78q-65 0 -153 55l78 141q80 -44 103 -44q8 0 16 2q32 9 162 209l110 179l-593 908h203l486 -743l433 743h199q-705 -1259 -850 -1372z" />
    <glyph glyph-name="afii10038" unicode="&#x424;" horiz-adv-x="1467" 
d="M643 415v585q-155 -4 -272 -85q-124 -86 -124 -207q0 -122 124 -208q117 -80 272 -85zM824 250v-246h-181v246q-231 7 -400 133q-183 135 -183 325q0 191 184 326q169 124 399 131v272h181v-272q232 -7 401 -131q182 -135 182 -326q0 -189 -182 -325q-169 -126 -401 -133
zM824 1000v-585q155 5 272 85q125 86 125 208q0 121 -125 207q-117 81 -272 85z" />
    <glyph glyph-name="afii10039" unicode="&#x425;" horiz-adv-x="1137" 
d="M15 0l453 787l-376 652h200l276 -479l276 479h201l-377 -652l455 -787h-201l-354 613l-354 -613h-199z" />
    <glyph glyph-name="afii10040" unicode="&#x426;" horiz-adv-x="1205" 
d="M1005 1h-905v1438h181v-1281h651v1281h181v-1275h72v-482h-180v319z" />
    <glyph glyph-name="afii10041" unicode="&#x427;" horiz-adv-x="1164" 
d="M903 925v514h180v-1439h-180v627q-105 -127 -326 -127q-223 0 -361 133q-135 128 -135 391v415h188l-1 -422q0 -190 90 -281q89 -89 214 -89h13q134 4 225 91q84 81 93 187z" />
    <glyph glyph-name="afii10042" unicode="&#x428;" horiz-adv-x="1661" 
d="M100 1439h181v-1281h459v1281h181v-1281h460v1281h180v-1438h-1461v1438z" />
    <glyph glyph-name="afii10043" unicode="&#x429;" horiz-adv-x="1660" 
d="M1454 1h-1354v1438h181v-1281h459v1281h181v-1281h460v1281h180v-1275h72v-482h-179v319z" />
    <glyph glyph-name="afii10044" unicode="&#x42a;" horiz-adv-x="1388" 
d="M345 1282h-325v157h506v-643h391q168 -3 272.5 -118.5t104.5 -274.5q0 -168 -104.5 -284t-272.5 -119h-572v1282zM526 639v-482h384q79 0 141.5 72t62.5 173q0 94 -62.5 165.5t-141.5 71.5h-384z" />
    <glyph glyph-name="afii10045" unicode="&#x42b;" horiz-adv-x="1452" 
d="M1361 1439v-1439h-181v1439h181zM93 0v1439h181v-643h400q167 -3 271.5 -118.5t104.5 -274.5q0 -168 -104.5 -284t-271.5 -119h-581zM274 639v-482h392q79 0 142 72t63 173q0 94 -63 165.5t-142 71.5h-392z" />
    <glyph glyph-name="afii10046" unicode="&#x42c;" horiz-adv-x="1100" 
d="M93 0v1439h181v-643h400q167 -3 271.5 -118.5t104.5 -274.5q0 -168 -104.5 -284t-271.5 -119h-581zM274 639v-482h392q79 0 142 72t63 173q0 94 -63 165.5t-142 71.5h-392z" />
    <glyph glyph-name="afii10047" unicode="&#x42d;" horiz-adv-x="1629" 
d="M1355 800q-10 177 -163 331q-170 170 -400 170q-231 0 -401 -170q-28 -29 -70 -83h-207q80 127 143 191q221 220 535 220q313 0 530.5 -218t217.5 -519q0 -303 -217.5 -520.5t-530.5 -217.5q-314 0 -535 220q-127 127 -195 336h188q53 -142 145 -233q166 -165 397 -165
q230 0 400 169q153 154 163 332h-834v157h834z" />
    <glyph glyph-name="afii10048" unicode="&#x42e;" horiz-adv-x="2070" 
d="M1259 1301q-230 0 -398 -168.5t-168 -410.5q0 -244 168 -412t398 -168q231 0 399 168t168 412q0 242 -168 410.5t-399 168.5zM514 641h-233v-641h-181v1439h181v-641h233q11 239 217 445q215 216 528 216q314 0 531.5 -218t217.5 -519q0 -303 -217.5 -520.5
t-531.5 -217.5q-313 0 -533 220q-200 200 -212 437z" />
    <glyph glyph-name="afii10049" unicode="&#x42f;" horiz-adv-x="1043" 
d="M583 1281q-126 0 -220 -93t-94 -232q0 -140 94 -233.5t220 -93.5h179v652h-179zM290 0h-210l323 499q-73 18 -170 115q-144 145 -144 342q0 196 140 337q121 122 301 146h412v-1439h-180v471l-172 -2z" />
    <glyph glyph-name="afii10065" unicode="&#x430;" horiz-adv-x="1188" 
d="M1099 0h-181v160q-107 -184 -326 -184q-217 0 -367.5 150.5t-150.5 355.5q0 207 150.5 357t367.5 150q219 0 326 -182v107h181v-914zM918 410v146q-19 99 -91 171q-101 102 -235 102q-135 0 -234 -100t-99 -247q0 -146 99 -245t234 -99q134 0 235 101q72 72 91 171z" />
    <glyph glyph-name="afii10066" unicode="&#x431;" horiz-adv-x="1242" 
d="M319 482q0 -146 99.5 -245t233.5 -99t233.5 99t99.5 245q0 147 -99.5 247t-233.5 100t-233.5 -100t-99.5 -247zM269 781q166 208 383 208q219 0 368.5 -150t149.5 -357q0 -205 -149.5 -355.5t-368.5 -150.5q-217 0 -369 153q-132 131 -143 271h-3q-40 199 -40 337
q0 280 134 461q173 235 410 235q50 0 100 -10q112 -23 180 -23q57 0 164 165v-255q-44 -64 -158 -64q-77 0 -198 25q-39 8 -73 8q-161 0 -279 -174q-97 -143 -108 -324z" />
    <glyph glyph-name="afii10067" unicode="&#x432;" horiz-adv-x="836" 
d="M280 540h133v-1q108 5 140 37t32 74t-32 74t-140 37v-2h-133v-219zM280 376v-219h133v-1q108 5 140 36.5t32 73.5q0 43 -32 74.5t-140 36.5v-1h-133zM100 916h420v-3q84 -4 165 -84.5t81 -178.5v-1q0 -97 -83 -191q83 -94 83 -191v-1q0 -98 -81 -178.5t-165 -84.5v-3
h-420v916z" />
    <glyph glyph-name="afii10068" unicode="&#x433;" horiz-adv-x="694" 
d="M280 758v-758h-180v914h524v-156h-344z" />
    <glyph glyph-name="afii10069" unicode="&#x434;" horiz-adv-x="1019" 
d="M902 164h67v-482h-180v318h-559v-318h-180v482h95q-6 -7 -6 -8q163 164 163 504q0 70 -7 134q-5 38 -21 120h628v-750zM364 157h358v601h-240q2 -24 2 -98q0 -355 -120 -503z" />
    <glyph glyph-name="afii10070" unicode="&#x435;" horiz-adv-x="1108" 
d="M269 643h599q-64 186 -298 186q-235 0 -301 -186zM237 485v-3q0 -146 99 -245t234 -99q134 0 235 101q14 14 54 63l170 -60q-38 -64 -88 -113q-152 -153 -371 -153q-217 0 -367.5 150.5t-150.5 355.5q0 207 150.5 357t367.5 150q219 0 371 -152q131 -132 131 -352h-835z
" />
    <glyph glyph-name="afii10072" unicode="&#x436;" horiz-adv-x="1304" 
d="M743 626l247 288h218l-240 -298l348 -616h-207l-260 476l-106 -117v-359h-182v359l-106 117l-260 -476h-207l348 616l-240 298h218l247 -288v288h182v-288z" />
    <glyph glyph-name="afii10073" unicode="&#x437;" horiz-adv-x="838" 
d="M768 268q0 -111 -104 -190t-250 -79q-145 0 -249 79t-104 190v48h185v-48q0 -53 49 -89.5t119 -36.5q71 0 119.5 36.5t48.5 89.5t-48 89q-29 22 -58 29h-236v156h259q14 6 35 22q48 36 48 88q0 53 -48.5 90t-119.5 37q-70 0 -119 -37q-42 -32 -53 -112h-184
q13 141 107 212q104 79 249 79q146 0 250 -79t104 -190q0 -109 -108 -192q108 -83 108 -192z" />
    <glyph glyph-name="afii10074" unicode="&#x438;" horiz-adv-x="974" 
d="M90 914h180v-598l451 598h163v-914h-180v606l-434 -575v-31h-180v914z" />
    <glyph glyph-name="afii10075" unicode="&#x439;" horiz-adv-x="974" 
d="M90 914h180v-598l451 598h163v-914h-180v606l-434 -575v-31h-180v914zM745 1272q-33 -102 -75 -144q-74 -75 -181 -75q-110 0 -184 75q-43 44 -77 144h171q20 -40 32 -52q24 -25 58 -25q31 0 56 26q12 11 32 51h168z" />
    <glyph glyph-name="afii10076" unicode="&#x43a;" horiz-adv-x="843" 
d="M747 914l-240 -298l348 -616h-207l-261 476l-106 -118v-358h-181v914h181v-289l248 289h218z" />
    <glyph glyph-name="afii10077" unicode="&#x43b;" horiz-adv-x="1054" 
d="M964 914v-914h-180v758h-451v-526q0 -215 -283 -237v155q103 11 103 80v684h811z" />
    <glyph glyph-name="afii10078" unicode="&#x43c;" horiz-adv-x="1050" 
d="M526 281l273 633h171v-914h-180v440l-190 -440h-150l-190 440v-440h-180v914h171z" />
    <glyph glyph-name="afii10079" unicode="&#x43d;" horiz-adv-x="972" 
d="M892 0h-180v413h-452v-413h-180v914h180v-344h452v344h180v-914z" />
    <glyph glyph-name="afii10080" unicode="&#x43e;" horiz-adv-x="1179" 
d="M590 989q219 0 368 -150t149 -357q0 -205 -149 -355.5t-368 -150.5q-217 0 -367.5 150.5t-150.5 355.5q0 207 150.5 357t367.5 150zM356 729q-99 -100 -99 -247q0 -146 99 -245t234 -99q134 0 233.5 99t99.5 245q0 147 -99.5 247t-233.5 100q-135 0 -234 -100z" />
    <glyph glyph-name="afii10081" unicode="&#x43f;" horiz-adv-x="992" 
d="M270 758v-758h-180v914h812v-914h-180v758h-452z" />
    <glyph glyph-name="afii10082" unicode="&#x440;" horiz-adv-x="1176" 
d="M92 914h181v-105q107 179 325 179t368 -149.5t150 -356.5q0 -205 -150 -355.5t-368 -150.5t-325 181v-475h-181v1232zM273 559v-154q18 -97 93 -171q98 -97 232 -97t233.5 99.5t99.5 245.5q0 147 -99.5 247t-233.5 100t-236 -102q-71 -71 -89 -168z" />
    <glyph glyph-name="afii10083" unicode="&#x441;" horiz-adv-x="1074" 
d="M850 292l172 -63q-51 -69 -81 -100q-152 -153 -371 -153q-217 0 -367.5 150.5t-150.5 356.5t150.5 356t367.5 150q219 0 367 -148q34 -34 85 -103l-172 -64q-36 45 -49 59q-97 96 -231 96t-233 -99.5t-99 -246.5q0 -146 99 -245.5t233 -99.5t235 101q9 9 45 53z" />
    <glyph glyph-name="afii10084" unicode="&#x442;" horiz-adv-x="1027" 
d="M604 758v-758h-180v758h-344v156h867v-156h-343z" />
    <glyph glyph-name="afii10085" unicode="&#x443;" horiz-adv-x="896" 
d="M307 -317h-195l238 512l-335 719h195l238 -505l238 505h195z" />
    <glyph glyph-name="afii10086" unicode="&#x444;" horiz-adv-x="1999" 
d="M1090 574v-184q21 -87 91 -156q96 -97 230 -97q135 0 234 99.5t99 245.5q0 147 -99.5 247t-233.5 100t-230 -98q-70 -69 -91 -157zM909 390v184q-21 88 -91 157q-96 98 -230 98q-135 0 -234 -100t-99 -247q0 -146 99 -245.5t234 -99.5q134 0 230 97q70 69 91 156z
M1090 850q104 138 321 138q219 0 368.5 -149.5t149.5 -356.5q0 -205 -149.5 -355.5t-368.5 -150.5q-217 0 -321 139v-419h-181v419q-104 -139 -321 -139q-220 0 -369 150.5t-149 355.5q0 207 149.5 356.5t368.5 149.5q216 0 321 -138v419h181v-419z" />
    <glyph glyph-name="afii10087" unicode="&#x445;" horiz-adv-x="800" 
d="M298 481l-269 433h204l167 -269l167 269h204l-270 -433l299 -481h-203l-197 317l-197 -317h-203z" />
    <glyph glyph-name="afii10088" unicode="&#x446;" horiz-adv-x="1021" 
d="M799 0h-699v914h180v-757h452v757h180v-750h67v-482h-180v318z" />
    <glyph glyph-name="afii10089" unicode="&#x447;" horiz-adv-x="1125" 
d="M854 731v189h180v-920h-180v410q-84 -102 -307 -102t-352 134q-124 127 -124 390v88h188l-1 -96q0 -190 86 -286q76 -83 199 -83h13q133 4 214 89q77 81 84 187z" />
    <glyph glyph-name="afii10090" unicode="&#x448;" horiz-adv-x="1257" 
d="M90 914h181v-756h267v756h181v-756h268v756h180v-913h-1077v913z" />
    <glyph glyph-name="afii10091" unicode="&#x449;" horiz-adv-x="1299" 
d="M1080 1h-970v913h181v-756h267v756h181v-756h268v756h180v-750h72v-482h-179v319z" />
    <glyph glyph-name="afii10092" unicode="&#x44a;" horiz-adv-x="1127" 
d="M245 0v758h-215v156h395v-343h357v-3q82 -4 174 -84q91 -80 91 -198v-1q0 -118 -91 -198q-92 -80 -174 -84v-3h-537zM425 157h250v-1q111 5 152 38q39 32 39 91q0 60 -39 93q-40 33 -152 38v-2h-250v-257z" />
    <glyph glyph-name="afii10093" unicode="&#x44b;" horiz-adv-x="1340" 
d="M280 157h346v-1q111 5 152 38q39 32 39 91q0 60 -39 93q-40 33 -152 38v-2h-346v-257zM1240 0h-180v914h180v-914zM100 0v914h180v-343h453v-3q82 -4 174 -84q91 -80 91 -198v-1q0 -118 -91 -198q-92 -80 -174 -84v-3h-633z" />
    <glyph glyph-name="afii10094" unicode="&#x44c;" horiz-adv-x="972" 
d="M280 157h250v-1q111 5 152 38q39 32 39 91q0 60 -39 93q-40 33 -152 38v-2h-250v-257zM100 0v914h180v-343h357v-3q82 -4 174 -84q91 -80 91 -198v-1q0 -118 -91 -198q-92 -80 -174 -84v-3h-537z" />
    <glyph glyph-name="afii10095" unicode="&#x44d;" horiz-adv-x="1164" 
d="M870 643q-8 27 -69 88q-97 98 -231 98q-135 0 -236 -102q-37 -37 -74 -116h-188q47 146 126 226q153 152 372 152q217 0 367 -150t150 -357q0 -205 -150 -355.5t-367 -150.5q-220 0 -371 153q-29 27 -98 110h232q110 -101 237 -101q134 0 233.5 99t99.5 245l2 3h-527v158
h492z" />
    <glyph glyph-name="afii10096" unicode="&#x44e;" horiz-adv-x="1569" 
d="M648 482q0 -146 99.5 -245t233.5 -99q135 0 234 99t99 245q0 147 -99 247t-234 100q-134 0 -233.5 -100t-99.5 -247zM467 413h-187v-413h-180v914h180v-344h189q13 138 143 267q152 152 369 152q219 0 368.5 -150t149.5 -357q0 -205 -149 -355.5t-369 -150.5
q-217 0 -369 153q-137 137 -145 284z" />
    <glyph glyph-name="afii10097" unicode="&#x44f;" horiz-adv-x="876" 
d="M596 758h-154v1q-112 -5 -151 -38q-40 -33 -40 -92t40 -92t151 -38v1h154v258zM776 914v-914h-180v343h-116l-6 -12l-49 -105l-104 -226h-195l165 354q-50 5 -130 76q-91 80 -91 198v1q0 119 91 199t174 83v3h441z" />
    <glyph glyph-name="afii10071" unicode="&#x451;" horiz-adv-x="1108" 
d="M269 643h599q-64 186 -298 186q-235 0 -301 -186zM237 485v-3q0 -146 99 -245t234 -99q134 0 235 101q14 14 54 63l170 -60q-38 -64 -88 -113q-152 -153 -371 -153q-217 0 -367.5 150.5t-150.5 355.5q0 207 150.5 357t367.5 150q219 0 371 -152q131 -132 131 -352h-835z
M511.5 1235.5q36.5 -35.5 36.5 -79.5q0 -46 -36.5 -81.5t-91.5 -35.5q-57 0 -93 35.5t-36 81.5q0 44 36 79.5t93 35.5q55 0 91.5 -35.5zM796 1235.5q36 -35.5 36 -79.5q0 -46 -36 -81.5t-92 -35.5t-92.5 35.5t-36.5 81.5q0 44 36.5 79.5t92.5 35.5t92 -35.5z" />
    <glyph glyph-name="afii10099" unicode="&#x452;" horiz-adv-x="964" 
d="M683 591q0 93 -63 154.5t-143 61.5q-81 0 -141 -58q-29 -28 -39 -52v-697h-181v1090h-96v156h96v193h181v-193h186v-156h-186v-204q19 78 180 78q172 0 278 -106t109 -259v-607q0 -117 -83.5 -201t-263.5 -84v157q98 0 130 32q36 36 36 106v589z" />
    <glyph glyph-name="afii10100" unicode="&#x453;" horiz-adv-x="727" 
d="M280 758v-758h-180v914h524v-156h-344zM674 1270l-313 -239h-189l208 239h294z" />
    <glyph glyph-name="afii10101" unicode="&#x454;" horiz-adv-x="1152" 
d="M789 643v-158h-527l3 -3q0 -146 99 -245t234 -99q126 0 235 101h230q-66 -82 -94 -110q-152 -153 -371 -153q-217 0 -367.5 150.5t-150.5 355.5q0 207 150.5 357t367.5 150q219 0 371 -152q79 -80 126 -226h-188q-37 79 -74 116q-101 102 -235 102q-135 0 -232 -98
q-60 -61 -69 -88h492z" />
    <glyph glyph-name="afii10102" unicode="&#x455;" horiz-adv-x="727" 
d="M334 456q-102 56 -140 94q-74 74 -74 170q0 95 72 168t180 73t174 -67q68 -68 68 -149v-28l-162 -66q-15 113 -34.5 133t-45.5 20t-49 -23t-23 -61t26 -64q17 -18 79 -57q113 -62 165 -113q82 -84 82 -198q0 -117 -85 -203t-213 -86t-213.5 86t-85.5 215l180 45
q0 -116 37 -153t82 -37t82.5 37t37.5 96q0 57 -40 96q-24 23 -100 72z" />
    <glyph glyph-name="afii10103" unicode="&#x456;" horiz-adv-x="415" 
d="M297 914v-914h-180v914h180zM299.5 1174.5q36.5 -35.5 36.5 -79.5q0 -46 -36.5 -81.5t-91.5 -35.5q-57 0 -93 35.5t-36 81.5q0 44 36 79.5t93 35.5q55 0 91.5 -35.5z" />
    <glyph glyph-name="afii10104" unicode="&#x457;" horiz-adv-x="418" 
d="M299 914v-914h-180v914h180zM158.5 1235.5q36.5 -35.5 36.5 -79.5q0 -46 -36.5 -81.5t-91.5 -35.5q-57 0 -93 35.5t-36 81.5q0 44 36 79.5t93 35.5q55 0 91.5 -35.5zM443 1235.5q36 -35.5 36 -79.5q0 -46 -36 -81.5t-92 -35.5t-92.5 35.5t-36.5 81.5q0 44 36.5 79.5
t92.5 35.5t92 -35.5z" />
    <glyph glyph-name="afii10105" unicode="&#x458;" horiz-adv-x="379" 
d="M-11 -43q103 12 103 81v876h180v-874q0 -208 -283 -231v148zM274 1174.5q36 -35.5 36 -79.5q0 -46 -36 -81.5t-92 -35.5t-92.5 35.5t-36.5 81.5q0 44 36.5 79.5t92.5 35.5t92 -35.5z" />
    <glyph glyph-name="afii10106" unicode="&#x459;" horiz-adv-x="1657" 
d="M965 157h250v-1q111 5 151 38q40 32 40 91q0 60 -40 93t-151 38v-2h-250v-257zM786 404v354h-451v-526q0 -215 -283 -237v155q103 11 103 80v684h811v-343h356v-3q82 -4 174 -84q91 -80 91 -198v-1q0 -118 -91 -198q-92 -80 -174 -84v-3h-537v403z" />
    <glyph glyph-name="afii10107" unicode="&#x45a;" horiz-adv-x="1594" 
d="M902 157h250v-1q111 5 151 38q40 32 40 91q0 60 -40 93t-151 38v-2h-250v-257zM722 0v413h-452v-413h-180v914h180v-344h452v344h180v-343h357v-3q82 -4 174 -84q91 -80 91 -198v-1q0 -118 -91 -198q-92 -80 -174 -84v-3h-537z" />
    <glyph glyph-name="afii10108" unicode="&#x45b;" horiz-adv-x="964" 
d="M116 1246v193h181v-193h186v-156h-186v-204q19 78 180 78q172 0 278 -106t109 -259v-599h-181v591q0 93 -63 154.5t-143 61.5q-81 0 -141 -58q-29 -28 -39 -52v-697h-181v1090h-96v156h96z" />
    <glyph glyph-name="afii10109" unicode="&#x45c;" horiz-adv-x="843" 
d="M747 914l-240 -298l348 -616h-207l-261 476l-106 -118v-358h-181v914h181v-289l248 289h218zM680 1271l-313 -239h-189l208 239h294z" />
    <glyph glyph-name="uni045D" unicode="&#x45d;" horiz-adv-x="974" 
d="M90 914h180v-598l451 598h163v-914h-180v606l-434 -575v-31h-180v914zM512 1273l208 -239h-190l-312 239h294z" />
    <glyph glyph-name="afii10110" unicode="&#x45e;" horiz-adv-x="896" 
d="M527 157l-220 -474h-195l238 512l-335 719h195l238 -505l238 505h195l-353 -757h-1zM706 1272q-33 -102 -75 -144q-73 -75 -181 -75q-110 0 -184 75q-43 44 -77 144h171q20 -40 32 -52q25 -25 58 -25q31 0 56 26q12 11 32 51h168z" />
    <glyph glyph-name="afii10193" unicode="&#x45f;" horiz-adv-x="992" 
d="M406 0h-316v914h180v-757h452v757h180v-914h-316v-318h-180v318z" />
    <glyph glyph-name="afii10050" unicode="&#x490;" horiz-adv-x="914" 
d="M810 1284v-2h-517v-1282h-181v1439h572v231h180v-386h-54z" />
    <glyph glyph-name="afii10098" unicode="&#x491;" horiz-adv-x="725" 
d="M280 758v-758h-180v914h396v230h179v-386h-395z" />
    <glyph glyph-name="uni1E02" unicode="&#x1e02;" horiz-adv-x="1102" 
d="M555 157q125 0 218.5 93.5t93.5 232.5t-93.5 233t-218.5 94h-262v-653h262zM293 1283v-316h290q59 6 91 39q44 43 44 115q0 70 -46 116t-104 46h-275zM910 821q140 -140 140 -338q0 -196 -145 -341q-117 -118 -296 -142h-497v1439h457q141 0 236 -95t95 -223
q0 -129 -93 -221q33 -8 103 -79zM665 1770q33 -32 33 -73q0 -40 -33 -72t-84 -32t-84 32t-33 72q0 41 33 73t84 32t84 -32z" />
    <glyph glyph-name="uni1E03" unicode="&#x1e03;" horiz-adv-x="1197" 
d="M99 1439h181v-630q107 180 325 180t368 -150t150 -357q0 -205 -150 -355.5t-368 -150.5t-325 181v-157h-181v1439zM280 559v-154q18 -96 93 -170q98 -97 232 -97t233.5 99t99.5 245q0 147 -99.5 247t-233.5 100t-236 -102q-71 -71 -89 -168zM712 1345q33 -32 33 -73
q0 -40 -33 -72t-84 -32t-84 32t-33 72q0 41 33 73t84 32t84 -32z" />
    <glyph glyph-name="uni1E0A" unicode="&#x1e0a;" horiz-adv-x="1252" 
d="M416 1439q360 -2 560 -203q214 -216 214 -516q0 -303 -218 -522q-196 -196 -556 -198h-304v1439h304zM293 1279v-1120h122q268 0 421 148q169 169 169 413q0 242 -169 413q-153 146 -421 146h-122zM735 1770q33 -32 33 -73q0 -40 -33 -72t-84 -32t-84 32t-33 72
q0 41 33 73t84 32t84 -32z" />
    <glyph glyph-name="uni1E0B" unicode="&#x1e0b;" horiz-adv-x="1188" 
d="M1099 0h-181v160q-107 -184 -326 -184q-217 0 -367.5 150.5t-150.5 355.5q0 207 150.5 357t367.5 150q219 0 326 -182v632h181v-1439zM918 410v146q-19 99 -91 171q-101 102 -235 102q-135 0 -234 -100t-99 -247q0 -146 99 -245t234 -99q134 0 235 101q72 72 91 171z
M654 1345q33 -32 33 -73q0 -40 -33 -72t-84 -32t-84 32t-33 72q0 41 33 73t84 32t84 -32z" />
    <glyph glyph-name="uni1E1E" unicode="&#x1e1e;" horiz-adv-x="862" 
d="M810 1439v-157h-517v-484h517v-157h-517v-641h-181v1439h698zM545 1770q33 -32 33 -73q0 -40 -33 -72t-84 -32t-84 32t-33 72q0 41 33 73t84 32t84 -32z" />
    <glyph glyph-name="uni1E1F" unicode="&#x1e1f;" horiz-adv-x="480" 
d="M287 758v-758h-181v758h-84v156h84v187q7 107 84 186q87 80 201 80q88 0 162 -36l-53 -150q-61 35 -102 35q-36 0 -73 -33q-35 -36 -38 -89v-180h170v-156h-170zM372 1770q33 -32 33 -73q0 -40 -33 -72t-84 -32t-84 32t-33 72q0 41 33 73t84 32t84 -32z" />
    <glyph glyph-name="uni1E40" unicode="&#x1e40;" horiz-adv-x="1496" 
d="M1403 1439v-1439h-181v1170l-473 -621l-474 621v-1170h-181v1439h193l462 -605l461 605h193zM833 1770q33 -32 33 -73q0 -40 -33 -72t-84 -32t-84 32t-33 72q0 41 33 73t84 32t84 -32z" />
    <glyph glyph-name="uni1E41" unicode="&#x1e41;" horiz-adv-x="1214" 
d="M280 753v-753h-181v914h113q74 49 184 49q128 0 211 -64q81 64 209 64t216 -88q79 -81 83 -190v-685h-181v724q-12 83 -118 83q-88 0 -121 -78v-729h-181v724h-1q-11 83 -117 83q-74 0 -116 -54zM691 1245q33 -32 33 -73q0 -40 -33 -72t-84 -32t-84 32t-33 72q0 41 33 73
t84 32t84 -32z" />
    <glyph glyph-name="uni1E6A" unicode="&#x1e6a;" horiz-adv-x="931" 
d="M556 1282v-1282h-180v1282h-344v157h867v-157h-343zM550 1770q33 -32 33 -73q0 -40 -33 -72t-84 -32t-84 32t-33 72q0 41 33 73t84 32t84 -32z" />
    <glyph glyph-name="uni1E6B" unicode="&#x1e6b;" horiz-adv-x="584" 
d="M202 914v355h180v-355h170v-156h-170v-758h-180v758h-170v156h170zM376 1655q33 -32 33 -73q0 -40 -33 -72t-84 -32t-84 32t-33 72q0 41 33 73t84 32t84 -32z" />
    <glyph glyph-name="Wgrave" unicode="&#x1e80;" horiz-adv-x="1665" 
d="M893 1079l291 -751l298 1111h183l-386 -1439h-158l-288 758l-289 -758h-158l-386 1439h184l299 -1111l289 751h121zM792 1798l208 -239h-190l-312 239h294z" />
    <glyph glyph-name="wgrave" unicode="&#x1e81;" horiz-adv-x="1184" 
d="M1185 914l-311 -914h-127l-155 433l-154 -433h-129l-309 914h195l183 -568l154 426h122l153 -426l182 568h196zM552 1273l208 -239h-190l-312 239h294z" />
    <glyph glyph-name="Wacute" unicode="&#x1e82;" horiz-adv-x="1665" 
d="M893 1079l291 -751l298 1111h183l-386 -1439h-158l-288 758l-289 -758h-158l-386 1439h184l299 -1111l289 751h121zM1167 1798l-313 -239h-189l208 239h294z" />
    <glyph glyph-name="wacute" unicode="&#x1e83;" horiz-adv-x="1184" 
d="M1185 914l-311 -914h-127l-155 433l-154 -433h-129l-309 914h195l183 -568l154 426h122l153 -426l182 568h196zM927 1273l-313 -239h-189l208 239h294z" />
    <glyph glyph-name="Wdieresis" unicode="&#x1e84;" horiz-adv-x="1665" 
d="M893 1079l291 -751l298 1111h183l-386 -1439h-158l-288 758l-289 -758h-158l-386 1439h184l299 -1111l289 751h121zM782.5 1760.5q36.5 -35.5 36.5 -79.5q0 -46 -36.5 -81.5t-91.5 -35.5q-57 0 -93 35.5t-36 81.5q0 44 36 79.5t93 35.5q55 0 91.5 -35.5zM1067 1760.5
q36 -35.5 36 -79.5q0 -46 -36 -81.5t-92 -35.5t-92.5 35.5t-36.5 81.5q0 44 36.5 79.5t92.5 35.5t92 -35.5z" />
    <glyph glyph-name="wdieresis" unicode="&#x1e85;" horiz-adv-x="1184" 
d="M1185 914l-311 -914h-127l-155 433l-154 -433h-129l-309 914h195l183 -568l154 426h122l153 -426l182 568h196zM542.5 1235.5q36.5 -35.5 36.5 -79.5q0 -46 -36.5 -81.5t-91.5 -35.5q-57 0 -93 35.5t-36 81.5q0 44 36 79.5t93 35.5q55 0 91.5 -35.5zM827 1235.5
q36 -35.5 36 -79.5q0 -46 -36 -81.5t-92 -35.5t-92.5 35.5t-36.5 81.5q0 44 36.5 79.5t92.5 35.5t92 -35.5z" />
    <glyph glyph-name="Ygrave" unicode="&#x1ef2;" horiz-adv-x="1233" 
d="M526 582l-494 857h200l385 -666l384 666h200l-494 -857v-582h-181v582zM576 1798l208 -239h-190l-312 239h294z" />
    <glyph glyph-name="ygrave" unicode="&#x1ef3;" horiz-adv-x="896" 
d="M307 -317h-195l238 512l-335 719h195l238 -505l238 505h195zM408 1273l208 -239h-190l-312 239h294z" />
    <glyph glyph-name="endash" unicode="&#x2013;" horiz-adv-x="758" 
d="M0 621h758v-157h-758v157z" />
    <glyph glyph-name="emdash" unicode="&#x2014;" horiz-adv-x="1308" 
d="M0 621h1308v-157h-1308v157z" />
    <glyph glyph-name="afii00208" unicode="&#x2015;" horiz-adv-x="3101" 
d="M0 621h1910v-157h-1910v157z" />
    <glyph glyph-name="underscoredbl" unicode="&#x2017;" horiz-adv-x="863" 
d="M-45 -135h953v-156h-953v156zM-45 54h953v-156h-953v156z" />
    <glyph glyph-name="quoteleft" unicode="&#x2018;" horiz-adv-x="361" 
d="M262 1301l6 -20q38 -37 38 -83q0 -45 -36.5 -80.5t-91.5 -35.5q-57 0 -93 35.5t-36 80.5q0 24 8 46l98 195h159z" />
    <glyph glyph-name="quoteright" unicode="&#x2019;" horiz-adv-x="361" 
d="M100 1231l-10 23q-34 33 -34 79q0 45 36.5 80t92.5 35q55 0 91.5 -35t36.5 -80q0 -24 -8 -46l-98 -196h-159z" />
    <glyph glyph-name="quotesinglbase" unicode="&#x201a;" horiz-adv-x="361" 
d="M100 1l-10 24q-34 32 -34 77t36.5 80.5t92.5 35.5t92 -35.5t36 -80.5q0 -22 -8 -44l-98 -196h-159z" />
    <glyph glyph-name="quotereversed" unicode="&#x201b;" horiz-adv-x="361" 
d="M261 1231l10 23q34 33 34 79q0 45 -36.5 80t-92.5 35q-55 0 -91.5 -35t-36.5 -80q0 -24 8 -46l98 -196h159z" />
    <glyph glyph-name="quotedblleft" unicode="&#x201c;" horiz-adv-x="732" 
d="M262 1301l6 -20q38 -37 38 -83q0 -45 -36.5 -80.5t-91.5 -35.5q-57 0 -93 35.5t-36 80.5q0 24 8 46l98 195h159zM633 1301l6 -20q38 -37 38 -83q0 -45 -36.5 -80.5t-91.5 -35.5q-57 0 -93 35.5t-36 80.5q0 24 8 46l98 195h159z" />
    <glyph glyph-name="quotedblright" unicode="&#x201d;" horiz-adv-x="732" 
d="M100 1231l-10 23q-34 33 -34 79q0 45 36.5 80t92.5 35q55 0 91.5 -35t36.5 -80q0 -24 -8 -46l-98 -196h-159zM471 1231l-10 23q-34 33 -34 79q0 45 36.5 80t92.5 35q55 0 91.5 -35t36.5 -80q0 -24 -8 -46l-98 -196h-159z" />
    <glyph glyph-name="quotedblbase" unicode="&#x201e;" horiz-adv-x="732" 
d="M100 -39l-10 23q-34 33 -34 79q0 45 36.5 80t92.5 35q55 0 91.5 -35t36.5 -80q0 -24 -8 -46l-98 -196h-159zM471 -39l-10 23q-34 33 -34 79q0 45 36.5 80t92.5 35q55 0 91.5 -35t36.5 -80q0 -24 -8 -46l-98 -196h-159z" />
    <glyph glyph-name="dagger" unicode="&#x2020;" horiz-adv-x="773" 
d="M308 1254v185h153v-185h212v-129h-212v-1160h-153v1160h-212v129h212z" />
    <glyph glyph-name="daggerdbl" unicode="&#x2021;" horiz-adv-x="773" 
d="M314 1125h-212v129h212v185h153v-185h212v-129h-212v-333h212v-129h-212v-698h-153v698h-212v129h212v333z" />
    <glyph glyph-name="bullet" unicode="&#x2022;" horiz-adv-x="763" 
d="M511 789.5q52 -50.5 52 -117.5q0 -68 -52 -118.5t-128 -50.5q-79 0 -131 50.5t-52 118.5q0 67 52 117.5t131 50.5q76 0 128 -50.5z" />
    <glyph glyph-name="ellipsis" unicode="&#x2026;" horiz-adv-x="2048" 
d="M275.5 184.5q36.5 -35.5 36.5 -80.5t-36.5 -80.5t-91.5 -35.5q-57 0 -93 35.5t-36 80.5t36 80.5t93 35.5q55 0 91.5 -35.5zM958.5 184.5q36.5 -35.5 36.5 -80.5t-36.5 -80.5t-91.5 -35.5q-57 0 -93 35.5t-36 80.5t36 80.5t93 35.5q55 0 91.5 -35.5zM1641.5 184.5
q36.5 -35.5 36.5 -80.5t-36.5 -80.5t-91.5 -35.5q-57 0 -93 35.5t-36 80.5t36 80.5t93 35.5q55 0 91.5 -35.5z" />
    <glyph glyph-name="perthousand" unicode="&#x2030;" horiz-adv-x="1706" 
d="M1053 1165l-829 -1185l-141 98l829 1185zM491.5 1041q70.5 -71 70.5 -166q0 -93 -70.5 -164.5t-177.5 -71.5t-177.5 71.5t-70.5 164.5q0 95 70.5 166t177.5 71t177.5 -71zM314 958q-26 0 -48 -22.5t-22 -60.5t22 -60t48 -22q25 0 47.5 22.5t22.5 59.5q0 38 -22.5 60.5
t-47.5 22.5zM999.5 531.5q70.5 -70.5 70.5 -165.5t-70.5 -165.5t-176.5 -70.5q-107 0 -177.5 70.5t-70.5 165.5t70.5 165.5t177.5 70.5q106 0 176.5 -70.5zM823 449q-26 0 -48 -22.5t-22 -60.5t22 -60t48 -22q25 0 48 22t23 60t-23 60.5t-48 22.5zM1569.5 531.5
q70.5 -70.5 70.5 -165.5t-70.5 -165.5t-176.5 -70.5q-107 0 -177.5 70.5t-70.5 165.5t70.5 165.5t177.5 70.5q106 0 176.5 -70.5zM1393 449q-26 0 -48 -22.5t-22 -60.5t22 -60t48 -22q25 0 48 22t23 60t-23 60.5t-48 22.5z" />
    <glyph glyph-name="minute" unicode="&#x2032;" horiz-adv-x="427" 
d="M123 850v589h181v-589h-181z" />
    <glyph glyph-name="second" unicode="&#x2033;" horiz-adv-x="670" 
d="M123 850v589h181v-589h-181zM367 850v589h180v-589h-180z" />
    <glyph glyph-name="guilsinglleft" unicode="&#x2039;" horiz-adv-x="695" 
d="M100 449l496 532v-245l-268 -287l268 -287v-246z" />
    <glyph glyph-name="guilsinglright" unicode="&#x203a;" horiz-adv-x="695" 
d="M100 -84v246l267 287l-267 287v245l496 -532z" />
    <glyph glyph-name="exclamdbl" unicode="&#x203c;" horiz-adv-x="734" 
d="M275.5 184.5q36.5 -35.5 36.5 -80.5t-36.5 -80.5t-91.5 -35.5q-57 0 -93 35.5t-36 80.5t36 80.5t93 35.5q55 0 91.5 -35.5zM272 1439v-1104h-181v1104h181zM642.5 184.5q36.5 -35.5 36.5 -80.5t-36.5 -80.5t-91.5 -35.5q-57 0 -93 35.5t-36 80.5t36 80.5t93 35.5
q55 0 91.5 -35.5zM639 1439v-1104h-181v1104h181z" />
    <glyph glyph-name="uni203E" unicode="&#x203e;" horiz-adv-x="863" 
d="M-45 1631h953v-156h-953v156z" />
    <glyph glyph-name="fraction" unicode="&#x2044;" horiz-adv-x="297" 
d="M848 1439l-1032 -1439h-216l1030 1439h218z" />
    <glyph glyph-name="fraction" unicode="&#x2215;" horiz-adv-x="297" 
d="M848 1439l-1032 -1439h-216l1030 1439h218z" />
    <glyph glyph-name="uni2070" unicode="&#x2070;" horiz-adv-x="829" 
d="M577 1002q0 146 -53 214.5t-109 68.5q-57 0 -109.5 -68.5t-52.5 -214.5q0 -147 52.5 -216t109.5 -69q56 0 109 69t53 216zM763 1002q0 -190 -96.5 -311t-250.5 -121q-155 0 -252.5 121t-97.5 311t97.5 311t252.5 121q154 0 250.5 -121t96.5 -311z" />
    <glyph glyph-name="uni2074" unicode="&#x2074;" horiz-adv-x="865" 
d="M674 1653v-716h78v-145h-78v-193h-185v193h-376zM489 1056l-77 -119h77v119z" />
    <glyph glyph-name="uni2075" unicode="&#x2075;" horiz-adv-x="843" 
d="M357 1187q36 6 60 6q9 0 17 -1q301 -32 323 -304q-2 -128 -95.5 -217t-274.5 -89q-176 10 -301 142l116 116q117 -100 212 -100q148 8 157 148q-4 127 -125 163q-36 7 -74 7q-58 0 -146 -28l-94 76l101 318h382v-145h-233z" />
    <glyph glyph-name="uni2076" unicode="&#x2076;" horiz-adv-x="834" 
d="M308 822q0 -50 33.5 -80t75.5 -30q41 0 74.5 30t33.5 80t-33.5 80.5t-74.5 30.5q-42 0 -75.5 -30.5t-33.5 -80.5zM447 1082q95 0 180 -78t85 -182q0 -103 -85 -181.5t-210 -78.5q-126 0 -211 78.5t-85 181.5q5 131 78.5 267.5t218.5 334.5h223q-211 -245 -287 -360
q19 18 93 18z" />
    <glyph glyph-name="uni2077" unicode="&#x2077;" horiz-adv-x="834" 
d="M606 1086q-100 -131 -164 -255q-63 -122 -71 -258h-186q8 174 82 312q73 135 165 259q86 117 90 135h-415v145h619q-4 -186 -120 -338z" />
    <glyph glyph-name="uni2078" unicode="&#x2078;" horiz-adv-x="831" 
d="M415 719q70 0 108 35t38 93q0 57 -41 99q-39 38 -105 50q-67 -12 -106 -50q-40 -42 -40 -99q0 -58 38 -93t108 -35zM415 571q-154 0 -243.5 82.5t-89.5 193.5q0 107 139 252q-58 47 -58 133q0 82 68.5 146t183.5 64q114 0 183.5 -64t69.5 -146q0 -86 -58 -133
q138 -145 138 -252q0 -111 -89.5 -193.5t-243.5 -82.5zM415 1295q-29 0 -47.5 -16t-18.5 -47t22.5 -52.5t43.5 -28.5q20 6 42.5 28t22.5 53t-17.5 47t-47.5 16z" />
    <glyph glyph-name="uni2079" unicode="&#x2079;" horiz-adv-x="834" 
d="M525 1165q0 49 -33.5 79.5t-75.5 30.5q-41 0 -74.5 -30.5t-33.5 -79.5q0 -51 33.5 -81.5t74.5 -30.5q42 0 75.5 30.5t33.5 81.5zM386 905q-96 0 -180.5 77.5t-84.5 182.5q0 102 84.5 180.5t210.5 78.5q125 0 210.5 -78.5t85.5 -181.5q-5 -130 -78.5 -266.5t-218.5 -335.5
h-223q210 245 287 361q-19 -18 -93 -18z" />
    <glyph glyph-name="uni207A" unicode="&#x207a;" horiz-adv-x="831" 
d="M323 927h-236v145h236v216h185v-216h236v-145h-236v-218h-185v218z" />
    <glyph glyph-name="uni207B" unicode="&#x207b;" horiz-adv-x="831" 
d="M97 930v145h657v-145h-657z" />
    <glyph glyph-name="uni207C" unicode="&#x207c;" horiz-adv-x="831" 
d="M87 1165h657v-145h-657v145zM89 985h653v-145h-653v145z" />
    <glyph glyph-name="uni207F" unicode="&#x207f;" horiz-adv-x="664" 
d="M238 1235v-433h-188v607h188q7 30 89 30q127 0 206 -73t81 -175v-389h-189v384q0 44 -30.5 72t-67.5 28q-38 0 -66 -25q-18 -17 -23 -26z" />
    <glyph glyph-name="uni2080" unicode="&#x2080;" horiz-adv-x="829" 
d="M577 325q0 146 -53 215t-109 69q-57 0 -109.5 -69t-52.5 -215q0 -147 52.5 -215.5t109.5 -68.5q56 0 109 68.5t53 215.5zM763 325q0 -191 -96.5 -312t-250.5 -121q-155 0 -252.5 121t-97.5 312q0 189 97.5 310.5t252.5 121.5q154 0 250.5 -121.5t96.5 -310.5z" />
    <glyph glyph-name="uni2081" unicode="&#x2081;" horiz-adv-x="836" 
d="M327 39v463l-16 -11l-137 91l338 226v-769h177v-146h-542v146h180z" />
    <glyph glyph-name="uni2082" unicode="&#x2082;" horiz-adv-x="879" 
d="M133 -107q423 495 423 615q-3 95 -83 96q-54 -3 -92 -75l-169 70q96 146 260 153q274 -6 274 -240q0 -164 -274 -473h274v-146h-613z" />
    <glyph glyph-name="uni2083" unicode="&#x2083;" horiz-adv-x="836" 
d="M384 319l-99 2v143q101 1 117 7t39 28.5t23 52.5q0 31 -18 47t-38 16t-35 -13q-12 -11 -43 -83l-165 61q28 82 67 117q72 66 176 66q105 0 174 -64t69 -147q0 -132 -8 -135h-8q-21 0 -21 -11q0 -15 34 -49q84 -83 84 -190q0 -110 -89.5 -193t-222.5 -83t-225 86
q-70 64 -90 185l181 62q15 -121 49 -153q36 -31 85 -31t87 34.5t38 92.5q0 57 -40.5 97.5t-120.5 54.5z" />
    <glyph glyph-name="uni2084" unicode="&#x2084;" horiz-adv-x="865" 
d="M674 945v-717h78v-144h-78v-194h-185v194h-376zM489 348l-77 -120h77v120z" />
    <glyph glyph-name="uni2085" unicode="&#x2085;" horiz-adv-x="843" 
d="M363 535q-18 -10 -18 -16q0 -15 89 -15q301 -32 323 -304q-2 -129 -95.5 -218t-274.5 -89q-176 10 -301 143l116 116q117 -100 212 -100q148 8 157 148q-4 127 -125 163q-36 7 -74 7q-58 0 -146 -28l-94 76l101 318h382v-146h-233z" />
    <glyph glyph-name="uni2086" unicode="&#x2086;" horiz-adv-x="834" 
d="M308 152q0 -50 33.5 -80t75.5 -30q41 0 74.5 30t33.5 80t-33.5 80.5t-74.5 30.5q-42 0 -75.5 -30.5t-33.5 -80.5zM447 412q95 0 180 -78t85 -182q0 -103 -85 -181.5t-210 -78.5q-126 0 -211 78.5t-85 181.5q5 131 78.5 267.5t218.5 334.5h223q-211 -245 -287 -360
q19 18 93 18z" />
    <glyph glyph-name="uni2087" unicode="&#x2087;" horiz-adv-x="834" 
d="M614 416.5q-108 -141.5 -171.5 -264.5t-71.5 -259h-186q8 174 81.5 310.5t162.5 257.5t93 138h-415v145h619q-4 -186 -112 -327.5z" />
    <glyph glyph-name="uni2088" unicode="&#x2088;" horiz-adv-x="831" 
d="M415 40q70 0 108 34.5t38 92.5q0 57 -41 99q-39 38 -105 50q-67 -12 -106 -50q-40 -42 -40 -99q0 -58 38 -92.5t108 -34.5zM415 -109q-154 0 -243.5 83t-89.5 193q0 107 139 253q-58 47 -58 132q0 82 68.5 146.5t183.5 64.5q114 0 183.5 -64t69.5 -147q0 -85 -58 -132
q138 -146 138 -253q0 -110 -89.5 -193t-243.5 -83zM415 615q-29 0 -47.5 -16t-18.5 -47q0 -30 22.5 -52t43.5 -29q20 7 42.5 29t22.5 52q0 31 -17.5 47t-47.5 16z" />
    <glyph glyph-name="uni2089" unicode="&#x2089;" horiz-adv-x="834" 
d="M525 495q0 49 -33.5 79.5t-75.5 30.5q-41 0 -74.5 -30.5t-33.5 -79.5q0 -51 33.5 -81.5t74.5 -30.5q42 0 75.5 30.5t33.5 81.5zM386 235q-96 0 -180.5 77.5t-84.5 182.5q0 102 84.5 180.5t210.5 78.5q125 0 210.5 -78.5t85.5 -181.5q-5 -130 -78.5 -266.5t-218.5 -335.5
h-223q210 245 287 361q-19 -18 -93 -18z" />
    <glyph glyph-name="uni208A" unicode="&#x208a;" horiz-adv-x="831" 
d="M323 232h-236v145h236v216h185v-216h236v-145h-236v-218h-185v218z" />
    <glyph glyph-name="uni208B" unicode="&#x208b;" horiz-adv-x="831" 
d="M87 54v145h657v-145h-657z" />
    <glyph glyph-name="uni208C" unicode="&#x208c;" horiz-adv-x="831" 
d="M87 366h657v-146h-657v146zM89 186h653v-146h-653v146z" />
    <glyph glyph-name="franc" unicode="&#x20a3;" horiz-adv-x="966" 
d="M187 478v961h699v-157h-518v-484h518v-157h-518v-163h244v-157h-244v-321h-181v321h-137v157h137z" />
    <glyph glyph-name="lira" unicode="&#x20a4;" horiz-adv-x="976" 
d="M268 1059v-6q0 -92 66 -203q75 -127 98 -222h175v-127h-147v-66h147v-127h-168q-22 -85 -78 -151h545v-157h-794v128q127 125 143 180h-175v127h200q0 2 -1 66h-199v127h165q-8 29 -83 157q-79 133 -79 266v10q3 140 90 245q112 121 305 129q153 0 276 -102l-71 -161
q-107 105 -203 105h-7q-99 -3 -151 -65t-54 -153z" />
    <glyph glyph-name="peseta" unicode="&#x20a7;" horiz-adv-x="1793" 
d="M275 1281v-652h160q113 0 197.5 93.5t84.5 233.5q0 139 -84.5 232t-197.5 93h-160zM842 758q-32 -77 -90 -143q-129 -144 -317 -144h-160v-471h-163v1439h371q162 -24 271 -146q126 -141 126 -337q0 -21 -2 -42h42v355h180v-355h170v-15q69 62 168 62q107 0 174 -67
q68 -68 68 -149v-28l-162 -66q-16 113 -35 133t-45 20t-49 -23t-23 -61t26 -64q17 -18 78 -57q114 -62 165 -113q83 -84 83 -198q0 -117 -85.5 -203t-213.5 -86t-213 86t-85 215l179 45q0 -116 37 -153t82 -37t82.5 37t37.5 96q0 57 -40 96q-23 23 -99 72q-102 56 -140 94
q-74 74 -74 170q0 19 3 38h-89v-758h-180v758h-78z" />
    <glyph glyph-name="Euro" unicode="&#x20ac;" horiz-adv-x="1118" 
d="M1022 1127q-180 154 -326 154q-176 -8 -261 -137q-80 -123 -98 -304h518l-32 -157h-494q0 -29 1 -35h505l-31 -157h-451q23 -104 87 -202q89 -138 306 -143q159 5 347 164v-222q-159 -99 -352 -99q-308 0 -460 206q-98 134 -124 296h-167l39 157h110q-1 14 -1 35h-129
l39 157h94q13 235 130 397q142 196 425 201q208 0 336 -112z" />
    <glyph glyph-name="afii61248" unicode="&#x2105;" horiz-adv-x="1734" 
d="M692 928l174 -64q-201 -212 -378 -212q-175 0 -294 118.5t-119 278.5q0 161 119 279.5t294 118.5q177 0 378 -212l-174 -65q-116 121 -204 121t-156.5 -68t-68.5 -174q0 -104 68.5 -172t156.5 -68t204 119zM1247 770q176 0 294 -118.5t118 -279.5q0 -159 -118 -278.5
t-294 -119.5t-294.5 119.5t-118.5 278.5q0 161 119 279.5t294 118.5zM1090 545q-68 -69 -68 -173q0 -105 68 -173t157 -68t157 68t68 173q0 104 -68.5 173t-156.5 69q-89 0 -157 -69zM1506 1439l-1032 -1439h-216l1030 1439h218z" />
    <glyph glyph-name="afii61352" unicode="&#x2116;" horiz-adv-x="1601" 
d="M749 495v944h181v-1590l-649 1091v-940h-181v1584zM1246 1054q124 0 207 -83.5t83 -196.5q0 -111 -83 -194.5t-207 -83.5q-123 0 -206.5 83.5t-83.5 194.5q0 114 84 197t206 83zM1159.5 874.5q-38.5 -38.5 -38.5 -100.5q0 -60 38.5 -98.5t86.5 -38.5q49 0 87.5 38.5
t38.5 98.5q0 62 -38.5 100.5t-87.5 38.5q-48 0 -86.5 -38.5zM1517 476v-155h-541v155h541z" />
    <glyph glyph-name="trademark" unicode="&#x2122;" horiz-adv-x="1315" 
d="M541 1292h-104v-513h-175v513h-212v147h640l188 -289l187 289h150v-660h-175v315l-162 -250l-163 251v-316h-174v513z" />
    <glyph glyph-name="Omega" unicode="&#x2126;" horiz-adv-x="1519" 
d="M766 1459q300 0 476.5 -207t176.5 -544q0 -251 -330 -551h243v-157h-465v147q107 48 239 187t132 374q0 283 -132 444t-344 161h-4q-213 0 -344.5 -161t-131.5 -444q0 -235 131.5 -374t238.5 -187v-147h-465l-1 157h244q-330 300 -330 551q0 337 177 544t476 207h13z" />
    <glyph glyph-name="estimated" unicode="&#x212e;" horiz-adv-x="1575" 
d="M1104 1045q-127 115 -300 115q-185 0 -316 -129v-294h616v308zM693 681l-1 1l-7 -1h-348q10 -169 132 -291q132 -133 319 -133q186 0 319 133q24 23 43 49l51 -27q-24 -33 -54 -62q-149 -149 -359 -149t-359 148.5t-149 359.5q0 210 149 358.5t359 148.5t359 -148.5
t149 -358.5q0 -14 -1 -28h-602z" />
    <glyph glyph-name="oneeighth" unicode="&#x215b;" horiz-adv-x="1964" 
d="M327 692v463l-16 -10l-137 91l338 226v-770h177v-145h-542v145h180zM1684 1439l-1032 -1439h-216l1030 1439h218zM1548 118q70 0 108 35t38 93q0 57 -41 99q-39 38 -105 50q-67 -12 -106 -50q-40 -42 -40 -99q0 -58 38 -93t108 -35zM1548 -30q-154 0 -243.5 82.5
t-89.5 193.5q0 107 139 252q-58 47 -58 133q0 82 68.5 146t183.5 64q114 0 183.5 -64t69.5 -146q0 -86 -58 -133q138 -145 138 -252q0 -111 -89.5 -193.5t-243.5 -82.5zM1548 694q-29 0 -47.5 -16t-18.5 -47t22.5 -52.5t43.5 -28.5q20 6 42.5 28t22.5 53t-17.5 47t-47.5 16z
" />
    <glyph glyph-name="threeeighths" unicode="&#x215c;" horiz-adv-x="1964" 
d="M384 993h-99v144q101 1 117 7t39 28t23 53t-18 47t-38 16t-35 -13q-12 -11 -43 -83l-165 60q28 83 67 118q72 65 176 65q105 0 174 -64t69 -146q0 -122 -68 -130l65 -65q84 -83 84 -190q0 -110 -89.5 -193t-222.5 -83t-225 86q-70 64 -90 185l181 62q15 -121 49 -153
q36 -31 85 -31t87 34.5t38 92.5q0 57 -40.5 97.5t-120.5 55.5zM1684 1439l-1032 -1439h-216l1030 1439h218zM1548 118q70 0 108 35t38 93q0 57 -41 99q-39 38 -105 50q-67 -12 -106 -50q-40 -42 -40 -99q0 -58 38 -93t108 -35zM1548 -30q-154 0 -243.5 82.5t-89.5 193.5
q0 107 139 252q-58 47 -58 133q0 82 68.5 146t183.5 64q114 0 183.5 -64t69.5 -146q0 -86 -58 -133q138 -145 138 -252q0 -111 -89.5 -193.5t-243.5 -82.5zM1548 694q-29 0 -47.5 -16t-18.5 -47t22.5 -52.5t43.5 -28.5q20 6 42.5 28t22.5 53t-17.5 47t-47.5 16z" />
    <glyph glyph-name="fiveeighths" unicode="&#x215d;" horiz-adv-x="1971" 
d="M357 1187q36 6 60 6q9 0 17 -1q301 -32 323 -304q-2 -128 -95.5 -217t-274.5 -89q-176 10 -301 142l116 116q117 -100 212 -100q148 8 157 148q-4 127 -125 163q-36 7 -74 7q-58 0 -146 -28l-94 76l101 318h382v-145h-233zM1691 1439l-1032 -1439h-216l1030 1439h218z
M1555 118q70 0 108 35t38 93q0 57 -41 99q-39 38 -105 50q-67 -12 -106 -50q-40 -42 -40 -99q0 -58 38 -93t108 -35zM1555 -30q-154 0 -243.5 82.5t-89.5 193.5q0 107 139 252q-58 47 -58 133q0 82 68.5 146t183.5 64q114 0 183.5 -64t69.5 -146q0 -86 -58 -133
q138 -145 138 -252q0 -111 -89.5 -193.5t-243.5 -82.5zM1555 694q-29 0 -47.5 -16t-18.5 -47t22.5 -52.5t43.5 -28.5q20 6 42.5 28t22.5 53t-17.5 47t-47.5 16z" />
    <glyph glyph-name="seveneighths" unicode="&#x215e;" horiz-adv-x="1962" 
d="M606 1086q-100 -131 -164 -255q-63 -122 -71 -258h-186q8 174 82 312q73 135 165 259q86 117 90 135h-415v145h619q-4 -186 -120 -338zM1682 1439l-1032 -1439h-216l1030 1439h218zM1546 118q70 0 108 35t38 93q0 57 -41 99q-39 38 -105 50q-67 -12 -106 -50
q-40 -42 -40 -99q0 -58 38 -93t108 -35zM1546 -30q-154 0 -243.5 82.5t-89.5 193.5q0 107 139 252q-58 47 -58 133q0 82 68.5 146t183.5 64q114 0 183.5 -64t69.5 -146q0 -86 -58 -133q138 -145 138 -252q0 -111 -89.5 -193.5t-243.5 -82.5zM1546 694q-29 0 -47.5 -16
t-18.5 -47t22.5 -52.5t43.5 -28.5q20 6 42.5 28t22.5 53t-17.5 47t-47.5 16z" />
    <glyph glyph-name="arrowleft" unicode="&#x2190;" horiz-adv-x="1660" 
d="M362 976v-186h1197v-157h-1197v-187l-262 266z" />
    <glyph glyph-name="arrowup" unicode="&#x2191;" horiz-adv-x="1104" 
d="M804 1202h-162v-1199h-181v1199h-161l251 249z" />
    <glyph glyph-name="arrowright" unicode="&#x2192;" horiz-adv-x="1660" 
d="M1559 712l-262 -266v187h-1197v157h1197v186z" />
    <glyph glyph-name="arrowdown" unicode="&#x2193;" horiz-adv-x="1104" 
d="M551 -22l-251 250h161v1199h181v-1199h162z" />
    <glyph glyph-name="arrowboth" unicode="&#x2194;" horiz-adv-x="1673" 
d="M1310 790v186l262 -264l-262 -266v187h-948v-187l-262 266l262 264v-186h948z" />
    <glyph glyph-name="arrowupdn" unicode="&#x2195;" horiz-adv-x="1798" 
d="M990 228h161l-251 -250l-253 250h162v974h-162l253 249l251 -249h-161v-974z" />
    <glyph glyph-name="arrowupdnbse" unicode="&#x21a8;" horiz-adv-x="1798" 
d="M991 228h161l-251 -250l-253 250h162v974h-162l253 249l251 -249h-161v-974zM702 1609h397v-156h-397v156zM702 -30h397v-157h-397v157z" />
    <glyph glyph-name="partialdiff" unicode="&#x2202;" horiz-adv-x="948" 
d="M702 642q-361 -45 -465 -307q-10 -39 -10 -71q0 -110 149 -112q233 25 326 490zM717 795q4 50 4 119q0 340 -139 366q-30 5 -59 5q-136 0 -285 -216l-85 171q154 187 363 187q67 0 141 -18q241 -62 241 -473q0 -115 -19 -260q-103 -658 -502 -667q-327 0 -327 250
q0 46 13 102q117 368 654 434z" />
    <glyph glyph-name="Delta" unicode="&#x2206;" horiz-adv-x="1195" 
d="M44 1h-74l524 1438h171l530 -1439h-1151v1zM948 157l-369 999l-364 -999h733z" />
    <glyph glyph-name="product" unicode="&#x220f;" horiz-adv-x="1237" 
d="M275 1282v-1599h-181v1756h1049v-1756h-181v1599h-687z" />
    <glyph glyph-name="summation" unicode="&#x2211;" horiz-adv-x="1136" 
d="M1046 1439v-157h-734l337 -721l-337 -721h734v-157h-996l402 878l-402 878h996z" />
    <glyph glyph-name="minus" unicode="&#x2212;" horiz-adv-x="1138" 
d="M85 609v156h968v-156h-968z" />
    <glyph glyph-name="radical" unicode="&#x221a;" horiz-adv-x="1442" 
d="M789 383l464 1175h189l-649 -1683l-571 721l-82 -37l-90 112l334 189z" />
    <glyph glyph-name="infinity" unicode="&#x221e;" horiz-adv-x="1137" 
d="M911 705q0 70 -34.5 108t-92.5 38q-57 0 -99 -41q-38 -39 -50 -105q12 -67 50 -106q42 -41 99 -41q58 0 92.5 38.5t34.5 108.5zM1059 705q0 -154 -82.5 -243.5t-192.5 -89.5q-108 0 -253 139q-47 -59 -133 -59q-82 0 -146 69t-64 184q0 114 64 183.5t146 69.5
q86 0 133 -59q145 138 253 138q110 0 192.5 -89.5t82.5 -242.5zM336 705q0 -30 16 -48t46 -18q31 0 53 22.5t28 43.5q-6 20 -28 42.5t-53 22.5t-46.5 -17.5t-15.5 -47.5z" />
    <glyph glyph-name="orthogonal" unicode="&#x221f;" horiz-adv-x="1705" 
d="M122 1439h181v-1282h1280v-157h-1461v1439z" />
    <glyph glyph-name="intersection" unicode="&#x2229;" horiz-adv-x="1214" 
d="M921 956q0 138 -93.5 232t-219.5 94q-127 0 -221 -94t-94 -232v-968h-181v968q0 197 143 340t353 143q208 0 349 -141q122 -122 145 -291v-1019h-181v968z" />
    <glyph glyph-name="integral" unicode="&#x222b;" horiz-adv-x="585" 
d="M382 -28q-11 -281 -350 -281v152q163 0 170 129v1286q22 280 350 280l2 -140q-158 -5 -172 -141v-1285z" />
    <glyph glyph-name="approxequal" unicode="&#x2248;" horiz-adv-x="1142" 
d="M600 925q146 -86 202 -86q3 0 4 1q41 12 60 58q10 27 10 104l184 -29q-6 -79 -24 -126q-47 -113 -163 -151q-31 -10 -66 -10q-106 0 -267 92q-147 84 -202 84h-7q-38 -12 -56 -58q-12 -28 -12 -104l-182 30q4 78 22 125q47 112 164 151q30 10 66 10q106 0 267 -91z
M600 601q146 -85 202 -85h4q41 12 60 58q10 27 10 105l184 -30q-6 -79 -24 -126q-47 -112 -163 -151q-31 -9 -66 -9q-106 0 -267 91q-147 85 -202 85q-6 0 -7 -1q-38 -11 -56 -58q-12 -27 -12 -104l-182 30q4 79 22 125q47 112 164 152q30 10 66 10q106 0 267 -92z" />
    <glyph glyph-name="notequal" unicode="&#x2260;" horiz-adv-x="1138" 
d="M515 745h-430v157h572l149 165h213l-149 -165h183v-157h-325l-105 -115h426v-157h-568l-149 -165h-212l149 165h-180v157h322z" />
    <glyph glyph-name="equivalence" unicode="&#x2261;" horiz-adv-x="1138" 
d="M85 609v156h968v-156h-968zM85 897v157h968v-157h-968zM85 320v157h968v-157h-968z" />
    <glyph glyph-name="lessequal" unicode="&#x2264;" horiz-adv-x="1180" 
d="M445 782l646 -299v-182l-1006 481l1006 481v-182zM127 0v157h968v-157h-968z" />
    <glyph glyph-name="greaterequal" unicode="&#x2265;" horiz-adv-x="1180" 
d="M89 1081v182l1006 -481l-1006 -481v182l646 299zM85 0v157h968v-157h-968z" />
    <glyph glyph-name="house" unicode="&#x2302;" horiz-adv-x="1204" 
d="M1104 0h-1004v918l492 430l512 -430v-918zM280 846v-689h644v685l-331 282z" />
    <glyph glyph-name="revlogicalnot" unicode="&#x2310;" horiz-adv-x="1142" 
d="M135 758h872v-157h-691v-326h-181v483z" />
    <glyph glyph-name="integraltp" unicode="&#x2320;" horiz-adv-x="653" 
d="M380 -308h-180v1566q22 280 350 280l2 -140q-158 -5 -172 -141v-1565z" />
    <glyph glyph-name="integralbt" unicode="&#x2321;" horiz-adv-x="652" 
d="M272 1538h180v-1565q-23 -281 -352 -281v140q158 5 172 141v1565z" />
    <glyph glyph-name="triagup" unicode="&#x25b2;" horiz-adv-x="1836" 
d="M435 268l483 965l483 -965h-966z" />
    <glyph glyph-name="triagrt" unicode="&#x25ba;" horiz-adv-x="1836" 
d="M436 1233l964 -482l-964 -483v965z" />
    <glyph glyph-name="triagdn" unicode="&#x25bc;" horiz-adv-x="1836" 
d="M1401 1233l-483 -965l-483 965h966z" />
    <glyph glyph-name="triaglf" unicode="&#x25c4;" horiz-adv-x="1836" 
d="M1400 268l-964 482l964 483v-965z" />
    <glyph glyph-name="lozenge" unicode="&#x25ca;" horiz-adv-x="1836" 
d="M1371 709l-452 -708l-454 709l454 708zM919 1249l-346 -540l346 -539l344 540z" />
    <glyph glyph-name="circle" unicode="&#x25cb;" horiz-adv-x="1836" 
d="M1390 756q0 -195 -138.5 -333.5t-333.5 -138.5q-196 0 -334 138.5t-138 333.5q0 196 138 334t334 138q195 0 333.5 -138t138.5 -334zM918 1135q-157 0 -267 -111t-110 -268q0 -156 110 -266t267 -110q156 0 267 110t111 266q0 157 -111 268t-267 111z" />
    <glyph glyph-name="H18533" unicode="&#x25cf;" horiz-adv-x="1836" 
d="M1390 756q0 -195 -138.5 -333.5t-333.5 -138.5q-196 0 -334 138.5t-138 333.5q0 196 138 334t334 138q195 0 333.5 -138t138.5 -334z" />
    <glyph glyph-name="invbullet" unicode="&#x25d8;" horiz-adv-x="1836" 
d="M1429 1247v-972h-1023v972h1023zM917 1019q-106 0 -181.5 -75.5t-75.5 -182.5t75.5 -182.5t181.5 -75.5q107 0 182.5 75.5t75.5 182.5t-75.5 182.5t-182.5 75.5z" />
    <glyph glyph-name="invcircle" unicode="&#x25d9;" horiz-adv-x="1836" 
d="M1429 1247v-972h-1023v972h1023zM917 1197q-180 0 -307.5 -127.5t-127.5 -308.5q0 -180 127.5 -308t307.5 -128q181 0 308.5 128t127.5 308q0 181 -127.5 308.5t-308.5 127.5zM1256 761q0 -140 -99 -239t-240 -99t-239 99t-98 239t98 239t239 99t240 -99t99 -239z" />
    <glyph glyph-name="openbullet" unicode="&#x25e6;" horiz-adv-x="1836" 
d="M1227 761q0 -128 -90.5 -218.5t-219.5 -90.5q-128 0 -218.5 90.5t-90.5 218.5t90.5 219t218.5 91q129 0 219.5 -91t90.5 -219zM917 980q-90 0 -154 -64t-64 -155q0 -90 64 -154t154 -64q91 0 155 64t64 154q0 91 -64 155t-155 64z" />
    <glyph glyph-name="smileface" unicode="&#x263a;" horiz-adv-x="1836" 
d="M1041 778v222h70v-222h-70zM881 383q-344 0 -361 344h34q7 -220 327 -220t344 220h33q-33 -344 -377 -344zM670 778v222h70v-222h-70zM1317 1236q372 -35 408 -295q0 -145 -161 -281q150 -120 150 -233t-110.5 -185.5t-264.5 -84.5q-12 -59 -63 -104q-72 -62 -172 -62
q-96 0 -198 92q-151 -135 -316 -135q-164 0 -280.5 102t-116.5 247q0 107 65 194q-42 13 -75 44q-72 62 -72 148q0 87 72 149q48 42 109 55q-75 102 -75 231q0 181 146 309t352 128q185 0 341 -114q40 20 68 20q78 0 133.5 -56t59.5 -169zM705 1494q-170 0 -290 -104
t-120 -252q0 -202 84 -266q-74 -9 -144.5 -64t-70.5 -133t72 -132q65 -53 117 -55q-81 -49 -81 -214q0 -110 89 -186.5t214 -76.5q272 0 356 146q4 -111 184 -111q139 0 193 176q290 5 345 188q0 174 -171 239q168 99 168 301q-21 221 -412 242q2 25 4 51q-4 59 -45 100
q-37 36 -89 42q-12 1 -24 1q-37 0 -66 -14q-107 122 -313 122z" />
    <glyph glyph-name="invsmileface" unicode="&#x263b;" horiz-adv-x="1836" 
d="M1111 778v222h-70v-222h70zM1258 727h-33q-24 -220 -344 -220t-327 220h-34q17 -344 361 -344t377 344zM740 778v222h-70v-222h70zM1317 1236q372 -35 408 -295q0 -145 -161 -281q150 -120 150 -233t-110.5 -185.5t-264.5 -84.5q-12 -59 -63 -104q-72 -62 -172 -62
q-96 0 -198 92q-151 -135 -316 -135q-164 0 -280.5 102t-116.5 247q0 107 65 194q-42 13 -75 44q-72 62 -72 148q0 87 72 149q48 42 109 55q-75 102 -75 231q0 181 146 309t352 128q185 0 341 -114q40 20 68 20q78 0 133.5 -56t59.5 -169z" />
    <glyph glyph-name="sun" unicode="&#x263c;" horiz-adv-x="1878" 
d="M939 1085q-166 0 -288.5 -122.5t-122.5 -301.5t122.5 -301.5t288.5 -122.5q167 0 289.5 122.5t122.5 301.5t-122.5 301.5t-289.5 122.5zM1409 311l145 -146l-118 -120l-148 148q-107 -94 -258 -104v-208h-181v208q-150 10 -258 104l-148 -148l-118 120l146 146
q-106 120 -116 272h-207v156h207q10 151 116 272l-146 146l118 120l148 -148q106 94 258 104v208h181v-208q151 -10 259 -103l147 147l118 -120l-145 -146q106 -120 115 -272h206v-156h-206q-9 -152 -115 -272z" />
    <glyph glyph-name="female" unicode="&#x2640;" horiz-adv-x="1909" 
d="M954 1222q-101 0 -177.5 -76.5t-76.5 -190.5t76.5 -190t177.5 -76q102 0 178.5 76t76.5 190t-76.5 190.5t-178.5 76.5zM864 546q-106 9 -216 120q-121 120 -121 289t123.5 292.5t303.5 123.5q181 0 304.5 -123.5t123.5 -292.5t-125 -293q-106 -107 -212 -116v-98h297
v-157h-297v-291h-181v291h-298v157h298v98z" />
    <glyph glyph-name="male" unicode="&#x2642;" horiz-adv-x="1902" 
d="M791 673q-101 0 -177.5 -76.5t-76.5 -190.5t76.5 -190t177.5 -76q102 0 178.5 76t76.5 190t-76.5 190.5t-178.5 76.5zM1152 632q67 -84 67 -226q0 -169 -125 -293q-108 -108 -303 -115q-195 7 -306 119q-121 120 -121 289t123.5 292.5t303.5 123.5q165 0 244 -69l200 201
l-146 8l-162 161l582 -26l28 -584l-186 186l-8 125z" />
    <glyph glyph-name="spade" unicode="&#x2660;" horiz-adv-x="1836" 
d="M908 649q-19 -47 -57 -86q-77 -80 -186 -80t-186 80.5t-77 194.5q0 184 229 300t291 259q53 -143 282 -259t229 -300q0 -114 -77.5 -194.5t-186.5 -80.5t-185 80q-36 38 -56 82v-24q21 -272 344 -301h-708q322 29 344 301v28z" />
    <glyph glyph-name="club" unicode="&#x2663;" horiz-adv-x="1836" 
d="M928 643v-22q22 -272 344 -301h-708q323 29 344 301v22q-28 -61 -120 -103q-68 -31 -141 -31q-52 0 -108 16q-133 38 -158 181q-5 26 -5 49q0 106 92 167q48 31 113 31q86 0 201 -56q-91 46 -126 171q-10 37 -10 71q0 79 58 137q83 83 201 83q117 0 200 -83
q61 -61 61 -145q0 -30 -8 -63q-30 -125 -136 -174q134 60 229 60q68 0 116 -31q93 -61 93 -168q0 -24 -5 -49q-25 -143 -158 -181q-56 -16 -108 -16q-73 0 -140 31q-93 42 -121 103z" />
    <glyph glyph-name="heart" unicode="&#x2665;" horiz-adv-x="1836" 
d="M402 942q0 114 77 194.5t186 80.5t186 -81q48 -50 66 -112q19 62 66 112q77 81 186 81t186.5 -80.5t77.5 -194.5q0 -184 -229.5 -350.5t-282.5 -308.5q-61 142 -290 308.5t-229 350.5z" />
    <glyph glyph-name="diamond" unicode="&#x2666;" horiz-adv-x="1836" 
d="M1367 850h1v-1h-1q-314 -290 -448 -580q-135 290 -450 580h-1v1h1q315 290 450 580q134 -290 448 -580z" />
    <glyph glyph-name="musicalnote" unicode="&#x266a;" horiz-adv-x="1836" 
d="M862 1248q90 -50 179 -50t178 50l-79 -90q-49 -35 -99 -35t-100 35v-740q1 -7 1 -15q0 -52 -47.5 -88.5t-115.5 -36.5q-67 0 -115 36.5t-48 88.5t48 88t115 36q46 0 83 -17v738z" />
    <glyph glyph-name="musicalnotedbl" unicode="&#x266b;" horiz-adv-x="1836" 
d="M672 1248l737 130v-863q0 -65 -46 -100q-48 -37 -116 -37q-67 0 -115 36.5t-48 88.5t48 88t115 36q46 0 83 -17v678l-579 -100v-773q0 -65 -46 -100q-48 -37 -116 -37q-67 0 -115 36.5t-48 88.5t48 88t115 36q46 0 83 -17v738z" />
    <glyph glyph-name="uni3000" unicode="&#x3000;" horiz-adv-x="1800" 
 />
    <glyph glyph-name="uni3001" unicode="&#x3001;" horiz-adv-x="1910" 
d="M1154 -197l-161 -53q-87 216 -238 390l150 72q149 -171 249 -409z" />
    <glyph glyph-name="uni3002" unicode="&#x3002;" horiz-adv-x="1867" 
d="M1061.5 282.5q52.5 -53.5 52.5 -126.5q0 -75 -52.5 -128t-127.5 -53t-128 53t-53 128q0 73 53 126.5t128 53.5t127.5 -53.5zM934 188q-14 0 -23.5 -9.5t-9.5 -22.5q0 -14 10 -24t23 -10t22.5 10t9.5 24q0 13 -9.5 22.5t-22.5 9.5z" />
    <glyph glyph-name="uni3003" unicode="&#x3003;" horiz-adv-x="1875" 
d="M632 719l-136 87l366 537l136 -88zM1011 719l-136 87l366 537l136 -88z" />
    <glyph glyph-name="uni3005" unicode="&#x3005;" horiz-adv-x="1853" 
d="M761 996q-51 -135 -251 -486l-138 71q258 451 280 633l158 -40l2 -15h669q-116 -257 -202 -372q-118 -160 -216 -228q137 -115 251 -333l-98 -154q-144 288 -333 435q-46 35 -131 92l100 120q69 -48 81 -57q121 79 301 334h-473z" />
    <glyph glyph-name="uni3006" unicode="&#x3006;" horiz-adv-x="1834" 
d="M1046 583q-263 -354 -590 -482l-26 170q266 97 493 410q-126 94 -307 159l32 158q221 -84 357 -186q134 225 137 628l155 -118q-10 -349 -167 -607q158 -130 274 -352l-98 -156q-133 269 -260 376z" />
    <glyph glyph-name="uni3041" unicode="&#x3041;" horiz-adv-x="1829" 
d="M826 665l-1 60l157 10l2 -60q115 0 208 -51q122 -70 152 -211q10 -49 10 -94q0 -82 -32 -157q-54 -127 -217 -168l-51 145q103 24 129 87q18 45 18 93q0 29 -6 61q-17 72 -80 111q-51 31 -131 31l-1 2q-5 -248 -80 -369q8 -13 54 -79l-120 -107l-38 51q-42 -35 -102 -35
q-39 0 -85 15q-117 37 -126 228q-1 12 -1 25q0 176 128 316q-4 37 -4 158v52l-91 1v152q105 -2 106 -2q8 31 49 194l145 -56q-34 -132 -39 -137q178 3 362 52l-9 -156q-163 -45 -380 -47q-5 -27 -5 -52q0 -39 11 -74q9 5 68 11zM719 171q-65 130 -75 195q-33 -39 -33 -100
q0 -10 1 -20q6 -75 51 -91q15 -6 26 -6q23 0 30 22zM777 488q17 -118 35 -156q31 78 31 149q0 12 -1 24q-40 -2 -65 -17z" />
    <glyph glyph-name="uni3042" unicode="&#x3042;" horiz-adv-x="1810" 
d="M812 832l-2 89l160 11l3 -88l-4 -1q174 0 291 -63q156 -86 193 -263q12 -61 12 -120q0 -104 -41 -199q-68 -155 -249 -201l-54 156q128 29 166 120q25 61 25 124q0 39 -9 81q-24 101 -115 155q-75 44 -215 45q-8 -334 -109 -492q14 -24 68 -102l-126 -110l-50 73
q-49 -54 -156 -54q-29 0 -59 7q-173 43 -193 279q-3 27 -3 54q0 189 123 325q37 41 60 58q-7 63 -7 156q0 73 2 101q-12 0 -122 1v163q115 -2 140 -2q12 95 60 283l149 -57q-43 -161 -53 -225q269 4 485 61l-11 -167q-198 -53 -493 -57q-3 -37 -3 -111v-61q44 22 137 31z
M671 204q-89 174 -113 315q-64 -65 -64 -169q0 -15 2 -31q10 -126 84 -144q11 -3 21 -3q44 0 70 32zM696 624q25 -163 72 -259q32 61 40 293q-63 -6 -112 -34z" />
    <glyph glyph-name="uni3043" unicode="&#x3043;" horiz-adv-x="1828" 
d="M1238 235q-53 451 -193 638l97 135q191 -273 245 -723zM718 239q12 21 47 176l152 -31q-45 -189 -191 -435q-285 412 -285 770q0 88 23 227l151 -33q-20 -120 -20 -198q0 -277 123 -476z" />
    <glyph glyph-name="uni3044" unicode="&#x3044;" horiz-adv-x="1808" 
d="M1359 315q-69 564 -252 803l103 137q229 -321 299 -891zM644 251q40 66 82 250l155 -32q-56 -229 -228 -513q-354 500 -354 961q0 114 27 272l154 -32q-25 -144 -25 -245q0 -363 189 -661z" />
    <glyph glyph-name="uni3045" unicode="&#x3045;" horiz-adv-x="1851" 
d="M1284 702q19 -66 19 -131q0 -128 -76 -254q-113 -189 -487 -349l-69 138q337 157 421 294q55 88 55 171q0 42 -13 83q-37 108 -156 109h-1q-139 0 -356 -163l-72 137q235 179 437 179h8q226 -5 290 -214zM1091 963l-420 87l29 149l420 -88z" />
    <glyph glyph-name="uni3046" unicode="&#x3046;" horiz-adv-x="1837" 
d="M1370 892q25 -84 25 -166q0 -164 -100 -326q-148 -239 -614 -434l-74 148q438 200 554 382q75 118 75 229q0 56 -19 111q-52 154 -231 154h-1q-196 0 -465 -197l-78 143q295 220 554 220h12q281 -6 362 -264zM1116 1290l-513 104l33 160l513 -104z" />
    <glyph glyph-name="uni3047" unicode="&#x3047;" horiz-adv-x="1859" 
d="M1167 963l-422 87l31 149l420 -88zM964 399l108 -176q46 -75 101 -75q36 0 81 27q6 3 60 42l80 -131q-50 -34 -65 -44q-91 -45 -165 -45q-139 0 -220 136q-73 122 -110 124l-260 -287l-110 110l636 701l-455 -30l-11 150l746 51l-16 -114z" />
    <glyph glyph-name="uni3048" unicode="&#x3048;" horiz-adv-x="1842" 
d="M1216 1290l-513 104l32 160l514 -104zM926 489q21 -2 162 -223q68 -107 157 -107q56 0 123 38l57 38l87 -136q-56 -36 -75 -48q-112 -55 -205 -55q-168 0 -270 166q-104 169 -173 169q-10 0 -12 -1l-332 -356l-116 113l866 930l-630 -40l-13 162l943 62l-19 -124z" />
    <glyph glyph-name="uni3049" unicode="&#x3049;" horiz-adv-x="1854" 
d="M1540 741l-96 -120l-391 352l97 119zM771 468v-468h-114l-24 17l-173 114l-96 64q59 60 79 79q101 102 169 171v318l-50 1q-40 0 -133 1v151q95 -2 133 -2h50v192h159v-183q63 4 212 44l-10 -155q-123 -34 -202 -40v-162q78 76 289 77h1q217 0 302 -151q49 -89 49 -185
q0 -56 -16 -113q-47 -159 -248 -254l-48 145q128 62 153 163q9 34 9 64q0 64 -37 119q-44 63 -171 73h-25q-118 0 -258 -80zM612 154v157l-108 -91z" />
    <glyph glyph-name="uni304A" unicode="&#x304a;" horiz-adv-x="1833" 
d="M1637 878l-104 -124l-488 429l104 124zM681 542v-542h-117l-25 18l-231 148l-113 73q67 65 93 91q135 132 231 227v435q-20 -1 -91 -1q-53 0 -154 2v162q101 -1 154 -1h91v249h162v-240q114 8 281 52l-10 -166q-146 -40 -271 -48v-286q192 142 439 143h1q245 0 352 -184
q64 -113 64 -235q0 -70 -21 -143q-61 -201 -290 -307l-55 155q167 78 203 216q12 45 12 86q0 86 -52 160q-66 92 -249 105h-24q-174 0 -380 -169zM519 173v232l-147 -129z" />
    <glyph glyph-name="uni304B" unicode="&#x304b;" horiz-adv-x="1811" 
d="M1603 878l-104 -124l-488 429l104 124zM664 1108q90 0 193 -18q279 -52 332 -337q18 -101 18 -194q0 -155 -51 -290q-86 -226 -268 -272l-55 156q127 29 184 188q35 96 35 207q0 85 -20 179q-42 197 -258 214q-55 5 -123 5h-28l-240 -967l-158 38l230 921
q-56 -2 -248 -24l10 170q188 19 279 21l84 340l153 -59z" />
    <glyph glyph-name="uni304C" unicode="&#x304c;" horiz-adv-x="1812" 
d="M1513 878l-104 -124l-488 429l104 124zM1586 1046l-118 -96l-194 243l89 130zM1751 1194l-118 -96l-194 244l90 129zM667 1108q90 0 193 -18q279 -52 332 -337q18 -101 18 -194q0 -155 -51 -290q-86 -226 -268 -272l-55 156q127 29 184 188q35 96 35 207q0 85 -20 179
q-42 197 -258 214q-55 5 -123 5h-28l-240 -967l-158 38l230 921q-56 -2 -248 -24l10 170q188 19 279 21l84 340l153 -59z" />
    <glyph glyph-name="uni304D" unicode="&#x304d;" horiz-adv-x="1826" 
d="M1123 1020q125 12 273 51l-11 -167q-116 -31 -205 -40l97 -263l-99 -88q-57 61 -90 82q-65 41 -148 49q-24 1 -48 1q-106 0 -176 -45q-79 -51 -89 -160q-1 -15 -1 -28q0 -91 60 -148q72 -70 210 -81q25 -2 49 -2q112 0 253 69l54 -168q-164 -68 -305 -68q-32 0 -66 3
q-204 18 -314 135q-98 104 -98 257q0 22 2 44q16 183 149 280q109 79 271 79q30 0 63 -2q77 -7 84 -7h1l-18 45q-164 -14 -499 -19v162q310 6 438 15l-36 93q-163 -14 -495 -19v162q307 6 434 15l-39 102l144 79l62 -167q125 12 273 51l-11 -167q-116 -31 -205 -40z" />
    <glyph glyph-name="uni304E" unicode="&#x304e;" horiz-adv-x="1829" 
d="M1097 864l97 -263l-99 -88q-57 61 -90 82q-65 41 -148 49q-24 1 -48 1q-106 0 -176 -45q-79 -51 -89 -160q-1 -15 -1 -28q0 -91 60 -148q72 -70 210 -81q25 -2 49 -2q112 0 253 69l54 -168q-164 -68 -305 -68q-32 0 -66 3q-204 18 -314 135q-98 104 -98 257q0 22 2 44
q16 183 149 280q109 79 271 79q30 0 63 -2q77 -7 84 -7h1l-18 45q-164 -14 -499 -19v162q310 6 438 15l-36 93q-163 -14 -495 -19v162q307 6 434 15l-39 102l144 79l62 -167q39 4 132 17l61 -151q-114 -20 -136 -22l36 -95q79 8 188 30l79 -145q-138 -34 -210 -41z
M1486 1046l-118 -96l-194 243l89 130zM1651 1194l-118 -96l-194 244l90 129z" />
    <glyph glyph-name="uni304F" unicode="&#x304f;" horiz-adv-x="1872" 
d="M823 701l425 -601l-114 -122l-511 723l511 722l114 -122z" />
    <glyph glyph-name="uni3050" unicode="&#x3050;" horiz-adv-x="1859" 
d="M693 701l425 -601l-114 -122l-511 723l511 722l114 -122zM1286 846l-118 -96l-194 243l89 130zM1451 994l-118 -96l-194 244l90 129z" />
    <glyph glyph-name="uni3051" unicode="&#x3051;" horiz-adv-x="1810" 
d="M1305 777q1 -24 1 -87q0 -183 -25 -346q-34 -227 -150 -361t-300 -134h-62l-6 181q73 -8 93 -8q104 0 167 85q82 110 106 284q15 122 15 266q0 71 -1 102q-131 -13 -521 -18v162q383 5 516 19q-6 145 -19 429l165 11q14 -282 16 -422q62 8 196 43l-11 -167
q-107 -29 -180 -39zM314 649q0 245 112 676l148 -57q-107 -328 -107 -694q0 -61 3 -124l44 159l129 -113q-80 -166 -97 -434l-114 -99q-118 382 -118 686z" />
    <glyph glyph-name="uni3052" unicode="&#x3052;" horiz-adv-x="1813" 
d="M1305 777q1 -24 1 -87q0 -183 -25 -346q-34 -227 -150 -361t-300 -134h-62l-6 181q73 -8 93 -8q104 0 167 85q82 110 106 284q15 122 15 266q0 71 -1 102q-131 -13 -521 -18v162q383 5 516 19q-6 145 -19 429l165 11q14 -282 16 -422q62 8 126 23l89 -147
q-137 -29 -210 -39zM1686 946l-118 -96l-194 243l89 130zM1851 1094l-118 -96l-194 244l90 129zM314 649q0 245 112 676l148 -57q-107 -328 -107 -694q0 -61 3 -124l44 159l129 -113q-80 -166 -97 -434l-114 -99q-118 382 -118 686z" />
    <glyph glyph-name="uni3053" unicode="&#x3053;" horiz-adv-x="1815" 
d="M373 319q-39 83 -39 174q0 127 102 321l119 -121q-68 -120 -68 -198q0 -59 31 -112q68 -125 235 -139q36 -3 83 -3q196 0 620 57l24 -164q-397 -53 -614 -53q-88 0 -154 8q-246 29 -339 230zM755 916l-88 160l77 31h-359v162h770v-146q-226 -110 -400 -207z" />
    <glyph glyph-name="uni3054" unicode="&#x3054;" horiz-adv-x="1822" 
d="M338 319q-39 83 -39 174q0 127 102 321l119 -121q-68 -120 -68 -198q0 -59 31 -112q68 -125 235 -139q36 -3 83 -3q196 0 620 57l24 -164q-397 -53 -614 -53q-88 0 -154 8q-246 29 -339 230zM720 916l-88 160l77 31h-359v162h770v-146q-226 -110 -400 -207zM1486 946
l-118 -96l-194 243l89 130zM1651 1094l-118 -96l-194 244l90 129z" />
    <glyph glyph-name="uni3055" unicode="&#x3055;" horiz-adv-x="1831" 
d="M1083 1112q132 12 283 52l-11 -167q-119 -32 -214 -42l131 -354l-99 -88q-57 61 -90 82q-65 41 -148 49q-24 1 -48 1q-106 0 -176 -45q-79 -51 -89 -160q-1 -15 -1 -28q0 -91 60 -148q72 -70 210 -81q25 -2 49 -2q112 0 253 69l54 -168q-164 -68 -305 -68q-32 0 -66 3
q-204 18 -314 135q-98 104 -98 257q0 22 2 44q16 183 149 280q109 79 271 79q30 0 63 -2q77 -7 84 -7h1l-53 137q-162 -13 -489 -18v162q302 6 428 14l-101 261l144 79z" />
    <glyph glyph-name="uni3056" unicode="&#x3056;" horiz-adv-x="1832" 
d="M1045 955l131 -354l-99 -88q-57 61 -90 82q-65 41 -148 49q-24 1 -48 1q-106 0 -176 -45q-79 -51 -89 -160q-1 -15 -1 -28q0 -91 60 -148q72 -70 210 -81q25 -2 49 -2q112 0 253 69l54 -168q-164 -68 -305 -68q-32 0 -66 3q-204 18 -314 135q-98 104 -98 257q0 22 2 44
q16 183 149 280q109 79 271 79q30 0 63 -2q77 -7 84 -7h1l-53 137q-162 -13 -489 -18v162q302 6 428 14l-101 261l144 79l120 -326q45 4 143 19l49 -155q-112 -19 -134 -21zM1486 946l-118 -96l-194 243l89 130zM1651 1094l-118 -96l-194 244l90 129z" />
    <glyph glyph-name="uni3057" unicode="&#x3057;" horiz-adv-x="1833" 
d="M893 3h-14q-322 0 -404 268q-56 182 -56 399q0 82 9 170q28 312 96 565l178 -11q-92 -272 -114 -594q-6 -78 -6 -147q0 -214 52 -345q54 -139 232 -139q16 0 35 2q216 15 384 319l129 -96q-194 -385 -521 -391z" />
    <glyph glyph-name="uni3058" unicode="&#x3058;" horiz-adv-x="1833" 
d="M893 3h-14q-322 0 -404 268q-56 182 -56 399q0 82 9 170q28 312 96 565l178 -11q-92 -272 -114 -594q-6 -78 -6 -147q0 -214 52 -345q54 -139 232 -139q16 0 35 2q216 15 384 319l129 -96q-194 -385 -521 -391zM1286 946l-118 -96l-194 243l89 130zM1451 1094l-118 -96
l-194 244l90 129z" />
    <glyph glyph-name="uni3059" unicode="&#x3059;" horiz-adv-x="1828" 
d="M839 514v19q-11 27 -31 47q-21 20 -50 20q-28 0 -47.5 -19.5t-19.5 -55.5q0 -37 19.5 -57t47.5 -20q29 0 50 20q20 19 31 46zM830 1113q-2 68 -11 238l165 11q8 -171 10 -241h44q245 0 555 -60l-71 -144q-254 46 -469 46q-49 0 -53 -1q5 -165 5 -322q0 -265 -29.5 -419
t-146.5 -263t-298 -109h-62l-6 181q73 -8 92 -8q108 0 193 86.5t107 227.5q-55 -34 -116 -34q-88 0 -140 53q-66 65 -66 169t86 170q53 40 130 40q76 0 111 -45l-24 265q-236 -19 -548 -125l-53 152q333 114 595 132z" />
    <glyph glyph-name="uni305A" unicode="&#x305a;" horiz-adv-x="1827" 
d="M1586 946l-118 -96l-194 243l89 130zM1751 1094l-118 -96l-194 244l90 129zM839 514v19q-11 27 -31 47q-21 20 -50 20q-28 0 -47.5 -19.5t-19.5 -55.5q0 -37 19.5 -57t47.5 -20q29 0 50 20q20 19 31 46zM1053 963q-49 0 -53 -1q5 -165 5 -322q0 -265 -29.5 -419
t-146.5 -263t-298 -109h-62l-6 181q73 -8 92 -8q108 0 193 86.5t107 227.5q-25 -34 -116 -34q-88 0 -140 53q-66 65 -66 169t86 170q53 40 130 40q76 0 101 -45l-14 265q-236 -19 -548 -125l-53 152q333 114 595 132q-2 68 -11 238l165 11q8 -171 10 -241h44q80 0 168 -6
l96 -166q-131 14 -249 14z" />
    <glyph glyph-name="uni305B" unicode="&#x305b;" horiz-adv-x="1828" 
d="M519 809q-96 -27 -231 -73l-53 152q150 51 284 87v399h161v-365q120 19 397 19q-5 119 -35 298l150 74q40 -225 44 -379q129 -9 357 -53l-71 -143q-183 32 -283 38q0 -267 -53 -553l-138 -4q34 236 34 564q-266 0 -402 -23v-558q13 -108 123 -112l599 -1v-165h-600
q-261 0 -283 276v522z" />
    <glyph glyph-name="uni305C" unicode="&#x305c;" horiz-adv-x="1824" 
d="M1586 946l-118 -96l-194 243l89 130zM1751 1094l-118 -96l-194 244l90 129zM1239 863q0 -267 -53 -553l-138 -4q34 236 34 564q-266 0 -402 -23v-558q13 -108 123 -112l599 -1v-165h-600q-261 0 -283 276v522q-96 -27 -231 -73l-53 152q150 51 284 87v399h161v-365
q120 19 397 19q-5 119 -35 298l150 74q40 -225 44 -379q28 -2 60 -6l114 -172q-104 16 -171 20z" />
    <glyph glyph-name="uni305D" unicode="&#x305d;" horiz-adv-x="1817" 
d="M1010 1155l-532 -39l-12 162l849 63l-19 -125l-366 -375l578 122l32 -160l-402 -85q-149 -67 -206 -160q-39 -62 -39 -131q0 -32 9 -66q26 -105 117 -150q66 -32 178 -32q57 0 167 13l26 -162q-127 -19 -199 -19q-163 0 -269 65q-159 95 -187 258q-7 41 -7 80
q0 115 71 224l-492 -96l-32 160l368 78z" />
    <glyph glyph-name="uni305E" unicode="&#x305e;" horiz-adv-x="1818" 
d="M1586 946l-118 -96l-194 243l89 130zM1751 1094l-118 -96l-194 244l90 129zM1138 718q-149 -67 -206 -160q-39 -62 -39 -131q0 -32 9 -66q26 -105 117 -150q66 -32 178 -32q57 0 167 13l26 -162q-127 -19 -199 -19q-163 0 -269 65q-159 95 -187 258q-7 41 -7 80
q0 115 71 224l-492 -96l-32 160l368 78l367 375l-532 -39l-12 162l849 63l-19 -125l-366 -375l390 82l106 -144z" />
    <glyph glyph-name="uni305F" unicode="&#x305f;" horiz-adv-x="1803" 
d="M1069 20q-247 29 -340 230q-2 5 -22 44l132 96q28 -63 35 -76q69 -125 236 -139q45 -3 98 -3q123 0 337 25l12 -165q-193 -21 -317 -21q-93 0 -171 9zM642 940l-239 -961l-158 38l228 919h-57q-59 0 -167 1v163q114 -2 178 -2h87l87 347l152 -59l-70 -282q165 7 347 56
l-11 -167q-166 -45 -377 -53zM855 681v164q186 35 315 35q130 0 270 -37l10 -167q-158 42 -278 42q-122 0 -317 -37z" />
    <glyph glyph-name="uni3060" unicode="&#x3060;" horiz-adv-x="1803" 
d="M1069 20q-247 29 -340 230q-2 5 -22 44l132 96q28 -63 35 -76q69 -125 236 -139q45 -3 98 -3q123 0 337 25l12 -165q-193 -21 -317 -21q-93 0 -171 9zM642 940l-239 -961l-158 38l228 919h-57q-59 0 -167 1v163q114 -2 178 -2h87l87 347l152 -59l-70 -282q165 7 347 56
l-11 -167q-166 -45 -377 -53zM855 681v164q186 35 315 35q130 0 270 -37l10 -167q-158 42 -278 42q-122 0 -317 -37zM1586 946l-118 -96l-194 243l89 130zM1751 1094l-118 -96l-194 244l90 129z" />
    <glyph glyph-name="uni3061" unicode="&#x3061;" horiz-adv-x="1827" 
d="M867 1106q214 2 458 33l-10 -164q-237 -30 -489 -32l-35 -142q2 1 89 9q32 2 63 2q161 0 270 -79q134 -97 151 -281q1 -22 1 -43q0 -153 -98 -257q-111 -117 -314 -135q-34 -3 -67 -3q-141 0 -304 68l54 168q141 -69 253 -69q24 0 49 2q138 11 211 81q59 57 59 148
q0 14 -1 29q-10 108 -89 159q-70 45 -177 45q-23 0 -47 -1q-83 -8 -148 -49q-33 -21 -108 -101l-54 132l78 317q-46 0 -201 4v163q166 -6 240 -6l83 341l153 -59z" />
    <glyph glyph-name="uni3062" unicode="&#x3062;" horiz-adv-x="1840" 
d="M790 943l-35 -142q2 1 89 9q32 2 63 2q161 0 270 -79q134 -97 151 -281q1 -22 1 -43q0 -153 -98 -257q-111 -117 -314 -135q-34 -3 -67 -3q-141 0 -304 68l54 168q141 -69 253 -69q24 0 49 2q138 11 211 81q59 57 59 148q0 14 -1 29q-10 108 -89 159q-70 45 -177 45
q-23 0 -47 -1q-83 -8 -148 -49q-33 -21 -108 -101l-54 132l78 317q-46 0 -201 4v163q166 -6 240 -6l83 341l153 -59l-70 -280q110 1 274 12l90 -154q-232 -20 -405 -21zM1486 946l-118 -96l-194 243l89 130zM1651 1094l-118 -96l-194 244l90 129z" />
    <glyph glyph-name="uni3063" unicode="&#x3063;" horiz-adv-x="1827" 
d="M1422 530q2 -26 2 -50q0 -191 -134 -314q-145 -135 -518 -194l-39 154q319 41 437 136q99 81 99 214q0 15 -1 30q-10 140 -153 152q-23 1 -47 1q-147 0 -299 -73q-126 -60 -219 -60q-65 0 -148 45l52 164q60 -53 86 -53q65 0 193 56q169 74 331 74q53 0 105 -7
q231 -36 253 -275z" />
    <glyph glyph-name="uni3064" unicode="&#x3064;" horiz-adv-x="1801" 
d="M1568 835q21 -77 21 -151q0 -201 -155 -375q-210 -234 -676 -306l-41 167q405 51 585 236q128 132 128 278q0 52 -16 108q-59 202 -274 219q-34 3 -67 3q-203 0 -409 -96q-167 -77 -286 -77q-76 0 -167 47l55 171q62 -55 95 -55q87 0 269 78q227 97 438 97q67 0 133 -10
q286 -43 367 -334z" />
    <glyph glyph-name="uni3065" unicode="&#x3065;" horiz-adv-x="1817" 
d="M1559 835q21 -77 21 -151q0 -201 -155 -375q-210 -234 -676 -306l-41 167q405 51 585 236q128 132 128 278q0 52 -16 108q-59 202 -274 219q-34 3 -67 3q-203 0 -409 -96q-167 -77 -286 -77q-76 0 -167 47l55 171q62 -55 95 -55q87 0 269 78q227 97 438 97q67 0 133 -10
q286 -43 367 -334zM1486 1246l-118 -96l-194 243l89 130zM1651 1394l-118 -96l-194 244l90 129z" />
    <glyph glyph-name="uni3066" unicode="&#x3066;" horiz-adv-x="1817" 
d="M1508 1316l32 -159l-338 -71q-141 -69 -242 -248q-81 -147 -81 -294q0 -40 6 -81q27 -179 161 -237q104 -46 240 -46q53 0 153 12l25 -161q-118 -19 -189 -19q-180 0 -323 77q-209 109 -236 355q-4 41 -4 81q0 195 101 387q48 90 78 111l-584 -127l-32 159z" />
    <glyph glyph-name="uni3067" unicode="&#x3067;" horiz-adv-x="1813" 
d="M1456 1146l-118 -96l-194 243l89 130zM1621 1294l-118 -96l-194 244l90 129zM1102 1086q-141 -69 -242 -248q-81 -147 -81 -294q0 -40 6 -81q27 -179 161 -237q104 -46 240 -46q53 0 153 12l25 -161q-118 -19 -189 -19q-180 0 -323 77q-209 109 -236 355q-4 41 -4 81
q0 195 101 387q48 90 78 111l-584 -127l-32 159l934 198l94 -146z" />
    <glyph glyph-name="uni3068" unicode="&#x3068;" horiz-adv-x="1822" 
d="M922 879q83 24 232 49q48 8 126 24l52 -161q-86 -19 -127 -25q-272 -43 -491 -130q-180 -71 -180 -219q0 -11 2 -24q14 -169 238 -216q79 -16 169 -16q188 0 468 87l32 -170q-284 -78 -486 -78q-139 0 -257 32q-312 83 -321 355q-1 10 -1 22q0 254 235 362q87 40 151 61
l-102 503l155 58z" />
    <glyph glyph-name="uni3069" unicode="&#x3069;" horiz-adv-x="1822" 
d="M922 879q83 24 232 49q48 8 126 24l52 -161q-86 -19 -127 -25q-272 -43 -491 -130q-180 -71 -180 -219q0 -11 2 -24q14 -169 238 -216q79 -16 169 -16q188 0 468 87l32 -170q-284 -78 -486 -78q-139 0 -257 32q-312 83 -321 355q-1 10 -1 22q0 254 235 362q87 40 151 61
l-102 503l155 58zM1256 1046l-118 -96l-194 243l89 130zM1421 1194l-118 -96l-194 244l90 129z" />
    <glyph glyph-name="uni306A" unicode="&#x306a;" horiz-adv-x="1819" 
d="M1041 233q-44 26 -104 30q-9 1 -17 1q-46 0 -79 -16t-40 -39q-3 -10 -3 -16q0 -11 7 -20q15 -21 61 -30q22 -6 41 -6q33 0 71 11q63 10 63 85zM925 967q-148 -23 -271 -27l-239 -961l-158 38l228 919h-57q-59 0 -167 1v163q114 -2 178 -2h87l87 347l152 -59l-70 -282
q80 3 230 26v-163zM1562 692l-104 -124l-488 429l104 124zM1043 418q-1 181 -29 374l166 12q24 -178 24 -405q0 -46 2 -76q99 -70 235 -245l-127 -121q-108 165 -120 173v8q0 8 -2 8q-4 0 -19 -41q-25 -68 -138 -110q-66 -24 -129 -24q-42 0 -81 11q-107 25 -156 103
q-32 50 -32 106q0 32 11 64q28 88 120 137q74 38 164 38q14 0 29 -1q70 -5 82 -11z" />
    <glyph glyph-name="uni306B" unicode="&#x306b;" horiz-adv-x="1809" 
d="M1496 32q-194 -21 -318 -21q-92 0 -170 9q-247 29 -340 230q-3 5 -22 44l132 96q28 -63 35 -76q69 -125 236 -139q44 -3 98 -3q122 0 337 25zM794 681v164q186 35 314 35q131 0 270 -37l11 -167q-158 42 -279 42t-316 -37zM314 649q0 245 112 676l148 -57
q-107 -328 -107 -694q0 -61 3 -124l44 159l129 -113q-80 -166 -97 -434l-114 -99q-118 382 -118 686z" />
    <glyph glyph-name="uni306C" unicode="&#x306c;" horiz-adv-x="1823" 
d="M1166 170q26 0 51 20t36 34q-8 25 -33.5 52t-57.5 34q-6 1 -11 1q-15 0 -27 -12q-19 -19 -19 -54q0 -36 19 -55.5t42 -19.5zM401 766q-54 116 -123 301l130 97q74 -187 99 -240q92 115 247 169q-20 81 -84 252l146 69q67 -195 91 -307h47q211 0 332 -83
q172 -120 208 -356q10 -69 10 -135q0 -153 -87 -314q31 -44 83 -92q6 -5 44 -34l-78 -138q-58 41 -75 57l-63 58q-71 -60 -157 -60q-89 0 -166 112q-40 58 -40 118q0 55 34 112q71 117 150 117q19 0 41 -3q103 -17 141 -83q20 38 20 150q0 49 -8 101q-26 163 -133 243
q-96 73 -286 74q19 -103 19 -227q0 -69 -5 -144q-17 -213 -100 -377.5t-164 -198.5q-33 -14 -69 -14q-53 0 -111 30q-99 50 -148 311q-6 50 -6 99q0 188 61 336zM713 292q-128 110 -220 291q-16 -34 -16 -150q0 -35 4 -69q23 -171 95 -200q11 -5 22 -5q60 0 115 133z
M586 760q122 -242 201 -292q25 107 25 223q0 112 -23 232q-111 -20 -203 -163z" />
    <glyph glyph-name="uni306D" unicode="&#x306d;" horiz-adv-x="1811" 
d="M1251 239q-3 14 -26 39q-24 25 -55 32q-6 1 -11 1q-16 0 -27 -12q-20 -19 -20 -54q0 -36 20 -56q16 -15 48 -15h2q24 3 43.5 29t25.5 36zM480 1120v283h163l-2 -620q202 225 419 225q37 0 75 -6q257 -47 331 -286q31 -105 31 -207q0 -122 -64 -288q23 -46 75 -94
q6 -5 43 -34l-78 -138q-58 41 -75 57q-61 57 -67 73q-41 -52 -138 -64q-15 -2 -32 -2q-80 0 -137 57q-66 65 -66 169t72 176q57 57 133 57q25 0 51 -6q76 -26 123 -64l5 113q0 77 -24 148q-53 150 -206 173q-18 2 -35 2q-146 0 -324 -173q-54 -52 -110 -116v-555h-163v364
l-67 -84l-125 107l192 242v328q-30 -3 -110 -3q-33 0 -110 2v163q78 -2 110 -2q76 0 110 3z" />
    <glyph glyph-name="uni306E" unicode="&#x306e;" horiz-adv-x="1800" 
d="M551 953q-120 -163 -120 -384q0 -15 1 -31q8 -228 102 -264q12 -5 23 -5q65 0 127 177q82 242 176 691q-182 -14 -309 -184zM818 348q-94 -248 -255 -248q-30 0 -63 11q-194 57 -222 368q-5 44 -5 89q0 243 127 443q152 240 427 285q55 8 108 8q209 0 375 -138
q206 -173 217 -457v-47q0 -246 -96 -422q-111 -198 -289 -243l-55 156q131 30 210 171q78 139 78 338v25q-5 208 -131.5 325t-218.5 124q-109 -524 -207 -788z" />
    <glyph glyph-name="uni306F" unicode="&#x306f;" horiz-adv-x="1818" 
d="M1019 263q-9 1 -17 1q-46 0 -78 -16q-34 -16 -41 -39q-3 -10 -3 -16q0 -11 8 -20q14 -21 61 -30q21 -6 41 -6q33 0 70 11q64 10 64 103q-45 8 -105 12zM1117 922q-5 171 -17 429l165 11q13 -260 16 -422q62 8 196 43l-11 -167q-109 -29 -182 -39q2 -123 2 -283
q0 -97 -1 -166q102 -75 238 -250l-126 -121q-109 165 -128 183q-38 -103 -151 -145q-66 -24 -130 -24q-41 0 -80 11q-108 25 -156 103q-32 50 -32 106q0 32 10 64q28 88 120 137q74 38 164 38q15 0 31 -1q74 -11 79 -19q0 198 -3 349q-130 -13 -425 -19v163q289 5 421 19z
M314 649q0 245 112 676l148 -57q-107 -328 -107 -694q0 -61 3 -124l44 159l129 -113q-80 -166 -97 -434l-114 -99q-118 382 -118 686z" />
    <glyph glyph-name="uni3070" unicode="&#x3070;" horiz-adv-x="1812" 
d="M314 649q0 245 112 676l148 -57q-107 -328 -107 -694q0 -61 3 -124l44 159l129 -113q-80 -166 -97 -434l-114 -99q-118 382 -118 686zM1019 263q-9 1 -17 1q-46 0 -78 -16q-34 -16 -41 -39q-3 -10 -3 -16q0 -11 8 -20q14 -21 61 -30q21 -6 41 -6q33 0 70 11q64 10 64 103
q-45 8 -105 12zM1117 922q-5 171 -17 429l165 11q13 -260 16 -422q62 8 196 43l-11 -167q-109 -29 -182 -39q2 -123 2 -283q0 -97 -1 -166q102 -75 238 -250l-126 -121q-109 165 -128 183q-38 -103 -151 -145q-66 -24 -130 -24q-41 0 -80 11q-108 25 -156 103
q-32 50 -32 106q0 32 10 64q28 88 120 137q74 38 164 38q15 0 31 -1q74 -11 79 -19q0 198 -3 349q-130 -13 -425 -19v163q289 5 421 19zM1656 1046l-118 -96l-194 243l89 130zM1821 1194l-118 -96l-194 244l90 129z" />
    </font>
</defs>
</svg>
