<?xml version="1.0" encoding="UTF-8" standalone="no"?>
<!DOCTYPE svg PUBLIC "-//W3C//DTD SVG 1.1//EN" "http://www.w3.org/Graphics/SVG/1.1/DTD/svg11.dtd">
<svg xmlns="http://www.w3.org/2000/svg" xmlns:xlink="http://www.w3.org/1999/xlink" version="1.1">
<metadata>
Created by FontForge 20170910 at Sun Sep 14 20:29:12 2014
 By Jimmy Wärting
Copyright (c) 2010 by Reserves. All rights reserved.
</metadata>
<defs>
<font id="Vanitas-Extrabold" horiz-adv-x="1167">
  <font-face font-family="Vanitas Extrabold" font-weight="700" font-stretch="normal" units-per-em="2000" panose-1="2 0 0 0 0 0 0 0 0 0" ascent="1600" descent="-400" x-height="886" cap-height="1358" bbox="-306 -484 2368 1903" underline-thickness="70" underline-position="-90" stemh="54" stemv="166" unicode-range="U+0020-FB06"/>
<missing-glyph horiz-adv-x="1028" d="M127 0v1358h774v-1358h-774zM156 29h715v1300h-715v-1300z"/>
    <glyph glyph-name="AE" unicode="AE" horiz-adv-x="1628" d="M55 0l874 1358h598v-54h-420v-584h323v-54h-323v-612h420v-54h-598v522h-473l-336 -522h-65zM491 576h438v680z"/>
    <glyph glyph-name="ae" unicode="ae" horiz-adv-x="1464" d="M1315 206v-100s-86 -120 -288 -120c-187 0 -296 89 -353 211c-25 -85 -103 -211 -309 -211c-163 0 -284 79 -284 237c0 169 139 227 352 309c164 64 183 100 183 178c0 69 -19 140 -148 140c-181 0 -281 -134 -285 -141v99s100 95 301 95c140 0 213 -52 250 -115 c69 74 163 115 269 115c227 0 370 -185 376 -443h-600c2 -223 51 -420 255 -420c165 0 255 122 281 166zM779 514h424c-9 203 -59 336 -202 336c-141 0 -213 -141 -222 -336zM252 228c0 -110 56 -188 160 -188c125 0 215 93 239 218c-20 64 -29 135 -29 205 c0 38 0 131 -1 152c-23 -58 -62 -79 -175 -137c-129 -66 -194 -125 -194 -250z"/>
    <glyph glyph-name="OE" unicode="OE" horiz-adv-x="2212" d="M1338 0v205c-128 -145 -318 -231 -531 -231c-404 0 -724 294 -724 705c0 401 320 705 724 705c213 0 403 -90 531 -236v210h773v-54h-595v-584h498v-54h-498v-612h595v-54h-773zM277 679c0 -384 212 -651 530 -651c319 0 531 267 531 651c0 382 -212 651 -531 651 c-318 0 -530 -269 -530 -651z"/>
    <glyph glyph-name="oe" unicode="oe" horiz-adv-x="1571" d="M1422 206v-100s-86 -120 -288 -120c-198 0 -309 100 -363 234c-26 -98 -101 -234 -293 -234c-229 0 -390 185 -390 454c0 273 166 463 416 463c155 0 248 -82 301 -161c69 103 179 161 305 161c227 0 370 -185 376 -443h-600c2 -223 51 -420 255 -420 c165 0 255 122 281 166zM886 514h424c-9 203 -59 336 -202 336c-141 0 -213 -141 -222 -336zM729 463v4c0 158 -47 383 -230 383c-172 0 -239 -186 -239 -413c0 -223 61 -397 235 -397c154 0 236 121 246 283c-8 45 -12 93 -12 140z"/>
    <glyph glyph-name="ff" unicode="ff" horiz-adv-x="1212" d="M215 0v833h-150v53h150v105c0 326 193 386 334 386c81 0 143 -25 187 -53c0 0 -28 -41 -35 -54c0 0 -65 53 -156 53s-164 -56 -164 -238v-199h369v105c0 326 194 386 335 386c81 0 143 -25 187 -53c0 0 -28 -41 -36 -54c0 0 -64 53 -155 53s-165 -56 -165 -238v-199h243 v-53h-243v-833h-166v833h-369v-833h-166z"/>
    <glyph glyph-name="fi" unicode="fi" horiz-adv-x="1051" d="M215 0v833h-150v53h150v105c0 326 193 386 334 386c81 0 143 -25 187 -53c0 0 -28 -41 -35 -54c0 0 -65 53 -156 53s-164 -56 -164 -238v-199h535v-886h-166v833h-369v-833h-166z"/>
    <glyph glyph-name="fl" unicode="fl" horiz-adv-x="1051" d="M215 0v833h-150v53h150v94c0 342 240 397 396 397c187 0 305 -78 305 -78v-1299h-166v1310c-41 9 -83 13 -123 13c-111 0 -246 -32 -246 -244v-193h214v-53h-214v-833h-166z"/>
    <glyph glyph-name="ffi" unicode="ffi" horiz-adv-x="1586" d="M215 0v833h-150v53h150v105c0 326 193 386 334 386c81 0 143 -25 187 -53c0 0 -28 -41 -35 -54c0 0 -65 53 -156 53s-164 -56 -164 -238v-199h369v105c0 326 193 386 334 386c81 0 143 -25 187 -53c0 0 -28 -41 -36 -54c0 0 -64 53 -155 53s-164 -56 -164 -238v-199h535 v-886h-166v833h-369v-833h-166v833h-369v-833h-166z"/>
    <glyph glyph-name="ffl" unicode="ffl" horiz-adv-x="1586" d="M215 0v833h-150v53h150v105c0 326 193 386 334 386c81 0 143 -25 187 -53c0 0 -28 -41 -35 -54c0 0 -65 53 -156 53s-164 -56 -164 -238v-199h369v94c0 342 239 397 396 397c187 0 305 -78 305 -78v-1299h-166v1310c-41 9 -83 13 -123 13c-111 0 -246 -32 -246 -244v-193 h214v-53h-214v-833h-166v833h-369v-833h-166z"/>
    <glyph glyph-name="fb" unicode="fb" horiz-adv-x="1679" d="M215 0v833h-150v53h150v94c0 342 240 397 396 397c187 0 305 -78 305 -78v-541c58 101 155 145 268 145c241 0 417 -204 417 -459c0 -257 -178 -458 -414 -458c-116 0 -213 43 -271 144v-130h-166v1310c-41 9 -83 13 -123 13c-111 0 -246 -32 -246 -244v-193h214v-53 h-214v-833h-166zM916 443c0 -215 71 -403 254 -403s260 185 260 403s-77 407 -260 407s-254 -189 -254 -407z"/>
    <glyph glyph-name="ffb" unicode="ffb" horiz-adv-x="2214" d="M215 0v833h-150v53h150v105c0 326 193 386 334 386c81 0 143 -25 187 -53c0 0 -28 -41 -35 -54c0 0 -65 53 -156 53s-164 -56 -164 -238v-199h369v94c0 342 239 397 396 397c187 0 305 -78 305 -78v-541c58 101 155 145 268 145c241 0 417 -204 417 -459 c0 -257 -178 -458 -414 -458c-116 0 -213 43 -271 144v-130h-166v1310c-41 9 -83 13 -123 13c-111 0 -246 -32 -246 -244v-193h214v-53h-214v-833h-166v833h-369v-833h-166zM1451 443c0 -215 71 -403 254 -403s260 185 260 403s-77 407 -260 407s-254 -189 -254 -407z"/>
    <glyph glyph-name="ffh" unicode="ffh" horiz-adv-x="2168" d="M215 0v833h-150v53h150v105c0 326 193 386 334 386c81 0 143 -25 187 -53c0 0 -28 -41 -35 -54c0 0 -65 53 -156 53s-164 -56 -164 -238v-199h369v94c0 342 239 397 396 397c187 0 305 -78 305 -78v-693c23 122 95 297 303 297c183 0 297 -133 297 -335v-568h-166v568 c0 134 -15 282 -164 282c-189 0 -270 -237 -270 -458v-392h-166v1310c-41 9 -83 13 -123 13c-111 0 -246 -32 -246 -244v-193h214v-53h-214v-833h-166v833h-369v-833h-166z"/>
    <glyph glyph-name="ffj" unicode="ffj" horiz-adv-x="1586" d="M215 0v833h-150v53h150v105c0 326 193 386 334 386c81 0 143 -25 187 -53c0 0 -28 -41 -35 -54c0 0 -65 53 -156 53s-164 -56 -164 -238v-199h369v105c0 326 193 386 334 386c81 0 143 -25 187 -53c0 0 -28 -41 -36 -54c0 0 -64 53 -155 53s-164 -56 -164 -238v-199h535 v-582c0 -669 -373 -762 -373 -762v48c91 73 207 175 207 640v603h-369v-833h-166v833h-369v-833h-166z"/>
    <glyph glyph-name="ffk" unicode="ffk" horiz-adv-x="2115" d="M215 0v833h-150v53h150v105c0 326 193 386 334 386c81 0 143 -25 187 -53c0 0 -28 -41 -35 -54c0 0 -65 53 -156 53s-164 -56 -164 -238v-199h369v94c0 342 239 397 396 397c187 0 305 -78 305 -78v-949l451 536h71l-271 -321l388 -565h-194l-302 437l-143 -169v-268 h-166v1310c-41 9 -83 13 -123 13c-111 0 -246 -32 -246 -244v-193h214v-53h-214v-833h-166v833h-369v-833h-166z"/>
    <glyph glyph-name="ffy" unicode="ffy" horiz-adv-x="2052" d="M215 0v833h-150v53h150v105c0 326 193 386 334 386c81 0 143 -25 187 -53c0 0 -28 -41 -35 -54c0 0 -65 53 -156 53s-164 -56 -164 -238v-199h369v105c0 326 193 386 334 386c81 0 143 -25 187 -53c0 0 -28 -41 -36 -54c0 0 -64 53 -155 53s-164 -56 -164 -238v-199h441 l292 -650l291 650h58l-600 -1344h-59l223 498l-355 793h-291v-833h-166v833h-369v-833h-166z"/>
    <glyph glyph-name="fh" unicode="fh" horiz-adv-x="1633" d="M215 0v833h-150v53h150v94c0 342 240 397 396 397c187 0 305 -78 305 -78v-693c23 122 95 297 303 297c183 0 297 -133 297 -335v-568h-166v568c0 134 -15 282 -164 282c-189 0 -270 -237 -270 -458v-392h-166v1310c-41 9 -83 13 -123 13c-111 0 -246 -32 -246 -244v-193 h214v-53h-214v-833h-166z"/>
    <glyph glyph-name="fj" unicode="fj" horiz-adv-x="1051" d="M215 0v833h-150v53h150v105c0 326 193 386 334 386c81 0 143 -25 187 -53c0 0 -28 -41 -35 -54c0 0 -65 53 -156 53s-164 -56 -164 -238v-199h535v-582c0 -669 -372 -762 -372 -762v48c90 73 206 175 206 640v603h-369v-833h-166z"/>
    <glyph glyph-name="fk" unicode="fk" horiz-adv-x="1580" d="M215 0v833h-150v53h150v94c0 342 240 397 396 397c187 0 305 -78 305 -78v-949l451 536h71l-271 -321l388 -565h-194l-302 437l-143 -169v-268h-166v1310c-41 9 -83 13 -123 13c-111 0 -246 -32 -246 -244v-193h214v-53h-214v-833h-166z"/>
    <glyph glyph-name=".notdef" horiz-adv-x="1028" d="M127 0v1358h774v-1358h-774zM156 29h715v1300h-715v-1300z"/>
    <glyph glyph-name="space" unicode=" " horiz-adv-x="457"/>
    <glyph glyph-name="exclam" unicode="!" horiz-adv-x="410" d="M177 312l-50 976c0 65 27 96 78 96c49 0 78 -31 78 -96l-50 -976h-56zM111 76c0 52 42 93 94 93s94 -41 94 -93s-42 -94 -94 -94s-94 42 -94 94z"/>
    <glyph glyph-name="quotedbl" unicode="&quot;" horiz-adv-x="577" d="M179 906h-49l-33 420c0 46 29 69 62 69c32 0 61 -23 61 -69zM439 906h-49l-33 420c0 46 29 69 62 69c32 0 61 -23 61 -69z"/>
    <glyph glyph-name="numbersign" unicode="#" horiz-adv-x="1207" d="M110 -66l173 442h-221l72 183h220l94 240h-221l72 183h221l173 442h58l-173 -442h288l173 442h58l-173 -442h221l-72 -183h-221l-94 -240h221l-72 -183h-220l-173 -442h-58l173 442h-288l-173 -442h-58zM412 559h288l94 240h-288z"/>
    <glyph glyph-name="dollar" unicode="$" horiz-adv-x="1012" d="M99 106v93s118 -126 302 -155l58 614c-199 146 -328 246 -328 416c0 210 199 303 397 303l16 170h56l-17 -173c120 -12 206 -53 206 -53v-87s-88 66 -211 84l-47 -488c227 -158 392 -277 392 -491c0 -266 -251 -355 -449 -355h-24l-16 -172h-55l17 177 c-187 22 -297 117 -297 117zM479 866l44 457c-137 0 -249 -69 -249 -198c0 -102 70 -163 205 -259zM455 38h23c170 0 284 92 284 244c0 119 -72 205 -251 338z"/>
    <glyph glyph-name="percent" unicode="%" horiz-adv-x="1628" d="M361 -98l848 1555h57l-848 -1555h-57zM403 712c-197 0 -340 144 -340 331s143 333 340 333c196 0 339 -146 339 -333s-143 -331 -339 -331zM403 764c144 0 186 153 186 279s-42 281 -186 281s-186 -155 -186 -281s42 -279 186 -279zM886 313c0 187 143 333 340 333 s339 -146 339 -333s-142 -331 -339 -331s-340 144 -340 331zM1040 313c0 -126 42 -279 186 -279s186 153 186 279s-42 281 -186 281s-186 -155 -186 -281z"/>
    <glyph glyph-name="ampersand" unicode="&amp;" horiz-adv-x="1280" d="M1036 0l-85 108c-105 -87 -246 -134 -429 -134c-312 0 -481 149 -481 366c0 193 103 310 352 483l-7 10c-94 121 -118 210 -118 287c0 148 81 264 261 264c153 0 241 -90 241 -218c0 -122 -86 -206 -205 -290l462 -593c59 98 95 222 106 366h52 c-14 -164 -54 -303 -122 -412l185 -237h-212zM531 918c98 80 124 177 124 251c0 82 -31 161 -127 161c-97 0 -123 -79 -123 -142c0 -56 4 -113 126 -270zM917 151l-488 626c-134 -111 -206 -242 -206 -412c0 -187 96 -337 325 -337c152 0 276 44 369 123z"/>
    <glyph glyph-name="quotesingle" unicode="'" horiz-adv-x="317" d="M179 906h-49l-33 420c0 46 29 69 62 69c32 0 61 -23 61 -69z"/>
    <glyph glyph-name="parenleft" unicode="(" horiz-adv-x="598" d="M109 448v4c0 653 370 906 370 906h66s-264 -231 -264 -906v-4c0 -675 264 -906 264 -906h-66s-370 253 -370 906z"/>
    <glyph glyph-name="parenright" unicode=")" horiz-adv-x="598" d="M119 -458h-66s264 231 264 906v4c0 675 -264 906 -264 906h66s370 -253 370 -906v-4c0 -653 -370 -906 -370 -906z"/>
    <glyph glyph-name="asterisk" unicode="*" horiz-adv-x="877" d="M464 1016l30 -274c4 -33 -22 -62 -55 -62c-34 0 -60 29 -56 62l30 274l-223 -164c-10 -7 -20 -10 -32 -10c-31 0 -56 26 -56 57c0 22 11 42 32 51l254 109l-254 110c-21 9 -32 29 -32 51c0 32 25 57 56 57c12 0 22 -3 32 -10l223 -164l-30 274c-4 34 22 62 56 62 c33 0 59 -28 55 -62l-30 -274l223 164c10 7 20 10 32 10c31 0 56 -25 56 -57c0 -22 -11 -42 -32 -51l-254 -110l254 -109c21 -9 32 -29 32 -51c0 -31 -25 -57 -56 -57c-12 0 -22 3 -32 10z"/>
    <glyph glyph-name="plus" unicode="+" horiz-adv-x="1122" d="M109 437v53h425v421h54v-421h425v-53h-425v-421h-54v421h-425z"/>
    <glyph glyph-name="comma" unicode="," horiz-adv-x="428" d="M193 -274v36s84 66 84 180c0 32 -5 55 -11 71c-13 -15 -34 -31 -67 -31c-51 0 -92 34 -92 89c0 57 44 99 106 99c80 0 128 -71 128 -174c0 -183 -148 -270 -148 -270z"/>
    <glyph glyph-name="hyphen" unicode="-" horiz-adv-x="837" d="M109 411v54h619v-54h-619z"/>
    <glyph glyph-name="period" unicode="." horiz-adv-x="403" d="M107 76c0 52 42 93 94 93s95 -41 95 -93s-43 -94 -95 -94s-94 42 -94 94z"/>
    <glyph glyph-name="slash" unicode="/" horiz-adv-x="839" d="M67 -148l649 1655h56l-649 -1655h-56z"/>
    <glyph glyph-name="zero" unicode="0" horiz-adv-x="1177" d="M588 -26c-250 0 -491 256 -491 705c0 448 241 705 491 705s492 -257 492 -705c0 -449 -242 -705 -492 -705zM588 28c203 0 309 231 309 651c0 419 -106 651 -309 651s-308 -232 -308 -651c0 -420 105 -651 308 -651z"/>
    <glyph glyph-name="one" unicode="1" horiz-adv-x="1055" d="M27 0v54h422v1152l-271 -176v60l449 294v-1330h421v-54h-1021z"/>
    <glyph glyph-name="two" unicode="2" horiz-adv-x="1010" d="M39 0c0 0 621 480 621 1021c0 199 -79 309 -229 309c-222 0 -308 -231 -309 -235v116s92 173 346 173c247 0 371 -165 371 -371c0 -409 -492 -802 -544 -845h663l-63 -168h-856z"/>
    <glyph glyph-name="three" unicode="3" horiz-adv-x="1062" d="M97 96v93c5 -7 116 -161 357 -161c212 0 353 129 353 347c0 149 -69 334 -246 367c-69 -23 -152 -37 -250 -37l14 54s70 44 196 49c91 54 149 149 149 282c0 141 -60 240 -204 240c-218 0 -310 -224 -314 -235v117s87 172 341 172c219 0 346 -128 346 -297 c0 -101 -44 -217 -168 -294c188 -48 320 -196 320 -406c0 -240 -173 -413 -504 -413c-284 0 -390 122 -390 122z"/>
    <glyph glyph-name="four" unicode="4" horiz-adv-x="1221" d="M49 406l794 979v-925h317v-54h-317v-406h-178v406h-616zM165 460h500v620z"/>
    <glyph glyph-name="five" unicode="5" horiz-adv-x="1066" d="M112 96v91c5 -7 113 -159 337 -159c241 0 347 203 347 449c0 260 -125 413 -339 413c-119 0 -238 -48 -301 -159h-42l88 626h673l-59 -168h-585l-49 -355c57 55 151 110 297 110c288 0 500 -202 500 -473c0 -234 -151 -497 -514 -497c-253 0 -353 122 -353 122z"/>
    <glyph glyph-name="six" unicode="6" horiz-adv-x="1119" d="M783 1384v-54c-181 -46 -390 -220 -486 -518c75 93 173 132 283 132c241 0 472 -175 472 -483c0 -304 -244 -487 -483 -487c-247 0 -492 167 -492 539c0 573 445 806 706 871zM260 453c0 -254 96 -425 305 -425c199 0 304 184 304 431c0 251 -97 431 -299 431 c-206 0 -310 -178 -310 -437z"/>
    <glyph glyph-name="seven" unicode="7" horiz-adv-x="1047" d="M224 0l559 1304h-694v54h897l-582 -1358h-180z"/>
    <glyph glyph-name="eight" unicode="8" horiz-adv-x="1145" d="M67 341c0 214 169 335 369 415c-133 81 -241 175 -241 329c0 187 164 299 373 299c251 0 370 -145 370 -289c0 -133 -101 -231 -239 -294c188 -96 379 -209 379 -444c0 -223 -171 -383 -503 -383c-303 0 -508 132 -508 367zM644 830c106 52 183 137 183 268 c0 136 -81 232 -254 232c-145 0 -238 -87 -238 -198c0 -143 146 -220 309 -302zM228 345c0 -225 171 -317 355 -317c217 0 334 128 334 279c0 212 -232 306 -433 420c-153 -77 -256 -206 -256 -382z"/>
    <glyph glyph-name="nine" unicode="9" horiz-adv-x="1119" d="M336 -26v54c181 46 389 220 485 517c-75 -93 -172 -131 -282 -131c-242 0 -472 175 -472 483c0 304 243 487 483 487c246 0 492 -167 492 -539c0 -573 -445 -806 -706 -871zM549 468c205 0 310 178 310 437c0 254 -97 425 -305 425c-200 0 -304 -184 -304 -431 c0 -251 96 -431 299 -431z"/>
    <glyph glyph-name="colon" unicode=":" horiz-adv-x="403" d="M107 76c0 52 42 93 94 93s95 -41 95 -93s-43 -94 -95 -94s-94 42 -94 94zM107 810c0 52 42 93 94 93s95 -41 95 -93s-43 -94 -95 -94s-94 42 -94 94z"/>
    <glyph glyph-name="semicolon" unicode=";" horiz-adv-x="428" d="M193 -274v36s84 66 84 180c0 32 -5 55 -11 71c-13 -15 -34 -31 -67 -31c-51 0 -92 34 -92 89c0 57 44 99 106 99c80 0 128 -71 128 -174c0 -183 -148 -270 -148 -270zM107 810c0 52 42 93 94 93s95 -41 95 -93s-43 -94 -95 -94s-94 42 -94 94z"/>
    <glyph glyph-name="less" unicode="&lt;" horiz-adv-x="1085" d="M79 436v55l897 378v-59l-832 -347l832 -347v-58z"/>
    <glyph glyph-name="equal" unicode="=" horiz-adv-x="1115" d="M109 592v53h897v-53h-897zM109 283v53h897v-53h-897z"/>
    <glyph glyph-name="greater" unicode="&gt;" horiz-adv-x="1085" d="M109 58v58l831 347l-831 347v59l897 -378v-55z"/>
    <glyph glyph-name="question" unicode="?" horiz-adv-x="952" d="M335 312v174s367 127 367 511c0 162 -66 333 -280 333c-272 0 -359 -235 -359 -235v116s91 173 384 173c294 0 448 -178 448 -395c0 -381 -466 -535 -506 -549v-128h-54zM268 76c0 52 42 93 94 93s94 -41 94 -93s-42 -94 -94 -94s-94 42 -94 94z"/>
    <glyph glyph-name="at" unicode="@" horiz-adv-x="1630" d="M1354 8l20 -29s-232 -193 -581 -193c-405 0 -710 248 -710 654c0 453 377 807 835 807c399 0 629 -267 629 -601c0 -273 -155 -489 -395 -489c-120 0 -191 45 -203 141c-51 -81 -124 -141 -230 -141c-129 0 -223 84 -223 263c0 239 177 458 376 458 c130 0 166 -85 175 -152l41 132h146l-119 -389c-17 -55 -36 -117 -36 -165c0 -51 22 -88 99 -88c187 0 312 213 312 443c0 323 -244 545 -568 545c-395 0 -701 -319 -701 -756c0 -350 201 -606 611 -606c304 0 522 166 522 166zM650 411c0 -98 25 -182 113 -182 c170 0 241 311 241 429c0 74 -28 161 -119 161c-147 0 -235 -225 -235 -408z"/>
    <glyph glyph-name="A" unicode="A" horiz-adv-x="1254" d="M67 0l560 1393l560 -1393h-187l-165 411h-547l-165 -411h-56zM309 465h504l-252 627z"/>
    <glyph glyph-name="B" unicode="B" horiz-adv-x="1083" d="M127 0v1358h278c243 0 443 -80 443 -294c0 -147 -97 -238 -231 -281c234 -37 400 -180 400 -390c0 -258 -246 -393 -523 -393h-367zM305 798h116c193 0 262 113 262 258c0 144 -69 248 -262 248h-116v-506zM305 54h171c240 0 352 144 352 341c0 196 -112 349 -352 349 h-171v-690z"/>
    <glyph glyph-name="C" unicode="C" horiz-adv-x="1371" d="M1254 210v-103c-119 -88 -277 -133 -452 -133c-412 0 -719 302 -719 705c0 402 307 705 719 705c155 0 297 -35 415 -96v-97c-113 89 -263 139 -414 139c-308 0 -525 -265 -525 -651c0 -387 217 -651 525 -651c177 0 340 75 451 182z"/>
    <glyph glyph-name="D" unicode="D" horiz-adv-x="1301" d="M127 0v1358h363c409 0 738 -277 738 -679s-329 -679 -738 -679h-363zM305 54h181c304 0 555 239 555 625s-251 625 -555 625h-181v-1250z"/>
    <glyph glyph-name="E" unicode="E" horiz-adv-x="1001" d="M127 0v1358h773v-54h-595v-584h498v-54h-498v-612h595v-54h-773z"/>
    <glyph glyph-name="F" unicode="F" horiz-adv-x="971" d="M127 0v1358h773v-54h-595v-584h498v-54h-498v-666h-178z"/>
    <glyph glyph-name="G" unicode="G" horiz-adv-x="1462" d="M1337 693v-570c-129 -91 -300 -149 -529 -149c-405 0 -725 300 -725 705c0 404 320 705 725 705c175 0 334 -43 454 -112v-97c-114 100 -283 155 -454 155c-298 0 -531 -268 -531 -651c0 -384 233 -651 531 -651c160 0 264 34 352 89v576h177z"/>
    <glyph glyph-name="H" unicode="H" horiz-adv-x="1363" d="M127 0v1358h178v-638h753v638h178v-1358h-178v666h-753v-666h-178z"/>
    <glyph glyph-name="I" unicode="I" horiz-adv-x="456" d="M139 0v1358h178v-1358h-178z"/>
    <glyph glyph-name="J" unicode="J" horiz-adv-x="456" d="M139 204v1154h178v-1080c0 -656 -448 -762 -448 -762v54c138 89 270 224 270 634z"/>
    <glyph glyph-name="K" unicode="K" horiz-adv-x="1204" d="M127 0v1358h178v-822l636 822h71l-393 -506l552 -852h-211l-453 707l-202 -261v-446h-178z"/>
    <glyph glyph-name="L" unicode="L" horiz-adv-x="906" d="M127 0v1358h178v-1304h524v-54h-702z"/>
    <glyph glyph-name="M" unicode="M" horiz-adv-x="1873" d="M107 0l217 1381l624 -1159l601 1159l217 -1381h-185l-159 1013l-538 -1036l-564 1038l-158 -1015h-55z"/>
    <glyph glyph-name="N" unicode="N" horiz-adv-x="1311" d="M127 0v1381l1003 -1087v1064h54v-1381l-1003 1087v-1064h-54z"/>
    <glyph glyph-name="O" unicode="O" horiz-adv-x="1614" d="M83 679c0 401 320 705 724 705c405 0 724 -304 724 -705c0 -411 -319 -705 -724 -705c-404 0 -724 294 -724 705zM277 679c0 -384 212 -651 530 -651c319 0 531 267 531 651c0 382 -212 651 -531 651c-318 0 -530 -269 -530 -651z"/>
    <glyph glyph-name="P" unicode="P" horiz-adv-x="1030" d="M127 0v1358h355c262 0 485 -112 485 -374c0 -263 -223 -374 -485 -374h-177v-610h-178zM305 664h127c245 0 346 108 346 320c0 211 -101 320 -346 320h-127v-640z"/>
    <glyph glyph-name="Q" unicode="Q" horiz-adv-x="1614" d="M1634 -186l-440 181c-42 17 -72 23 -101 23c-19 0 -34 -4 -47 -8c-75 -23 -155 -36 -239 -36c-404 0 -724 294 -724 705c0 401 320 705 724 705c405 0 724 -304 724 -705c0 -283 -152 -511 -378 -625c30 -3 49 -8 79 -20l538 -220h-136zM277 679 c0 -384 212 -651 530 -651c319 0 531 267 531 651c0 382 -212 651 -531 651c-318 0 -530 -269 -530 -651z"/>
    <glyph glyph-name="R" unicode="R" horiz-adv-x="1106" d="M127 0v1358h370c262 0 485 -112 485 -374c0 -263 -223 -374 -485 -374h-156l740 -610h-81l-695 573v-573h-178zM305 664h142c245 0 346 108 346 320c0 211 -101 320 -346 320h-142v-640z"/>
    <glyph glyph-name="S" unicode="S" horiz-adv-x="1008" d="M89 106v93s155 -161 386 -161c175 0 293 93 293 242c0 130 -85 217 -279 356c-222 158 -367 262 -367 437c0 211 204 304 399 304c153 0 271 -56 271 -56v-87s-117 89 -274 89c-137 0 -253 -70 -253 -194c0 -121 96 -186 271 -305c222 -152 393 -271 393 -483 c0 -269 -256 -357 -457 -357c-238 0 -383 122 -383 122z"/>
    <glyph glyph-name="T" unicode="T" horiz-adv-x="1175" d="M499 0v1304h-416v54h1009v-54h-415v-1304h-178z"/>
    <glyph glyph-name="U" unicode="U" horiz-adv-x="1205" d="M1098 1358v-807c0 -188 -22 -338 -140 -457c-69 -71 -176 -117 -330 -117c-125 0 -263 28 -358 115c-132 119 -163 277 -163 547v719h178v-758c0 -246 11 -363 76 -453c55 -76 144 -116 267 -116c130 0 226 37 290 99c109 106 125 264 125 424v804h55z"/>
    <glyph glyph-name="V" unicode="V" horiz-adv-x="1238" d="M619 -23l-560 1381h187l437 -1083l439 1083h57z"/>
    <glyph glyph-name="W" unicode="W" horiz-adv-x="2018" d="M591 -23l-522 1381h186l399 -1060l409 1083l448 -1089l382 1066h56l-493 -1381l-455 1095z"/>
    <glyph glyph-name="X" unicode="X" horiz-adv-x="1198" d="M73 0l444 675l-440 683h205l338 -525l346 525h65l-378 -575l505 -783h-205l-404 625l-411 -625h-65z"/>
    <glyph glyph-name="Y" unicode="Y" horiz-adv-x="1190" d="M503 0v609l-442 749h201l402 -685l402 685h63l-448 -765v-593h-178z"/>
    <glyph glyph-name="Z" unicode="Z" horiz-adv-x="1061" d="M65 0l687 1304h-606v54h824l-686 -1304h706v-54h-925z"/>
    <glyph glyph-name="bracketleft" unicode="[" horiz-adv-x="556" d="M109 -458v1816h394v-54h-228v-1708h228v-54h-394z"/>
    <glyph glyph-name="backslash" unicode="\" horiz-adv-x="839" d="M744 -148h-55l-649 1655h55z"/>
    <glyph glyph-name="bracketright" unicode="]" horiz-adv-x="556" d="M53 -458v54h228v1708h-228v54h394v-1816h-394z"/>
    <glyph glyph-name="asciicircum" unicode="^" horiz-adv-x="625" d="M81 834l232 547l231 -547h-156l-126 298l-126 -298h-55z"/>
    <glyph glyph-name="underscore" unicode="_" horiz-adv-x="1171" d="M119 0v54h933v-54h-933z"/>
    <glyph glyph-name="grave" unicode="`" horiz-adv-x="548" d="M448 1017l-50 -9l-250 188c-18 14 -38 32 -38 62c0 31 25 55 58 55c29 0 46 -17 63 -37z"/>
    <glyph glyph-name="a" unicode="a" horiz-adv-x="990" d="M930 70v-47s-26 -23 -83 -23c-69 0 -154 35 -197 144c-39 -79 -121 -158 -285 -158c-163 0 -284 79 -284 237c0 169 139 227 352 309c164 64 183 100 183 178c0 69 -19 140 -148 140c-181 0 -281 -134 -285 -141v99s100 95 301 95c275 0 304 -180 304 -284v-367 c0 -189 58 -198 84 -198c32 0 58 16 58 16zM622 317v226c0 24 0 51 -1 72c-23 -58 -62 -79 -175 -137c-129 -66 -194 -125 -194 -250c0 -110 56 -188 160 -188c105 0 184 65 222 158c-8 34 -12 74 -12 119z"/>
    <glyph glyph-name="b" unicode="b" horiz-adv-x="1052" d="M123 0v1358h166v-600c58 101 155 145 268 145c241 0 417 -204 417 -459c0 -257 -178 -458 -414 -458c-116 0 -213 43 -271 144v-130h-166zM289 443c0 -215 71 -403 254 -403s260 185 260 403s-77 407 -260 407s-254 -189 -254 -407z"/>
    <glyph glyph-name="c" unicode="c" horiz-adv-x="932" d="M833 177v-103s-94 -88 -288 -88c-263 0 -467 178 -467 456c0 263 193 461 458 461c185 0 277 -80 277 -80v-102s-80 129 -277 129c-199 0 -286 -190 -286 -407c0 -231 102 -403 313 -403c191 0 270 137 270 137z"/>
    <glyph glyph-name="d" unicode="d" horiz-adv-x="1052" d="M763 0v130c-59 -101 -156 -144 -271 -144c-236 0 -414 201 -414 458c0 255 175 459 417 459c113 0 209 -44 268 -145v600h166v-1358h-166zM249 443c0 -218 77 -403 259 -403c184 0 255 188 255 403c0 218 -71 407 -254 407s-260 -189 -260 -407z"/>
    <glyph glyph-name="e" unicode="e" horiz-adv-x="966" d="M825 206v-100s-93 -120 -308 -120c-281 0 -439 210 -439 458c0 261 168 459 416 459c243 0 384 -190 397 -443h-641v-15c0 -192 57 -405 284 -405c165 0 263 122 291 166zM252 514h463c-14 196 -68 336 -220 336c-142 0 -228 -124 -243 -336z"/>
    <glyph glyph-name="f" unicode="f" horiz-adv-x="705" d="M215 0v833h-150v53h150v105c0 319 189 386 322 386c84 0 152 -34 152 -34v-88s-47 68 -156 68c-84 0 -152 -46 -152 -224v-213h264v-53h-264v-833h-166z"/>
    <glyph glyph-name="g" unicode="g" horiz-adv-x="1028" d="M827 919h154c0 -72 -67 -146 -146 -172c39 -55 61 -120 61 -193c0 -215 -154 -323 -364 -353c-76 -11 -263 -38 -263 -85c0 -46 140 -74 301 -98c257 -38 397 -116 397 -246c0 -146 -211 -244 -458 -244c-248 0 -467 98 -467 244c0 120 145 212 344 226 c-114 13 -273 47 -273 118c0 63 150 90 272 104c-171 47 -268 175 -268 334c0 204 164 349 389 349c119 0 223 -43 293 -113c20 29 28 75 28 129zM506 259c164 0 222 139 222 295s-58 296 -222 296c-163 0 -220 -140 -220 -296s57 -295 220 -295zM204 -228 c0 -112 124 -190 304 -190s297 78 297 190s-118 189 -296 189c-179 0 -305 -77 -305 -189z"/>
    <glyph glyph-name="h" unicode="h" horiz-adv-x="1006" d="M123 0v1358h166v-752c23 122 95 297 303 297c183 0 297 -133 297 -335v-568h-166v568c0 134 -15 282 -164 282c-189 0 -270 -237 -270 -458v-392h-166z"/>
    <glyph glyph-name="i" unicode="i" horiz-adv-x="436" d="M218 1046c-53 0 -97 43 -97 96s44 96 97 96c52 0 96 -43 96 -96s-44 -96 -96 -96zM135 0v886h166v-886h-166z"/>
    <glyph glyph-name="j" unicode="j" horiz-adv-x="436" d="M218 1046c-53 0 -97 43 -97 96s44 96 97 96c52 0 96 -43 96 -96s-44 -96 -96 -96zM135 230v656h166v-582c0 -669 -372 -762 -372 -762v48c90 73 206 175 206 640z"/>
    <glyph glyph-name="k" unicode="k" horiz-adv-x="953" d="M123 0v1358h166v-1008l451 536h71l-271 -321l388 -565h-194l-302 437l-143 -169v-268h-166z"/>
    <glyph glyph-name="l" unicode="l" horiz-adv-x="436" d="M135 0v1358h166v-1358h-166z"/>
    <glyph glyph-name="m" unicode="m" horiz-adv-x="1566" d="M123 0v886h166v-282c26 132 102 299 293 299c171 0 275 -120 286 -304c24 132 101 304 295 304c180 0 286 -133 286 -335v-568h-166v568c0 134 -18 282 -154 282c-179 0 -260 -253 -260 -475v-375h-166v568c0 134 -19 282 -154 282c-179 0 -260 -248 -260 -475v-375h-166 z"/>
    <glyph glyph-name="n" unicode="n" horiz-adv-x="1006" d="M123 0v886h166v-280c23 122 95 297 303 297c183 0 297 -133 297 -335v-568h-166v568c0 134 -15 282 -164 282c-189 0 -270 -237 -270 -458v-392h-166z"/>
    <glyph glyph-name="o" unicode="o" horiz-adv-x="1018" d="M78 441c0 260 181 462 431 462c249 0 431 -202 431 -462s-182 -455 -431 -455c-250 0 -431 195 -431 455zM250 441c0 -220 73 -401 259 -401c184 0 260 181 260 401c0 219 -76 409 -260 409c-186 0 -259 -190 -259 -409z"/>
    <glyph glyph-name="p" unicode="p" horiz-adv-x="1052" d="M289 131v-589h-166v1344h166v-127c58 100 155 144 271 144c236 0 414 -201 414 -457s-176 -460 -417 -460c-113 0 -210 44 -268 145zM289 446c0 -217 71 -406 254 -406s260 189 260 406c0 218 -77 404 -260 404s-254 -189 -254 -404z"/>
    <glyph glyph-name="q" unicode="q" horiz-adv-x="1052" d="M763 -458v589c-59 -101 -155 -145 -268 -145c-242 0 -417 204 -417 460s178 457 414 457c115 0 212 -44 271 -145v128h166v-1344h-166zM509 40c183 0 254 189 254 406c0 215 -71 404 -255 404c-182 0 -259 -186 -259 -404c0 -217 77 -406 260 -406z"/>
    <glyph glyph-name="r" unicode="r" horiz-adv-x="676" d="M123 0v886h166v-282c8 48 37 131 99 199c48 52 121 101 223 101v-117c-219 0 -322 -144 -322 -397v-390h-166z"/>
    <glyph glyph-name="s" unicode="s" horiz-adv-x="873" d="M85 84v100s122 -144 340 -144c150 0 222 68 222 142c0 92 -107 138 -228 193c-195 87 -320 155 -320 299c0 164 156 229 327 229c179 0 282 -71 282 -71v-91s-106 109 -284 109c-107 0 -200 -39 -200 -130c0 -75 68 -107 202 -162c217 -88 366 -150 366 -320 c0 -141 -110 -252 -368 -252c-237 0 -339 98 -339 98z"/>
    <glyph glyph-name="t" unicode="t" horiz-adv-x="694" d="M215 370v463h-150v53h150v211l166 119v-330h254v-53h-254v-532c0 -104 0 -255 131 -255c46 0 79 11 79 11v-54s-38 -11 -79 -11c-244 0 -297 165 -297 378z"/>
    <glyph glyph-name="u" unicode="u" horiz-adv-x="1006" d="M117 321v565h166v-565c0 -133 15 -281 164 -281c194 0 270 248 270 475v371h166v-886h-166v283c-24 -123 -96 -297 -304 -297c-182 0 -296 133 -296 335z"/>
    <glyph glyph-name="v" unicode="v" horiz-adv-x="934" d="M467 -21l-408 907h174l290 -648l292 648h60z"/>
    <glyph glyph-name="w" unicode="w" horiz-adv-x="1517" d="M426 -21l-359 907h172l252 -642l318 663l328 -665l255 644h58l-359 -907l-338 685z"/>
    <glyph glyph-name="x" unicode="x" horiz-adv-x="932" d="M61 0l325 432l-327 454h195l231 -322l242 322h68l-277 -367l375 -519h-196l-278 386l-291 -386h-67z"/>
    <glyph glyph-name="y" unicode="y" horiz-adv-x="938" d="M448 41l-380 845h174l292 -650l291 650h59l-600 -1344h-59z"/>
    <glyph glyph-name="z" unicode="z" horiz-adv-x="832" d="M67 0l479 833h-436v53h641l-480 -832h498v-54h-702z"/>
    <glyph glyph-name="braceleft" unicode="{" horiz-adv-x="553" d="M109 429v42s20 8 50 8c15 0 29 -3 42 -6c23 13 27 45 27 66c0 139 -151 282 -151 501c0 291 270 318 423 318v-53c-200 0 -251 -120 -251 -271c0 -161 57 -286 57 -420c0 -87 -24 -139 -56 -164c32 -26 56 -78 56 -164c0 -134 -57 -259 -57 -420c0 -151 51 -271 251 -271 v-53c-153 0 -423 27 -423 319c0 219 151 359 151 500c0 22 -4 53 -27 66c-13 -4 -27 -6 -42 -6c-30 0 -50 8 -50 8z"/>
    <glyph glyph-name="bar" unicode="|" horiz-adv-x="372" d="M159 -417v1943h54v-1943h-54z"/>
    <glyph glyph-name="braceright" unicode="}" horiz-adv-x="553" d="M53 1305v53c152 0 423 -27 423 -318c0 -219 -151 -362 -151 -501c0 -21 3 -53 26 -66c13 4 26 6 42 6c31 0 51 -8 51 -8v-42s-20 -8 -51 -8c-16 0 -29 2 -41 6c-23 -13 -27 -44 -27 -66c0 -141 151 -281 151 -500c0 -292 -270 -319 -423 -319v53c200 0 251 120 251 271 c0 161 -57 286 -57 420c0 86 23 138 55 164c-32 25 -55 77 -55 164c0 134 57 259 57 420c0 151 -51 271 -251 271z"/>
    <glyph glyph-name="asciitilde" unicode="~" horiz-adv-x="1177" d="M109 358c12 62 74 205 241 205c164 0 343 -146 479 -146c120 0 173 107 185 152h54c-12 -61 -75 -205 -241 -205c-164 0 -344 146 -479 146c-120 0 -173 -107 -185 -152h-54z"/>
    <glyph glyph-name="nbspace" unicode=" " horiz-adv-x="457"/>
    <glyph glyph-name="exclamdown" unicode="¡" horiz-adv-x="408" d="M126 -387l50 976h56l50 -976c0 -65 -29 -96 -78 -96c-51 0 -78 31 -78 96zM110 825c0 52 42 94 94 94s94 -42 94 -94s-42 -93 -94 -93s-94 41 -94 93z"/>
    <glyph glyph-name="cent" unicode="¢" horiz-adv-x="932" d="M207 -127l80 180c-127 76 -209 212 -209 389c0 263 193 461 458 461c48 0 89 -6 125 -14l52 117h57l-58 -131c67 -23 101 -52 101 -52v-102s-40 61 -126 99l-318 -712c49 -44 114 -68 194 -68c186 0 266 130 270 136v-102s-94 -88 -288 -88c-77 0 -148 15 -211 43 l-70 -156h-57zM331 150l306 687c-30 8 -62 13 -101 13c-199 0 -286 -190 -286 -407c0 -118 27 -221 81 -293z"/>
    <glyph glyph-name="sterling" unicode="£" horiz-adv-x="1175" d="M45 0c0 0 277 141 277 439c0 71 -16 142 -36 213h-169v54h153c-35 109 -71 218 -71 324c0 201 138 354 386 354c261 0 331 -169 331 -169v-120c-4 11 -74 235 -316 235c-126 0 -232 -66 -232 -263c0 -128 44 -240 70 -361h357v-54h-347c4 -31 7 -63 7 -95 c0 -195 -102 -326 -163 -389h807l-62 -168h-992z"/>
    <glyph glyph-name="currency" unicode="¤" horiz-adv-x="926" d="M158 336l-39 38l158 158c-32 40 -51 91 -51 147c0 55 19 106 51 147l-158 158l39 38l157 -157c40 32 92 51 148 51s108 -19 148 -52l158 158l38 -38l-158 -159c32 -40 51 -91 51 -146c0 -56 -19 -106 -51 -147l158 -158l-38 -38l-158 157c-40 -32 -92 -51 -148 -51 s-108 19 -148 51zM463 496c101 0 179 84 179 183s-78 183 -179 183c-100 0 -179 -84 -179 -183s79 -183 179 -183z"/>
    <glyph glyph-name="yen" unicode="¥" horiz-adv-x="1130" d="M473 0v458h-334v54h334v96l-70 127h-264v54h234l-312 569h197l375 -683l374 683h62l-312 -569h239v-54h-269l-76 -140v-83h345v-54h-345v-458h-178z"/>
    <glyph glyph-name="brokenbar" unicode="¦" horiz-adv-x="372" d="M159 718v808h54v-808h-54zM159 377h54v-794h-54v794z"/>
    <glyph glyph-name="section" unicode="§" horiz-adv-x="1047" d="M209 -329c0 0 125 -89 274 -89c140 0 250 82 250 207c0 135 -131 238 -306 375c-211 165 -338 296 -338 478c0 120 58 216 140 277c-29 51 -46 105 -46 163c0 198 198 295 389 295c146 0 263 -56 263 -56v-87s-115 89 -264 89c-131 0 -247 -71 -247 -201 c0 -124 108 -203 305 -353c200 -153 339 -289 339 -478c0 -123 -62 -221 -142 -280c29 -53 48 -110 48 -172c0 -211 -198 -311 -393 -311c-147 0 -272 56 -272 56v87zM518 325c78 -64 180 -143 255 -237c34 43 45 92 45 142c0 149 -107 238 -279 378 c-76 62 -181 140 -257 234c-33 -42 -43 -91 -43 -138c0 -151 99 -231 279 -379z"/>
    <glyph glyph-name="dieresis" unicode="¨" horiz-adv-x="726" d="M521 1056c-49 0 -88 39 -88 88c0 48 39 87 88 87s88 -39 88 -87c0 -49 -39 -88 -88 -88zM205 1056c-49 0 -88 39 -88 88c0 48 39 87 88 87c48 0 87 -39 87 -87c0 -49 -39 -88 -87 -88z"/>
    <glyph glyph-name="copyright" unicode="©" horiz-adv-x="1614" d="M83 679c0 408 324 705 724 705s724 -297 724 -705s-324 -705 -724 -705s-724 297 -724 705zM138 679c0 -378 301 -662 669 -662s668 284 668 662s-300 662 -668 662s-669 -284 -669 -662zM1101 412v-66c-67 -58 -172 -92 -284 -92c-252 0 -437 173 -437 425 c0 251 184 424 438 424c94 0 191 -24 262 -65v-71c-65 59 -170 93 -258 93c-198 0 -320 -157 -320 -381c0 -223 122 -382 320 -382c97 0 216 41 279 115z"/>
    <glyph glyph-name="ordfeminine" unicode="ª" horiz-adv-x="726" d="M669 805v-31s-15 -16 -58 -16c-66 0 -117 29 -146 83c-34 -53 -92 -90 -188 -90c-129 0 -200 66 -200 167c0 120 99 157 258 219c90 35 96 55 96 97c0 57 -24 110 -107 110c-129 0 -175 -98 -175 -98v72s45 66 181 66c210 0 241 -140 241 -196v-256 c0 -134 42 -138 57 -138c25 0 41 11 41 11zM435 977v193c-13 -26 -23 -35 -98 -72c-98 -49 -136 -90 -136 -174c0 -88 51 -133 111 -133c52 0 105 25 141 76c-12 31 -18 68 -18 110z"/>
    <glyph glyph-name="guillemotleft" unicode="«" horiz-adv-x="973" d="M424 126l-345 320l345 320l39 -38l-305 -282l304 -282zM826 126l-345 320l345 320l39 -38l-305 -282l304 -282z"/>
    <glyph glyph-name="logicalnot" unicode="¬" horiz-adv-x="1122" d="M109 437v53h904v-353h-54v300h-850z"/>
    <glyph glyph-name="uni00AD" unicode="­" horiz-adv-x="837" d="M109 411v54h619v-54h-619z"/>
    <glyph glyph-name="registered" unicode="®" horiz-adv-x="749" d="M374 809c-158 0 -287 129 -287 288c0 158 129 287 287 287c159 0 288 -129 288 -287c0 -159 -129 -288 -288 -288zM374 841c138 0 249 114 249 256c0 141 -111 255 -249 255c-137 0 -248 -114 -248 -255c0 -142 111 -256 248 -256zM278 940v317h97c66 0 109 -31 109 -88 c0 -55 -44 -89 -109 -89h-34l159 -140h-32l-141 124v-124h-49zM327 1102h36c48 0 68 28 68 68s-20 66 -68 66h-36v-134z"/>
    <glyph glyph-name="macron" unicode="¯" horiz-adv-x="707" d="M103 1072v71h501v-71h-501z"/>
    <glyph glyph-name="degree" unicode="°" horiz-adv-x="647" d="M321 944c-134 0 -234 86 -234 218s100 218 234 218c140 0 239 -86 239 -218s-99 -218 -239 -218zM321 985c79 0 130 77 130 177s-51 178 -130 178c-77 0 -126 -78 -126 -178s49 -177 126 -177z"/>
    <glyph glyph-name="plusminus" unicode="±" horiz-adv-x="1109" d="M527 204v356h-422v53h422v422h54v-422h423v-53h-423v-356h-54zM105 0v54h899v-54h-899z"/>
    <glyph glyph-name="twosuperior" unicode="²" horiz-adv-x="556" d="M39 960c0 0 285 243 285 521c0 88 -28 134 -94 134c-107 0 -150 -121 -150 -121v74s39 87 172 87c135 0 192 -89 192 -187c0 -170 -177 -338 -250 -398h317l-40 -110h-432z"/>
    <glyph glyph-name="threesuperior" unicode="³" horiz-adv-x="610" d="M125 1497v71s34 87 170 87c123 0 178 -71 178 -149c0 -60 -30 -110 -79 -145c85 -23 155 -93 155 -199c0 -124 -97 -215 -268 -215c-141 0 -184 61 -184 61v60s66 -81 172 -81c104 0 156 79 156 171c0 67 -30 150 -99 168c-37 -13 -79 -20 -123 -20l10 43s34 21 94 23 c45 29 60 81 60 130c0 61 -25 113 -97 113c-110 0 -145 -118 -145 -118z"/>
    <glyph glyph-name="acute" unicode="´" horiz-adv-x="548" d="M150 1008l-50 9l217 259c17 20 34 37 63 37c33 0 58 -24 58 -55c0 -30 -20 -48 -38 -62z"/>
    <glyph glyph-name="mu" unicode="µ" horiz-adv-x="1012" d="M289 35v-493h-166v1344h166v-565c0 -133 15 -281 164 -281c194 0 270 248 270 475v371h166v-886h-166v283c-24 -123 -96 -297 -304 -297c-51 0 -95 17 -130 49z"/>
    <glyph glyph-name="paragraph" unicode="¶" horiz-adv-x="1346" d="M531 623c-256 5 -468 115 -468 367c0 258 223 368 485 368h743l-36 -54h-79v-1522l-177 -88v1610h-122v-1673l-178 -89v1762h-133c-229 0 -314 -129 -314 -314s85 -313 314 -313z"/>
    <glyph glyph-name="periodcentered" unicode="·" horiz-adv-x="403" d="M107 444c0 52 42 93 94 93s95 -41 95 -93s-43 -94 -95 -94s-94 42 -94 94z"/>
    <glyph glyph-name="cedilla" unicode="¸" horiz-adv-x="520" d="M146 -128l146 136h57l-87 -95c75 -10 156 -66 156 -159c0 -90 -76 -155 -204 -155c-74 0 -114 23 -114 23l-5 46s49 -21 101 -21c86 0 110 54 110 102c0 82 -77 123 -160 123z"/>
    <glyph glyph-name="onesuperior" unicode="¹" horiz-adv-x="649" d="M77 960v40h193v523l-118 -78v48l247 162v-655h193v-40h-515z"/>
    <glyph glyph-name="ordmasculine" unicode="º" horiz-adv-x="701" d="M350 745c-175 0 -300 133 -300 318s125 321 300 321s301 -136 301 -321s-126 -318 -301 -318zM350 785c129 0 159 142 159 278s-30 281 -159 281s-158 -145 -158 -281s29 -278 158 -278z"/>
    <glyph glyph-name="guillemotright" unicode="»" horiz-adv-x="973" d="M148 126l-38 38l302 282l-303 282l39 38l345 -320zM550 126l-38 38l302 282l-303 282l39 38l345 -320z"/>
    <glyph glyph-name="onequarter" unicode="¼" horiz-adv-x="1605" d="M77 678v40h193v523l-118 -78v48l247 162v-655h193v-40h-515zM1279 0v162h-301l430 534v-494h136v-40h-136v-162h-129zM1064 202h215v267zM484 -98h-49l848 1555h49z"/>
    <glyph glyph-name="onehalf" unicode="½" horiz-adv-x="1619" d="M77 678v40h193v523l-118 -78v48l247 162v-655h193v-40h-515zM484 -98h-49l848 1555h49zM1102 0c0 0 285 243 285 521c0 88 -28 134 -94 134c-107 0 -150 -121 -150 -121v74s39 87 172 87c135 0 192 -89 192 -187c0 -170 -177 -338 -250 -398h317l-40 -110h-432z"/>
    <glyph glyph-name="threequarters" unicode="¾" horiz-adv-x="1482" d="M125 1215v71s34 87 170 87c123 0 178 -71 178 -149c0 -60 -30 -110 -79 -145c85 -23 155 -93 155 -199c0 -124 -97 -215 -268 -215c-141 0 -184 61 -184 61v60s66 -81 172 -81c104 0 156 79 156 171c0 67 -30 150 -99 168c-37 -13 -79 -20 -123 -20l10 43s34 21 94 23 c45 29 60 81 60 130c0 61 -25 113 -97 113c-110 0 -145 -118 -145 -118zM1156 0v162h-301l430 534v-494h136v-40h-136v-162h-129zM941 202h215v267zM361 -98h-49l848 1555h49z"/>
    <glyph glyph-name="questiondown" unicode="¿" horiz-adv-x="952" d="M590 732c-53 0 -95 41 -95 93s42 94 95 94c52 0 94 -42 94 -94s-42 -93 -94 -93zM889 -194v-116s-92 -173 -385 -173c-294 0 -447 178 -447 395c0 381 466 535 506 549v128h54v-174s-367 -127 -367 -511c0 -163 65 -333 280 -333c271 0 359 235 359 235z"/>
    <glyph glyph-name="Agrave" unicode="À" horiz-adv-x="1254" d="M67 0l560 1393l560 -1393h-187l-165 411h-547l-165 -411h-56zM309 465h504l-252 627zM737 1477l-50 -9l-250 188c-18 14 -38 32 -38 62c0 31 25 55 58 55c29 0 46 -17 63 -37z"/>
    <glyph glyph-name="Aacute" unicode="Á" horiz-adv-x="1254" d="M67 0l560 1393l560 -1393h-187l-165 411h-547l-165 -411h-56zM309 465h504l-252 627zM567 1468l-50 9l217 259c17 20 34 37 63 37c33 0 58 -24 58 -55c0 -30 -20 -48 -38 -62z"/>
    <glyph glyph-name="Acircumflex" unicode="Â" horiz-adv-x="1254" d="M67 0l560 1393l560 -1393h-187l-165 411h-547l-165 -411h-56zM309 465h504l-252 627zM393 1473l234 300l233 -300l-46 -5l-187 135l-188 -135z"/>
    <glyph glyph-name="Atilde" unicode="Ã" horiz-adv-x="1254" d="M67 0l560 1393l560 -1393h-187l-165 411h-547l-165 -411h-56zM309 465h504l-252 627zM341 1494c0 102 54 183 172 183c105 0 184 -67 274 -67c40 0 77 21 83 80h42c0 -100 -53 -187 -173 -187c-104 0 -187 67 -269 67c-45 0 -81 -17 -87 -76h-42z"/>
    <glyph glyph-name="Adieresis" unicode="Ä" horiz-adv-x="1254" d="M67 0l560 1393l560 -1393h-187l-165 411h-547l-165 -411h-56zM309 465h504l-252 627zM786 1516c-49 0 -88 39 -88 88c0 48 39 87 88 87s88 -39 88 -87c0 -49 -39 -88 -88 -88zM470 1516c-49 0 -88 39 -88 88c0 48 39 87 88 87c48 0 87 -39 87 -87c0 -49 -39 -88 -87 -88z "/>
    <glyph glyph-name="Aring" unicode="Å" horiz-adv-x="1254" d="M67 0l560 1393l560 -1393h-187l-165 411h-547l-165 -411h-56zM309 465h504l-252 627zM628 1474c-99 0 -175 50 -175 136c0 88 76 138 175 138c98 0 173 -50 173 -138c0 -86 -75 -136 -173 -136zM628 1514c41 0 67 31 67 96c0 64 -26 97 -67 97c-42 0 -68 -33 -68 -97 c0 -65 26 -96 68 -96z"/>
    <glyph glyph-name="Ccedilla" unicode="Ç" horiz-adv-x="1371" d="M647 -128l110 103c-389 21 -674 315 -674 704c0 402 307 705 719 705c155 0 297 -35 415 -96v-97c-113 89 -263 139 -414 139c-308 0 -525 -265 -525 -651c0 -387 217 -651 525 -651c177 0 340 75 451 182v-103c-115 -85 -267 -130 -436 -133l-55 -61 c75 -10 156 -66 156 -159c0 -90 -76 -155 -204 -155c-74 0 -114 23 -114 23l-5 46s49 -21 101 -21c86 0 110 54 110 102c0 82 -77 123 -160 123z"/>
    <glyph glyph-name="Egrave" unicode="È" horiz-adv-x="1001" d="M127 0v1358h773v-54h-595v-584h498v-54h-498v-612h595v-54h-773zM632 1477l-50 -9l-250 188c-18 14 -38 32 -38 62c0 31 25 55 58 55c29 0 46 -17 63 -37z"/>
    <glyph glyph-name="Eacute" unicode="É" horiz-adv-x="1001" d="M410 1468l-50 9l217 259c17 20 34 37 63 37c33 0 58 -24 58 -55c0 -30 -20 -48 -38 -62zM127 0v1358h773v-54h-595v-584h498v-54h-498v-612h595v-54h-773z"/>
    <glyph glyph-name="Ecircumflex" unicode="Ê" horiz-adv-x="1001" d="M298 1473l234 300l233 -300l-46 -5l-187 135l-188 -135zM127 0v1358h773v-54h-595v-584h498v-54h-498v-612h595v-54h-773z"/>
    <glyph glyph-name="Edieresis" unicode="Ë" horiz-adv-x="1001" d="M691 1516c-49 0 -88 39 -88 88c0 48 39 87 88 87s88 -39 88 -87c0 -49 -39 -88 -88 -88zM375 1516c-49 0 -88 39 -88 88c0 48 39 87 88 87c48 0 87 -39 87 -87c0 -49 -39 -88 -87 -88zM127 0v1358h773v-54h-595v-584h498v-54h-498v-612h595v-54h-773z"/>
    <glyph glyph-name="Igrave" unicode="Ì" horiz-adv-x="456" d="M139 0v1358h178v-1358h-178zM333 1477l-50 -9l-250 188c-18 14 -38 32 -38 62c0 31 25 55 58 55c29 0 46 -17 63 -37z"/>
    <glyph glyph-name="Iacute" unicode="Í" horiz-adv-x="456" d="M139 0v1358h178v-1358h-178zM171 1468l-50 9l217 259c17 20 34 37 63 37c33 0 58 -24 58 -55c0 -30 -20 -48 -38 -62z"/>
    <glyph glyph-name="Icircumflex" unicode="Î" horiz-adv-x="456" d="M139 0v1358h178v-1358h-178zM-5 1473l234 300l233 -300l-46 -5l-187 135l-188 -135z"/>
    <glyph glyph-name="Idieresis" unicode="Ï" horiz-adv-x="456" d="M139 0v1358h178v-1358h-178zM386 1516c-49 0 -88 39 -88 88c0 48 39 87 88 87s88 -39 88 -87c0 -49 -39 -88 -88 -88zM70 1516c-49 0 -88 39 -88 88c0 48 39 87 88 87c48 0 87 -39 87 -87c0 -49 -39 -88 -87 -88z"/>
    <glyph glyph-name="Eth" unicode="Ð" horiz-adv-x="1308" d="M127 0v666h-142v54h142v638h363c409 0 738 -277 738 -679s-329 -679 -738 -679h-363zM305 54h181c304 0 555 239 555 625s-251 625 -555 625h-181v-584h396v-54h-396v-612z"/>
    <glyph glyph-name="Ntilde" unicode="Ñ" horiz-adv-x="1311" d="M127 0v1381l1003 -1087v1064h54v-1381l-1003 1087v-1064h-54zM385 1494c0 102 54 183 172 183c105 0 184 -67 274 -67c40 0 77 21 83 80h42c0 -100 -53 -187 -173 -187c-104 0 -187 67 -269 67c-45 0 -81 -17 -87 -76h-42z"/>
    <glyph glyph-name="Ograve" unicode="Ò" horiz-adv-x="1614" d="M83 679c0 401 320 705 724 705c405 0 724 -304 724 -705c0 -411 -319 -705 -724 -705c-404 0 -724 294 -724 705zM277 679c0 -384 212 -651 530 -651c319 0 531 267 531 651c0 382 -212 651 -531 651c-318 0 -530 -269 -530 -651zM942 1477l-50 -9l-250 188 c-18 14 -38 32 -38 62c0 31 25 55 58 55c29 0 46 -17 63 -37z"/>
    <glyph glyph-name="Oacute" unicode="Ó" horiz-adv-x="1614" d="M720 1468l-50 9l217 259c17 20 34 37 63 37c33 0 58 -24 58 -55c0 -30 -20 -48 -38 -62zM83 679c0 401 320 705 724 705c405 0 724 -304 724 -705c0 -411 -319 -705 -724 -705c-404 0 -724 294 -724 705zM277 679c0 -384 212 -651 530 -651c319 0 531 267 531 651 c0 382 -212 651 -531 651c-318 0 -530 -269 -530 -651z"/>
    <glyph glyph-name="Ocircumflex" unicode="Ô" horiz-adv-x="1614" d="M573 1473l234 300l233 -300l-46 -5l-187 135l-188 -135zM83 679c0 401 320 705 724 705c405 0 724 -304 724 -705c0 -411 -319 -705 -724 -705c-404 0 -724 294 -724 705zM277 679c0 -384 212 -651 530 -651c319 0 531 267 531 651c0 382 -212 651 -531 651 c-318 0 -530 -269 -530 -651z"/>
    <glyph glyph-name="Otilde" unicode="Õ" horiz-adv-x="1614" d="M83 679c0 401 320 705 724 705c405 0 724 -304 724 -705c0 -411 -319 -705 -724 -705c-404 0 -724 294 -724 705zM277 679c0 -384 212 -651 530 -651c319 0 531 267 531 651c0 382 -212 651 -531 651c-318 0 -530 -269 -530 -651zM521 1494c0 102 54 183 172 183 c105 0 184 -67 274 -67c40 0 77 21 83 80h42c0 -100 -53 -187 -173 -187c-104 0 -187 67 -269 67c-45 0 -81 -17 -87 -76h-42z"/>
    <glyph glyph-name="Odieresis" unicode="Ö" horiz-adv-x="1614" d="M965 1516c-49 0 -88 39 -88 88c0 48 39 87 88 87s88 -39 88 -87c0 -49 -39 -88 -88 -88zM649 1516c-49 0 -88 39 -88 88c0 48 39 87 88 87c48 0 87 -39 87 -87c0 -49 -39 -88 -87 -88zM83 679c0 401 320 705 724 705c405 0 724 -304 724 -705c0 -411 -319 -705 -724 -705 c-404 0 -724 294 -724 705zM277 679c0 -384 212 -651 530 -651c319 0 531 267 531 651c0 382 -212 651 -531 651c-318 0 -530 -269 -530 -651z"/>
    <glyph glyph-name="multiply" unicode="×" horiz-adv-x="949" d="M109 135l328 329l-328 329l37 38l328 -330l329 330l37 -38l-328 -329l328 -329l-37 -38l-329 329l-328 -329z"/>
    <glyph glyph-name="Oslash" unicode="Ø" horiz-adv-x="1614" d="M465 -147l66 170c-265 100 -448 344 -448 656c0 401 320 705 724 705c85 0 166 -14 242 -39l64 163h44l-69 -177c262 -104 443 -350 443 -652c0 -411 -319 -705 -724 -705c-83 0 -163 13 -237 36l-61 -157h-44zM558 92l466 1190c-64 31 -138 48 -217 48 c-318 0 -530 -269 -530 -651c0 -272 106 -485 281 -587zM595 73c63 -30 134 -45 212 -45c319 0 531 267 531 651c0 268 -105 480 -277 583z"/>
    <glyph glyph-name="Ugrave" unicode="Ù" horiz-adv-x="1205" d="M1098 1358v-807c0 -188 -22 -338 -140 -457c-69 -71 -176 -117 -330 -117c-125 0 -263 28 -358 115c-132 119 -163 277 -163 547v719h178v-758c0 -246 11 -363 76 -453c55 -76 144 -116 267 -116c130 0 226 37 290 99c109 106 125 264 125 424v804h55zM715 1477l-50 -9 l-250 188c-18 14 -38 32 -38 62c0 31 25 55 58 55c29 0 46 -17 63 -37z"/>
    <glyph glyph-name="Uacute" unicode="Ú" horiz-adv-x="1205" d="M540 1468l-50 9l217 259c17 20 34 37 63 37c33 0 58 -24 58 -55c0 -30 -20 -48 -38 -62zM1098 1358v-807c0 -188 -22 -338 -140 -457c-69 -71 -176 -117 -330 -117c-125 0 -263 28 -358 115c-132 119 -163 277 -163 547v719h178v-758c0 -246 11 -363 76 -453 c55 -76 144 -116 267 -116c130 0 226 37 290 99c109 106 125 264 125 424v804h55z"/>
    <glyph glyph-name="Ucircumflex" unicode="Û" horiz-adv-x="1205" d="M407 1473l234 300l233 -300l-46 -5l-187 135l-188 -135zM1098 1358v-807c0 -188 -22 -338 -140 -457c-69 -71 -176 -117 -330 -117c-125 0 -263 28 -358 115c-132 119 -163 277 -163 547v719h178v-758c0 -246 11 -363 76 -453c55 -76 144 -116 267 -116 c130 0 226 37 290 99c109 106 125 264 125 424v804h55z"/>
    <glyph glyph-name="Udieresis" unicode="Ü" horiz-adv-x="1205" d="M800 1516c-49 0 -88 39 -88 88c0 48 39 87 88 87s88 -39 88 -87c0 -49 -39 -88 -88 -88zM484 1516c-49 0 -88 39 -88 88c0 48 39 87 88 87c48 0 87 -39 87 -87c0 -49 -39 -88 -87 -88zM1098 1358v-807c0 -188 -22 -338 -140 -457c-69 -71 -176 -117 -330 -117 c-125 0 -263 28 -358 115c-132 119 -163 277 -163 547v719h178v-758c0 -246 11 -363 76 -453c55 -76 144 -116 267 -116c130 0 226 37 290 99c109 106 125 264 125 424v804h55z"/>
    <glyph glyph-name="Yacute" unicode="Ý" horiz-adv-x="1190" d="M503 0v609l-442 749h201l402 -685l402 685h63l-448 -765v-593h-178zM594 1468l-50 9l217 259c17 20 34 37 63 37c33 0 58 -24 58 -55c0 -30 -20 -48 -38 -62z"/>
    <glyph glyph-name="Thorn" unicode="Þ" horiz-adv-x="1030" d="M127 0v1358h178v-243h177c262 0 485 -111 485 -374s-223 -373 -485 -373h-177v-368h-178zM305 421h127c245 0 346 108 346 320c0 211 -101 321 -346 321h-127v-641z"/>
    <glyph glyph-name="germandbls" unicode="ß" horiz-adv-x="1045" d="M123 0v893c0 285 131 484 404 484c195 0 265 -100 265 -213c0 -193 -204 -231 -204 -355c0 -169 386 -235 386 -545c0 -190 -145 -282 -317 -282c-168 0 -239 105 -239 105v105s66 -156 223 -156c109 0 162 68 162 177c0 272 -341 333 -341 552c0 197 276 202 276 398 c0 102 -74 160 -191 160c-134 0 -258 -75 -258 -396v-927h-166z"/>
    <glyph glyph-name="agrave" unicode="à" horiz-adv-x="990" d="M930 70v-47s-26 -23 -83 -23c-69 0 -154 35 -197 144c-39 -79 -121 -158 -285 -158c-163 0 -284 79 -284 237c0 169 139 227 352 309c164 64 183 100 183 178c0 69 -19 140 -148 140c-181 0 -281 -134 -285 -141v99s100 95 301 95c275 0 304 -180 304 -284v-367 c0 -189 58 -198 84 -198c32 0 58 16 58 16zM622 317v226c0 24 0 51 -1 72c-23 -58 -62 -79 -175 -137c-129 -66 -194 -125 -194 -250c0 -110 56 -188 160 -188c105 0 184 65 222 158c-8 34 -12 74 -12 119zM610 1017l-50 -9l-250 188c-18 14 -38 32 -38 62c0 31 25 55 58 55 c29 0 46 -17 63 -37z"/>
    <glyph glyph-name="aacute" unicode="á" horiz-adv-x="990" d="M930 70v-47s-26 -23 -83 -23c-69 0 -154 35 -197 144c-39 -79 -121 -158 -285 -158c-163 0 -284 79 -284 237c0 169 139 227 352 309c164 64 183 100 183 178c0 69 -19 140 -148 140c-181 0 -281 -134 -285 -141v99s100 95 301 95c275 0 304 -180 304 -284v-367 c0 -189 58 -198 84 -198c32 0 58 16 58 16zM622 317v226c0 24 0 51 -1 72c-23 -58 -62 -79 -175 -137c-129 -66 -194 -125 -194 -250c0 -110 56 -188 160 -188c105 0 184 65 222 158c-8 34 -12 74 -12 119zM385 1008l-50 9l217 259c17 20 34 37 63 37c33 0 58 -24 58 -55 c0 -30 -20 -48 -38 -62z"/>
    <glyph glyph-name="acircumflex" unicode="â" horiz-adv-x="990" d="M930 70v-47s-26 -23 -83 -23c-69 0 -154 35 -197 144c-39 -79 -121 -158 -285 -158c-163 0 -284 79 -284 237c0 169 139 227 352 309c164 64 183 100 183 178c0 69 -19 140 -148 140c-181 0 -281 -134 -285 -141v99s100 95 301 95c275 0 304 -180 304 -284v-367 c0 -189 58 -198 84 -198c32 0 58 16 58 16zM622 317v226c0 24 0 51 -1 72c-23 -58 -62 -79 -175 -137c-129 -66 -194 -125 -194 -250c0 -110 56 -188 160 -188c105 0 184 65 222 158c-8 34 -12 74 -12 119zM241 1013l234 300l233 -300l-46 -5l-187 135l-188 -135z"/>
    <glyph glyph-name="atilde" unicode="ã" horiz-adv-x="990" d="M930 70v-47s-26 -23 -83 -23c-69 0 -154 35 -197 144c-39 -79 -121 -158 -285 -158c-163 0 -284 79 -284 237c0 169 139 227 352 309c164 64 183 100 183 178c0 69 -19 140 -148 140c-181 0 -281 -134 -285 -141v99s100 95 301 95c275 0 304 -180 304 -284v-367 c0 -189 58 -198 84 -198c32 0 58 16 58 16zM622 317v226c0 24 0 51 -1 72c-23 -58 -62 -79 -175 -137c-129 -66 -194 -125 -194 -250c0 -110 56 -188 160 -188c105 0 184 65 222 158c-8 34 -12 74 -12 119zM205 1035c0 102 54 183 172 183c105 0 184 -67 274 -67 c40 0 77 21 83 80h42c0 -100 -53 -187 -173 -187c-104 0 -187 67 -269 67c-45 0 -81 -17 -87 -76h-42z"/>
    <glyph glyph-name="adieresis" unicode="ä" horiz-adv-x="990" d="M930 70v-47s-26 -23 -83 -23c-69 0 -154 35 -197 144c-39 -79 -121 -158 -285 -158c-163 0 -284 79 -284 237c0 169 139 227 352 309c164 64 183 100 183 178c0 69 -19 140 -148 140c-181 0 -281 -134 -285 -141v99s100 95 301 95c275 0 304 -180 304 -284v-367 c0 -189 58 -198 84 -198c32 0 58 16 58 16zM622 317v226c0 24 0 51 -1 72c-23 -58 -62 -79 -175 -137c-129 -66 -194 -125 -194 -250c0 -110 56 -188 160 -188c105 0 184 65 222 158c-8 34 -12 74 -12 119zM634 1056c-49 0 -88 39 -88 88c0 48 39 87 88 87s88 -39 88 -87 c0 -49 -39 -88 -88 -88zM318 1056c-49 0 -88 39 -88 88c0 48 39 87 88 87c48 0 87 -39 87 -87c0 -49 -39 -88 -87 -88z"/>
    <glyph glyph-name="aring" unicode="å" horiz-adv-x="990" d="M930 70v-47s-26 -23 -83 -23c-69 0 -154 35 -197 144c-39 -79 -121 -158 -285 -158c-163 0 -284 79 -284 237c0 169 139 227 352 309c164 64 183 100 183 178c0 69 -19 140 -148 140c-181 0 -281 -134 -285 -141v99s100 95 301 95c275 0 304 -180 304 -284v-367 c0 -189 58 -198 84 -198c32 0 58 16 58 16zM622 317v226c0 24 0 51 -1 72c-23 -58 -62 -79 -175 -137c-129 -66 -194 -125 -194 -250c0 -110 56 -188 160 -188c105 0 184 65 222 158c-8 34 -12 74 -12 119zM476 1014c-99 0 -175 50 -175 136c0 88 76 138 175 138 c98 0 173 -50 173 -138c0 -86 -75 -136 -173 -136zM476 1054c41 0 67 31 67 96c0 64 -26 97 -67 97c-42 0 -68 -33 -68 -97c0 -65 26 -96 68 -96z"/>
    <glyph glyph-name="ccedilla" unicode="ç" horiz-adv-x="932" d="M365 -128l125 117c-236 23 -412 195 -412 453c0 263 193 461 458 461c185 0 277 -80 277 -80v-102s-80 129 -277 129c-199 0 -286 -190 -286 -407c0 -231 102 -403 313 -403c186 0 266 130 270 136v-102s-93 -87 -286 -88l-66 -73c75 -10 156 -66 156 -159 c0 -90 -76 -155 -204 -155c-74 0 -114 23 -114 23l-5 46s49 -21 101 -21c86 0 110 54 110 102c0 82 -77 123 -160 123z"/>
    <glyph glyph-name="egrave" unicode="è" horiz-adv-x="966" d="M825 206v-100s-93 -120 -308 -120c-281 0 -439 210 -439 458c0 261 168 459 416 459c243 0 384 -190 397 -443h-641v-15c0 -192 57 -405 284 -405c165 0 263 122 291 166zM252 514h463c-14 196 -68 336 -220 336c-142 0 -228 -124 -243 -336zM632 1017l-50 -9l-250 188 c-18 14 -38 32 -38 62c0 31 25 55 58 55c29 0 46 -17 63 -37z"/>
    <glyph glyph-name="eacute" unicode="é" horiz-adv-x="966" d="M396 1008l-50 9l217 259c17 20 34 37 63 37c33 0 58 -24 58 -55c0 -30 -20 -48 -38 -62zM825 206v-100s-93 -120 -308 -120c-281 0 -439 210 -439 458c0 261 168 459 416 459c243 0 384 -190 397 -443h-641v-15c0 -192 57 -405 284 -405c165 0 263 122 291 166zM252 514 h463c-14 196 -68 336 -220 336c-142 0 -228 -124 -243 -336z"/>
    <glyph glyph-name="ecircumflex" unicode="ê" horiz-adv-x="966" d="M489 1313l234 -300l-46 -5l-188 135l-187 -135l-46 5zM825 206v-100s-93 -120 -308 -120c-281 0 -439 210 -439 458c0 261 168 459 416 459c243 0 384 -190 397 -443h-641v-15c0 -192 57 -405 284 -405c165 0 263 122 291 166zM252 514h463c-14 196 -68 336 -220 336 c-142 0 -228 -124 -243 -336z"/>
    <glyph glyph-name="edieresis" unicode="ë" horiz-adv-x="966" d="M332 1056c-49 0 -88 39 -88 88c0 48 39 87 88 87s88 -39 88 -87c0 -49 -39 -88 -88 -88zM648 1056c-48 0 -87 39 -87 88c0 48 39 87 87 87c49 0 88 -39 88 -87c0 -49 -39 -88 -88 -88zM825 206v-100s-93 -120 -308 -120c-281 0 -439 210 -439 458c0 261 168 459 416 459 c243 0 384 -190 397 -443h-641v-15c0 -192 57 -405 284 -405c165 0 263 122 291 166zM252 514h463c-14 196 -68 336 -220 336c-142 0 -228 -124 -243 -336z"/>
    <glyph glyph-name="igrave" unicode="ì" horiz-adv-x="436" d="M135 0v886h166v-886h-166zM361 1017l-50 -9l-250 188c-18 14 -38 32 -38 62c0 31 25 55 58 55c29 0 46 -17 63 -37z"/>
    <glyph glyph-name="iacute" unicode="í" horiz-adv-x="436" d="M125 1008l-50 9l217 259c17 20 34 37 63 37c33 0 58 -24 58 -55c0 -30 -20 -48 -38 -62zM135 0v886h166v-886h-166z"/>
    <glyph glyph-name="icircumflex" unicode="î" horiz-adv-x="436" d="M-16 1013l234 300l233 -300l-46 -5l-187 135l-188 -135zM135 0v886h166v-886h-166z"/>
    <glyph glyph-name="idieresis" unicode="ï" horiz-adv-x="436" d="M377 1056c-49 0 -88 39 -88 88c0 48 39 87 88 87s88 -39 88 -87c0 -49 -39 -88 -88 -88zM61 1056c-49 0 -88 39 -88 88c0 48 39 87 88 87c48 0 87 -39 87 -87c0 -49 -39 -88 -87 -88zM135 0v886h166v-886h-166z"/>
    <glyph glyph-name="eth" unicode="ð" horiz-adv-x="1015" d="M866 1310l-271 -135c197 -162 335 -407 335 -723c0 -278 -177 -466 -424 -466c-253 0 -428 196 -428 457c0 263 178 460 423 460c57 0 112 -10 176 -44c-45 99 -104 190 -177 268l-266 -133l-26 48l251 125c-70 65 -151 119 -241 157l43 33c101 -33 199 -82 287 -146 l293 146zM504 40c182 0 255 182 255 401c0 217 -73 409 -256 409c-181 0 -253 -190 -253 -407c0 -218 72 -403 254 -403z"/>
    <glyph glyph-name="ntilde" unicode="ñ" horiz-adv-x="1006" d="M123 0v886h166v-280c23 122 95 297 303 297c183 0 297 -133 297 -335v-568h-166v568c0 134 -15 282 -164 282c-189 0 -270 -237 -270 -458v-392h-166zM229 1034c0 102 54 183 172 183c105 0 184 -67 274 -67c40 0 77 21 83 80h42c0 -100 -53 -187 -173 -187 c-104 0 -187 67 -269 67c-45 0 -81 -17 -87 -76h-42z"/>
    <glyph glyph-name="ograve" unicode="ò" horiz-adv-x="1018" d="M78 441c0 260 181 462 431 462c249 0 431 -202 431 -462s-182 -455 -431 -455c-250 0 -431 195 -431 455zM250 441c0 -220 73 -401 259 -401c184 0 260 181 260 401c0 219 -76 409 -260 409c-186 0 -259 -190 -259 -409zM675 1017l-50 -9l-250 188c-18 14 -38 32 -38 62 c0 31 25 55 58 55c29 0 46 -17 63 -37z"/>
    <glyph glyph-name="oacute" unicode="ó" horiz-adv-x="1018" d="M384 1008l-50 9l217 259c17 20 34 37 63 37c33 0 58 -24 58 -55c0 -30 -20 -48 -38 -62zM78 441c0 260 181 462 431 462c249 0 431 -202 431 -462s-182 -455 -431 -455c-250 0 -431 195 -431 455zM250 441c0 -220 73 -401 259 -401c184 0 260 181 260 401 c0 219 -76 409 -260 409c-186 0 -259 -190 -259 -409z"/>
    <glyph glyph-name="ocircumflex" unicode="ô" horiz-adv-x="1018" d="M275 1013l234 300l233 -300l-46 -5l-187 135l-188 -135zM78 441c0 260 181 462 431 462c249 0 431 -202 431 -462s-182 -455 -431 -455c-250 0 -431 195 -431 455zM250 441c0 -220 73 -401 259 -401c184 0 260 181 260 401c0 219 -76 409 -260 409 c-186 0 -259 -190 -259 -409z"/>
    <glyph glyph-name="otilde" unicode="õ" horiz-adv-x="1018" d="M78 441c0 260 181 462 431 462c249 0 431 -202 431 -462s-182 -455 -431 -455c-250 0 -431 195 -431 455zM250 441c0 -220 73 -401 259 -401c184 0 260 181 260 401c0 219 -76 409 -260 409c-186 0 -259 -190 -259 -409zM229 1034c0 102 54 183 172 183 c105 0 184 -67 274 -67c40 0 77 21 83 80h42c0 -100 -53 -187 -173 -187c-104 0 -187 67 -269 67c-45 0 -81 -17 -87 -76h-42z"/>
    <glyph glyph-name="odieresis" unicode="ö" horiz-adv-x="1018" d="M668 1056c-49 0 -88 39 -88 88c0 48 39 87 88 87s88 -39 88 -87c0 -49 -39 -88 -88 -88zM352 1056c-49 0 -88 39 -88 88c0 48 39 87 88 87c48 0 87 -39 87 -87c0 -49 -39 -88 -87 -88zM78 441c0 260 181 462 431 462c249 0 431 -202 431 -462s-182 -455 -431 -455 c-250 0 -431 195 -431 455zM250 441c0 -220 73 -401 259 -401c184 0 260 181 260 401c0 219 -76 409 -260 409c-186 0 -259 -190 -259 -409z"/>
    <glyph glyph-name="divide" unicode="÷" horiz-adv-x="1122" d="M560 686c-56 0 -101 45 -101 101s45 100 101 100c55 0 101 -44 101 -100s-46 -101 -101 -101zM109 437v53h904v-53h-904zM459 142c0 56 45 101 101 101c55 0 101 -45 101 -101s-46 -101 -101 -101c-56 0 -101 45 -101 101z"/>
    <glyph glyph-name="oslash" unicode="ø" horiz-adv-x="1018" d="M159 -127l107 186c-116 79 -188 218 -188 382c0 260 181 462 431 462c78 0 150 -20 212 -56l91 159h46l-104 -180c114 -82 186 -222 186 -385c0 -260 -182 -455 -431 -455c-78 0 -148 18 -209 52l-95 -165h-46zM317 146l360 626c-41 48 -96 78 -168 78 c-186 0 -259 -190 -259 -409c0 -116 20 -221 67 -295zM342 112c41 -46 95 -72 167 -72c184 0 260 181 260 401c0 114 -21 220 -67 295z"/>
    <glyph glyph-name="ugrave" unicode="ù" horiz-adv-x="1006" d="M117 321v565h166v-565c0 -133 15 -281 164 -281c194 0 270 248 270 475v371h166v-886h-166v283c-24 -123 -96 -297 -304 -297c-182 0 -296 133 -296 335zM682 1017l-50 -9l-250 188c-18 14 -38 32 -38 62c0 31 25 55 58 55c29 0 46 -17 63 -37z"/>
    <glyph glyph-name="uacute" unicode="ú" horiz-adv-x="1006" d="M394 1008l-50 9l217 259c17 20 34 37 63 37c33 0 58 -24 58 -55c0 -30 -20 -48 -38 -62zM117 321v565h166v-565c0 -133 15 -281 164 -281c194 0 270 248 270 475v371h166v-886h-166v283c-24 -123 -96 -297 -304 -297c-182 0 -296 133 -296 335z"/>
    <glyph glyph-name="ucircumflex" unicode="û" horiz-adv-x="1006" d="M266 1013l234 300l233 -300l-46 -5l-187 135l-188 -135zM117 321v565h166v-565c0 -133 15 -281 164 -281c194 0 270 248 270 475v371h166v-886h-166v283c-24 -123 -96 -297 -304 -297c-182 0 -296 133 -296 335z"/>
    <glyph glyph-name="udieresis" unicode="ü" horiz-adv-x="1006" d="M659 1056c-49 0 -88 39 -88 88c0 48 39 87 88 87s88 -39 88 -87c0 -49 -39 -88 -88 -88zM343 1056c-49 0 -88 39 -88 88c0 48 39 87 88 87c48 0 87 -39 87 -87c0 -49 -39 -88 -87 -88zM117 321v565h166v-565c0 -133 15 -281 164 -281c194 0 270 248 270 475v371h166v-886 h-166v283c-24 -123 -96 -297 -304 -297c-182 0 -296 133 -296 335z"/>
    <glyph glyph-name="yacute" unicode="ý" horiz-adv-x="938" d="M448 41l-380 845h174l292 -650l291 650h59l-600 -1344h-59zM453 1008l-50 9l217 259c17 20 34 37 63 37c33 0 58 -24 58 -55c0 -30 -20 -48 -38 -62z"/>
    <glyph glyph-name="thorn" unicode="þ" horiz-adv-x="1052" d="M289 131v-589h-166v1816h166v-599c58 100 155 144 271 144c236 0 414 -201 414 -457s-176 -460 -417 -460c-113 0 -210 44 -268 145zM289 446c0 -217 71 -406 254 -406s260 189 260 406c0 218 -77 404 -260 404s-254 -189 -254 -404z"/>
    <glyph glyph-name="ydieresis" unicode="ÿ" horiz-adv-x="938" d="M448 41l-380 845h174l292 -650l291 650h59l-600 -1344h-59zM666 1056c-49 0 -88 39 -88 88c0 48 39 87 88 87s88 -39 88 -87c0 -49 -39 -88 -88 -88zM350 1056c-49 0 -88 39 -88 88c0 48 39 87 88 87c48 0 87 -39 87 -87c0 -49 -39 -88 -87 -88z"/>
    <glyph glyph-name="Amacron" unicode="Ā" horiz-adv-x="1254" d="M67 0l560 1393l560 -1393h-187l-165 411h-547l-165 -411h-56zM309 465h504l-252 627zM377 1532v71h501v-71h-501z"/>
    <glyph glyph-name="amacron" unicode="ā" horiz-adv-x="990" d="M930 70v-47s-26 -23 -83 -23c-69 0 -154 35 -197 144c-39 -79 -121 -158 -285 -158c-163 0 -284 79 -284 237c0 169 139 227 352 309c164 64 183 100 183 178c0 69 -19 140 -148 140c-181 0 -281 -134 -285 -141v99s100 95 301 95c275 0 304 -180 304 -284v-367 c0 -189 58 -198 84 -198c32 0 58 16 58 16zM622 317v226c0 24 0 51 -1 72c-23 -58 -62 -79 -175 -137c-129 -66 -194 -125 -194 -250c0 -110 56 -188 160 -188c105 0 184 65 222 158c-8 34 -12 74 -12 119zM225 1072v71h501v-71h-501z"/>
    <glyph glyph-name="Abreve" unicode="Ă" horiz-adv-x="1254" d="M67 0l560 1393l560 -1393h-187l-165 411h-547l-165 -411h-56zM309 465h504l-252 627zM814 1708l45 14c0 -151 -99 -253 -232 -253c-134 0 -233 102 -233 253l45 -14c19 -74 83 -123 188 -123c104 0 169 49 187 123z"/>
    <glyph glyph-name="abreve" unicode="ă" horiz-adv-x="990" d="M930 70v-47s-26 -23 -83 -23c-69 0 -154 35 -197 144c-39 -79 -121 -158 -285 -158c-163 0 -284 79 -284 237c0 169 139 227 352 309c164 64 183 100 183 178c0 69 -19 140 -148 140c-181 0 -281 -134 -285 -141v99s100 95 301 95c275 0 304 -180 304 -284v-367 c0 -189 58 -198 84 -198c32 0 58 16 58 16zM622 317v226c0 24 0 51 -1 72c-23 -58 -62 -79 -175 -137c-129 -66 -194 -125 -194 -250c0 -110 56 -188 160 -188c105 0 184 65 222 158c-8 34 -12 74 -12 119zM662 1248l45 14c0 -151 -99 -253 -232 -253 c-134 0 -233 102 -233 253l45 -14c19 -74 83 -123 188 -123c104 0 169 49 187 123z"/>
    <glyph glyph-name="Aogonek" unicode="Ą" horiz-adv-x="1254" d="M67 0l560 1393l560 -1393h-119c-118 -46 -197 -151 -197 -236c0 -40 16 -79 64 -79c56 0 94 39 94 39v-50s-52 -47 -139 -47c-86 0 -131 46 -131 116c0 112 121 204 241 257l-165 411h-547l-165 -411h-56zM309 465h504l-252 627z"/>
    <glyph glyph-name="aogonek" unicode="ą" horiz-adv-x="990" d="M855 -276v-50s-52 -47 -139 -47c-86 0 -131 46 -131 116c0 109 115 205 232 259c-62 9 -130 48 -167 142c-39 -79 -121 -158 -285 -158c-163 0 -284 79 -284 237c0 169 139 227 352 309c164 64 183 100 183 178c0 69 -19 140 -148 140c-181 0 -281 -134 -285 -141v99 s100 95 301 95c275 0 304 -180 304 -284v-367c0 -189 58 -198 84 -198c32 0 58 16 58 16v-47s-14 -11 -38 -18c-117 -46 -195 -156 -195 -241c0 -40 16 -79 64 -79c56 0 94 39 94 39zM622 317v226c0 24 0 51 -1 72c-23 -58 -62 -79 -175 -137c-129 -66 -194 -125 -194 -250 c0 -110 56 -188 160 -188c105 0 184 65 222 158c-8 34 -12 74 -12 119z"/>
    <glyph glyph-name="Cacute" unicode="Ć" horiz-adv-x="1371" d="M697 1468l-50 9l217 259c17 20 34 37 63 37c33 0 58 -24 58 -55c0 -30 -20 -48 -38 -62zM1254 210v-103c-119 -88 -277 -133 -452 -133c-412 0 -719 302 -719 705c0 402 307 705 719 705c155 0 297 -35 415 -96v-97c-113 89 -263 139 -414 139 c-308 0 -525 -265 -525 -651c0 -387 217 -651 525 -651c177 0 340 75 451 182z"/>
    <glyph glyph-name="cacute" unicode="ć" horiz-adv-x="932" d="M419 1008l-50 9l217 259c17 20 34 37 63 37c33 0 58 -24 58 -55c0 -30 -20 -48 -38 -62zM833 177v-103s-94 -88 -288 -88c-263 0 -467 178 -467 456c0 263 193 461 458 461c185 0 277 -80 277 -80v-102s-80 129 -277 129c-199 0 -286 -190 -286 -407 c0 -231 102 -403 313 -403c191 0 270 137 270 137z"/>
    <glyph glyph-name="Ccircumflex" unicode="Ĉ" horiz-adv-x="1371" d="M548 1473l234 300l233 -300l-46 -5l-187 135l-188 -135zM1254 210v-103c-119 -88 -277 -133 -452 -133c-412 0 -719 302 -719 705c0 402 307 705 719 705c155 0 297 -35 415 -96v-97c-113 89 -263 139 -414 139c-308 0 -525 -265 -525 -651c0 -387 217 -651 525 -651 c177 0 340 75 451 182z"/>
    <glyph glyph-name="ccircumflex" unicode="ĉ" horiz-adv-x="932" d="M267 1013l234 300l233 -300l-46 -5l-187 135l-188 -135zM833 177v-103s-94 -88 -288 -88c-263 0 -467 178 -467 456c0 263 193 461 458 461c185 0 277 -80 277 -80v-102s-80 129 -277 129c-199 0 -286 -190 -286 -407c0 -231 102 -403 313 -403c191 0 270 137 270 137z "/>
    <glyph glyph-name="Cdotaccent" unicode="Ċ" horiz-adv-x="1371" d="M1254 210v-103c-119 -88 -277 -133 -452 -133c-412 0 -719 302 -719 705c0 402 307 705 719 705c155 0 297 -35 415 -96v-97c-113 89 -263 139 -414 139c-308 0 -525 -265 -525 -651c0 -387 217 -651 525 -651c177 0 340 75 451 182zM782 1535c-49 0 -88 39 -88 88 c0 48 39 87 88 87c48 0 87 -39 87 -87c0 -49 -39 -88 -87 -88z"/>
    <glyph glyph-name="cdotaccent" unicode="ċ" horiz-adv-x="932" d="M833 177v-103s-94 -88 -288 -88c-263 0 -467 178 -467 456c0 263 193 461 458 461c185 0 277 -80 277 -80v-102s-80 129 -277 129c-199 0 -286 -190 -286 -407c0 -231 102 -403 313 -403c191 0 270 137 270 137zM501 1075c-49 0 -88 39 -88 88c0 48 39 87 88 87 c48 0 87 -39 87 -87c0 -49 -39 -88 -87 -88z"/>
    <glyph glyph-name="Ccaron" unicode="Č" horiz-adv-x="1371" d="M782 1468l-234 300l46 5l188 -134l187 134l46 -5zM1254 210v-103c-119 -88 -277 -133 -452 -133c-412 0 -719 302 -719 705c0 402 307 705 719 705c155 0 297 -35 415 -96v-97c-113 89 -263 139 -414 139c-308 0 -525 -265 -525 -651c0 -387 217 -651 525 -651 c177 0 340 75 451 182z"/>
    <glyph glyph-name="ccaron" unicode="č" horiz-adv-x="932" d="M501 1008l-234 300l46 5l188 -134l187 134l46 -5zM833 177v-103s-94 -88 -288 -88c-263 0 -467 178 -467 456c0 263 193 461 458 461c185 0 277 -80 277 -80v-102s-80 129 -277 129c-199 0 -286 -190 -286 -407c0 -231 102 -403 313 -403c191 0 270 137 270 137z"/>
    <glyph glyph-name="Dcaron" unicode="Ď" horiz-adv-x="1301" d="M560 1468l-234 300l46 5l188 -134l187 134l46 -5zM127 0v1358h363c409 0 738 -277 738 -679s-329 -679 -738 -679h-363zM305 54h181c304 0 555 239 555 625s-251 625 -555 625h-181v-1250z"/>
    <glyph glyph-name="dcaron" unicode="ď" horiz-adv-x="1055" d="M1039 1000l53 326c8 50 30 69 62 69c35 0 58 -23 58 -56c0 -9 -2 -24 -11 -48l-111 -291h-51zM763 0v130c-59 -101 -156 -144 -271 -144c-236 0 -414 201 -414 458c0 255 175 459 417 459c113 0 209 -44 268 -145v600h166v-1358h-166zM249 443c0 -218 77 -403 259 -403 c184 0 255 188 255 403c0 218 -71 407 -254 407s-260 -189 -260 -407z"/>
    <glyph glyph-name="Dcroat" unicode="Đ" horiz-adv-x="1308" d="M127 0v666h-142v54h142v638h363c409 0 738 -277 738 -679s-329 -679 -738 -679h-363zM305 54h181c304 0 555 239 555 625s-251 625 -555 625h-181v-584h396v-54h-396v-612z"/>
    <glyph glyph-name="dcroat" unicode="đ" horiz-adv-x="1052" d="M763 0v130c-59 -101 -156 -144 -271 -144c-236 0 -414 201 -414 458c0 255 175 459 417 459c113 0 209 -44 268 -145v341h-274v54h274v205h166v-205h154v-54h-154v-1099h-166zM249 443c0 -218 77 -403 259 -403c184 0 255 188 255 403c0 218 -71 407 -254 407 s-260 -189 -260 -407z"/>
    <glyph glyph-name="Emacron" unicode="Ē" horiz-adv-x="1001" d="M127 0v1358h773v-54h-595v-584h498v-54h-498v-612h595v-54h-773zM276 1532v71h501v-71h-501z"/>
    <glyph glyph-name="emacron" unicode="ē" horiz-adv-x="966" d="M825 206v-100s-93 -120 -308 -120c-281 0 -439 210 -439 458c0 261 168 459 416 459c243 0 384 -190 397 -443h-641v-15c0 -192 57 -405 284 -405c165 0 263 122 291 166zM252 514h463c-14 196 -68 336 -220 336c-142 0 -228 -124 -243 -336zM741 1143v-71h-501v71h501z "/>
    <glyph glyph-name="Ebreve" unicode="Ĕ" horiz-adv-x="1001" d="M127 0v1358h773v-54h-595v-584h498v-54h-498v-612h595v-54h-773zM731 1708l45 14c0 -151 -99 -253 -232 -253c-134 0 -233 102 -233 253l45 -14c19 -74 83 -123 188 -123c104 0 169 49 187 123z"/>
    <glyph glyph-name="ebreve" unicode="ĕ" horiz-adv-x="966" d="M825 206v-100s-93 -120 -308 -120c-281 0 -439 210 -439 458c0 261 168 459 416 459c243 0 384 -190 397 -443h-641v-15c0 -192 57 -405 284 -405c165 0 263 122 291 166zM252 514h463c-14 196 -68 336 -220 336c-142 0 -228 -124 -243 -336zM258 1262l45 -14 c18 -74 83 -123 187 -123c105 0 169 49 188 123l45 14c0 -151 -99 -253 -233 -253c-133 0 -232 102 -232 253z"/>
    <glyph glyph-name="Edotaccent" unicode="Ė" horiz-adv-x="1001" d="M127 0v1358h773v-54h-595v-584h498v-54h-498v-612h595v-54h-773zM532 1535c-49 0 -88 39 -88 88c0 48 39 87 88 87c48 0 87 -39 87 -87c0 -49 -39 -88 -87 -88z"/>
    <glyph glyph-name="edotaccent" unicode="ė" horiz-adv-x="966" d="M825 206v-100s-93 -120 -308 -120c-281 0 -439 210 -439 458c0 261 168 459 416 459c243 0 384 -190 397 -443h-641v-15c0 -192 57 -405 284 -405c165 0 263 122 291 166zM252 514h463c-14 196 -68 336 -220 336c-142 0 -228 -124 -243 -336zM487 1075 c-48 0 -87 39 -87 88c0 48 39 87 87 87c49 0 88 -39 88 -87c0 -49 -39 -88 -88 -88z"/>
    <glyph glyph-name="Eogonek" unicode="Ę" horiz-adv-x="1001" d="M127 0v1358h773v-54h-595v-584h498v-54h-498v-612h595v-54c-118 -46 -197 -151 -197 -236c0 -40 16 -79 64 -79c56 0 94 39 94 39v-50s-52 -47 -139 -47c-86 0 -131 46 -131 116c0 112 121 204 241 257h-705z"/>
    <glyph glyph-name="eogonek" unicode="ę" horiz-adv-x="966" d="M599 -276v-50s-52 -47 -139 -47c-86 0 -131 46 -131 116c0 103 102 189 211 244c-7 -1 -15 -1 -23 -1c-281 0 -439 210 -439 458c0 261 168 459 416 459c243 0 384 -190 397 -443h-641v-15c0 -192 57 -405 284 -405c165 0 263 122 291 166v-100s-58 -74 -187 -106 c-118 -46 -197 -151 -197 -236c0 -40 16 -79 64 -79c56 0 94 39 94 39zM252 514h463c-14 196 -68 336 -220 336c-142 0 -228 -124 -243 -336z"/>
    <glyph glyph-name="Ecaron" unicode="Ě" horiz-adv-x="1001" d="M544 1468l-234 300l46 5l188 -134l187 134l46 -5zM127 0v1358h773v-54h-595v-584h498v-54h-498v-612h595v-54h-773z"/>
    <glyph glyph-name="ecaron" unicode="ě" horiz-adv-x="966" d="M723 1308l-234 -300l-233 300l46 5l187 -134l188 134zM825 206v-100s-93 -120 -308 -120c-281 0 -439 210 -439 458c0 261 168 459 416 459c243 0 384 -190 397 -443h-641v-15c0 -192 57 -405 284 -405c165 0 263 122 291 166zM252 514h463c-14 196 -68 336 -220 336 c-142 0 -228 -124 -243 -336z"/>
    <glyph glyph-name="Gcircumflex" unicode="Ĝ" horiz-adv-x="1462" d="M548 1473l234 300l233 -300l-46 -5l-187 135l-188 -135zM1337 693v-570c-129 -91 -300 -149 -529 -149c-405 0 -725 300 -725 705c0 404 320 705 725 705c175 0 334 -43 454 -112v-97c-114 100 -283 155 -454 155c-298 0 -531 -268 -531 -651c0 -384 233 -651 531 -651 c160 0 264 34 352 89v576h177z"/>
    <glyph glyph-name="gcircumflex" unicode="ĝ" horiz-adv-x="1028" d="M271 1013l234 300l233 -300l-46 -5l-187 135l-188 -135zM827 919h154c0 -72 -67 -146 -146 -172c39 -55 61 -120 61 -193c0 -215 -154 -323 -364 -353c-76 -11 -263 -38 -263 -85c0 -46 140 -74 301 -98c257 -38 397 -116 397 -246c0 -146 -211 -244 -458 -244 c-248 0 -467 98 -467 244c0 120 145 212 344 226c-114 13 -273 47 -273 118c0 63 150 90 272 104c-171 47 -268 175 -268 334c0 204 164 349 389 349c119 0 223 -43 293 -113c20 29 28 75 28 129zM506 259c164 0 222 139 222 295s-58 296 -222 296 c-163 0 -220 -140 -220 -296s57 -295 220 -295zM204 -228c0 -112 124 -190 304 -190s297 78 297 190s-118 189 -296 189c-179 0 -305 -77 -305 -189z"/>
    <glyph glyph-name="Gbreve" unicode="Ğ" horiz-adv-x="1462" d="M1337 693v-570c-129 -91 -300 -149 -529 -149c-405 0 -725 300 -725 705c0 404 320 705 725 705c175 0 334 -43 454 -112v-97c-114 100 -283 155 -454 155c-298 0 -531 -268 -531 -651c0 -384 233 -651 531 -651c160 0 264 34 352 89v576h177zM969 1708l45 14 c0 -151 -99 -253 -232 -253c-134 0 -233 102 -233 253l45 -14c19 -74 83 -123 188 -123c104 0 169 49 187 123z"/>
    <glyph glyph-name="gbreve" unicode="ğ" horiz-adv-x="1028" d="M827 919h154c0 -72 -67 -146 -146 -172c39 -55 61 -120 61 -193c0 -215 -154 -323 -364 -353c-76 -11 -263 -38 -263 -85c0 -46 140 -74 301 -98c257 -38 397 -116 397 -246c0 -146 -211 -244 -458 -244c-248 0 -467 98 -467 244c0 120 145 212 344 226 c-114 13 -273 47 -273 118c0 63 150 90 272 104c-171 47 -268 175 -268 334c0 204 164 349 389 349c119 0 223 -43 293 -113c20 29 28 75 28 129zM506 259c164 0 222 139 222 295s-58 296 -222 296c-163 0 -220 -140 -220 -296s57 -295 220 -295zM204 -228 c0 -112 124 -190 304 -190s297 78 297 190s-118 189 -296 189c-179 0 -305 -77 -305 -189zM691 1248l45 14c0 -151 -99 -253 -232 -253c-134 0 -233 102 -233 253l45 -14c19 -74 83 -123 188 -123c104 0 169 49 187 123z"/>
    <glyph glyph-name="Gdotaccent" unicode="Ġ" horiz-adv-x="1462" d="M1337 693v-570c-129 -91 -300 -149 -529 -149c-405 0 -725 300 -725 705c0 404 320 705 725 705c175 0 334 -43 454 -112v-97c-114 100 -283 155 -454 155c-298 0 -531 -268 -531 -651c0 -384 233 -651 531 -651c160 0 264 34 352 89v576h177zM782 1535 c-49 0 -88 39 -88 88c0 48 39 87 88 87c48 0 87 -39 87 -87c0 -49 -39 -88 -87 -88z"/>
    <glyph glyph-name="gdotaccent" unicode="ġ" horiz-adv-x="1028" d="M827 919h154c0 -72 -67 -146 -146 -172c39 -55 61 -120 61 -193c0 -215 -154 -323 -364 -353c-76 -11 -263 -38 -263 -85c0 -46 140 -74 301 -98c257 -38 397 -116 397 -246c0 -146 -211 -244 -458 -244c-248 0 -467 98 -467 244c0 120 145 212 344 226 c-114 13 -273 47 -273 118c0 63 150 90 272 104c-171 47 -268 175 -268 334c0 204 164 349 389 349c119 0 223 -43 293 -113c20 29 28 75 28 129zM506 259c164 0 222 139 222 295s-58 296 -222 296c-163 0 -220 -140 -220 -296s57 -295 220 -295zM204 -228 c0 -112 124 -190 304 -190s297 78 297 190s-118 189 -296 189c-179 0 -305 -77 -305 -189zM505 1075c-49 0 -88 39 -88 88c0 48 39 87 88 87c48 0 87 -39 87 -87c0 -49 -39 -88 -87 -88z"/>
    <glyph glyph-name="Gcommaaccent" unicode="Ģ" horiz-adv-x="1462" d="M756 -423v29s71 31 71 106c0 22 -5 36 -10 46c-12 -12 -31 -27 -60 -27c-45 0 -81 32 -81 79s38 83 92 83c72 0 120 -64 120 -142c0 -133 -132 -174 -132 -174zM1337 693v-570c-129 -91 -300 -149 -529 -149c-405 0 -725 300 -725 705c0 404 320 705 725 705 c175 0 334 -43 454 -112v-97c-114 100 -283 155 -454 155c-298 0 -531 -268 -531 -651c0 -384 233 -651 531 -651c160 0 264 34 352 89v576h177z"/>
    <glyph glyph-name="gcommaaccent" unicode="ģ" horiz-adv-x="1028" d="M516 1295v-29s-71 -31 -71 -106c0 -22 5 -36 10 -46c12 12 31 27 60 27c45 0 81 -32 81 -79s-38 -83 -92 -83c-72 0 -120 64 -120 142c0 133 132 174 132 174zM827 919h154c0 -72 -67 -146 -146 -172c39 -55 61 -120 61 -193c0 -215 -154 -323 -364 -353 c-76 -11 -263 -38 -263 -85c0 -46 140 -74 301 -98c257 -38 397 -116 397 -246c0 -146 -211 -244 -458 -244c-248 0 -467 98 -467 244c0 120 145 212 344 226c-114 13 -273 47 -273 118c0 63 150 90 272 104c-171 47 -268 175 -268 334c0 204 164 349 389 349 c119 0 223 -43 293 -113c20 29 28 75 28 129zM506 259c164 0 222 139 222 295s-58 296 -222 296c-163 0 -220 -140 -220 -296s57 -295 220 -295zM204 -228c0 -112 124 -190 304 -190s297 78 297 190s-118 189 -296 189c-179 0 -305 -77 -305 -189z"/>
    <glyph glyph-name="Hcircumflex" unicode="Ĥ" horiz-adv-x="1363" d="M447 1473l234 300l233 -300l-46 -5l-187 135l-188 -135zM127 0v1358h178v-638h753v638h178v-1358h-178v666h-753v-666h-178z"/>
    <glyph glyph-name="hcircumflex" unicode="ĥ" horiz-adv-x="1006" d="M-27 1473l234 300l233 -300l-46 -5l-187 135l-188 -135zM123 0v1358h166v-752c23 122 95 297 303 297c183 0 297 -133 297 -335v-568h-166v568c0 134 -15 282 -164 282c-189 0 -270 -237 -270 -458v-392h-166z"/>
    <glyph glyph-name="Hbar" unicode="Ħ" horiz-adv-x="1363" d="M127 0v1005h-159v54h159v299h178v-299h753v299h178v-299h159v-54h-159v-1005h-178v666h-753v-666h-178zM305 720h753v285h-753v-285z"/>
    <glyph glyph-name="hbar" unicode="ħ" horiz-adv-x="1006" d="M123 0v1099h-154v54h154v205h166v-205h274v-54h-274v-493c23 122 95 297 303 297c183 0 297 -133 297 -335v-568h-166v568c0 134 -15 282 -164 282c-189 0 -270 -237 -270 -458v-392h-166z"/>
    <glyph glyph-name="Itilde" unicode="Ĩ" horiz-adv-x="456" d="M139 0v1358h178v-1358h-178zM-57 1494c0 102 54 183 172 183c105 0 184 -67 274 -67c40 0 77 21 83 80h42c0 -100 -53 -187 -173 -187c-104 0 -187 67 -269 67c-45 0 -81 -17 -87 -76h-42z"/>
    <glyph glyph-name="itilde" unicode="ĩ" horiz-adv-x="436" d="M135 0v886h166v-886h-166zM-68 1034c0 102 54 183 172 183c105 0 184 -67 274 -67c40 0 77 21 83 80h42c0 -100 -53 -187 -173 -187c-104 0 -187 67 -269 67c-45 0 -81 -17 -87 -76h-42z"/>
    <glyph glyph-name="Imacron" unicode="Ī" horiz-adv-x="456" d="M139 0v1358h178v-1358h-178zM-22 1532v71h501v-71h-501z"/>
    <glyph glyph-name="imacron" unicode="ī" horiz-adv-x="436" d="M135 0v886h166v-886h-166zM-32 1072v71h501v-71h-501z"/>
    <glyph glyph-name="Ibreve" unicode="Ĭ" horiz-adv-x="456" d="M139 0v1358h178v-1358h-178zM416 1708l45 14c0 -151 -99 -253 -232 -253c-134 0 -233 102 -233 253l45 -14c19 -74 83 -123 188 -123c104 0 169 49 187 123z"/>
    <glyph glyph-name="ibreve" unicode="ĭ" horiz-adv-x="436" d="M135 0v886h166v-886h-166zM405 1248l45 14c0 -151 -99 -253 -232 -253c-134 0 -233 102 -233 253l45 -14c19 -74 83 -123 188 -123c104 0 169 49 187 123z"/>
    <glyph glyph-name="Iogonek" unicode="Į" horiz-adv-x="456" d="M139 0v1358h178v-1358c-118 -46 -198 -151 -198 -236c0 -40 16 -79 64 -79c56 0 94 39 94 39v-50s-52 -47 -139 -47c-86 0 -131 46 -131 116c0 112 121 204 241 257h-109z"/>
    <glyph glyph-name="iogonek" unicode="į" horiz-adv-x="436" d="M218 1046c-53 0 -97 43 -97 96s44 96 97 96c52 0 96 -43 96 -96s-44 -96 -96 -96zM135 0v886h166v-886c-118 -46 -197 -151 -197 -236c0 -40 16 -79 64 -79c56 0 94 39 94 39v-50s-52 -47 -139 -47c-86 0 -131 46 -131 116c0 112 121 204 241 257h-98z"/>
    <glyph glyph-name="Idotaccent" unicode="İ" horiz-adv-x="456" d="M139 0v1358h178v-1358h-178zM229 1535c-49 0 -88 39 -88 88c0 48 39 87 88 87c48 0 87 -39 87 -87c0 -49 -39 -88 -87 -88z"/>
    <glyph glyph-name="dotlessi" unicode="ı" horiz-adv-x="436" d="M135 0v886h166v-886h-166z"/>
    <glyph glyph-name="IJ" unicode="Ĳ" horiz-adv-x="898" d="M139 0v1358h178v-1358h-178zM583 204v1154h178v-1080c0 -656 -448 -762 -448 -762v54c138 89 270 224 270 634z"/>
    <glyph glyph-name="ij" unicode="ĳ" horiz-adv-x="871" d="M218 1046c-53 0 -97 43 -97 96s44 96 97 96c52 0 96 -43 96 -96s-44 -96 -96 -96zM135 0v886h166v-886h-166zM654 1046c-53 0 -97 43 -97 96s44 96 97 96c52 0 96 -43 96 -96s-44 -96 -96 -96zM571 230v656h166v-582c0 -669 -372 -762 -372 -762v48 c90 73 206 175 206 640z"/>
    <glyph glyph-name="Jcircumflex" unicode="Ĵ" horiz-adv-x="455" d="M-7 1473l234 300l233 -300l-46 -5l-187 135l-188 -135zM139 204v1154h178v-1080c0 -656 -448 -762 -448 -762v54c138 89 270 224 270 634z"/>
    <glyph glyph-name="jcircumflex" unicode="ĵ" horiz-adv-x="436" d="M-16 1013l234 300l233 -300l-46 -5l-187 135l-188 -135zM135 230v656h166v-582c0 -669 -372 -762 -372 -762v48c90 73 206 175 206 640z"/>
    <glyph glyph-name="Kcommaaccent" unicode="Ķ" horiz-adv-x="1204" d="M571 -423v29s71 31 71 106c0 22 -5 36 -10 46c-12 -12 -31 -27 -60 -27c-45 0 -81 32 -81 79s38 83 92 83c72 0 120 -64 120 -142c0 -133 -132 -174 -132 -174zM127 0v1358h178v-822l636 822h71l-393 -506l552 -852h-211l-453 707l-202 -261v-446h-178z"/>
    <glyph glyph-name="kcommaaccent" unicode="ķ" horiz-adv-x="929" d="M442 -423v29s71 31 71 106c0 22 -5 36 -10 46c-12 -12 -31 -27 -60 -27c-45 0 -81 32 -81 79s38 83 92 83c72 0 120 -64 120 -142c0 -133 -132 -174 -132 -174zM123 0v1358h166v-1008l451 536h71l-271 -321l388 -565h-194l-302 437l-143 -169v-268h-166z"/>
    <glyph glyph-name="kgreenlandic" unicode="ĸ" horiz-adv-x="953" d="M123 0v886h166v-536l451 536h71l-271 -321l388 -565h-194l-302 437l-143 -169v-268h-166z"/>
    <glyph glyph-name="Lacute" unicode="Ĺ" horiz-adv-x="906" d="M194 1468l-50 9l217 259c17 20 34 37 63 37c33 0 58 -24 58 -55c0 -30 -20 -48 -38 -62zM127 0v1358h178v-1304h524v-54h-702z"/>
    <glyph glyph-name="lacute" unicode="ĺ" horiz-adv-x="436" d="M168 1468l-50 9l217 259c17 20 34 37 63 37c33 0 58 -24 58 -55c0 -30 -20 -48 -38 -62zM135 0v1358h166v-1358h-166z"/>
    <glyph glyph-name="Lcommaaccent" unicode="Ļ" horiz-adv-x="906" d="M463 -423v29s71 31 71 106c0 22 -5 36 -10 46c-12 -12 -31 -27 -60 -27c-45 0 -81 32 -81 79s38 83 92 83c72 0 120 -64 120 -142c0 -133 -132 -174 -132 -174zM127 0v1358h178v-1304h524v-54h-702z"/>
    <glyph glyph-name="lcommaaccent" unicode="ļ" horiz-adv-x="436" d="M194 -423v29s71 31 71 106c0 22 -5 36 -10 46c-12 -12 -31 -27 -60 -27c-45 0 -81 32 -81 79s38 83 92 83c72 0 120 -64 120 -142c0 -133 -132 -174 -132 -174zM135 0v1358h166v-1358h-166z"/>
    <glyph glyph-name="Lcaron" unicode="Ľ" horiz-adv-x="906" d="M494 1000l53 326c8 50 30 69 62 69c35 0 58 -23 58 -56c0 -9 -2 -24 -11 -48l-111 -291h-51zM127 0v1358h178v-1304h524v-54h-702z"/>
    <glyph glyph-name="lcaron" unicode="ľ" horiz-adv-x="436" d="M393 1000l53 326c8 50 30 69 62 69c35 0 58 -23 58 -56c0 -9 -2 -24 -11 -48l-111 -291h-51zM135 0v1358h166v-1358h-166z"/>
    <glyph glyph-name="Ldot" unicode="Ŀ" horiz-adv-x="906" d="M677 600c-44 0 -79 35 -79 79s35 79 79 79s79 -35 79 -79s-35 -79 -79 -79zM127 0v1358h178v-1304h524v-54h-702z"/>
    <glyph glyph-name="ldot" unicode="ŀ" horiz-adv-x="624" d="M135 0v1358h166v-1358h-166zM537 591c-49 0 -88 39 -88 88c0 48 39 87 88 87c48 0 87 -39 87 -87c0 -49 -39 -88 -87 -88z"/>
    <glyph glyph-name="Lslash" unicode="Ł" horiz-adv-x="906" d="M127 0v566l-158 -74v57l158 74v735h178v-652l339 160v-57l-339 -160v-595h524v-54h-702z"/>
    <glyph glyph-name="lslash" unicode="ł" horiz-adv-x="435" d="M135 0v692l-153 -95v59l153 95v607h166v-504l151 94v-59l-151 -94v-795h-166z"/>
    <glyph glyph-name="Nacute" unicode="Ń" horiz-adv-x="1311" d="M613 1468l-50 9l217 259c17 20 34 37 63 37c33 0 58 -24 58 -55c0 -30 -20 -48 -38 -62zM127 0v1381l1003 -1087v1064h54v-1381l-1003 1087v-1064h-54z"/>
    <glyph glyph-name="nacute" unicode="ń" horiz-adv-x="1006" d="M425 1008l-50 9l217 259c17 20 34 37 63 37c33 0 58 -24 58 -55c0 -30 -20 -48 -38 -62zM123 0v886h166v-280c23 122 95 297 303 297c183 0 297 -133 297 -335v-568h-166v568c0 134 -15 282 -164 282c-189 0 -270 -237 -270 -458v-392h-166z"/>
    <glyph glyph-name="Ncommaaccent" unicode="Ņ" horiz-adv-x="1311" d="M629 -423v29s71 31 71 106c0 22 -5 36 -10 46c-12 -12 -31 -27 -60 -27c-45 0 -81 32 -81 79s38 83 92 83c72 0 120 -64 120 -142c0 -133 -132 -174 -132 -174zM127 0v1381l1003 -1087v1064h54v-1381l-1003 1087v-1064h-54z"/>
    <glyph glyph-name="ncommaaccent" unicode="ņ" horiz-adv-x="1006" d="M492 -423v29s71 31 71 106c0 22 -5 36 -10 46c-12 -12 -31 -27 -60 -27c-45 0 -81 32 -81 79s38 83 92 83c72 0 120 -64 120 -142c0 -133 -132 -174 -132 -174zM123 0v886h166v-280c23 122 95 297 303 297c183 0 297 -133 297 -335v-568h-166v568c0 134 -15 282 -164 282 c-189 0 -270 -237 -270 -458v-392h-166z"/>
    <glyph glyph-name="Ncaron" unicode="Ň" horiz-adv-x="1311" d="M671 1468l-234 300l46 5l188 -134l187 134l46 -5zM127 0v1381l1003 -1087v1064h54v-1381l-1003 1087v-1064h-54z"/>
    <glyph glyph-name="ncaron" unicode="ň" horiz-adv-x="1006" d="M515 1008l-234 300l46 5l188 -134l187 134l46 -5zM123 0v886h166v-280c23 122 95 297 303 297c183 0 297 -133 297 -335v-568h-166v568c0 134 -15 282 -164 282c-189 0 -270 -237 -270 -458v-392h-166z"/>
    <glyph glyph-name="Eng" unicode="Ŋ" horiz-adv-x="1311" d="M127 0v1381l880 -954v931h177v-1080c0 -656 -447 -762 -447 -762v54c119 81 260 197 269 598l-825 896v-1064h-54z"/>
    <glyph glyph-name="eng" unicode="ŋ" horiz-adv-x="1006" d="M123 0v886h166v-280c23 122 95 297 303 297c183 0 297 -133 297 -335v-264c0 -669 -372 -762 -372 -762v48c90 72 206 175 206 640v338c0 134 -15 282 -164 282c-189 0 -270 -237 -270 -458v-392h-166z"/>
    <glyph glyph-name="Omacron" unicode="Ō" horiz-adv-x="1614" d="M556 1532v71h501v-71h-501zM83 679c0 401 320 705 724 705c405 0 724 -304 724 -705c0 -411 -319 -705 -724 -705c-404 0 -724 294 -724 705zM277 679c0 -384 212 -651 530 -651c319 0 531 267 531 651c0 382 -212 651 -531 651c-318 0 -530 -269 -530 -651z"/>
    <glyph glyph-name="omacron" unicode="ō" horiz-adv-x="1018" d="M259 1072v71h501v-71h-501zM78 441c0 260 181 462 431 462c249 0 431 -202 431 -462s-182 -455 -431 -455c-250 0 -431 195 -431 455zM250 441c0 -220 73 -401 259 -401c184 0 260 181 260 401c0 219 -76 409 -260 409c-186 0 -259 -190 -259 -409z"/>
    <glyph glyph-name="Obreve" unicode="Ŏ" horiz-adv-x="1614" d="M83 679c0 401 320 705 724 705c405 0 724 -304 724 -705c0 -411 -319 -705 -724 -705c-404 0 -724 294 -724 705zM277 679c0 -384 212 -651 530 -651c319 0 531 267 531 651c0 382 -212 651 -531 651c-318 0 -530 -269 -530 -651zM994 1708l45 14 c0 -151 -99 -253 -232 -253c-134 0 -233 102 -233 253l45 -14c19 -74 83 -123 188 -123c104 0 169 49 187 123z"/>
    <glyph glyph-name="obreve" unicode="ŏ" horiz-adv-x="1018" d="M78 441c0 260 181 462 431 462c249 0 431 -202 431 -462s-182 -455 -431 -455c-250 0 -431 195 -431 455zM250 441c0 -220 73 -401 259 -401c184 0 260 181 260 401c0 219 -76 409 -260 409c-186 0 -259 -190 -259 -409zM696 1248l45 14c0 -151 -99 -253 -232 -253 c-134 0 -233 102 -233 253l45 -14c19 -74 83 -123 188 -123c104 0 169 49 187 123z"/>
    <glyph glyph-name="Ohungarumlaut" unicode="Ő" horiz-adv-x="1614" d="M792 1477l217 259c17 20 35 37 63 37c34 0 58 -24 58 -55c0 -30 -20 -48 -38 -62l-249 -188zM579 1468l-50 9l217 259c17 20 34 37 63 37c33 0 58 -24 58 -55c0 -30 -20 -48 -38 -62zM83 679c0 401 320 705 724 705c405 0 724 -304 724 -705c0 -411 -319 -705 -724 -705 c-404 0 -724 294 -724 705zM277 679c0 -384 212 -651 530 -651c319 0 531 267 531 651c0 382 -212 651 -531 651c-318 0 -530 -269 -530 -651z"/>
    <glyph glyph-name="ohungarumlaut" unicode="ő" horiz-adv-x="1018" d="M489 1017l217 259c17 20 35 37 63 37c34 0 58 -24 58 -55c0 -30 -20 -48 -38 -62l-249 -188zM276 1008l-50 9l217 259c17 20 34 37 63 37c33 0 58 -24 58 -55c0 -30 -20 -48 -38 -62zM78 441c0 260 181 462 431 462c249 0 431 -202 431 -462s-182 -455 -431 -455 c-250 0 -431 195 -431 455zM250 441c0 -220 73 -401 259 -401c184 0 260 181 260 401c0 219 -76 409 -260 409c-186 0 -259 -190 -259 -409z"/>
    <glyph glyph-name="Racute" unicode="Ŕ" horiz-adv-x="1106" d="M422 1468l-50 9l217 259c17 20 34 37 63 37c33 0 58 -24 58 -55c0 -30 -20 -48 -38 -62zM127 0v1358h370c262 0 485 -112 485 -374c0 -263 -223 -374 -485 -374h-156l740 -610h-81l-695 573v-573h-178zM305 664h142c245 0 346 108 346 320c0 211 -101 320 -346 320h-142 v-640z"/>
    <glyph glyph-name="racute" unicode="ŕ" horiz-adv-x="676" d="M252 1008l-50 9l217 259c17 20 34 37 63 37c33 0 58 -24 58 -55c0 -30 -20 -48 -38 -62zM123 0v886h166v-282c8 48 37 131 99 199c48 52 121 101 223 101v-117c-219 0 -322 -144 -322 -397v-390h-166z"/>
    <glyph glyph-name="Rcommaaccent" unicode="Ŗ" horiz-adv-x="1106" d="M526 -423v29s71 31 71 106c0 22 -5 36 -10 46c-12 -12 -31 -27 -60 -27c-45 0 -81 32 -81 79s38 83 92 83c72 0 120 -64 120 -142c0 -133 -132 -174 -132 -174zM127 0v1358h370c262 0 485 -112 485 -374c0 -263 -223 -374 -485 -374h-156l740 -610h-81l-695 573v-573 h-178zM305 664h142c245 0 346 108 346 320c0 211 -101 320 -346 320h-142v-640z"/>
    <glyph glyph-name="rcommaaccent" unicode="ŗ" horiz-adv-x="676" d="M186 -423v29s71 31 71 106c0 22 -5 36 -10 46c-12 -12 -31 -27 -60 -27c-45 0 -81 32 -81 79s38 83 92 83c72 0 120 -64 120 -142c0 -133 -132 -174 -132 -174zM123 0v886h166v-282c8 48 37 131 99 199c48 52 121 101 223 101v-117c-219 0 -322 -144 -322 -397v-390h-166 z"/>
    <glyph glyph-name="Rcaron" unicode="Ř" horiz-adv-x="1106" d="M492 1468l-234 300l46 5l188 -134l187 134l46 -5zM127 0v1358h370c262 0 485 -112 485 -374c0 -263 -223 -374 -485 -374h-156l740 -610h-81l-695 573v-573h-178zM305 664h142c245 0 346 108 346 320c0 211 -101 320 -346 320h-142v-640z"/>
    <glyph glyph-name="rcaron" unicode="ř" horiz-adv-x="676" d="M367 1008l-234 300l46 5l188 -134l187 134l46 -5zM123 0v886h166v-282c8 48 37 131 99 199c48 52 121 101 223 101v-117c-219 0 -322 -144 -322 -397v-390h-166z"/>
    <glyph glyph-name="Sacute" unicode="Ś" horiz-adv-x="1008" d="M414 1468l-50 9l217 259c17 20 34 37 63 37c33 0 58 -24 58 -55c0 -30 -20 -48 -38 -62zM89 106v93s155 -161 386 -161c175 0 293 93 293 242c0 130 -85 217 -279 356c-222 158 -367 262 -367 437c0 211 204 304 399 304c153 0 271 -56 271 -56v-87s-117 89 -274 89 c-137 0 -253 -70 -253 -194c0 -121 96 -186 271 -305c222 -152 393 -271 393 -483c0 -269 -256 -357 -457 -357c-238 0 -383 122 -383 122z"/>
    <glyph glyph-name="sacute" unicode="ś" horiz-adv-x="873" d="M360 1008l-50 9l217 259c17 20 34 37 63 37c33 0 58 -24 58 -55c0 -30 -20 -48 -38 -62zM85 84v100s122 -144 340 -144c150 0 222 68 222 142c0 92 -107 138 -228 193c-195 87 -320 155 -320 299c0 164 156 229 327 229c179 0 282 -71 282 -71v-91s-106 109 -284 109 c-107 0 -200 -39 -200 -130c0 -75 68 -107 202 -162c217 -88 366 -150 366 -320c0 -141 -110 -252 -368 -252c-237 0 -339 98 -339 98z"/>
    <glyph glyph-name="Scircumflex" unicode="Ŝ" horiz-adv-x="1008" d="M253 1473l234 300l233 -300l-46 -5l-187 135l-188 -135zM89 106v93s155 -161 386 -161c175 0 293 93 293 242c0 130 -85 217 -279 356c-222 158 -367 262 -367 437c0 211 204 304 399 304c153 0 271 -56 271 -56v-87s-117 89 -274 89c-137 0 -253 -70 -253 -194 c0 -121 96 -186 271 -305c222 -152 393 -271 393 -483c0 -269 -256 -357 -457 -357c-238 0 -383 122 -383 122z"/>
    <glyph glyph-name="scircumflex" unicode="ŝ" horiz-adv-x="873" d="M190 1013l234 300l233 -300l-46 -5l-187 135l-188 -135zM85 84v100s122 -144 340 -144c150 0 222 68 222 142c0 92 -107 138 -228 193c-195 87 -320 155 -320 299c0 164 156 229 327 229c179 0 282 -71 282 -71v-91s-106 109 -284 109c-107 0 -200 -39 -200 -130 c0 -75 68 -107 202 -162c217 -88 366 -150 366 -320c0 -141 -110 -252 -368 -252c-237 0 -339 98 -339 98z"/>
    <glyph glyph-name="Scedilla" unicode="Ş" horiz-adv-x="1008" d="M89 106v93s155 -161 386 -161c175 0 293 93 293 242c0 130 -85 217 -279 356c-222 158 -367 262 -367 437c0 211 204 304 399 304c153 0 271 -56 271 -56v-87s-117 89 -274 89c-137 0 -253 -70 -253 -194c0 -121 96 -186 271 -305c222 -152 393 -271 393 -483 c0 -231 -188 -328 -369 -351l-70 -77c75 -10 156 -66 156 -159c0 -90 -76 -155 -204 -155c-74 0 -114 23 -114 23l-5 46s49 -21 101 -21c86 0 110 54 110 102c0 82 -77 123 -160 123l120 112h-22c-238 0 -383 122 -383 122z"/>
    <glyph glyph-name="scedilla" unicode="ş" horiz-adv-x="873" d="M85 84v99c6 -7 127 -143 340 -143c150 0 222 68 222 142c0 92 -107 138 -228 193c-195 87 -320 155 -320 299c0 164 156 229 327 229c179 0 282 -71 282 -71v-91s-106 109 -284 109c-107 0 -200 -39 -200 -130c0 -75 68 -107 202 -162c217 -88 366 -150 366 -320 c0 -130 -94 -235 -311 -250l-68 -75c75 -10 156 -66 156 -159c0 -90 -76 -155 -204 -155c-74 0 -114 23 -114 23l-5 46s49 -21 101 -21c86 0 110 54 110 102c0 82 -77 123 -160 123l122 114c-234 2 -334 98 -334 98z"/>
    <glyph glyph-name="Scaron" unicode="Š" horiz-adv-x="1008" d="M487 1468l-234 300l46 5l188 -134l187 134l46 -5zM89 106v93s155 -161 386 -161c175 0 293 93 293 242c0 130 -85 217 -279 356c-222 158 -367 262 -367 437c0 211 204 304 399 304c153 0 271 -56 271 -56v-87s-117 89 -274 89c-137 0 -253 -70 -253 -194 c0 -121 96 -186 271 -305c222 -152 393 -271 393 -483c0 -269 -256 -357 -457 -357c-238 0 -383 122 -383 122z"/>
    <glyph glyph-name="scaron" unicode="š" horiz-adv-x="873" d="M424 1008l-234 300l46 5l188 -134l187 134l46 -5zM85 84v100s122 -144 340 -144c150 0 222 68 222 142c0 92 -107 138 -228 193c-195 87 -320 155 -320 299c0 164 156 229 327 229c179 0 282 -71 282 -71v-91s-106 109 -284 109c-107 0 -200 -39 -200 -130 c0 -75 68 -107 202 -162c217 -88 366 -150 366 -320c0 -141 -110 -252 -368 -252c-237 0 -339 98 -339 98z"/>
    <glyph glyph-name="Tcommaaccent" unicode="Ţ" horiz-adv-x="1175" d="M556 -423v29s71 31 71 106c0 22 -5 36 -10 46c-12 -12 -31 -27 -60 -27c-45 0 -81 32 -81 79s38 83 92 83c72 0 120 -64 120 -142c0 -133 -132 -174 -132 -174zM499 0v1304h-416v54h1009v-54h-415v-1304h-178z"/>
    <glyph glyph-name="tcommaaccent" unicode="ţ" horiz-adv-x="694" d="M340 -423v29s71 31 71 106c0 22 -5 36 -10 46c-12 -12 -31 -27 -60 -27c-45 0 -81 32 -81 79s38 83 92 83c72 0 120 -64 120 -142c0 -133 -132 -174 -132 -174zM215 370v463h-150v53h150v211l166 119v-330h254v-53h-254v-532c0 -104 0 -255 131 -255c46 0 79 11 79 11 v-54s-38 -11 -79 -11c-244 0 -297 165 -297 378z"/>
    <glyph glyph-name="Tcaron" unicode="Ť" horiz-adv-x="1175" d="M587 1468l-234 300l46 5l188 -134l187 134l46 -5zM499 0v1304h-416v54h1009v-54h-415v-1304h-178z"/>
    <glyph glyph-name="tcaron" unicode="ť" horiz-adv-x="694" d="M486 1019l53 326c8 50 30 69 62 69c35 0 58 -23 58 -56c0 -9 -2 -24 -11 -48l-111 -291h-51zM215 370v463h-150v53h150v211l166 119v-330h254v-53h-254v-532c0 -104 0 -255 131 -255c46 0 79 11 79 11v-54s-38 -11 -79 -11c-244 0 -297 165 -297 378z"/>
    <glyph glyph-name="Tbar" unicode="Ŧ" horiz-adv-x="1175" d="M499 0v764h-303v54h303v486h-416v54h1009v-54h-416v-486h303v-54h-303v-764h-177z"/>
    <glyph glyph-name="tbar" unicode="ŧ" horiz-adv-x="694" d="M215 370v158h-179v54h179v251h-150v53h150v211l166 119v-330h254v-53h-254v-251h254v-54h-254v-227c0 -104 0 -255 131 -255c46 0 79 11 79 11v-54s-38 -11 -79 -11c-244 0 -297 165 -297 378z"/>
    <glyph glyph-name="Utilde" unicode="Ũ" horiz-adv-x="1205" d="M1098 1358v-807c0 -188 -22 -338 -140 -457c-69 -71 -176 -117 -330 -117c-125 0 -263 28 -358 115c-132 119 -163 277 -163 547v719h178v-758c0 -246 11 -363 76 -453c55 -76 144 -116 267 -116c130 0 226 37 290 99c109 106 125 264 125 424v804h55zM355 1494 c0 102 54 183 172 183c105 0 184 -67 274 -67c40 0 77 21 83 80h42c0 -100 -53 -187 -173 -187c-104 0 -187 67 -269 67c-45 0 -81 -17 -87 -76h-42z"/>
    <glyph glyph-name="utilde" unicode="ũ" horiz-adv-x="1006" d="M117 321v565h166v-565c0 -133 15 -281 164 -281c194 0 270 248 270 475v371h166v-886h-166v283c-24 -123 -96 -297 -304 -297c-182 0 -296 133 -296 335zM223 1034c0 102 54 183 172 183c105 0 184 -67 274 -67c40 0 77 21 83 80h42c0 -100 -53 -187 -173 -187 c-104 0 -187 67 -269 67c-45 0 -81 -17 -87 -76h-42z"/>
    <glyph glyph-name="Umacron" unicode="Ū" horiz-adv-x="1205" d="M1098 1358v-807c0 -188 -22 -338 -140 -457c-69 -71 -176 -117 -330 -117c-125 0 -263 28 -358 115c-132 119 -163 277 -163 547v719h178v-758c0 -246 11 -363 76 -453c55 -76 144 -116 267 -116c130 0 226 37 290 99c109 106 125 264 125 424v804h55zM391 1532v71h501 v-71h-501z"/>
    <glyph glyph-name="umacron" unicode="ū" horiz-adv-x="1006" d="M117 321v565h166v-565c0 -133 15 -281 164 -281c194 0 270 248 270 475v371h166v-886h-166v283c-24 -123 -96 -297 -304 -297c-182 0 -296 133 -296 335zM250 1072v71h501v-71h-501z"/>
    <glyph glyph-name="Ubreve" unicode="Ŭ" horiz-adv-x="1205" d="M1098 1358v-807c0 -188 -22 -338 -140 -457c-69 -71 -176 -117 -330 -117c-125 0 -263 28 -358 115c-132 119 -163 277 -163 547v719h178v-758c0 -246 11 -363 76 -453c55 -76 144 -116 267 -116c130 0 226 37 290 99c109 106 125 264 125 424v804h55zM828 1708l45 14 c0 -151 -99 -253 -232 -253c-134 0 -233 102 -233 253l45 -14c19 -74 83 -123 188 -123c104 0 169 49 187 123z"/>
    <glyph glyph-name="ubreve" unicode="ŭ" horiz-adv-x="1006" d="M117 321v565h166v-565c0 -133 15 -281 164 -281c194 0 270 248 270 475v371h166v-886h-166v283c-24 -123 -96 -297 -304 -297c-182 0 -296 133 -296 335zM687 1248l45 14c0 -151 -99 -253 -232 -253c-134 0 -233 102 -233 253l45 -14c19 -74 83 -123 188 -123 c104 0 169 49 187 123z"/>
    <glyph glyph-name="Uring" unicode="Ů" horiz-adv-x="1205" d="M642 1474c-99 0 -175 50 -175 136c0 88 76 138 175 138c98 0 173 -50 173 -138c0 -86 -75 -136 -173 -136zM642 1514c41 0 67 31 67 96c0 64 -26 97 -67 97c-42 0 -68 -33 -68 -97c0 -65 26 -96 68 -96zM1098 1358v-807c0 -188 -22 -338 -140 -457 c-69 -71 -176 -117 -330 -117c-125 0 -263 28 -358 115c-132 119 -163 277 -163 547v719h178v-758c0 -246 11 -363 76 -453c55 -76 144 -116 267 -116c130 0 226 37 290 99c109 106 125 264 125 424v804h55z"/>
    <glyph glyph-name="uring" unicode="ů" horiz-adv-x="1006" d="M501 1014c-99 0 -175 50 -175 136c0 88 76 138 175 138c98 0 173 -50 173 -138c0 -86 -75 -136 -173 -136zM501 1054c41 0 67 31 67 96c0 64 -26 97 -67 97c-42 0 -68 -33 -68 -97c0 -65 26 -96 68 -96zM117 321v565h166v-565c0 -133 15 -281 164 -281 c194 0 270 248 270 475v371h166v-886h-166v283c-24 -123 -96 -297 -304 -297c-182 0 -296 133 -296 335z"/>
    <glyph glyph-name="Uhungarumlaut" unicode="Ű" horiz-adv-x="1205" d="M1098 1358v-807c0 -188 -22 -338 -140 -457c-69 -71 -176 -117 -330 -117c-125 0 -263 28 -358 115c-132 119 -163 277 -163 547v719h178v-758c0 -246 11 -363 76 -453c55 -76 144 -116 267 -116c130 0 226 37 290 99c109 106 125 264 125 424v804h55zM631 1477l217 259 c17 20 35 37 63 37c34 0 58 -24 58 -55c0 -30 -20 -48 -38 -62l-249 -188zM418 1468l-50 9l217 259c17 20 34 37 63 37c33 0 58 -24 58 -55c0 -30 -20 -48 -38 -62z"/>
    <glyph glyph-name="uhungarumlaut" unicode="ű" horiz-adv-x="1006" d="M117 321v565h166v-565c0 -133 15 -281 164 -281c194 0 270 248 270 475v371h166v-886h-166v283c-24 -123 -96 -297 -304 -297c-182 0 -296 133 -296 335zM479 1017l217 259c17 20 35 37 63 37c34 0 58 -24 58 -55c0 -30 -20 -48 -38 -62l-249 -188zM266 1008l-50 9 l217 259c17 20 34 37 63 37c33 0 58 -24 58 -55c0 -30 -20 -48 -38 -62z"/>
    <glyph glyph-name="Uogonek" unicode="Ų" horiz-adv-x="1205" d="M760 -276v-50s-52 -47 -139 -47c-86 0 -131 46 -131 116c0 99 93 182 198 237c-19 -2 -39 -3 -60 -3c-125 0 -263 28 -358 115c-132 119 -163 277 -163 547v719h178v-758c0 -246 11 -363 76 -453c55 -76 144 -116 267 -116c130 0 226 37 290 99c109 106 125 264 125 424 v804h55v-807c0 -188 -22 -338 -140 -457c-40 -41 -93 -74 -159 -94c-118 -46 -197 -151 -197 -236c0 -40 16 -79 64 -79c56 0 94 39 94 39z"/>
    <glyph glyph-name="uogonek" unicode="ų" horiz-adv-x="1006" d="M117 321v565h166v-565c0 -133 15 -281 164 -281c194 0 270 248 270 475v371h166v-886h-98c-118 -46 -197 -151 -197 -236c0 -40 16 -79 64 -79c56 0 94 39 94 39v-50s-52 -47 -139 -47c-86 0 -131 46 -131 116c0 112 121 204 241 257v283c-24 -123 -96 -297 -304 -297 c-182 0 -296 133 -296 335z"/>
    <glyph glyph-name="Wcircumflex" unicode="Ŵ" horiz-adv-x="2018" d="M805 1473l234 300l233 -300l-46 -5l-187 135l-188 -135zM591 -23l-522 1381h186l399 -1060l409 1083l448 -1089l382 1066h56l-493 -1381l-455 1095z"/>
    <glyph glyph-name="wcircumflex" unicode="ŵ" horiz-adv-x="1517" d="M554 1013l234 300l233 -300l-46 -5l-187 135l-188 -135zM426 -21l-359 907h172l252 -642l318 663l328 -665l255 644h58l-359 -907l-338 685z"/>
    <glyph glyph-name="Ycircumflex" unicode="Ŷ" horiz-adv-x="1190" d="M503 0v609l-442 749h201l402 -685l402 685h63l-448 -765v-593h-178zM388 1473l234 300l233 -300l-46 -5l-187 135l-188 -135z"/>
    <glyph glyph-name="ycircumflex" unicode="ŷ" horiz-adv-x="938" d="M448 41l-380 845h174l292 -650l291 650h59l-600 -1344h-59zM273 1013l234 300l233 -300l-46 -5l-187 135l-188 -135z"/>
    <glyph glyph-name="Ydieresis" unicode="Ÿ" horiz-adv-x="1190" d="M503 0v609l-442 749h201l402 -685l402 685h63l-448 -765v-593h-178zM781 1516c-49 0 -88 39 -88 88c0 48 39 87 88 87s88 -39 88 -87c0 -49 -39 -88 -88 -88zM465 1516c-49 0 -88 39 -88 88c0 48 39 87 88 87c48 0 87 -39 87 -87c0 -49 -39 -88 -87 -88z"/>
    <glyph glyph-name="Zacute" unicode="Ź" horiz-adv-x="1061" d="M450 1468l-50 9l217 259c17 20 34 37 63 37c33 0 58 -24 58 -55c0 -30 -20 -48 -38 -62zM65 0l687 1304h-606v54h824l-686 -1304h706v-54h-925z"/>
    <glyph glyph-name="zacute" unicode="ź" horiz-adv-x="832" d="M315 1008l-50 9l217 259c17 20 34 37 63 37c33 0 58 -24 58 -55c0 -30 -20 -48 -38 -62zM67 0l479 833h-436v53h641l-480 -832h498v-54h-702z"/>
    <glyph glyph-name="Zdotaccent" unicode="Ż" horiz-adv-x="1061" d="M65 0l687 1304h-606v54h824l-686 -1304h706v-54h-925zM533 1535c-49 0 -88 39 -88 88c0 48 39 87 88 87c48 0 87 -39 87 -87c0 -49 -39 -88 -87 -88z"/>
    <glyph glyph-name="zdotaccent" unicode="ż" horiz-adv-x="832" d="M67 0l479 833h-436v53h641l-480 -832h498v-54h-702zM422 1075c-49 0 -88 39 -88 88c0 48 39 87 88 87c48 0 87 -39 87 -87c0 -49 -39 -88 -87 -88z"/>
    <glyph glyph-name="Zcaron" unicode="Ž" horiz-adv-x="1061" d="M533 1468l-234 300l46 5l188 -134l187 134l46 -5zM65 0l687 1304h-606v54h824l-686 -1304h706v-54h-925z"/>
    <glyph glyph-name="zcaron" unicode="ž" horiz-adv-x="832" d="M422 1008l-234 300l46 5l188 -134l187 134l46 -5zM67 0l479 833h-436v53h641l-480 -832h498v-54h-702z"/>
    <glyph glyph-name="florin" unicode="ƒ" horiz-adv-x="1076" d="M-53 -333c0 0 37 -89 140 -89c285 0 293 686 342 1150h-307v54h313c40 349 130 572 392 572c134 0 172 -56 172 -56v-87c-2 5 -33 90 -158 90c-152 0 -203 -128 -232 -519h293v-54h-297c-38 -453 -127 -1204 -512 -1204c-105 0 -146 56 -146 56v87z"/>
    <glyph glyph-name="Aringacute" unicode="Ǻ" horiz-adv-x="1254" d="M527 1687l137 181c16 21 35 35 60 35c34 0 59 -25 59 -56c0 -29 -20 -49 -39 -61l-167 -108zM67 0l547 1361c-92 5 -161 54 -161 136c0 88 76 138 175 138c98 0 173 -50 173 -138c0 -83 -69 -132 -162 -136l548 -1361h-187l-165 411h-547l-165 -411h-56zM628 1401 c41 0 67 31 67 96c0 64 -26 97 -67 97c-42 0 -68 -33 -68 -97c0 -65 26 -96 68 -96zM309 465h504l-252 627z"/>
    <glyph glyph-name="aringacute" unicode="ǻ" horiz-adv-x="990" d="M403 1307l138 181c15 19 31 29 51 29c30 0 51 -22 51 -49c0 -24 -17 -41 -33 -52l-175 -114zM930 70v-47s-26 -23 -83 -23c-69 0 -154 35 -197 144c-39 -79 -121 -158 -285 -158c-163 0 -284 79 -284 237c0 169 139 227 352 309c164 64 183 100 183 178 c0 69 -19 140 -148 140c-181 0 -281 -134 -285 -141v99s100 95 301 95c275 0 304 -180 304 -284v-367c0 -189 58 -198 84 -198c32 0 58 16 58 16zM622 317v226c0 24 0 51 -1 72c-23 -58 -62 -79 -175 -137c-129 -66 -194 -125 -194 -250c0 -110 56 -188 160 -188 c105 0 184 65 222 158c-8 34 -12 74 -12 119zM476 977c-99 0 -175 50 -175 136c0 88 76 138 175 138c98 0 173 -50 173 -138c0 -86 -75 -136 -173 -136zM476 1017c41 0 67 31 67 96c0 64 -26 97 -67 97c-42 0 -68 -33 -68 -97c0 -65 26 -96 68 -96z"/>
    <glyph glyph-name="AEacute" unicode="Ǽ" horiz-adv-x="1628" d="M1053 1468l-50 9l217 259c17 20 34 37 63 37c33 0 58 -24 58 -55c0 -30 -20 -48 -38 -62zM55 0l874 1358h598v-54h-420v-584h323v-54h-323v-612h420v-54h-598v522h-473l-336 -522h-65zM491 576h438v680z"/>
    <glyph glyph-name="aeacute" unicode="ǽ" horiz-adv-x="1464" d="M663 1008l-50 9l217 259c17 20 34 37 63 37c33 0 58 -24 58 -55c0 -30 -20 -48 -38 -62zM1315 206v-100s-86 -120 -288 -120c-187 0 -296 89 -353 211c-25 -85 -103 -211 -309 -211c-163 0 -284 79 -284 237c0 169 139 227 352 309c164 64 183 100 183 178 c0 69 -19 140 -148 140c-181 0 -281 -134 -285 -141v99s100 95 301 95c140 0 213 -52 250 -115c69 74 163 115 269 115c227 0 370 -185 376 -443h-600c2 -223 51 -420 255 -420c165 0 255 122 281 166zM779 514h424c-9 203 -59 336 -202 336c-141 0 -213 -141 -222 -336z M252 228c0 -110 56 -188 160 -188c125 0 215 93 239 218c-20 64 -29 135 -29 205c0 38 0 131 -1 152c-23 -58 -62 -79 -175 -137c-129 -66 -194 -125 -194 -250z"/>
    <glyph glyph-name="Oslashacute" unicode="Ǿ" horiz-adv-x="1614" d="M465 -147l66 170c-265 100 -448 344 -448 656c0 401 320 705 724 705c85 0 166 -14 242 -39l64 163h44l-69 -177c262 -104 443 -350 443 -652c0 -411 -319 -705 -724 -705c-83 0 -163 13 -237 36l-61 -157h-44zM558 92l466 1190c-64 31 -138 48 -217 48 c-318 0 -530 -269 -530 -651c0 -272 106 -485 281 -587zM595 73c63 -30 134 -45 212 -45c319 0 531 267 531 651c0 268 -105 480 -277 583zM720 1468l-50 9l217 259c17 20 34 37 63 37c33 0 58 -24 58 -55c0 -30 -20 -48 -38 -62z"/>
    <glyph glyph-name="oslashacute" unicode="ǿ" horiz-adv-x="1018" d="M159 -127l107 186c-116 79 -188 218 -188 382c0 260 181 462 431 462c78 0 150 -20 212 -56l91 159h46l-104 -180c114 -82 186 -222 186 -385c0 -260 -182 -455 -431 -455c-78 0 -148 18 -209 52l-95 -165h-46zM317 146l360 626c-41 48 -96 78 -168 78 c-186 0 -259 -190 -259 -409c0 -116 20 -221 67 -295zM342 112c41 -46 95 -72 167 -72c184 0 260 181 260 401c0 114 -21 220 -67 295zM384 1008l-50 9l217 259c17 20 34 37 63 37c33 0 58 -24 58 -55c0 -30 -20 -48 -38 -62z"/>
    <glyph glyph-name="Scommaaccent" unicode="Ș" horiz-adv-x="1008" d="M463 -423v29s71 31 71 106c0 22 -5 36 -10 46c-12 -12 -31 -27 -60 -27c-45 0 -81 32 -81 79s38 83 92 83c72 0 120 -64 120 -142c0 -133 -132 -174 -132 -174zM89 106v93s155 -161 386 -161c175 0 293 93 293 242c0 130 -85 217 -279 356c-222 158 -367 262 -367 437 c0 211 204 304 399 304c153 0 271 -56 271 -56v-87s-117 89 -274 89c-137 0 -253 -70 -253 -194c0 -121 96 -186 271 -305c222 -152 393 -271 393 -483c0 -269 -256 -357 -457 -357c-238 0 -383 122 -383 122z"/>
    <glyph glyph-name="scommaaccent" unicode="ș" horiz-adv-x="873" d="M398 -423v29s71 31 71 106c0 22 -5 36 -10 46c-12 -12 -31 -27 -60 -27c-45 0 -81 32 -81 79s38 83 92 83c72 0 120 -64 120 -142c0 -133 -132 -174 -132 -174zM85 84v100s122 -144 340 -144c150 0 222 68 222 142c0 92 -107 138 -228 193c-195 87 -320 155 -320 299 c0 164 156 229 327 229c179 0 282 -71 282 -71v-91s-106 109 -284 109c-107 0 -200 -39 -200 -130c0 -75 68 -107 202 -162c217 -88 366 -150 366 -320c0 -141 -110 -252 -368 -252c-237 0 -339 98 -339 98z"/>
    <glyph glyph-name="uni021A" unicode="Ț" horiz-adv-x="1175" d="M556 -423v29s71 31 71 106c0 22 -5 36 -10 46c-12 -12 -31 -27 -60 -27c-45 0 -81 32 -81 79s38 83 92 83c72 0 120 -64 120 -142c0 -133 -132 -174 -132 -174zM499 0v1304h-416v54h1009v-54h-415v-1304h-178z"/>
    <glyph glyph-name="uni021B" unicode="ț" horiz-adv-x="694" d="M340 -423v29s71 31 71 106c0 22 -5 36 -10 46c-12 -12 -31 -27 -60 -27c-45 0 -81 32 -81 79s38 83 92 83c72 0 120 -64 120 -142c0 -133 -132 -174 -132 -174zM215 370v463h-150v53h150v211l166 119v-330h254v-53h-254v-532c0 -104 0 -255 131 -255c46 0 79 11 79 11 v-54s-38 -11 -79 -11c-244 0 -297 165 -297 378z"/>
    <glyph glyph-name="uni0237" unicode="ȷ" horiz-adv-x="436" d="M135 230v656h166v-582c0 -669 -372 -762 -372 -762v48c90 73 206 175 206 640z"/>
    <glyph glyph-name="circumflex" unicode="ˆ" horiz-adv-x="673" d="M103 1013l234 300l233 -300l-46 -5l-187 135l-188 -135z"/>
    <glyph glyph-name="caron" unicode="ˇ" horiz-adv-x="673" d="M337 1008l-234 300l46 5l188 -134l187 134l46 -5z"/>
    <glyph glyph-name="uni02C9" unicode="ˉ" horiz-adv-x="707" d="M103 1072v71h501v-71h-501z"/>
    <glyph glyph-name="breve" unicode="˘" horiz-adv-x="662" d="M518 1248l45 14c0 -151 -99 -253 -232 -253c-134 0 -233 102 -233 253l45 -14c19 -74 83 -123 188 -123c104 0 169 49 187 123z"/>
    <glyph glyph-name="dotaccent" unicode="˙" horiz-adv-x="381" d="M191 1075c-49 0 -88 39 -88 88c0 48 39 87 88 87c48 0 87 -39 87 -87c0 -49 -39 -88 -87 -88z"/>
    <glyph glyph-name="ring" unicode="˚" horiz-adv-x="554" d="M278 1014c-99 0 -175 50 -175 136c0 88 76 138 175 138c98 0 173 -50 173 -138c0 -86 -75 -136 -173 -136zM278 1054c41 0 67 31 67 96c0 64 -26 97 -67 97c-42 0 -68 -33 -68 -97c0 -65 26 -96 68 -96z"/>
    <glyph glyph-name="ogonek" unicode="˛" horiz-adv-x="507" d="M365 -276v-50s-52 -47 -139 -47c-86 0 -131 46 -131 116c0 112 121 204 241 257h68c-118 -46 -197 -151 -197 -236c0 -40 16 -79 64 -79c56 0 94 39 94 39z"/>
    <glyph glyph-name="tilde" unicode="˜" horiz-adv-x="777" d="M103 1034c0 102 54 183 172 183c105 0 184 -67 274 -67c40 0 77 21 83 80h42c0 -100 -53 -187 -173 -187c-104 0 -187 67 -269 67c-45 0 -81 -17 -87 -76h-42z"/>
    <glyph glyph-name="hungarumlaut" unicode="˝" horiz-adv-x="811" d="M363 1017l217 259c17 20 35 37 63 37c34 0 58 -24 58 -55c0 -30 -20 -48 -38 -62l-249 -188zM150 1008l-50 9l217 259c17 20 34 37 63 37c33 0 58 -24 58 -55c0 -30 -20 -48 -38 -62z"/>
    <glyph glyph-name="anoteleia" unicode="·" horiz-adv-x="403" d="M107 444c0 52 42 93 94 93s95 -41 95 -93s-43 -94 -95 -94s-94 42 -94 94z"/>
    <glyph glyph-name="pi" unicode="π" horiz-adv-x="1186" d="M273 0v841h-210v54h1050v-54h-210v-541c0 -123 8 -255 135 -255c38 0 75 11 75 11v-54s-35 -11 -92 -11c-232 0 -284 180 -284 381v469h-298v-841h-166z"/>
    <glyph glyph-name="Wgrave" unicode="Ẁ" horiz-adv-x="2018" d="M591 -23l-522 1381h186l399 -1060l409 1083l448 -1089l382 1066h56l-493 -1381l-455 1095zM1192 1477l-50 -9l-250 188c-18 14 -38 32 -38 62c0 31 25 55 58 55c29 0 46 -17 63 -37z"/>
    <glyph glyph-name="wgrave" unicode="ẁ" horiz-adv-x="1517" d="M426 -21l-359 907h172l252 -642l318 663l328 -665l255 644h58l-359 -907l-338 685zM919 1017l-50 -9l-250 188c-18 14 -38 32 -38 62c0 31 25 55 58 55c29 0 46 -17 63 -37z"/>
    <glyph glyph-name="Wacute" unicode="Ẃ" horiz-adv-x="2018" d="M959 1468l-50 9l217 259c17 20 34 37 63 37c33 0 58 -24 58 -55c0 -30 -20 -48 -38 -62zM591 -23l-522 1381h186l399 -1060l409 1083l448 -1089l382 1066h56l-493 -1381l-455 1095z"/>
    <glyph glyph-name="wacute" unicode="ẃ" horiz-adv-x="1517" d="M707 1008l-50 9l217 259c17 20 34 37 63 37c33 0 58 -24 58 -55c0 -30 -20 -48 -38 -62zM426 -21l-359 907h172l252 -642l318 663l328 -665l255 644h58l-359 -907l-338 685z"/>
    <glyph glyph-name="Wdieresis" unicode="Ẅ" horiz-adv-x="2018" d="M1198 1516c-49 0 -88 39 -88 88c0 48 39 87 88 87s88 -39 88 -87c0 -49 -39 -88 -88 -88zM882 1516c-49 0 -88 39 -88 88c0 48 39 87 88 87c48 0 87 -39 87 -87c0 -49 -39 -88 -87 -88zM591 -23l-522 1381h186l399 -1060l409 1083l448 -1089l382 1066h56l-493 -1381 l-455 1095z"/>
    <glyph glyph-name="wdieresis" unicode="ẅ" horiz-adv-x="1517" d="M947 1056c-49 0 -88 39 -88 88c0 48 39 87 88 87s88 -39 88 -87c0 -49 -39 -88 -88 -88zM631 1056c-49 0 -88 39 -88 88c0 48 39 87 88 87c48 0 87 -39 87 -87c0 -49 -39 -88 -87 -88zM426 -21l-359 907h172l252 -642l318 663l328 -665l255 644h58l-359 -907l-338 685z "/>
    <glyph glyph-name="Ygrave" unicode="Ỳ" horiz-adv-x="1190" d="M503 0v609l-442 749h201l402 -685l402 685h63l-448 -765v-593h-178zM750 1477l-50 -9l-250 188c-18 14 -38 32 -38 62c0 31 25 55 58 55c29 0 46 -17 63 -37z"/>
    <glyph glyph-name="ygrave" unicode="ỳ" horiz-adv-x="938" d="M448 41l-380 845h174l292 -650l291 650h59l-600 -1344h-59zM635 1017l-50 -9l-250 188c-18 14 -38 32 -38 62c0 31 25 55 58 55c29 0 46 -17 63 -37z"/>
    <glyph glyph-name="uni2011" unicode="‑" horiz-adv-x="837" d="M109 411v54h619v-54h-619z"/>
    <glyph glyph-name="figuredash" unicode="‒" horiz-adv-x="1151" d="M109 411v54h933v-54h-933z"/>
    <glyph glyph-name="endash" unicode="–" horiz-adv-x="1151" d="M109 411v54h933v-54h-933z"/>
    <glyph glyph-name="emdash" unicode="—" horiz-adv-x="1716" d="M109 411v54h1498v-54h-1498z"/>
    <glyph glyph-name="uni2015" unicode="―" horiz-adv-x="1716" d="M109 411v54h1498v-54h-1498z"/>
    <glyph glyph-name="quoteleft" unicode="‘" horiz-adv-x="424" d="M309 1396v-33s-150 -72 -150 -220c0 -36 8 -59 17 -74c13 14 34 29 68 29c52 0 93 -39 93 -92s-39 -99 -107 -99c-86 0 -143 75 -143 186c0 221 222 303 222 303z"/>
    <glyph glyph-name="quoteright" unicode="’" horiz-adv-x="424" d="M115 907v33s150 72 150 220c0 35 -8 58 -17 73c-13 -14 -34 -29 -68 -29c-52 0 -93 39 -93 93c0 53 39 99 107 99c85 0 143 -75 143 -186c0 -221 -222 -303 -222 -303z"/>
    <glyph glyph-name="quotesinglbase" unicode="‚" horiz-adv-x="424" d="M115 -319v33s150 72 150 220c0 35 -8 58 -17 73c-13 -14 -34 -29 -68 -29c-52 0 -93 39 -93 93c0 53 39 99 107 99c85 0 143 -75 143 -186c0 -221 -222 -303 -222 -303z"/>
    <glyph glyph-name="quotedblleft" unicode="“" horiz-adv-x="737" d="M309 1396v-33s-150 -72 -150 -220c0 -36 8 -59 17 -74c13 14 34 29 68 29c52 0 93 -39 93 -92s-39 -99 -107 -99c-86 0 -143 75 -143 186c0 221 222 303 222 303zM622 1396v-33s-150 -72 -150 -220c0 -36 8 -59 17 -74c13 14 34 29 68 29c52 0 93 -39 93 -92 s-39 -99 -107 -99c-86 0 -143 75 -143 186c0 221 222 303 222 303z"/>
    <glyph glyph-name="quotedblright" unicode="”" horiz-adv-x="737" d="M115 907v33s150 72 150 220c0 35 -8 58 -17 73c-13 -14 -34 -29 -68 -29c-52 0 -93 39 -93 93c0 53 39 99 107 99c85 0 143 -75 143 -186c0 -221 -222 -303 -222 -303zM428 907v33s150 72 150 220c0 35 -8 58 -17 73c-13 -14 -34 -29 -68 -29c-52 0 -93 39 -93 93 c0 53 39 99 107 99c85 0 143 -75 143 -186c0 -221 -222 -303 -222 -303z"/>
    <glyph glyph-name="quotedblbase" unicode="„" horiz-adv-x="737" d="M115 -319v33s150 72 150 220c0 35 -8 58 -17 73c-13 -14 -34 -29 -68 -29c-52 0 -93 39 -93 93c0 53 39 99 107 99c85 0 143 -75 143 -186c0 -221 -222 -303 -222 -303zM428 -319v33s150 72 150 220c0 35 -8 58 -17 73c-13 -14 -34 -29 -68 -29c-52 0 -93 39 -93 93 c0 53 39 99 107 99c85 0 143 -75 143 -186c0 -221 -222 -303 -222 -303z"/>
    <glyph glyph-name="dagger" unicode="†" horiz-adv-x="1079" d="M513 -458l-50 1316h-380l17 54h361l-16 446h189l-17 -446h379l-17 -54h-364l-49 -1316h-53z"/>
    <glyph glyph-name="daggerdbl" unicode="‡" horiz-adv-x="1079" d="M83 603l17 54h371l-8 201h-380l17 54h361l-16 446h189l-17 -446h379l-17 -54h-364l-8 -201h389l-17 -54h-374l-39 -1061h-53l-40 1061h-390z"/>
    <glyph glyph-name="bullet" unicode="•" horiz-adv-x="688" d="M344 218c-124 0 -225 101 -225 225s101 225 225 225s225 -101 225 -225s-101 -225 -225 -225z"/>
    <glyph glyph-name="ellipsis" unicode="…" horiz-adv-x="1208" d="M107 76c0 52 42 93 94 93s95 -41 95 -93s-43 -94 -95 -94s-94 42 -94 94zM510 76c0 52 42 93 94 93s95 -41 95 -93s-43 -94 -95 -94s-94 42 -94 94zM912 76c0 52 42 93 94 93s95 -41 95 -93s-43 -94 -95 -94s-94 42 -94 94z"/>
    <glyph glyph-name="perthousand" unicode="‰" horiz-adv-x="2431" d="M361 -98l848 1555h57l-848 -1555h-57zM403 712c-197 0 -340 144 -340 331s143 333 340 333c196 0 339 -146 339 -333s-143 -331 -339 -331zM403 764c144 0 186 153 186 279s-42 281 -186 281s-186 -155 -186 -281s42 -279 186 -279zM1690 313c0 187 143 333 340 333 c196 0 338 -146 338 -333s-142 -331 -338 -331c-197 0 -340 144 -340 331zM886 313c0 187 143 333 340 333s339 -146 339 -333s-142 -331 -339 -331s-340 144 -340 331zM1843 313c0 -126 43 -279 187 -279s186 153 186 279s-42 281 -186 281s-187 -155 -187 -281zM1040 313 c0 -126 42 -279 186 -279s186 153 186 279s-42 281 -186 281s-186 -155 -186 -281z"/>
    <glyph glyph-name="guilsinglleft" unicode="‹" horiz-adv-x="572" d="M424 126l-345 320l345 320l39 -38l-305 -282l304 -282z"/>
    <glyph glyph-name="guilsinglright" unicode="›" horiz-adv-x="572" d="M148 126l-38 38l302 282l-303 282l39 38l345 -320z"/>
    <glyph glyph-name="fraction" unicode="⁄" horiz-adv-x="285" d="M-257 -98h-49l848 1555h49z"/>
    <glyph glyph-name="zerosuperior" unicode="⁰" horiz-adv-x="657" d="M328 947c-128 0 -248 125 -248 354s120 354 248 354s249 -125 249 -354s-121 -354 -249 -354zM328 987c96 0 125 146 125 314s-29 314 -125 314s-124 -146 -124 -314s28 -314 124 -314z"/>
    <glyph glyph-name="foursuperior" unicode="⁴" horiz-adv-x="676" d="M350 960v162h-301l430 534v-494h136v-40h-136v-162h-129zM135 1162h215v267z"/>
    <glyph glyph-name="fivesuperior" unicode="⁵" horiz-adv-x="605" d="M162 1532l-21 -149c32 30 76 52 147 52c158 0 244 -108 244 -238c0 -120 -74 -250 -260 -250c-130 0 -179 62 -179 62v59s54 -81 156 -81c108 0 159 91 159 209c0 109 -39 199 -141 199c-93 0 -140 -77 -140 -77h-36l48 324h341l-40 -110h-278z"/>
    <glyph glyph-name="sixsuperior" unicode="⁶" horiz-adv-x="617" d="M423 1655v-40c-87 -23 -186 -106 -230 -253c32 53 79 73 137 73c122 0 230 -92 230 -239c0 -158 -124 -249 -249 -249c-119 0 -244 84 -244 274c0 284 226 403 356 434zM312 987c98 0 124 112 124 206c0 91 -24 202 -118 202c-99 0 -127 -121 -127 -213 c0 -84 23 -195 121 -195z"/>
    <glyph glyph-name="sevensuperior" unicode="⁷" horiz-adv-x="584" d="M118 960l274 640h-303v40h454l-292 -680h-133z"/>
    <glyph glyph-name="eightsuperior" unicode="⁸" horiz-adv-x="626" d="M316 947c-156 0 -259 67 -259 186c0 100 71 158 161 200c-54 39 -96 87 -96 162c0 102 84 160 193 160c123 0 183 -75 183 -147c0 -59 -36 -102 -91 -134c83 -47 162 -109 162 -226c0 -109 -81 -201 -253 -201zM368 1395c35 30 52 73 52 114c0 53 -29 106 -107 106 c-67 0 -98 -40 -98 -81c0 -63 73 -99 153 -139zM319 987c102 0 148 65 148 126c0 96 -117 138 -214 197c-62 -40 -94 -104 -94 -172c0 -109 78 -151 160 -151z"/>
    <glyph glyph-name="ninesuperior" unicode="⁹" horiz-adv-x="617" d="M194 947v40c87 22 186 106 229 252c-32 -52 -79 -72 -136 -72c-122 0 -230 92 -230 239c0 158 124 249 249 249c119 0 244 -84 244 -274c0 -284 -226 -403 -356 -434zM299 1207c99 0 127 121 127 213c0 84 -23 195 -121 195s-124 -112 -124 -206c0 -91 24 -202 118 -202z "/>
    <glyph glyph-name="uni2080" unicode="₀" horiz-adv-x="657" d="M328 -15c-128 0 -248 125 -248 354s120 354 248 354s249 -125 249 -354s-121 -354 -249 -354zM328 25c96 0 125 146 125 314s-29 314 -125 314s-124 -146 -124 -314s28 -314 124 -314z"/>
    <glyph glyph-name="uni2081" unicode="₁" horiz-adv-x="649" d="M77 0v40h193v523l-118 -78v48l247 162v-655h193v-40h-515z"/>
    <glyph glyph-name="uni2082" unicode="₂" horiz-adv-x="556" d="M39 0c0 0 285 243 285 521c0 88 -28 134 -94 134c-107 0 -150 -121 -150 -121v74s39 87 172 87c135 0 192 -89 192 -187c0 -170 -177 -338 -250 -398h317l-40 -110h-432z"/>
    <glyph glyph-name="uni2083" unicode="₃" horiz-adv-x="610" d="M125 535v71s34 87 170 87c123 0 178 -71 178 -149c0 -60 -30 -110 -79 -145c85 -23 155 -93 155 -199c0 -124 -97 -215 -268 -215c-141 0 -184 61 -184 61v60s66 -81 172 -81c104 0 156 79 156 171c0 67 -30 150 -99 168c-37 -13 -79 -20 -123 -20l10 43s34 21 94 23 c45 29 60 81 60 130c0 61 -25 113 -97 113c-110 0 -145 -118 -145 -118z"/>
    <glyph glyph-name="uni2084" unicode="₄" horiz-adv-x="676" d="M350 0v162h-301l430 534v-494h136v-40h-136v-162h-129zM135 202h215v267z"/>
    <glyph glyph-name="uni2085" unicode="₅" horiz-adv-x="605" d="M162 572l-21 -149c32 30 76 52 147 52c158 0 244 -108 244 -238c0 -120 -74 -250 -260 -250c-130 0 -179 62 -179 62v59s54 -81 156 -81c108 0 159 91 159 209c0 109 -39 199 -141 199c-93 0 -140 -77 -140 -77h-36l48 324h341l-40 -110h-278z"/>
    <glyph glyph-name="uni2086" unicode="₆" horiz-adv-x="617" d="M423 693v-40c-87 -23 -186 -106 -230 -253c32 53 79 73 137 73c122 0 230 -92 230 -239c0 -158 -124 -249 -249 -249c-119 0 -244 84 -244 274c0 284 226 403 356 434zM312 25c98 0 124 112 124 206c0 91 -24 202 -118 202c-99 0 -127 -121 -127 -213 c0 -84 23 -195 121 -195z"/>
    <glyph glyph-name="uni2087" unicode="₇" horiz-adv-x="584" d="M118 0l274 640h-303v40h454l-292 -680h-133z"/>
    <glyph glyph-name="uni2088" unicode="₈" horiz-adv-x="626" d="M316 -15c-156 0 -259 67 -259 186c0 100 71 158 161 200c-54 39 -96 87 -96 162c0 102 84 160 193 160c123 0 183 -75 183 -147c0 -59 -36 -102 -91 -134c83 -47 162 -109 162 -226c0 -109 -81 -201 -253 -201zM368 433c35 30 52 73 52 114c0 53 -29 106 -107 106 c-67 0 -98 -40 -98 -81c0 -63 73 -99 153 -139zM319 25c102 0 148 65 148 126c0 96 -117 138 -214 197c-62 -40 -94 -104 -94 -172c0 -109 78 -151 160 -151z"/>
    <glyph glyph-name="uni2089" unicode="₉" horiz-adv-x="617" d="M194 -15v40c87 22 186 106 229 252c-32 -52 -79 -72 -136 -72c-122 0 -230 92 -230 239c0 158 124 249 249 249c119 0 244 -84 244 -274c0 -284 -226 -403 -356 -434zM299 245c99 0 127 121 127 213c0 84 -23 195 -121 195s-124 -112 -124 -206c0 -91 24 -202 118 -202z "/>
    <glyph glyph-name="Euro" unicode="€" horiz-adv-x="1083" d="M49 531l18 54h130c-3 30 -4 61 -4 94c0 32 1 63 3 94h-147l18 54h135c46 339 248 557 490 557c157 0 258 -94 258 -94v-106s-87 146 -258 146c-192 0 -290 -193 -312 -503h502l-19 -54h-486c-2 -30 -2 -61 -2 -93c0 -33 0 -65 2 -95h416l-19 -54h-394 c22 -309 120 -503 314 -503c165 0 265 137 270 144v-104s-113 -94 -269 -94c-232 0 -446 203 -493 557h-153z"/>
    <glyph glyph-name="numero" unicode="№" horiz-adv-x="1987" d="M1319 1063c0 185 127 321 304 321c178 0 306 -136 306 -321s-128 -318 -306 -318c-177 0 -304 133 -304 318zM1623 795c125 0 155 140 155 268s-30 271 -155 271c-124 0 -153 -143 -153 -271s29 -268 153 -268zM127 0v1381l1003 -1087v1064h54v-1381l-1003 1087v-1064 h-54z"/>
    <glyph glyph-name="uni2117" unicode="℗" horiz-adv-x="1614" d="M83 679c0 408 324 705 724 705s724 -297 724 -705s-324 -705 -724 -705s-724 297 -724 705zM138 679c0 -378 301 -662 669 -662s668 284 668 662s-300 662 -668 662s-669 -284 -669 -662zM582 271v816h264c158 0 284 -66 284 -223c0 -161 -128 -232 -284 -232h-153v-361 h-111zM693 675h126c128 0 190 68 190 189c0 119 -61 180 -190 180h-126v-369z"/>
    <glyph glyph-name="trademark" unicode="™" horiz-adv-x="824" d="M353 1041l55 322l148 -240l139 240l52 -322h-66l-30 190l-112 -196l-123 200l-32 -194h-31zM154 1041v287h-101v30h268v-30h-102v-287h-65z"/>
    <glyph glyph-name="Omega" unicode="Ω" horiz-adv-x="1621" d="M161 0l-64 168h443l-2 32c-104 45 -406 200 -406 564c0 335 258 620 679 620s679 -285 679 -620c0 -364 -303 -519 -408 -564l-2 -32h444l-64 -168h-445l15 232s266 147 266 537c0 300 -144 561 -485 561s-485 -261 -485 -561c0 -390 266 -537 266 -537l15 -232h-446z "/>
    <glyph glyph-name="estimated" unicode="℮" horiz-adv-x="1789" d="M1488 292h131c-152 -202 -399 -318 -721 -318c-457 0 -819 286 -819 705c0 409 362 705 819 705s818 -301 818 -705v-27h-1443c14 -384 274 -624 625 -624c249 0 467 95 590 264zM273 706h1249c-12 389 -274 624 -624 624c-351 0 -612 -240 -625 -624z"/>
    <glyph glyph-name="partialdiff" unicode="∂" horiz-adv-x="1066" d="M346 1110h-50c51 129 174 274 348 274c239 0 325 -217 325 -532c0 -478 -198 -878 -565 -878c-215 0 -317 129 -317 335c0 304 222 578 506 578c179 0 262 -112 293 -239c6 48 9 98 9 151c0 318 -114 459 -278 459c-96 0 -183 -48 -271 -148zM290 319 c0 -71 11 -269 175 -269c161 0 330 184 398 472c-22 176 -104 291 -247 291c-224 0 -326 -277 -326 -494z"/>
    <glyph glyph-name="Delta" unicode="∆" horiz-adv-x="1255" d="M67 0l560 1393l560 -1393h-1120zM144 54h834l-417 1038z"/>
    <glyph glyph-name="product" unicode="∏" horiz-adv-x="1488" d="M380 -191v1495h-297v54h1322v-54h-297v-1495h-177v1495h-374v-1495h-177z"/>
    <glyph glyph-name="summation" unicode="∑" horiz-adv-x="1079" d="M37 -191l516 718l-516 831h897l19 -54h-683l421 -678l-467 -649h827l-59 -168h-955z"/>
    <glyph glyph-name="minus" unicode="−" horiz-adv-x="1122" d="M109 437v53h904v-53h-904z"/>
    <glyph glyph-name="radical" unicode="√" horiz-adv-x="1223" d="M49 554l-24 48l333 149l357 -712l416 1634h57l-499 -1957l-460 919z"/>
    <glyph glyph-name="infinity" unicode="∞" horiz-adv-x="1526" d="M763 430l-156 -111c-88 -62 -157 -95 -258 -95c-157 0 -280 89 -280 240s124 239 279 239c100 0 169 -31 259 -95l156 -112l156 112c90 64 159 95 259 95c155 0 279 -89 279 -239s-124 -240 -280 -240c-98 0 -169 31 -258 95zM809 463l143 -102c90 -64 151 -84 210 -84 c117 0 161 100 161 186c0 88 -44 187 -159 187c-60 0 -121 -19 -212 -84zM717 463l-143 103c-91 65 -152 84 -213 84c-115 0 -158 -98 -158 -187c0 -87 42 -186 159 -186c60 0 122 20 212 84z"/>
    <glyph glyph-name="integral" unicode="∫" horiz-adv-x="679" d="M205 -137v893c0 397 52 616 261 616c105 0 126 -55 126 -55v-87s-28 89 -116 89c-86 0 -106 -84 -106 -282v-893c0 -398 -72 -616 -281 -616c-105 0 -126 55 -126 55v87s28 -89 116 -89c86 0 126 85 126 282z"/>
    <glyph glyph-name="approxequal" unicode="≈" horiz-adv-x="1177" d="M109 501c12 60 74 200 242 200c162 0 342 -140 478 -140c120 0 173 102 185 146h54c-12 -60 -75 -200 -242 -200c-163 0 -343 140 -478 140c-120 0 -173 -102 -185 -146h-54zM109 221c12 59 74 199 242 199c162 0 342 -140 478 -140c120 0 173 102 185 146h54 c-12 -60 -75 -199 -242 -199c-163 0 -343 139 -478 139c-120 0 -173 -102 -185 -145h-54z"/>
    <glyph glyph-name="notequal" unicode="≠" horiz-adv-x="1115" d="M109 282v54h369l100 255h-469v54h490l102 258h57l-102 -258h350v-54h-371l-100 -255h471v-54h-492l-101 -257h-57l101 257h-348z"/>
    <glyph glyph-name="lessequal" unicode="≤" horiz-adv-x="1085" d="M79 534v54l897 378v-58l-833 -347l833 -347v-58zM79 0v54h897v-54h-897z"/>
    <glyph glyph-name="greaterequal" unicode="≥" horiz-adv-x="1085" d="M109 156v58l832 347l-832 347v58l897 -378v-54zM109 0v54h897v-54h-897z"/>
    <glyph glyph-name="dotmath" unicode="⋅" horiz-adv-x="403" d="M107 444c0 52 42 93 94 93s95 -41 95 -93s-43 -94 -95 -94s-94 42 -94 94z"/>
    <glyph glyph-name="lozenge" unicode="◊" horiz-adv-x="906" d="M841 679l-388 -713l-388 713l388 713zM127 679l326 -601l326 601l-326 599z"/>
    <glyph glyph-name="uniF638" unicode="" horiz-adv-x="1177" d="M588 -26c-250 0 -491 256 -491 705c0 448 241 705 491 705s492 -257 492 -705c0 -449 -242 -705 -492 -705zM368 175l412 1052c-49 68 -113 103 -192 103c-203 0 -308 -232 -308 -651c0 -224 30 -394 88 -504zM395 131c49 -68 113 -103 193 -103c203 0 309 231 309 651 c0 224 -31 394 -90 504z"/>
    <glyph glyph-name="commaaccent" unicode="" horiz-adv-x="418" d="M183 -423v29s71 31 71 106c0 22 -5 36 -10 46c-12 -12 -31 -27 -60 -27c-45 0 -81 32 -81 79s38 83 92 83c72 0 120 -64 120 -142c0 -133 -132 -174 -132 -174z"/>
    <glyph glyph-name="centsuperior" unicode="" horiz-adv-x="560" d="M154 599l35 85c-68 35 -111 103 -111 196c0 136 101 238 238 238c19 0 36 -2 50 -4l25 59h43l-29 -70c31 -12 45 -26 45 -26v-63s-21 31 -61 50l-141 -343c19 -16 41 -26 71 -26c97 0 142 69 142 69v-64s-48 -44 -149 -44c-31 0 -60 4 -86 13l-29 -70h-43zM219 757 l132 319c-4 1 -14 2 -26 2c-101 0 -135 -104 -135 -192c0 -42 8 -91 29 -129z"/>
    <glyph glyph-name="dollarsuperior" unicode="" horiz-adv-x="604" d="M233 593l9 93c-92 13 -143 58 -143 58v58s59 -59 147 -75l26 275c-78 52 -157 109 -157 214c0 112 94 157 192 158l9 90h43l-9 -92c57 -7 98 -24 98 -24v-56s-43 30 -102 40l-20 -217c87 -51 189 -111 189 -247c0 -146 -121 -185 -221 -185h-10l-8 -90h-43zM285 1139 l18 196c-66 -3 -102 -41 -102 -88c0 -46 36 -78 84 -108zM288 723c91 0 133 50 133 108c0 62 -50 103 -109 144z"/>
    <glyph glyph-name="apple" unicode="" horiz-adv-x="1340" d="M285 314v758h770v-758h-770z"/>
    <glyph glyph-name="st" unicode="ﬆ" horiz-adv-x="1480" d="M85 84v99c6 -7 127 -143 340 -143c150 0 222 68 222 142c0 92 -107 138 -228 193c-195 87 -320 155 -320 299c0 164 156 229 327 229c98 0 173 -21 221 -41c-24 34 -53 89 -53 163c0 145 119 236 282 236c146 0 291 -73 291 -269v-106h254v-53h-254v-532 c0 -104 0 -255 131 -255c46 0 79 11 79 11v-54s-38 -11 -79 -11c-244 0 -297 165 -297 378v463h-125v53c65 10 125 55 125 141c0 93 -65 152 -169 152c-105 0 -186 -62 -186 -172c0 -97 62 -175 62 -175v-91s-106 109 -284 109c-107 0 -200 -39 -200 -130 c0 -75 68 -107 202 -162c217 -88 366 -150 366 -320c0 -141 -110 -252 -368 -252c-237 0 -339 98 -339 98z"/>
    <glyph glyph-name="A.alt2" horiz-adv-x="1254" d="M67 0l560 1393l560 -1393h-187l-201 497h-476l-200 -497h-56zM345 550h433l-217 537z"/>
    <glyph glyph-name="AE.alt2" horiz-adv-x="1628" d="M55 0l874 1358h598v-54h-420v-584h323v-54h-323v-612h420v-54h-598v666h-380l-429 -666h-65zM584 720h345v536z"/>
    <glyph glyph-name="AEacute.alt2" horiz-adv-x="1628" d="M1053 1468l-50 9l217 259c17 20 34 37 63 37c33 0 58 -24 58 -55c0 -30 -20 -48 -38 -62zM55 0l874 1358h598v-54h-420v-584h323v-54h-323v-612h420v-54h-598v666h-380l-429 -666h-65zM584 720h345v536z"/>
    <glyph glyph-name="Aacute.alt2" horiz-adv-x="1254" d="M567 1468l-50 9l217 259c17 20 34 37 63 37c33 0 58 -24 58 -55c0 -30 -20 -48 -38 -62zM67 0l560 1393l560 -1393h-187l-201 497h-476l-200 -497h-56zM345 550h433l-217 537z"/>
    <glyph glyph-name="Abreve.alt2" horiz-adv-x="1254" d="M67 0l560 1393l560 -1393h-187l-201 497h-476l-200 -497h-56zM345 550h433l-217 537zM814 1708l45 14c0 -151 -99 -253 -232 -253c-134 0 -233 102 -233 253l45 -14c19 -74 83 -123 188 -123c104 0 169 49 187 123z"/>
    <glyph glyph-name="Acircumflex.alt2" horiz-adv-x="1254" d="M393 1473l234 300l233 -300l-46 -5l-187 135l-188 -135zM67 0l560 1393l560 -1393h-187l-201 497h-476l-200 -497h-56zM345 550h433l-217 537z"/>
    <glyph glyph-name="Adieresis.alt2" horiz-adv-x="1254" d="M786 1516c-49 0 -88 39 -88 88c0 48 39 87 88 87s88 -39 88 -87c0 -49 -39 -88 -88 -88zM470 1516c-49 0 -88 39 -88 88c0 48 39 87 88 87c48 0 87 -39 87 -87c0 -49 -39 -88 -87 -88zM67 0l560 1393l560 -1393h-187l-201 497h-476l-200 -497h-56zM345 550h433l-217 537z "/>
    <glyph glyph-name="Agrave.alt2" horiz-adv-x="1254" d="M721 1477l-50 -9l-250 188c-18 14 -38 32 -38 62c0 31 25 55 58 55c29 0 46 -17 63 -37zM67 0l560 1393l560 -1393h-187l-201 497h-476l-200 -497h-56zM345 550h433l-217 537z"/>
    <glyph glyph-name="Amacron.alt2" horiz-adv-x="1254" d="M385 1532v71h501v-71h-501zM67 0l560 1393l560 -1393h-187l-201 497h-476l-200 -497h-56zM345 550h433l-217 537z"/>
    <glyph glyph-name="Aogonek.alt2" horiz-adv-x="1254" d="M67 0l560 1393l560 -1393h-119c-118 -46 -197 -151 -197 -236c0 -40 16 -79 64 -79c56 0 94 39 94 39v-50s-52 -47 -139 -47c-86 0 -131 46 -131 116c0 112 121 204 241 257l-201 497h-476l-200 -497h-56zM345 550h433l-217 537z"/>
    <glyph glyph-name="Aring.alt2" horiz-adv-x="1254" d="M628 1474c-99 0 -175 50 -175 136c0 88 76 138 175 138c98 0 173 -50 173 -138c0 -86 -75 -136 -173 -136zM628 1514c41 0 67 31 67 96c0 64 -26 97 -67 97c-42 0 -68 -33 -68 -97c0 -65 26 -96 68 -96zM67 0l560 1393l560 -1393h-187l-201 497h-476l-200 -497h-56z M345 550h433l-217 537z"/>
    <glyph glyph-name="Aringacute.alt2" horiz-adv-x="1254" d="M527 1687l137 181c16 21 35 35 60 35c34 0 59 -25 59 -56c0 -29 -20 -49 -39 -61l-167 -108zM67 0l547 1361c-92 5 -161 54 -161 136c0 88 76 138 175 138c98 0 173 -50 173 -138c0 -83 -69 -132 -162 -136l548 -1361h-187l-200 497h-478l-199 -497h-56zM628 1401 c41 0 67 31 67 96c0 64 -26 97 -67 97c-42 0 -68 -33 -68 -97c0 -65 26 -96 68 -96zM343 550h436l-218 542z"/>
    <glyph glyph-name="Atilde.alt2" horiz-adv-x="1254" d="M67 0l560 1393l560 -1393h-187l-201 497h-476l-200 -497h-56zM345 550h433l-217 537zM341 1494c0 102 54 183 172 183c105 0 184 -67 274 -67c40 0 77 21 83 80h42c0 -100 -53 -187 -173 -187c-104 0 -187 67 -269 67c-45 0 -81 -17 -87 -76h-42z"/>
    <glyph glyph-name="altcedilla" horiz-adv-x="520" d="M146 -128l137 128h58l-79 -87c75 -10 156 -66 156 -159c0 -90 -76 -155 -204 -155c-74 0 -114 23 -114 23l-5 46s49 -21 101 -21c86 0 110 54 110 102c0 82 -77 123 -160 123z"/>
    <glyph glyph-name="H.alt" horiz-adv-x="1318" d="M127 0v1358h178v-638h832v638h54v-1358h-54v666h-832v-666h-178z"/>
    <glyph glyph-name="Hbar.alt" horiz-adv-x="1318" d="M127 0v1005h-159v54h159v299h178v-299h832v299h54v-299h159v-54h-159v-1005h-54v666h-832v-666h-178zM305 720h832v285h-832v-285z"/>
    <glyph glyph-name="Hcircumflex.alt" horiz-adv-x="1318" d="M466 1473l234 300l233 -300l-46 -5l-187 135l-188 -135zM127 0v1358h178v-638h832v638h54v-1358h-54v666h-832v-666h-178z"/>
    <glyph glyph-name="caronSlovak" horiz-adv-x="322" d="M105 1000l53 326c8 50 30 69 62 69c35 0 58 -23 58 -56c0 -9 -2 -24 -11 -48l-111 -291h-51z"/>
    <glyph glyph-name="Q.alt3" horiz-adv-x="1614" d="M1634 -186l-528 218c-91 -37 -192 -58 -299 -58c-404 0 -724 294 -724 705c0 401 320 705 724 705c405 0 724 -304 724 -705c0 -278 -146 -502 -365 -618l604 -247h-136zM620 285l450 -184c167 105 268 313 268 578c0 382 -212 651 -531 651c-314 0 -530 -269 -530 -636 c0 -179 72 -294 343 -409zM1014 71l-418 173c-150 62 -256 132 -299 239c60 -276 249 -455 510 -455c75 0 145 15 207 43z"/>
    <glyph glyph-name="acute.cap" horiz-adv-x="548" d="M150 1468l-50 9l217 259c17 20 34 37 63 37c33 0 58 -24 58 -55c0 -30 -20 -48 -38 -62z"/>
    <glyph glyph-name="anoteleia.cap" horiz-adv-x="403" d="M107 680c0 52 42 93 94 93s95 -41 95 -93s-43 -94 -95 -94s-94 42 -94 94z"/>
    <glyph glyph-name="approxequal.cap" horiz-adv-x="1177" d="M109 716c12 60 74 200 242 200c162 0 342 -140 478 -140c120 0 173 102 185 146h54c-12 -60 -75 -200 -242 -200c-163 0 -343 140 -478 140c-120 0 -173 -102 -185 -146h-54zM109 436c12 59 74 199 242 199c162 0 342 -140 478 -140c120 0 173 102 185 146h54 c-12 -60 -75 -199 -242 -199c-163 0 -343 139 -478 139c-120 0 -173 -102 -185 -145h-54z"/>
    <glyph glyph-name="approxequal.lt" d="M104 716c12 60 74 200 242 200c162 0 342 -140 478 -140c120 0 173 102 185 146h54c-12 -60 -75 -200 -242 -200c-163 0 -343 140 -478 140c-120 0 -173 -102 -185 -146h-54zM104 436c12 59 74 199 242 199c162 0 342 -140 478 -140c120 0 173 102 185 146h54 c-12 -60 -75 -199 -242 -199c-163 0 -343 139 -478 139c-120 0 -173 -102 -185 -145h-54z"/>
    <glyph glyph-name="approxequal.op" horiz-adv-x="1177" d="M109 501c12 60 74 200 242 200c162 0 342 -140 478 -140c120 0 173 102 185 146h54c-12 -60 -75 -200 -242 -200c-163 0 -343 140 -478 140c-120 0 -173 -102 -185 -146h-54zM109 221c12 59 74 199 242 199c162 0 342 -140 478 -140c120 0 173 102 185 146h54 c-12 -60 -75 -199 -242 -199c-163 0 -343 139 -478 139c-120 0 -173 -102 -185 -145h-54z"/>
    <glyph glyph-name="approxequal.ot" d="M104 501c12 60 74 200 242 200c162 0 342 -140 478 -140c120 0 173 102 185 146h54c-12 -60 -75 -200 -242 -200c-163 0 -343 140 -478 140c-120 0 -173 -102 -185 -146h-54zM104 221c12 59 74 199 242 199c162 0 342 -140 478 -140c120 0 173 102 185 146h54 c-12 -60 -75 -199 -242 -199c-163 0 -343 139 -478 139c-120 0 -173 -102 -185 -145h-54z"/>
    <glyph glyph-name="asciitilde.cap" horiz-adv-x="1177" d="M109 573c12 62 74 205 241 205c164 0 343 -146 479 -146c120 0 173 107 185 152h54c-12 -61 -75 -205 -241 -205c-164 0 -344 146 -479 146c-120 0 -173 -107 -185 -152h-54z"/>
    <glyph glyph-name="at.cap" horiz-adv-x="1618" d="M1342 164l20 -29s-232 -193 -581 -193c-405 0 -710 248 -710 654c0 453 377 807 835 807c399 0 629 -267 629 -601c0 -273 -155 -489 -395 -489c-120 0 -191 45 -203 141c-51 -81 -124 -141 -230 -141c-129 0 -223 84 -223 263c0 239 177 458 376 458 c130 0 166 -85 175 -152l41 132h146l-119 -389c-17 -55 -36 -117 -36 -165c0 -51 22 -88 99 -88c187 0 312 213 312 443c0 323 -244 545 -568 545c-395 0 -701 -319 -701 -756c0 -350 201 -606 611 -606c304 0 522 166 522 166zM638 567c0 -98 25 -182 113 -182 c170 0 241 311 241 429c0 74 -28 161 -119 161c-147 0 -235 -225 -235 -408z"/>
    <glyph glyph-name="bar.cap" horiz-adv-x="372" d="M159 -293v1943h54v-1943h-54z"/>
    <glyph glyph-name="braceleft.cap" horiz-adv-x="553" d="M109 629v42s20 8 50 8c15 0 29 -3 42 -6c23 13 27 45 27 66c0 139 -151 282 -151 501c0 291 270 318 423 318v-53c-200 0 -251 -120 -251 -271c0 -161 57 -286 57 -420c0 -87 -24 -139 -56 -164c32 -26 56 -78 56 -164c0 -134 -57 -259 -57 -420c0 -151 51 -271 251 -271 v-53c-153 0 -423 27 -423 319c0 219 151 359 151 500c0 22 -4 53 -27 66c-13 -4 -27 -6 -42 -6c-30 0 -50 8 -50 8z"/>
    <glyph glyph-name="braceright.cap" horiz-adv-x="553" d="M53 1505v53c152 0 423 -27 423 -318c0 -219 -151 -362 -151 -501c0 -21 3 -53 26 -66c13 4 26 6 42 6c31 0 51 -8 51 -8v-42s-20 -8 -51 -8c-16 0 -29 2 -41 6c-23 -13 -27 -44 -27 -66c0 -141 151 -281 151 -500c0 -292 -270 -319 -423 -319v53c200 0 251 120 251 271 c0 161 -57 286 -57 420c0 86 23 138 55 164c-32 25 -55 77 -55 164c0 134 57 259 57 420c0 151 -51 271 -251 271z"/>
    <glyph glyph-name="bracketleft.cap" horiz-adv-x="556" d="M109 -258v1816h394v-54h-228v-1708h228v-54h-394z"/>
    <glyph glyph-name="bracketright.cap" horiz-adv-x="556" d="M53 -258v54h228v1708h-228v54h394v-1816h-394z"/>
    <glyph glyph-name="breve.cap" horiz-adv-x="671" d="M523 1708l45 14c0 -151 -99 -253 -232 -253c-134 0 -233 102 -233 253l45 -14c19 -74 83 -123 188 -123c104 0 169 49 187 123z"/>
    <glyph glyph-name="brokenbar.cap" horiz-adv-x="372" d="M159 842v808h54v-808h-54zM159 501h54v-794h-54v794z"/>
    <glyph glyph-name="bullet.cap" horiz-adv-x="688" d="M344 454c-124 0 -225 101 -225 225s101 225 225 225s225 -101 225 -225s-101 -225 -225 -225z"/>
    <glyph glyph-name="caron.cap" horiz-adv-x="673" d="M337 1468l-234 300l46 5l188 -134l187 134l46 -5z"/>
    <glyph glyph-name="circumflex.cap" horiz-adv-x="673" d="M103 1473l234 300l233 -300l-46 -5l-187 135l-188 -135z"/>
    <glyph glyph-name="colon.tab" horiz-adv-x="584" d="M197 76c0 52 42 93 94 93s95 -41 95 -93s-43 -94 -95 -94s-94 42 -94 94zM197 810c0 52 42 93 94 93s95 -41 95 -93s-43 -94 -95 -94s-94 42 -94 94z"/>
    <glyph glyph-name="comma.tab" horiz-adv-x="584" d="M272 -274v36s84 66 84 180c0 32 -5 55 -11 71c-13 -15 -34 -31 -67 -31c-51 0 -92 34 -92 89c0 57 44 99 106 99c80 0 128 -71 128 -174c0 -183 -148 -270 -148 -270z"/>
    <glyph glyph-name="ct" horiz-adv-x="1551" d="M833 176v-102s-94 -88 -288 -88c-263 0 -467 178 -467 456c0 263 193 461 458 461c93 0 163 -21 209 -41c-23 35 -46 88 -46 156c0 142 107 243 265 243c140 0 274 -80 274 -262v-113h254v-53h-254v-532c0 -104 0 -255 131 -255c46 0 79 11 79 11v-54s-38 -11 -79 -11 c-244 0 -297 165 -297 378v463h-125v53c86 16 125 68 125 147c0 105 -71 146 -149 146c-103 0 -172 -70 -172 -175c0 -107 62 -181 62 -181v-102s-80 129 -277 129c-199 0 -286 -190 -286 -407c0 -231 102 -403 313 -403c186 0 266 130 270 136z"/>
    <glyph glyph-name="dieresis.cap" horiz-adv-x="726" d="M521 1516c-49 0 -88 39 -88 88c0 48 39 87 88 87s88 -39 88 -87c0 -49 -39 -88 -88 -88zM205 1516c-49 0 -88 39 -88 88c0 48 39 87 88 87c48 0 87 -39 87 -87c0 -49 -39 -88 -87 -88z"/>
    <glyph glyph-name="divide.cap" horiz-adv-x="1122" d="M560 901c-56 0 -101 45 -101 101s45 100 101 100c55 0 101 -44 101 -100s-46 -101 -101 -101zM109 652v53h904v-53h-904zM459 357c0 56 45 101 101 101c55 0 101 -45 101 -101s-46 -101 -101 -101c-56 0 -101 45 -101 101z"/>
    <glyph glyph-name="divide.lt" d="M584 901c-55 0 -101 45 -101 101s46 100 101 100c56 0 101 -44 101 -100s-45 -101 -101 -101zM1035 705v-53h-904v53h904zM685 357c0 -56 -45 -101 -101 -101c-55 0 -101 45 -101 101s46 101 101 101c56 0 101 -45 101 -101z"/>
    <glyph glyph-name="divide.op" horiz-adv-x="1122" d="M560 686c-56 0 -101 45 -101 101s45 100 101 100c55 0 101 -44 101 -100s-46 -101 -101 -101zM109 437v53h904v-53h-904zM459 142c0 56 45 101 101 101c55 0 101 -45 101 -101s-46 -101 -101 -101c-56 0 -101 45 -101 101z"/>
    <glyph glyph-name="divide.ot" d="M584 686c-55 0 -101 45 -101 101s46 100 101 100c56 0 101 -44 101 -100s-45 -101 -101 -101zM1035 490v-53h-904v53h904zM685 142c0 -56 -45 -101 -101 -101c-55 0 -101 45 -101 101s46 101 101 101c56 0 101 -45 101 -101z"/>
    <glyph glyph-name="dollar.alt4" horiz-adv-x="1012" d="M99 106v93s81 -86 213 -132l63 653c-151 115 -244 210 -244 354c0 178 144 272 306 296l17 177h54l-17 -171c11 1 21 1 32 1c34 0 66 -3 96 -7l17 177h55l-18 -188c70 -16 116 -38 116 -38v-87s-49 37 -122 63l-51 -527c184 -132 307 -245 307 -431 c0 -237 -199 -334 -382 -352l-17 -175h-54l16 172h-12c-42 0 -79 3 -115 10l-18 -182h-53l18 193c-131 35 -207 101 -207 101zM565 806l48 506c-30 7 -60 11 -94 11c-11 0 -25 -1 -33 -2l-41 -430zM395 929l36 383c-91 -24 -157 -88 -157 -187c0 -78 41 -132 121 -196z M364 51c35 -8 73 -13 114 -13h13l54 557l-120 88zM546 43c132 22 216 108 216 239c0 98 -48 174 -166 272z"/>
    <glyph glyph-name="dotaccent.cap" horiz-adv-x="381" d="M191 1535c-49 0 -88 39 -88 88c0 48 39 87 88 87c48 0 87 -39 87 -87c0 -49 -39 -88 -87 -88z"/>
    <glyph glyph-name="dotbelow" horiz-adv-x="381" d="M191 -366c-49 0 -88 39 -88 88c0 48 39 87 88 87c48 0 87 -39 87 -87c0 -49 -39 -88 -87 -88z"/>
    <glyph glyph-name="dotmath.cap" horiz-adv-x="403" d="M107 680c0 52 42 93 94 93s95 -41 95 -93s-43 -94 -95 -94s-94 42 -94 94z"/>
    <glyph glyph-name="doublebar" horiz-adv-x="577" d="M365 -417v1943h53v-1943h-53zM159 -417v1943h54v-1943h-54z"/>
    <glyph glyph-name="doublebar.cap" horiz-adv-x="577" d="M365 -293v1943h53v-1943h-53zM159 -293v1943h54v-1943h-54z"/>
    <glyph glyph-name="doublegrave" horiz-adv-x="811" d="M711 1017l-50 -9l-249 188c-18 14 -39 32 -39 62c0 31 25 55 58 55c29 0 47 -16 64 -37zM448 1017l-50 -9l-250 188c-18 14 -38 32 -38 62c0 31 25 55 58 55c29 0 46 -17 63 -37z"/>
    <glyph glyph-name="doublegrave.cap" horiz-adv-x="811" d="M711 1477l-50 -9l-249 188c-18 14 -39 32 -39 62c0 31 25 55 58 55c29 0 47 -16 64 -37zM448 1477l-50 -9l-250 188c-18 14 -38 32 -38 62c0 31 25 55 58 55c29 0 46 -17 63 -37z"/>
    <glyph glyph-name="eight.dnom" horiz-adv-x="626" d="M316 -15c-156 0 -259 67 -259 186c0 100 71 158 161 200c-54 39 -96 87 -96 162c0 102 84 160 193 160c123 0 183 -75 183 -147c0 -59 -36 -102 -91 -134c83 -47 162 -109 162 -226c0 -109 -81 -201 -253 -201zM368 433c35 30 52 73 52 114c0 53 -29 106 -107 106 c-67 0 -98 -40 -98 -81c0 -63 73 -99 153 -139zM319 25c102 0 148 65 148 126c0 96 -117 138 -214 197c-62 -40 -94 -104 -94 -172c0 -109 78 -151 160 -151z"/>
    <glyph glyph-name="eight.numr" horiz-adv-x="626" d="M316 665c-156 0 -259 67 -259 186c0 100 71 158 161 200c-54 39 -96 87 -96 162c0 102 84 160 193 160c123 0 183 -75 183 -147c0 -59 -36 -102 -91 -134c83 -47 162 -109 162 -226c0 -109 -81 -201 -253 -201zM368 1113c35 30 52 73 52 114c0 53 -29 106 -107 106 c-67 0 -98 -40 -98 -81c0 -63 73 -99 153 -139zM319 705c102 0 148 65 148 126c0 96 -117 138 -214 197c-62 -40 -94 -104 -94 -172c0 -109 78 -151 160 -151z"/>
    <glyph glyph-name="eight.inf" horiz-adv-x="626" d="M316 -297c-156 0 -259 67 -259 186c0 100 71 158 161 200c-54 39 -96 87 -96 162c0 102 84 160 193 160c123 0 183 -75 183 -147c0 -59 -36 -102 -91 -134c83 -47 162 -109 162 -226c0 -109 -81 -201 -253 -201zM368 151c35 30 52 73 52 114c0 53 -29 106 -107 106 c-67 0 -98 -40 -98 -81c0 -63 73 -99 153 -139zM319 -257c102 0 148 65 148 126c0 96 -117 138 -214 197c-62 -40 -94 -104 -94 -172c0 -109 78 -151 160 -151z"/>
    <glyph glyph-name="eight.lt" d="M78 341c0 214 169 335 369 415c-133 81 -241 175 -241 329c0 187 164 299 373 299c251 0 370 -145 370 -289c0 -133 -101 -231 -239 -294c188 -96 379 -209 379 -444c0 -223 -171 -383 -503 -383c-303 0 -508 132 -508 367zM655 830c106 52 183 137 183 268 c0 136 -81 232 -254 232c-145 0 -238 -87 -238 -198c0 -143 146 -220 309 -302zM239 345c0 -225 171 -317 355 -317c217 0 334 128 334 279c0 212 -232 306 -433 420c-153 -77 -256 -206 -256 -382z"/>
    <glyph glyph-name="eight.op" horiz-adv-x="1139" d="M64 341c0 214 169 335 369 415c-133 81 -241 175 -241 329c0 187 164 299 373 299c251 0 370 -145 370 -289c0 -133 -101 -231 -239 -294c188 -96 379 -209 379 -444c0 -223 -171 -383 -503 -383c-303 0 -508 132 -508 367zM641 830c106 52 183 137 183 268 c0 136 -81 232 -254 232c-145 0 -238 -87 -238 -198c0 -143 146 -220 309 -302zM225 345c0 -225 171 -317 355 -317c217 0 334 128 334 279c0 212 -232 306 -433 420c-153 -77 -256 -206 -256 -382z"/>
    <glyph glyph-name="eight.ot" d="M78 341c0 214 169 335 369 415c-133 81 -241 175 -241 329c0 187 164 299 373 299c251 0 370 -145 370 -289c0 -133 -101 -231 -239 -294c188 -96 379 -209 379 -444c0 -223 -171 -383 -503 -383c-303 0 -508 132 -508 367zM655 830c106 52 183 137 183 268 c0 136 -81 232 -254 232c-145 0 -238 -87 -238 -198c0 -143 146 -220 309 -302zM239 345c0 -225 171 -317 355 -317c217 0 334 128 334 279c0 212 -232 306 -433 420c-153 -77 -256 -206 -256 -382z"/>
    <glyph glyph-name="emdash.cap" horiz-adv-x="1716" d="M109 652v54h1498v-54h-1498z"/>
    <glyph glyph-name="endash.cap" horiz-adv-x="1151" d="M109 652v54h933v-54h-933z"/>
    <glyph glyph-name="equal.cap" horiz-adv-x="1089" d="M96 801v53h897v-53h-897zM96 492v53h897v-53h-897z"/>
    <glyph glyph-name="equal.lt" d="M1032 859v-53h-897v53h897zM1032 550v-53h-897v53h897z"/>
    <glyph glyph-name="equal.op" horiz-adv-x="1115" d="M109 592v53h897v-53h-897zM109 283v53h897v-53h-897z"/>
    <glyph glyph-name="equal.ot" d="M135 592v53h897v-53h-897zM135 283v53h897v-53h-897z"/>
    <glyph glyph-name="exclamdown.cap" horiz-adv-x="408" d="M126 70l50 976h56l50 -976c0 -65 -29 -96 -78 -96c-51 0 -78 31 -78 96zM110 1282c0 52 42 94 94 94s94 -42 94 -94s-42 -93 -94 -93s-94 41 -94 93z"/>
    <glyph glyph-name="figuredash.cap" horiz-adv-x="1151" d="M109 652v54h933v-54h-933z"/>
    <glyph glyph-name="five.dnom" horiz-adv-x="605" d="M162 572l-21 -149c32 30 76 52 147 52c158 0 244 -108 244 -238c0 -120 -74 -250 -260 -250c-130 0 -179 62 -179 62v59s54 -81 156 -81c108 0 159 91 159 209c0 109 -39 199 -141 199c-93 0 -140 -77 -140 -77h-36l48 324h341l-40 -110h-278z"/>
    <glyph glyph-name="five.numr" horiz-adv-x="605" d="M162 1248l-21 -149c32 30 76 52 147 52c158 0 244 -108 244 -238c0 -120 -74 -250 -260 -250c-130 0 -179 62 -179 62v59s54 -81 156 -81c108 0 159 91 159 209c0 109 -39 199 -141 199c-93 0 -140 -77 -140 -77h-36l48 324h341l-40 -110h-278z"/>
    <glyph glyph-name="five.inf" horiz-adv-x="605" d="M162 290l-21 -149c32 30 76 52 147 52c158 0 244 -108 244 -238c0 -120 -74 -250 -260 -250c-130 0 -179 62 -179 62v59s54 -81 156 -81c108 0 159 91 159 209c0 109 -39 199 -141 199c-93 0 -140 -77 -140 -77h-36l48 324h341l-40 -110h-278z"/>
    <glyph glyph-name="five.lt" d="M164 96v91c5 -7 113 -159 337 -159c241 0 347 203 347 449c0 260 -125 413 -339 413c-119 0 -238 -48 -301 -159h-42l88 626h673l-59 -168h-585l-49 -355c57 55 151 110 297 110c288 0 500 -202 500 -473c0 -234 -151 -497 -514 -497c-253 0 -353 122 -353 122z"/>
    <glyph glyph-name="five.op" horiz-adv-x="1043" d="M102 -322v91c5 -7 113 -159 337 -159c241 0 347 203 347 449c0 260 -125 413 -339 413c-119 0 -238 -48 -301 -159h-42l88 626h673l-59 -168h-585l-49 -355c57 55 151 110 297 110c288 0 500 -202 500 -473c0 -234 -151 -497 -514 -497c-253 0 -353 122 -353 122z"/>
    <glyph glyph-name="five.ot" d="M164 -322v91c5 -7 113 -159 337 -159c241 0 347 203 347 449c0 260 -125 413 -339 413c-119 0 -238 -48 -301 -159h-42l88 626h673l-59 -168h-585l-49 -355c57 55 151 110 297 110c288 0 500 -202 500 -473c0 -234 -151 -497 -514 -497c-253 0 -353 122 -353 122z"/>
    <glyph glyph-name="four.dnom" horiz-adv-x="676" d="M350 0v162h-301l430 534v-494h136v-40h-136v-162h-129zM135 202h215v267z"/>
    <glyph glyph-name="four.numr" horiz-adv-x="676" d="M350 678v162h-301l430 534v-494h136v-40h-136v-162h-129zM135 880h215v267z"/>
    <glyph glyph-name="four.inf" horiz-adv-x="676" d="M350 -282v162h-301l430 534v-494h136v-40h-136v-162h-129zM135 -80h215v267z"/>
    <glyph glyph-name="four.lt" d="M22 406l794 979v-925h317v-54h-317v-406h-178v406h-616zM138 460h500v620z"/>
    <glyph glyph-name="four.op" horiz-adv-x="1201" d="M39 0l794 979v-925h317v-54h-317v-406h-178v406h-616zM155 54h500v620z"/>
    <glyph glyph-name="four.ot" d="M22 0l794 979v-925h317v-54h-317v-406h-178v406h-616zM138 54h500v620z"/>
    <glyph glyph-name="grave.cap" horiz-adv-x="548" d="M448 1477l-50 -9l-250 188c-18 14 -38 32 -38 62c0 31 25 55 58 55c29 0 46 -17 63 -37z"/>
    <glyph glyph-name="greater.cap" horiz-adv-x="1085" d="M109 268v58l831 347l-831 347v59l897 -378v-55z"/>
    <glyph glyph-name="greater.lt" d="M150 273v58l831 347l-831 347v59l897 -378v-55z"/>
    <glyph glyph-name="greater.op" horiz-adv-x="1085" d="M109 58v58l831 347l-831 347v59l897 -378v-55z"/>
    <glyph glyph-name="greater.ot" d="M150 58v58l831 347l-831 347v59l897 -378v-55z"/>
    <glyph glyph-name="greaterequal.cap" horiz-adv-x="1085" d="M109 351v58l832 347l-832 347v58l897 -378v-54zM109 195v54h897v-54h-897z"/>
    <glyph glyph-name="greaterequal.lt" d="M150 351v58l832 347l-832 347v58l897 -378v-54zM150 195v54h897v-54h-897z"/>
    <glyph glyph-name="greaterequal.op" horiz-adv-x="1085" d="M109 156v58l832 347l-832 347v58l897 -378v-54zM109 0v54h897v-54h-897z"/>
    <glyph glyph-name="greaterequal.ot" d="M150 156v58l832 347l-832 347v58l897 -378v-54zM150 0v54h897v-54h-897z"/>
    <glyph glyph-name="guillemotleft.cap" horiz-adv-x="973" d="M424 359l-345 320l345 320l39 -38l-305 -282l304 -282zM826 359l-345 320l345 320l39 -38l-305 -282l304 -282z"/>
    <glyph glyph-name="guillemotright.cap" horiz-adv-x="973" d="M148 359l-38 38l302 282l-303 282l39 38l345 -320zM550 359l-38 38l302 282l-303 282l39 38l345 -320z"/>
    <glyph glyph-name="guilsinglleft.cap" horiz-adv-x="572" d="M424 359l-345 320l345 320l39 -38l-305 -282l304 -282z"/>
    <glyph glyph-name="guilsinglright.cap" horiz-adv-x="572" d="M148 359l-38 38l302 282l-303 282l39 38l345 -320z"/>
    <glyph glyph-name="hcircumflex.alt5" horiz-adv-x="1006" d="M240 1473l234 300l233 -300l-46 -5l-187 135l-188 -135zM123 0v1358h166v-752c23 122 95 297 303 297c183 0 297 -133 297 -335v-568h-166v568c0 134 -15 282 -164 282c-189 0 -270 -237 -270 -458v-392h-166z"/>
    <glyph glyph-name="hungarumlaut.cap" horiz-adv-x="811" d="M363 1477l217 259c17 20 35 37 63 37c34 0 58 -24 58 -55c0 -30 -20 -48 -38 -62l-249 -188zM150 1468l-50 9l217 259c17 20 34 37 63 37c33 0 58 -24 58 -55c0 -30 -20 -48 -38 -62z"/>
    <glyph glyph-name="hyphen.cap" horiz-adv-x="837" d="M109 652v54h619v-54h-619z"/>
    <glyph glyph-name="infinity.cap" horiz-adv-x="1526" d="M763 645l-156 -111c-88 -62 -157 -95 -258 -95c-157 0 -280 89 -280 240s124 239 279 239c100 0 169 -31 259 -95l156 -112l156 112c90 64 159 95 259 95c155 0 279 -89 279 -239s-124 -240 -280 -240c-98 0 -169 31 -258 95zM809 678l143 -102c90 -64 151 -84 210 -84 c117 0 161 100 161 186c0 88 -44 187 -159 187c-60 0 -121 -19 -212 -84zM717 678l-143 103c-91 65 -152 84 -213 84c-115 0 -158 -98 -158 -187c0 -87 42 -186 159 -186c60 0 122 20 212 84z"/>
    <glyph glyph-name="infinity.op" horiz-adv-x="1526" d="M763 430l-156 -111c-88 -62 -157 -95 -258 -95c-157 0 -280 89 -280 240s124 239 279 239c100 0 169 -31 259 -95l156 -112l156 112c90 64 159 95 259 95c155 0 279 -89 279 -239s-124 -240 -280 -240c-98 0 -169 31 -258 95zM809 463l143 -102c90 -64 151 -84 210 -84 c117 0 161 100 161 186c0 88 -44 187 -159 187c-60 0 -121 -19 -212 -84zM717 463l-143 103c-91 65 -152 84 -213 84c-115 0 -158 -98 -158 -187c0 -87 42 -186 159 -186c60 0 122 20 212 84z"/>
    <glyph glyph-name="infinity.ot" d="M584 430l-156 -111c-88 -62 -157 -95 -258 -95c-157 0 -280 89 -280 240s124 239 279 239c100 0 169 -31 259 -95l156 -112l156 112c90 64 159 95 259 95c155 0 279 -89 279 -239s-124 -240 -280 -240c-98 0 -169 31 -258 95zM630 463l143 -102c90 -64 151 -84 210 -84 c117 0 161 100 161 186c0 88 -44 187 -159 187c-60 0 -121 -19 -212 -84zM538 463l-143 103c-91 65 -152 84 -213 84c-115 0 -158 -98 -158 -187c0 -87 42 -186 159 -186c60 0 122 20 212 84z"/>
    <glyph glyph-name="invertedbreve" horiz-adv-x="671" d="M148 1024l-45 -15c0 152 99 253 233 253c133 0 232 -101 232 -253l-45 15c-18 74 -83 122 -187 122c-105 0 -169 -48 -188 -122z"/>
    <glyph glyph-name="invertedbreve.cap" horiz-adv-x="671" d="M148 1485l-45 -15c0 152 99 253 233 253c133 0 232 -101 232 -253l-45 15c-18 74 -83 122 -187 122c-105 0 -169 -48 -188 -122z"/>
    <glyph glyph-name="less.cap" horiz-adv-x="1085" d="M79 646v55l897 378v-59l-832 -347l832 -347v-58z"/>
    <glyph glyph-name="less.lt" d="M120 651v55l897 378v-59l-832 -347l832 -347v-58z"/>
    <glyph glyph-name="less.op" horiz-adv-x="1085" d="M79 436v55l897 378v-59l-832 -347l832 -347v-58z"/>
    <glyph glyph-name="less.ot" d="M120 436v55l897 378v-59l-832 -347l832 -347v-58z"/>
    <glyph glyph-name="lessequal.cap" horiz-adv-x="1085" d="M79 729v54l897 378v-58l-833 -347l833 -347v-58zM79 195v54h897v-54h-897z"/>
    <glyph glyph-name="lessequal.lt" d="M120 729v54l897 378v-58l-833 -347l833 -347v-58zM120 195v54h897v-54h-897z"/>
    <glyph glyph-name="lessequal.op" horiz-adv-x="1085" d="M79 534v54l897 378v-58l-833 -347l833 -347v-58zM79 0v54h897v-54h-897z"/>
    <glyph glyph-name="lessequal.ot" d="M120 534v54l897 378v-58l-833 -347l833 -347v-58zM120 0v54h897v-54h-897z"/>
    <glyph glyph-name="logicalnot.cap" horiz-adv-x="1122" d="M109 647v53h904v-353h-54v300h-850z"/>
    <glyph glyph-name="macron.cap" horiz-adv-x="707" d="M103 1532v71h501v-71h-501z"/>
    <glyph glyph-name="minus.cap" horiz-adv-x="1096" d="M96 647v53h904v-53h-904z"/>
    <glyph glyph-name="minus.lt" d="M1035 705v-53h-904v53h904z"/>
    <glyph glyph-name="minus.op" horiz-adv-x="1122" d="M109 437v53h904v-53h-904z"/>
    <glyph glyph-name="minus.ot" d="M131 437v53h904v-53h-904z"/>
    <glyph glyph-name="multiply.lt" d="M601 678l328 -329l-37 -38l-328 329l-329 -329l-37 38l328 329l-328 329l37 38l329 -330l328 330l37 -38z"/>
    <glyph glyph-name="multiply.op" horiz-adv-x="949" d="M109 135l328 329l-328 329l37 38l328 -330l329 330l37 -38l-328 -329l328 -329l-37 -38l-329 329l-328 -329z"/>
    <glyph glyph-name="multiply.ot" d="M601 464l328 -329l-37 -38l-328 329l-329 -329l-37 38l328 329l-328 329l37 38l329 -330l328 330l37 -38z"/>
    <glyph glyph-name="nine.dnom" horiz-adv-x="617" d="M194 -15v40c87 22 186 106 229 252c-32 -52 -79 -72 -136 -72c-122 0 -230 92 -230 239c0 158 124 249 249 249c119 0 244 -84 244 -274c0 -284 -226 -403 -356 -434zM299 245c99 0 127 121 127 213c0 84 -23 195 -121 195s-124 -112 -124 -206c0 -91 24 -202 118 -202z "/>
    <glyph glyph-name="nine.numr" horiz-adv-x="617" d="M194 665v40c87 22 186 106 229 252c-32 -52 -79 -72 -136 -72c-122 0 -230 92 -230 239c0 158 124 249 249 249c119 0 244 -84 244 -274c0 -284 -226 -403 -356 -434zM299 925c99 0 127 121 127 213c0 84 -23 195 -121 195s-124 -112 -124 -206c0 -91 24 -202 118 -202z "/>
    <glyph glyph-name="nine.inf" horiz-adv-x="617" d="M194 -297v40c87 22 186 106 229 252c-32 -52 -79 -72 -136 -72c-122 0 -230 92 -230 239c0 158 124 249 249 249c119 0 244 -84 244 -274c0 -284 -226 -403 -356 -434zM299 -37c99 0 127 121 127 213c0 84 -23 195 -121 195s-124 -112 -124 -206c0 -91 24 -202 118 -202z "/>
    <glyph glyph-name="nine.lt" d="M360 -26v54c181 46 389 220 485 517c-75 -93 -172 -131 -282 -131c-242 0 -472 175 -472 483c0 304 243 487 483 487c246 0 492 -167 492 -539c0 -573 -445 -806 -706 -871zM573 468c205 0 310 178 310 437c0 254 -97 425 -305 425c-200 0 -304 -184 -304 -431 c0 -251 96 -431 299 -431z"/>
    <glyph glyph-name="nine.op" horiz-adv-x="1139" d="M346 -445v54c181 46 389 220 485 517c-75 -93 -172 -131 -282 -131c-242 0 -472 175 -472 483c0 304 243 487 483 487c246 0 492 -167 492 -539c0 -573 -445 -806 -706 -871zM559 49c205 0 310 178 310 437c0 254 -97 425 -305 425c-200 0 -304 -184 -304 -431 c0 -251 96 -431 299 -431z"/>
    <glyph glyph-name="nine.ot" d="M334 -445v54c181 46 390 220 486 518c-75 -93 -173 -132 -283 -132c-241 0 -472 175 -472 483c0 304 244 487 483 487c247 0 492 -167 492 -539c0 -573 -445 -806 -706 -871zM857 486c0 254 -96 425 -305 425c-199 0 -304 -184 -304 -431c0 -251 97 -431 299 -431 c206 0 310 178 310 437z"/>
    <glyph glyph-name="notequal.cap" horiz-adv-x="1115" d="M109 497v54h369l100 255h-469v54h490l102 258h57l-102 -258h350v-54h-371l-100 -255h471v-54h-492l-101 -257h-57l101 257h-348z"/>
    <glyph glyph-name="notequal.lt" d="M135 497v54h369l100 255h-469v54h490l102 258h57l-102 -258h350v-54h-371l-100 -255h471v-54h-492l-101 -257h-57l101 257h-348z"/>
    <glyph glyph-name="notequal.op" horiz-adv-x="1115" d="M109 282v54h369l100 255h-469v54h490l102 258h57l-102 -258h350v-54h-371l-100 -255h471v-54h-492l-101 -257h-57l101 257h-348z"/>
    <glyph glyph-name="notequal.ot" d="M135 282v54h369l100 255h-469v54h490l102 258h57l-102 -258h350v-54h-371l-100 -255h471v-54h-492l-101 -257h-57l101 257h-348z"/>
    <glyph glyph-name="numero.alt6" horiz-adv-x="1987" d="M1319 1063c0 185 127 321 304 321c178 0 306 -136 306 -321s-128 -318 -306 -318c-177 0 -304 133 -304 318zM1623 795c125 0 155 140 155 268s-30 271 -155 271c-124 0 -153 -143 -153 -271s29 -268 153 -268zM1369 613v54h509v-54h-509zM127 0v1381l1003 -1087v1064h54 v-1381l-1003 1087v-1064h-54z"/>
    <glyph glyph-name="one.dnom" horiz-adv-x="649" d="M77 0v40h193v523l-118 -78v48l247 162v-655h193v-40h-515z"/>
    <glyph glyph-name="one.numr" horiz-adv-x="649" d="M77 678v40h193v523l-118 -78v48l247 162v-655h193v-40h-515z"/>
    <glyph glyph-name="one.inf" horiz-adv-x="649" d="M77 -282v40h193v523l-118 -78v48l247 162v-655h193v-40h-515z"/>
    <glyph glyph-name="one.lt" d="M83 0v54h422v1152l-271 -176v60l449 294v-1330h421v-54h-1021z"/>
    <glyph glyph-name="one.op" horiz-adv-x="1016" d="M41 0v54h395v733l-270 -176v60l448 294v-911h395v-54h-968z"/>
    <glyph glyph-name="one.ot" d="M131 0v54h395v733l-270 -176v60l448 294v-911h395v-54h-968z"/>
    <glyph glyph-name="two.numr" horiz-adv-x="556" d="M39 678c0 0 285 243 285 521c0 88 -28 134 -94 134c-107 0 -150 -121 -150 -121v74s39 87 172 87c135 0 192 -89 192 -187c0 -170 -177 -338 -250 -398h317l-40 -110h-432z"/>
    <glyph glyph-name="paragraph.alt7" horiz-adv-x="1346" d="M699 -458v1101s-52 -20 -151 -20c-262 0 -485 109 -485 367s223 368 485 368h743l-36 -54h-79v-1522l-177 -88v1610h-122v-1672z"/>
    <glyph glyph-name="parenleft.cap" horiz-adv-x="598" d="M109 648v4c0 653 370 906 370 906h66s-264 -231 -264 -906v-4c0 -675 264 -906 264 -906h-66s-370 253 -370 906z"/>
    <glyph glyph-name="parenright.cap" horiz-adv-x="598" d="M119 -258h-66s264 231 264 906v4c0 675 -264 906 -264 906h66s370 -253 370 -906v-4c0 -653 -370 -906 -370 -906z"/>
    <glyph glyph-name="period.tab" horiz-adv-x="584" d="M197 76c0 52 42 93 94 93s95 -41 95 -93s-43 -94 -95 -94s-94 42 -94 94z"/>
    <glyph glyph-name="periodcentered.cap" horiz-adv-x="403" d="M107 680c0 52 42 93 94 93s95 -41 95 -93s-43 -94 -95 -94s-94 42 -94 94z"/>
    <glyph glyph-name="plus.cap" horiz-adv-x="1096" d="M96 647v53h425v421h54v-421h425v-53h-425v-421h-54v421h-425z"/>
    <glyph glyph-name="plus.lt" d="M131 652v53h425v421h54v-421h425v-53h-425v-421h-54v421h-425z"/>
    <glyph glyph-name="plus.op" horiz-adv-x="1122" d="M109 437v53h425v421h54v-421h425v-53h-425v-421h-54v421h-425z"/>
    <glyph glyph-name="plus.ot" d="M131 437v53h425v421h54v-421h425v-53h-425v-421h-54v421h-425z"/>
    <glyph glyph-name="plusminus.cap" horiz-adv-x="1109" d="M527 367v356h-422v53h422v422h54v-422h423v-53h-423v-356h-54zM105 163v54h899v-54h-899z"/>
    <glyph glyph-name="plusminus.lt" d="M610 723v-356h-54v356h-423v53h423v422h54v-422h422v-53h-422zM1032 217v-54h-899v54h899z"/>
    <glyph glyph-name="plusminus.op" horiz-adv-x="1109" d="M527 204v356h-422v53h422v422h54v-422h423v-53h-423v-356h-54zM105 0v54h899v-54h-899z"/>
    <glyph glyph-name="plusminus.ot" d="M610 560v-356h-54v356h-423v53h423v422h54v-422h422v-53h-422zM1032 54v-54h-899v54h899z"/>
    <glyph glyph-name="questiondown.cap" horiz-adv-x="952" d="M617 1046v-174s-367 -127 -367 -511c0 -162 66 -333 280 -333c272 0 359 235 359 235v-116s-91 -173 -384 -173c-294 0 -448 178 -448 395c0 381 466 535 506 549v128h54zM684 1282c0 -52 -42 -93 -94 -93s-94 41 -94 93s42 94 94 94s94 -42 94 -94z"/>
    <glyph glyph-name="registered.cap" horiz-adv-x="1614" d="M83 679c0 408 324 705 724 705s724 -297 724 -705s-324 -705 -724 -705s-724 297 -724 705zM138 679c0 -378 301 -662 669 -662s668 284 668 662s-300 662 -668 662s-669 -284 -669 -662zM557 271v816h264c158 0 284 -66 284 -223c0 -161 -128 -232 -284 -232h-122 l453 -361h-65l-419 332v-332h-111zM668 675h127c127 0 189 68 189 189c0 119 -61 180 -189 180h-127v-369z"/>
    <glyph glyph-name="ring.cap" horiz-adv-x="554" d="M278 1474c-99 0 -175 50 -175 136c0 88 76 138 175 138c98 0 173 -50 173 -138c0 -86 -75 -136 -173 -136zM278 1514c41 0 67 31 67 96c0 64 -26 97 -67 97c-42 0 -68 -33 -68 -97c0 -65 26 -96 68 -96z"/>
    <glyph glyph-name="semicolon.tab" horiz-adv-x="584" d="M283 -274v36s84 66 84 180c0 32 -5 55 -11 71c-13 -15 -34 -31 -67 -31c-51 0 -92 34 -92 89c0 57 44 99 106 99c80 0 128 -71 128 -174c0 -183 -148 -270 -148 -270zM197 810c0 52 42 93 94 93s95 -41 95 -93s-43 -94 -95 -94s-94 42 -94 94z"/>
    <glyph glyph-name="seven.dnom" horiz-adv-x="584" d="M118 0l274 640h-303v40h454l-292 -680h-133z"/>
    <glyph glyph-name="seven.numr" horiz-adv-x="584" d="M118 678l274 640h-303v40h454l-292 -680h-133z"/>
    <glyph glyph-name="seven.inf" horiz-adv-x="584" d="M118 -282l274 640h-303v40h454l-292 -680h-133z"/>
    <glyph glyph-name="seven.lt" d="M284 0l559 1304h-694v54h897l-582 -1358h-180z"/>
    <glyph glyph-name="seven.op" horiz-adv-x="1027" d="M214 -419l559 1304h-694v54h897l-582 -1358h-180z"/>
    <glyph glyph-name="seven.ot" d="M284 -419l559 1304h-694v54h897l-582 -1358h-180z"/>
    <glyph glyph-name="six.dnom" horiz-adv-x="617" d="M423 693v-40c-87 -23 -186 -106 -230 -253c32 53 79 73 137 73c122 0 230 -92 230 -239c0 -158 -124 -249 -249 -249c-119 0 -244 84 -244 274c0 284 226 403 356 434zM312 25c98 0 124 112 124 206c0 91 -24 202 -118 202c-99 0 -127 -121 -127 -213 c0 -84 23 -195 121 -195z"/>
    <glyph glyph-name="six.numr" horiz-adv-x="617" d="M423 1373v-40c-87 -23 -186 -106 -230 -253c32 53 79 73 137 73c122 0 230 -92 230 -239c0 -158 -124 -249 -249 -249c-119 0 -244 84 -244 274c0 284 226 403 356 434zM312 705c98 0 124 112 124 206c0 91 -24 202 -118 202c-99 0 -127 -121 -127 -213 c0 -84 23 -195 121 -195z"/>
    <glyph glyph-name="six.inf" horiz-adv-x="617" d="M423 411v-40c-87 -23 -186 -106 -230 -253c32 53 79 73 137 73c122 0 230 -92 230 -239c0 -158 -124 -249 -249 -249c-119 0 -244 84 -244 274c0 284 226 403 356 434zM312 -257c98 0 124 112 124 206c0 91 -24 202 -118 202c-99 0 -127 -121 -127 -213 c0 -84 23 -195 121 -195z"/>
    <glyph glyph-name="six.lt" d="M807 1384v-54c-181 -46 -390 -220 -486 -518c75 93 173 132 283 132c241 0 472 -175 472 -483c0 -304 -244 -487 -483 -487c-247 0 -492 167 -492 539c0 573 445 806 706 871zM284 453c0 -254 96 -425 305 -425c199 0 304 184 304 431c0 251 -97 431 -299 431 c-206 0 -310 -178 -310 -437z"/>
    <glyph glyph-name="six.op" horiz-adv-x="1139" d="M793 1384v-54c-181 -46 -390 -220 -486 -518c75 93 173 132 283 132c241 0 472 -175 472 -483c0 -304 -244 -487 -483 -487c-247 0 -492 167 -492 539c0 573 445 806 706 871zM270 453c0 -254 96 -425 305 -425c199 0 304 184 304 431c0 251 -97 431 -299 431 c-206 0 -310 -178 -310 -437z"/>
    <glyph glyph-name="six.ot" d="M807 1384v-54c-181 -46 -390 -220 -486 -518c75 93 173 132 283 132c241 0 472 -175 472 -483c0 -304 -244 -487 -483 -487c-247 0 -492 167 -492 539c0 573 445 806 706 871zM284 453c0 -254 96 -425 305 -425c199 0 304 184 304 431c0 251 -97 431 -299 431 c-206 0 -310 -178 -310 -437z"/>
    <glyph glyph-name="space.frac" horiz-adv-x="96"/>
    <glyph glyph-name="space.tab" horiz-adv-x="584"/>
    <glyph glyph-name="space_uni0326" horiz-adv-x="418" d="M183 -423v29s71 31 71 106c0 22 -5 36 -10 46c-12 -12 -31 -27 -60 -27c-45 0 -81 32 -81 79s38 83 92 83c72 0 120 -64 120 -142c0 -133 -132 -174 -132 -174z"/>
    <glyph glyph-name="three.dnom" horiz-adv-x="610" d="M125 535v71s34 87 170 87c123 0 178 -71 178 -149c0 -60 -30 -110 -79 -145c85 -23 155 -93 155 -199c0 -124 -97 -215 -268 -215c-141 0 -184 61 -184 61v60s66 -81 172 -81c104 0 156 79 156 171c0 67 -30 150 -99 168c-37 -13 -79 -20 -123 -20l10 43s34 21 94 23 c45 29 60 81 60 130c0 61 -25 113 -97 113c-110 0 -145 -118 -145 -118z"/>
    <glyph glyph-name="three.numr" horiz-adv-x="610" d="M125 1215v71s34 87 170 87c123 0 178 -71 178 -149c0 -60 -30 -110 -79 -145c85 -23 155 -93 155 -199c0 -124 -97 -215 -268 -215c-141 0 -184 61 -184 61v60s66 -81 172 -81c104 0 156 79 156 171c0 67 -30 150 -99 168c-37 -13 -79 -20 -123 -20l10 43s34 21 94 23 c45 29 60 81 60 130c0 61 -25 113 -97 113c-110 0 -145 -118 -145 -118z"/>
    <glyph glyph-name="three.inf" horiz-adv-x="610" d="M125 253v71s34 87 170 87c123 0 178 -71 178 -149c0 -60 -30 -110 -79 -145c85 -23 155 -93 155 -199c0 -124 -97 -215 -268 -215c-141 0 -184 61 -184 61v60s66 -81 172 -81c104 0 156 79 156 171c0 67 -30 150 -99 168c-37 -13 -79 -20 -123 -20l10 43s34 21 94 23 c45 29 60 81 60 130c0 61 -25 113 -97 113c-110 0 -145 -118 -145 -118z"/>
    <glyph glyph-name="three.lt" d="M149 96v93c5 -7 116 -161 357 -161c212 0 353 129 353 347c0 149 -69 334 -246 367c-69 -23 -152 -37 -250 -37l14 54s70 44 196 49c91 54 149 149 149 282c0 141 -60 240 -204 240c-218 0 -310 -224 -314 -235v117s87 172 341 172c219 0 346 -128 346 -297 c0 -101 -44 -217 -168 -294c188 -48 320 -196 320 -406c0 -240 -173 -413 -504 -413c-284 0 -390 122 -390 122z"/>
    <glyph glyph-name="three.op" horiz-adv-x="1012" d="M57 -323v93c5 -7 116 -161 357 -161c212 0 353 129 353 347c0 149 -69 334 -246 367c-69 -23 -152 -37 -250 -37l14 54s70 44 196 49c91 54 149 149 149 282c0 141 -60 240 -204 240c-218 0 -310 -224 -314 -235v117s87 172 341 172c219 0 346 -128 346 -297 c0 -101 -44 -217 -168 -294c188 -48 320 -196 320 -406c0 -240 -173 -413 -504 -413c-284 0 -390 122 -390 122z"/>
    <glyph glyph-name="three.ot" d="M145 -323v93c5 -7 116 -161 357 -161c212 0 353 129 353 347c0 149 -69 334 -246 367c-69 -23 -152 -37 -250 -37l14 54s70 44 196 49c91 54 149 149 149 282c0 141 -60 240 -204 240c-218 0 -310 -224 -314 -235v117s87 172 341 172c219 0 346 -128 346 -297 c0 -101 -44 -217 -168 -294c188 -48 320 -196 320 -406c0 -240 -173 -413 -504 -413c-284 0 -390 122 -390 122z"/>
    <glyph glyph-name="tilde.cap" horiz-adv-x="777" d="M103 1494c0 102 54 183 172 183c105 0 184 -67 274 -67c40 0 77 21 83 80h42c0 -100 -53 -187 -173 -187c-104 0 -187 67 -269 67c-45 0 -81 -17 -87 -76h-42z"/>
    <glyph glyph-name="two.dnom" horiz-adv-x="556" d="M39 0c0 0 285 243 285 521c0 88 -28 134 -94 134c-107 0 -150 -121 -150 -121v74s39 87 172 87c135 0 192 -89 192 -187c0 -170 -177 -338 -250 -398h317l-40 -110h-432z"/>
    <glyph glyph-name="two.inf" horiz-adv-x="556" d="M39 -282c0 0 285 243 285 521c0 88 -28 134 -94 134c-107 0 -150 -121 -150 -121v74s39 87 172 87c135 0 192 -89 192 -187c0 -170 -177 -338 -250 -398h317l-40 -110h-432z"/>
    <glyph glyph-name="two.lt" d="M117 0c0 0 621 480 621 1021c0 199 -79 309 -229 309c-222 0 -308 -231 -309 -235v116s92 173 346 173c247 0 371 -165 371 -371c0 -409 -492 -802 -544 -845h663l-63 -168h-856z"/>
    <glyph glyph-name="two.op" horiz-adv-x="872" d="M49 0c0 0 518 300 518 690c0 124 -47 221 -189 221c-208 0 -278 -211 -282 -224v116s83 162 306 162c200 0 323 -106 323 -283c0 -237 -249 -433 -374 -514h481l-63 -168h-720z"/>
    <glyph glyph-name="two.ot" d="M196 0c0 0 518 300 518 690c0 124 -47 221 -189 221c-208 0 -278 -211 -282 -224v116s83 162 306 162c200 0 323 -106 323 -283c0 -237 -249 -433 -374 -514h481l-63 -168h-720z"/>
    <glyph glyph-name="uni2011.cap" horiz-adv-x="837" d="M109 652v54h619v-54h-619z"/>
    <glyph glyph-name="uni2015.cap" horiz-adv-x="1716" d="M109 652v54h1498v-54h-1498z"/>
    <glyph glyph-name="zero.numr" horiz-adv-x="657" d="M328 665c-128 0 -248 125 -248 354s120 354 248 354s249 -125 249 -354s-121 -354 -249 -354zM328 705c96 0 125 146 125 314s-29 314 -125 314s-124 -146 -124 -314s28 -314 124 -314z"/>
    <glyph glyph-name="zero.dnom" horiz-adv-x="657" d="M328 -15c-128 0 -248 125 -248 354s120 354 248 354s249 -125 249 -354s-121 -354 -249 -354zM328 25c96 0 125 146 125 314s-29 314 -125 314s-124 -146 -124 -314s28 -314 124 -314z"/>
    <glyph glyph-name="zero.inf" horiz-adv-x="657" d="M328 -297c-128 0 -248 125 -248 354s120 354 248 354s249 -125 249 -354s-121 -354 -249 -354zM328 -257c96 0 125 146 125 314s-29 314 -125 314s-124 -146 -124 -314s28 -314 124 -314z"/>
    <glyph glyph-name="zero.lt" d="M583 -26c-250 0 -491 256 -491 705c0 448 241 705 491 705s492 -257 492 -705c0 -449 -242 -705 -492 -705zM583 28c203 0 309 231 309 651c0 419 -106 651 -309 651s-308 -232 -308 -651c0 -420 105 -651 308 -651z"/>
    <glyph glyph-name="zero.op" horiz-adv-x="1133" d="M87 469c0 293 217 496 479 496s480 -203 480 -496s-218 -495 -480 -495s-479 202 -479 495zM270 469c0 -248 87 -441 296 -441s297 193 297 441s-88 442 -297 442s-296 -194 -296 -442z"/>
    <glyph glyph-name="zero.ot" d="M104 469c0 293 217 496 479 496s480 -203 480 -496s-218 -495 -480 -495s-479 202 -479 495zM287 469c0 -248 87 -441 296 -441s297 193 297 441s-88 442 -297 442s-296 -194 -296 -442z"/>
    <glyph glyph-name="zero_slash.lt" d="M583 -26c-250 0 -491 256 -491 705c0 448 241 705 491 705s492 -257 492 -705c0 -449 -242 -705 -492 -705zM363 175l412 1052c-49 68 -113 103 -192 103c-203 0 -308 -232 -308 -651c0 -224 30 -394 88 -504zM390 131c49 -68 113 -103 193 -103c203 0 309 231 309 651 c0 224 -31 394 -90 504z"/>
    <glyph glyph-name="zero_slash.op" horiz-adv-x="1133" d="M87 469c0 293 217 496 479 496s480 -203 480 -496s-218 -495 -480 -495s-479 202 -479 495zM395 88l307 788c-38 22 -83 35 -136 35c-209 0 -296 -194 -296 -442c0 -165 38 -305 125 -381zM428 64c38 -23 84 -36 138 -36c209 0 297 193 297 441c0 164 -39 305 -126 381z "/>
    <glyph glyph-name="zero_slash.ot" d="M104 469c0 293 217 496 479 496s480 -203 480 -496s-218 -495 -480 -495s-479 202 -479 495zM412 88l307 788c-38 22 -83 35 -136 35c-209 0 -296 -194 -296 -442c0 -165 38 -305 125 -381zM445 64c38 -23 84 -36 138 -36c209 0 297 193 297 441c0 164 -39 305 -126 381z "/>
    <glyph glyph-name="idotaccent" horiz-adv-x="436" d="M218 1046c-53 0 -97 43 -97 96s44 96 97 96c52 0 96 -43 96 -96s-44 -96 -96 -96zM135 0v886h166v-886h-166z"/>
    </font>
</defs>
</svg>
