<?xml version="1.0" standalone="no"?>
<!DOCTYPE svg PUBLIC "-//W3C//DTD SVG 1.1//EN" "http://www.w3.org/Graphics/SVG/1.1/DTD/svg11.dtd" >
<svg xmlns="http://www.w3.org/2000/svg" xmlns:xlink="http://www.w3.org/1999/xlink" version="1.1">
<metadata>
Created by FontForge 20170731 at Sat Nov 11 16:04:06 2006
 By Aleksey,,,
2006 Robert E. Leuschke 
</metadata>
<defs>
<font id="TheNautiGalROB" horiz-adv-x="285" >
  <font-face 
    font-family="TheNautiGal"
    font-weight="400"
    font-stretch="normal"
    units-per-em="1000"
    panose-1="0 0 4 0 0 0 0 0 0 0"
    ascent="800"
    descent="-200"
    x-height="239"
    cap-height="655"
    bbox="-406 -419 1457 800"
    underline-thickness="20"
    underline-position="-163"
    unicode-range="U+0020-F000"
  />
<missing-glyph horiz-adv-x="500" 
d="M63 0v800h375v-800h-375zM125 63h250v675h-250v-675z" />
    <glyph glyph-name=".notdef" horiz-adv-x="500" 
d="M63 0v800h375v-800h-375zM125 63h250v675h-250v-675z" />
    <glyph glyph-name=".null" horiz-adv-x="0" 
 />
    <glyph glyph-name="nonmarkingreturn" horiz-adv-x="168" 
 />
    <glyph glyph-name="space" unicode=" " horiz-adv-x="168" 
 />
    <glyph glyph-name="exclam" unicode="!" horiz-adv-x="359" 
d="M414 565q-26 -29 -61 -69l-126 -170q-76 -109 -96 -172q-4 -13 -4 -16q0 -8 15 1q8 6 34 35q3 4 6 3q3 -2 -0.5 -8.5t-12.5 -19.5t-16 -25q-11 -17 -19 -19q-15 -4 -24 1q-19 10 -19 23q0 6 3 18q20 92 142 285q1 7 4 20q7 30 37 71q26 35 55 61q20 2 48 0q38 -4 34 -19z
M109 31q-4 -4 -11.5 -20t-5.5 -19.5t0 -8t-4 -4.5q-11 0 -21.5 10t-12.5 24q-2 12 10 18t43 24q3 2 5 2q4 0 4 -5q0 -13 -7 -21z" />
    <glyph glyph-name="quotedbl" unicode="&#x22;" horiz-adv-x="293" 
d="M170 458q0 -65 -61 -108q-17 -12 -28 -12q-6 0 -6 4q0 2 24 27.5t24 46.5q0 15 -15 25.5t-15 19.5q0 33 31 33q16 0 31 -10.5t15 -25.5zM274 458q0 -65 -60 -108q-18 -12 -29 -12q-6 0 -6 4q0 2 24 27.5t24 46.5q0 15 -15 25.5t-15 19.5q0 33 32 33q16 0 30.5 -10.5
t14.5 -25.5z" />
    <glyph glyph-name="numbersign" unicode="#" horiz-adv-x="557" 
d="M548 331q0 -8 -38 -18q-34 -8 -48 -8h-66l-47 -123h102q35 0 35 -7q0 -8 -38 -17q-32 -7 -47 -7l-63 -1q-13 -35 -26 -69q-22 -54 -36 -54q-9 0 -9 14q0 9 36 109h-139q-13 -35 -25 -70q-22 -53 -36 -53q-8 0 -8 14q0 13 38 108h-76q-63 0 -63 17q0 15 35 15h117
q30 82 44 123h-36q-24 -1 -35 -1q-64 0 -64 18q0 7 15 11q11 4 20 4h56q37 -1 55 -1q6 15 17 45.5t16 45.5q8 31 17 31q7 0 7 -19q0 -39 -24 -104h59q40 -1 59 -1h16q51 123 58 123t7 -16q0 -37 -27 -106q20 0 60 1.5t60 1.5q22 0 22 -6zM357 305l-135 -1l-46 -122h138
q28 82 43 123z" />
    <glyph glyph-name="dollar" unicode="$" horiz-adv-x="307" 
d="M434 528q0 -15 -29 -32q-13 -8 -13 3q0 5 5 10q12 11 12 18q0 10 -22 10q-68 0 -149 -34q-98 -40 -98 -97q0 -29 72 -106t72 -113q0 -31 -30.5 -48t-73.5 -17q-22 0 -44 5q-65 -78 -81 -126q-2 -7 -9 -6t-6 8q8 55 67 133q-33 13 -48 36l2 5q28 -14 84 -14q114 0 114 51
q0 14 -40 51q-57 53 -73 72q-40 47 -40 87q0 57 58 98q44 32 108 48q41 10 57 13q51 64 65 106q2 7 9 6t6 -8q-6 -43 -44 -100q20 -1 34 -12q11 -11 21 -22q14 -15 14 -25z" />
    <glyph glyph-name="percent" unicode="%" horiz-adv-x="390" 
d="M396 488q0 -5 -6 -10q-92 -100 -183 -199q-148 -164 -148 -204q0 -8 4 -11.5l4 -3.5q0 -9 -13 -9q-14 0 -14 21q0 48 123 218q94 130 159 203q-78 -37 -137 -38q1 -1 1 -3q0 -26 -43.5 -75t-71.5 -49h-9q-13 0 -21.5 12.5t-8.5 27.5q0 33 49.5 95t80.5 62q29 0 29 -31
q0 -10 -2 -20q0 -2 4 -2q32 0 94.5 22.5t59.5 22.5q6 0 27.5 -11.5t21.5 -17.5zM312 209q0 -7 -13 -13v-3q0 -27 -43 -75.5t-71 -48.5h-9q-14 0 -22 14q-8 11 -8 26q0 33 49 95t81 62q29 0 29 -31q0 -11 -3 -20q0 -1 5 -2t5 -4zM172 453q-11 7 -23 27q-21 -1 -55.5 -47.5
t-34.5 -69.5q0 -17 13 -17q23 0 61 42.5t39 64.5zM285 194q-10 7 -22 27q-22 -1 -56.5 -47.5t-34.5 -69.5q0 -18 14 -18q22 0 60.5 43t38.5 65z" />
    <glyph glyph-name="ampersand" unicode="&#x26;" horiz-adv-x="673" 
d="M767 -191q1 2 3 2q7 0 -5 -19q-9 -14 -15 -20q-13 -16 -28 -25q-30 -18 -56 -18q-14 0 -22 6q-74 0 -133 63q-62 66 -99 190q-76 -33 -152 -33q-60 0 -105 36.5t-40 86.5q2 17 7 33q-23 -3 -45 -3q-53 0 -53 47q0 34 37 57q4 3 8 3t2 -4q-1 -4 -7 -8q-23 -14 -23 -37
q0 -15 11 -26t27 -11q25 0 51 3q45 107 246 239q24 194 130 196q9 0 9 -5q0 -6 -12 -6q-64 -2 -73 -151l52 33q79 52 79 69q0 12 -29 12q-13 0 -13 7q0 4 9 4q63 0 62 -26q0 -26 -14 -39q-10 -9 -68 -47q-46 -30 -80 -54q0 -62 7 -136q90 32 132 32q52 0 48 -40
q-13 -115 -143 -199q70 -272 174 -272q36 0 72 24q24 18 49 36zM585 218q2 21 -20 21q-38 0 -128 -29q4 -41 9 -68q7 -41 16 -79q116 84 123 155zM372 205q-3 59 0 115q-98 -81 -150 -168q46 13 150 53zM402 24q-14 53 -23 114q-3 22 -5 50q-39 -15 -100 -37
q-38 -13 -64 -20q-25 -48 -25 -87q0 -69 71 -69q59 0 146 49z" />
    <glyph glyph-name="quotesingle" unicode="'" horiz-adv-x="111" 
d="M170 458q0 -65 -61 -108q-17 -12 -28 -12q-6 0 -6 4q0 2 24 27.5t24 46.5q0 15 -15 25.5t-15 19.5q0 33 31 33q16 0 31 -10.5t15 -25.5z" />
    <glyph glyph-name="parenleft" unicode="(" horiz-adv-x="395" 
d="M510 502q-11 22 -38 22q-29 0 -70.5 -25t-46.5 -25l2 -1q-23 -27 -37 -29l-33 -33q-44 -46 -75 -88h-1q-22 -37 -48 -77q1 -14 -27 -56q0 -8 -10 -32.5t-10 -28.5l-4 -22q-8 -46 -8 -81q0 -24 21 -37q4 -3 4 -4q-1 0 -22 6q-5 0 -8.5 4t-7.5 8q-44 36 -44 99q0 32 14 70
q14 32 28 65q32 77 108 161v2q48 52 117 100q85 60 132 60q34 0 63 -28q9 -8 9 -24q0 -9 -8 -6z" />
    <glyph glyph-name="parenright" unicode=")" horiz-adv-x="395" 
d="M510 446q0 -11 -4.5 -32.5t-4.5 -33.5h-1q-3 -2 -32 -69q-22 -54 -107 -160l-8 -10q-39 -50 -112 -98q-81 -54 -130 -54q-34 0 -63 27q-8 8 -8 24q0 9 7 6q11 -22 38 -22q59 0 105 35q16 11 80 78q44 46 75 88h1q22 37 49 77q-1 14 27 57v4q3 11 10 23l-1 5q4 11 11 24v4
l3 22q9 46 9 81q0 24 -21 38q-5 2 -5 3q1 0 22 -6q5 0 9 -4t7 -8q44 -36 44 -99z" />
    <glyph glyph-name="asterisk" unicode="*" horiz-adv-x="248" 
d="M229 251q0 -13 -77 -13q46 -62 46 -65t-4 -3q-11 0 -59 53q-14 -69 -27 -69q-6 0 -6 14q0 3 10 56q-47 -38 -61 -38q-5 0 -5 5q0 6 9 13l46 34q-73 0 -73 9q0 8 16 9l62 2q-38 57 -38 62q1 1 2 3t2 2q3 0 15 -8l36 -46l12 52q6 24 10 24q6 0 6 -20q0 -14 -9 -59l62 41
q4 0 4 -4q0 -11 -52 -49h56q17 0 17 -5z" />
    <glyph glyph-name="plus" unicode="+" horiz-adv-x="286" 
d="M279 182q0 -10 -55 -20q-33 -5 -67 -10q-30 -105 -46 -105q-13 0 -13 18q0 4 10.5 42.5t11.5 41.5q-107 0 -107 16q0 17 17.5 17t50.5 1h49q13 42 35 125q8 1 8 -25q0 -27 -11 -100h51q44 0 66 2v-3z" />
    <glyph glyph-name="comma" unicode="," horiz-adv-x="127" 
d="M120 20q0 -65 -61 -107q-17 -13 -28 -13q-6 0 -6 4q0 2 24 27.5t24 46.5q0 16 -15 26t-15 19q0 33 31 33q16 0 31 -10.5t15 -25.5z" />
    <glyph glyph-name="hyphen" unicode="-" horiz-adv-x="241" 
d="M268 190q0 -12 -54 -26q-48 -13 -70 -13q-87 0 -87 20q0 19 14 19l143 1q37 0 53 2q1 -2 1 -3z" />
    <glyph glyph-name="hyphen" unicode="&#x2010;" horiz-adv-x="241" 
d="M268 190q0 -12 -54 -26q-48 -13 -70 -13q-87 0 -87 20q0 19 14 19l143 1q37 0 53 2q1 -2 1 -3z" />
    <glyph glyph-name="period" unicode="." horiz-adv-x="168" 
d="M148 46q-21 -24 -21 -47q0 -3 2 -4q1 -2 -2 -8t-5 -6q-13 0 -26.5 12.5t-16.5 30.5q-2 14 13 21.5t53 30.5q4 3 7 3q4 0 4 -7q0 -15 -8 -26z" />
    <glyph glyph-name="slash" unicode="/" horiz-adv-x="425" 
d="M437 474q0 -6 -6 -13q-34 -39 -100 -116q-135 -157 -212.5 -259.5t-77.5 -129.5q0 -9 5 -13.5l5 -4.5q0 -11 -16 -11q-18 0 -18 27q0 30 31 81q3 5 50 75q39 57 78 110q197 272 219 272q42 0 42 -18z" />
    <glyph glyph-name="zero" unicode="0" horiz-adv-x="501" 
d="M533 330q-11 -107 -150.5 -228t-246.5 -121q-50 0 -82 31t-27 81q6 63 82 174q82 120 138 120q11 0 29.5 -12t17.5 -21q-1 -5 -7 -5q-3 0 -7.5 1t-6.5 1q-15 0 -30 -12q-65 -50 -130 -141q-46 -64 -51 -107q-6 -59 60 -59q49 0 110 33q77 43 160 128q95 99 103 168
q7 75 -145 75q-107 0 -190 -32q-4 -2 -6 -2q-3 0 -2 1q2 4 5 7q79 60 218 60q42 0 71 -14q22 -11 57 -43t30 -83z" />
    <glyph glyph-name="one" unicode="1" horiz-adv-x="201" 
d="M278 446q0 -2 -2 -4q-60 -73 -131 -201q-80 -144 -87 -213q-1 -7 1.5 -20t2.5 -19q-1 -5 -4 -5q-4 0 -11 6q-24 23 -18 86q10 95 129 297q-30 -27 -68 -56q-1 1 0 4v3q34 40 68 81q57 67 69 67q10 0 31 -8.5t20 -17.5z" />
    <glyph glyph-name="two" unicode="2" horiz-adv-x="413" 
d="M535 400q-5 -54 -128 -155q-78 -64 -174 -125q-49 -31 -49 -32q-30 -18 -52 -25q70 14 139 14q134 0 128 -58q-1 -8 -6 -19q-6 -14 -11 -14q-2 0 0 14q2 17 -71 17q-62 0 -182 -12q-89 -9 -88 -9q-12 0 -16 41q330 176 454 365q9 13 9 21q2 17 -26 17q-45 0 -146 -37
q-113 -41 -114 -77q7 -7 6 -13q0 -5 -4 -5q-11 0 -24 19.5t-12 30.5q5 45 125 81q98 30 160 30q90 0 82 -69z" />
    <glyph glyph-name="three" unicode="3" horiz-adv-x="461" 
d="M520 391q-6 -56 -97 -99q-19 -11 -57 -28q70 -52 64 -107q-8 -78 -109 -137q-91 -52 -175 -52q-56 0 -87.5 31.5t-31.5 86.5q0 9 1 19q6 60 30 60q5 0 4 -8q-1 -5 -10 -24.5t-10 -30.5q-7 -66 92 -66q61 0 108.5 19t91.5 51q58 42 62 79q5 51 -109 51q-14 0 -41 -4.5
t-37 -4.5q-9 0 -17 21q-5 14 -10 29q16 3 47.5 6t136.5 43q43 16 66 28q47 25 49 47q2 16 -48 24q-32 5 -62 5q-47 0 -86 -9q-62 -14 -66 -45q0 -2 1 -6v-5q-1 -7 -5 -7q-5 0 -10 20.5t-4 27.5q4 36 62 54q42 12 93 12q56 0 102 -15q66 -22 62 -66z" />
    <glyph glyph-name="four" unicode="4" horiz-adv-x="421" 
d="M488 433q-2 -23 -46 -101q-31 -53 -61 -106q20 -2 38.5 -17.5t16.5 -33.5q-1 -11 -13.5 -25t-22.5 -14q-5 0 -4 5q0 6 9.5 20.5t10.5 20.5q0 8 -16 11q-11 2 -23 2h-8q-19 -29 -51 -109t-35 -109q-1 -7 5 -14t5 -10q0 -3 -9 -4q-17 0 -25.5 27.5t-3.5 72.5q6 58 40 142
q-7 1 -16 1q-50 0 -176 -29q-62 -15 -59 -15q-8 0 -16 15.5t-7 24.5q4 42 142 142q92 62 185 125h-21q-9 0 -9 3t15 6t22 3q12 0 22.5 -7.5t9.5 -19.5q-1 -8 -9 -14q-34 -22 -101 -69q-64 -51 -195 -148q125 29 235 25q30 54 59 109q45 82 47 102q1 7 -8 13t-9 8q4 8 26 8
q19 0 38.5 -12t17.5 -29z" />
    <glyph glyph-name="five" unicode="5" horiz-adv-x="393" 
d="M477 466q-1 -3 -13 -13q-72 -55 -194 -55q-36 0 -55 10l-76 -98q72 21 127 21q59 0 92 -25q40 -29 34 -85q-7 -68 -72 -134q-55 -57 -128 -91q-90 -42 -178 -42q-62 0 -111 20q-68 27 -63 78q2 11 7 11q2 0 5 -1q29 -83 124 -83q75 0 168 48q67 34 131 88q83 71 89 122
q5 55 -94 55q-28 0 -72 -13t-73 -28q-18 -9 -27 -18q-5 -6 -10.5 -12.5t-12.5 -6.5t-17.5 14t-9.5 22q0 1 60.5 96.5t69.5 109t17 13.5t25 -4q21 -5 27 -6q39 -4 86 -4q69 0 119 11q15 2 19 2q6 0 6 -2z" />
    <glyph glyph-name="six" unicode="6" horiz-adv-x="417" 
d="M502 467q-1 -8 -5 -9q-3 1 -9 9t-17 8t-33 -8q-45 -18 -103 -61q-84 -61 -171 -156q-111 -120 -118 -188q-5 -52 45 -52q63 0 166 65q110 70 116 130q4 34 -37 34t-112 -41q-74 -43 -91 -79q-6 -13 -10 -13q-3 0 -2 11q6 57 79 106q68 47 127 47q40 0 69 -21
q31 -24 27 -62q-8 -78 -119 -147q-102 -63 -185 -63q-99 0 -99 97q0 9 1 20q6 62 85 165q77 99 171 173q101 80 164 80q19 0 41 -14t20 -31z" />
    <glyph glyph-name="seven" unicode="7" horiz-adv-x="366" 
d="M474 379l-1 -4q-241 -105 -401 -322q-34 -47 -37 -76q-1 -11 7 -17q3 -3 3 -5q-1 -5 -6 -5h-4q-24 22 -18 74q9 82 147 219q126 124 219 166q-32 4 -72 4q-148 0 -208 -34q-13 -8 -19.5 -27t-10.5 -19q-12 0 -10 19q4 39 25 67q120 41 262 41q121 0 116 -41q-5 -3 -7 -8
q17 -13 15 -32z" />
    <glyph glyph-name="eight" unicode="8" horiz-adv-x="514" 
d="M600 522q-7 -69 -137 -166q-97 -65 -194 -131q78 -78 72 -127q-3 -34 -45 -69.5t-78 -40.5q-49 -6 -55 -6q-41 0 -84 16q-55 21 -52 54q5 42 73 97l106 76q-16 11 -35.5 46t-17.5 53q6 57 123 107q100 42 170 44h2q18 1 39 -7q27 -9 26 -23q-1 -5 -8.5 -6.5t-18.5 -1.5
q-16 1 -14 1q-5 0 -53 -15q-229 -74 -235 -122q0 -4 26.5 -28t30.5 -24q3 0 72 46l156 102q88 64 124 134h2q5 1 5 -2q1 -2 0 -7zM296 133q1 12 -22 39.5t-35 27.5q-6 0 -60 -39q-50 -36 -62 -47q-51 -44 -54 -76q-1 -3 0 -5q12 -7 14 -7q6 0 17 1.5t15 1.5q3 0 2.5 -1
t1.5 -1q3 0 5.5 3t4.5 3t2 -1h3q6 0 34 10q129 46 134 91z" />
    <glyph glyph-name="nine" unicode="9" horiz-adv-x="341" 
d="M388 345q-62 -79 -124 -159q-125 -162 -139 -226q-7 -32 11 -32q3 0 9.5 1t9.5 1q6 0 6 -5q-6 -10 -28 -10q-44 0 -44 49q0 14 4 30q13 61 78 159q58 89 115 147q-42 -26 -83 -53q-51 -28 -87 -28t-61.5 26.5t-22.5 62.5q6 56 94 116q83 57 142 57q23 0 50 -21t25 -43
q-3 -27 -25 -27q-20 0 -17 62q-8 3 -20 3q-50 0 -132 -64.5t-87 -113.5q-3 -24 32 -24q42 0 100 24q54 23 95 55q59 45 61 45q9 0 24.5 -12t13.5 -20z" />
    <glyph glyph-name="colon" unicode=":" horiz-adv-x="98" 
d="M137 181q-4 -5 -11 -19q-8 -19 -5 -24q1 -1 -1 -6t-4 -5q-11 0 -22 10t-14 26q-1 12 11.5 18t43.5 25q3 2 6 2t3 -6q0 -12 -7 -21zM81 38q-4 -4 -11 -19q-8 -18 -6 -21.5t0 -8.5t-4 -5q-11 0 -22 10.5t-13 25.5q-2 12 10.5 18t43.5 25q3 2 6 2t3 -5q0 -13 -7 -22z" />
    <glyph glyph-name="semicolon" unicode=";" horiz-adv-x="98" 
d="M137 181q-4 -5 -11 -19q-8 -19 -5 -24q1 -1 -1 -6t-4 -5q-11 0 -22 10t-14 26q-1 12 11.5 18t43.5 25q3 2 6 2t3 -6q0 -12 -7 -21zM88 17q4 -12 -14 -25t-62 -50q-1 -1 -4 -5.5t-4 -4.5q-2 1 -3 4q-3 8 7.5 21t22.5 26q17 21 17 31q0 8 -5.5 13t-9.5 4t-5 3q0 5 3 6
q7 2 16 2q32 0 41 -25z" />
    <glyph glyph-name="less" unicode="&#x3c;" horiz-adv-x="269" 
d="M221 368l-131 -129q43 -104 39 -113q-4 -12 -12 -11l-6 3q-12 33 -67 93q-2 1 -1 5q4 10 71 74q62 57 84 75q11 8 19 8q6 0 4 -5z" />
    <glyph glyph-name="equal" unicode="=" horiz-adv-x="286" 
d="M302 267q0 -11 -68 -22q-60 -11 -88 -11q-110 0 -110 16q0 17 18 17q30 0 91 1h90q56 0 67 1v-2zM279 182q0 -11 -68 -22q-60 -11 -88 -11q-110 0 -110 16q0 17 18 17q30 0 91 1h90q45 0 67 2v-3z" />
    <glyph glyph-name="greater" unicode="&#x3e;" horiz-adv-x="269" 
d="M231 266q-6 -16 -155 -148q-12 -9 -20 -9q-5 0 -3 5q4 10 131 130q-43 103 -39 112q4 12 13 12l5 -3q9 -25 29 -51q19 -21 38 -43q2 -1 1 -5z" />
    <glyph glyph-name="question" unicode="?" horiz-adv-x="431" 
d="M648 472q-54 -61 -191 -139t-189 -134q-42 -46 -42 -70q0 -19 18 -35q8 -4 8 -6t-9 -5q-53 4 -53 47q0 39 71 106q46 44 112 97q58 46 115 92q37 28 107 89q28 28 28 42q0 16 -33 16q-37 0 -109 -19q-56 -15 -78 -24q-122 -52 -158 -105q-5 -8 -5 -16q0 -4 1.5 -9t1.5 -7
q0 -3 -6 -5q2 0 -14 10q-7 0 -18 17t-11 23q0 55 166 114q139 49 208 52q44 2 74 -20t30 -55q0 -28 -24 -56zM193 38q-4 -4 -11 -19q-8 -18 -6 -21.5t-0.5 -8.5t-4.5 -5q-11 0 -22 10.5t-13 25.5q-2 12 10.5 18t43.5 25q4 2 6 2q4 0 4 -5q0 -13 -7 -22z" />
    <glyph glyph-name="at" unicode="@" horiz-adv-x="593" 
d="M575 347q36 -58 36 -114q0 -104 -115 -171q-118 -69 -311 -69q-17 0 -30 1q-79 5 -123 55q-41 45 -41 114q0 50 23 98q27 59 98 115q66 52 150 87q99 42 189 42q46 0 85 -12q65 -20 65 -79q0 -36 -26 -67zM556 365q16 27 16 51q0 40 -41 55q-32 12 -83 12
q-107 0 -177 -40q-104 -60 -170 -166t-50 -184q17 -86 129 -86q130 0 257 80q133 82 133 176q0 35 -26.5 72t-26.5 43q0 5 5 5q14 0 34 -18zM556 331q-27 -54 -80 -113q-74 -83 -136 -87q-42 -3 -42 41q0 8 2 16q2 15 15 51q-23 -33 -59 -71q-45 -49 -62 -49q-22 0 -36 22
q-11 18 -11 37q0 68 76 143.5t141 74.5q22 0 44 -32q7 -7 7 -18q0 -8 -6 -11l-5 6t-16 8q-32 6 -104 -54q-75 -62 -95 -118q-6 -16 -6 -26q0 -19 22 -3q42 31 89 85.5t54 82.5q6 8 23 8q13 0 27.5 -6.5t9.5 -14.5q-50 -76 -62 -119q-2 -6 -2 -11q0 -11 11 -11q9 0 24 7
q44 20 95 79q1 0 69 86q8 10 12 10q7 0 1 -13z" />
    <glyph glyph-name="A" unicode="A" horiz-adv-x="703" 
d="M852 582q1 -18 -11 -39q-8 -16 -52 -85q-33 -52 -100 -163q37 -14 33 -48q18 -36 18 -42q0 -21 -17 -30.5t-34 -16.5q-2 -1 -14.5 -9.5t-17.5 -8.5q-3 0 -3 5q0 -1 26 24.5t26 51.5q0 27 -36 40q-67 -122 -86 -206q-5 -23 -4 -39q2 -26 20 -26q33 0 70 54q4 6 7 7
q1 -2 2 -5q0 -2 -8.5 -22t-17.5 -41q-14 -27 -30 -27q-22 0 -65 33q-15 11 -18 37q-6 73 71 245q-11 1 -22 1q-54 0 -116 -12q-66 -89 -133 -178q-91 -120 -161 -180q-96 -82 -181 -82q-54 0 -97 25q-50 31 -50 81q0 7 6 7t6 -8q0 -57 84 -57q21 0 42 2q100 14 198 107
q29 26 152 173q37 44 88 100q-92 -27 -183 -54q-125 -37 -178 -37q-28 0 -43 24q-12 20 -12 50q0 35 92 71q79 30 125 30q12 0 12 -4q0 -2 -2 -5q-191 -64 -191 -87q0 -13 38 -13q70 0 191 28q166 38 192 42l44 49q130 143 200 217q17 21 53 64q1 -1 53 -9q31 -5 34 -34z
M726 513q0 4 -2 4q-25 0 -216 -216q47 6 88 6q20 0 31 -1q16 34 90 181q10 19 9 26z" />
    <glyph glyph-name="B" unicode="B" horiz-adv-x="682" 
d="M732 475q18 -29 18 -55q0 -58 -79 -97q-62 -31 -129 -36q-6 -1 -4 -3q2 -3 9 -3q49 0 85 -12q48 -17 50 -51q-1 -3 12 -16.5t13 -26.5q0 -9 -6 -19q-64 -104 -208 -156q-108 -39 -218 -39q-58 0 -92 15q-72 34 -95 89q-9 22 -9 43q0 81 125 131q17 6 17 -4q0 -7 -8 -10
q-38 -16 -68.5 -60t-30.5 -85q0 -80 116 -80q80 0 209 53q57 23 127 69q91 60 91 95q0 40 -119 40q-47 0 -71 -6q-8 -2 -35 -17q-23 -14 -36 -14q-29 0 -29 28q0 25 35 31q32 1 89 11q156 56 208 141q12 19 12 38q0 57 -131 67q-18 -15 -24 -22q-284 -291 -284 -423
q0 -46 34 -46v-8q-6 -3 -13 -3q-23 0 -41 28q-16 25 -16 50q0 74 91 216q73 113 162 210q-74 -1 -193 -15q-89 -10 -171 -45q-86 -38 -86 -72q0 -13 19 -13q5 -4 3 -7q-2 -2 -11 -1q-18 2 -43.5 26.5t-25.5 42.5q0 38 87 69q77 29 188 42q144 16 265 7l3 3q-6 7 -6 14
q0 16 27 37q20 15 41 29q18 0 40 -10q26 -12 26 -27q0 -5 -2 -11q-5 -14 -42 -46q55 -12 88 -31q28 -16 31.5 -35.5t4.5 -19.5z" />
    <glyph glyph-name="C" unicode="C" horiz-adv-x="561" 
d="M670 550q19 -26 19 -60q0 -42 -28 -79q-43 -55 -84 -88q-43 -36 -116 -74q-6 -5 -10 -5q-7 0 -7 7q0 4 3 7q114 56 163 143q33 59 33 87q0 39 -57 39q-156 0 -321 -136q-168 -138 -183 -288q-12 -110 120 -110q83 0 206 43q103 36 159 71q24 15 32 15q3 0 3 -3
q0 -6 -15 -20q-56 -52 -117 -82q-121 -59 -217 -59q-95 0 -161 58q-9 11 -31 36q-17 15 -46 46q-11 17 -8 53q12 113 156 244q135 124 286 176q67 23 130 23q89 0 91 -44z" />
    <glyph glyph-name="D" unicode="D" horiz-adv-x="755" 
d="M405 -20q-68 -12 -121 -12q-86 0 -116 32q-16 -6 -33.5 15.5t-17.5 58.5q0 52 35 87q57 57 171 98q76 141 203 280q-75 -2 -193 -16q-89 -10 -171 -45q-86 -38 -86 -72q0 -13 19 -13q5 -4 3 -7q-2 -2 -11 -1q-18 2 -43.5 26.5t-25.5 42.5q0 38 87 69q77 29 188 42
q126 14 266 8l2 2q-6 7 -6 14q0 16 27 37q20 15 41 29q18 0 40 -10q26 -12 26 -27q0 -18 -39 -53q93 -12 137 -37q101 -59 101 -159q0 -134 -181 -258q-152 -104 -302 -131zM855 409q0 117 -235 129q-20 -17 -27 -24q-136 -139 -203 -235q48 13 101 22q17 6 17 -4
q0 -7 -8 -10q-67 -9 -126 -31q-65 -100 -65 -165q0 -46 34 -46v-8q-6 -3 -13 -3q-23 0 -41 28q-16 25 -16 50q0 44 33 113q-60 -34 -95.5 -75t-39.5 -77q-8 -81 94 -81q66 0 137 29q118 48 244 133q123 84 166 144.5t43 110.5z" />
    <glyph glyph-name="E" unicode="E" horiz-adv-x="632" 
d="M718 624q-29 -34 -68 -77q9 -13 9 -51q0 -26 -7 -41.5t-14 -15.5q-6 0 -6 9q0 4 2 10q3 10 2 34q0 27 -8 27q-13 0 -38 -45t-25 -61q0 -13 12 -20q5 -1 3 -5q-3 -5 -12 -3q-40 9 -40 51t39 110q6 10 -23 10q-73 0 -180 -59q-115 -63 -115 -120q0 -27 57 -27q25 0 66 5
t47 5q23 0 40.5 -21t18.5 -44l-1 -3v-1q-23 12 -59 12q-64 0 -160 -36q-79 -29 -131 -62q-58 -36 -77 -67.5t-19 -64.5q0 -97 140 -97q122 0 229 49q100 46 135.5 92t35.5 76q0 19 -20 40q-13 14 -2 17q22 -4 43 -32t21 -48q13 -25 5 -47q-33 -84 -157 -138
q-111 -49 -222 -49q-90 0 -154 31q-85 40 -85 121q0 68 84 138q69 56 148 85l46 16q-94 10 -94 81q0 50 78 110q63 49 124 70q68 24 122 24q58 0 94 -28q34 51 64 78q18 0 35 -10.5t17 -27.5z" />
    <glyph glyph-name="F" unicode="F" horiz-adv-x="752" 
d="M860 565q0 -27 -12 -48q-3 -8 -27 -41t-153 -170q41 2 70 -3q34 -5 47 -12q27 -14 23 -44q7 -15 15 -29q4 -10 2 -22q-4 -16 -19.5 -24t-31.5 -14q-8 -8 -31 -18q-3 -1 -4 4q0 4 6 8q47 29 47 69q0 51 -117 51q-20 0 -41 -2q-99 -107 -140 -171q-13 -20 -34 -59
q2 -1 10 -1t8 -7q0 -8 -12 -32q-19 -35 -23 -45q-7 -10 -22 -10q-40 0 -40 45q0 32 138 230q11 15 28 38q-49 -11 -198 -56q-121 -37 -191 -43q-31 -3 -48 22q-13 20 -13 52q0 27 68 61q62 30 115 38q39 6 43 -7q-86 -29 -126 -45q-71 -28 -71 -45q0 -21 88 -16q50 3 150 26
q63 17 212 50q66 83 178 236q33 52 33 69q0 26 -58 26q-101 0 -318 -69q-237 -75 -324 -150q-17 -14 -17 -27q0 -17 26 -17q5 -3 5 -6q0 -7 -20 -4q-17 3 -44 22q-32 23 -32 42q0 32 127 89q124 55 283 96q174 45 291 45q154 0 154 -82z" />
    <glyph glyph-name="G" unicode="G" horiz-adv-x="664" 
d="M777 270q-1 -8 -9 -8q-33 33 -69 33q-13 0 -36 -5q42 -35 38 -81q-5 -49 -70 -108q-160 -143 -347 -143q-126 0 -192 58q-9 11 -31 36q-17 15 -46 46q-12 17 -8 53q9 92 109 200q93 101 220 170q131 72 228 72q28 0 52 -6q34 -10 67 -41q37 -36 33 -69q0 -1 -1.5 -6
t-1.5 -7q1 -10 -24 -33t-34 -23q-2 0 -3 1t-2 1.5t-1 4.5q0 2 22.5 29.5t24.5 41.5q2 24 -50 35q-30 6 -60 6q-156 0 -321 -136q-169 -138 -184 -288q-5 -56 43 -84q39 -22 102 -22q24 0 46 4q108 16 218 75q140 74 149 162q6 58 -97 58q-90 0 -210 -50q-4 0 43 0q1 -2 1 -3
l-84 -16q-8 -1 -15.5 11.5t-7.5 21.5q4 36 98 58q84 20 195 20q132 0 182 -27q35 -19 33 -41z" />
    <glyph glyph-name="H" unicode="H" horiz-adv-x="936" 
d="M1210 552q0 -6 -3 -12q-5 -13 -42 -47q-25 -22 -51 -45q-109 -112 -171 -192q52 1 76 6q8 1 17 -1.5t9 -5.5q0 -12 -118 -19q-98 -132 -98 -211q0 -46 35 -46v-8q-6 -3 -13 -3q-24 0 -41 28q-16 25 -16 50q0 66 73 187q-89 -3 -274 -8q-84 -94 -133 -185q2 -1 10 -1t8 -7
q0 -8 -12 -32q-19 -35 -23 -45q-7 -10 -22 -10q-40 0 -40 45q0 33 138 230l2 3q-213 -8 -296 -29q-99 -25 -99 -61q0 -22 20 -39.5t43 -24.5q7 -3 7 -7q1 -5 -2 -5q-8 0 -20 4.5t-15 5.5q-17 3 -34 6.5t-24 18.5q-6 11 -4 22q4 16 8 31q-4 11 -4 21q0 23 19 45q15 18 34 26
q72 32 247 32q26 0 143 -4h9q74 93 201 266q33 52 33 69q0 26 -58 26q-101 0 -318 -69q-237 -75 -324 -150q-17 -14 -17 -27q0 -17 26 -17q5 -3 5 -6q0 -7 -20 -4q-17 3 -44 22q-32 23 -32 42q0 32 127 89q124 55 283 96q174 45 291 45q154 0 154 -82q0 -27 -12 -48
q-4 -8 -27 -40t-82 -96q-56 -59 -112 -119q179 -5 255 -6q100 157 200 253q-6 6 -6 14q0 15 27 37q20 14 41 29q18 -1 39 -10q27 -12 27 -27z" />
    <glyph glyph-name="I" unicode="I" horiz-adv-x="498" 
d="M702 543q3 -1 3 -3q0 -10 -16 -7q-44 9 -99 11q-13 -11 -34 -30q-284 -291 -284 -423q0 -46 34 -46v-8q-6 -3 -13 -3q-23 0 -41 28q-16 25 -16 50q0 76 94 221q76 116 164 211q-146 -6 -210 -42q-24 -14 -24 -31q0 -47 42 -88q5 -5 -1 -6t-13 2q-25 14 -47 53t-22 70
q0 38 72 62q67 22 166 22q31 0 62 -3q-6 17 23 40l44 32q18 0 40 -10q26 -12 26 -27q0 -17 -35 -49q47 -10 85 -26zM520 -88q-2 -13 -12 -18.5t-20 -10.5q-5 -6 -20 -13q-2 3 2 10q30 22 31 56q2 57 -123 57q-87 0 -169 -19t-114 -19q-94 0 -89 90q1 7 8 20t14 13t7 -9
q0 -4 -4 -8q-16 -15 -4 -32q22 -30 80 -30q30 0 112 16q40 10 80 19q63 14 107 14q119 0 105 -102q5 -17 10 -24q1 -2 -1 -10z" />
    <glyph glyph-name="J" unicode="J" horiz-adv-x="433" 
d="M648 496q0 -12 -19 -12h-2q-22 2 -64 8q3 -13 3 -30q0 -107 -94 -259q-54 -86 -109 -150q-70 -79 -150 -132q-100 -66 -185 -66q-36 0 -61 14q-30 17 -30 51q0 62 101 134q49 35 117 56t129 21q12 0 12 -9q0 -3 -6 -3q-107 0 -225 -86q-84 -62 -84 -115q0 -23 18 -35.5
t42 -12.5q36 0 80 23q138 72 282 317q108 184 108 279q0 5 -1 9q-33 4 -60 4q-82 0 -151 -18q-103 -27 -103 -84q0 -35 40 -85q27 -33 80 -60q2 -2 2 -3q0 -3 -8 -3q-5 0 -9 2q-64 30 -103 80q-41 55 -41 122q0 83 212 83q40 0 134 -11q-6 11 -17 16q9 6 17 6q20 0 40 -18
q5 -5 9 -10q74 -11 93 -20q3 -1 3 -3z" />
    <glyph glyph-name="K" unicode="K" horiz-adv-x="934" 
d="M1457 639q0 -10 -8 -10q-3 0 -4 4q-17 30 -64 30q-117 0 -379 -168q-142 -91 -271 -203q33 3 60 3q135 0 135 -88q0 -67 -76 -187q-38 -57 -76 -113q-54 -84 -54 -103q0 -14 10 -17q7 -2 5 -9t-9 -5q-73 22 -73 52q0 22 30 61q178 229 178 332q0 31 -18 42
q-36 24 -133 14q-124 -111 -211 -218q-5 -6 -11 -3q-6 2 -1 8q80 103 183 208q-17 -3 -44 -7q-93 -101 -132 -163q-13 -20 -34 -59q2 -1 10 -1t8 -7q0 -8 -12 -32q-19 -35 -23 -45q-7 -10 -22 -10q-40 0 -40 45q0 32 138 230q86 107 235 311q33 52 33 69q0 26 -58 26
q-101 0 -318 -69q-237 -75 -324 -150q-17 -14 -17 -27q0 -17 26 -17q5 -3 5 -6q0 -7 -20 -4q-17 3 -44 22q-32 23 -32 42q0 38 134 95q125 53 294 93q176 42 289 42q139 0 139 -76q0 -39 -41 -95q-17 -25 -177 -196q25 4 45 7q172 173 336 277q194 124 337 124q23 0 56 -14
q40 -16 40 -35z" />
    <glyph glyph-name="L" unicode="L" horiz-adv-x="600" 
d="M522 549q-1 -7 0 -16q2 -10 2 -14q0 -30 -64 -99q-23 -25 -171 -152q-127 -110 -137 -135q-3 -7 -6 -7q-5 0 -3 10q6 26 117 141q65 66 129 132q31 28 77 77q24 30 24 50q0 15 -14 15q-24 0 -60 -38q-133 -142 -138 -148q-88 -102 -126 -189q-21 -49 -21 -87
q0 -37 25 -46q9 -3 9 -9q0 -4 -6 -4q-4 0 -10 2q-42 13 -42 70q0 77 70 210q63 122 146 221t123 95q19 -2 42 -37q25 -38 34 -42zM620 -86q-3 -14 -15 -19.5t-25 -9.5q-7 -6 -24 -13q-3 3 2 10q36 22 38 55q3 55 -125 55q-80 0 -183.5 -19t-142.5 -19q-116 0 -110 89
q1 9 10 21t17 12q9 0 9 -9q0 -4 -5 -8q-11 -9 -11 -18q0 -7 6 -14q26 -29 99 -29q37 0 138 16q45 9 90 19q71 14 115 14q122 0 105 -100q6 -17 12 -24q1 -1 0 -9z" />
    <glyph glyph-name="M" unicode="M" horiz-adv-x="1128" 
d="M1217 372q6 -4 6 -13q0 -29 -80 -156q-84 -134 -91 -166q-2 -11 -2 -21q0 -34 22 -34q9 0 21 7q18 18 50 46q3 3 5 4q3 1 4 0q0 -1 -2 -5q-15 -26 -30 -53q-22 -37 -41 -37q-17 0 -62 33q-15 11 -15 39q0 80 84 232q14 24 14 32q0 4 -4 4q-16 0 -85 -76t-103 -135
q-6 -10 -12 -10q-3 0 -3 5t5 15q17 35 71 109q66 91 177 197q7 -4 34.5 -7t36.5 -10zM1051 405q0 -26 -45 -100q-76 -123 -86 -142q-47 -88 -50 -146q-39 -4 -39 46q0 20 6 47q13 59 52 133q55 104 64 126.5t9 34.5q0 15 -14 15q-24 0 -84 -45q-52 -40 -151 -125
q-171 -169 -256 -300q-5 -8 -21 -8q-20 0 -36 12q-19 14 -19 37q0 32 138 230q86 107 235 311q33 52 33 69q0 26 -58 26q-101 0 -318 -69q-237 -75 -324 -150q-17 -14 -17 -27q0 -17 26 -17q5 -3 5 -6q0 -7 -20 -4q-17 3 -44 22q-32 23 -32 42q0 23 88 69q65 33 114 50
q103 36 113 40q67 21 118 33q163 38 268 38q154 0 154 -82q0 -27 -12 -48q-4 -8 -28 -41q-21 -29 -138 -164q-107 -123 -152 -194q-10 -15 -3 -15l3 3q181 201 338 301q76 49 132 49q18 0 36 -20q15 -18 15 -31z" />
    <glyph glyph-name="N" unicode="N" horiz-adv-x="969" 
d="M1041 405q0 -20 -73 -156q-81 -150 -95 -195q-5 -18 -5 -25q0 -16 29 6q18 18 50 46q3 3 5 4q3 1 4 0q0 -1 -2 -5q-15 -26 -30 -53q-22 -37 -41 -37q-10 0 -36.5 15.5t-35.5 26.5t-3 48q8 53 48 129q38 67 75 134q29 53 29 72q0 10 -8 10q-20 0 -88 -51
q-52 -40 -151 -125q-171 -169 -256 -300q-5 -8 -21 -8q-20 0 -36 12q-19 14 -19 37q0 32 138 230q86 107 235 311q33 52 33 69q0 26 -58 26q-101 0 -318 -69q-237 -75 -324 -150q-17 -14 -17 -27q0 -17 26 -17q5 -3 5 -6q0 -7 -20 -4q-17 3 -44 22q-32 23 -32 42
q0 32 127 88q124 56 283 97q174 45 291 45q154 0 154 -82q0 -27 -12 -48q-4 -8 -28 -41q-21 -29 -138 -164q-107 -123 -152 -194q-10 -15 -3 -15l3 3q98 109 213 207q168 143 247 143q18 0 36 -20q15 -18 15 -31z" />
    <glyph glyph-name="O" unicode="O" horiz-adv-x="534" 
d="M608 444q4 -21 4 -44q0 -98 -72 -206q-69 -102 -171 -170q-106 -70 -198 -69q-80 1 -122 56q-38 49 -38 127q0 66 26.5 128.5t79 105.5t98.5 43q48 0 75 -21q5 -3 5 -6q0 -5 -22 -5q-73 0 -142 -103q-66 -99 -67 -193q-1 -105 92 -108q112 -3 233 129q108 118 129 223
q6 31 6 61q0 46 -14 82q-35 89 -144 89q-77 0 -149 -40q-66 -36 -109 -90q-47 -57 -50 -115q-5 -8 -9 -8t-7 8q3 23 -8.5 43t-11.5 25q0 9 9 19q-12 79 154 139q108 40 211 40q184 0 212 -140z" />
    <glyph glyph-name="P" unicode="P" horiz-adv-x="652" 
d="M805 478q12 -20 12 -41q0 -69 -128 -133q-105 -53 -180 -59q-50 -5 -107 -19q-40 -10 -38 -10q-29 0 -29 8q0 7 34 13q111 19 219 64q139 59 184 133q12 19 12 38q0 64 -200 68q-98 -85 -193 -209q-119 -155 -119 -240q0 -46 34 -46v-6q60 10 118 10q7 0 7 -9
q-1 -9 -8 -9q-54 0 -127 -29q-81 -33 -133 -83q-3 -3 -6 -3q-7 0 -7 21q0 36 16 52q33 30 118 46q-22 6 -37.5 28t-15.5 49q0 75 89 216q73 116 160 211q-69 -3 -184 -16q-89 -10 -171 -45q-86 -38 -86 -72q0 -13 19 -13q5 -4 3 -7q-2 -2 -11 -1q-18 2 -43.5 26.5
t-25.5 42.5q0 38 87 69q77 29 188 42q129 15 259 11q-6 6 -6 14q0 15 27 36q21 15 41 30q19 -1 44 -11q31 -12 31 -27q0 -17 -33 -48q104 -11 150 -37q28 -17 31 -36t5 -19z" />
    <glyph glyph-name="Q" unicode="Q" horiz-adv-x="512" 
d="M776 -160q-4 -20 -21 -30t-35 -18q-10 -9 -35 -23q-3 0 -4 5q-1 6 6 11q52 36 52 87q0 64 -129 64q-108 0 -285 -59q-193 -65 -271 -73q-35 -3 -55 27q-17 27 -17 65q0 39 87 94q-58 49 -58 148q0 66 26.5 128.5t79 105.5t98.5 43q48 0 75 -21q5 -3 5 -6q0 -5 -22 -5
q-73 0 -142 -104q-67 -100 -67 -194q0 -54 28 -81q51 28 88 34q31 5 31 -3q0 -2 -2 -4q-33 -13 -89 -45q16 -6 36 -7q112 -3 233 129q108 118 129 223q6 31 6 61q0 46 -14 82q-35 89 -144 89q-77 0 -149 -40q-66 -36 -109 -90q-47 -57 -50 -115q-5 -8 -9 -8t-7 8
q3 23 -8.5 43t-11.5 25q0 9 9 19q-12 79 154 139q108 40 211 40q184 0 212 -140q4 -21 4 -44q0 -98 -72 -206q-69 -102 -171 -170q-106 -70 -198 -69q-42 1 -75 17q-27 -17 -45 -32q-43 -36 -43 -56q0 -25 73 -20q59 5 184 38q81 23 162 45q126 33 202 33q29 0 51 -5
q37 -7 52 -16q29 -17 25 -55q20 -45 20 -53q0 -5 -1 -11z" />
    <glyph glyph-name="R" unicode="R" horiz-adv-x="637" 
d="M732 475q18 -29 18 -55q0 -58 -79 -97q-62 -31 -129 -36q-14 -2 -55 -8q-46 -7 -46 -10q0 -70 24 -162q32 -122 83 -122q24 0 52 31q13 14 73 96q18 25 25 25q2 0 2 -4q0 -23 -71 -121q-53 -72 -110 -69q-97 4 -156 313q3 2 8 4q-2 2 -2 4q0 9 33 15q111 19 166 42
q86 36 131 110q12 19 12 38q0 57 -131 67q-18 -15 -24 -22q-284 -291 -284 -423q0 -46 34 -46v-8q-6 -3 -13 -3q-23 0 -41 28q-16 25 -16 50q0 74 91 216q73 113 162 210q-74 -1 -193 -15q-89 -10 -171 -45q-86 -38 -86 -72q0 -13 19 -13q5 -4 3 -7q-2 -2 -11 -1
q-18 2 -43.5 26.5t-25.5 42.5q0 38 87 69q77 29 188 42q144 16 265 7l3 3q-6 7 -6 14q0 16 27 37q20 15 41 29q18 0 40 -10q26 -12 26 -27q0 -5 -2 -11q-5 -14 -42 -46q55 -12 88 -31q28 -16 31.5 -35.5t4.5 -19.5z" />
    <glyph glyph-name="S" unicode="S" horiz-adv-x="307" 
d="M500 516q-14 -16 -27 -16q-2 0 -5 4t-1 5q31 15 31 42q0 18 -27 28q-21 8 -49 8q-93 0 -178 -76q-87 -79 -90 -172q-2 -60 58 -107q55 -43 60 -49q30 -31 30 -70q0 -61 -57 -101q-52 -37 -115 -37q-49 0 -81 21q-37 24 -37 67q0 45 24 66q7 6 10 6q4 0 4 -5
q0 -7 -5.5 -13t-5.5 -22q-1 -15 2 -23q16 -43 87 -43q60 0 104 24q51 28 51 56q0 20 -27 46q-11 10 -61.5 49t-69.5 60q-34 39 -36 81q-5 104 106 200q106 91 212 91q61 0 92 -23q25 -18 25 -45q0 -26 -24 -52z" />
    <glyph glyph-name="T" unicode="T" horiz-adv-x="509" 
d="M982 468q-4 -21 -24.5 -31t-40.5 -19q-12 -9 -42 -23q-3 -1 -4 5t7 11q61 38 61 90q0 66 -152 66q-127 0 -345 -67q-237 -72 -329 -80q-41 -4 -62 28q-18 27 -18 68q0 36 89 80q81 39 150 49q50 8 57 -8q-113 -38 -166 -59q-23 -10 -41 -18v0q-71 -35 -43 -52
q24 -15 107 -10q65 4 195 34q95 24 190 47q148 34 239 34q33 0 59 -5q44 -7 61 -16q35 -18 30 -57q24 -47 24 -55q0 -5 -2 -12zM749 512q0 -6 -2 -12q-6 -13 -43 -47q-25 -22 -51 -45q-284 -291 -284 -423q0 -46 34 -46v-8q-6 -3 -13 -3q-23 0 -41 28q-16 25 -16 50
q0 84 114 250q93 136 174 213q-6 6 -6 14q0 15 27 37q20 14 41 29q18 -1 40 -10q26 -12 26 -27z" />
    <glyph glyph-name="U" unicode="U" horiz-adv-x="594" 
d="M859 460q0 -6 -3 -12q-5 -13 -42 -47q-25 -22 -51 -45q-285 -291 -285 -423q0 -46 35 -46v-8q-6 -3 -13 -3q-24 0 -41 28q-16 25 -16 50q0 84 114 250q93 136 174 213q-6 6 -6 14q0 15 27 37q20 14 41 29q18 -1 39 -10q27 -12 27 -27zM691 399q-40 -63 -167 -200
q-131 -143 -196 -190q-44 -33 -76 -33t-57.5 27t-21.5 57q6 54 71 152q23 34 107 144q138 180 138 210q0 9 -9 9q-78 2 -255 -113q-55 -36 -116 -101q-78 -82 -78 -133q0 -18 11 -31q3 -3 3 -6q0 -12 -12 -2t-24 38t-10 44q11 102 177 211q44 29 134 73q108 52 144 52
q33 0 68 -17q41 -20 37 -47q-7 -45 -87 -128q-119 -124 -147 -162q-82 -107 -93 -211q-5 -42 20 -42t80 45q34 28 81 76q38 39 77 79q66 64 192 198q3 3 7 4q1 -2 2 -3z" />
    <glyph glyph-name="V" unicode="V" horiz-adv-x="289" 
d="M898 552q0 -7 -5 -7q-7 0 -8 8q-6 58 -90 58q-134 0 -284 -140q-72 -67 -216 -248q-113 -142 -176 -217q-14 -21 -45 -64q-24 5 -49 10.5t-31 34.5q-4 18 6 39q7 16 42 85q132 255 148 401q8 65 -23 65q-33 0 -64 -54q-3 -6 -7 -7q-1 2 -2 5q0 2 6.5 22t12.5 41
q11 27 27 27q22 0 69 -33q24 -17 24 -71q0 -77 -50 -224q-15 -45 -77 -203q-8 -19 -6 -26q1 -4 3 -4q16 0 105 108q59 71 102 129l112 156q74 99 140 149q87 67 176 67q54 0 100 -26q54 -30 60 -81z" />
    <glyph glyph-name="W" unicode="W" horiz-adv-x="916" 
d="M934 165q0 -79 -36 -131q-42 -58 -117 -58q-79 0 -137 61q-52 55 -52 156q0 50 13 98q-90 -109 -123 -147q-74 -83 -134 -135q-44 -38 -87 -38q-33 0 -61 25t-28 57q0 60 82 182q34 51 152 204q82 107 82 129q0 7 -8 7q-81 0 -255 -113q-59 -39 -119 -104
q-75 -81 -75 -130q0 -13 7 -24.5t7 -12.5q0 -5 -5 -5q-13 0 -28 35q-14 31 -13 46v4q5 98 177 211q48 31 138 75q105 50 140 50q30 0 64 -15q41 -19 41 -45q0 -40 -85 -131q-129 -138 -158 -176q-85 -114 -85 -210q0 -30 21 -30q35 0 124 84l114 116q43 43 130 128
q-3 2 -3 7q0 17 16 36.5t33 19.5q21 0 21 -19q0 -9 -9 -19q-45 -52 -45 -134q0 -75 33 -135q40 -73 108 -73q95 0 95 136q0 59 -35.5 173.5t-35.5 123.5q0 8 8 8q4 0 7 -5q11 -21 34 -63q25 -45 51 -90q31 -59 34 -94q2 -18 2 -35z" />
    <glyph glyph-name="X" unicode="X" horiz-adv-x="524" 
d="M774 604q-212 -77 -465 -276l1 -8q11 -94 33 -172q37 -138 88 -138q13 0 27 9q38 25 49 78q2 7 6 9q5 2 5 0q1 -7 -2.5 -19.5t-3.5 -15.5q-1 -16 -3 -32t-16 -29q-7 -6 -19 -7.5t-22 -2.5q-43 -34 -75 -34q-45 0 -70 65q-18 47 -28 135q-5 57 -10 115l-2 12
q-93 -78 -151.5 -158.5t-65.5 -140.5q-3 -24 15.5 -49t45.5 -36q4 -2 4 -6q0 -13 -11 -8q-109 46 -103 89q16 130 260 346q-25 171 -97 185q-24 4 -34 -27q-4 -12 -13 -12q-10 0 -7 10q3 14 23 36q16 20 27 27q33 22 57 22q44 0 66 -71q10 -34 22 -132q217 182 339 247
q1 1 0 3q-2 3 -5 3q-11 0 -11 3t9 4q23 0 53 12.5t35 12.5q15 0 35.5 -15t20.5 -26q0 -6 -7 -8z" />
    <glyph glyph-name="Y" unicode="Y" horiz-adv-x="706" 
d="M692 399q-12 -18 -36 -48q29 -23 45 -67q15 -40 15 -81q0 -144 -136 -308q-131 -159 -280 -212q-94 -34 -172 -34q-64 0 -101.5 22.5t-37.5 57.5q0 69 125 138q72 39 187.5 67t211.5 27q8 0 7 -5t-8 -6q-77 -6 -185 -38q-116 -34 -184 -73q-116 -67 -116 -121
q0 -51 87 -51q78 0 167 48q138 75 262 264q119 180 119 295q0 40 -20 60q-70 -86 -162 -182q-101 -106 -151 -143q-45 -33 -76 -33q-33 0 -58 27t-22 57q9 84 171 296q88 115 97 127q48 66 48 84q0 8 -9 8q-77 2 -255 -113q-55 -36 -116 -101q-78 -82 -78 -133q0 -18 11 -31
q3 -3 3 -6q0 -12 -12 -2q-11 10 -23 38t-11 44q12 102 177 211q45 29 134 73q109 52 145 52q34 0 77 -18q51 -21 47 -48q-6 -46 -92 -133q-135 -137 -158 -166q-86 -106 -97 -200q-4 -42 20 -42q25 0 80 45q35 28 81 76q39 39 77 79q48 47 142 142q-6 3 -30 7q-20 3 -20 6
q0 13 32 11q17 -1 32 -8q19 20 36 40q3 3 8 4q1 -2 2 -3z" />
    <glyph glyph-name="Z" unicode="Z" horiz-adv-x="623" 
d="M752 482q-108 -56 -336 -198q36 7 64 7q36 0 58 -11q28 -15 39 -55q3 -12 -6 -12q-4 0 -5 8q-2 22 -62 22q-3 0 -53 -2q-45 -3 -124 -17q-91 -63 -152 -118q34 -5 87 -27q36 -17 72 -33l110 -46q97 -36 148 -36q48 0 53 32q5 33 -26 62q-4 4 -3 8q1 3 3 3q8 -7 22 -18
q11 -7 21.5 -15t10.5 -22q0 -8 -6 -15q-12 -14 -12 -15q-4 -95 -85 -95q-80 0 -294 120q-70 39 -122 39q-23 0 -35 -8q-16 -20 -24 -37q-3 -7 -10 -5q-7 1 -4 9q7 13 17 29q-27 -9 -27 -24q0 -7 5.5 -14t5.5 -10q0 -9 -9 -9q-3 0 -6 3q-17 18 -15 35q6 39 37 65.5t65 25.5
q26 34 111 104q-105 -20 -158 -16q-13 1 -13 7q0 10 11 8q17 -2 75 14q75 21 151 42q9 6 31 21l126 94q109 80 159 105q-31 8 -80 8q-77 0 -181 -20q-90 -17 -137 -35q-4 0 43 0q1 -2 1 -3l-85 -19q-8 -2 -14 25.5t-3 37.5q11 35 109 55q87 18 201 18q148 0 197 -27
q10 -6 18 -15q37 -16 37 -28q0 -1 -1 -2z" />
    <glyph glyph-name="bracketleft" unicode="[" horiz-adv-x="423" 
d="M384 557l-20 -44h-107l-217 -479h122l-29 -42h-133q-11 0 -7 11l241 550q2 4 7 4h143z" />
    <glyph glyph-name="backslash" unicode="\" horiz-adv-x="453" 
d="M450 -28q0 -27 -18 -27q-16 0 -16 11q0 1 5 5t5 13q0 29 -78 131t-212 258q-34 38 -100 116q-6 6 -6 13q0 18 42 18q20 0 219 -272q52 -71 78 -110l50 -75q31 -52 31 -81z" />
    <glyph glyph-name="bracketright" unicode="]" horiz-adv-x="382" 
d="M384 546l-241 -549q-2 -5 -7 -5h-143l20 45h107l217 479h-121l28 41h133q12 0 7 -11z" />
    <glyph glyph-name="asciicircum" unicode="^" horiz-adv-x="382" 
d="M370 344l-9 -7q-41 3 -79 34q-17 14 -61 63l-1 5q-4 3 -11 9.5t-11 8.5l-4 -2l-2 2l2 7l-2 5l-8 -12l6 -6q-1 -8 -12 -15q-15 -12 -16 -13l2 -3l-5 -6l-15 3l-1 -2l4 -8q-12 -4 -25 -12l2 -7l-9 -13q-12 -5 -32 -28t-27 -24q-4 4 -24 26q1 5 28 23.5t31 24.5l19 11l2 6
q15 7 74 79q17 5 32 5q9 0 23 -8t21 -9l5 -13l-4 -7v-1h5l6 -5l-5 -11l11 -11q5 -1 34 -39q35 -45 37 -47l6 10v2q5 -5 13 -15zM217 453l-1 5l-4 -3z" />
    <glyph glyph-name="underscore" unicode="_" horiz-adv-x="819" 
d="M819 -78h-819q-19 1 -19 17t19 17h819q21 0 21 -16q0 -17 -21 -18z" />
    <glyph glyph-name="grave" unicode="`" horiz-adv-x="239" 
d="M214 333q0 -4 -8 -4q-10 7 -67 19q-62 13 -95 30q-6 6 -6 14q0 12 10.5 23t23.5 11q6 0 12 -4q6 -22 53 -44q64 -29 70.5 -35t6.5 -10z" />
    <glyph glyph-name="a" unicode="a" horiz-adv-x="270" 
d="M348 142q-7 -15 -24 -39q-81 -119 -114 -112q-42 9 -42 43q0 7 1 14q3 15 15 51q-23 -32 -58 -71q-46 -49 -62 -49q-22 0 -36 22q-11 18 -11 37q0 68 76 143.5t140 74.5q22 0 45 -31q7 -8 7 -19q0 -7 -7 -11l-4.5 6t-16.5 8q-32 7 -105 -54.5t-94 -117.5q-6 -16 -6 -26
q0 -18 22 -2q42 31 89 85t55 82q6 8 23 8q13 0 27 -6.5t10 -14.5q-51 -76 -62 -119q-2 -7 -2 -11q0 -11 9 -11t19 9.5t93 113.5q8 10 12 10q7 0 1 -13z" />
    <glyph glyph-name="b" unicode="b" horiz-adv-x="265" 
d="M454 572q0 -40 -81 -138q-68 -81 -135 -162q-95 -116 -104 -144q-2 -7 -6 -7t-3 10q6 45 211 295q33 41 53 69q27 38 27 52q0 5 -4 5q-13 0 -49 -44q-272 -323 -265 -475q1 -38 27 -38q25 0 50 27q43 46 54 80q-10 23 -10 57q0 13 3 24q14 60 46 60q28 0 28 -39
q0 -29 -23 -79q-25 -54 -72 -108q-38 -44 -85 -44q-66 0 -66 78q0 83 70 227q65 132 147 237q86 109 126 105q20 -2 35 -21q17 -23 26 -27z" />
    <glyph glyph-name="c" unicode="c" horiz-adv-x="212" 
d="M252 239q4 -5 5 -19q0 -16 -8 -20q0 19 -17 19t-36 -14q-30 -22 -67 -67q-39 -49 -48 -81q-4 -16 -4 -28q0 -33 31 -33q26 0 52 18q34 24 71 70q8 10 13 10q3 0 3 -4q0 -14 -24 -44q-28 -34 -55 -51q-31 -20 -61 -20q-33 0 -54 23t-21 61q0 31 15 65q22 53 67.5 95
t87.5 42q34 0 50 -22z" />
    <glyph glyph-name="d" unicode="d" horiz-adv-x="333" 
d="M753 625q0 -7 -8 -7q-3 0 -6 2q-27 16 -56 16q-76 0 -197 -136q-100 -113 -175 -250t-75 -210q0 -39 22 -39q13 0 28 14q40 34 95 111q15 20 20 20q2 0 2 -3q0 -18 -40 -72q-32 -42 -54 -64q-26 -26 -55 -26q-25 0 -41.5 19.5t-16.5 52.5q0 19 4 41q-72 -115 -121 -115
q-23 0 -42.5 21t-19.5 38q0 68 76 143.5t140 74.5q11 0 21 -8q85 179 178 288q98 115 237 115q16 0 46 -7q38 -8 38 -19zM235 208q-15 -4 -30 -12q-43 -24 -86 -70q-46 -48 -61 -89q-3 -8 -3 -15q0 -21 16 -21q37 0 141 146q9 28 23 61z" />
    <glyph glyph-name="e" unicode="e" horiz-adv-x="209" 
d="M247 245q27 -8 27 -33q0 -30 -32 -56q-12 -10 -82 -53q-50 -30 -57 -49q-3 -7 -8 -6q-4 2 -2 9q12 34 60 71q63 48 72 59q12 15 12 26q0 13 -13 13q-11 0 -26 -10q-97 -65 -122 -163q-3 -12 -3 -22q0 -34 35 -34q23 0 47 14q28 16 55 50q23 29 32 29q2 0 2 -3
q0 -13 -30 -50q-54 -66 -118 -59q-57 6 -66 65t53 139t119 79q4 -5 45 -16z" />
    <glyph glyph-name="f" unicode="f" horiz-adv-x="180" 
d="M458 554q0 -18 -25 -44q-103 -104 -165 -190l113 1q18 0 18 -7q0 -6 -8.5 -11.5t-17.5 -5.5q-50 -2 -122 -2q-36 -54 -31 -78q2 -10 -6 -10q-7 0 -7 21q0 26 20 68h-20q-39 -82 -61 -140q-76 -203 -150 -295q-86 -107 -229 -107q-14 0 -39 8q-31 9 -31 19q0 7 8 7
q3 0 6 -2q27 -17 56 -17q107 0 219 183q44 73 167 345h-72q-15 -1 -15 10q0 13 13 13h84q75 165 129 241q32 45 85 66q1 -6 34.5 -24.5t40 -28.5t6.5 -20zM383 515q31 35 31 51q0 7 -8 7q-24 0 -66 -45q-45 -48 -122 -208h21q47 84 144 195z" />
    <glyph glyph-name="g" unicode="g" 
d="M310 148q-4 -38 -54 -125q51 -9 51 -65q0 -16 -5.5 -30t-10.5 -14q-3 0 -4 13q-1 35 -7 48q-10 19 -39 19q-60 -113 -144 -206q-110 -123 -197 -123q-24 0 -57 27t-33 51q0 30 63 91q48 45 94 77q54 37 110 63q15 8 112 48q34 14 51 116q-107 -133 -161 -129
q-55 4 -55 50q0 26 22 62q30 49 84 100q65 61 108 61q14 -2 31 -16t22 -28q3 -9 3 -16q0 -11 -7 -11q-5 0 -9 5t-24 3q-19 -3 -30 -8q-34 -16 -74 -53t-63 -76q-10 -17 -10 -34q0 -19 13 -19q11 0 27 13q69 53 144 150q53 0 49 -44zM189 0q-54 -11 -139 -64
q-95 -58 -154 -126q-38 -44 -38 -79q0 -25 24 -25q20 0 55 19q67 37 161 144q89 101 91 131z" />
    <glyph glyph-name="h" unicode="h" horiz-adv-x="281" 
d="M456 567q-5 -57 -87 -144q-62 -67 -124 -133q-76 -84 -89 -114q-3 -8 -7 -8q-5 0 -2 11q7 29 76 120q55 73 90 111q41 44 65 74q34 43 34 57q0 4 -3 4q-14 0 -58 -47q-94 -100 -149 -179q-92 -136 -108 -225q-2 -8 2 -8q3 0 11 8q57 59 161 165q5 -4 25 -6.5t27 -6.5
q12 -6 12 -20q0 -25 -56 -94q-24 -30 -52 -76q-35 -57 -42 -87q-2 -11 -2 -21q0 -20 10 -20q6 0 16 8.5t30 24.5q4 6 7 5t0 -9q-21 -45 -47 -45q-49 0 -49 52t77 191q12 22 12 29q0 4 -3 4q-10 0 -44.5 -34.5t-54.5 -62.5q-19 -32 -56 -91q-5 -8 -17 -8q-34 0 -34 40
q0 10 38 113q45 121 83 191q59 108 133 195q78 91 115 87q21 -2 35 -22q16 -25 25 -29z" />
    <glyph glyph-name="i" unicode="i" horiz-adv-x="173" 
d="M279 354q-1 -9 -18.5 -17t-24.5 -12q-14 -9 -19.5 -18t-2.5 -19q3 -8 8 -9t3 -6t-6 -4q-20 4 -34.5 20.5t-11.5 35.5q2 11 7 14t22.5 5t62.5 10q2 0 6.5 3t6.5 3t1 -6zM226 103q-24 -36 -77 -101q-26 -26 -54 -26q-66 0 -66 77q0 45 20 84q-9 5 -3 13q20 26 39 53
q28 35 41 39q4 1 8 1q17 0 47 -25q-105 -105 -103 -196q1 -20 17 -20q15 0 31 14q43 37 96 110q14 20 19 20q2 0 2 -3q0 -13 -17 -40z" />
    <glyph glyph-name="j" unicode="j" horiz-adv-x="161" 
d="M230 368q-2 -9 -19.5 -17t-23.5 -12q-15 -9 -20.5 -18t-1.5 -19q2 -8 7 -9t3 -6t-6 -4q-20 4 -34.5 20.5t-11.5 35.5q2 11 7.5 14t22.5 5t62 10q2 0 6.5 3t6.5 3q3 0 2 -6zM86 -1q48 -8 48 -62q0 -14 -5.5 -26.5t-9.5 -12.5q-3 0 -4 11q-1 33 -7 45q-9 18 -36 18
q-50 -95 -138 -184q-107 -107 -191 -114q-24 -2 -57 21.5t-33 47.5q0 49 151 153q100 70 236 104q71 131 71 206q0 13 -3 23q8 6 29 21q12 7 24 7q24 0 24 -33q0 -61 -99 -225zM25 -26q-192 -61 -287 -177q-33 -39 -33 -71q0 -24 24 -24q21 0 57 20q64 35 151 133
q74 85 88 119z" />
    <glyph glyph-name="k" unicode="k" horiz-adv-x="277" 
d="M567 625q0 -7 -8 -7q-3 0 -5 2q-28 16 -56 16q-76 0 -197 -136q-130 -146 -218 -375q-3 -8 -1 -10q2 -3 5 2q14 28 33 58q76 120 124 131q15 -7 40 -20q13 -8 13 -27q0 -28 -25 -58q-35 -42 -95 -55q5 -52 15 -95q8 -33 27 -33q20 0 48 32q10 11 57 76q15 20 20 20
q2 0 2 -3q0 -19 -57 -96q-42 -57 -86 -55q-45 2 -64 45q-8 18 -23 100q-53 -90 -53 -137q1 -10 -8 -10q-11 0 -23 10t-11 21q6 104 80 265q69 150 141 234q112 131 241 131q16 0 47 -7q37 -8 37 -19zM211 197q24 24 24 54q0 13 -9 13q-17 0 -54 -44q-25 -31 -52 -76
q28 16 45 16q17 9 46 37z" />
    <glyph glyph-name="l" unicode="l" horiz-adv-x="211" 
d="M454 572q0 -40 -81 -138q-67 -81 -135 -162q-95 -116 -104 -144q-2 -7 -5 -7q-5 0 -4 10q7 45 211 295q34 41 54 69q26 38 26 52q0 5 -4 5q-12 0 -49 -44q-272 -323 -265 -475q2 -38 28 -38q24 0 49 27q53 57 83 108q32 55 32 35q0 -2 -2 -7q-18 -62 -87 -141
q-38 -44 -84 -44q-67 0 -67 78q0 83 71 227q64 132 147 237q85 109 125 105q20 -2 35 -21q18 -23 26 -27z" />
    <glyph glyph-name="m" unicode="m" horiz-adv-x="418" 
d="M445 197q-6 -34 -28 -65q-84 -115 -94 -163q-2 -11 -2 -21q0 -20 10 -20q6 0 16 8.5t29 24.5q5 6 8 5t0 -9q-21 -45 -47 -45q-49 0 -49 52q0 42 34 111q49 97 52.5 107.5t3.5 16.5q0 10 -7 10q-11 0 -29 -18q-30 -31 -75 -99q-39 -59 -51 -84q-9 -20 -24 -20
q-16 0 -36 23l40 90q26 64 26 92q0 15 -9 15q-6 0 -18 -11q-30 -26 -75 -94q-48 -71 -55 -105q-2 -9 -15 -9q-14 0 -23 10q-12 12 -10 31q1 8 67 150q-10 8 -5 18q5 8 29 53q17 13 47 13t11 -32q-77 -129 -77 -147v-1q3 0 32 44q33 49 39 56q13 17 27 32.5t30 15.5
q29 0 44.5 -15t12.5 -36q-1 -14 -26 -78l62 80q52 67 72 67q24 0 45 -17.5t18 -35.5z" />
    <glyph glyph-name="n" unicode="n" horiz-adv-x="276" 
d="M317 87q-67 -106 -110 -109q-56 -4 -56 54q0 51 41 123q16 30 16 38q0 3 -2 3q-17 0 -91 -97q-45 -59 -54 -99q-2 -9 -15 -9q-14 0 -23 10q-12 12 -10 31q1 6 73 161q-10 8 -5 18q4 8 29 53q16 13 47 13q30 0 10 -32q-81 -137 -81 -154q0 -3 19 23q49 67 131 145
q3 -2 35 -7q23 -3 23 -19q0 -32 -53 -97t-53 -118q0 -20 12 -20q7 0 17 6q36 22 80 83q9 12 16 12q5 0 5 -6q0 -3 -1 -6z" />
    <glyph glyph-name="o" unicode="o" horiz-adv-x="265" 
d="M273 224q13 -20 13 -47q0 -83 -85 -157q-53 -47 -98 -45q-31 2 -51 25t-20 59q0 31 15 65q22 52 71 95.5t92 43.5q6 0 20 -12.5t26 -14.5q9 1 17 -12zM231 218q-17 0 -35 -13q-30 -21 -72 -77q-49 -66 -49 -101q0 -32 35 -32q47 0 102 69q52 66 52 116q0 38 -33 38z" />
    <glyph glyph-name="p" unicode="p" horiz-adv-x="314" 
d="M345 202q0 -68 -76 -143.5t-140 -74.5q-14 0 -28 16l-2 -4q-82 -180 -184 -300q-98 -115 -237 -115q-16 0 -46 7q-38 8 -38 19q0 7 8 7q3 0 6 -2q27 -16 56 -16q76 0 197 136q95 107 172 251q73 137 79 206q-12 -17 -47 -69q-10 -15 -46 -67q-12 -16 -12 6q0 13 6 20
q69 87 88 153q14 49 11 82q11 2 20 2q39 0 39 -35q0 -14 -8.5 -32t-33.5 -41q9 -47 -3 -117q29 59 72 110q51 60 86 60q22 0 43 -22q18 -20 18 -37zM304 203q3 8 3 16q0 20 -16 20q-24 0 -94 -85q-56 -69 -81 -111q-2 -7 -4 -12q21 0 45 13q43 24 87.5 71t59.5 88z" />
    <glyph glyph-name="q" unicode="q" horiz-adv-x="266" 
d="M298 75q-21 -28 -66 -94q-44 -69 -58 -131q-3 -11 -12 -89q-3 -27 -21 -44q-14 -11 -27 -22q-6 3 -35 1q-25 -2 -34 9q-4 5 -4 16q0 46 64 192q49 113 94 196q-21 -30 -66 -76q-52 -54 -69 -54q-22 0 -36 22q-11 18 -11 37q0 68 76 143.5t140 74.5q22 0 45 -31
q7 -8 7 -19q0 -7 -7 -11l-4.5 6t-16.5 8q-32 7 -105 -54.5t-94 -117.5q-6 -16 -6 -26q0 -18 22 -2q42 30 89 84.5t55 82.5q6 8 23 8q14 0 34.5 -6.5t16.5 -14.5q-101 -123 -185 -362q-11 -31 -9 -50q1 -11 8 -11q20 0 24 44q3 31 28 94.5t54 109.5q39 61 84 110q5 6 8 6
t3 -5q0 -11 -9 -24z" />
    <glyph glyph-name="r" unicode="r" horiz-adv-x="216" 
d="M269 103q-50 -73 -55 -79q-39 -47 -72 -47q-26 0 -36.5 17t-7.5 39q5 33 45 87q16 21 16 27q0 5 -5 5q-15 -12 -38 -12t-28 18q-13 -21 -36 -55q-17 -25 -62 -82q-7 -8 -13 -8t-6 7q0 4 3 8q38 47 73 97q26 38 49 102q17 47 20 67q47 -19 47 -48q0 -32 -58 -76
q8 -13 20 -13q18 0 48 29q15 20 35 20q28 0 28 -23q0 -5 -3 -10q-93 -128 -93 -166q0 -8 6 -8q11 0 24 12q31 28 95 115q14 20 19 20q2 0 2 -3q0 -13 -17 -40z" />
    <glyph glyph-name="s" unicode="s" horiz-adv-x="194" 
d="M252 244q2 -4 -2 -6q-3 -3 -8 1q-4 1 -10 1q-34 0 -77 -21q-49 -23 -45 -48q2 -14 21 -27q28 -20 40 -34q19 -22 19 -45q0 -33 -32 -55q-28 -20 -62 -20q-65 0 -65 48q0 9 3 19q6 20 16 20q2 0 2 -4q-3 -15 10.5 -25t29.5 -10q20 0 36.5 15t16.5 33q0 11 -7 20
q-19 15 -49 54l-1 -2q-13 -21 -35 -55q-18 -25 -63 -82q-7 -8 -13 -8t-6 7q0 4 3 8q38 47 73 97q29 42 36 65q-1 45 46 76q43 29 89 25q8 -1 34 -47z" />
    <glyph glyph-name="t" unicode="t" horiz-adv-x="173" 
d="M404 321q17 0 17 -7q0 -6 -8.5 -11.5t-17.5 -5.5q-73 0 -167 -7q-29 -9 -81 -104q-46 -84 -57 -125q-4 -18 -4 -30q0 -25 17 -25q12 0 24 10q43 37 96 110q14 20 19 20q2 0 2 -3q0 -13 -18 -40q-23 -36 -76 -101q-26 -26 -57 -26q-55 0 -56 68q-1 42 40 129q32 69 68 124
h-42q-15 0 -15 10q0 13 13 13h28.5h30.5q9 12 31 53t22 46t-3.5 7.5t-6.5 5.5t-3 6q0 11 13 10q11 -1 45 -18t36 -17q-25 -37 -62 -93h84q81 1 88 1z" />
    <glyph glyph-name="u" unicode="u" 
d="M347 144q16 19 19 19q1 0 1 -1q0 -15 -31 -60q-13 -21 -44 -62q-40 -48 -61 -48q-30 0 -45.5 15t-12.5 36q1 14 26 78q-29 -37 -58 -73q-49 -61 -69 -61q-54 0 -47 40q4 25 39 105q-4 10 0 15q62 92 81 92t46 -28q-39 -49 -57 -75q-33 -47 -44 -78q-5 -14 -5 -21
q0 -18 26.5 9t76.5 94q59 80 67 89q12 14 25 14q19 0 42 -27q-96 -123 -96 -184q0 -16 8 -16q6 0 19 11q21 20 49 56q23 30 45 61z" />
    <glyph glyph-name="v" unicode="v" horiz-adv-x="259" 
d="M310 214q-8 -19 -46 -52q-35 -57 -53 -84q-34 -48 -61 -75t-55 -27q-66 0 -66 77q0 45 20 84q-9 5 -3 13q20 26 39 53q28 35 41 39q7 2 12 2q10 0 20.5 -13t22.5 -13q-39 -39 -55 -62q-45 -63 -48 -115q-2 -35 18 -35q16 0 45 24q35 28 67 79q29 46 40 87q14 49 11 82
q10 3 26 5q33 -3 33 -38q0 -15 -8 -31z" />
    <glyph glyph-name="w" unicode="w" horiz-adv-x="441" 
d="M759 476q7 -1 7 -6q-1 -4 -9 -4q-78 1 -192 -134q-86 -103 -138 -204q-77 -152 -141 -152q-66 0 -66 77q0 9 1 19q-29 -44 -55.5 -70t-54.5 -26q-66 0 -66 77q0 45 20 84q-9 5 -3 13q20 26 39 53q28 35 41 39q7 2 12 2q10 0 20.5 -13t22.5 -13q-42 -43 -74 -99.5
t-32 -87.5q0 -28 22 -28q14 0 29 12q25 19 69 85q25 34 73 103q24 35 32.5 38.5t13.5 3.5q9 0 19.5 -13.5t22.5 -13.5q-42 -43 -74 -99.5t-32 -87.5q0 -28 22 -28q14 0 29 12q37 28 119 185q86 165 145 222t141 57q18 0 37 -3z" />
    <glyph glyph-name="x" unicode="x" horiz-adv-x="254" 
d="M302 98q-17 -25 -35 -50q-23 -30 -45 -48q-31 -25 -63 -25q-60 0 -77 68q-108 -89 -151 -197q13 0 7 -11q-3 -7 -16 -28q-5 -7 -18 -7q-11 0 -11 9q0 2 1 6q44 128 185 246q-4 30 -1 76q-12 5 -12 13q3 26 5 53q4 35 15 39q4 1 8 1q8 0 47 -21q-8 -35 -17 -122
q14 12 26 24q33 32 66 77q40 54 48 88q2 0 5.5 3t6.5 3q15 0 13 -17q-3 -39 -46 -89q-23 -26 -83 -80q-15 -14 -36 -32q4 -76 49 -76q14 0 30 10q27 17 96 110q16 22 22 22q2 -1 2 -3q0 -14 -21 -42z" />
    <glyph glyph-name="y" unicode="y" 
d="M311 188q-6 -64 -64 -165q51 -9 51 -65q0 -16 -5.5 -30t-10.5 -14q-3 0 -4 13q-1 35 -7 48q-10 19 -39 19q-60 -113 -144 -206q-110 -123 -197 -123q-24 0 -57 27t-33 51q0 30 63 91q48 45 94 77q54 37 110 63q15 8 112 48q15 6 34 62q18 52 18 76q0 5 -2 5q-1 0 -27 -34
q-98 -131 -132 -131q-53 0 -47 40q5 29 35 98q-7 1 5 18q56 83 76 83q19 0 47 -28l-56 -68q-31 -42 -42 -72q-4 -14 -4 -21q0 -18 27.5 10t110.5 135q26 33 43 33q8 0 19 -11q2 -2 12 -18q6 -11 14 -11zM180 0q-179 -57 -293 -195q-37 -45 -37 -78q0 -21 21 -21t57 19
q67 37 161 144q89 101 91 131z" />
    <glyph glyph-name="z" unicode="z" horiz-adv-x="279" 
d="M285 -86q-3 0 -4 13q-1 35 -7 48q-10 19 -39 19q-53 -100 -158 -198q-122 -113 -211 -113q-23 0 -42.5 18t-19.5 42q0 68 158 166q103 64 221 113q23 10 28 50q5 41 -17 41q-15 0 -41 -29q-2 -11 -5 -27q-5 -24 -24 -24q-16 0 -16 17q0 9 6 20q12 19 30 48q28 46 28 90
q0 42 -29 35q-14 -3 -32 -34q-13 -25 -27 -50q-46 -84 -71 -112q-4 -5 -14 -5q-9 -1 -9 3q0 2 1 3q24 28 81 140q41 83 77 84q60 2 60 -53q0 -27 -15.5 -52.5t-30.5 -49.5q28 32 67 32q47 0 47 -47q0 -32 -27 -79q51 -9 51 -65q0 -16 -5.5 -30t-10.5 -14zM183 0
q-179 -57 -293 -195q-37 -45 -37 -78q0 -21 21 -21t57 19q67 37 161 144q89 101 91 131z" />
    <glyph glyph-name="braceleft" unicode="{" horiz-adv-x="227" 
d="M263 412l-8 -4q-51 0 -77 -50q-20 -50 -40 -101q-13 -27 -40 -50.5t-52 -30.5q36 -18 36 -49q0 -24 -25 -80.5t-25 -82.5q0 -16 13.5 -20t28.5 -7l3 -6q-6 -3 -10 -3q-67 0 -67 42q0 7 1 14q5 24 24.5 69t24.5 68q1 9 1 16q0 35 -47 35l8 11q37 4 57 19t36 57q8 24 25 71
q34 88 128 88q4 0 5 -6z" />
    <glyph glyph-name="bar" unicode="|" horiz-adv-x="154" 
d="M111 380q0 -62 -19 -230q-21 -186 -38 -210q-8 -11 -18 -12v1q0 11 11 53q12 50 14 60q22 128 22 268q0 60 -4 83q-8 46 -8 41q0 7 12 7q28 0 28 -61z" />
    <glyph glyph-name="braceright" unicode="}" horiz-adv-x="268" 
d="M263 361q-5 -23 -24 -68.5t-25 -68.5q-1 -9 -1 -16q0 -35 47 -35l-8 -11q-37 -4 -57 -19t-36 -56q-8 -24 -25 -72q-34 -87 -128 -87q-4 0 -5 5l8 4q51 0 77 50q20 51 40 101q13 27 40 51t52 30q-36 18 -36 49q0 24 25 80.5t25 82.5q0 17 -13.5 20.5t-28.5 6.5l-3 6
q6 4 10 4q67 0 67 -43q0 -6 -1 -14z" />
    <glyph glyph-name="asciitilde" unicode="~" horiz-adv-x="335" 
d="M319 430q0 -27 -9.5 -38.5t-35.5 -24.5q-2 0 -55 15q-8 -1 -25 -4l-3 4l8 9l-12 9h-9v4l-8 -2l-8 3l6 4l-6 4q-14 -2 -20 -5q-15 6 -32 6q-31 0 -73 -21q-3 -9 -14 -25l-3 12q0 25 21.5 43t46.5 18q45 0 71 -10l6 3q12 -4 24 -6l4 -3q2 0 5 1h5.5h4.5q4 -1 5 -1
q16 -8 45 -8q28 0 39 4q17 8 20 31q2 -14 2 -22z" />
    <glyph glyph-name="nonbreakingspace" unicode="&#xa0;" horiz-adv-x="136" 
 />
    <glyph glyph-name="exclamdown" unicode="&#xa1;" horiz-adv-x="168" 
d="M165 187q1 -11 -11 -17t-42 -25q-3 -2 -5 -2q-4 0 -4 6q0 12 7 20q4 5 10 19q8 18 6 21t0.5 7.5t3.5 4.5q11 1 21.5 -9t13.5 -25zM125 54q-20 -92 -143 -285q-1 -7 -4 -21q-6 -30 -36 -70q-26 -36 -55 -61q-21 -3 -48 0q-38 3 -35 19q27 29 61 68q64 86 127 171
q76 109 96 172q4 12 4 15q0 8 -15 -1q-9 -5 -34 -34q-4 -5 -6 -3q-3 1 0 8t12 19.5t17 25.5q11 17 19 19q14 3 23 -2q20 -10 20 -22q0 -7 -3 -18z" />
    <glyph glyph-name="cent" unicode="&#xa2;" horiz-adv-x="561" 
d="M579 675q-5 -37 -51 -98q37 -29 34 -58q0 -1 -1 -4.5t-1 -4.5q0 -8 -17.5 -24t-24.5 -16h-2q-1 1 -2 1v4q16 16 33 50q2 19 -40 26q-51 -61 -173 -182q-144 -142 -189 -192q19 -7 46 -7q60 0 149 31q74 26 114 52q17 10 23 10q2 0 3 -2q0 -4 -11 -14q-40 -38 -84 -59
q-87 -43 -157 -43q-51 0 -91 24q-98 -108 -118 -168q-2 -7 -9 -6q-6 1 -5 8q10 72 107 184q-6 8 -22 26q-12 11 -33 33q-8 12 -6 38q11 102 153 211q139 108 249 108q19 0 37 -5q9 -3 20 -9q43 52 55 88q2 7 9 6q6 -1 5 -8zM481 554q-8 1 -13 1q-112 0 -232 -98.5
t-131 -206.5q-4 -36 14 -56q56 64 185 185q131 125 177 175z" />
    <glyph glyph-name="sterling" unicode="&#xa3;" horiz-adv-x="569" 
d="M558 24q0 -39 -27.5 -65.5t-67.5 -26.5q-84 0 -231 76q-50 -31 -109 -31q-40 0 -74 26q-37 28 -37 67q0 24 27 24q39 0 176 -70q44 55 85 174h-117q-7 0 -7 5q0 14 15 14h116q47 138 120 222q31 35 75 35q25 0 39.5 -20.5t14.5 -46.5q0 -62 -69 -97q-5 -2 -9 -2
q-3 0 -3 3l30.5 32.5t30.5 69.5q0 32 -22 32q-6 0 -11 -2q-49 -17 -93 -97q-19 -33 -58 -129h141q6 0 6 -4q0 -15 -19 -15h-136q-29 -70 -41 -96q-30 -60 -56 -84q31 -19 86 -32.5t94 -13.5q42 0 72 10q44 15 44 48q0 13 -11.5 25t-11.5 14q0 4 3 4q11 0 23 -18t12 -31z
M194 14q-20 14 -72 34t-74 20q-11 0 -11 -10q0 -24 29 -45t54 -21q42 0 74 22z" />
    <glyph glyph-name="currency" unicode="&#xa4;" horiz-adv-x="579" 
d="M564 150q-147 -173 -346 -173q-186 0 -186 213q0 11 -9 10q-12 0 -20 16q-3 5 -1.5 24.5t-3.5 30.5q30 -3 52 -3q4 11 24 55q-38 30 -38 53q0 9 11 9q2 0 12 -1.5t12 -1.5q-2 0 9.5 -1t18.5 -1q10 2 15 6q162 183 326 183q31 0 55.5 -23t24.5 -57q0 -5 -4 -8q-4 -4 -6 1
q3 19 -24 29q-20 7 -44 7q-59 0 -134 -38q-70 -35 -120 -84q0 -3 1 -4h128q2 0 11.5 1t11.5 1q25 0 68.5 5.5t46.5 5.5q12 0 12 -4q0 -2 -4 -4q-98 -41 -163 -55q-43 -9 -168 -20q-10 -9 -36 -53q3 -1 24 -1l253 13q12 0 13 -3t-4 -5q-107 -49 -311 -74q-12 -39 -12 -68
q0 -56 47 -80q44 -23 144 -23q57 0 161 45q99 42 149 84q3 2 5 -1t-1 -6z" />
    <glyph glyph-name="brokenbar" unicode="&#xa6;" horiz-adv-x="154" 
d="M111 380q0 -70 -6 -135q-2 -23 -13 -23t-10 24q1 32 1 64q0 60 -4 83q-8 46 -8 41q0 7 12 7q28 0 28 -61zM94 143q-25 -196 -39 -216q-2 -3 -8 -1q-8 2 -11 2v1q0 11 11 53q12 50 14 60q9 50 14 102q1 16 11 16t8 -17z" />
    <glyph glyph-name="section" unicode="&#xa7;" horiz-adv-x="377" 
d="M537 515q0 -15 -52.5 -51t-70.5 -36l-9 1l-1 5q29 20 58 39q43 33 40 47q-12 7 -29 7h-12q-72 -1 -173 -40q-115 -44 -137 -99q-10 -24 -10 -38q0 -34 50 -92q46 -52 93 -103q50 -61 50 -101q0 -37 -22 -65t-57 -36q0 -39 -44 -64q-37 -21 -80 -21h-29q-107 0 -151 67
l3 6q44 -22 98 -22q49 0 100 16q69 20 69 56q0 20 -48 69q-71 72 -90 97q-49 63 -49 117q0 74 81 125q20 106 231 159q96 24 122 24q11 0 22 -3q14 -15 29 -30q18 -20 18 -34zM301 90q0 18 -41 61q-75 78 -82 87q-48 56 -60 103q-57 -42 -57 -90q0 -38 84 -130
q92 -99 106 -141q19 18 34.5 51.5t15.5 58.5z" />
    <glyph glyph-name="dieresis" unicode="&#xa8;" horiz-adv-x="248" 
d="M216 376q-4 -4 -11 -19q-8 -18 -6 -21.5t0 -8.5t-4 -5q-11 0 -22 10t-14 26q-2 12 10.5 18t44.5 25q3 2 5 2q4 0 4 -5q0 -13 -7 -22zM104 376q-4 -4 -11 -19q-8 -18 -6 -21.5t0 -8.5t-4 -5q-11 0 -22 10t-13 26q-2 12 10.5 18t43.5 25q3 2 6 2t3 -5q0 -13 -7 -22z" />
    <glyph glyph-name="copyright" unicode="&#xa9;" horiz-adv-x="539" 
d="M504 308q0 -113 -116 -199q-106 -80 -223 -80q-64 0 -102 31q-41 33 -41 96q0 100 114 195q109 90 211 90q60 0 106 -36q51 -39 51 -97zM459 301q0 54 -33.5 88.5t-87.5 34.5q-95 0 -184 -87t-89 -181q0 -54 31 -82t85 -28q102 0 188 76q90 79 90 179zM398 346
q0 -26 -15 -27l-5 4q5 19 5 20q0 29 -31 29q-63 0 -125 -73q-53 -65 -69 -134q-2 -9 -2 -16q0 -32 35 -32q49 0 126 44q11 8 32 20l3 -3q-1 -29 -72 -57q-63 -24 -98 -24q-29 0 -48 13q-23 15 -23 41q0 78 83 154t162 76q42 0 42 -35z" />
    <glyph glyph-name="ordfeminine" unicode="&#xaa;" horiz-adv-x="263" 
d="M245 266q-5 -11 -16 -27q-57 -84 -80 -79q-34 7 -29 40q2 11 11 36q-16 -23 -41 -50q-32 -34 -44 -34q-15 0 -23.5 14t-8.5 27q0 47 53 100t98 53q15 0 31 -22q13 -15 1 -21l-3.5 4t-11.5 6q-22 4 -73.5 -39t-65.5 -82q-5 -11 -5 -18q0 -13 16 -2q29 22 62 60t38 58
q4 5 16 5q9 0 19 -4.5t7 -10.5q-35 -53 -43 -83q-2 -5 -2 -8q0 -8 7 -8q6 0 13 7t66 80q7 9 9 6t-1 -8z" />
    <glyph glyph-name="guillemotleft" unicode="&#xab;" horiz-adv-x="296" 
d="M274 307q0 -10 -69 -108q68 -86 68 -94q0 -10 -7 -9l-6 2q-15 21 -45 42q-45 31 -51 36q-2 2 -2 4q0 7 42 61q36 46 52 63q7 7 13 7q5 0 5 -4zM161 307q0 -10 -69 -108q68 -86 68 -94q0 -10 -7 -9l-6 2q-15 21 -45 42q-45 31 -51 36q-2 2 -2 4q0 7 42 61q36 46 52 63
q7 7 13 7q5 0 5 -4z" />
    <glyph glyph-name="logicalnot" unicode="&#xac;" horiz-adv-x="182" 
d="M277 391q0 -2 -2 -5q-74 -83 -145 -180q-103 -141 -103 -191q0 -22 26 -31q1 0 2 -1q0 -6 -16 -6q-37 0 -37 65q0 40 111 200.5t136 160.5q28 0 28 -12z" />
    <glyph glyph-name="minus" unicode="&#xad;" horiz-adv-x="267" 
d="M251 190q0 -12 -54 -26q-48 -13 -70 -13q-87 0 -87 20q0 19 14 19l144 1q36 0 53 2v-3z" />
    <glyph glyph-name="minus" unicode="&#x2212;" horiz-adv-x="267" 
d="M251 190q0 -12 -54 -26q-48 -13 -70 -13q-87 0 -87 20q0 19 14 19l144 1q36 0 53 2v-3z" />
    <glyph glyph-name="registered" unicode="&#xae;" horiz-adv-x="539" 
d="M491 308q0 -65 -49 -132q-42 -56 -104 -97q24 -22 37 -22t16 15q3 11 5 23q5 -3 5 -11q0 -15 -10 -26.5t-26 -11.5q-15 0 -42 23q-74 -44 -139 -44q-60 0 -103 35q-46 37 -46 96q0 92 92 181q-28 -12 -56 -31q-7 -5 -12 -5q-9 0 -9 10q0 33 114 58q95 72 183 72
q59 0 101 -36q43 -39 43 -97zM459 301q0 54 -33.5 88.5t-87.5 34.5q-62 0 -132 -48q42 6 80 6q55 0 96 -11q63 -18 63 -56q0 -53 -84 -86q-72 -28 -129 -21q56 -79 94 -118q54 38 91 92q42 61 42 119zM431 320q0 49 -125 49q-66 0 -131 -17q-110 -94 -110 -196q0 -51 41 -83
q37 -30 89 -30q55 0 115 37q-55 51 -117 140q-48 -79 -48 -119q0 -9 7 -14q0 -2 -3 -2q-12 0 -12 33q0 52 41 123q-10 15 -10 18q0 11 15 11q6 0 10 -6q16 25 45 56q38 40 54 40q14 0 14 -11l-7 -7q-59 -56 -91 -100l16 -24q9 -1 19 -1q47 0 112 29q76 34 76 74z" />
    <glyph glyph-name="macron" unicode="&#xaf;" horiz-adv-x="161" 
d="M154 303q0 -5 -19 -6q-12 0 -38 -2q-71 -6 -69 -6q-14 0 -14 5q0 9 24 18q12 3 32 3q24 0 65 -5q19 -3 19 -7z" />
    <glyph glyph-name="macron" unicode="&#x2c9;" horiz-adv-x="161" 
d="M154 303q0 -5 -19 -6q-12 0 -38 -2q-71 -6 -69 -6q-14 0 -14 5q0 9 24 18q12 3 32 3q24 0 65 -5q19 -3 19 -7z" />
    <glyph glyph-name="degree" unicode="&#xb0;" horiz-adv-x="239" 
d="M200 343q0 -30 -21.5 -51.5t-50.5 -21.5q-30 0 -51.5 21.5t-21.5 51.5t21.5 51.5t51.5 21.5t51 -21.5t21 -51.5zM182 343q0 22 -16 38t-38 16q-23 0 -38.5 -16t-15.5 -38t15.5 -38t38.5 -16q22 0 38 16t16 38z" />
    <glyph glyph-name="plusminus" unicode="&#xb1;" horiz-adv-x="308" 
d="M285 213l-1 -3l-6 -4q-29 0 -106 -1q-1 -48 -5 -104q-2 -4 -5 -4q-2 0 -4 6q-3 11 -4 99v2q-13 0 -49 -2q-30 -1 -48 -1q-12 0 -14 14l4 4q29 4 107 3q0 13 -2 48q-2 31 -2 49q0 11 15 13l4 -4q4 -28 3 -106q49 -1 109 -5q4 -2 4 -4zM225 58q0 -4 -4 -4q-21 0 -63.5 -4
t-63.5 -4q-11 0 -15 16l1 2q16 4 69 4q67 0 76 -10z" />
    <glyph glyph-name="twosuperior" unicode="&#xb2;" horiz-adv-x="350" 
d="M436 632q-5 -42 -100 -121q-60 -49 -135 -97q-27 -18 -79 -45q54 11 108 11q105 0 100 -44q-3 -27 -13 -27q-2 0 0 12q1 13 -55 13q-49 0 -142 -10q-69 -6 -68 -6q-10 0 -13 32q256 136 353 284q7 9 7 15q2 14 -21 14q-34 0 -113 -29q-88 -32 -89 -60q6 -5 5 -10
q0 -4 -3 -4q-8 0 -18.5 15.5t-9.5 23.5q4 35 97 63q77 23 124 23q70 0 65 -53z" />
    <glyph glyph-name="threesuperior" unicode="&#xb3;" horiz-adv-x="333" 
d="M318 603q-3 -31 -53 -55q-10 -6 -31 -15q38 -29 35 -59q-4 -43 -60 -76q-50 -29 -96 -29q-34 0 -52 21t-14 55q4 33 16 33q3 0 3 -4q0 -3 -5 -13.5t-6 -16.5q-4 -37 51 -37q33 0 59 10q81 33 85 72q3 28 -60 28q-8 0 -22.5 -2.5t-20.5 -2.5q-5 0 -9 12l-6 16q9 1 26.5 3
t75.5 24q24 9 36 16q26 13 28 26q1 15 -62 15q-80 0 -83 -30v-5q0 -4 -3 -4q-2 0 -5 11t-2 15q3 37 85 37q31 0 57 -9q36 -12 33 -36z" />
    <glyph glyph-name="acute" unicode="&#xb4;" horiz-adv-x="229" 
d="M197 320q-8 5 -20 5q-20 0 -62 -16q-46 -19 -60 -21q-14 1 -14 6q0 2 4 6q13 2 61 34q53 34 88 46q23 0 23 -30q0 -27 -20 -30z" />
    <glyph glyph-name="paragraph" unicode="&#xb6;" horiz-adv-x="463" 
d="M528 536q-13 -1 -38 -11q-48 -31 -108 -166q-50 -122 -100 -245q-58 -134 -99 -161q-5 -3 -10 -3q-6 0 -6 4q2 4 12 13q46 45 101 209q29 84 57 169q38 100 83 155q-6 1 -7 1q-59 0 -134 -158q-31 -64 -86 -215q-32 -87 -86 -168q-74 -110 -137 -110q-12 0 -14 8q3 6 9 6
q74 0 150 154q25 51 88 223q-130 11 -130 95q0 73 82 127q74 49 150 49q16 0 46 2t46 2q19 0 32 -4q35 35 72 35q21 0 27 -11z" />
    <glyph glyph-name="cedilla" unicode="&#xb8;" horiz-adv-x="158" 
d="M122 -127q0 -34 -37 -54q-31 -16 -68 -16q-6 0 -6 8q0 3 6 5q26 4 50.5 9.5t24.5 39.5q0 10 -18 35.5t-18 39.5q0 24 13 42.5t36 18.5q8 0 8 -5q-32 -5 -32 -44q0 -8 20.5 -34t20.5 -45z" />
    <glyph glyph-name="onesuperior" unicode="&#xb9;" horiz-adv-x="195" 
d="M214 598q0 -2 -1 -3q-47 -56 -101 -155q-62 -111 -67 -164q-1 -6 1 -16t1 -15q0 -4 -3 -4t-8 5q-19 18 -14 66q8 74 100 229q-24 -21 -53 -43v2v3q26 32 52 63q44 51 54 51q8 0 24 -6.5t15 -12.5z" />
    <glyph glyph-name="ordmasculine" unicode="&#xba;" horiz-adv-x="263" 
d="M232 328q10 -15 10 -36q0 -62 -64 -119q-40 -35 -74 -33q-24 1 -39 18.5t-15 44.5q0 23 11 49q17 40 54 72.5t69 32.5q5 0 15.5 -9.5t18.5 -10t14 -9.5zM200 323q-13 0 -26 -10q-23 -16 -54 -58q-37 -50 -37 -76q0 -24 26 -24q36 0 76 51t40 88q0 29 -25 29z" />
    <glyph glyph-name="guillemotright" unicode="&#xbb;" horiz-adv-x="296" 
d="M297 222q0 -7 -42 -61q-36 -46 -52 -63q-7 -7 -13 -7q-5 0 -5 4q0 10 70 108q-69 86 -69 94q0 10 8 10l5 -3q15 -21 46 -42q45 -31 50 -36q2 -2 2 -4zM184 222q0 -7 -42 -61q-36 -46 -52 -63q-7 -7 -13 -7q-5 0 -5 4q0 10 70 108q-69 86 -69 94q0 10 8 10l5 -3
q15 -21 46 -42q45 -31 50 -36q2 -2 2 -4z" />
    <glyph glyph-name="onequarter" unicode="&#xbc;" horiz-adv-x="569" 
d="M562 334q-2 -17 -34 -74q-22 -39 -45 -77q15 -2 28.5 -13.5t12.5 -24.5q-1 -8 -10 -18t-17 -10q-3 0 -3 4t7 14.5t8 14.5q0 6 -12 8q-8 2 -17 2h-6q-13 -21 -36.5 -80t-25.5 -80q-1 -5 3 -10t4 -7q0 -3 -7 -3q-12 0 -18.5 20t-2.5 53q4 42 29 104q-5 1 -11 1
q-37 0 -129 -22q-21 -5 -44 -11q-5 0 -11 11.5t-5 18.5q3 30 104 104q67 45 135 91h-15q-7 1 -7 2q1 7 27 7t24 -20q-1 -6 -7 -10q-25 -17 -74 -51q-47 -37 -143 -108q92 22 173 18q21 40 43 80q32 60 34 75q0 5 -6 9t-6 6q2 6 19 6q14 0 28 -8.5t13 -21.5zM214 598
q0 -2 -1 -3q-47 -56 -101 -155q-62 -111 -67 -164q-1 -6 1 -16t1 -15q0 -4 -3 -4t-8 5q-19 18 -14 66q8 74 100 229q-24 -21 -53 -43v2v3q26 32 52 63q44 51 54 51q8 0 24 -6.5t15 -12.5zM438 592q0 -6 -6 -15q-32 -42 -96 -127q-128 -172 -202 -285t-74 -143q0 -10 5 -15
l5 -5q0 -12 -16 -12q-17 0 -17 30q0 32 29 89q3 5 49 82q36 63 74 122q188 299 209 299q40 0 40 -20z" />
    <glyph glyph-name="onehalf" unicode="&#xbd;" horiz-adv-x="622" 
d="M214 598q0 -2 -1 -3q-47 -56 -101 -155q-62 -111 -67 -164q-1 -6 1 -16t1 -15q0 -4 -3 -4t-8 5q-19 18 -14 66q8 74 100 229q-24 -21 -53 -43v2v3q26 32 52 63q44 51 54 51q8 0 24 -6.5t15 -12.5zM587 332q-5 -42 -100 -120q-61 -50 -136 -98q-26 -17 -78 -44
q54 11 108 11q104 0 100 -45q-3 -26 -13 -26q-2 0 -0.5 12t-55.5 12q-48 0 -141 -9q-70 -7 -69 -7q-10 0 -13 32q257 137 354 284q6 10 7 16q1 13 -21 13q-35 0 -113 -28q-88 -33 -89 -60q6 -6 5 -11q0 -3 -3 -3q-8 0 -18.5 15t-9.5 24q3 35 97 63q76 23 124 23q70 0 65 -54
zM438 592q0 -6 -6 -15q-32 -42 -96 -127q-128 -172 -202 -285t-74 -143q0 -10 5 -15l5 -5q0 -12 -16 -12q-17 0 -17 30q0 32 29 89q3 5 49 82q36 63 74 122q188 299 209 299q40 0 40 -20z" />
    <glyph glyph-name="threequarters" unicode="&#xbe;" horiz-adv-x="613" 
d="M318 603q-3 -31 -53 -55q-10 -6 -31 -15q38 -29 35 -59q-4 -43 -60 -76q-50 -29 -96 -29q-34 0 -52 21t-14 55q4 33 16 33q3 0 3 -4q0 -3 -5 -13.5t-6 -16.5q-4 -37 51 -37q33 0 59 10q81 33 85 72q3 28 -60 28q-8 0 -22.5 -2.5t-20.5 -2.5q-5 0 -9 12l-6 16q9 1 26.5 3
t75.5 24q24 9 36 16q26 13 28 26q1 15 -62 15q-80 0 -83 -30v-5q0 -4 -3 -4q-2 0 -5 11t-2 15q3 37 85 37q31 0 57 -9q36 -12 33 -36zM609 334q-2 -17 -34 -74q-22 -39 -44 -77q14 -2 27.5 -13.5t12.5 -24.5q-1 -8 -10 -18t-17 -10q-3 0 -3 4q1 4 7.5 14.5t7.5 14.5
q0 6 -12 8q-8 2 -17 2h-6q-13 -21 -36.5 -80t-25.5 -80q-1 -5 3 -10t4 -7q0 -3 -6 -3q-13 0 -19 20t-3 53q5 42 30 104q-5 1 -12 1q-37 0 -129 -22q-21 -5 -43 -11q-6 0 -12 11.5t-5 18.5q3 30 104 104q68 45 135 91h-15q-7 1 -7 2q1 7 27 7t24 -20q-1 -6 -7 -10
q-25 -17 -74 -51q-47 -37 -143 -108q92 22 173 18q22 40 43 80q33 60 34 75q1 5 -5.5 9t-6.5 6q3 6 19 6q14 0 28 -8.5t13 -21.5zM485 592q0 -6 -6 -15q-32 -42 -95 -127q-129 -172 -203 -285t-74 -143q0 -10 5 -15l5 -5q0 -12 -16 -12q-17 0 -17 30q0 32 30 89q3 5 48 82
q37 63 74 122q188 299 209 299q40 0 40 -20z" />
    <glyph glyph-name="questiondown" unicode="&#xbf;" horiz-adv-x="637" 
d="M574 200q2 -12 -10.5 -18t-44.5 -25q-3 -2 -5 -2q-4 0 -4 5q0 13 7 22q4 4 11.5 20.5t4.5 21.5q-1 2 1 7t4 5q11 0 22 -10t14 -26zM519 90q0 -39 -70 -106q-46 -44 -112 -97l-116 -92q-37 -28 -107 -89q-27 -28 -27 -42q0 -16 32 -16q37 0 110 19q56 15 78 24
q122 52 157 105q6 8 6 16q0 4 -1.5 9t-1.5 7q0 4 6 5q-2 0 14 -10q6 0 17.5 -17t11.5 -23q0 -55 -166 -114q-139 -49 -208 -52q-44 -2 -74 20t-30 55q0 28 24 56q54 61 189 138q139 79 191 135q42 46 42 70q0 19 -18 35q-8 4 -8 6t9 5q52 -4 52 -47z" />
    <glyph glyph-name="Agrave" unicode="&#xc0;" horiz-adv-x="750" 
d="M852 582q1 -18 -11 -39q-8 -16 -52 -85q-33 -52 -100 -163q37 -14 33 -48q18 -36 18 -42q0 -21 -17 -30.5t-34 -16.5q-2 -1 -14.5 -9.5t-17.5 -8.5q-3 0 -3 5q0 -1 26 24.5t26 51.5q0 27 -36 40q-67 -122 -86 -206q-5 -23 -4 -39q2 -26 20 -26q33 0 70 54q4 6 7 7
q1 -2 2 -5q0 -2 -8.5 -22t-17.5 -41q-14 -27 -30 -27q-22 0 -65 33q-15 11 -18 37q-6 73 71 245q-11 1 -22 1q-54 0 -116 -12q-66 -89 -133 -178q-91 -120 -161 -180q-96 -82 -181 -82q-54 0 -97 25q-50 31 -50 81q0 7 6 7t6 -8q0 -57 84 -57q21 0 42 2q100 14 198 107
q29 26 152 173q37 44 88 100q-92 -27 -183 -54q-125 -37 -178 -37q-28 0 -43 24q-12 20 -12 50q0 35 92 71q79 30 125 30q12 0 12 -4q0 -2 -2 -5q-191 -64 -191 -87q0 -13 38 -13q70 0 191 28q166 38 192 42l44 49q130 143 200 217q17 21 53 64q1 -1 53 -9q31 -5 34 -34z
M726 513q0 4 -2 4q-25 0 -216 -216q47 6 88 6q20 0 31 -1q16 34 90 181q10 19 9 26zM717 621q0 -4 -8 -4q-10 7 -67 19q-62 13 -95 30q-6 6 -6 14q0 12 10.5 23t23.5 11q6 0 12 -4q6 -22 53 -44q64 -29 70.5 -35t6.5 -10z" />
    <glyph glyph-name="Aacute" unicode="&#xc1;" horiz-adv-x="750" 
d="M852 582q1 -18 -11 -39q-8 -16 -52 -85q-33 -52 -100 -163q37 -14 33 -48q18 -36 18 -42q0 -21 -17 -30.5t-34 -16.5q-2 -1 -14.5 -9.5t-17.5 -8.5q-3 0 -3 5q0 -1 26 24.5t26 51.5q0 27 -36 40q-67 -122 -86 -206q-5 -23 -4 -39q2 -26 20 -26q33 0 70 54q4 6 7 7
q1 -2 2 -5q0 -2 -8.5 -22t-17.5 -41q-14 -27 -30 -27q-22 0 -65 33q-15 11 -18 37q-6 73 71 245q-11 1 -22 1q-54 0 -116 -12q-66 -89 -133 -178q-91 -120 -161 -180q-96 -82 -181 -82q-54 0 -97 25q-50 31 -50 81q0 7 6 7t6 -8q0 -57 84 -57q21 0 42 2q100 14 198 107
q29 26 152 173q37 44 88 100q-92 -27 -183 -54q-125 -37 -178 -37q-28 0 -43 24q-12 20 -12 50q0 35 92 71q79 30 125 30q12 0 12 -4q0 -2 -2 -5q-191 -64 -191 -87q0 -13 38 -13q70 0 191 28q166 38 192 42l44 49q130 143 200 217q17 21 53 64q1 -1 53 -9q31 -5 34 -34z
M726 513q0 4 -2 4q-25 0 -216 -216q47 6 88 6q20 0 31 -1q16 34 90 181q10 19 9 26zM950 680q-8 5 -20 5q-20 0 -62 -16q-46 -19 -60 -21q-14 1 -14 6q0 2 4 6q13 2 61 34q53 34 88 46q23 0 23 -30q0 -27 -20 -30z" />
    <glyph glyph-name="Acircumflex" unicode="&#xc2;" horiz-adv-x="750" 
d="M852 582q1 -18 -11 -39q-8 -16 -52 -85q-33 -52 -100 -163q37 -14 33 -48q18 -36 18 -42q0 -21 -17 -30.5t-34 -16.5q-2 -1 -14.5 -9.5t-17.5 -8.5q-3 0 -3 5q0 -1 26 24.5t26 51.5q0 27 -36 40q-67 -122 -86 -206q-5 -23 -4 -39q2 -26 20 -26q33 0 70 54q4 6 7 7
q1 -2 2 -5q0 -2 -8.5 -22t-17.5 -41q-14 -27 -30 -27q-22 0 -65 33q-15 11 -18 37q-6 73 71 245q-11 1 -22 1q-54 0 -116 -12q-66 -89 -133 -178q-91 -120 -161 -180q-96 -82 -181 -82q-54 0 -97 25q-50 31 -50 81q0 7 6 7t6 -8q0 -57 84 -57q21 0 42 2q100 14 198 107
q29 26 152 173q37 44 88 100q-92 -27 -183 -54q-125 -37 -178 -37q-28 0 -43 24q-12 20 -12 50q0 35 92 71q79 30 125 30q12 0 12 -4q0 -2 -2 -5q-191 -64 -191 -87q0 -13 38 -13q70 0 191 28q166 38 192 42l44 49q130 143 200 217q17 21 53 64q1 -1 53 -9q31 -5 34 -34z
M726 513q0 4 -2 4q-25 0 -216 -216q47 6 88 6q20 0 31 -1q16 34 90 181q10 19 9 26zM942 676q5 -5 2 -10q-3 -4 -7 -2q-12 1 -85 46q-85 -50 -112 -57q-7 -2 -9 1q-1 2 0 7q1 2 2 5q1 7 58 44.5t69 39.5q9 4 21 -6q21 -22 61 -68z" />
    <glyph glyph-name="Atilde" unicode="&#xc3;" horiz-adv-x="750" 
d="M852 582q1 -18 -11 -39q-8 -16 -52 -85q-33 -52 -100 -163q37 -14 33 -48q18 -36 18 -42q0 -21 -17 -30.5t-34 -16.5q-2 -1 -14.5 -9.5t-17.5 -8.5q-3 0 -3 5q0 -1 26 24.5t26 51.5q0 27 -36 40q-67 -122 -86 -206q-5 -23 -4 -39q2 -26 20 -26q33 0 70 54q4 6 7 7
q1 -2 2 -5q0 -2 -8.5 -22t-17.5 -41q-14 -27 -30 -27q-22 0 -65 33q-15 11 -18 37q-6 73 71 245q-11 1 -22 1q-54 0 -116 -12q-66 -89 -133 -178q-91 -120 -161 -180q-96 -82 -181 -82q-54 0 -97 25q-50 31 -50 81q0 7 6 7t6 -8q0 -57 84 -57q21 0 42 2q100 14 198 107
q29 26 152 173q37 44 88 100q-92 -27 -183 -54q-125 -37 -178 -37q-28 0 -43 24q-12 20 -12 50q0 35 92 71q79 30 125 30q12 0 12 -4q0 -2 -2 -5q-191 -64 -191 -87q0 -13 38 -13q70 0 191 28q166 38 192 42l44 49q130 143 200 217q17 21 53 64q1 -1 53 -9q31 -5 34 -34z
M726 513q0 4 -2 4q-25 0 -216 -216q47 6 88 6q20 0 31 -1q16 34 90 181q10 19 9 26zM978 725q0 -19 -49 -52q-16 -10 -34 -10q-22 0 -62 16.5t-62 16.5q-20 0 -41 -16t-27 -16l-1 3q1 8 23 28q18 16 31 23q21 12 45 12q21 0 59.5 -13t58.5 -13q30 0 52 27q7 0 7 -6z" />
    <glyph glyph-name="Adieresis" unicode="&#xc4;" horiz-adv-x="750" 
d="M852 582q1 -18 -11 -39q-8 -16 -52 -85q-33 -52 -100 -163q37 -14 33 -48q18 -36 18 -42q0 -21 -17 -30.5t-34 -16.5q-2 -1 -14.5 -9.5t-17.5 -8.5q-3 0 -3 5q0 -1 26 24.5t26 51.5q0 27 -36 40q-67 -122 -86 -206q-5 -23 -4 -39q2 -26 20 -26q33 0 70 54q4 6 7 7
q1 -2 2 -5q0 -2 -8.5 -22t-17.5 -41q-14 -27 -30 -27q-22 0 -65 33q-15 11 -18 37q-6 73 71 245q-11 1 -22 1q-54 0 -116 -12q-66 -89 -133 -178q-91 -120 -161 -180q-96 -82 -181 -82q-54 0 -97 25q-50 31 -50 81q0 7 6 7t6 -8q0 -57 84 -57q21 0 42 2q100 14 198 107
q29 26 152 173q37 44 88 100q-92 -27 -183 -54q-125 -37 -178 -37q-28 0 -43 24q-12 20 -12 50q0 35 92 71q79 30 125 30q12 0 12 -4q0 -2 -2 -5q-191 -64 -191 -87q0 -13 38 -13q70 0 191 28q166 38 192 42l44 49q130 143 200 217q17 21 53 64q1 -1 53 -9q31 -5 34 -34z
M726 513q0 4 -2 4q-25 0 -216 -216q47 6 88 6q20 0 31 -1q16 34 90 181q10 19 9 26zM929 719q-4 -4 -11 -19q-8 -18 -6 -21.5t0 -8.5t-4 -5q-11 0 -22 10t-14 26q-2 12 10.5 18t44.5 25q3 2 5 2q4 0 4 -5q0 -13 -7 -22zM817 719q-4 -4 -11 -19q-8 -18 -6 -21.5t0 -8.5t-4 -5
q-11 0 -22 10t-13 26q-2 12 10.5 18t43.5 25q3 2 6 2t3 -5q0 -13 -7 -22z" />
    <glyph glyph-name="Aring" unicode="&#xc5;" horiz-adv-x="750" 
d="M852 582q1 -18 -11 -39q-8 -16 -52 -85q-33 -52 -100 -163q37 -14 33 -48q18 -36 18 -42q0 -21 -17 -30.5t-34 -16.5q-2 -1 -14.5 -9.5t-17.5 -8.5q-3 0 -3 5q0 -1 26 24.5t26 51.5q0 27 -36 40q-67 -122 -86 -206q-5 -23 -4 -39q2 -26 20 -26q33 0 70 54q4 6 7 7
q1 -2 2 -5q0 -2 -8.5 -22t-17.5 -41q-14 -27 -30 -27q-22 0 -65 33q-15 11 -18 37q-6 73 71 245q-11 1 -22 1q-54 0 -116 -12q-66 -89 -133 -178q-91 -120 -161 -180q-96 -82 -181 -82q-54 0 -97 25q-50 31 -50 81q0 7 6 7t6 -8q0 -57 84 -57q21 0 42 2q100 14 198 107
q29 26 152 173q37 44 88 100q-92 -27 -183 -54q-125 -37 -178 -37q-28 0 -43 24q-12 20 -12 50q0 35 92 71q79 30 125 30q12 0 12 -4q0 -2 -2 -5q-191 -64 -191 -87q0 -13 38 -13q70 0 191 28q166 38 192 42l44 49q130 143 200 217q17 21 53 64q1 -1 53 -9q31 -5 34 -34z
M726 513q0 4 -2 4q-25 0 -216 -216q47 6 88 6q20 0 31 -1q16 34 90 181q10 19 9 26zM910 687q0 -34 -27 -61.5t-61 -27.5q-38 0 -38 36q0 20 9 41q12 26 28 31q15 31 48 31q18 0 29.5 -15.5t11.5 -34.5zM887 685q0 34 -21 34q-10 0 -27 -13l10 -4q-3 -8 -19 -32
q-11 -17 -11 -35q0 -19 14 -19q23 0 38.5 23t15.5 46z" />
    <glyph glyph-name="AE" unicode="&#xc6;" horiz-adv-x="1169" 
d="M1259 624q-29 -34 -68 -77q9 -13 9 -51q0 -26 -7 -41.5t-14 -15.5q-5 0 -5 9q0 4 1 10q3 10 3 34q-1 27 -9 27q-12 0 -37.5 -45t-25.5 -61q0 -13 13 -20q5 -1 2 -5q-3 -5 -12 -3q-40 9 -40 51t39 110q6 10 -22 10q-73 0 -180 -59q-116 -63 -116 -120q0 -27 58 -27
q24 0 65.5 5t47.5 5q22 0 39.5 -21t18.5 -44q-1 -4 -12 0q-8 2 -15 5q-14 3 -32 3q-64 0 -161 -36q-78 -29 -131 -62q-57 -36 -76.5 -67.5t-19.5 -64.5q0 -97 141 -97q121 0 229 49q99 46 136 93q34 45 34 75q0 19 -19 40q-13 14 -2 17q21 -4 42 -32t21 -48q14 -25 5 -47
q-32 -84 -157 -138q-110 -49 -222 -49q-89 0 -154 31q-85 40 -85 121q0 68 85 138q68 56 148 85l46 16q-95 10 -95 81q0 50 79 110q63 49 123 70q69 24 122 24q59 0 94 -28q34 51 65 78q18 0 34.5 -10.5t16.5 -27.5zM852 582q1 -18 -11 -39q-8 -16 -52 -85
q-44 -83 -131 -229q-10 4 -48 -46t-42 -50q-1 0 -1 2q0 14 56 136q-93 0 -150 -11q-66 -89 -133 -178q-91 -120 -161 -180q-96 -82 -181 -82q-54 0 -97 25q-50 31 -50 81q0 7 6 7t6 -8q0 -57 84 -57q21 0 42 2q100 14 198 107q29 26 152 173q37 44 88 100q-92 -27 -183 -54
q-125 -37 -178 -37q-28 0 -43 24q-12 20 -12 50q0 35 92 71q79 30 125 30q12 0 12 -4q0 -2 -2 -5q-191 -64 -191 -87q0 -13 38 -13q70 0 191 28q166 38 192 42l44 49q130 143 200 217q17 21 53 64q1 -1 53 -9q31 -5 34 -34zM726 513q0 4 -2 4q-25 0 -216 -216q47 6 88 6
q20 0 31 -1q16 34 90 181q10 19 9 26z" />
    <glyph glyph-name="Ccedilla" unicode="&#xc7;" horiz-adv-x="561" 
d="M670 550q19 -26 19 -60q0 -42 -28 -79q-43 -55 -84 -88q-43 -36 -116 -74q-6 -5 -10 -5q-7 0 -7 7q0 4 3 7q114 56 163 143q33 59 33 87q0 39 -57 39q-156 0 -321 -136q-168 -138 -183 -288q-12 -110 120 -110q83 0 206 43q103 36 159 71q24 15 32 15q3 0 3 -3
q0 -6 -15 -20q-56 -52 -117 -82q-121 -59 -217 -59q-95 0 -161 58q-9 11 -31 36q-17 15 -46 46q-11 17 -8 53q12 113 156 244q135 124 286 176q67 23 130 23q89 0 91 -44zM192 -163q0 -34 -37 -54q-31 -16 -68 -16q-6 0 -6 8q0 3 6 5q26 4 50.5 9.5t24.5 39.5q0 10 -18 35.5
t-18 39.5q0 24 13 42.5t36 18.5q8 0 8 -5q-32 -5 -32 -44q0 -8 20.5 -34t20.5 -45z" />
    <glyph glyph-name="Egrave" unicode="&#xc8;" horiz-adv-x="632" 
d="M718 624q-29 -34 -68 -77q9 -13 9 -51q0 -26 -7 -41.5t-14 -15.5q-6 0 -6 9q0 4 2 10q3 10 2 34q0 27 -8 27q-13 0 -38 -45t-25 -61q0 -13 12 -20q5 -1 3 -5q-3 -5 -12 -3q-40 9 -40 51t39 110q6 10 -23 10q-73 0 -180 -59q-115 -63 -115 -120q0 -27 57 -27q25 0 66 5
t47 5q23 0 40.5 -21t18.5 -44l-1 -3v-1q-23 12 -59 12q-64 0 -160 -36q-79 -29 -131 -62q-58 -36 -77 -67.5t-19 -64.5q0 -97 140 -97q122 0 229 49q100 46 135.5 92t35.5 76q0 19 -20 40q-13 14 -2 17q22 -4 43 -32t21 -48q13 -25 5 -47q-33 -84 -157 -138
q-111 -49 -222 -49q-90 0 -154 31q-85 40 -85 121q0 68 84 138q69 56 148 85l46 16q-94 10 -94 81q0 50 78 110q63 49 124 70q68 24 122 24q58 0 94 -28q34 51 64 78q18 0 35 -10.5t17 -27.5zM603 665q0 -4 -8 -4q-10 7 -67 19q-62 13 -95 30q-6 6 -6 14q0 12 10.5 23
t23.5 11q6 0 12 -4q6 -22 53 -44q64 -29 70.5 -35t6.5 -10z" />
    <glyph glyph-name="Eacute" unicode="&#xc9;" horiz-adv-x="632" 
d="M718 624q-29 -34 -68 -77q9 -13 9 -51q0 -26 -7 -41.5t-14 -15.5q-6 0 -6 9q0 4 2 10q3 10 2 34q0 27 -8 27q-13 0 -38 -45t-25 -61q0 -13 12 -20q5 -1 3 -5q-3 -5 -12 -3q-40 9 -40 51t39 110q6 10 -23 10q-73 0 -180 -59q-115 -63 -115 -120q0 -27 57 -27q25 0 66 5
t47 5q23 0 40.5 -21t18.5 -44l-1 -3v-1q-23 12 -59 12q-64 0 -160 -36q-79 -29 -131 -62q-58 -36 -77 -67.5t-19 -64.5q0 -97 140 -97q122 0 229 49q100 46 135.5 92t35.5 76q0 19 -20 40q-13 14 -2 17q22 -4 43 -32t21 -48q13 -25 5 -47q-33 -84 -157 -138
q-111 -49 -222 -49q-90 0 -154 31q-85 40 -85 121q0 68 84 138q69 56 148 85l46 16q-94 10 -94 81q0 50 78 110q63 49 124 70q68 24 122 24q58 0 94 -28q34 51 64 78q18 0 35 -10.5t17 -27.5zM699 699q-8 5 -20 5q-20 0 -62 -16q-46 -19 -60 -21q-14 1 -14 6q0 2 4 6
q13 2 61 34q53 34 88 46q23 0 23 -30q0 -27 -20 -30z" />
    <glyph glyph-name="Ecircumflex" unicode="&#xca;" horiz-adv-x="632" 
d="M718 624q-29 -34 -68 -77q9 -13 9 -51q0 -26 -7 -41.5t-14 -15.5q-6 0 -6 9q0 4 2 10q3 10 2 34q0 27 -8 27q-13 0 -38 -45t-25 -61q0 -13 12 -20q5 -1 3 -5q-3 -5 -12 -3q-40 9 -40 51t39 110q6 10 -23 10q-73 0 -180 -59q-115 -63 -115 -120q0 -27 57 -27q25 0 66 5
t47 5q23 0 40.5 -21t18.5 -44l-1 -3v-1q-23 12 -59 12q-64 0 -160 -36q-79 -29 -131 -62q-58 -36 -77 -67.5t-19 -64.5q0 -97 140 -97q122 0 229 49q100 46 135.5 92t35.5 76q0 19 -20 40q-13 14 -2 17q22 -4 43 -32t21 -48q13 -25 5 -47q-33 -84 -157 -138
q-111 -49 -222 -49q-90 0 -154 31q-85 40 -85 121q0 68 84 138q69 56 148 85l46 16q-94 10 -94 81q0 50 78 110q63 49 124 70q68 24 122 24q58 0 94 -28q34 51 64 78q18 0 35 -10.5t17 -27.5zM766 708q5 -5 2 -10q-3 -4 -7 -2q-12 1 -85 46q-85 -50 -112 -57q-7 -2 -9 1
q-1 2 0 7q1 2 2 5q1 7 58 44.5t69 39.5q9 4 21 -6q21 -22 61 -68z" />
    <glyph glyph-name="Edieresis" unicode="&#xcb;" horiz-adv-x="632" 
d="M718 624q-29 -34 -68 -77q9 -13 9 -51q0 -26 -7 -41.5t-14 -15.5q-6 0 -6 9q0 4 2 10q3 10 2 34q0 27 -8 27q-13 0 -38 -45t-25 -61q0 -13 12 -20q5 -1 3 -5q-3 -5 -12 -3q-40 9 -40 51t39 110q6 10 -23 10q-73 0 -180 -59q-115 -63 -115 -120q0 -27 57 -27q25 0 66 5
t47 5q23 0 40.5 -21t18.5 -44l-1 -3v-1q-23 12 -59 12q-64 0 -160 -36q-79 -29 -131 -62q-58 -36 -77 -67.5t-19 -64.5q0 -97 140 -97q122 0 229 49q100 46 135.5 92t35.5 76q0 19 -20 40q-13 14 -2 17q22 -4 43 -32t21 -48q13 -25 5 -47q-33 -84 -157 -138
q-111 -49 -222 -49q-90 0 -154 31q-85 40 -85 121q0 68 84 138q69 56 148 85l46 16q-94 10 -94 81q0 50 78 110q63 49 124 70q68 24 122 24q58 0 94 -28q34 51 64 78q18 0 35 -10.5t17 -27.5zM673 734q-4 -4 -11 -19q-8 -18 -6 -21.5t0 -8.5t-4 -5q-11 0 -22 10t-14 26
q-2 12 10.5 18t44.5 25q3 2 5 2q4 0 4 -5q0 -13 -7 -22zM561 734q-4 -4 -11 -19q-8 -18 -6 -21.5t0 -8.5t-4 -5q-11 0 -22 10t-13 26q-2 12 10.5 18t43.5 25q3 2 6 2t3 -5q0 -13 -7 -22z" />
    <glyph glyph-name="Igrave" unicode="&#xcc;" horiz-adv-x="498" 
d="M702 543q3 -1 3 -3q0 -10 -16 -7q-44 9 -99 11q-13 -11 -34 -30q-284 -291 -284 -423q0 -46 34 -46v-8q-6 -3 -13 -3q-23 0 -41 28q-16 25 -16 50q0 76 94 221q76 116 164 211q-146 -6 -210 -42q-24 -14 -24 -31q0 -47 42 -88q5 -5 -1 -6t-13 2q-25 14 -47 53t-22 70
q0 38 72 62q67 22 166 22q31 0 62 -3q-6 17 23 40l44 32q18 0 40 -10q26 -12 26 -27q0 -17 -35 -49q47 -10 85 -26zM520 -88q-2 -13 -12 -18.5t-20 -10.5q-5 -6 -20 -13q-2 3 2 10q30 22 31 56q2 57 -123 57q-87 0 -169 -19t-114 -19q-94 0 -89 90q1 7 8 20t14 13t7 -9
q0 -4 -4 -8q-16 -15 -4 -32q22 -30 80 -30q30 0 112 16q40 10 80 19q63 14 107 14q119 0 105 -102q5 -17 10 -24q1 -2 -1 -10zM758 725q-8 5 -20 5q-20 0 -62 -16q-46 -19 -60 -21q-14 1 -14 6q0 2 4 6q13 2 61 34q53 34 88 46q23 0 23 -30q0 -27 -20 -30z" />
    <glyph glyph-name="Iacute" unicode="&#xcd;" horiz-adv-x="498" 
d="M776 718q-8 5 -20 5q-20 0 -62 -16q-46 -19 -60 -21q-14 1 -14 6q0 2 4 6q13 2 61 34q53 34 88 46q23 0 23 -30q0 -27 -20 -30zM702 543q3 -1 3 -3q0 -10 -16 -7q-44 9 -99 11q-13 -11 -34 -30q-284 -291 -284 -423q0 -46 34 -46v-8q-6 -3 -13 -3q-23 0 -41 28
q-16 25 -16 50q0 76 94 221q76 116 164 211q-146 -6 -210 -42q-24 -14 -24 -31q0 -47 42 -88q5 -5 -1 -6t-13 2q-25 14 -47 53t-22 70q0 38 72 62q67 22 166 22q31 0 62 -3q-6 17 23 40l44 32q18 0 40 -10q26 -12 26 -27q0 -17 -35 -49q47 -10 85 -26zM520 -88
q-2 -13 -12 -18.5t-20 -10.5q-5 -6 -20 -13q-2 3 2 10q30 22 31 56q2 57 -123 57q-87 0 -169 -19t-114 -19q-94 0 -89 90q1 7 8 20t14 13t7 -9q0 -4 -4 -8q-16 -15 -4 -32q22 -30 80 -30q30 0 112 16q40 10 80 19q63 14 107 14q119 0 105 -102q5 -17 10 -24q1 -2 -1 -10z
" />
    <glyph glyph-name="Icircumflex" unicode="&#xce;" horiz-adv-x="498" 
d="M702 543q3 -1 3 -3q0 -10 -16 -7q-44 9 -99 11q-13 -11 -34 -30q-284 -291 -284 -423q0 -46 34 -46v-8q-6 -3 -13 -3q-23 0 -41 28q-16 25 -16 50q0 76 94 221q76 116 164 211q-146 -6 -210 -42q-24 -14 -24 -31q0 -47 42 -88q5 -5 -1 -6t-13 2q-25 14 -47 53t-22 70
q0 38 72 62q67 22 166 22q31 0 62 -3q-6 17 23 40l44 32q18 0 40 -10q26 -12 26 -27q0 -17 -35 -49q47 -10 85 -26zM520 -88q-2 -13 -12 -18.5t-20 -10.5q-5 -6 -20 -13q-2 3 2 10q30 22 31 56q2 57 -123 57q-87 0 -169 -19t-114 -19q-94 0 -89 90q1 7 8 20t14 13t7 -9
q0 -4 -4 -8q-16 -15 -4 -32q22 -30 80 -30q30 0 112 16q40 10 80 19q63 14 107 14q119 0 105 -102q5 -17 10 -24q1 -2 -1 -10zM746 711q5 -5 2 -10q-3 -4 -7 -2q-12 1 -85 46q-85 -50 -112 -57q-7 -2 -9 1q-1 2 0 7q1 2 2 5q1 7 58 44.5t69 39.5q9 4 21 -6q21 -22 61 -68z
" />
    <glyph glyph-name="Idieresis" unicode="&#xcf;" horiz-adv-x="498" 
d="M702 543q3 -1 3 -3q0 -10 -16 -7q-44 9 -99 11q-13 -11 -34 -30q-284 -291 -284 -423q0 -46 34 -46v-8q-6 -3 -13 -3q-23 0 -41 28q-16 25 -16 50q0 76 94 221q76 116 164 211q-146 -6 -210 -42q-24 -14 -24 -31q0 -47 42 -88q5 -5 -1 -6t-13 2q-25 14 -47 53t-22 70
q0 38 72 62q67 22 166 22q31 0 62 -3q-6 17 23 40l44 32q18 0 40 -10q26 -12 26 -27q0 -17 -35 -49q47 -10 85 -26zM520 -88q-2 -13 -12 -18.5t-20 -10.5q-5 -6 -20 -13q-2 3 2 10q30 22 31 56q2 57 -123 57q-87 0 -169 -19t-114 -19q-94 0 -89 90q1 7 8 20t14 13t7 -9
q0 -4 -4 -8q-16 -15 -4 -32q22 -30 80 -30q30 0 112 16q40 10 80 19q63 14 107 14q119 0 105 -102q5 -17 10 -24q1 -2 -1 -10zM761 746q-4 -4 -11 -19q-8 -18 -6 -21.5t0 -8.5t-4 -5q-11 0 -22 10t-14 26q-2 12 10.5 18t44.5 25q3 2 5 2q4 0 4 -5q0 -13 -7 -22zM649 746
q-4 -4 -11 -19q-8 -18 -6 -21.5t0 -8.5t-4 -5q-11 0 -22 10t-13 26q-2 12 10.5 18t43.5 25q3 2 6 2t3 -5q0 -13 -7 -22z" />
    <glyph glyph-name="Ntilde" unicode="&#xd1;" horiz-adv-x="969" 
d="M1041 405q0 -20 -73 -156q-81 -150 -95 -195q-5 -18 -5 -25q0 -16 29 6q18 18 50 46q3 3 5 4q3 1 4 0q0 -1 -2 -5q-15 -26 -30 -53q-22 -37 -41 -37q-10 0 -36.5 15.5t-35.5 26.5t-3 48q8 53 48 129q38 67 75 134q29 53 29 72q0 10 -8 10q-20 0 -88 -51
q-52 -40 -151 -125q-171 -169 -256 -300q-5 -8 -21 -8q-20 0 -36 12q-19 14 -19 37q0 32 138 230q86 107 235 311q33 52 33 69q0 26 -58 26q-101 0 -318 -69q-237 -75 -324 -150q-17 -14 -17 -27q0 -17 26 -17q5 -3 5 -6q0 -7 -20 -4q-17 3 -44 22q-32 23 -32 42
q0 32 127 89q124 55 283 96q174 45 291 45q154 0 154 -82q0 -27 -12 -48q-4 -8 -28 -41q-21 -29 -138 -164q-107 -123 -152 -194q-10 -15 -3 -15l3 3q98 109 213 207q168 143 247 143q18 0 36 -20q15 -18 15 -31zM1105 616q0 -15 -37 -39q-12 -8 -26 -8q-16 0 -46 12.5
t-46 12.5t-31.5 -12t-20.5 -12v2q0 15 40 38q16 10 34 10q15 0 44 -10t44 -10q23 0 39 20q6 0 6 -4z" />
    <glyph glyph-name="Ograve" unicode="&#xd2;" horiz-adv-x="534" 
d="M519 612q0 -4 -8 -4q-10 7 -67 19q-62 13 -95 30q-6 6 -6 14q0 12 10.5 23t23.5 11q6 0 12 -4q6 -22 53 -44q64 -29 70.5 -35t6.5 -10zM608 444q4 -21 4 -44q0 -98 -72 -206q-69 -102 -171 -170q-106 -70 -198 -69q-80 1 -122 56q-38 49 -38 127q0 66 26.5 128.5
t79 105.5t98.5 43q48 0 75 -21q5 -3 5 -6q0 -5 -22 -5q-73 0 -142 -103q-66 -99 -67 -193q-1 -105 92 -108q112 -3 233 129q108 118 129 223q6 31 6 61q0 46 -14 82q-35 89 -144 89q-77 0 -149 -40q-66 -36 -109 -90q-47 -57 -50 -115q-5 -8 -9 -8t-7 8q3 23 -8.5 43
t-11.5 25q0 9 9 19q-12 79 154 139q108 40 211 40q184 0 212 -140z" />
    <glyph glyph-name="Oacute" unicode="&#xd3;" horiz-adv-x="534" 
d="M608 444q4 -21 4 -44q0 -98 -72 -206q-69 -102 -171 -170q-106 -70 -198 -69q-80 1 -122 56q-38 49 -38 127q0 66 26.5 128.5t79 105.5t98.5 43q48 0 75 -21q5 -3 5 -6q0 -5 -22 -5q-73 0 -142 -103q-66 -99 -67 -193q-1 -105 92 -108q112 -3 233 129q108 118 129 223
q6 31 6 61q0 46 -14 82q-35 89 -144 89q-77 0 -149 -40q-66 -36 -109 -90q-47 -57 -50 -115q-5 -8 -9 -8t-7 8q3 23 -8.5 43t-11.5 25q0 9 9 19q-12 79 154 139q108 40 211 40q184 0 212 -140zM646 641q-8 5 -20 5q-20 0 -62 -16q-46 -19 -60 -21q-14 1 -14 6q0 2 4 6
q13 2 61 34q53 34 88 46q23 0 23 -30q0 -27 -20 -30z" />
    <glyph glyph-name="Ocircumflex" unicode="&#xd4;" horiz-adv-x="534" 
d="M608 444q4 -21 4 -44q0 -98 -72 -206q-69 -102 -171 -170q-106 -70 -198 -69q-80 1 -122 56q-38 49 -38 127q0 66 26.5 128.5t79 105.5t98.5 43q48 0 75 -21q5 -3 5 -6q0 -5 -22 -5q-73 0 -142 -103q-66 -99 -67 -193q-1 -105 92 -108q112 -3 233 129q108 118 129 223
q6 31 6 61q0 46 -14 82q-35 89 -144 89q-77 0 -149 -40q-66 -36 -109 -90q-47 -57 -50 -115q-5 -8 -9 -8t-7 8q3 23 -8.5 43t-11.5 25q0 9 9 19q-12 79 154 139q108 40 211 40q184 0 212 -140zM524 634q5 -5 2 -10q-3 -4 -7 -2q-12 1 -85 46q-85 -50 -112 -57q-7 -2 -9 1
q-1 2 0 7q1 2 2 5q1 7 58 44.5t69 39.5q9 4 21 -6q21 -22 61 -68z" />
    <glyph glyph-name="Otilde" unicode="&#xd5;" horiz-adv-x="534" 
d="M608 444q4 -21 4 -44q0 -98 -72 -206q-69 -102 -171 -170q-106 -70 -198 -69q-80 1 -122 56q-38 49 -38 127q0 66 26.5 128.5t79 105.5t98.5 43q48 0 75 -21q5 -3 5 -6q0 -5 -22 -5q-73 0 -142 -103q-66 -99 -67 -193q-1 -105 92 -108q112 -3 233 129q108 118 129 223
q6 31 6 61q0 46 -14 82q-35 89 -144 89q-77 0 -149 -40q-66 -36 -109 -90q-47 -57 -50 -115q-5 -8 -9 -8t-7 8q3 23 -8.5 43t-11.5 25q0 9 9 19q-12 79 154 139q108 40 211 40q184 0 212 -140zM583 689q0 -19 -49 -52q-16 -10 -34 -10q-22 0 -62 16.5t-62 16.5
q-20 0 -41 -16t-27 -16l-1 3q1 8 23 28q18 16 31 23q21 12 45 12q21 0 59.5 -13t58.5 -13q30 0 52 27q7 0 7 -6z" />
    <glyph glyph-name="Odieresis" unicode="&#xd6;" horiz-adv-x="534" 
d="M608 444q4 -21 4 -44q0 -98 -72 -206q-69 -102 -171 -170q-106 -70 -198 -69q-80 1 -122 56q-38 49 -38 127q0 66 26.5 128.5t79 105.5t98.5 43q48 0 75 -21q5 -3 5 -6q0 -5 -22 -5q-73 0 -142 -103q-66 -99 -67 -193q-1 -105 92 -108q112 -3 233 129q108 118 129 223
q6 31 6 61q0 46 -14 82q-35 89 -144 89q-77 0 -149 -40q-66 -36 -109 -90q-47 -57 -50 -115q-5 -8 -9 -8t-7 8q3 23 -8.5 43t-11.5 25q0 9 9 19q-12 79 154 139q108 40 211 40q184 0 212 -140zM544 660q-4 -4 -11 -19q-8 -18 -6 -21.5t0 -8.5t-4 -5q-11 0 -22 10t-14 26
q-2 12 10.5 18t44.5 25q3 2 5 2q4 0 4 -5q0 -13 -7 -22zM432 660q-4 -4 -11 -19q-8 -18 -6 -21.5t0 -8.5t-4 -5q-11 0 -22 10t-13 26q-2 12 10.5 18t43.5 25q3 2 6 2t3 -5q0 -13 -7 -22z" />
    <glyph glyph-name="multiply" unicode="&#xd7;" horiz-adv-x="261" 
d="M265 278q0 -6 -5.5 -7t-10.5 -2q-20 -9 -26 -19l-8 -3l-8 -11q-28 -14 -43 -36q-7 -6 -19 -13q-1 -2 -6 -10v-1q-2 1 -3 1q-8 0 -8 -8q0 -14 25 -47.5t41 -39.5q9 -3 9 -6q0 -5 -12 -2q-46 13 -69 52q-5 6 -10 20q-1 -1 -17.5 -16t-18.5 -17l-3 -1v-6q-9 -8 -19 -17
q-3 -6 -8 -12l-8 -6q-4 -5 -9 -5t-5 6q0 7 8 17q16 20 47 54q21 24 21 26q0 11 -13.5 45t-20.5 34q-6 0 -15 -10t-16 -11l-1 1h-1h1q6 6 13 15q9 13 17 26q12 16 23 16q17 0 22 -46t16 -47q4 7 38.5 41.5t44 41.5t28.5 19q7 0 18 -5t11 -11z" />
    <glyph glyph-name="Oslash" unicode="&#xd8;" horiz-adv-x="534" 
d="M620 615q0 -9 -8 -17q-46 -53 -136 -157q-182 -212 -289 -352q-52 -69 -63 -85q-41 -61 -41 -91q0 -12 6.5 -18l6.5 -6q0 -6 -8 -10.5t-13 -4.5q-11 0 -18 12.5t-7 23.5q0 40 42 110q3 5 68 102q36 53 106 149q269 369 297 369q16 0 34 -6q23 -7 23 -19zM608 444
q4 -21 4 -44q0 -98 -72 -206q-69 -102 -171 -170q-106 -70 -198 -69q-80 1 -122 56q-38 49 -38 127q0 66 26.5 128.5t79 105.5t98.5 43q48 0 75 -21q5 -3 5 -6q0 -5 -22 -5q-73 0 -142 -103q-66 -99 -67 -193q-1 -105 92 -108q112 -3 233 129q108 118 129 223q6 31 6 61
q0 46 -14 82q-35 89 -144 89q-77 0 -149 -40q-66 -36 -109 -90q-47 -57 -50 -115q-5 -8 -9 -8t-7 8q3 23 -8.5 43t-11.5 25q0 9 9 19q-12 79 154 139q108 40 211 40q184 0 212 -140z" />
    <glyph glyph-name="Ugrave" unicode="&#xd9;" horiz-adv-x="594" 
d="M773 572q0 -4 -8 -4q-10 7 -67 19q-62 13 -95 30q-6 6 -6 14q0 12 10.5 23t23.5 11q6 0 12 -4q6 -22 53 -44q64 -29 70.5 -35t6.5 -10zM859 460q0 -6 -3 -12q-5 -13 -42 -47q-25 -22 -51 -45q-285 -291 -285 -423q0 -46 35 -46v-8q-6 -3 -13 -3q-24 0 -41 28
q-16 25 -16 50q0 84 114 250q93 136 174 213q-6 6 -6 14q0 15 27 37q20 14 41 29q18 -1 39 -10q27 -12 27 -27zM691 399q-40 -63 -167 -200q-131 -143 -196 -190q-44 -33 -76 -33t-57.5 27t-21.5 57q6 54 71 152q23 34 107 144q138 180 138 210q0 9 -9 9q-78 2 -255 -113
q-55 -36 -116 -101q-78 -82 -78 -133q0 -18 11 -31q3 -3 3 -6q0 -12 -12 -2t-24 38t-10 44q11 102 177 211q44 29 134 73q108 52 144 52q33 0 68 -17q41 -20 37 -47q-7 -45 -87 -128q-119 -124 -147 -162q-82 -107 -93 -211q-5 -42 20 -42t80 45q34 28 81 76q38 39 77 79
q66 64 192 198q3 3 7 4q1 -2 2 -3z" />
    <glyph glyph-name="Uacute" unicode="&#xda;" horiz-adv-x="594" 
d="M773 608q-8 5 -20 5q-20 0 -62 -16q-46 -19 -60 -21q-14 1 -14 6q0 2 4 6q13 2 61 34q53 34 88 46q23 0 23 -30q0 -27 -20 -30zM859 460q0 -6 -3 -12q-5 -13 -42 -47q-25 -22 -51 -45q-285 -291 -285 -423q0 -46 35 -46v-8q-6 -3 -13 -3q-24 0 -41 28q-16 25 -16 50
q0 84 114 250q93 136 174 213q-6 6 -6 14q0 15 27 37q20 14 41 29q18 -1 39 -10q27 -12 27 -27zM691 399q-40 -63 -167 -200q-131 -143 -196 -190q-44 -33 -76 -33t-57.5 27t-21.5 57q6 54 71 152q23 34 107 144q138 180 138 210q0 9 -9 9q-78 2 -255 -113
q-55 -36 -116 -101q-78 -82 -78 -133q0 -18 11 -31q3 -3 3 -6q0 -12 -12 -2t-24 38t-10 44q11 102 177 211q44 29 134 73q108 52 144 52q33 0 68 -17q41 -20 37 -47q-7 -45 -87 -128q-119 -124 -147 -162q-82 -107 -93 -211q-5 -42 20 -42t80 45q34 28 81 76q38 39 77 79
q66 64 192 198q3 3 7 4q1 -2 2 -3z" />
    <glyph glyph-name="Ucircumflex" unicode="&#xdb;" horiz-adv-x="594" 
d="M802 579q5 -5 2 -10q-3 -4 -7 -2q-12 1 -85 46q-85 -50 -112 -57q-7 -2 -9 1q-1 2 0 7q1 2 2 5q1 7 58 44.5t69 39.5q9 4 21 -6q21 -22 61 -68zM859 460q0 -6 -3 -12q-5 -13 -42 -47q-25 -22 -51 -45q-285 -291 -285 -423q0 -46 35 -46v-8q-6 -3 -13 -3q-24 0 -41 28
q-16 25 -16 50q0 84 114 250q93 136 174 213q-6 6 -6 14q0 15 27 37q20 14 41 29q18 -1 39 -10q27 -12 27 -27zM691 399q-40 -63 -167 -200q-131 -143 -196 -190q-44 -33 -76 -33t-57.5 27t-21.5 57q6 54 71 152q23 34 107 144q138 180 138 210q0 9 -9 9q-78 2 -255 -113
q-55 -36 -116 -101q-78 -82 -78 -133q0 -18 11 -31q3 -3 3 -6q0 -12 -12 -2t-24 38t-10 44q11 102 177 211q44 29 134 73q108 52 144 52q33 0 68 -17q41 -20 37 -47q-7 -45 -87 -128q-119 -124 -147 -162q-82 -107 -93 -211q-5 -42 20 -42t80 45q34 28 81 76q38 39 77 79
q66 64 192 198q3 3 7 4q1 -2 2 -3z" />
    <glyph glyph-name="Udieresis" unicode="&#xdc;" horiz-adv-x="594" 
d="M859 460q0 -6 -3 -12q-5 -13 -42 -47q-25 -22 -51 -45q-285 -291 -285 -423q0 -46 35 -46v-8q-6 -3 -13 -3q-24 0 -41 28q-16 25 -16 50q0 84 114 250q93 136 174 213q-6 6 -6 14q0 15 27 37q20 14 41 29q18 -1 39 -10q27 -12 27 -27zM691 399q-40 -63 -167 -200
q-131 -143 -196 -190q-44 -33 -76 -33t-57.5 27t-21.5 57q6 54 71 152q23 34 107 144q138 180 138 210q0 9 -9 9q-78 2 -255 -113q-55 -36 -116 -101q-78 -82 -78 -133q0 -18 11 -31q3 -3 3 -6q0 -12 -12 -2t-24 38t-10 44q11 102 177 211q44 29 134 73q108 52 144 52
q33 0 68 -17q41 -20 37 -47q-7 -45 -87 -128q-119 -124 -147 -162q-82 -107 -93 -211q-5 -42 20 -42t80 45q34 28 81 76q38 39 77 79q66 64 192 198q3 3 7 4q1 -2 2 -3zM797 633q-4 -4 -11 -19q-8 -18 -6 -21.5t0 -8.5t-4 -5q-11 0 -22 10t-14 26q-2 12 10.5 18t44.5 25
q3 2 5 2q4 0 4 -5q0 -13 -7 -22zM685 633q-4 -4 -11 -19q-8 -18 -6 -21.5t0 -8.5t-4 -5q-11 0 -22 10t-13 26q-2 12 10.5 18t43.5 25q3 2 6 2t3 -5q0 -13 -7 -22z" />
    <glyph glyph-name="germandbls" unicode="&#xdf;" horiz-adv-x="491" 
d="M491 415q0 -67 -55.5 -113.5t-125.5 -48.5q66 -11 102.5 -42.5t36.5 -72.5q0 -69 -90 -120q-102 -58 -274 -58q-6 0 -26 5t-21 7q-76 -114 -139 -114q-15 0 -18 9q3 7 10 7q54 0 115 99q44 73 94 203q29 82 59 164q27 70 78 122q61 62 131 62q54 0 88.5 -30t34.5 -79z
M449 410q0 40 -23 68t-62 28q-74 0 -126 -115q-1 -2 -49 -117q-38 -91 -137 -289q35 -5 54 -5q126 0 213 64q76 56 74 118q-2 63 -91 63q-29 0 -64 -8q-32 -7 -33 0q-1 11 6.5 26t17.5 18q14 -3 30 -3q76 0 129 37q61 42 61 115z" />
    <glyph glyph-name="agrave" unicode="&#xe0;" horiz-adv-x="270" 
d="M348 142q-7 -15 -24 -39q-81 -119 -114 -112q-42 9 -42 43q0 7 1 14q3 15 15 51q-23 -32 -58 -71q-46 -49 -62 -49q-22 0 -36 22q-11 18 -11 37q0 68 76 143.5t140 74.5q22 0 45 -31q7 -8 7 -19q0 -7 -7 -11l-4.5 6t-16.5 8q-32 7 -105 -54.5t-94 -117.5q-6 -16 -6 -26
q0 -18 22 -2q42 31 89 85t55 82q6 8 23 8q13 0 27 -6.5t10 -14.5q-51 -76 -62 -119q-2 -7 -2 -11q0 -11 9 -11t19 9.5t93 113.5q8 10 12 10q7 0 1 -13zM303 300q0 -4 -8 -4q-10 7 -67 19q-62 13 -95 30q-6 6 -6 14q0 12 10.5 23t23.5 11q6 0 12 -4q6 -22 53 -44
q64 -29 70.5 -35t6.5 -10z" />
    <glyph glyph-name="aacute" unicode="&#xe1;" horiz-adv-x="270" 
d="M348 142q-7 -15 -24 -39q-81 -119 -114 -112q-42 9 -42 43q0 7 1 14q3 15 15 51q-23 -32 -58 -71q-46 -49 -62 -49q-22 0 -36 22q-11 18 -11 37q0 68 76 143.5t140 74.5q22 0 45 -31q7 -8 7 -19q0 -7 -7 -11l-4.5 6t-16.5 8q-32 7 -105 -54.5t-94 -117.5q-6 -16 -6 -26
q0 -18 22 -2q42 31 89 85t55 82q6 8 23 8q13 0 27 -6.5t10 -14.5q-51 -76 -62 -119q-2 -7 -2 -11q0 -11 9 -11t19 9.5t93 113.5q8 10 12 10q7 0 1 -13zM359 312q-8 5 -20 5q-20 0 -62 -16q-46 -19 -60 -21q-14 1 -14 6q0 2 4 6q13 2 61 34q53 34 88 46q23 0 23 -30
q0 -27 -20 -30z" />
    <glyph glyph-name="acircumflex" unicode="&#xe2;" horiz-adv-x="270" 
d="M348 142q-7 -15 -24 -39q-81 -119 -114 -112q-42 9 -42 43q0 7 1 14q3 15 15 51q-23 -32 -58 -71q-46 -49 -62 -49q-22 0 -36 22q-11 18 -11 37q0 68 76 143.5t140 74.5q22 0 45 -31q7 -8 7 -19q0 -7 -7 -11l-4.5 6t-16.5 8q-32 7 -105 -54.5t-94 -117.5q-6 -16 -6 -26
q0 -18 22 -2q42 30 89 84.5t55 82.5q6 8 23 8q13 0 27 -6.5t10 -14.5q-51 -76 -62 -119q-2 -7 -2 -11q0 -11 9 -11t19 9.5t93 113.5q8 10 12 10q7 0 1 -13zM323 304q4 -5 2 -10q-3 -4 -7 -2q-10 1 -75 47q-75 -51 -99 -59q-6 -2 -8 1q-1 3 0 7l2 6q1 7 51.5 46t60.5 41
q8 4 19 -6q18 -24 54 -71z" />
    <glyph glyph-name="atilde" unicode="&#xe3;" horiz-adv-x="270" 
d="M348 142q-7 -15 -24 -39q-81 -119 -114 -112q-42 9 -42 43q0 7 1 14q3 15 15 51q-23 -32 -58 -71q-46 -49 -62 -49q-22 0 -36 22q-11 18 -11 37q0 68 76 143.5t140 74.5q22 0 45 -31q7 -8 7 -19q0 -7 -7 -11l-4.5 6t-16.5 8q-32 7 -105 -54.5t-94 -117.5q-6 -16 -6 -26
q0 -18 22 -2q42 30 89 84.5t55 82.5q6 8 23 8q13 0 27 -6.5t10 -14.5q-51 -76 -62 -119q-2 -7 -2 -11q0 -11 9 -11t19 9.5t93 113.5q8 10 12 10q7 0 1 -13zM355 334q0 -14 -36 -38q-12 -8 -25 -8q-17 0 -46.5 12.5t-45.5 12.5q-15 0 -30 -12t-20 -12l-1 2q1 15 40 38
q16 9 33 9q15 0 43.5 -10t43.5 -10q23 0 39 20q5 1 5 -4z" />
    <glyph glyph-name="adieresis" unicode="&#xe4;" horiz-adv-x="270" 
d="M348 142q-7 -15 -24 -39q-81 -119 -114 -112q-42 9 -42 43q0 7 1 14q3 15 15 51q-23 -32 -58 -71q-46 -49 -62 -49q-22 0 -36 22q-11 18 -11 37q0 68 76 143.5t140 74.5q22 0 45 -31q7 -8 7 -19q0 -7 -7 -11l-4.5 6t-16.5 8q-32 7 -105 -54.5t-94 -117.5q-6 -16 -6 -26
q0 -18 22 -2q42 31 89 85t55 82q6 8 23 8q13 0 27 -6.5t10 -14.5q-51 -76 -62 -119q-2 -7 -2 -11q0 -11 9 -11t19 9.5t93 113.5q8 10 12 10q7 0 1 -13zM344 350q-4 -4 -11 -19q-8 -18 -6 -21.5t0 -8.5t-4 -5q-11 0 -22 10t-14 26q-2 12 10.5 18t44.5 25q3 2 5 2q4 0 4 -5
q0 -13 -7 -22zM232 350q-4 -4 -11 -19q-8 -18 -6 -21.5t0 -8.5t-4 -5q-11 0 -22 10t-13 26q-2 12 10.5 18t43.5 25q3 2 6 2t3 -5q0 -13 -7 -22z" />
    <glyph glyph-name="aring" unicode="&#xe5;" horiz-adv-x="270" 
d="M348 142q-7 -15 -24 -39q-81 -119 -114 -112q-42 9 -42 43q0 7 1 14q3 15 15 51q-23 -32 -58 -71q-46 -49 -62 -49q-22 0 -36 22q-11 18 -11 37q0 68 76 143.5t140 74.5q22 0 45 -31q7 -8 7 -19q0 -7 -7 -11l-4.5 6t-16.5 8q-32 7 -105 -54.5t-94 -117.5q-6 -16 -6 -26
q0 -18 22 -2q42 31 89 85t55 82q6 8 23 8q13 0 27 -6.5t10 -14.5q-51 -76 -62 -119q-2 -7 -2 -11q0 -11 9 -11t19 9.5t93 113.5q8 10 12 10q7 0 1 -13zM340 360q0 -34 -27 -61.5t-61 -27.5q-38 0 -38 36q0 20 9 41q12 26 28 31q15 31 48 31q18 0 29.5 -15.5t11.5 -34.5z
M317 358q0 34 -21 34q-10 0 -27 -13l10 -4q-3 -8 -19 -32q-11 -17 -11 -35q0 -19 14 -19q23 0 38.5 23t15.5 46z" />
    <glyph glyph-name="ae" unicode="&#xe6;" horiz-adv-x="365" 
d="M403 245q27 -8 27 -33q0 -30 -32 -56q-12 -10 -82 -53q-50 -30 -57 -49q-3 -7 -8 -6q-4 2 -2 9q12 34 60 71q63 48 72 59q12 15 12 26q0 13 -13 13q-11 0 -26 -10q-110 -73 -132 -161q-3 -11 -3 -20q0 -37 43 -37q26 0 49 13q28 16 55 50q23 29 32 29q2 0 2 -3
q0 -13 -30 -50q-54 -66 -118 -59q-59 6 -68 65q-6 37 0 56q-23 -32 -58 -71q-46 -49 -62 -49q-22 0 -36 22q-11 18 -11 37q0 68 76 143.5t140 74.5q19 0 45 -31l1 -1q43 37 79 37q4 -5 45 -16zM262 208q-2 1 -5 1q-32 7 -105 -54.5t-94 -117.5q-6 -16 -6 -26q0 -18 22 -2
q42 30 89 84.5t55 82.5q6 8 23 8v0q10 13 21 24z" />
    <glyph glyph-name="ccedilla" unicode="&#xe7;" horiz-adv-x="212" 
d="M90 -139q0 -34 -37 -54q-31 -16 -68 -16q-6 0 -6 8q0 3 6 5q26 4 50.5 9.5t24.5 39.5q0 10 -18 35.5t-18 39.5q0 24 13 42.5t36 18.5q8 0 8 -5q-32 -5 -32 -44q0 -8 20.5 -34t20.5 -45zM252 239q4 -5 5 -19q0 -16 -8 -20q0 19 -17 19t-36 -14q-30 -22 -67 -67
q-39 -49 -48 -81q-4 -16 -4 -28q0 -33 31 -33q26 0 52 18q34 24 71 70q8 10 13 10q3 0 3 -4q0 -14 -24 -44q-28 -34 -55 -51q-31 -20 -61 -20q-33 0 -54 23t-21 61q0 31 15 65q22 53 67.5 95t87.5 42q34 0 50 -22z" />
    <glyph glyph-name="egrave" unicode="&#xe8;" horiz-adv-x="209" 
d="M247 245q27 -8 27 -33q0 -30 -32 -56q-12 -10 -82 -53q-50 -30 -57 -49q-3 -7 -8 -6q-4 2 -2 9q12 34 60 71q63 48 72 59q12 15 12 26q0 13 -13 13q-11 0 -26 -10q-97 -65 -122 -163q-3 -12 -3 -22q0 -34 35 -34q23 0 47 14q28 16 55 50q23 29 32 29q2 0 2 -3
q0 -13 -30 -50q-54 -66 -118 -59q-57 6 -66 65t53 139t119 79q4 -5 45 -16zM308 296q0 -4 -8 -4q-10 7 -67 19q-62 13 -95 30q-6 6 -6 14q0 12 10.5 23t23.5 11q6 0 12 -4q6 -22 53 -44q64 -29 70.5 -35t6.5 -10z" />
    <glyph glyph-name="eacute" unicode="&#xe9;" horiz-adv-x="209" 
d="M247 245q27 -8 27 -33q0 -30 -32 -56q-12 -10 -82 -53q-50 -30 -57 -49q-3 -7 -8 -6q-4 2 -2 9q12 34 60 71q63 48 72 59q12 15 12 26q0 13 -13 13q-11 0 -26 -10q-97 -65 -122 -163q-3 -12 -3 -22q0 -34 35 -34q23 0 47 14q28 16 55 50q23 29 32 29q2 0 2 -3
q0 -13 -30 -50q-54 -66 -118 -59q-57 6 -66 65t53 139t119 79q4 -5 45 -16zM332 321q-8 5 -19 5q-19 0 -58 -16q-43 -17 -56 -19q-13 1 -13 6q0 2 3 5q12 2 57 32q50 32 83 43q21 0 21 -28q0 -25 -18 -28z" />
    <glyph glyph-name="ecircumflex" unicode="&#xea;" horiz-adv-x="209" 
d="M247 245q27 -8 27 -33q0 -30 -32 -56q-12 -10 -82 -53q-50 -30 -57 -49q-3 -7 -8 -6q-4 2 -2 9q12 34 60 71q63 48 72 59q12 15 12 26q0 13 -13 13q-11 0 -26 -10q-97 -65 -122 -163q-3 -12 -3 -22q0 -34 35 -34q23 0 47 14q28 16 55 50q23 29 32 29q2 0 2 -3
q0 -13 -30 -50q-54 -66 -118 -59q-57 6 -66 65t53 139t119 79q4 -5 45 -16zM306 299q4 -5 2 -10q-3 -4 -7 -2q-10 0 -75 47q-75 -51 -99 -59q-6 -2 -8 1q-1 2 0 7l2 6q1 7 51.5 45.5t60.5 41.5q8 4 19 -7q18 -23 54 -70z" />
    <glyph glyph-name="edieresis" unicode="&#xeb;" horiz-adv-x="209" 
d="M247 245q27 -8 27 -33q0 -30 -32 -56q-12 -10 -82 -53q-50 -30 -57 -49q-3 -7 -8 -6q-4 2 -2 9q12 34 60 71q63 48 72 59q12 15 12 26q0 13 -13 13q-11 0 -26 -10q-97 -65 -122 -163q-3 -12 -3 -22q0 -34 35 -34q23 0 47 14q28 16 55 50q23 29 32 29q2 0 2 -3
q0 -13 -30 -50q-54 -66 -118 -59q-57 6 -66 65t53 139t119 79q4 -5 45 -16zM312 355q-4 -4 -11 -19q-8 -18 -6 -21.5t0 -8.5t-4 -5q-11 0 -22 10t-14 26q-2 12 10.5 18t44.5 25q3 2 5 2q4 0 4 -5q0 -13 -7 -22zM200 355q-4 -4 -11 -19q-8 -18 -6 -21.5t0 -8.5t-4 -5
q-11 0 -22 10t-13 26q-2 12 10.5 18t43.5 25q3 2 6 2t3 -5q0 -13 -7 -22z" />
    <glyph glyph-name="igrave" unicode="&#xec;" horiz-adv-x="173" 
d="M226 103q-24 -36 -77 -101q-26 -26 -54 -26q-66 0 -66 77q0 45 20 84q-9 5 -3 13q20 26 39 53q28 35 41 39q4 1 8 1q17 0 47 -25q-105 -105 -103 -196q1 -20 17 -20q15 0 31 14q43 37 96 110q14 20 19 20q2 0 2 -3q0 -13 -17 -40zM228 290q0 -4 -8 -4q-10 7 -67 19
q-62 13 -95 30q-6 6 -6 14q0 12 10.5 23t23.5 11q6 0 12 -4q6 -22 53 -44q64 -29 70.5 -35t6.5 -10z" />
    <glyph glyph-name="iacute" unicode="&#xed;" horiz-adv-x="173" 
d="M226 103q-24 -36 -77 -101q-26 -26 -54 -26q-66 0 -66 77q0 45 20 84q-9 5 -3 13q20 26 39 53q28 35 41 39q4 1 8 1q17 0 47 -25q-105 -105 -103 -196q1 -20 17 -20q15 0 31 14q43 37 96 110q14 20 19 20q2 0 2 -3q0 -13 -17 -40zM328 332q-8 5 -20 5q-20 0 -62 -16
q-46 -19 -60 -21q-14 1 -14 6q0 2 4 6q13 2 61 34q53 34 88 46q23 0 23 -30q0 -27 -20 -30z" />
    <glyph glyph-name="icircumflex" unicode="&#xee;" horiz-adv-x="173" 
d="M226 103q-24 -36 -77 -101q-26 -26 -54 -26q-66 0 -66 77q0 45 20 84q-9 5 -3 13q20 26 39 53q28 35 41 39q4 1 8 1q17 0 47 -25q-105 -105 -103 -196q1 -20 17 -20q15 0 31 14q43 37 96 110q14 20 19 20q2 0 2 -3q0 -13 -17 -40zM262 290q4 -5 2 -10q-3 -4 -7 -2
q-10 0 -75 47q-75 -51 -99 -59q-6 -2 -8 1q-1 2 0 7l2 6q1 7 51.5 45.5t60.5 41.5q8 4 19 -7q18 -23 54 -70z" />
    <glyph glyph-name="idieresis" unicode="&#xef;" horiz-adv-x="173" 
d="M226 103q-24 -36 -77 -101q-26 -26 -54 -26q-66 0 -66 77q0 45 20 84q-9 5 -3 13q20 26 39 53q28 35 41 39q4 1 8 1q17 0 47 -25q-105 -105 -103 -196q1 -20 17 -20q15 0 31 14q43 37 96 110q14 20 19 20q2 0 2 -3q0 -13 -17 -40zM266 348q-4 -4 -11 -19q-8 -18 -6 -21.5
t0 -8.5t-4 -5q-11 0 -22 10t-14 26q-2 12 10.5 18t44.5 25q3 2 5 2q4 0 4 -5q0 -13 -7 -22zM154 348q-4 -4 -11 -19q-8 -18 -6 -21.5t0 -8.5t-4 -5q-11 0 -22 10t-13 26q-2 12 10.5 18t43.5 25q3 2 6 2t3 -5q0 -13 -7 -22z" />
    <glyph glyph-name="ntilde" unicode="&#xf1;" horiz-adv-x="276" 
d="M317 87q-67 -106 -110 -109q-56 -4 -56 54q0 51 41 123q16 30 16 38q0 3 -2 3q-17 0 -91 -97q-45 -59 -54 -99q-2 -9 -15 -9q-14 0 -23 10q-12 12 -10 31q1 6 73 161q-10 8 -5 18q5 8 29 53q16 13 47 13q30 0 10 -32q-81 -137 -81 -154q0 -3 19 23q49 67 131 145
q3 -2 35 -7q23 -3 23 -19q0 -32 -53 -97t-53 -118q0 -20 12 -20q7 0 17 6q36 22 80 83q9 12 16 12q5 0 5 -6q0 -3 -1 -6zM345 364q0 -14 -36 -38q-12 -8 -25 -8q-16 0 -45.5 12.5t-46.5 12.5q-15 0 -30 -12t-20 -12l-1 2q1 15 40 38q16 9 33 9q15 0 43.5 -10t44.5 -10
q22 0 38 20q5 1 5 -4z" />
    <glyph glyph-name="ograve" unicode="&#xf2;" horiz-adv-x="265" 
d="M273 224q13 -20 13 -47q0 -83 -85 -157q-53 -47 -98 -45q-31 2 -51 25t-20 59q0 31 15 65q22 52 71 95.5t92 43.5q6 0 20 -12.5t26 -14.5q9 1 17 -12zM231 218q-17 0 -35 -13q-30 -21 -72 -77q-49 -66 -49 -101q0 -32 35 -32q47 0 102 69q52 66 52 116q0 38 -33 38z
M293 291q0 -4 -8 -4q-10 7 -67 19q-62 13 -95 30q-6 6 -6 14q0 12 10.5 23t23.5 11q6 0 12 -4q6 -22 53 -44q64 -29 70.5 -35t6.5 -10z" />
    <glyph glyph-name="oacute" unicode="&#xf3;" horiz-adv-x="265" 
d="M273 224q13 -20 13 -47q0 -83 -85 -157q-53 -47 -98 -45q-31 2 -51 25t-20 59q0 31 15 65q22 52 71 95.5t92 43.5q6 0 20 -12.5t26 -14.5q9 1 17 -12zM231 218q-17 0 -35 -13q-30 -21 -72 -77q-49 -66 -49 -101q0 -32 35 -32q47 0 102 69q52 66 52 116q0 38 -33 38z
M348 333q-8 5 -20 5q-20 0 -62 -16q-46 -19 -60 -21q-14 1 -14 6q0 2 4 6q13 2 61 34q53 34 88 46q23 0 23 -30q0 -27 -20 -30z" />
    <glyph glyph-name="ocircumflex" unicode="&#xf4;" horiz-adv-x="265" 
d="M273 224q13 -20 13 -47q0 -83 -85 -157q-53 -47 -98 -45q-31 2 -51 25t-20 59q0 31 15 65q22 52 71 95.5t92 43.5q6 0 20 -12.5t26 -14.5q9 1 17 -12zM231 218q-17 0 -35 -13q-30 -21 -72 -77q-49 -66 -49 -101q0 -32 35 -32q47 0 102 69q52 66 52 116q0 38 -33 38z
M310 300q4 -5 2 -10q-3 -4 -7 -2q-10 0 -75 47q-75 -51 -99 -59q-6 -2 -8 1q-1 2 0 7l2 6q1 7 51.5 45.5t60.5 41.5q8 4 19 -7q18 -23 54 -70z" />
    <glyph glyph-name="otilde" unicode="&#xf5;" horiz-adv-x="265" 
d="M273 224q13 -20 13 -47q0 -83 -85 -157q-53 -47 -98 -45q-31 2 -51 25t-20 59q0 31 15 65q22 52 71 95.5t92 43.5q6 0 20 -12.5t26 -14.5q9 1 17 -12zM231 218q-17 0 -35 -13q-30 -21 -72 -77q-49 -66 -49 -101q0 -32 35 -32q47 0 102 69q52 66 52 116q0 38 -33 38z
M360 353q0 -14 -36 -38q-12 -8 -25 -8q-16 0 -45.5 12.5t-46.5 12.5q-14 0 -29.5 -12t-20.5 -12l-1 2q1 15 40 38q16 9 33 9q16 0 44 -10t44 -10q22 0 38 20q5 1 5 -4z" />
    <glyph glyph-name="odieresis" unicode="&#xf6;" horiz-adv-x="265" 
d="M273 224q13 -20 13 -47q0 -83 -85 -157q-53 -47 -98 -45q-31 2 -51 25t-20 59q0 31 15 65q22 52 71 95.5t92 43.5q6 0 20 -12.5t26 -14.5q9 1 17 -12zM231 218q-17 0 -35 -13q-30 -21 -72 -77q-49 -66 -49 -101q0 -32 35 -32q47 0 102 69q52 66 52 116q0 38 -33 38z
M330 370q-4 -4 -11 -19q-8 -18 -6 -21.5t0 -8.5t-4 -5q-11 0 -22 10t-14 26q-2 12 10.5 18t44.5 25q3 2 5 2q4 0 4 -5q0 -13 -7 -22zM218 370q-4 -4 -11 -19q-8 -18 -6 -21.5t0 -8.5t-4 -5q-11 0 -22 10t-13 26q-2 12 10.5 18t43.5 25q3 2 6 2t3 -5q0 -13 -7 -22z" />
    <glyph glyph-name="divide" unicode="&#xf7;" horiz-adv-x="286" 
d="M189 236q0 -9 -9 -15.5t-18 -6.5q-30 0 -30 25q0 21 27 21q11 0 20.5 -7t9.5 -17zM279 182q0 -10 -68 -22q-60 -11 -88 -11q-110 0 -110 16q0 17 18 17l181 1q46 0 67 2v-3zM156 95q0 -8 -9 -14.5t-17 -6.5q-30 0 -30 24q0 21 27 21q10 0 19.5 -7t9.5 -17z" />
    <glyph glyph-name="ugrave" unicode="&#xf9;" 
d="M347 144q16 19 19 19q1 0 1 -1q0 -15 -31 -60q-13 -21 -44 -62q-40 -48 -61 -48q-30 0 -45.5 15t-12.5 36q1 14 26 78q-29 -37 -58 -73q-49 -61 -69 -61q-54 0 -47 40q4 25 39 105q-4 10 0 15q62 92 81 92t46 -28q-39 -49 -57 -75q-33 -47 -44 -78q-5 -14 -5 -21
q0 -18 26.5 9t76.5 94q59 80 67 89q12 14 25 14q19 0 42 -27q-96 -123 -96 -184q0 -16 8 -16q6 0 19 11q21 20 49 56q23 30 45 61zM309 288q0 -4 -8 -4q-10 7 -67 19q-62 13 -95 30q-6 6 -6 14q0 12 10.5 23t23.5 11q6 0 12 -4q6 -22 53 -44q64 -29 70.5 -35t6.5 -10z" />
    <glyph glyph-name="uacute" unicode="&#xfa;" 
d="M347 144q16 19 19 19q1 0 1 -1q0 -15 -31 -60q-13 -21 -44 -62q-40 -48 -61 -48q-30 0 -45.5 15t-12.5 36q1 14 26 78q-29 -37 -58 -73q-49 -61 -69 -61q-54 0 -47 40q4 25 39 105q-4 10 0 15q62 92 81 92t46 -28q-39 -49 -57 -75q-33 -47 -44 -78q-5 -14 -5 -21
q0 -18 26.5 9t76.5 94q59 80 67 89q12 14 25 14q19 0 42 -27q-96 -123 -96 -184q0 -16 8 -16q6 0 19 11q21 20 49 56q23 30 45 61zM311 307q-8 5 -20 5q-20 0 -62 -16q-46 -19 -60 -21q-14 1 -14 6q0 2 4 6q13 2 61 34q53 34 88 46q23 0 23 -30q0 -27 -20 -30z" />
    <glyph glyph-name="ucircumflex" unicode="&#xfb;" 
d="M347 144q16 19 19 19q1 0 1 -1q0 -15 -31 -60q-13 -21 -44 -62q-40 -48 -61 -48q-30 0 -45.5 15t-12.5 36q1 14 26 78q-29 -37 -58 -73q-49 -61 -69 -61q-54 0 -47 40q4 25 39 105q-4 10 0 15q62 92 81 92t46 -28q-39 -49 -57 -75q-33 -47 -44 -78q-5 -14 -5 -21
q0 -18 26.5 9t76.5 94q59 80 67 89q12 14 25 14q19 0 42 -27q-96 -123 -96 -184q0 -16 8 -16q6 0 19 11q21 20 49 56q23 30 45 61zM323 304q4 -5 2 -10q-3 -4 -7 -2q-10 1 -75 47q-75 -51 -99 -59q-6 -2 -8 1q-1 3 0 7l2 6q1 7 51.5 46t60.5 41q8 4 19 -6q18 -24 54 -71z
" />
    <glyph glyph-name="udieresis" unicode="&#xfc;" 
d="M347 144q16 19 19 19q1 0 1 -1q0 -15 -31 -60q-13 -21 -44 -62q-40 -48 -61 -48q-30 0 -45.5 15t-12.5 36q1 14 26 78q-29 -37 -58 -73q-49 -61 -69 -61q-54 0 -47 40q4 25 39 105q-4 10 0 15q62 92 81 92t46 -28q-39 -49 -57 -75q-33 -47 -44 -78q-5 -14 -5 -21
q0 -18 26.5 9t76.5 94q59 80 67 89q12 14 25 14q19 0 42 -27q-96 -123 -96 -184q0 -16 8 -16q6 0 19 11q21 20 49 56q23 30 45 61zM335 351q-4 -4 -11 -19q-8 -18 -6 -21.5t0 -8.5t-4 -5q-11 0 -22 10t-14 26q-2 12 10.5 18t44.5 25q3 2 5 2q4 0 4 -5q0 -13 -7 -22zM223 351
q-4 -4 -11 -19q-8 -18 -6 -21.5t0 -8.5t-4 -5q-11 0 -22 10t-13 26q-2 12 10.5 18t43.5 25q3 2 6 2t3 -5q0 -13 -7 -22z" />
    <glyph glyph-name="ydieresis" unicode="&#xff;" 
d="M311 188q-6 -64 -64 -165q51 -9 51 -65q0 -16 -5.5 -30t-10.5 -14q-3 0 -4 13q-1 35 -7 48q-10 19 -39 19q-60 -113 -144 -206q-110 -123 -197 -123q-24 0 -57 27t-33 51q0 30 63 91q48 45 94 77q54 37 110 63q15 8 112 48q15 6 34 62q18 52 18 76q0 5 -2 5q-1 0 -27 -34
q-98 -131 -132 -131q-53 0 -47 40q5 29 35 98q-7 1 5 18q56 83 76 83q19 0 47 -28l-56 -68q-31 -42 -42 -72q-4 -14 -4 -21q0 -18 27.5 10t110.5 135q26 33 43 33q8 0 19 -11q2 -2 12 -18q6 -11 14 -11zM180 0q-179 -57 -293 -195q-37 -45 -37 -78q0 -21 21 -21t57 19
q67 37 161 144q89 101 91 131zM313 350q-4 -4 -11 -19q-8 -18 -6 -21.5t0 -8.5t-4 -5q-11 0 -22 10t-14 26q-2 12 10.5 18t44.5 25q3 2 5 2q4 0 4 -5q0 -13 -7 -22zM201 350q-4 -4 -11 -19q-8 -18 -6 -21.5t0 -8.5t-4 -5q-11 0 -22 10t-13 26q-2 12 10.5 18t43.5 25q3 2 6 2
t3 -5q0 -13 -7 -22z" />
    <glyph glyph-name="dotlessi" unicode="&#x131;" horiz-adv-x="173" 
d="M226 103q-24 -36 -77 -101q-26 -26 -54 -26q-66 0 -66 77q0 45 20 84q-9 5 -3 13q20 26 39 53q28 35 41 39q4 1 8 1q17 0 47 -25q-105 -105 -103 -196q1 -20 17 -20q15 0 31 14q43 37 96 110q14 20 19 20q2 0 2 -3q0 -13 -17 -40z" />
    <glyph glyph-name="OE" unicode="&#x152;" horiz-adv-x="1005" 
d="M1091 624q-30 -34 -68 -77q9 -13 9 -51q0 -26 -7.5 -41.5t-14.5 -15.5q-5 0 -5 9q0 4 2 10q3 10 2 34q0 27 -8 27q-13 0 -38.5 -45t-25.5 -61q0 -13 13 -20q5 -1 2 -5q-3 -5 -11 -3q-41 9 -41 51t40 110q5 10 -23 10q-73 0 -180 -59q-115 -63 -115 -120q0 -27 57 -27
q24 0 65.5 5t47.5 5q22 0 39.5 -21t19.5 -44l-2 -3v-1q-22 12 -58 12q-88 0 -224 -62q-57 -109 -161 -190q16 -75 138 -75q121 0 229 49q99 46 136 93q34 45 34 75q0 19 -19 40q-13 14 -2 17q21 -4 42 -32t21 -48q14 -25 5 -47q-32 -84 -157 -138q-110 -49 -221 -49
q-71 0 -129 20q-74 26 -99 78q-114 -81 -213 -79q-80 1 -122 56q-38 49 -38 127q0 66 26.5 128.5t79 105.5t98.5 43q48 0 75 -21q5 -3 5 -6q0 -5 -22 -5q-73 0 -142 -103q-66 -99 -67 -193q-1 -105 92 -108q112 -3 233 129q108 118 129 223q6 31 6 61q0 46 -14 82
q-35 89 -144 89q-77 0 -149 -40q-66 -36 -109 -90q-47 -57 -50 -115q-5 -8 -9 -8t-7 8q3 23 -8.5 43t-11.5 25q0 9 9 19q-12 79 154 139q108 40 211 40q155 0 199 -100q68 70 164 104q68 24 122 24q58 0 94 -28q34 51 64 78q18 0 33 -10q19 -11 19 -28zM651 327
q-27 3 -46 12q-4 -16 -9 -31q5 1 9 3z" />
    <glyph glyph-name="oe" unicode="&#x153;" horiz-adv-x="413" 
d="M449 245q27 -8 27 -33q0 -30 -32 -56q-12 -10 -82 -53q-50 -30 -57 -49q-3 -7 -8 -6q-5 2 -2 9q12 34 60 71q63 48 72 59q12 15 12 26q0 13 -13 13q-11 0 -26 -10q-97 -65 -122 -163q-3 -12 -3 -22q0 -34 35 -34q23 0 47 14q28 16 55 50q23 29 31 29q3 0 3 -3
q0 -13 -30 -50q-54 -66 -118 -59q-63 6 -67 72q-14 -16 -30 -30q-53 -47 -98 -45q-31 2 -51 25t-20 59q0 31 15 65q22 52 71 95.5t92 43.5q6 0 20 -12.5t26 -14.5q9 1 17 -12q11 -17 13 -41q62 79 118 78q4 -5 45 -16zM260 201q-9 17 -29 17q-17 0 -35 -13q-30 -21 -72 -77
q-49 -66 -49 -101q0 -32 35 -32q33 0 73 38q37 34 61 80q4 10 9 20q19 45 7 68z" />
    <glyph glyph-name="Ydieresis" unicode="&#x178;" horiz-adv-x="748" 
d="M692 399q-12 -18 -36 -48q29 -23 45 -67q15 -40 15 -81q0 -144 -136 -308q-131 -159 -280 -212q-94 -34 -172 -34q-64 0 -101.5 22.5t-37.5 57.5q0 69 125 138q72 39 187.5 67t211.5 27q8 0 7 -5t-8 -6q-77 -6 -185 -38q-116 -34 -184 -73q-116 -67 -116 -121
q0 -51 87 -51q78 0 167 48q138 75 262 264q119 180 119 295q0 40 -20 60q-70 -86 -162 -182q-101 -106 -151 -143q-45 -33 -76 -33q-33 0 -58 27t-22 57q9 84 171 296q88 115 97 127q48 66 48 84q0 8 -9 8q-77 2 -255 -113q-55 -36 -116 -101q-78 -82 -78 -133q0 -18 11 -31
q3 -3 3 -6q0 -12 -12 -2q-11 10 -23 38t-11 44q12 102 177 211q45 29 134 73q109 52 145 52q34 0 77 -18q51 -21 47 -48q-6 -46 -92 -133q-135 -137 -158 -166q-86 -106 -97 -200q-4 -42 20 -42q25 0 80 45q35 28 81 76q39 39 77 79q48 47 142 142q-6 3 -30 7q-20 3 -20 6
q0 13 32 11q17 -1 32 -8q19 20 36 40q3 3 8 4q1 -2 2 -3zM743 654q-4 -4 -11 -19q-8 -18 -6 -21.5t0 -8.5t-4 -5q-11 0 -22 10t-14 26q-2 12 10.5 18t44.5 25q3 2 5 2q4 0 4 -5q0 -13 -7 -22zM631 654q-4 -4 -11 -19q-8 -18 -6 -21.5t0 -8.5t-4 -5q-11 0 -22 10t-13 26
q-2 12 10.5 18t43.5 25q3 2 6 2t3 -5q0 -13 -7 -22z" />
    <glyph glyph-name="circumflex" unicode="&#x2c6;" horiz-adv-x="261" 
d="M241 254q5 -5 2 -10q-3 -4 -7 -2q-12 1 -85 46q-85 -50 -112 -57q-7 -2 -9 1q-1 2 0 7q1 2 2 5q1 7 58 44.5t69 39.5q9 4 21 -6q21 -22 61 -68z" />
    <glyph glyph-name="caron" unicode="&#x2c7;" horiz-adv-x="261" 
d="M228 331l-4 -7q-60 -45 -88 -76l-4 -2q-11 3 -53.5 38t-42.5 42t5 7q9 0 81 -59q13 14 50.5 37.5t51.5 24.5z" />
    <glyph glyph-name="breve" unicode="&#x2d8;" horiz-adv-x="129" 
d="M163 322q0 -2 -1 -4q-29 -61 -75 -61q-21 0 -37.5 14.5t-16.5 35.5q0 6 3 6q1 0 15.5 -20t40.5 -20q24 0 47 26t22 26q2 0 2 -3z" />
    <glyph glyph-name="dotaccent" unicode="&#x2d9;" horiz-adv-x="122" 
d="M95 401q-4 -4 -11 -12q-5 -14 -11 -28q-8 -20 -19 -20q-5 0 -10 7.5t-5 13.5q0 10 21 25t32 15l2 -1v1z" />
    <glyph glyph-name="ring" unicode="&#x2da;" horiz-adv-x="161" 
d="M157 397q0 -34 -27 -61.5t-61 -27.5q-38 0 -38 36q0 20 9 41q12 26 28 31q15 31 48 31q18 0 29.5 -15.5t11.5 -34.5zM134 395q0 34 -21 34q-10 0 -27 -13l10 -4q-3 -8 -19 -32q-11 -17 -11 -35q0 -19 14 -19q23 0 38.5 23t15.5 46z" />
    <glyph glyph-name="ogonek" unicode="&#x2db;" horiz-adv-x="165" 
d="M141 -78q0 -9 -33 -20q-29 -9 -43 -9q-38 0 -38 30q0 18 13 48q16 34 31 34l2 -1q-24 -34 -24 -62q0 -29 32 -29q11 0 31 8t22 8q7 0 7 -7z" />
    <glyph glyph-name="tilde" unicode="&#x2dc;" horiz-adv-x="318" 
d="M304 421q0 -19 -49 -52q-16 -10 -34 -10q-22 0 -62 16.5t-62 16.5q-20 0 -41 -16t-27 -16l-1 3q1 8 23 28q18 16 31 23q21 12 45 12q21 0 59.5 -13t58.5 -13q30 0 52 27q7 0 7 -6z" />
    <glyph glyph-name="pi" unicode="&#x3c0;" horiz-adv-x="232" 
d="M205 149q0 -5 -5 -10q-20 -20 -53 -18q-20 -80 -20 -97q0 -27 13 -27q18 0 37 29q9 15 19 30l1 -1q0 -11 -19 -35.5t-30 -28.5q-6 -2 -12 -2q-22 0 -22 34q0 58 14 101q-14 4 -45 10q-1 -84 -26 -127q-1 -2 -4 -2l-3 2v2q4 12 9 29q8 33 8 98h-1q-22 0 -31 -5
q-13 -8 -25 -16q-2 1 -2 3q0 5 5 10q25 27 58 27q16 0 46 -10t46 -10q14 0 27.5 8.5t12.5 8.5q1 -1 2 -3z" />
    <glyph glyph-name="endash" unicode="&#x2013;" horiz-adv-x="286" 
d="M279 182q0 -10 -68 -22q-60 -11 -88 -11q-110 0 -110 16q0 17 18 17l181 1q46 0 67 2v-3z" />
    <glyph glyph-name="emdash" unicode="&#x2014;" horiz-adv-x="426" 
d="M472 183q0 -8 -55 -15q-33 -5 -112 -12q-20 -1 -58 -6q-24 -5 -109 -5q-81 0 -81 11q0 5 6 15.5t12 10.5l294 1q82 0 103 2v-2z" />
    <glyph glyph-name="quoteleft" unicode="&#x2018;" horiz-adv-x="123" 
d="M122 525q0 -2 -24 -27.5t-24 -46.5q0 -15 15 -25.5t15 -19.5q0 -32 -31 -32q-16 0 -31 10t-15 25q0 65 61 108q17 12 28 12q6 0 6 -4z" />
    <glyph glyph-name="quoteright" unicode="&#x2019;" horiz-adv-x="111" 
d="M170 493q0 -65 -60 -107q-18 -12 -29 -12q-6 0 -6 3q0 2 24 28t24 46q0 16 -15 26t-15 20q0 32 32 32q16 0 30.5 -10.5t14.5 -25.5z" />
    <glyph glyph-name="quotesinglbase" unicode="&#x201a;" horiz-adv-x="61" 
d="M61 50q1 -13 -5 -46q-7 -36 -12 -36q-3 0 -3 5q0 48 -3 77q15 2 21 2l2 -1v-1z" />
    <glyph glyph-name="quotedblleft" unicode="&#x201c;" horiz-adv-x="236" 
d="M224 525q0 -2 -23.5 -27.5t-23.5 -46.5q0 -15 14.5 -25.5t14.5 -19.5q0 -32 -31 -32q-16 0 -31 10t-15 25q0 65 61 108q18 12 29 12q5 0 5 -4zM122 525q0 -2 -24 -27.5t-24 -46.5q0 -15 15 -25.5t15 -19.5q0 -32 -31 -32q-16 0 -31 10t-15 25q0 65 61 108q17 12 28 12
q6 0 6 -4z" />
    <glyph glyph-name="quotedblright" unicode="&#x201d;" horiz-adv-x="236" 
d="M224 493q0 -65 -60 -107q-18 -12 -29 -12q-6 0 -6 3q0 2 24 28t24 46q0 16 -15 26t-15 20q0 32 32 32q16 0 30.5 -10.5t14.5 -25.5zM122 493q0 -65 -61 -107q-17 -12 -28 -12q-6 0 -6 3q0 2 24 28t24 46q0 16 -15 26t-15 20q0 32 31 32q16 0 31 -10.5t15 -25.5z" />
    <glyph glyph-name="quotedblbase" unicode="&#x201e;" horiz-adv-x="110" 
d="M110 50q0 -13 -6 -46q-6 -36 -12 -36q-2 0 -2 5q0 48 -3 77q14 2 20 2q1 0 3 -1v-1zM61 50q1 -13 -5 -46q-7 -36 -12 -36q-3 0 -3 5q0 48 -3 77q15 2 21 2l2 -1v-1z" />
    <glyph glyph-name="dagger" unicode="&#x2020;" horiz-adv-x="272" 
d="M306 291q-1 -9 -14 -9q-43 0 -103 -2q-31 -116 -61 -209q-3 -10 -11 -36q-11 -32 -20 -32q-7 0 -6 9q1 2 25 92q29 112 45 174q-83 -4 -78 -4q-7 0 -15 7.5t-9 15.5l6 4q36 5 103 5q12 54 25 122q1 5 12.5 12t18.5 8l4 -3q-1 -9 -2 -16q-8 -41 -30 -123q71 0 104 -8
q7 -2 6 -7z" />
    <glyph glyph-name="daggerdbl" unicode="&#x2021;" horiz-adv-x="314" 
d="M316 393q0 -1 -2 -4q-12 -15 -37 -45q-36 -45 -76 -106q46 8 66 8q10 0 13 -5q-8 -9 -92 -23q-17 -26 -32 -51q60 10 83 10q11 0 13 -4q-7 -9 -107 -26l-80 -140q-45 -89 -45 -151q0 -8 2.5 -22.5t2.5 -21.5l-1 -1q-22 0 -22 45q0 102 94 286q-6 -1 -27.5 -8.5
t-31.5 -7.5q-15 0 -15 12q0 11 85 24q13 26 27 51q-6 -1 -36 -11q-26 -8 -33 -8q-15 0 -15 12q0 11 96 27q40 68 47 79q32 50 56 72q15 13 57 13q10 0 10 -4z" />
    <glyph glyph-name="bullet" unicode="&#x2022;" horiz-adv-x="454" 
d="M412 200q0 -76 -54 -129.5t-129 -53.5q-76 0 -129.5 53.5t-53.5 129.5q0 75 53.5 129t129.5 54q75 0 129 -54t54 -129z" />
    <glyph glyph-name="ellipsis" unicode="&#x2026;" horiz-adv-x="392" 
d="M376 34q0 -6 -26.5 -22.5t-31.5 -36.5q-2 -1 -5 -1q-9 0 -9 9q0 22 10 40q12 22 32 22q30 0 30 -11zM249 34q0 -6 -27 -22.5t-32 -36.5q-2 -1 -5 -1q-8 0 -8 9q0 22 9 40q12 22 32 22q31 0 31 -11zM117 34q0 -6 -26.5 -22.5t-32.5 -36.5q-2 -1 -4 -1q-9 0 -9 9
q0 22 10 40q12 22 32 22q30 0 30 -11z" />
    <glyph glyph-name="perthousand" unicode="&#x2030;" horiz-adv-x="609" 
d="M592 115q0 -9 -16 -16v-3q0 -33 -53.5 -93.5t-88.5 -60.5h-11q-16 0 -27 17q-10 14 -10 32q0 41 61 118t100 77q36 0 36 -38q0 -12 -3 -25q1 -2 6.5 -2.5t5.5 -5.5zM475 485q0 -6 -7 -14q-19 -23 -58 -70q-143 -174 -236 -310q-31 -46 -38 -57q-21 -34 -31 -61
q-4 -13 -4 -23q0 -11 8 -18l1 -2q0 -11 -16 -11q-12 0 -12 20q0 29 15 68t86 142q58 84 130 178t114 141q-98 -46 -170 -48q0 -1 1 -3q0 -33 -54 -93.5t-89 -60.5h-11q-16 0 -27 17q-10 14 -10 32q0 41 61 118t100 77q36 0 36 -38q0 -12 -3 -25q1 -2 6 -2q34 0 95 19
q56 17 92 35l4 2q17 0 17 -13zM414 115q0 -9 -16 -16v-3q0 -33 -53.5 -93.5t-88.5 -60.5h-11q-17 0 -28 17q-9 14 -9 32q0 41 61 118t100 77q36 0 36 -38q0 -12 -4 -25q1 -2 7 -2.5t6 -5.5zM240 418q-13 9 -28 33q-26 -1 -69 -58.5t-43 -86.5q0 -21 17 -21q27 0 75 53t48 80
zM559 97q-13 9 -28 33q-26 -1 -69 -58.5t-43 -86.5q0 -22 17 -22q27 0 75 53t48 81zM381 97q-13 9 -28 33q-27 -1 -69.5 -58.5t-42.5 -86.5q0 -22 17 -22q27 0 74.5 53t48.5 81z" />
    <glyph glyph-name="fraction" unicode="&#x2044;" horiz-adv-x="425" 
d="M437 474q0 -6 -6 -13q-34 -39 -100 -116q-135 -157 -212.5 -259.5t-77.5 -129.5q0 -9 5 -13.5l5 -4.5q0 -11 -16 -11q-18 0 -18 27q0 30 31 81q3 5 50 75q39 57 78 110q197 272 219 272q42 0 42 -18z" />
    <glyph glyph-name="trademark" unicode="&#x2122;" horiz-adv-x="554" 
d="M536 504q0 -11 -4 -30q-6 -22 -7 -30q-3 -67 -12 -142q-11 -14 -30 -14q-9 0 -9 7q0 2 1 7q8 46 27 139q-89 -114 -129 -114q-44 0 -75 114q-9 -18 -25 -78q-13 -54 -26 -72q-10 -14 -23 -14q-9 0 -9 6t32 84q34 82 37 97q3 21 5 42q5 29 20 29q6 0 11 -19l16 -98
q16 -73 45 -73q26 0 84.5 91t60.5 91q10 0 10 -23zM285 537q0 -11 -58 -17q-62 -7 -69 -18q-15 -24 -43 -119q-27 -90 -37 -103q-7 -8 -18 -8q-15 0 -15 11q0 17 42 111.5t42 109.5q0 7 -24 7q-10 0 -30.5 -2t-30.5 -2q-17 0 -21 11q8 11 114 19q82 6 129 6q19 0 19 -6z" />
    <glyph glyph-name="infinity" unicode="&#x221e;" horiz-adv-x="513" 
d="M495 274q0 -52 -59 -102.5t-111 -50.5q-66 0 -65 64q-12 -10 -28 -20q-48 -33 -68 -42q-32 -14 -72 -14q-77 0 -77 60q0 61 64 113q61 49 123 49q47 0 68 -18t22 -67q94 93 150 93q24 0 40 -21q13 -20 13 -44zM452 259q0 51 -46 51q-21 0 -59 -37q-29 -29 -57 -59
q0 -32 7 -45q10 -20 40 -20q26 0 59.5 22.5t46.5 47.5q9 16 9 40zM263 239q0 38 -14 51.5t-48 13.5q-33 0 -66.5 -22.5t-52.5 -54.5q-23 -37 -23 -62q0 -37 44 -37q75 0 159 86q1 15 1 25z" />
    <glyph glyph-name="notequal" unicode="&#x2260;" horiz-adv-x="286" 
d="M330 391q0 -6 -5 -10q-25 -30 -76 -89l-21 -24h7q56 0 67 1v-2q0 -13 -98 -27q-26 -31 -47 -57h55q45 0 67 2v-3q0 -10 -61 -21q-52 -10 -89 -12q-22 -28 -43 -55q-59 -77 -59 -99q0 -7 4 -10t4 -4q0 -8 -12 -8q-14 0 -14 20q0 27 62 119q11 18 26 38q-84 3 -84 15
q0 17 18 17h89l11 14q9 13 28 39q-8 -1 -13 -1q-110 0 -110 16q0 17 18 17q10 0 130 1q103 136 114 136q32 0 32 -13z" />
    <glyph glyph-name="lessequal" unicode="&#x2264;" horiz-adv-x="224" 
d="M161 307q0 -10 -69 -108q68 -86 68 -94q0 -10 -7 -9l-6 2q-15 21 -40 42q-23 18 -45 36q-2 2 -2 4q0 8 37 61q35 50 46 63q7 7 13 7q5 0 5 -4zM187 55q0 -4 -4 -4q-21 0 -63.5 -4t-63.5 -4q-11 0 -15 17l1 1q16 4 69 4q67 0 76 -10z" />
    <glyph glyph-name="greaterequal" unicode="&#x2265;" horiz-adv-x="224" 
d="M161 222q0 -7 -37 -61q-35 -50 -46 -63q-7 -7 -14 -7q-4 0 -4 4q0 10 69 108q-68 87 -68 94q0 10 7 10l6 -3q14 -20 40 -42q23 -18 45 -36q2 -2 2 -4zM175 55q0 -4 -4 -4q-21 0 -63.5 -4t-63.5 -4q-11 0 -15 17l1 1q16 4 69 4q67 0 76 -10z" />
    <glyph glyph-name="lozenge" unicode="&#x25ca;" horiz-adv-x="1000" 
 />
    <glyph glyph-name="apple" unicode="&#xf000;" horiz-adv-x="563" 
d="M295 426q-2 8 -2 15q0 53 39 94q12 13 32 23q24 14 36 9q2 -3 2 -17q0 -45 -30 -84q-33 -41 -77 -40zM316 413q40 11 59 19q7 4 24 4q67 0 105 -59q-67 -39 -63 -120q4 -79 78 -109q-15 -46 -54 -93q-46 -56 -78 -56q-29 0 -51 15q-17 11 -45 11q-26 0 -44 -11
q-20 -15 -51 -15q-33 0 -78 56q-69 83 -69 199q0 59 26 104q42 76 114 76q14 0 19 -2q24 -9 60 -20q21 -6 48 1zM157 317q0 5 -5 5t-5 -4q0 -2 3 -3l6 -1q5 -1 5 -6q0 -6 -9 -6q-4 0 -6 2t-2 5h2q0 -5 6 -5t6 4q0 3 -5 4l-4 1q-5 1 -5 5q0 6 8 6t8 -7h-3zM166 311q0 5 4 5
t5 -5h-9zM174 307h3q-1 -3 -2.5 -4t-4.5 -1q-7 0 -7 8t8 8q6 0 6 -9h-11q0 -5 4 -5t4 3zM183 309q0 7 4 7t4 -6t-4 -6t-4 5zM180 296v22h3v-2v0q2 2 4 2q7 0 7 -7q0 -9 -7 -9q-3 0 -4 2v0v-8h-3zM200 316v-10q1 -2 2 -2h1v-2h-2q-3 0 -3 3v11h-3v2h3v4h2v-4h3v-2h-3z
M207 311q0 5 5 5q4 0 4 -5h-9zM216 307h2q0 -3 -2 -4t-5 -1q-6 0 -6 8t7 8t7 -9h-12q0 -5 5 -5q3 0 4 3zM222 318h2v-2v0q2 2 5 2t4 -2q2 2 5 2q5 0 5 -5v-11h-3v10q0 4 -3 4t-3 -4v-10h-3v11q0 3 -2 3q-5 0 -5 -5v-9h-2v16zM257 310q0 -6 -4 -6t-4 5q0 7 4 7t4 -6zM249 302
h-3v22h3v-8v0q2 2 5 2q6 0 6 -7q0 -9 -7 -9q-3 0 -4 2v0v-2zM265 311q0 5 5 5q4 0 4 -5h-9zM274 307h2q0 -3 -2 -4t-5 -1q-7 0 -7 8t8 8q7 0 7 -9h-12q0 -5 5 -5q3 0 4 3zM283 302h-3v16h3v-3v0q1 3 4 3h1v-2h-1q-4 0 -4 -5v-9zM297 316q0 7 7 7t7 -6q0 -4 -6 -7l-2 -1
q-3 -2 -3 -4h11v-3h-14q0 6 5 9l2 1q4 2 4 5q0 4 -4 4t-4 -5h-3zM323 302h-3v15h-4v2q4 1 5 4h2v-21zM332 305h3v-2q0 -4 -3 -5v1q1 0 1 3h-1v3zM347 316q0 7 7 7t7 -6q0 -4 -6 -7l-2 -1q-3 -2 -4 -4h12v-3h-15q1 6 5 9l3 1q4 2 4 5q0 4 -4 4t-4 -5h-3zM375 312q0 -8 -5 -8
q-4 0 -4 8q0 9 4 9q5 0 5 -9zM378 312q0 -10 -8 -10q-7 0 -7 10q0 11 7 11q8 0 8 -11zM391 312q0 -8 -4 -8t-4 8q0 9 4 9t4 -9zM394 312q0 -10 -7 -10t-7 10q0 11 7 11t7 -11zM399 309q0 4 5 4q4 0 4 -4q0 -5 -4 -5q-5 0 -5 5zM410 318h-2q-1 3 -4 3q-5 0 -5 -8v0q2 3 5 3
q7 0 7 -7t-8 -7q-7 0 -7 10q0 11 8 11q6 0 6 -5zM231 245v0v-10h-6zM237 233h-3v-5h-3v5h-9v3l10 13h2v-14h3v-2zM244 228h-3v3h3v-3zM244 240h-3v3h3v-3zM248 241q0 8 7 8q6 0 6 -6q0 -4 -5 -7l-2 -2q-3 -1 -4 -4h11v-2h-14q0 5 5 8l3 2q4 2 4 5t-4 3t-5 -5h-2zM273 245v0
v-10h-7zM278 233h-3v-5h-2v5h-9v3l9 13h2v-14h3v-2zM293 247h6q4 0 4 -4t-4 -4h-6v8zM293 237v-9h-3v21h10q6 0 6 -6t-6 -6h-7zM327 228v13v5v0l-6 -18h-2l-6 18h-1l1 -5v-13h-3v21h4l6 -18v0l6 18h4v-21h-3zM131 174h14v-2q-7 -7 -8 -19h-3q1 10 8 18h-11v3zM163 175h2v-22
h-2v10h-12v-10h-2v22h2v-9h12v9zM173 156h11v-3h-14v22h3v-19zM195 153h-3v15h-5v2q5 1 6 4h2v-21zM202 174h14v-2q-6 -7 -8 -19h-3q1 10 8 18h-11v3zM230 164q0 -9 -4 -9q-5 0 -5 9q0 8 5 8q4 0 4 -8zM233 164q0 -11 -7 -11t-7 11q0 10 7 10t7 -10zM235 174h15v-2
q-7 -7 -9 -19h-3q1 10 9 18h-12v3zM259 163q4 0 4 -4t-4 -4q-5 0 -5 4t5 4zM265 169q0 -3 -3 -4q4 -2 4 -5q0 -7 -7 -7q-3 0 -5 1.5t-2 5.5q0 3 3 5q-3 1 -3 4q0 5 7 5q6 0 6 -5zM259 166q-4 0 -4 3t4 3q3 0 3 -3t-3 -3zM272 172h6q5 0 5 -3q0 -4 -5 -4h-6v7zM272 163v-10
h-2v22h9q7 0 7 -6t-7 -6h-7zM287 175h18v-3h-8v-19h-2v19h-8v3zM306 167q0 7 8 7q6 0 6 -6q0 -4 -5 -7l-3 -1q-3 -2 -3 -4h11v-3h-14q0 6 5 9l3 1q3 3 3 5q0 4 -4 4t-4 -5h-3zM331 170v0v-9h-6zM337 159h-3v-6h-3v6h-9v2l10 13h2v-13h3v-2zM346 163q5 0 5 -4t-4 -4
q-5 0 -5 4t4 4zM353 169q0 -3 -3 -4q4 -2 4 -5q0 -7 -8 -7q-3 0 -5 1.5t-2 5.5q0 3 4 5q-3 1 -3 4q0 5 6 5q7 0 7 -5zM346 166q-3 0 -3 3t3 3q4 0 4 -3t-4 -3zM359 160q0 4 4 4t4 -4q0 -5 -4 -5t-4 5zM370 169h-3q0 3 -3 3q-5 0 -5 -8v0q1 3 5 3q6 0 6 -7t-7 -7t-7 10
q0 11 8 11q5 0 6 -5zM379 163q5 0 5 -4t-4 -4q-5 0 -5 4t4 4zM386 169q0 -3 -3 -4q4 -2 4 -5q0 -7 -7 -7q-4 0 -6 1.5t-2 5.5q0 3 4 5q-3 1 -3 4q0 5 6 5q7 0 7 -5zM379 166q-3 0 -3 3t3 3q4 0 4 -3t-4 -3zM400 164q0 -9 -4 -9t-4 9q0 8 4 8t4 -8zM403 164q0 -11 -7 -11
t-7 11q0 10 7 10t7 -10zM420 175h4l-8 -22h-3l-8 22h3l6 -18v0z" />
    </font>
</defs>
</svg>
