<?xml version="1.0" standalone="no"?>
<!DOCTYPE svg PUBLIC "-//W3C//DTD SVG 1.1//EN" "http://www.w3.org/Graphics/SVG/1.1/DTD/svg11.dtd" >
<svg xmlns="http://www.w3.org/2000/svg" xmlns:xlink="http://www.w3.org/1999/xlink" version="1.1">
<metadata>
Created by FontForge 20170731 at Tue Sep 29 10:57:05 2020
 By Aleksey,,,
Copyright (C) 2011 Markanna Studios Inc.www.SweetFonts.com
</metadata>
<defs>
<font id="SweetSansPro-MediumItalic" horiz-adv-x="1024" >
  <font-face 
    font-family="Sweet Sans Pro Medium"
    font-weight="500"
    font-style="italic"
    font-stretch="normal"
    units-per-em="2048"
    panose-1="2 0 0 0 0 0 0 0 0 0"
    ascent="1577"
    descent="-471"
    x-height="989"
    cap-height="1337"
    bbox="-326 -629 3183 2187"
    underline-thickness="114"
    underline-position="-376"
    slope="-12"
    unicode-range="U+000D-FB04"
  />
<missing-glyph horiz-adv-x="1185" 
d="M0 0v1337h1186v-1337h-1186zM592 516l-291 -328h582zM301 1149l291 -328l291 328h-582zM727 668l250 -279v559zM457 668l-248 280v-559z" />
    <glyph glyph-name="f_f" unicode="ff" horiz-adv-x="1433" 
d="M1280 1169l-39 -180h258l-35 -166h-258l-174 -823h-211l174 823h-479l-174 -823h-211l174 823h-184l35 166h184l39 180q13 62 41 112t63 82t78 53.5t84 30.5t82 9q57 0 118.5 -14.5t88.5 -32.5l-76 -176q-17 14 -58.5 25.5t-72.5 11.5q-55 0 -91 -26t-46 -75l-39 -180
h479l39 180q13 62 41 112t63 82t78 53.5t84 30.5t82 9q57 0 118.5 -14.5t88.5 -32.5l-76 -176q-17 14 -58.5 25.5t-72.5 11.5q-55 0 -91 -26t-46 -75z" />
    <glyph glyph-name="f_i" unicode="fi" horiz-adv-x="1312" 
d="M156 989h184l39 180q13 62 41 112t63 82t78 53.5t84 30.5t82 9q57 0 118.5 -14.5t88.5 -32.5l-76 -176q-17 14 -58.5 25.5t-72.5 11.5q-55 0 -91 -26t-46 -75l-39 -180h258l-35 -166h-258l-174 -823h-211l174 823h-184zM1018 0h-211l207 989h211zM1053 1300q0 54 43 94
t104 40q52 0 87.5 -33.5t35.5 -79.5q0 -55 -44 -93t-105 -38q-53 0 -87 31.5t-34 78.5z" />
    <glyph glyph-name="f_l" unicode="fl" horiz-adv-x="1333" 
d="M156 989h184l39 180q13 62 41 112t63 82t78 53.5t84 30.5t82 9q57 0 118.5 -14.5t88.5 -32.5l-76 -176q-17 14 -58.5 25.5t-72.5 11.5q-55 0 -91 -26t-46 -75l-39 -180h258l-35 -166h-258l-174 -823h-211l174 823h-184zM1026 0h-211l305 1434h211z" />
    <glyph glyph-name="f_f_i" unicode="ffi" horiz-adv-x="2002" 
d="M1280 1169l-39 -180h258l-35 -166h-258l-174 -823h-211l174 823h-479l-174 -823h-211l174 823h-184l35 166h184l39 180q13 62 41 112t63 82t78 53.5t84 30.5t82 9q57 0 118.5 -14.5t88.5 -32.5l-76 -176q-17 14 -58.5 25.5t-72.5 11.5q-55 0 -91 -26t-46 -75l-39 -180
h479l39 180q13 62 41 112t63 82t78 53.5t84 30.5t82 9q57 0 118.5 -14.5t88.5 -32.5l-76 -176q-17 14 -58.5 25.5t-72.5 11.5q-55 0 -91 -26t-46 -75zM1708 0h-211l207 989h211zM1743 1300q0 54 43 94t104 40q52 0 87.5 -33.5t35.5 -79.5q0 -55 -44 -93t-105 -38
q-53 0 -87 31.5t-34 78.5z" />
    <glyph glyph-name="f_f_l" unicode="ffl" horiz-adv-x="2023" 
d="M1280 1169l-39 -180h258l-35 -166h-258l-174 -823h-211l174 823h-479l-174 -823h-211l174 823h-184l35 166h184l39 180q13 62 41 112t63 82t78 53.5t84 30.5t82 9q57 0 118.5 -14.5t88.5 -32.5l-76 -176q-17 14 -58.5 25.5t-72.5 11.5q-55 0 -91 -26t-46 -75l-39 -180
h479l39 180q13 62 41 112t63 82t78 53.5t84 30.5t82 9q57 0 118.5 -14.5t88.5 -32.5l-76 -176q-17 14 -58.5 25.5t-72.5 11.5q-55 0 -91 -26t-46 -75zM1716 0h-211l305 1434h211z" />
    <glyph glyph-name="f_j" unicode="fj" horiz-adv-x="1312" 
d="M156 989h184l39 180q13 62 41 112t63 82t78 53.5t84 30.5t82 9q57 0 118.5 -14.5t88.5 -32.5l-76 -176q-17 14 -58.5 25.5t-72.5 11.5q-55 0 -91 -26t-46 -75l-39 -180h258l-35 -166h-258l-174 -823h-211l174 823h-184zM578 -465l-27 166q35 7 58 14t54.5 22t52 35
t39.5 54t29 78l234 1085h211l-234 -1085q-16 -78 -50.5 -142t-77.5 -105.5t-94 -69.5t-99.5 -40t-95.5 -12zM1055 1300q0 54 43 94t104 40q52 0 87.5 -33.5t35.5 -79.5q0 -55 -44 -93t-105 -38q-53 0 -87 31.5t-34 78.5z" />
    <glyph glyph-name="f_f_j" unicode="ffj" horiz-adv-x="2002" 
d="M1280 1169l-39 -180h258l-35 -166h-258l-174 -823h-211l174 823h-479l-174 -823h-211l174 823h-184l35 166h184l39 180q13 62 41 112t63 82t78 53.5t84 30.5t82 9q57 0 118.5 -14.5t88.5 -32.5l-76 -176q-17 14 -58.5 25.5t-72.5 11.5q-55 0 -91 -26t-46 -75l-39 -180
h479l39 180q13 62 41 112t63 82t78 53.5t84 30.5t82 9q57 0 118.5 -14.5t88.5 -32.5l-76 -176q-17 14 -58.5 25.5t-72.5 11.5q-55 0 -91 -26t-46 -75zM1268 -465l-27 166q35 7 58 14t54.5 22t52.5 35t40 54t29 78l233 1085h211l-233 -1085q-20 -97 -67.5 -171.5t-107.5 -116
t-121.5 -61.5t-121.5 -20zM1745 1300q0 54 43 94t104 40q52 0 87.5 -33.5t35.5 -79.5q0 -55 -44 -93t-105 -38q-53 0 -87 31.5t-34 78.5z" />
    <glyph glyph-name="f_t" unicode="ft" horiz-adv-x="1482" 
d="M1305 162l-15 -166q-29 -16 -94 -26.5t-117 -10.5q-64 0 -114 18t-85.5 67.5t-35.5 127.5q0 38 8 74l121 577h-457l-174 -823h-211l174 823h-184l35 166h184l39 180q13 62 41 112t63 82t78 53.5t84 30.5t82 9q57 0 118.5 -14.5t88.5 -32.5l-76 -176q-17 14 -58.5 25.5
t-72.5 11.5q-55 0 -91 -26t-46 -75l-39 -180h457l63 293h211l-63 -293h262l-35 -166h-262l-117 -559q-6 -21 -6 -47q0 -72 98 -72q29 0 77.5 5.5t68.5 11.5z" />
    <glyph glyph-name="f_f_t" unicode="fft" horiz-adv-x="2170" 
d="M1993 162l-15 -166q-29 -16 -94 -26.5t-117 -10.5q-64 0 -114 18t-85.5 67.5t-35.5 127.5q0 38 8 74l121 577h-455l-174 -823h-211l174 823h-479l-174 -823h-211l174 823h-184l35 166h184l39 180q13 62 41 112t63 82t78 53.5t84 30.5t82 9q57 0 118.5 -14.5t88.5 -32.5
l-76 -176q-17 14 -58.5 25.5t-72.5 11.5q-55 0 -91 -26t-46 -75l-39 -180h479l39 180q13 62 41 112t63 82t78 53.5t84 30.5t82 9q57 0 118.5 -14.5t88.5 -32.5l-76 -176q-17 14 -58.5 25.5t-72.5 11.5q-55 0 -91 -26t-46 -75l-39 -180h455l63 293h211l-63 -293h262l-35 -166
h-262l-117 -559q-6 -21 -6 -47q0 -72 98 -72q29 0 77.5 5.5t68.5 11.5z" />
    <glyph glyph-name="t_t" unicode="tt" horiz-adv-x="1548" 
d="M102 823l35 166h182l64 293h211l-64 -293h543l64 293h211l-64 -293h262l-35 -166h-262l-116 -559q-7 -25 -7 -47q0 -72 99 -72q28 0 76.5 5.5t68.5 11.5l-14 -166q-29 -16 -94 -26.5t-117 -10.5q-47 0 -87 10.5t-74.5 34t-54.5 66.5t-20 102q0 34 9 74l120 577h-542
l-117 -559q-6 -21 -6 -47q0 -72 98 -72q28 0 76.5 5.5t68.5 11.5l-14 -166q-29 -16 -94 -26.5t-117 -10.5q-64 0 -114 18t-85.5 67.5t-35.5 127.5q0 38 8 74l121 577h-183z" />
    <glyph glyph-name=".notdef" horiz-adv-x="1185" 
d="M0 0v1337h1186v-1337h-1186zM592 516l-291 -328h582zM301 1149l291 -328l291 328h-582zM727 668l250 -279v559zM457 668l-248 280v-559z" />
    <glyph glyph-name=".null" horiz-adv-x="512" 
 />
    <glyph glyph-name=".null" horiz-adv-x="512" 
 />
    <glyph glyph-name="nonmarkingreturn" horiz-adv-x="682" 
 />
    <glyph glyph-name="CR" unicode="&#xd;" horiz-adv-x="512" 
 />
    <glyph glyph-name="space" unicode=" " horiz-adv-x="460" 
 />
    <glyph glyph-name="exclam" unicode="!" horiz-adv-x="641" 
d="M209 -31q-64 0 -106 39t-42 96q0 66 53 114t126 48q64 0 106.5 -39.5t42.5 -97.5q0 -66 -53 -113t-127 -47zM217 430l74 584l69 323h250l-69 -323l-176 -584h-148z" />
    <glyph glyph-name="quotedbl" unicode="&#x22;" horiz-adv-x="1028" 
d="M356 774h-127l9 336l41 227h229l-41 -227zM897 774h-127l8 336l41 227h230l-41 -227z" />
    <glyph glyph-name="numbersign" unicode="#" horiz-adv-x="1773" 
d="M1249 1264h170l-100 -363h414l-31 -162h-428l-96 -354h389l-33 -164h-401l-115 -418h-168l115 418h-347l-114 -418h-170l115 418h-410l31 164h424l96 354h-387l30 162h400l100 363h170l-100 -363h346zM760 739l-96 -354h346l96 354h-346z" />
    <glyph glyph-name="dollar" unicode="$" horiz-adv-x="1462" 
d="M1337 987l-157 -135q-93 96 -273 137l-59 -291q53 -10 93 -19.5t90.5 -25.5t88 -33.5t75.5 -44t62 -58t39 -73.5t15 -92q0 -124 -72.5 -213.5t-195.5 -133.5t-281 -44q-12 0 -33 1t-33 1l-49 -248h-151l53 267q-304 61 -504 286l158 131q150 -173 385 -227l69 344
q-53 11 -91 20.5t-87.5 26t-84 33.5t-70.5 42.5t-58.5 55t-36.5 69.5t-14 87q0 87 39.5 155.5t108.5 111t157 64t189 21.5q30 0 88 -4l39 193h153l-45 -213q236 -53 393 -191zM1090 307q0 68 -73 111t-212 71l-70 -339h49q306 0 306 157zM436 887q0 -64 68.5 -100.5
t195.5 -61.5l58 287q-25 2 -74 2q-46 0 -81 -3.5t-77.5 -15t-66 -39t-23.5 -69.5z" />
    <glyph glyph-name="percent" unicode="%" horiz-adv-x="2217" 
d="M1638 1239l-852 -1239h-182l854 1239h180zM1260 303q0 101 59 189t159 140t214 52q157 0 265.5 -98t108.5 -236q0 -101 -61.5 -189.5t-163.5 -140t-217 -51.5q-156 0 -260 96.5t-104 237.5zM1456 313q0 -69 53 -119.5t131 -50.5q91 0 160.5 59t69.5 138q0 69 -57 119.5
t-136 50.5q-90 0 -155.5 -58t-65.5 -139zM176 889q0 101 59 189t159 140t214 52q157 0 266 -98t109 -236q0 -101 -61.5 -189.5t-163.5 -140t-217 -51.5q-156 0 -260.5 97t-104.5 237zM373 899q0 -69 53 -119.5t131 -50.5q91 0 160 59t69 138q0 69 -56.5 119.5t-135.5 50.5
q-90 0 -155.5 -58t-65.5 -139z" />
    <glyph glyph-name="ampersand" unicode="&#x26;" horiz-adv-x="1589" 
d="M1255 1178l-135 -181q-48 37 -119.5 66t-148.5 29q-89 0 -141 -40t-52 -96q0 -27 12 -56t38.5 -63.5t47.5 -58t61 -64.5t56 -59l213 -235q143 126 261 287l176 -95q-149 -192 -310 -331l254 -281h-299l-133 145q-266 -176 -491 -176q-51 0 -102 10t-106.5 37t-97.5 67
t-69 106t-27 149q0 72 20.5 134t53.5 105t81 80t94.5 60t103.5 43q-66 94 -66 184q0 102 64.5 184t166.5 125t218 43q185 0 376 -118zM907 289l-295 325q-45 -17 -79 -34t-74 -47t-62 -74.5t-22 -100.5q0 -52 19.5 -89.5t52 -57t65.5 -28.5t68 -9q140 0 327 115z" />
    <glyph glyph-name="quotesingle" unicode="'" horiz-adv-x="487" 
d="M356 774h-127l9 336l41 227h229l-41 -227z" />
    <glyph glyph-name="parenleft" unicode="(" horiz-adv-x="808" 
d="M827 1427l82 -151q-261 -107 -431.5 -342.5t-170.5 -519.5q0 -189 77.5 -357.5t213.5 -269.5l-143 -127q-181 126 -279 323t-98 423q0 336 200.5 607.5t548.5 413.5z" />
    <glyph glyph-name="parenright" unicode=")" horiz-adv-x="808" 
d="M-29 -340l-82 152q127 52 237 139t191.5 197.5t128 246.5t46.5 279q0 189 -77.5 357t-213.5 269l143 127q181 -126 279 -322.5t98 -422.5q0 -336 -201 -608t-549 -414z" />
    <glyph glyph-name="asterisk" unicode="*" horiz-adv-x="1214" 
d="M369 563l-103 121l250 246l-299 190l82 140l311 -162l90 342l160 -33l-55 -348l346 20l18 -159l-350 -54l129 -327l-143 -68l-162 315z" />
    <glyph glyph-name="plus" unicode="+" horiz-adv-x="1550" 
d="M184 436v189h488v407h207v-407h485v-189h-485v-407h-207v407h-488z" />
    <glyph glyph-name="comma" unicode="," horiz-adv-x="632" 
d="M-4 -391l-49 135q43 11 91 32t95.5 51t79.5 69.5t33 80.5v15q-32 -8 -58 -8q-64 0 -105.5 36.5t-41.5 92.5q0 63 52.5 108t125.5 45q81 0 141 -60.5t60 -150.5q0 -76 -28 -142.5t-70.5 -112.5t-102 -85.5t-112 -63t-111.5 -42.5z" />
    <glyph glyph-name="hyphen" unicode="-" horiz-adv-x="798" 
d="M109 418l34 209h527l-35 -209h-526z" />
    <glyph glyph-name="period" unicode="." horiz-adv-x="581" 
d="M39 104q0 66 52.5 114t125.5 48q64 0 107 -40t43 -97q0 -66 -53.5 -113t-127.5 -47q-64 0 -105.5 38.5t-41.5 96.5z" />
    <glyph glyph-name="slash" unicode="/" horiz-adv-x="1110" 
d="M1182 1337l-1039 -1581h-229l1038 1581h230z" />
    <glyph glyph-name="zero" unicode="0" horiz-adv-x="1511" 
d="M111 522q0 184 101 341.5t266 248t351 90.5q161 0 294 -74t208.5 -203t75.5 -284q0 -185 -102.5 -343t-269 -248.5t-353.5 -90.5q-120 0 -226.5 43.5t-182 118.5t-119 179.5t-43.5 221.5zM338 543q0 -160 104.5 -269.5t264.5 -109.5q120 0 228.5 62t174.5 168t66 227
q0 159 -108.5 269.5t-266.5 110.5q-121 0 -228 -62.5t-171 -168.5t-64 -227z" />
    <glyph glyph-name="one" unicode="1" horiz-adv-x="800" 
d="M133 829l2 187l357 147h227l-250 -1163h-227l209 956z" />
    <glyph glyph-name="two" unicode="2" horiz-adv-x="1241" 
d="M330 870l-99 172q144 78 260 119t254 41q53 0 109.5 -9t118.5 -32t110 -57t79.5 -91t31.5 -128q0 -89 -46 -161.5t-98.5 -112t-147.5 -73.5t-135.5 -43t-120.5 -23q-6 -2 -9 -2.5t-8 -1t-8 -1.5q-71 -13 -117.5 -26.5t-95 -39t-79 -68.5t-46.5 -104l-13 -49h748l-45 -180
h-969l51 231q77 356 602 439q19 2 45 7t76 19.5t88 33.5t67.5 52.5t29.5 73.5q0 41 -25 71.5t-64 45.5t-75.5 21.5t-69.5 6.5q-107 0 -201 -34t-198 -97z" />
    <glyph glyph-name="three" unicode="3" horiz-adv-x="1388" 
d="M360 858l-104 154q123 81 267.5 135.5t283.5 54.5q53 0 112 -11.5t119.5 -37t109 -61t79 -90t30.5 -117.5q0 -84 -49 -159.5t-127 -104.5q61 -25 104.5 -86.5t43.5 -165.5q0 -102 -48.5 -182t-131.5 -129t-186.5 -74t-219.5 -25q-196 0 -364 78.5t-285 241.5l174 145
q83 -126 213.5 -195t286.5 -69q93 0 167.5 22t121.5 70.5t47 116.5q0 42 -18.5 73.5t-48 47t-57.5 23t-55 7.5h-221l45 182h217q64 0 106 37.5t42 100.5q0 55 -38.5 93t-88 53t-101.5 15q-198 0 -426 -143z" />
    <glyph glyph-name="four" unicode="4" horiz-adv-x="1452" 
d="M1350 436l-43 -180h-228l-55 -256h-227l55 256h-856l39 158l1048 749h199l-162 -727h230zM383 442l-2 -6h512l94 432h-18q-87 -66 -290.5 -211t-295.5 -215z" />
    <glyph glyph-name="five" unicode="5" horiz-adv-x="1355" 
d="M1239 1163l-47 -200h-713l-55 -273q82 37 151 54.5t154 17.5q63 0 128 -11t131.5 -38t118 -67.5t84 -104t32.5 -142.5q0 -110 -49 -196.5t-132 -138.5t-185 -78.5t-216 -26.5q-205 0 -356.5 61.5t-278.5 188.5l154 147q84 -94 213 -144t284 -50q55 0 109.5 10.5
t107.5 33.5t86 68t33 105q0 51 -32.5 90t-84 59.5t-103 30.5t-99.5 10q-158 0 -363 -69l-112 114l118 549h922z" />
    <glyph glyph-name="six" unicode="6" horiz-adv-x="1398" 
d="M1337 1030l-153 -147q-69 56 -169.5 87t-201.5 31q-108 0 -207 -41t-173.5 -122.5t-100.5 -188.5q236 117 446 117q67 0 133.5 -12t130 -39.5t111.5 -67t77.5 -99.5t29.5 -132q0 -102 -45 -189t-120.5 -145t-174 -90.5t-205.5 -32.5q-89 0 -175 22t-164 68t-137 110.5
t-93.5 156.5t-34.5 200q0 145 58 273.5t156 218.5t231.5 142t281.5 52q136 0 266 -44t233 -128zM721 582q-175 0 -399 -95q20 -154 136.5 -243.5t270.5 -81.5q51 2 101 17t95 41.5t73 72.5t28 104q0 52 -29.5 90.5t-77.5 58t-97.5 28t-100.5 8.5z" />
    <glyph glyph-name="seven" unicode="7" horiz-adv-x="1247" 
d="M164 963l47 200h1067l-47 -205l-844 -958h-299l883 963h-807z" />
    <glyph glyph-name="eight" unicode="8" horiz-adv-x="1419" 
d="M70 346q0 137 97.5 225.5t254.5 102.5q-166 51 -166 213q0 87 50 152.5t129 100t159 50.5t158 16q54 0 112 -7.5t121 -23.5t119 -44t101 -65t71.5 -91t26.5 -117q0 -112 -73 -178t-198 -74q95 -30 156 -102.5t61 -177.5q0 -78 -37 -142t-95.5 -105t-134 -69.5
t-149.5 -40.5t-145 -12q-72 0 -151.5 12.5t-164 42.5t-151 73t-109 111t-42.5 150zM328 387q-8 -47 16 -86.5t66 -64.5t96 -42.5t104 -24.5t92 -7q43 0 89.5 8.5t96.5 27t81.5 56t31.5 88.5q0 55 -39.5 98t-99.5 65.5t-119 34t-110 11.5q-39 0 -82.5 -7t-93 -23.5
t-85.5 -51.5t-44 -82zM500 877q0 -49 35.5 -84.5t90.5 -52t102 -23t89 -6.5q38 0 73 5t74.5 18t63 41t23.5 69q0 46 -30 82.5t-77 56t-95.5 29.5t-94.5 10q-38 0 -78 -7t-81.5 -22t-68 -45t-26.5 -71z" />
    <glyph glyph-name="nine" unicode="9" horiz-adv-x="1400" 
d="M70 135l155 146q66 -56 166 -88.5t199 -32.5q165 0 303 95.5t178 254.5q-236 -113 -446 -113q-66 0 -131.5 12t-128.5 39.5t-111 67.5t-77.5 100t-29.5 132q0 135 76.5 240t200 159.5t270.5 54.5q88 0 173 -21.5t163 -67.5t137 -110t94 -156t35 -200q0 -145 -58.5 -273.5
t-157 -219t-233 -143t-282.5 -52.5q-132 0 -262 45.5t-233 130.5zM682 582q186 0 399 92q-18 154 -133.5 242.5t-269.5 82.5q-52 -2 -102 -16t-95.5 -40.5t-73.5 -72.5t-28 -104q0 -52 29.5 -90t77.5 -57.5t96.5 -28t99.5 -8.5z" />
    <glyph glyph-name="colon" unicode=":" horiz-adv-x="667" 
d="M88 104q0 66 52.5 114t125.5 48q64 0 107 -40t43 -97q0 -66 -53 -113t-127 -47q-64 0 -106 39t-42 96zM221 850q0 66 52.5 114t125.5 48q64 0 107 -40t43 -98q0 -66 -53 -112.5t-127 -46.5q-64 0 -106 39t-42 96z" />
    <glyph glyph-name="semicolon" unicode=";" horiz-adv-x="696" 
d="M41 -391l-49 135q43 11 91 32t95.5 51t79.5 69.5t33 80.5v15q-32 -8 -58 -8q-64 0 -105.5 36.5t-41.5 92.5q0 63 52.5 108t125.5 45q81 0 141 -60.5t60 -150.5q0 -76 -28 -142.5t-70.5 -112.5t-102 -85.5t-112 -63t-111.5 -42.5zM223 850q0 66 52.5 114t125.5 48
q64 0 107 -40t43 -98q0 -66 -53 -112.5t-127 -46.5q-64 0 -106 39t-42 96z" />
    <glyph glyph-name="less" unicode="&#x3c;" horiz-adv-x="1550" 
d="M1364 1014v-215l-913 -256v-25l913 -256v-213l-1180 379v205z" />
    <glyph glyph-name="equal" unicode="=" horiz-adv-x="1550" 
d="M184 686v191h1180v-191h-1180zM184 186v191h1180v-191h-1180z" />
    <glyph glyph-name="greater" unicode="&#x3e;" horiz-adv-x="1550" 
d="M184 799v215l1180 -381v-205l-1180 -379v213l914 256v25z" />
    <glyph glyph-name="question" unicode="?" horiz-adv-x="1196" 
d="M334 1032l-115 146q135 100 258 150t287 50q52 0 104.5 -8t108.5 -29.5t99 -54.5t70.5 -87t27.5 -122q0 -189 -160 -303q-41 -29 -103 -60t-112 -55t-100 -55t-85 -74.5t-49 -99.5h-205q9 78 42 141t76.5 102t101 74.5t108.5 57t106.5 49.5t88.5 53q80 59 80 137
q0 52 -35.5 87.5t-79.5 49t-90 13.5q-123 0 -221.5 -41t-202.5 -121zM270 104q0 66 53 114t126 48q64 0 106.5 -39.5t42.5 -97.5q0 -66 -53 -113t-127 -47q-64 0 -106 39t-42 96z" />
    <glyph glyph-name="at" unicode="@" horiz-adv-x="2007" 
d="M1350 967h190l-231 -533q-13 -35 -13 -53q0 -44 24 -67t66 -23t91.5 22.5t98 65.5t88.5 99.5t64.5 131.5t24.5 154q0 205 -156 337t-421 132q-136 0 -267 -36t-242.5 -105.5t-196 -163t-133 -216t-48.5 -257.5q0 -145 56 -260t150.5 -185t210 -106.5t242.5 -36.5
q131 0 281.5 33.5t238.5 76.5l39 -139q-95 -50 -262 -92.5t-323 -42.5q-120 0 -236.5 27.5t-223.5 87.5t-187.5 145t-128.5 208.5t-48 270.5q0 165 60 315.5t165 265.5t242.5 200t298 129.5t326.5 44.5q223 0 390.5 -80t255 -218t87.5 -313q0 -114 -38.5 -219.5t-102 -183.5
t-142 -137t-161.5 -89t-158 -30q-89 0 -142 43.5t-53 116.5v16q-77 -83 -169 -128.5t-177 -45.5q-108 0 -181 74t-73 219q0 118 53 230t133.5 188.5t175 123t177.5 46.5q92 0 152.5 -55t68.5 -132zM854 313q56 0 127.5 33.5t140.5 97.5l84 197q-6 76 -50.5 130t-108.5 54
q-44 0 -97 -25.5t-101 -70t-80 -115t-32 -149.5q0 -152 117 -152z" />
    <glyph glyph-name="A" unicode="A" horiz-adv-x="1531" 
d="M-80 0l905 1337h209l336 -1337h-240l-83 360h-639l-236 -360h-252zM870 1063l-342 -518h476l-121 518h-13z" />
    <glyph glyph-name="B" unicode="B" horiz-adv-x="1644" 
d="M942 0h-831l280 1337h733q206 0 316 -110q90 -90 90 -209q0 -97 -66 -183t-166 -120q82 -27 131.5 -105.5t49.5 -177.5q0 -159 -123 -282q-150 -150 -414 -150zM1057 600h-592l-86 -395h555q166 0 240 74q61 61 61 143q0 73 -53.5 125.5t-124.5 52.5zM1077 1133h-497
l-74 -349h561q100 0 156.5 58.5t56.5 134.5q0 63 -41 104q-50 52 -162 52z" />
    <glyph glyph-name="C" unicode="C" horiz-adv-x="1574" 
d="M1319 342l123 -152q-129 -103 -288 -167t-333 -64q-195 0 -353.5 78.5t-251.5 226t-93 336.5q0 148 63.5 290t171 249.5t258.5 173t316 65.5q192 0 363.5 -80t283.5 -225l-180 -115q-81 95 -207 155.5t-268 60.5q-149 0 -279.5 -78.5t-206.5 -208t-76 -273.5
q0 -189 133.5 -319.5t342.5 -130.5q131 0 256 49t225 129z" />
    <glyph glyph-name="D" unicode="D" horiz-adv-x="1673" 
d="M381 205h397q148 0 234.5 36t175.5 115q76 76 118 176t42 209q0 171 -107 281q-62 57 -133 84t-197 27h-331zM745 0h-636l284 1337h531q182 0 296 -43t205 -129q162 -162 162 -407q0 -144 -61 -285.5t-172 -249.5q-119 -110 -260 -166.5t-349 -56.5z" />
    <glyph glyph-name="E" unicode="E" horiz-adv-x="1445" 
d="M1022 801l-43 -205h-514l-84 -391h905l-43 -205h-1134l284 1337h1086l-43 -204h-856l-72 -332h514z" />
    <glyph glyph-name="F" unicode="F" horiz-adv-x="1353" 
d="M338 0h-229l284 1337h1075l-43 -204h-845l-72 -332h514l-43 -205h-514z" />
    <glyph glyph-name="G" unicode="G" horiz-adv-x="1660" 
d="M1585 1128l-166 -145q-75 84 -209.5 137.5t-281.5 53.5q-110 0 -213.5 -45.5t-181 -121.5t-124.5 -181t-47 -218q0 -201 140 -322.5t372 -121.5q201 0 330 72l68 305h-422l45 204h629l-138 -649q-122 -66 -265.5 -101.5t-282.5 -35.5q-146 0 -276 45.5t-227.5 127.5
t-154.5 204.5t-57 267.5q0 150 66.5 292t176.5 247.5t262 170t314 64.5q184 0 348.5 -66t294.5 -184z" />
    <glyph glyph-name="H" unicode="H" horiz-adv-x="1644" 
d="M338 0h-229l284 1337h230l-109 -506h727l109 506h229l-285 -1337h-229l133 627h-727z" />
    <glyph glyph-name="I" unicode="I" horiz-adv-x="688" 
d="M338 0h-229l284 1337h230z" />
    <glyph glyph-name="J" unicode="J" horiz-adv-x="1323" 
d="M1053 1337h229l-192 -917q-46 -219 -203 -340t-373 -121q-215 0 -356 100.5t-183 300.5l207 80q25 -133 113 -203.5t235 -70.5q123 0 214 73t118 203z" />
    <glyph glyph-name="K" unicode="K" horiz-adv-x="1527" 
d="M623 1337l-140 -641l807 641h285l-645 -530l479 -807h-266l-391 672l-324 -252l-90 -420h-229l284 1337h230z" />
    <glyph glyph-name="L" unicode="L" horiz-adv-x="1298" 
d="M393 1337h230l-242 -1132h821l-43 -205h-1050z" />
    <glyph glyph-name="M" unicode="M" horiz-adv-x="1853" 
d="M1503 0h-229l192 909h-10l-602 -749h-37l-287 749h-10l-192 -909h-219l284 1337h219l297 -788h4l633 788h242z" />
    <glyph glyph-name="N" unicode="N" horiz-adv-x="1665" 
d="M109 0l284 1337h203l567 -966h2l205 966h229l-284 -1337h-203l-567 967h-2l-205 -967h-229z" />
    <glyph glyph-name="O" unicode="O" horiz-adv-x="1722" 
d="M125 612q0 154 65.5 295.5t174.5 244.5t257.5 164.5t307.5 61.5q151 0 283.5 -51t225.5 -137.5t147 -206.5t54 -254q0 -155 -66.5 -298t-177.5 -246t-260.5 -164.5t-308.5 -61.5q-151 0 -282 50.5t-223 138t-144.5 208t-52.5 256.5zM369 612q0 -186 131.5 -317
t326.5 -131q151 0 282.5 75.5t209.5 206.5t78 283q0 184 -136 314.5t-331 130.5q-113 0 -217 -44.5t-179 -120t-120 -179.5t-45 -218z" />
    <glyph glyph-name="P" unicode="P" horiz-adv-x="1529" 
d="M492 719h512q170 0 249 76q60 57 60 145q0 87 -56 143q-50 50 -167 50h-510zM989 514h-543l-108 -514h-229l284 1337h719q117 0 190 -26.5t128 -81.5q110 -110 110 -273q0 -173 -137 -303q-75 -72 -173.5 -105.5t-240.5 -33.5z" />
    <glyph glyph-name="Q" unicode="Q" horiz-adv-x="1722" 
d="M125 616q0 154 67.5 296.5t178 243.5t257 161.5t298.5 60.5q107 0 211.5 -29.5t195 -87.5t159.5 -136.5t108.5 -183.5t39.5 -222q0 -184 -93.5 -345.5t-250.5 -267.5l197 -282l-221 -72l-176 252q-130 -45 -265 -45t-262 47.5t-226 131.5t-158.5 209t-59.5 269zM811 418
l221 71l144 -206q101 75 161 184t60 235q0 197 -138.5 334.5t-332.5 137.5q-104 0 -205 -42t-179 -113.5t-126.5 -173t-48.5 -212.5q0 -196 136.5 -332.5t330.5 -136.5q68 0 139 18z" />
    <glyph glyph-name="R" unicode="R" horiz-adv-x="1601" 
d="M1540 961q0 -149 -109.5 -268t-277.5 -158l201 -535h-252l-178 514h-478l-108 -514h-229l284 1337h719q215 0 322 -110q106 -109 106 -266zM492 719h552q106 0 187.5 62t81.5 165q0 79 -56 133q-31 30 -72 42t-116 12h-489z" />
    <glyph glyph-name="S" unicode="S" horiz-adv-x="1499" 
d="M1421 1122l-172 -145q-79 99 -222 151t-296 52q-44 0 -86 -7.5t-85 -24.5t-69 -51.5t-26 -82.5q0 -45 21 -77t74.5 -55t87 -32.5t115.5 -28.5q16 -4 25 -6h1h1l1 -1h1h1h1h1h1l1 -1h1h1h2q217 -38 321 -80q255 -102 256 -325q0 -108 -43.5 -194t-120.5 -141.5t-180 -84.5
t-225 -29q-234 0 -431 88.5t-343 263.5l170 144q110 -141 265.5 -219t342.5 -78q60 0 114 9.5t104.5 30.5t81 62.5t30.5 97.5q0 51 -27.5 89.5t-85 65.5t-124 45t-165.5 36q-79 16 -123 26.5t-114.5 32t-110.5 47.5t-82.5 63.5t-62 90t-19.5 117.5q0 81 27 148t74 114.5
t112 80.5t139.5 48.5t157.5 15.5q193 0 371 -65.5t311 -190.5z" />
    <glyph glyph-name="T" unicode="T" horiz-adv-x="1380" 
d="M158 1133l45 204h1280l-45 -204h-525l-239 -1133h-230l240 1133h-526z" />
    <glyph glyph-name="U" unicode="U" horiz-adv-x="1591" 
d="M1321 1337h231l-190 -905q-33 -156 -122.5 -264.5t-212 -158.5t-271.5 -50q-156 0 -284 53.5t-206 159t-78 244.5q0 112 41 303l131 618h228l-135 -643q-37 -174 -37 -245q0 -138 98.5 -211.5t245.5 -73.5q143 0 244.5 73t132.5 220z" />
    <glyph glyph-name="V" unicode="V" horiz-adv-x="1523" 
d="M1389 1337h262l-906 -1337h-208l-336 1337h250l241 -1044h13z" />
    <glyph glyph-name="W" unicode="W" horiz-adv-x="2062" 
d="M233 1337h244l90 -983h13l526 983h164l108 -983h13l507 983h248l-712 -1337h-230l-102 895h-12l-484 -895h-229z" />
    <glyph glyph-name="X" unicode="X" horiz-adv-x="1486" 
d="M1288 1337h293l-663 -639l405 -698h-279l-294 537l-541 -537h-293l713 688l-373 649h279l264 -487z" />
    <glyph glyph-name="Y" unicode="Y" horiz-adv-x="1372" 
d="M1225 1337h288l-702 -721l-131 -616h-229l131 616l-396 721h273l272 -516z" />
    <glyph glyph-name="Z" unicode="Z" horiz-adv-x="1363" 
d="M1202 205l-45 -205h-1153l31 143l964 990h-778l45 204h1110l-30 -143l-963 -989h819z" />
    <glyph glyph-name="bracketleft" unicode="[" horiz-adv-x="755" 
d="M524 -131l-39 -184h-487l367 1726h487l-39 -184h-278l-289 -1358h278z" />
    <glyph glyph-name="backslash" unicode="\" horiz-adv-x="1062" 
d="M623 -244l-367 1581h197l366 -1581h-196z" />
    <glyph glyph-name="bracketright" unicode="]" horiz-adv-x="757" 
d="M262 1411h488l-367 -1726h-487l38 184h279l289 1358h-279z" />
    <glyph glyph-name="asciicircum" unicode="^" horiz-adv-x="1550" 
d="M453 436h-238l451 819h225l444 -819h-235l-314 598h-16z" />
    <glyph glyph-name="underscore" unicode="_" horiz-adv-x="1228" 
d="M-207 -352l31 147h1251l-31 -147h-1251z" />
    <glyph glyph-name="grave" unicode="`" 
d="M360 1427h244l164 -299h-190z" />
    <glyph glyph-name="a" unicode="a" horiz-adv-x="1236" 
d="M762 0q-3 30 2 115q-177 -135 -361 -135q-71 0 -136 20t-118 57.5t-84.5 99t-31.5 138.5q0 108 64 187t164.5 116t221.5 37q90 0 189.5 -24.5t173.5 -86.5l28 117q5 25 5 41q0 54 -44 91.5t-103.5 52t-127.5 14.5q-90 0 -186 -25.5t-154 -56.5l-37 182q73 33 176 57.5
t207 24.5q58 0 120 -8t129.5 -28t120 -50t86.5 -79t34 -109q0 -22 -4 -48t-13 -68t-12 -57l-84 -397q-23 -108 -12 -178h-213zM248 313q0 -79 69 -120t166 -41q55 1 109.5 15.5t97 37.5t64 36.5t37.5 26.5l20 101q-53 54 -141.5 78t-173.5 24q-66 0 -119 -14t-91 -51
t-38 -93z" />
    <glyph glyph-name="b" unicode="b" horiz-adv-x="1286" 
d="M936 565q0 120 -54 195.5t-157 75.5q-76 0 -160.5 -41.5t-152.5 -118.5l-78 -383q42 -57 120 -98t160 -41q96 0 171.5 60.5t113 153t37.5 197.5zM117 272l245 1162h211l-120 -568q76 74 155.5 115t177.5 41q175 0 279 -126t104 -318q0 -114 -39.5 -223t-108 -195
t-171 -138.5t-219.5 -52.5q-114 0 -206.5 48.5t-141.5 136.5q-13 -70 -50 -154h-194q43 102 78 272z" />
    <glyph glyph-name="c" unicode="c" horiz-adv-x="1140" 
d="M1112 834l-166 -125q-49 56 -124.5 91.5t-162.5 35.5q-94 0 -173.5 -55.5t-123 -144.5t-43.5 -187q0 -120 75.5 -207.5t201.5 -87.5q141 0 285 106l108 -147q-52 -47 -165 -95.5t-255 -48.5q-221 0 -352 129.5t-131 347.5q0 147 77 279.5t213.5 214.5t295.5 82
q130 0 244.5 -48.5t195.5 -139.5z" />
    <glyph glyph-name="d" unicode="d" horiz-adv-x="1284" 
d="M1288 1434l-246 -1162q-39 -176 -41 -272h-194q-3 50 16 137q-71 -68 -120 -99q-110 -69 -232 -69q-176 0 -282.5 127t-106.5 312q0 109 40.5 218.5t109.5 197.5t173 143t220 55q188 0 333 -162l119 574h211zM922 702q-47 54 -122.5 94t-156.5 40q-74 0 -137 -36.5
t-103.5 -95t-63 -130t-22.5 -142.5q0 -72 21.5 -132.5t74 -103t128.5 -42.5q142 0 299 161z" />
    <glyph glyph-name="e" unicode="e" horiz-adv-x="1212" 
d="M901 258l111 -149q-117 -65 -232.5 -102.5t-259.5 -37.5q-133 0 -233 63.5t-150.5 167.5t-50.5 230q0 160 75.5 296.5t205.5 216t284 79.5q92 0 172 -25t145.5 -76t103.5 -137.5t38 -199.5q0 -62 -12 -135h-799q0 -122 71 -207.5t191 -85.5q67 0 135 17.5t109 36t96 48.5
zM653 846q-117 0 -202 -64t-123 -168h555q10 111 -59 171.5t-171 60.5z" />
    <glyph glyph-name="f" unicode="f" horiz-adv-x="743" 
d="M156 989h184l39 180q13 62 41 112t63 82t78 53.5t84 30.5t82 9q57 0 118.5 -14.5t88.5 -32.5l-76 -176q-17 14 -58.5 25.5t-72.5 11.5q-55 0 -91 -26t-46 -75l-39 -180h258l-35 -166h-258l-174 -823h-211l174 823h-184z" />
    <glyph glyph-name="g" unicode="g" horiz-adv-x="1284" 
d="M756 -76l45 199q-158 -154 -332 -154q-177 0 -281 126.5t-104 316.5q0 154 67.5 293.5t191.5 228t273 88.5q116 0 209.5 -52t145.5 -134q15 78 49 153h194q-41 -98 -77 -272l-174 -815q-39 -179 -176.5 -273t-335.5 -94q-127 0 -244 39.5t-205 120.5l113 147
q60 -60 155.5 -94.5t194.5 -34.5q126 0 197.5 57t93.5 154zM317 424q0 -120 54 -195t157 -75q77 0 161.5 41t152.5 118l80 381q-42 58 -122 100t-163 42q-96 0 -170.5 -61t-112 -154t-37.5 -197z" />
    <glyph glyph-name="h" unicode="h" horiz-adv-x="1234" 
d="M55 0l305 1434h211l-120 -564q83 70 161 111t166 41q130 0 222 -90.5t92 -231.5q0 -40 -23 -153l-117 -547h-213l121 569q19 82 19 123q0 75 -49.5 109.5t-120.5 34.5q-84 0 -153 -41.5t-146 -116.5l-144 -678h-211z" />
    <glyph glyph-name="i" unicode="i" horiz-adv-x="565" 
d="M268 0h-211l207 989h211zM303 1300q0 54 43.5 94t104.5 40q52 0 87 -33.5t35 -79.5q0 -55 -44 -93t-105 -38q-53 0 -87 31.5t-34 78.5z" />
    <glyph glyph-name="j" unicode="j" horiz-adv-x="565" 
d="M-176 -465l-27 166q35 7 58 14t54.5 22t52.5 35t40 54t29 78l233 1085h211l-233 -1085q-20 -97 -67.5 -171.5t-107.5 -116t-121.5 -61.5t-121.5 -20zM301 1300q0 54 43.5 94t104.5 40q52 0 87 -33.5t35 -79.5q0 -55 -44 -93t-105 -38q-53 0 -87 31.5t-34 78.5z" />
    <glyph glyph-name="k" unicode="k" horiz-adv-x="1142" 
d="M881 989h284l-467 -368l320 -621h-240l-243 492l-195 -152l-72 -340h-213l305 1434h213l-180 -848z" />
    <glyph glyph-name="l" unicode="l" horiz-adv-x="583" 
d="M276 0h-210l305 1434h211z" />
    <glyph glyph-name="m" unicode="m" horiz-adv-x="1845" 
d="M59 0l156 741q28 142 31 248h188q3 -37 -8 -141q178 174 336 174q97 0 169.5 -57t104.5 -152q195 209 375 209q120 0 205.5 -91.5t85.5 -232.5q0 -40 -23 -153l-116 -545h-213l116 545q23 106 23 139q0 72 -43 112t-109 40q-135 0 -282 -164l-140 -672h-213l138 647
q19 88 -28.5 138.5t-125.5 50.5q-125 0 -272 -158l-144 -678h-211z" />
    <glyph glyph-name="n" unicode="n" horiz-adv-x="1239" 
d="M780 1022q132 0 224 -91t92 -233q0 -40 -23 -153l-117 -545h-213l117 545q0 2 4 20.5t8 37.5t7.5 43.5t3.5 41.5q0 72 -50.5 110t-125.5 38q-78 0 -147.5 -41t-145.5 -117l-144 -678h-211l156 741q28 142 31 248h188q3 -37 -8 -141q191 174 354 174z" />
    <glyph glyph-name="o" unicode="o" horiz-adv-x="1263" 
d="M88 451q0 156 74.5 286.5t208.5 207.5t299 77q216 0 345.5 -136.5t129.5 -342.5q0 -157 -75 -288.5t-210 -208.5t-301 -77q-215 0 -343 136.5t-128 345.5zM307 459q0 -133 72.5 -223.5t198.5 -90.5q156 0 253 114.5t97 275.5q0 131 -73.5 221t-203.5 90
q-101 0 -181 -54.5t-121.5 -142.5t-41.5 -190z" />
    <glyph glyph-name="p" unicode="p" horiz-adv-x="1284" 
d="M-35 -424l246 1141q39 187 41 272h194q2 -46 -14 -133q66 63 108 91q114 75 242 75q176 0 282.5 -127t106.5 -313q0 -110 -40 -219.5t-109.5 -197t-172.5 -142t-220 -54.5q-193 0 -334 160l-119 -553h-211zM416 678l-82 -385q49 -56 122.5 -97.5t153.5 -41.5
q141 -1 233.5 123t92.5 280q0 115 -56 197t-165 82q-144 0 -299 -158z" />
    <glyph glyph-name="q" unicode="q" horiz-adv-x="1284" 
d="M317 422q0 -117 54.5 -192.5t158.5 -75.5q75 0 159.5 41t152.5 118l80 381q-42 58 -122 100t-163 42q-96 0 -171 -61t-112 -154t-37 -199zM1137 717l-244 -1141h-211l119 547q-158 -154 -332 -154q-177 0 -281 126.5t-104 316.5q0 91 25 180t72.5 166t112 136.5t150 93.5
t179.5 34q114 0 206.5 -49t141.5 -137q7 44 49 153h194q-41 -98 -77 -272z" />
    <glyph glyph-name="r" unicode="r" horiz-adv-x="817" 
d="M678 815q-119 0 -270 -168l-138 -647h-211l152 717q30 148 33 272h194q0 -34 -16 -166q5 6 26.5 32.5t27.5 33.5t25.5 29.5t29 29.5t28.5 23.5t32.5 22t33 14t39 11.5t41.5 3q101 0 139 -41l-43 -197q-20 13 -59.5 22t-63.5 9z" />
    <glyph glyph-name="s" unicode="s" horiz-adv-x="1142" 
d="M1049 866l-113 -153q-71 58 -180.5 97.5t-202.5 39.5q-74 0 -127 -27t-53 -80q0 -29 16.5 -51.5t47.5 -36.5t61 -22t71 -15q44 -8 62.5 -11t62 -13t66 -17.5t60 -22t57.5 -29.5t46 -38t39.5 -48.5t23 -60t9.5 -73.5q0 -157 -127.5 -248.5t-326.5 -91.5
q-148 0 -288.5 52.5t-244.5 150.5l113 151q84 -77 200 -127.5t228 -50.5q57 0 106 13t85 46.5t36 82.5q0 34 -16.5 58t-49.5 39.5t-64 23.5t-79 16h-1h-1l-1 1h-1h-1h-1h-1h-1l-1 1q-170 29 -242 62q-157 71 -158 233q0 145 109.5 227t289.5 82q130 0 261.5 -43t230.5 -117z
" />
    <glyph glyph-name="t" unicode="t" horiz-adv-x="794" 
d="M102 823l35 166h182l64 293h211l-64 -293h263l-35 -166h-262l-117 -559q-6 -21 -6 -47q0 -72 98 -72q28 0 76.5 5.5t68.5 11.5l-14 -166q-29 -16 -94 -26.5t-117 -10.5q-64 0 -114 18t-85.5 67.5t-35.5 127.5q0 38 8 74l121 577h-183z" />
    <glyph glyph-name="u" unicode="u" horiz-adv-x="1239" 
d="M1149 989l-152 -717q-39 -179 -41 -272h-194q-4 43 16 139q-186 -170 -350 -170q-133 0 -224 91t-91 233q0 45 22 153l117 543h213l-117 -545q-22 -97 -22 -133q0 -81 50.5 -119t125.5 -38q78 0 148 41t145 116l143 678h211z" />
    <glyph glyph-name="v" unicode="v" horiz-adv-x="1144" 
d="M946 989h232l-650 -989h-176l-225 989h225l137 -696h13z" />
    <glyph glyph-name="w" unicode="w" horiz-adv-x="1617" 
d="M793 989h200l62 -708h12l338 708h235l-546 -989h-213l-50 678h-12l-340 -678h-213l-116 989h217l65 -708h12z" />
    <glyph glyph-name="x" unicode="x" horiz-adv-x="1181" 
d="M932 989h276l-497 -481l303 -508h-258l-195 373l-356 -373h-277l525 508l-303 481h262l188 -348z" />
    <glyph glyph-name="y" unicode="y" horiz-adv-x="1118" 
d="M496 303h12l453 686h233l-973 -1413h-231l360 506l-225 907h225z" />
    <glyph glyph-name="z" unicode="z" horiz-adv-x="1075" 
d="M901 166l-35 -166h-874l26 125l684 698h-540l35 166h833l-26 -125l-682 -698h579z" />
    <glyph glyph-name="braceleft" unicode="{" horiz-adv-x="794" 
d="M563 -131l-39 -184q-216 0 -300.5 39t-84.5 155q0 53 19 137l55 260q6 34 6 62q0 137 -184 137l39 180q90 0 168 58t98 151l45 211q23 107 56 171.5t94 102.5t142.5 51t213.5 13l-39 -184q-134 0 -185.5 -29t-72.5 -125l-45 -211q-27 -124 -110 -204.5t-175 -86.5l-2 -16
q79 -2 125.5 -41t46.5 -133q0 -45 -12 -107l-55 -260q-7 -40 -7 -57q1 -54 45.5 -72t157.5 -18z" />
    <glyph glyph-name="bar" unicode="|" horiz-adv-x="716" 
d="M264 -629v2482h195v-2482h-195z" />
    <glyph glyph-name="braceright" unicode="}" horiz-adv-x="792" 
d="M-106 -315l38 184q129 0 184 28.5t74 118.5l56 260q59 277 282 281l2 16q-73 5 -121.5 62.5t-48.5 150.5q0 38 9 78l45 211q6 30 6 55q0 59 -45 79t-154 20l39 184q212 0 295.5 -41t83.5 -160q0 -66 -16 -137l-45 -211q-5 -35 -5 -41q0 -76 53 -122t132 -46l-39 -180
q-219 0 -262 -199l-58 -260q-19 -86 -44 -142t-60.5 -94.5t-93 -58.5t-128.5 -28t-179 -8z" />
    <glyph glyph-name="asciitilde" unicode="~" horiz-adv-x="1550" 
d="M258 389l-156 100q114 130 210 193t198 63q167 0 324 -141q33 -28 50.5 -41.5t58 -32t79.5 -18.5q110 0 264 160l162 -101q-232 -264 -434 -264q-25 0 -49.5 3.5t-44.5 7.5t-42.5 13l-37.5 15t-35 19t-30 19t-28.5 20.5t-24 19.5t-22 19.5t-18.5 15.5q-100 82 -180 82
q-95 0 -244 -152z" />
    <glyph glyph-name="nbspace" unicode="&#xa0;" horiz-adv-x="460" 
 />
    <glyph glyph-name="exclamdown" unicode="&#xa1;" horiz-adv-x="628" 
d="M352 1014q64 0 106 -39t42 -96q0 -66 -52.5 -114t-125.5 -48q-64 0 -107 40t-43 97q0 66 53 113t127 47zM344 553l-74 -584l-69 -323h-250l69 323l177 584h147z" />
    <glyph glyph-name="cent" unicode="&#xa2;" horiz-adv-x="1210" 
d="M774 1133h154l-64 -203q153 -41 260 -148l-161 -125q-72 64 -156 91l-189 -594q151 3 287 96l113 -146q-48 -44 -158 -88.5t-250 -44.5q-33 0 -49 2l-80 -258h-153l88 283q-153 43 -238.5 155t-85.5 271q0 102 45 198.5t121.5 170t185 118.5t228.5 45q31 0 45 -2z
M326 424q0 -74 39.5 -141t109.5 -101l184 588q-94 -1 -171.5 -51.5t-119.5 -129.5t-42 -165z" />
    <glyph glyph-name="sterling" unicode="&#xa3;" horiz-adv-x="1474" 
d="M131 539l33 163h250l26 150q15 87 67.5 156.5t124.5 110.5t150 62t154 21q109 0 233.5 -41.5t233.5 -111.5l-148 -158q-84 48 -182.5 78t-171.5 30q-83 0 -152.5 -38.5t-80.5 -108.5l-27 -150h516l-33 -163h-510l-24 -146q-15 -95 -65 -144t-156 -67h909l-33 -182h-1225
l35 182h80q114 0 158.5 44t66.5 167l25 146h-254z" />
    <glyph glyph-name="currency" unicode="&#xa4;" horiz-adv-x="1673" 
d="M266 481q0 210 146 375l-189 221l174 115l174 -203q148 90 316 90q192 0 332 -118l219 169l147 -147l-237 -184q53 -109 53 -226q0 -206 -150 -376l193 -224l-178 -108l-174 201q-155 -89 -320 -89q-188 0 -330 119l-213 -166l-147 148l233 180q-49 101 -49 223zM496 483
q0 -123 81.5 -211t196.5 -88q159 0 277 114t118 273q0 124 -83.5 212.5t-200.5 88.5q-157 0 -273 -115t-116 -274z" />
    <glyph glyph-name="yen" unicode="&#xa5;" horiz-adv-x="1605" 
d="M141 651l27 144h350l-223 368h270l258 -430l443 430h288l-376 -368h344l-27 -144h-465l-123 -121l-4 -12h563l-28 -143h-566l-81 -375h-228l80 375h-557l27 143h561l4 12l-74 121h-463z" />
    <glyph glyph-name="brokenbar" unicode="&#xa6;" horiz-adv-x="716" 
d="M264 788v844h195v-844h-195zM264 -467v860h195v-860h-195z" />
    <glyph glyph-name="section" unicode="&#xa7;" horiz-adv-x="1460" 
d="M1167 147q-41 -28 -137 -69q8 -13 17 -41q8 -24 8 -66q0 -101 -61.5 -172t-156 -102t-212.5 -31q-130 0 -256 38t-228 110l127 143q166 -104 357 -104q200 0 200 108q0 21 -10 31q-7 9 -18 16.5t-27.5 14.5t-31 12t-38.5 11t-39 9t-44 9.5t-44 9.5q-63 14 -109.5 27
t-114.5 38t-122.5 62t-89.5 84q-53 72 -53 164q0 78 40.5 149t115.5 127q46 36 133 68q-5 6 -15 36q-10 35 -10 74q0 99 66 169.5t163 102t211 31.5q125 0 249.5 -38t224.5 -109l-125 -144q-175 109 -363 109q-168 0 -190 -92q-8 -34 6 -51q5 -7 12.5 -13t18.5 -11.5l20 -10
t25.5 -9t27 -7.5t31.5 -7.5t32.5 -7t36.5 -7.5t37 -7q331 -67 437 -213q51 -70 51 -160q0 -84 -40.5 -157.5t-111.5 -123.5zM793 602q-9 2 -49.5 10t-55.5 11t-51 12t-57 16t-48.5 18t-50.5 23q-31 -16 -49 -28q-115 -84 -115 -185q0 -53 29 -86q21 -28 52 -49.5t74.5 -36
t69.5 -21t72 -16.5q12 -2 53.5 -10.5t57 -12t50 -12t54.5 -15.5t46 -17.5t47 -22.5q25 13 51 31q114 84 114 182q0 48 -28 88q-34 47 -103.5 74t-162.5 47z" />
    <glyph glyph-name="dieresis" unicode="&#xa8;" 
d="M313 1253q0 51 40.5 89t97.5 38q50 0 82 -32t32 -76q0 -52 -40.5 -87.5t-98.5 -35.5q-50 0 -81.5 29.5t-31.5 74.5zM748 1253q0 51 40 89t97 38q50 0 82 -32t32 -76q0 -52 -40.5 -87.5t-98.5 -35.5q-50 0 -81 29.5t-31 74.5z" />
    <glyph glyph-name="copyright" unicode="&#xa9;" horiz-adv-x="2070" 
d="M1436 848l-78 -141q-136 124 -328 124q-127 0 -207 -81t-80 -199q0 -113 84 -182.5t209 -69.5q76 0 140.5 18t101.5 38.5t90 58.5l78 -142q-88 -69 -178.5 -104t-231.5 -35q-204 0 -343.5 116.5t-139.5 301.5q0 190 132 318t345 128q108 0 216 -41.5t190 -107.5z
M1034 1397q245 0 454 -113t331.5 -308.5t122.5 -426.5t-122.5 -426t-331.5 -307.5t-454 -112.5q-247 0 -457 112.5t-333 307.5t-123 426q0 173 72.5 330.5t195 270.5t291.5 180t354 67zM1034 1251q-200 0 -371 -95t-271.5 -257t-100.5 -350q0 -190 100.5 -351.5
t271.5 -255.5t371 -94q150 0 287 55.5t235.5 149.5t157 223.5t58.5 272.5q0 141 -58.5 271t-157 224.5t-235.5 150.5t-287 56z" />
    <glyph glyph-name="ordfeminine" unicode="&#xaa;" horiz-adv-x="944" 
d="M260 973l-31 153q52 23 132.5 40.5t160.5 17.5q56 0 115.5 -9.5t120.5 -30.5t100 -62t39 -95q0 -17 -3.5 -38.5t-10.5 -50.5t-9 -40l-59 -274q-16 -70 -6 -133h-184v77q-38 -29 -67 -47t-80 -35.5t-103 -17.5q-71 0 -134 26t-106 81.5t-43 128.5q0 114 98.5 177.5
t239.5 63.5q160 0 256 -63l21 69l2 20v1q0 35 -30.5 58.5t-71.5 32.5t-89 9q-67 0 -141.5 -18.5t-116.5 -40.5zM432 580q52 0 104.5 20t74.5 35t38 29l10 47q-33 23 -101 39t-122 16q-150 0 -157 -82q-4 -52 42.5 -78t110.5 -26z" />
    <glyph glyph-name="guillemotleft" unicode="&#xab;" horiz-adv-x="1216" 
d="M348 809h254l-313 -307l-2 -17l186 -284h-233l-162 250l22 106zM590 496l2 16l295 297h254l-314 -307l-2 -17l187 -284h-234z" />
    <glyph glyph-name="logicalnot" unicode="&#xac;" horiz-adv-x="1550" 
d="M1364 231h-209v416h-971v191h1180v-607z" />
    <glyph glyph-name="registered" unicode="&#xae;" horiz-adv-x="1286" 
d="M657 418q-205 0 -339 126t-134 314q0 137 78 257t210.5 191.5t285.5 71.5q204 0 341.5 -129.5t137.5 -312.5q0 -140 -79.5 -260t-213.5 -189t-287 -69zM666 502q128 0 239 57.5t176.5 156t65.5 214.5q0 153 -113 260.5t-284 107.5q-126 0 -236 -59.5t-175 -159.5
t-65 -213q0 -155 111.5 -259.5t280.5 -104.5zM526 672h-110l114 481h304q71 0 115 -40t44 -97q0 -51 -41 -95t-104 -61l74 -188h-121l-66 182h-166zM618 1063l-26 -117h201q33 0 62.5 17.5t29.5 44.5q0 23 -18 39t-44 16h-205z" />
    <glyph glyph-name="macron" unicode="&#xaf;" 
d="M406 1346h534l-35 -164h-534z" />
    <glyph glyph-name="degree" unicode="&#xb0;" horiz-adv-x="1001" 
d="M612 1300q174 0 268.5 -88.5t94.5 -224.5q0 -74 -29.5 -141.5t-83.5 -119.5t-137.5 -83t-185.5 -31q-174 0 -268.5 89t-94.5 223q0 158 116.5 267t319.5 109zM557 776q106 0 167.5 57t61.5 140q0 71 -49.5 117.5t-142.5 46.5q-106 0 -167.5 -57.5t-61.5 -141.5
q0 -71 50 -116.5t142 -45.5z" />
    <glyph glyph-name="plusminus" unicode="&#xb1;" horiz-adv-x="1550" 
d="M184 647v191h488v336h207v-336h485v-191h-485v-336h-207v336h-488zM184 0v190h1180v-190h-1180z" />
    <glyph glyph-name="two.superior" unicode="&#xb2;" horiz-adv-x="974" 
d="M317 1094l-84 149q61 32 95.5 48.5t91.5 38.5t112.5 32t114.5 10q42 0 87 -7t95 -25t89 -45t64.5 -71.5t25.5 -99.5q0 -259 -455 -327q-52 -8 -84.5 -16.5t-68 -25t-58 -45.5t-35.5 -71l-8 -29h580l-35 -159h-774l41 192q17 80 64 141.5t115.5 99t139.5 59t154 32.5
q7 0 37.5 6.5t74 19t76.5 40t33 61.5q0 27 -18.5 46t-47 28t-54 12.5t-48.5 3.5q-149 0 -320 -98z" />
    <glyph glyph-name="three.superior" unicode="&#xb3;" horiz-adv-x="1095" 
d="M354 1087l-94 134q230 149 438 149q55 0 115.5 -15t118 -43.5t94.5 -78t37 -111.5q0 -63 -33.5 -119.5t-91.5 -78.5q46 -19 79.5 -66t33.5 -129q0 -100 -66 -172t-171 -105.5t-234 -33.5q-335 0 -519 246l148 127q68 -94 169 -144.5t224 -50.5q110 0 181 35.5t71 99.5
q0 40 -25.5 65t-53.5 32.5t-58 7.5h-174l37 159h172q46 0 75 23.5t29 64.5q0 38 -29.5 64t-66.5 35.5t-76 9.5q-158 0 -330 -105z" />
    <glyph glyph-name="acute" unicode="&#xb4;" 
d="M680 1128h-191l164 299h244z" />
    <glyph glyph-name="mu" unicode="&#xb5;" horiz-adv-x="1251" 
d="M1147 989l-152 -717q-39 -179 -41 -272h-194q-4 43 16 139q-186 -170 -350 -170q-48 0 -93.5 16.5t-70.5 47.5l-108 -504h-213l309 1460h213l-117 -545q-22 -97 -22 -131q0 -71 52.5 -115t127.5 -44q132 0 289 157l143 678h211z" />
    <glyph glyph-name="paragraph" unicode="&#xb6;" horiz-adv-x="1798" 
d="M961 -422h-191l203 950h-420q-95 0 -180.5 42t-142 128t-56.5 197q0 196 115.5 319t326.5 123h1119l-375 -1759h-189l336 1575h-213zM1106 1153h-485q-43 0 -84 -13.5t-76 -40t-56.5 -72.5t-21.5 -105q-1 -96 64 -152.5t147 -56.5h418z" />
    <glyph glyph-name="periodcentered" unicode="&#xb7;" horiz-adv-x="1550" 
d="M592 530q0 68 52.5 117t129.5 49q76 0 129 -49t53 -117q0 -69 -52.5 -116t-129.5 -47q-78 0 -130 47t-52 116z" />
    <glyph glyph-name="cedilla" unicode="&#xb8;" 
d="M389 39h146l-117 -160q32 4 49 4q76 0 135.5 -43t59.5 -112q0 -87 -91 -139t-231 -52q-63 0 -129 13.5t-103 26t-112 40.5l57 111q155 -50 219 -59q34 -5 64 -5q61 0 97 17t36 49q0 59 -115 59q-12 0 -33 -1t-28 -1l-41 70z" />
    <glyph glyph-name="one.superior" unicode="&#xb9;" horiz-adv-x="647" 
d="M158 1065v162l276 110h201l-184 -886h-201l149 706z" />
    <glyph glyph-name="ordmasculine" unicode="&#xba;" horiz-adv-x="952" 
d="M129 774q0 169 132 289.5t306 120.5q151 0 254 -99t103 -245q0 -113 -61.5 -208.5t-163 -149.5t-216.5 -54q-151 0 -252.5 99t-101.5 247zM317 780q0 -87 47.5 -141.5t133.5 -54.5q112 0 175.5 71.5t63.5 178.5q0 85 -49 139.5t-139 54.5q-106 0 -169 -72t-63 -176z" />
    <glyph glyph-name="guillemotright" unicode="&#xbb;" horiz-adv-x="1218" 
d="M842 201h-254l313 307l2 16l-186 285h233l162 -250l-22 -106zM600 514l-2 -16l-295 -297h-254l313 307l3 16l-187 285h234z" />
    <glyph glyph-name="onequarter" unicode="&#xbc;" horiz-adv-x="2191" 
d="M156 1065v162l276 110h201l-184 -886h-201l149 706zM1249 1337h181l-900 -1337h-182zM2087 348l-35 -162h-176l-39 -186h-199l39 186h-673l28 136l823 565h170l-114 -539h176zM1337 352v-4h375l60 281h-17z" />
    <glyph glyph-name="onehalf" unicode="&#xbd;" horiz-adv-x="2064" 
d="M156 1065v162l276 110h201l-184 -886h-201l149 706zM1249 1337h181l-900 -1337h-182zM1313 643l-84 150q61 32 95 48t91 38.5t112.5 32.5t114.5 10q42 0 87 -7t95 -25t89 -45t64.5 -71.5t25.5 -99.5q0 -260 -455 -328q-52 -8 -84.5 -16.5t-67.5 -25t-57.5 -45.5
t-35.5 -71l-9 -28h580l-35 -160h-774l41 193q17 80 64 141t115.5 98.5t139.5 59t154 32.5q7 0 37.5 6.5t74 19t76.5 40t33 61.5q0 27 -18.5 46t-47 28t-54 12.5t-48.5 3.5q-148 0 -319 -98z" />
    <glyph glyph-name="threequarters" unicode="&#xbe;" horiz-adv-x="2643" 
d="M352 1087l-94 134q230 149 438 149q55 0 115.5 -15t118 -43.5t94.5 -78t37 -111.5q0 -63 -33.5 -119.5t-91.5 -78.5q46 -19 79.5 -66t33.5 -129q0 -100 -66 -172t-171 -105.5t-234 -33.5q-335 0 -519 246l148 127q68 -94 169 -144.5t224 -50.5q110 0 181 35.5t71 99.5
q0 40 -25.5 65t-53.5 32.5t-58 7.5h-174l37 159h172q46 0 75 23.5t29 64.5q0 38 -29.5 64t-66.5 35.5t-76 9.5q-158 0 -330 -105zM1702 1337h180l-899 -1337h-182zM2540 348l-35 -162h-176l-39 -186h-199l39 186h-674l29 136l823 565h170l-115 -539h177zM1790 352v-4h375
l59 281h-16z" />
    <glyph glyph-name="questiondown" unicode="&#xbf;" horiz-adv-x="1187" 
d="M797 -49l114 -146q-135 -100 -257.5 -150t-286.5 -50q-52 0 -104.5 8t-108.5 29.5t-99 54.5t-70.5 87t-27.5 122q0 189 160 303q41 29 103 60t112 55t99.5 55t84.5 74.5t49 99.5h205q-9 -78 -42 -141t-76.5 -102t-100.5 -74.5t-108 -57t-106.5 -49.5t-88.5 -53
q-80 -59 -80 -137q0 -52 35.5 -87.5t79.5 -49t90 -13.5q123 0 221.5 41t202.5 121zM860 879q0 -66 -52.5 -114t-125.5 -48q-64 0 -107 40t-43 97q0 66 53.5 113t127.5 47q64 0 105.5 -38.5t41.5 -96.5z" />
    <glyph glyph-name="Agrave" unicode="&#xc0;" horiz-adv-x="1531" 
d="M-80 0l905 1337h209l336 -1337h-240l-83 360h-639l-236 -360h-252zM870 1063l-342 -518h476l-121 518h-13zM932 1761l205 -266h-205l-279 266h279z" />
    <glyph glyph-name="Aacute" unicode="&#xc1;" horiz-adv-x="1531" 
d="M-80 0l905 1337h209l336 -1337h-240l-83 360h-639l-236 -360h-252zM870 1063l-342 -518h476l-121 518h-13zM999 1495h-202l204 266h279z" />
    <glyph glyph-name="Acircumflex" unicode="&#xc2;" horiz-adv-x="1531" 
d="M-80 0l905 1337h209l336 -1337h-240l-83 360h-639l-236 -360h-252zM870 1063l-342 -518h476l-121 518h-13zM635 1495l270 272h238l149 -272h-157l-125 152l-193 -152h-182z" />
    <glyph glyph-name="Atilde" unicode="&#xc3;" horiz-adv-x="1531" 
d="M-80 0l905 1337h209l336 -1337h-240l-83 360h-639l-236 -360h-252zM870 1063l-342 -518h476l-121 518h-13zM731 1493l-121 74q77 97 142 138.5t131 41.5q70 0 133 -53q4 -3 16.5 -13t17 -13.5t15.5 -10.5t17.5 -9.5t16.5 -5t19 -2.5q23 0 49 16t41 31t43 46l113 -70
q-138 -182 -272 -182q-74 0 -134 49q-5 4 -17 14.5t-17 14.5t-14.5 11t-16 9.5t-15.5 5t-18 2.5q-12 0 -24.5 -4.5t-21.5 -10t-22 -17t-19.5 -18.5t-21.5 -22.5t-20 -21.5z" />
    <glyph glyph-name="Adieresis" unicode="&#xc4;" horiz-adv-x="1531" 
d="M-80 0l905 1337h209l336 -1337h-240l-83 360h-639l-236 -360h-252zM870 1063l-342 -518h476l-121 518h-13zM649 1618q0 52 40.5 89.5t98.5 37.5q49 0 82 -32.5t33 -76.5q0 -52 -40.5 -87.5t-98.5 -35.5q-50 0 -82.5 30t-32.5 75zM1083 1618q0 51 41 89t99 38
q48 0 81 -32.5t33 -76.5q0 -52 -40.5 -87.5t-98.5 -35.5q-50 0 -82.5 30t-32.5 75z" />
    <glyph glyph-name="Aring" unicode="&#xc5;" horiz-adv-x="1531" 
d="M-80 0l905 1337h209l336 -1337h-240l-83 360h-639l-236 -360h-252zM870 1063l-342 -518h476l-121 518h-13zM860 1620q0 -44 33.5 -72t87.5 -28q62 0 103.5 33.5t41.5 86.5q0 47 -33.5 79t-86.5 32q-61 0 -103.5 -38.5t-42.5 -92.5zM971 1421q-113 0 -175.5 55t-62.5 136
q0 97 76.5 165t206.5 68q114 0 176.5 -56t62.5 -140q0 -95 -77.5 -161.5t-206.5 -66.5z" />
    <glyph glyph-name="AE" unicode="&#xc6;" horiz-adv-x="2205" 
d="M-133 0l1173 1337h1198l-43 -204h-856l-71 -332h514l-43 -205h-514l-84 -391h905l-43 -205h-1133l78 360h-491l-303 -360h-287zM612 545h375l129 588h-8z" />
    <glyph glyph-name="Ccedilla" unicode="&#xc7;" horiz-adv-x="1574" 
d="M1319 342l123 -152q-129 -103 -288 -167t-333 -64q-28 0 -82 4l-61 -84q32 4 49 4q76 0 135.5 -43t59.5 -112q0 -87 -91 -139t-231 -52q-63 0 -129 13.5t-103 26t-112 40.5l57 111q155 -50 219 -59q34 -5 64 -5q61 0 97 17t36 49q0 59 -115 59q-12 0 -33 -1t-28 -1
l-41 70l96 129q-219 57 -352 220.5t-133 393.5q0 148 63.5 290t171 249.5t258.5 173t316 65.5q192 0 363.5 -80t283.5 -225l-180 -115q-81 95 -207 155.5t-268 60.5q-149 0 -279.5 -78.5t-206.5 -208t-76 -273.5q0 -189 133.5 -319.5t342.5 -130.5q131 0 256 49t225 129z
" />
    <glyph glyph-name="Egrave" unicode="&#xc8;" horiz-adv-x="1445" 
d="M1022 801l-43 -205h-514l-84 -391h905l-43 -205h-1134l284 1337h1086l-43 -204h-856l-72 -332h514zM936 1761l205 -266h-205l-279 266h279z" />
    <glyph glyph-name="Eacute" unicode="&#xc9;" horiz-adv-x="1445" 
d="M1022 801l-43 -205h-514l-84 -391h905l-43 -205h-1134l284 1337h1086l-43 -204h-856l-72 -332h514zM1004 1495h-203l205 266h278z" />
    <glyph glyph-name="Ecircumflex" unicode="&#xca;" horiz-adv-x="1445" 
d="M1022 801l-43 -205h-514l-84 -391h905l-43 -205h-1134l284 1337h1086l-43 -204h-856l-72 -332h514zM639 1495l270 272h238l149 -272h-157l-125 152l-193 -152h-182z" />
    <glyph glyph-name="Edieresis" unicode="&#xcb;" horiz-adv-x="1445" 
d="M1022 801l-43 -205h-514l-84 -391h905l-43 -205h-1134l284 1337h1086l-43 -204h-856l-72 -332h514zM653 1618q0 51 41 89t99 38q48 0 81 -32.5t33 -76.5q0 -52 -40.5 -87.5t-98.5 -35.5q-50 0 -82.5 30t-32.5 75zM1087 1618q0 51 41 89t99 38q48 0 81 -32.5t33 -76.5
q0 -52 -40.5 -87.5t-98.5 -35.5q-50 0 -82.5 30t-32.5 75z" />
    <glyph glyph-name="Igrave" unicode="&#xcc;" horiz-adv-x="688" 
d="M338 0h-229l284 1337h230zM508 1761l205 -266h-205l-279 266h279z" />
    <glyph glyph-name="Iacute" unicode="&#xcd;" horiz-adv-x="688" 
d="M109 0l284 1337h230l-285 -1337h-229zM373 1495l205 266h278l-281 -266h-202z" />
    <glyph glyph-name="Icircumflex" unicode="&#xce;" horiz-adv-x="688" 
d="M338 0h-229l284 1337h230zM211 1495l270 272h238l149 -272h-157l-125 152l-193 -152h-182z" />
    <glyph glyph-name="Idieresis" unicode="&#xcf;" horiz-adv-x="688" 
d="M338 0h-229l284 1337h230zM225 1618q0 51 41 89t99 38q48 0 81 -32.5t33 -76.5q0 -52 -40.5 -87.5t-98.5 -35.5q-50 0 -82.5 30t-32.5 75zM659 1618q0 51 41 89t99 38q48 0 81 -32.5t33 -76.5q0 -52 -40.5 -87.5t-98.5 -35.5q-50 0 -82.5 30t-32.5 75z" />
    <glyph glyph-name="Eth" unicode="&#xd0;" horiz-adv-x="1734" 
d="M88 596l39 184h205l119 557h530q182 0 296.5 -43.5t205.5 -128.5q162 -162 162 -407q0 -144 -61.5 -285.5t-172.5 -249.5q-120 -110 -260.5 -166.5t-347.5 -56.5h-637l127 596h-205zM438 205h398q148 0 234 36t175 115q76 76 118 176t42 209q0 171 -107 281
q-62 57 -132.5 84t-196.5 27h-332l-76 -353h393l-39 -184h-393z" />
    <glyph glyph-name="Ntilde" unicode="&#xd1;" horiz-adv-x="1665" 
d="M109 0l284 1337h203l567 -966h2l205 966h229l-284 -1337h-203l-567 967h-2l-205 -967h-229zM795 1493l-121 74q78 97 142 138.5t130 41.5q70 0 133 -53q4 -3 14.5 -11.5t15 -11.5t13.5 -9.5t14.5 -9t13.5 -6t16 -5t16 -1.5q23 0 49 16t41 31t43 46l112 -70
q-138 -182 -272 -182q-73 0 -133 49q-5 4 -17 14.5t-17 14.5t-14.5 11t-16 9.5t-15.5 5t-18 2.5q-12 0 -24.5 -4.5t-21.5 -10t-22 -17t-19.5 -18.5t-21.5 -22.5t-20 -21.5z" />
    <glyph glyph-name="Ograve" unicode="&#xd2;" horiz-adv-x="1722" 
d="M125 612q0 154 65.5 295.5t174.5 244.5t257.5 164.5t307.5 61.5q151 0 283.5 -51t225.5 -137.5t147 -206.5t54 -254q0 -155 -66.5 -298t-177.5 -246t-260.5 -164.5t-308.5 -61.5q-151 0 -282 50.5t-223 138t-144.5 208t-52.5 256.5zM369 612q0 -186 131.5 -317
t326.5 -131q151 0 282.5 75.5t209.5 206.5t78 283q0 184 -136 314.5t-331 130.5q-113 0 -217 -44.5t-179 -120t-120 -179.5t-45 -218zM975 1761l205 -266h-205l-279 266h279z" />
    <glyph glyph-name="Oacute" unicode="&#xd3;" horiz-adv-x="1722" 
d="M125 612q0 154 65.5 295.5t174.5 244.5t257.5 164.5t307.5 61.5q151 0 283.5 -51t225.5 -137.5t147 -206.5t54 -254q0 -155 -66.5 -298t-177.5 -246t-260.5 -164.5t-308.5 -61.5q-151 0 -282 50.5t-223 138t-144.5 208t-52.5 256.5zM369 612q0 -186 131.5 -317
t326.5 -131q151 0 282.5 75.5t209.5 206.5t78 283q0 184 -136 314.5t-331 130.5q-113 0 -217 -44.5t-179 -120t-120 -179.5t-45 -218zM1042 1495h-202l204 266h279z" />
    <glyph glyph-name="Ocircumflex" unicode="&#xd4;" horiz-adv-x="1722" 
d="M125 612q0 154 65.5 295.5t174.5 244.5t257.5 164.5t307.5 61.5q151 0 283.5 -51t225.5 -137.5t147 -206.5t54 -254q0 -155 -66.5 -298t-177.5 -246t-260.5 -164.5t-308.5 -61.5q-151 0 -282 50.5t-223 138t-144.5 208t-52.5 256.5zM369 612q0 -186 131.5 -317
t326.5 -131q151 0 282.5 75.5t209.5 206.5t78 283q0 184 -136 314.5t-331 130.5q-113 0 -217 -44.5t-179 -120t-120 -179.5t-45 -218zM678 1495l270 272h238l149 -272h-157l-125 152l-193 -152h-182z" />
    <glyph glyph-name="Otilde" unicode="&#xd5;" horiz-adv-x="1722" 
d="M125 612q0 154 65.5 295.5t174.5 244.5t257.5 164.5t307.5 61.5q151 0 283.5 -51t225.5 -137.5t147 -206.5t54 -254q0 -155 -66.5 -298t-177.5 -246t-260.5 -164.5t-308.5 -61.5q-151 0 -282 50.5t-223 138t-144.5 208t-52.5 256.5zM369 612q0 -186 131.5 -317
t326.5 -131q151 0 282.5 75.5t209.5 206.5t78 283q0 184 -136 314.5t-331 130.5q-113 0 -217 -44.5t-179 -120t-120 -179.5t-45 -218zM774 1493l-121 74q77 97 142 138.5t131 41.5q70 0 133 -53q4 -3 16.5 -13t17 -13.5t15.5 -10.5t17.5 -9.5t16.5 -5t19 -2.5q23 0 49 16
t41 31t43 46l113 -70q-138 -182 -272 -182q-74 0 -134 49q-5 4 -17 14.5t-17 14.5t-14.5 11t-16 9.5t-15.5 5t-18 2.5q-12 0 -24.5 -4.5t-21.5 -10t-22 -17t-19.5 -18.5t-21.5 -22.5t-20 -21.5z" />
    <glyph glyph-name="Odieresis" unicode="&#xd6;" horiz-adv-x="1722" 
d="M125 612q0 154 65.5 295.5t174.5 244.5t257.5 164.5t307.5 61.5q151 0 283.5 -51t225.5 -137.5t147 -206.5t54 -254q0 -155 -66.5 -298t-177.5 -246t-260.5 -164.5t-308.5 -61.5q-151 0 -282 50.5t-223 138t-144.5 208t-52.5 256.5zM369 612q0 -186 131.5 -317
t326.5 -131q151 0 282.5 75.5t209.5 206.5t78 283q0 184 -136 314.5t-331 130.5q-113 0 -217 -44.5t-179 -120t-120 -179.5t-45 -218zM692 1618q0 52 40.5 89.5t98.5 37.5q49 0 82 -32.5t33 -76.5q0 -52 -40.5 -87.5t-98.5 -35.5q-50 0 -82.5 30t-32.5 75zM1126 1618
q0 51 41 89t99 38q48 0 81 -32.5t33 -76.5q0 -52 -40.5 -87.5t-98.5 -35.5q-50 0 -82.5 30t-32.5 75z" />
    <glyph glyph-name="multiply" unicode="&#xd7;" horiz-adv-x="1550" 
d="M199 891l145 137l432 -371l432 371l140 -135l-424 -363l426 -362l-144 -135l-434 368l-432 -368l-139 133l424 362z" />
    <glyph glyph-name="Oslash" unicode="&#xd8;" horiz-adv-x="1722" 
d="M1499 1483l129 -105l-180 -198q92 -89 142 -205t50 -246q0 -155 -66.5 -298t-177.5 -246t-260.5 -164.5t-308.5 -61.5q-220 0 -395 104l-186 -206l-131 102l188 207q-178 184 -178 446q0 154 65.5 295.5t174.5 244.5t257.5 164.5t307.5 61.5q207 0 385 -98zM1397 729
q0 157 -105 281l-708 -781q106 -65 243 -65q151 0 282.5 75.5t209.5 206.5t78 283zM369 612q0 -153 92 -272l702 774q-110 60 -233 60q-113 0 -217 -44.5t-179 -120t-120 -179.5t-45 -218z" />
    <glyph glyph-name="Ugrave" unicode="&#xd9;" horiz-adv-x="1591" 
d="M1321 1337h231l-190 -905q-33 -156 -122.5 -264.5t-212 -158.5t-271.5 -50q-156 0 -284 53.5t-206 159t-78 244.5q0 112 41 303l131 618h228l-135 -643q-37 -174 -37 -245q0 -138 98.5 -211.5t245.5 -73.5q143 0 244.5 73t132.5 220zM958 1761l205 -266h-205l-278 266
h278z" />
    <glyph glyph-name="Uacute" unicode="&#xda;" horiz-adv-x="1591" 
d="M1321 1337h231l-190 -905q-33 -156 -122.5 -264.5t-212 -158.5t-271.5 -50q-156 0 -284 53.5t-206 159t-78 244.5q0 112 41 303l131 618h228l-135 -643q-37 -174 -37 -245q0 -138 98.5 -211.5t245.5 -73.5q143 0 244.5 73t132.5 220zM1026 1495h-203l205 266h279z" />
    <glyph glyph-name="Ucircumflex" unicode="&#xdb;" horiz-adv-x="1591" 
d="M1321 1337h231l-190 -905q-33 -156 -122.5 -264.5t-212 -158.5t-271.5 -50q-156 0 -284 53.5t-206 159t-78 244.5q0 112 41 303l131 618h228l-135 -643q-37 -174 -37 -245q0 -138 98.5 -211.5t245.5 -73.5q143 0 244.5 73t132.5 220zM662 1495l270 272h237l150 -272h-158
l-125 152l-192 -152h-182z" />
    <glyph glyph-name="Udieresis" unicode="&#xdc;" horiz-adv-x="1591" 
d="M1321 1337h231l-190 -905q-33 -156 -122.5 -264.5t-212 -158.5t-271.5 -50q-156 0 -284 53.5t-206 159t-78 244.5q0 112 41 303l131 618h228l-135 -643q-37 -174 -37 -245q0 -138 98.5 -211.5t245.5 -73.5q143 0 244.5 73t132.5 220zM676 1618q0 52 40.5 89.5t98.5 37.5
q49 0 82 -32.5t33 -76.5q0 -52 -40.5 -87.5t-98.5 -35.5q-50 0 -82.5 30t-32.5 75zM1110 1618q0 52 40.5 89.5t98.5 37.5q49 0 82 -32.5t33 -76.5q0 -52 -40.5 -87.5t-98.5 -35.5q-50 0 -82.5 30t-32.5 75z" />
    <glyph glyph-name="Yacute" unicode="&#xdd;" horiz-adv-x="1372" 
d="M1225 1337h288l-702 -721l-131 -616h-229l131 616l-396 721h273l272 -516zM922 1495h-203l205 266h278z" />
    <glyph glyph-name="Thorn" unicode="&#xde;" horiz-adv-x="1570" 
d="M436 463h555q167 0 248 78q61 58 61 143t-55 143q-50 50 -168 50h-553zM393 1337h230l-56 -256h533q117 0 189.5 -26.5t127.5 -81.5q111 -111 111 -273q0 -169 -139 -301q-79 -74 -171 -107.5t-231 -33.5h-596l-53 -258h-229z" />
    <glyph glyph-name="germandbls" unicode="&#xdf;" horiz-adv-x="1198" 
d="M496 -18l-4 163q165 0 255.5 69.5t90.5 191.5q0 64 -25.5 118.5t-66.5 90t-81 58.5t-79 34l39 165q105 15 181.5 94t76.5 169q0 64 -42.5 105.5t-113.5 41.5q-77 0 -142 -52t-87 -151l-232 -1079h-209l234 1102q16 78 51.5 140.5t79.5 102t98 65.5t106 37t105 11
q96 0 180.5 -34t139.5 -104t55 -161q0 -117 -86.5 -219t-233.5 -147q31 -12 64.5 -31t71.5 -52.5t67 -74t48.5 -98t19.5 -121.5q0 -186 -144.5 -312.5t-359.5 -126.5q-17 0 -57 5z" />
    <glyph glyph-name="agrave" unicode="&#xe0;" horiz-adv-x="1236" 
d="M762 0q-3 30 2 115q-177 -135 -361 -135q-71 0 -136 20t-118 57.5t-84.5 99t-31.5 138.5q0 108 64 187t164.5 116t221.5 37q90 0 189.5 -24.5t173.5 -86.5l28 117q5 25 5 41q0 54 -44 91.5t-103.5 52t-127.5 14.5q-90 0 -186 -25.5t-154 -56.5l-37 182q73 33 176 57.5
t207 24.5q58 0 120 -8t129.5 -28t120 -50t86.5 -79t34 -109q0 -22 -4 -48t-13 -68t-12 -57l-84 -397q-23 -108 -12 -178h-213zM248 313q0 -79 69 -120t166 -41q55 1 109.5 15.5t97 37.5t64 36.5t37.5 26.5l20 101q-53 54 -141.5 78t-173.5 24q-66 0 -119 -14t-91 -51
t-38 -93zM469 1427h244l164 -299h-191z" />
    <glyph glyph-name="aacute" unicode="&#xe1;" horiz-adv-x="1236" 
d="M762 0q-3 30 2 115q-177 -135 -361 -135q-71 0 -136 20t-118 57.5t-84.5 99t-31.5 138.5q0 108 64 187t164.5 116t221.5 37q90 0 189.5 -24.5t173.5 -86.5l28 117q5 25 5 41q0 54 -44 91.5t-103.5 52t-127.5 14.5q-90 0 -186 -25.5t-154 -56.5l-37 182q73 33 176 57.5
t207 24.5q58 0 120 -8t129.5 -28t120 -50t86.5 -79t34 -109q0 -22 -4 -48t-13 -68t-12 -57l-84 -397q-23 -108 -12 -178h-213zM248 313q0 -79 69 -120t166 -41q55 1 109.5 15.5t97 37.5t64 36.5t37.5 26.5l20 101q-53 54 -141.5 78t-173.5 24q-66 0 -119 -14t-91 -51
t-38 -93zM788 1128h-190l164 299h244z" />
    <glyph glyph-name="acircumflex" unicode="&#xe2;" horiz-adv-x="1236" 
d="M762 0q-3 30 2 115q-177 -135 -361 -135q-71 0 -136 20t-118 57.5t-84.5 99t-31.5 138.5q0 108 64 187t164.5 116t221.5 37q90 0 189.5 -24.5t173.5 -86.5l28 117q5 25 5 41q0 54 -44 91.5t-103.5 52t-127.5 14.5q-90 0 -186 -25.5t-154 -56.5l-37 182q73 33 176 57.5
t207 24.5q58 0 120 -8t129.5 -28t120 -50t86.5 -79t34 -109q0 -22 -4 -48t-13 -68t-12 -57l-84 -397q-23 -108 -12 -178h-213zM248 313q0 -79 69 -120t166 -41q55 1 109.5 15.5t97 37.5t64 36.5t37.5 26.5l20 101q-53 54 -141.5 78t-173.5 24q-66 0 -119 -14t-91 -51
t-38 -93zM408 1130l270 279h237l150 -279h-164l-123 160l-194 -160h-176z" />
    <glyph glyph-name="atilde" unicode="&#xe3;" horiz-adv-x="1236" 
d="M762 0q-3 30 2 115q-177 -135 -361 -135q-71 0 -136 20t-118 57.5t-84.5 99t-31.5 138.5q0 108 64 187t164.5 116t221.5 37q90 0 189.5 -24.5t173.5 -86.5l28 117q5 25 5 41q0 54 -44 91.5t-103.5 52t-127.5 14.5q-90 0 -186 -25.5t-154 -56.5l-37 182q73 33 176 57.5
t207 24.5q58 0 120 -8t129.5 -28t120 -50t86.5 -79t34 -109q0 -22 -4 -48t-13 -68t-12 -57l-84 -397q-23 -108 -12 -178h-213zM248 313q0 -79 69 -120t166 -41q55 1 109.5 15.5t97 37.5t64 36.5t37.5 26.5l20 101q-53 54 -141.5 78t-173.5 24q-66 0 -119 -14t-91 -51
t-38 -93zM502 1128l-121 74q78 97 142 138.5t130 41.5q70 0 133 -53q3 -2 12.5 -10t13 -10t12 -8.5t12.5 -8.5l12 -6t13.5 -5.5t13 -3t14.5 -1.5q23 0 48.5 15.5t41.5 31t43 45.5l113 -70q-138 -182 -273 -182q-73 0 -133 49q-5 4 -20 17t-20.5 17t-17 11.5t-20.5 10
t-20 2.5q-14 0 -27 -4.5t-28.5 -17.5t-23 -20t-27 -28t-23.5 -25z" />
    <glyph glyph-name="adieresis" unicode="&#xe4;" horiz-adv-x="1236" 
d="M762 0q-3 30 2 115q-177 -135 -361 -135q-71 0 -136 20t-118 57.5t-84.5 99t-31.5 138.5q0 108 64 187t164.5 116t221.5 37q90 0 189.5 -24.5t173.5 -86.5l28 117q5 25 5 41q0 54 -44 91.5t-103.5 52t-127.5 14.5q-90 0 -186 -25.5t-154 -56.5l-37 182q73 33 176 57.5
t207 24.5q58 0 120 -8t129.5 -28t120 -50t86.5 -79t34 -109q0 -22 -4 -48t-13 -68t-12 -57l-84 -397q-23 -108 -12 -178h-213zM248 313q0 -79 69 -120t166 -41q55 1 109.5 15.5t97 37.5t64 36.5t37.5 26.5l20 101q-53 54 -141.5 78t-173.5 24q-66 0 -119 -14t-91 -51
t-38 -93zM422 1253q0 51 40 89t97 38q50 0 82.5 -32t32.5 -76q0 -52 -40.5 -87.5t-98.5 -35.5q-50 0 -81.5 29.5t-31.5 74.5zM856 1253q0 51 40 89t97 38q50 0 82.5 -32t32.5 -76q0 -52 -40.5 -87.5t-98.5 -35.5q-50 0 -81.5 29.5t-31.5 74.5z" />
    <glyph glyph-name="aring" unicode="&#xe5;" horiz-adv-x="1236" 
d="M762 0q-3 30 2 115q-177 -135 -361 -135q-71 0 -136 20t-118 57.5t-84.5 99t-31.5 138.5q0 108 64 187t164.5 116t221.5 37q90 0 189.5 -24.5t173.5 -86.5l28 117q5 25 5 41q0 54 -44 91.5t-103.5 52t-127.5 14.5q-90 0 -186 -25.5t-154 -56.5l-37 182q73 33 176 57.5
t207 24.5q58 0 120 -8t129.5 -28t120 -50t86.5 -79t34 -109q0 -22 -4 -48t-13 -68t-12 -57l-84 -397q-23 -108 -12 -178h-213zM248 313q0 -79 69 -120t166 -41q55 1 109.5 15.5t97 37.5t64 36.5t37.5 26.5l20 101q-53 54 -141.5 78t-173.5 24q-66 0 -119 -14t-91 -51
t-38 -93zM637 1309q0 -44 33.5 -72.5t87.5 -28.5q62 0 103.5 34t41.5 87q0 48 -33.5 80.5t-87.5 32.5q-60 0 -102.5 -39t-42.5 -94zM510 1300q0 97 76.5 165.5t206.5 68.5q113 0 176 -56.5t63 -140.5q0 -94 -77.5 -159.5t-206.5 -65.5q-114 0 -176 53.5t-62 134.5z" />
    <glyph glyph-name="ae" unicode="&#xe6;" horiz-adv-x="1968" 
d="M426 -31q-164 0 -278.5 86.5t-114.5 237.5q0 109 64.5 188.5t163.5 116.5t218 37q93 0 196 -25t177 -88q1 12 14 70.5t13 85.5q0 57 -44 95t-103 52.5t-128 14.5q-90 0 -186 -25.5t-154 -56.5l-37 182q73 33 176 57.5t211 24.5q52 0 103 -6t112.5 -21t112 -48t78.5 -81
l14 -28q66 94 166.5 139t216.5 45q67 0 129.5 -14.5t122 -48t103 -82.5t70 -124t26.5 -167q0 -57 -13 -137h-808v-7q0 -51 16.5 -99.5t49.5 -91.5t90 -69t130 -26q143 0 326 102l110 -149q-239 -140 -458 -140q-265 0 -381 178q-100 -75 -238.5 -126.5t-265.5 -51.5z
M473 152q90 0 200 42t191 89l-12 57q-89 73 -168.5 102t-187.5 29q-41 0 -78.5 -6t-78.5 -21.5t-66 -49t-25 -81.5q0 -78 69.5 -119.5t155.5 -41.5zM1073 614h567q10 109 -57.5 170.5t-173.5 61.5q-124 0 -208.5 -64t-127.5 -168z" />
    <glyph glyph-name="ccedilla" unicode="&#xe7;" horiz-adv-x="1140" 
d="M1112 834l-166 -125q-49 56 -124.5 91.5t-162.5 35.5q-94 0 -173.5 -55.5t-123 -144.5t-43.5 -187q0 -120 75.5 -207.5t201.5 -87.5q141 0 285 106l108 -147q-52 -47 -165 -95.5t-255 -48.5h-30l-66 -90q32 4 49 4q76 0 135.5 -43t59.5 -112q0 -87 -91 -139t-231 -52
q-63 0 -129 13.5t-103 26t-112 40.5l58 111q5 -2 28 -9.5t29.5 -9.5t27.5 -8.5t29.5 -8.5t27.5 -7.5t29 -7.5t27 -5t29 -4.5t26.5 -2.5t28.5 -1q61 0 97 17t36 49q0 59 -114 59q-12 0 -33.5 -1t-28.5 -1l-41 70l101 133q-151 41 -236.5 161.5t-85.5 294.5q0 147 77 279.5
t213.5 214.5t295.5 82q130 0 244.5 -48.5t195.5 -139.5z" />
    <glyph glyph-name="egrave" unicode="&#xe8;" horiz-adv-x="1212" 
d="M901 258l111 -149q-117 -65 -232.5 -102.5t-259.5 -37.5q-133 0 -233 63.5t-150.5 167.5t-50.5 230q0 160 75.5 296.5t205.5 216t284 79.5q92 0 172 -25t145.5 -76t103.5 -137.5t38 -199.5q0 -62 -12 -135h-799q0 -122 71 -207.5t191 -85.5q67 0 135 17.5t109 36t96 48.5
zM653 846q-117 0 -202 -64t-123 -168h555q10 111 -59 171.5t-171 60.5zM453 1427h243l164 -299h-190z" />
    <glyph glyph-name="eacute" unicode="&#xe9;" horiz-adv-x="1212" 
d="M901 258l111 -149q-117 -65 -232.5 -102.5t-259.5 -37.5q-133 0 -233 63.5t-150.5 167.5t-50.5 230q0 160 75.5 296.5t205.5 216t284 79.5q92 0 172 -25t145.5 -76t103.5 -137.5t38 -199.5q0 -62 -12 -135h-799q0 -122 71 -207.5t191 -85.5q67 0 135 17.5t109 36t96 48.5
zM653 846q-117 0 -202 -64t-123 -168h555q10 111 -59 171.5t-171 60.5zM772 1128h-190l163 299h244z" />
    <glyph glyph-name="ecircumflex" unicode="&#xea;" horiz-adv-x="1212" 
d="M901 258l111 -149q-117 -65 -232.5 -102.5t-259.5 -37.5q-133 0 -233 63.5t-150.5 167.5t-50.5 230q0 160 75.5 296.5t205.5 216t284 79.5q92 0 172 -25t145.5 -76t103.5 -137.5t38 -199.5q0 -62 -12 -135h-799q0 -122 71 -207.5t191 -85.5q67 0 135 17.5t109 36t96 48.5
zM653 846q-117 0 -202 -64t-123 -168h555q10 111 -59 171.5t-171 60.5zM391 1130l271 279h237l150 -279h-164l-123 160l-195 -160h-176z" />
    <glyph glyph-name="edieresis" unicode="&#xeb;" horiz-adv-x="1212" 
d="M901 258l111 -149q-117 -65 -232.5 -102.5t-259.5 -37.5q-133 0 -233 63.5t-150.5 167.5t-50.5 230q0 160 75.5 296.5t205.5 216t284 79.5q92 0 172 -25t145.5 -76t103.5 -137.5t38 -199.5q0 -62 -12 -135h-799q0 -122 71 -207.5t191 -85.5q67 0 135 17.5t109 36t96 48.5
zM653 846q-117 0 -202 -64t-123 -168h555q10 111 -59 171.5t-171 60.5zM406 1253q0 51 40 89t97 38q50 0 82 -32t32 -76q0 -52 -40.5 -87.5t-98.5 -35.5q-50 0 -81 29.5t-31 74.5zM840 1253q0 51 40 89t97 38q50 0 82.5 -32t32.5 -76q0 -52 -41 -87.5t-99 -35.5
q-50 0 -81 29.5t-31 74.5z" />
    <glyph glyph-name="igrave" unicode="&#xec;" horiz-adv-x="565" 
d="M268 0h-211l207 989h211zM133 1427h244l164 -299h-191z" />
    <glyph glyph-name="iacute" unicode="&#xed;" horiz-adv-x="565" 
d="M57 0l207 989h211l-207 -989h-211zM453 1128h-191l164 299h244z" />
    <glyph glyph-name="icircumflex" unicode="&#xee;" horiz-adv-x="565" 
d="M268 0h-211l207 989h211zM72 1130l270 279h238l149 -279h-164l-123 160l-194 -160h-176z" />
    <glyph glyph-name="idieresis" unicode="&#xef;" horiz-adv-x="565" 
d="M268 0h-211l207 989h211zM86 1253q0 51 40 89t97 38q50 0 82.5 -32t32.5 -76q0 -52 -40.5 -87.5t-98.5 -35.5q-50 0 -81.5 29.5t-31.5 74.5zM520 1253q0 51 40 89t97 38q50 0 82.5 -32t32.5 -76q0 -52 -40.5 -87.5t-98.5 -35.5q-50 0 -81.5 29.5t-31.5 74.5z" />
    <glyph glyph-name="eth" unicode="&#xf0;" horiz-adv-x="1275" 
d="M401 1049l-32 141l252 86q-86 77 -177 137l242 41q107 -86 133 -111l273 95l34 -142l-192 -65q207 -247 207 -588q0 -348 -185 -526q-157 -148 -403 -148q-213 0 -338 132t-125 329q0 234 147.5 392.5t370.5 158.5q110 0 179.5 -36.5t121.5 -100.5q-35 158 -174 317z
M311 442q0 -123 69.5 -204.5t186.5 -81.5q145 0 246 104q100 103 100 248q0 123 -77 205t-203 82q-139 0 -230.5 -103t-91.5 -250z" />
    <glyph glyph-name="ntilde" unicode="&#xf1;" horiz-adv-x="1239" 
d="M780 1022q132 0 224 -91t92 -233q0 -40 -23 -153l-117 -545h-213l117 545q0 2 4 20.5t8 37.5t7.5 43.5t3.5 41.5q0 72 -50.5 110t-125.5 38q-78 0 -147.5 -41t-145.5 -117l-144 -678h-211l156 741q28 142 31 248h188q3 -37 -8 -141q191 174 354 174zM502 1128l-121 74
q78 97 142 138.5t130 41.5q70 0 133 -53q3 -2 12.5 -10t13 -10t12 -8.5t12.5 -8.5l12 -6t13.5 -5.5t13 -3t14.5 -1.5q23 0 48.5 15.5t41.5 31t43 45.5l113 -70q-138 -182 -273 -182q-73 0 -133 49q-5 4 -20 17t-20.5 17t-17 11.5t-20.5 10t-20 2.5q-14 0 -27 -4.5
t-28.5 -17.5t-23 -20t-27 -28t-23.5 -25z" />
    <glyph glyph-name="ograve" unicode="&#xf2;" horiz-adv-x="1263" 
d="M88 451q0 156 74.5 286.5t208.5 207.5t299 77q216 0 345.5 -136.5t129.5 -342.5q0 -157 -75 -288.5t-210 -208.5t-301 -77q-215 0 -343 136.5t-128 345.5zM307 459q0 -133 72.5 -223.5t198.5 -90.5q156 0 253 114.5t97 275.5q0 131 -73.5 221t-203.5 90
q-101 0 -181 -54.5t-121.5 -142.5t-41.5 -190zM455 1427h243l164 -299h-190z" />
    <glyph glyph-name="oacute" unicode="&#xf3;" horiz-adv-x="1263" 
d="M88 451q0 156 74.5 286.5t208.5 207.5t299 77q216 0 345.5 -136.5t129.5 -342.5q0 -157 -75 -288.5t-210 -208.5t-301 -77q-215 0 -343 136.5t-128 345.5zM307 459q0 -133 72.5 -223.5t198.5 -90.5q156 0 253 114.5t97 275.5q0 131 -73.5 221t-203.5 90
q-101 0 -181 -54.5t-121.5 -142.5t-41.5 -190zM774 1128h-190l164 299h243z" />
    <glyph glyph-name="ocircumflex" unicode="&#xf4;" horiz-adv-x="1263" 
d="M88 451q0 156 74.5 286.5t208.5 207.5t299 77q216 0 345.5 -136.5t129.5 -342.5q0 -157 -75 -288.5t-210 -208.5t-301 -77q-215 0 -343 136.5t-128 345.5zM307 459q0 -133 72.5 -223.5t198.5 -90.5q156 0 253 114.5t97 275.5q0 131 -73.5 221t-203.5 90
q-101 0 -181 -54.5t-121.5 -142.5t-41.5 -190zM393 1130l271 279h237l150 -279h-164l-123 160l-195 -160h-176z" />
    <glyph glyph-name="otilde" unicode="&#xf5;" horiz-adv-x="1263" 
d="M88 451q0 156 74.5 286.5t208.5 207.5t299 77q216 0 345.5 -136.5t129.5 -342.5q0 -157 -75 -288.5t-210 -208.5t-301 -77q-215 0 -343 136.5t-128 345.5zM307 459q0 -133 72.5 -223.5t198.5 -90.5q156 0 253 114.5t97 275.5q0 131 -73.5 221t-203.5 90
q-101 0 -181 -54.5t-121.5 -142.5t-41.5 -190zM487 1128l-120 74q78 97 142 138.5t130 41.5q70 0 133 -53q3 -3 14 -11.5t15 -11t13 -9t14.5 -9t14 -6t16 -5t15.5 -1.5q23 0 48.5 15.5t42 31.5t43.5 45l112 -70q-138 -182 -272 -182q-73 0 -133 49q-5 4 -17 14.5t-17 14.5
t-15 11t-16.5 10t-15.5 5.5t-18 2.5q-14 0 -27 -4.5t-28.5 -17.5t-23 -20t-27 -28t-23.5 -25z" />
    <glyph glyph-name="odieresis" unicode="&#xf6;" horiz-adv-x="1263" 
d="M88 451q0 156 74.5 286.5t208.5 207.5t299 77q216 0 345.5 -136.5t129.5 -342.5q0 -157 -75 -288.5t-210 -208.5t-301 -77q-215 0 -343 136.5t-128 345.5zM307 459q0 -133 72.5 -223.5t198.5 -90.5q156 0 253 114.5t97 275.5q0 131 -73.5 221t-203.5 90
q-101 0 -181 -54.5t-121.5 -142.5t-41.5 -190zM408 1253q0 51 40 89t97 38q50 0 82 -32t32 -76q0 -52 -40.5 -87.5t-98.5 -35.5q-50 0 -81 29.5t-31 74.5zM842 1253q0 51 40 89t97 38q50 0 82.5 -32t32.5 -76q0 -52 -41 -87.5t-99 -35.5q-50 0 -81 29.5t-31 74.5z" />
    <glyph glyph-name="divide" unicode="&#xf7;" horiz-adv-x="1550" 
d="M184 436v189h1180v-189h-1180zM625 129q0 58 43.5 98.5t107.5 40.5t108 -41t44 -98q0 -58 -43.5 -97.5t-108.5 -39.5q-64 0 -107.5 39t-43.5 98zM625 930q0 59 43.5 99t107.5 40t108 -40t44 -99q0 -57 -44 -97t-108 -40t-107.5 40t-43.5 97z" />
    <glyph glyph-name="oslash" unicode="&#xf8;" horiz-adv-x="1263" 
d="M133 -123l-100 82l160 174q-103 127 -103 318q0 156 74.5 286.5t208.5 207.5t299 77q148 0 266 -72l149 164l101 -82l-154 -168q113 -132 113 -321q0 -157 -75 -288.5t-210 -208.5t-301 -77q-154 0 -272 78zM578 145q156 0 254 114.5t98 275.5q0 96 -41 170l-467 -510
q66 -50 156 -50zM309 459q0 -95 33 -162l461 506q-65 43 -150 43q-101 0 -181 -54.5t-121.5 -142.5t-41.5 -190z" />
    <glyph glyph-name="ugrave" unicode="&#xf9;" horiz-adv-x="1239" 
d="M1149 989l-152 -717q-39 -179 -41 -272h-194q-4 43 16 139q-186 -170 -350 -170q-133 0 -224 91t-91 233q0 45 22 153l117 543h213l-117 -545q-22 -97 -22 -133q0 -81 50.5 -119t125.5 -38q78 0 148 41t145 116l143 678h211zM469 1427h244l164 -299h-191z" />
    <glyph glyph-name="uacute" unicode="&#xfa;" horiz-adv-x="1239" 
d="M1149 989l-152 -717q-39 -179 -41 -272h-194q-4 43 16 139q-186 -170 -350 -170q-133 0 -224 91t-91 233q0 45 22 153l117 543h213l-117 -545q-22 -97 -22 -133q0 -81 50.5 -119t125.5 -38q78 0 148 41t145 116l143 678h211zM788 1128h-190l164 299h244z" />
    <glyph glyph-name="ucircumflex" unicode="&#xfb;" horiz-adv-x="1239" 
d="M1149 989l-152 -717q-39 -179 -41 -272h-194q-4 43 16 139q-186 -170 -350 -170q-133 0 -224 91t-91 233q0 45 22 153l117 543h213l-117 -545q-22 -97 -22 -133q0 -81 50.5 -119t125.5 -38q78 0 148 41t145 116l143 678h211zM408 1130l270 279h237l150 -279h-164
l-123 160l-194 -160h-176z" />
    <glyph glyph-name="udieresis" unicode="&#xfc;" horiz-adv-x="1239" 
d="M1149 989l-152 -717q-39 -179 -41 -272h-194q-4 43 16 139q-186 -170 -350 -170q-133 0 -224 91t-91 233q0 45 22 153l117 543h213l-117 -545q-22 -97 -22 -133q0 -81 50.5 -119t125.5 -38q78 0 148 41t145 116l143 678h211zM422 1253q0 51 40 89t97 38q50 0 82.5 -32
t32.5 -76q0 -52 -40.5 -87.5t-98.5 -35.5q-50 0 -81.5 29.5t-31.5 74.5zM856 1253q0 51 40 89t97 38q50 0 82.5 -32t32.5 -76q0 -52 -40.5 -87.5t-98.5 -35.5q-50 0 -81.5 29.5t-31.5 74.5z" />
    <glyph glyph-name="yacute" unicode="&#xfd;" horiz-adv-x="1118" 
d="M496 303h12l453 686h233l-973 -1413h-231l360 506l-225 907h225zM739 1128h-190l164 299h243z" />
    <glyph glyph-name="thorn" unicode="&#xfe;" horiz-adv-x="1284" 
d="M412 678l-82 -385q48 -55 123 -97t155 -42q141 -1 233.5 123t92.5 280q0 115 -56 197t-165 82q-146 0 -301 -158zM573 1434l-120 -557q65 59 107 84q102 61 220 61q176 0 282.5 -127t106.5 -313q0 -110 -40 -219.5t-109.5 -197t-172.5 -142t-220 -54.5q-193 0 -334 160
l-119 -553h-211l399 1858h211z" />
    <glyph glyph-name="ydieresis" unicode="&#xff;" horiz-adv-x="1118" 
d="M496 303h12l453 686h233l-973 -1413h-231l360 506l-225 907h225zM373 1253q0 51 40 89t97 38q50 0 82.5 -32t32.5 -76q0 -52 -41 -87.5t-99 -35.5q-50 0 -81 29.5t-31 74.5zM807 1253q0 51 40 89t97 38q50 0 82.5 -32t32.5 -76q0 -52 -40.5 -87.5t-98.5 -35.5
q-50 0 -81.5 29.5t-31.5 74.5z" />
    <glyph glyph-name="Amacron" unicode="&#x100;" horiz-adv-x="1531" 
d="M-80 0l905 1337h209l336 -1337h-240l-83 360h-639l-236 -360h-252zM870 1063l-342 -518h476l-121 518h-13zM741 1710h535l-35 -164h-534z" />
    <glyph glyph-name="amacron" unicode="&#x101;" horiz-adv-x="1236" 
d="M762 0q-3 30 2 115q-177 -135 -361 -135q-71 0 -136 20t-118 57.5t-84.5 99t-31.5 138.5q0 108 64 187t164.5 116t221.5 37q90 0 189.5 -24.5t173.5 -86.5l28 117q5 25 5 41q0 54 -44 91.5t-103.5 52t-127.5 14.5q-90 0 -186 -25.5t-154 -56.5l-37 182q73 33 176 57.5
t207 24.5q58 0 120 -8t129.5 -28t120 -50t86.5 -79t34 -109q0 -22 -4 -48t-13 -68t-12 -57l-84 -397q-23 -108 -12 -178h-213zM248 313q0 -79 69 -120t166 -41q55 1 109.5 15.5t97 37.5t64 36.5t37.5 26.5l20 101q-53 54 -141.5 78t-173.5 24q-66 0 -119 -14t-91 -51
t-38 -93zM514 1346h535l-35 -164h-535z" />
    <glyph glyph-name="Abreve" unicode="&#x102;" horiz-adv-x="1531" 
d="M-80 0l905 1337h209l336 -1337h-240l-83 360h-639l-236 -360h-252zM870 1063l-342 -518h476l-121 518h-13zM717 1763h147q-29 -143 123 -143q155 0 184 143h158q-9 -41 -24.5 -78t-44.5 -76.5t-67.5 -67.5t-98 -46t-131.5 -18q-60 0 -106.5 12.5t-74.5 34.5t-45.5 49
t-23 60.5t-4.5 65t8 64.5z" />
    <glyph glyph-name="abreve" unicode="&#x103;" horiz-adv-x="1236" 
d="M762 0q-3 30 2 115q-177 -135 -361 -135q-71 0 -136 20t-118 57.5t-84.5 99t-31.5 138.5q0 108 64 187t164.5 116t221.5 37q90 0 189.5 -24.5t173.5 -86.5l28 117q5 25 5 41q0 54 -44 91.5t-103.5 52t-127.5 14.5q-90 0 -186 -25.5t-154 -56.5l-37 182q73 33 176 57.5
t207 24.5q58 0 120 -8t129.5 -28t120 -50t86.5 -79t34 -109q0 -22 -4 -48t-13 -68t-12 -57l-84 -397q-23 -108 -12 -178h-213zM248 313q0 -79 69 -120t166 -41q55 1 109.5 15.5t97 37.5t64 36.5t37.5 26.5l20 101q-53 54 -141.5 78t-173.5 24q-66 0 -119 -14t-91 -51
t-38 -93zM487 1405h148q-30 -150 123 -150q154 0 184 150h158q-9 -42 -24.5 -79.5t-44.5 -78t-68 -69.5t-98.5 -47.5t-131.5 -18.5q-60 0 -106.5 12.5t-74.5 35.5t-45.5 51t-23 62t-4.5 66t8 66z" />
    <glyph glyph-name="Aogonek" unicode="&#x104;" horiz-adv-x="1531" 
d="M-80 0l905 1337h209l336 -1337h-74q-272 -108 -272 -236q0 -41 32 -64.5t89 -23.5q31 0 131 17l-10 -131q-98 -25 -187 -25q-117 0 -183.5 47t-66.5 125q0 54 27.5 104t74.5 89.5t93 68t100 52.5l-77 337h-639l-236 -360h-252zM870 1063l-342 -518h476l-121 518h-13z" />
    <glyph glyph-name="aogonek" unicode="&#x105;" horiz-adv-x="1236" 
d="M987 178q-23 -108 -12 -178q-273 -108 -273 -236q0 -41 32 -64.5t89 -23.5q31 0 131 17l-10 -131q-98 -25 -186 -25q-117 0 -183.5 47t-66.5 125q0 48 22 93.5t61 82t80.5 65t90.5 52.5q-3 30 2 113q-177 -135 -361 -135q-71 0 -136 20t-118 57.5t-84.5 99t-31.5 138.5
q0 108 64 187t164.5 116t221.5 37q90 0 189.5 -24.5t173.5 -86.5l28 117q5 25 5 41q0 54 -44 91.5t-103.5 52t-127.5 14.5q-90 0 -186 -25.5t-154 -56.5l-37 182q73 33 176 57.5t207 24.5q58 0 120 -8t129.5 -28t120 -50t86.5 -79t34 -109q0 -22 -4 -48t-13 -68t-12 -57z
M248 313q0 -79 69 -120t166 -41q55 1 109.5 15.5t97 37.5t64 36.5t37.5 26.5l20 101q-53 54 -141.5 78t-173.5 24q-66 0 -119 -14t-91 -51t-38 -93z" />
    <glyph glyph-name="Cacute" unicode="&#x106;" horiz-adv-x="1574" 
d="M1319 342l123 -152q-129 -103 -288 -167t-333 -64q-195 0 -353.5 78.5t-251.5 226t-93 336.5q0 148 63.5 290t171 249.5t258.5 173t316 65.5q192 0 363.5 -80t283.5 -225l-180 -115q-81 95 -207 155.5t-268 60.5q-149 0 -279.5 -78.5t-206.5 -208t-76 -273.5
q0 -189 133.5 -319.5t342.5 -130.5q131 0 256 49t225 129zM1032 1495h-203l205 266h279z" />
    <glyph glyph-name="cacute" unicode="&#x107;" horiz-adv-x="1140" 
d="M1112 834l-166 -125q-49 56 -124.5 91.5t-162.5 35.5q-94 0 -173.5 -55.5t-123 -144.5t-43.5 -187q0 -120 75.5 -207.5t201.5 -87.5q141 0 285 106l108 -147q-52 -47 -165 -95.5t-255 -48.5q-221 0 -352 129.5t-131 347.5q0 147 77 279.5t213.5 214.5t295.5 82
q130 0 244.5 -48.5t195.5 -139.5zM791 1128h-191l164 299h244z" />
    <glyph glyph-name="Ccircumflex" unicode="&#x108;" horiz-adv-x="1574" 
d="M1319 342l123 -152q-129 -103 -288 -167t-333 -64q-195 0 -353.5 78.5t-251.5 226t-93 336.5q0 148 63.5 290t171 249.5t258.5 173t316 65.5q192 0 363.5 -80t283.5 -225l-180 -115q-81 95 -207 155.5t-268 60.5q-149 0 -279.5 -78.5t-206.5 -208t-76 -273.5
q0 -189 133.5 -319.5t342.5 -130.5q131 0 256 49t225 129zM668 1495l270 272h238l149 -272h-158l-125 152l-192 -152h-182z" />
    <glyph glyph-name="ccircumflex" unicode="&#x109;" horiz-adv-x="1140" 
d="M1112 834l-166 -125q-49 56 -124.5 91.5t-162.5 35.5q-94 0 -173.5 -55.5t-123 -144.5t-43.5 -187q0 -120 75.5 -207.5t201.5 -87.5q141 0 285 106l108 -147q-52 -47 -165 -95.5t-255 -48.5q-221 0 -352 129.5t-131 347.5q0 147 77 279.5t213.5 214.5t295.5 82
q130 0 244.5 -48.5t195.5 -139.5zM410 1130l270 279h238l149 -279h-164l-123 160l-194 -160h-176z" />
    <glyph glyph-name="Cdotaccent" unicode="&#x10a;" horiz-adv-x="1574" 
d="M1319 342l123 -152q-129 -103 -288 -167t-333 -64q-195 0 -353.5 78.5t-251.5 226t-93 336.5q0 148 63.5 290t171 249.5t258.5 173t316 65.5q192 0 363.5 -80t283.5 -225l-180 -115q-81 95 -207 155.5t-268 60.5q-149 0 -279.5 -78.5t-206.5 -208t-76 -273.5
q0 -189 133.5 -319.5t342.5 -130.5q131 0 256 49t225 129zM899 1618q0 52 40.5 89.5t98.5 37.5q49 0 82 -32.5t33 -76.5q0 -52 -40.5 -87.5t-98.5 -35.5q-50 0 -82.5 30t-32.5 75z" />
    <glyph glyph-name="cdotaccent" unicode="&#x10b;" horiz-adv-x="1140" 
d="M1112 834l-166 -125q-49 56 -124.5 91.5t-162.5 35.5q-94 0 -173.5 -55.5t-123 -144.5t-43.5 -187q0 -120 75.5 -207.5t201.5 -87.5q141 0 285 106l108 -147q-52 -47 -165 -95.5t-255 -48.5q-221 0 -352 129.5t-131 347.5q0 147 77 279.5t213.5 214.5t295.5 82
q130 0 244.5 -48.5t195.5 -139.5zM645 1253q0 51 40 89t97 38q50 0 82.5 -32t32.5 -76q0 -52 -40.5 -87.5t-98.5 -35.5q-50 0 -81.5 29.5t-31.5 74.5z" />
    <glyph glyph-name="Ccaron" unicode="&#x10c;" horiz-adv-x="1574" 
d="M1319 342l123 -152q-129 -103 -288 -167t-333 -64q-195 0 -353.5 78.5t-251.5 226t-93 336.5q0 148 63.5 290t171 249.5t258.5 173t316 65.5q192 0 363.5 -80t283.5 -225l-180 -115q-81 95 -207 155.5t-268 60.5q-149 0 -279.5 -78.5t-206.5 -208t-76 -273.5
q0 -189 133.5 -319.5t342.5 -130.5q131 0 256 49t225 129zM1389 1767l-271 -272h-237l-150 272h158l125 -151l192 151h183z" />
    <glyph glyph-name="ccaron" unicode="&#x10d;" horiz-adv-x="1140" 
d="M1112 834l-166 -125q-49 56 -124.5 91.5t-162.5 35.5q-94 0 -173.5 -55.5t-123 -144.5t-43.5 -187q0 -120 75.5 -207.5t201.5 -87.5q141 0 285 106l108 -147q-52 -47 -165 -95.5t-255 -48.5q-221 0 -352 129.5t-131 347.5q0 147 77 279.5t213.5 214.5t295.5 82
q130 0 244.5 -48.5t195.5 -139.5zM1128 1409l-270 -279h-237l-150 279h164l123 -160l194 160h176z" />
    <glyph glyph-name="Dcaron" unicode="&#x10e;" horiz-adv-x="1673" 
d="M381 205h397q148 0 234.5 36t175.5 115q76 76 118 176t42 209q0 171 -107 281q-62 57 -133 84t-197 27h-331zM745 0h-636l284 1337h531q182 0 296 -43t205 -129q162 -162 162 -407q0 -144 -61 -285.5t-172 -249.5q-119 -110 -260 -166.5t-349 -56.5zM1378 1767l-270 -272
h-238l-149 272h158l125 -151l192 151h182z" />
    <glyph glyph-name="dcaron" unicode="&#x10f;" horiz-adv-x="1284" 
d="M807 0q-3 50 16 137q-71 -68 -120 -99q-110 -69 -232 -69q-176 0 -282.5 127t-106.5 312q0 109 40.5 218.5t109.5 197.5t173 143t220 55q188 0 333 -162l119 574h211l-246 -1162q-39 -176 -41 -272h-194zM541 154q142 0 299 161l82 387q-47 54 -122.5 94t-156.5 40
q-74 0 -137 -36.5t-103.5 -95t-63 -130t-22.5 -142.5q0 -72 21.5 -132.5t74 -103t128.5 -42.5zM1442 971h-119l98 463h211q-30 -144 -73.5 -252t-116.5 -211z" />
    <glyph glyph-name="Dcroat" unicode="&#x110;" horiz-adv-x="1734" 
d="M92 596l39 184h205l119 557h530q182 0 296.5 -43.5t205.5 -128.5q162 -162 162 -407q0 -144 -61.5 -285.5t-172.5 -249.5q-120 -110 -260.5 -166.5t-347.5 -56.5h-637l127 596h-205zM442 205h398q148 0 234 36t175 115q76 76 118 176t42 209q0 172 -106 281
q-62 57 -133 84t-197 27h-332l-76 -353h393l-38 -184h-394z" />
    <glyph glyph-name="dcroat" unicode="&#x111;" horiz-adv-x="1284" 
d="M1288 1434l-31 -148h150l-31 -143h-149l-185 -871q-39 -176 -41 -272h-194q-3 50 16 137q-71 -68 -120 -99q-110 -69 -232 -69q-176 0 -282.5 127t-106.5 312q0 109 40.5 218.5t109.5 197.5t173 143t220 55q188 0 333 -162l58 283h-285l31 143h285l30 148h211zM922 702
q-47 54 -122.5 94t-156.5 40q-74 0 -137 -36.5t-103.5 -95t-63 -130t-22.5 -142.5q0 -72 21.5 -132.5t74 -103t128.5 -42.5q142 0 299 161z" />
    <glyph glyph-name="Emacron" unicode="&#x112;" horiz-adv-x="1445" 
d="M1022 801l-43 -205h-514l-84 -391h905l-43 -205h-1134l284 1337h1086l-43 -204h-856l-72 -332h514zM745 1710h535l-35 -164h-534z" />
    <glyph glyph-name="emacron" unicode="&#x113;" horiz-adv-x="1212" 
d="M901 258l111 -149q-117 -65 -232.5 -102.5t-259.5 -37.5q-133 0 -233 63.5t-150.5 167.5t-50.5 230q0 160 75.5 296.5t205.5 216t284 79.5q92 0 172 -25t145.5 -76t103.5 -137.5t38 -199.5q0 -62 -12 -135h-799q0 -122 71 -207.5t191 -85.5q67 0 135 17.5t109 36t96 48.5
zM653 846q-117 0 -202 -64t-123 -168h555q10 111 -59 171.5t-171 60.5zM498 1346h534l-35 -164h-534z" />
    <glyph glyph-name="Ebreve" unicode="&#x114;" horiz-adv-x="1445" 
d="M1022 801l-43 -205h-514l-84 -391h905l-43 -205h-1134l284 1337h1086l-43 -204h-856l-72 -332h514zM721 1763h147q-29 -143 123 -143q156 0 185 143h157q-9 -41 -24.5 -78t-44.5 -76.5t-67.5 -67.5t-98 -46t-131.5 -18q-60 0 -106.5 12.5t-74.5 34.5t-45.5 49t-23 60.5
t-4.5 65t8 64.5z" />
    <glyph glyph-name="ebreve" unicode="&#x115;" horiz-adv-x="1212" 
d="M901 258l111 -149q-117 -65 -232.5 -102.5t-259.5 -37.5q-133 0 -233 63.5t-150.5 167.5t-50.5 230q0 160 75.5 296.5t205.5 216t284 79.5q92 0 172 -25t145.5 -76t103.5 -137.5t38 -199.5q0 -62 -12 -135h-799q0 -122 71 -207.5t191 -85.5q67 0 135 17.5t109 36t96 48.5
zM653 846q-117 0 -202 -64t-123 -168h555q10 111 -59 171.5t-171 60.5zM471 1405h147q-30 -150 123 -150q155 0 185 150h157q-9 -42 -24.5 -79.5t-44.5 -78t-67.5 -69.5t-98 -47.5t-131.5 -18.5q-60 0 -106.5 12.5t-74.5 35.5t-45.5 51t-23 62t-4.5 66t8 66z" />
    <glyph glyph-name="Edotaccent" unicode="&#x116;" horiz-adv-x="1445" 
d="M1022 801l-43 -205h-514l-84 -391h905l-43 -205h-1134l284 1337h1086l-43 -204h-856l-72 -332h514zM870 1618q0 51 41 89t99 38q48 0 81 -32.5t33 -76.5q0 -52 -40.5 -87.5t-98.5 -35.5q-50 0 -82.5 30t-32.5 75z" />
    <glyph glyph-name="edotaccent" unicode="&#x117;" horiz-adv-x="1212" 
d="M901 258l111 -149q-117 -65 -232.5 -102.5t-259.5 -37.5q-133 0 -233 63.5t-150.5 167.5t-50.5 230q0 160 75.5 296.5t205.5 216t284 79.5q92 0 172 -25t145.5 -76t103.5 -137.5t38 -199.5q0 -62 -12 -135h-799q0 -122 71 -207.5t191 -85.5q67 0 135 17.5t109 36t96 48.5
zM653 846q-117 0 -202 -64t-123 -168h555q10 111 -59 171.5t-171 60.5zM627 1253q0 51 40 89t97 38q50 0 82.5 -32t32.5 -76q0 -52 -41 -87.5t-99 -35.5q-50 0 -81 29.5t-31 74.5z" />
    <glyph glyph-name="Eogonek" unicode="&#x118;" horiz-adv-x="1445" 
d="M1022 801l-43 -205h-514l-84 -391h905l-43 -205h-65q-273 -108 -273 -236q0 -41 32 -64.5t89 -23.5q31 0 131 17l-10 -131q-98 -25 -186 -25q-117 0 -183.5 47t-66.5 125q0 91 71.5 164.5t175.5 126.5h-849l284 1337h1086l-43 -204h-856l-72 -332h514z" />
    <glyph glyph-name="eogonek" unicode="&#x119;" horiz-adv-x="1212" 
d="M901 258l111 -149q-133 -75 -256 -109q-273 -108 -273 -236q0 -41 32 -64.5t89 -23.5q31 0 131 17l-10 -131q-98 -25 -186 -25q-117 0 -183.5 47t-66.5 125q0 142 196 262q-185 12 -292 142t-107 317q0 160 75.5 296.5t205.5 216t284 79.5q92 0 172 -25t145.5 -76
t103.5 -137.5t38 -199.5q0 -62 -12 -135h-799q0 -122 71 -207.5t191 -85.5q67 0 135 17.5t109 36t96 48.5zM653 846q-117 0 -202 -64t-123 -168h555q10 111 -59 171.5t-171 60.5z" />
    <glyph glyph-name="Ecaron" unicode="&#x11a;" horiz-adv-x="1445" 
d="M1022 801l-43 -205h-514l-84 -391h905l-43 -205h-1134l284 1337h1086l-43 -204h-856l-72 -332h514zM1360 1767l-270 -272h-238l-150 272h158l125 -151l193 151h182z" />
    <glyph glyph-name="ecaron" unicode="&#x11b;" horiz-adv-x="1212" 
d="M901 258l111 -149q-117 -65 -232.5 -102.5t-259.5 -37.5q-133 0 -233 63.5t-150.5 167.5t-50.5 230q0 160 75.5 296.5t205.5 216t284 79.5q92 0 172 -25t145.5 -76t103.5 -137.5t38 -199.5q0 -62 -12 -135h-799q0 -122 71 -207.5t191 -85.5q67 0 135 17.5t109 36t96 48.5
zM653 846q-117 0 -202 -64t-123 -168h555q10 111 -59 171.5t-171 60.5zM1110 1409l-270 -279h-238l-149 279h163l123 -160l195 160h176z" />
    <glyph glyph-name="Gcircumflex" unicode="&#x11c;" horiz-adv-x="1660" 
d="M1585 1128l-166 -145q-75 84 -209.5 137.5t-281.5 53.5q-110 0 -213.5 -45.5t-181 -121.5t-124.5 -181t-47 -218q0 -201 140 -322.5t372 -121.5q201 0 330 72l68 305h-422l45 204h629l-138 -649q-122 -66 -265.5 -101.5t-282.5 -35.5q-146 0 -276 45.5t-227.5 127.5
t-154.5 204.5t-57 267.5q0 150 66.5 292t176.5 247.5t262 170t314 64.5q184 0 348.5 -66t294.5 -184zM688 1495l270 272h238l150 -272h-158l-125 152l-193 -152h-182z" />
    <glyph glyph-name="gcircumflex" unicode="&#x11d;" horiz-adv-x="1284" 
d="M756 -76l45 199q-158 -154 -332 -154q-177 0 -281 126.5t-104 316.5q0 154 67.5 293.5t191.5 228t273 88.5q116 0 209.5 -52t145.5 -134q15 78 49 153h194q-41 -98 -77 -272l-174 -815q-39 -179 -176.5 -273t-335.5 -94q-127 0 -244 39.5t-205 120.5l113 147
q60 -60 155.5 -94.5t194.5 -34.5q126 0 197.5 57t93.5 154zM317 424q0 -120 54 -195t157 -75q77 0 161.5 41t152.5 118l80 381q-42 58 -122 100t-163 42q-96 0 -170.5 -61t-112 -154t-37.5 -197zM426 1130l270 279h238l149 -279h-163l-123 160l-195 -160h-176z" />
    <glyph glyph-name="Gbreve" unicode="&#x11e;" horiz-adv-x="1660" 
d="M1585 1128l-166 -145q-75 84 -209.5 137.5t-281.5 53.5q-110 0 -213.5 -45.5t-181 -121.5t-124.5 -181t-47 -218q0 -201 140 -322.5t372 -121.5q201 0 330 72l68 305h-422l45 204h629l-138 -649q-122 -66 -265.5 -101.5t-282.5 -35.5q-146 0 -276 45.5t-227.5 127.5
t-154.5 204.5t-57 267.5q0 150 66.5 292t176.5 247.5t262 170t314 64.5q184 0 348.5 -66t294.5 -184zM770 1763h148q-29 -143 122 -143q156 0 185 143h157q-9 -41 -24.5 -78t-44.5 -76.5t-67.5 -67.5t-98 -46t-131.5 -18q-60 0 -106.5 12.5t-74.5 34.5t-45.5 49t-23 60.5
t-4.5 65t8 64.5z" />
    <glyph glyph-name="gbreve" unicode="&#x11f;" horiz-adv-x="1284" 
d="M756 -76l45 199q-158 -154 -332 -154q-177 0 -281 126.5t-104 316.5q0 154 67.5 293.5t191.5 228t273 88.5q116 0 209.5 -52t145.5 -134q15 78 49 153h194q-41 -98 -77 -272l-174 -815q-39 -179 -176.5 -273t-335.5 -94q-127 0 -244 39.5t-205 120.5l113 147
q60 -60 155.5 -94.5t194.5 -34.5q126 0 197.5 57t93.5 154zM317 424q0 -120 54 -195t157 -75q77 0 161.5 41t152.5 118l80 381q-42 58 -122 100t-163 42q-96 0 -170.5 -61t-112 -154t-37.5 -197zM506 1405h147q-30 -150 123 -150q155 0 185 150h157q-9 -42 -24.5 -79.5
t-44.5 -78t-67.5 -69.5t-98 -47.5t-131.5 -18.5q-60 0 -106.5 12.5t-74.5 35.5t-45.5 51t-23 62t-4.5 66t8 66z" />
    <glyph glyph-name="Gdotaccent" unicode="&#x120;" horiz-adv-x="1660" 
d="M1585 1128l-166 -145q-75 84 -209.5 137.5t-281.5 53.5q-110 0 -213.5 -45.5t-181 -121.5t-124.5 -181t-47 -218q0 -201 140 -322.5t372 -121.5q201 0 330 72l68 305h-422l45 204h629l-138 -649q-122 -66 -265.5 -101.5t-282.5 -35.5q-146 0 -276 45.5t-227.5 127.5
t-154.5 204.5t-57 267.5q0 150 66.5 292t176.5 247.5t262 170t314 64.5q184 0 348.5 -66t294.5 -184zM920 1618q0 52 40.5 89.5t98.5 37.5q49 0 82 -32.5t33 -76.5q0 -52 -41 -87.5t-99 -35.5q-50 0 -82 30t-32 75z" />
    <glyph glyph-name="gdotaccent" unicode="&#x121;" horiz-adv-x="1284" 
d="M756 -76l45 199q-158 -154 -332 -154q-177 0 -281 126.5t-104 316.5q0 154 67.5 293.5t191.5 228t273 88.5q116 0 209.5 -52t145.5 -134q15 78 49 153h194q-41 -98 -77 -272l-174 -815q-39 -179 -176.5 -273t-335.5 -94q-127 0 -244 39.5t-205 120.5l113 147
q60 -60 155.5 -94.5t194.5 -34.5q126 0 197.5 57t93.5 154zM317 424q0 -120 54 -195t157 -75q77 0 161.5 41t152.5 118l80 381q-42 58 -122 100t-163 42q-96 0 -170.5 -61t-112 -154t-37.5 -197zM662 1253q0 51 40 89t97 38q50 0 82 -32t32 -76q0 -52 -40.5 -87.5
t-98.5 -35.5q-50 0 -81 29.5t-31 74.5z" />
    <glyph glyph-name="uni0122" unicode="&#x122;" horiz-adv-x="1660" 
d="M1585 1128l-166 -145q-75 84 -209.5 137.5t-281.5 53.5q-110 0 -213.5 -45.5t-181 -121.5t-124.5 -181t-47 -218q0 -201 140 -322.5t372 -121.5q201 0 330 72l68 305h-422l45 204h629l-138 -649q-122 -66 -265.5 -101.5t-282.5 -35.5q-146 0 -276 45.5t-227.5 127.5
t-154.5 204.5t-57 267.5q0 150 66.5 292t176.5 247.5t262 170t314 64.5q184 0 348.5 -66t294.5 -184zM645 -129l180 43q56 -60 56 -147q0 -121 -101.5 -197t-261.5 -76q-79 0 -168 25l47 131q78 -12 115 -12q82 0 127 34t45 95q0 54 -39 104z" />
    <glyph glyph-name="uni0123" unicode="&#x123;" horiz-adv-x="1284" 
d="M844 1151l-182 -35q-68 73 -68 152q0 117 96 192.5t254 75.5q65 0 113 -14l-27 -129q-31 6 -94 6q-143 0 -143 -131q0 -58 51 -117zM756 -76l45 199q-158 -154 -332 -154q-177 0 -281 126.5t-104 316.5q0 154 67.5 293.5t191.5 228t273 88.5q116 0 209.5 -52t145.5 -134
q15 78 49 153h194q-41 -98 -77 -272l-174 -815q-39 -179 -176.5 -273t-335.5 -94q-127 0 -244 39.5t-205 120.5l113 147q60 -60 155.5 -94.5t194.5 -34.5q126 0 197.5 57t93.5 154zM317 424q0 -120 54 -195t157 -75q77 0 161.5 41t152.5 118l80 381q-42 58 -122 100t-163 42
q-96 0 -170.5 -61t-112 -154t-37.5 -197z" />
    <glyph glyph-name="Hcircumflex" unicode="&#x124;" horiz-adv-x="1644" 
d="M338 0h-229l284 1337h230l-109 -506h727l109 506h229l-285 -1337h-229l133 627h-727zM688 1495l270 272h238l150 -272h-158l-125 152l-193 -152h-182z" />
    <glyph glyph-name="hcircumflex" unicode="&#x125;" horiz-adv-x="1234" 
d="M55 0l305 1434h211l-120 -564q83 70 161 111t166 41q130 0 222 -90.5t92 -231.5q0 -40 -23 -153l-117 -547h-213l121 569q19 82 19 123q0 75 -49.5 109.5t-120.5 34.5q-84 0 -153 -41.5t-146 -116.5l-144 -678h-211zM188 1575l271 272h237l150 -272h-158l-125 151
l-192 -151h-183z" />
    <glyph glyph-name="Hbar" unicode="&#x126;" horiz-adv-x="1677" 
d="M127 963l39 184h205l41 190h229l-41 -190h727l41 190h229l-41 -190h205l-39 -184h-204l-205 -963h-230l121 565h-727l-121 -565h-229l205 963h-205zM520 770h727l41 193h-727z" />
    <glyph glyph-name="hbar" unicode="&#x127;" horiz-adv-x="1234" 
d="M55 0l244 1143h-149l30 143h150l30 148h211l-32 -148h286l-30 -143h-287l-57 -273q83 70 161 111t166 41q130 0 222 -90.5t92 -231.5q0 -40 -23 -153l-117 -547h-213l121 569q19 82 19 121q0 65 -53.5 105.5t-125.5 40.5q-132 0 -290 -158l-144 -678h-211z" />
    <glyph glyph-name="Itilde" unicode="&#x128;" horiz-adv-x="688" 
d="M338 0h-229l284 1337h230zM307 1493l-121 74q77 97 142 138.5t131 41.5q70 0 133 -53q4 -3 16.5 -13t17 -13.5t15.5 -10.5t17.5 -9.5t16.5 -5t19 -2.5q23 0 49 16t41 31t43 46l113 -70q-138 -182 -272 -182q-73 0 -133 49q-3 3 -17 14.5t-17.5 14.5t-14.5 10.5t-17 10
t-15 5t-18 2.5q-12 0 -24.5 -4.5t-21.5 -10t-22 -17t-19.5 -18.5t-21.5 -22.5t-20 -21.5z" />
    <glyph glyph-name="itilde" unicode="&#x129;" horiz-adv-x="565" 
d="M268 0h-211l207 989h211zM166 1128l-121 74q78 97 142 138.5t130 41.5q71 0 134 -53q3 -3 14 -11.5t15 -11t13 -9t14.5 -9t14 -6t16 -5t15.5 -1.5q23 0 48.5 15.5t41.5 31t43 45.5l113 -70q-138 -182 -273 -182q-73 0 -133 49q-5 4 -20 17t-20.5 17t-17 11.5t-20.5 10
t-20 2.5q-14 0 -27 -4.5t-28.5 -17.5t-23 -20t-27 -28t-23.5 -25z" />
    <glyph glyph-name="Imacron" unicode="&#x12a;" horiz-adv-x="688" 
d="M338 0h-229l284 1337h230zM317 1710h535l-35 -164h-534z" />
    <glyph glyph-name="imacron" unicode="&#x12b;" horiz-adv-x="565" 
d="M268 0h-211l207 989h211zM178 1346h535l-35 -164h-535z" />
    <glyph glyph-name="Ibreve" unicode="&#x12c;" horiz-adv-x="688" 
d="M338 0h-229l284 1337h230zM293 1763h147q-29 -143 123 -143q156 0 185 143h157q-9 -41 -24.5 -78t-44.5 -76.5t-67.5 -67.5t-98 -46t-131.5 -18q-60 0 -106.5 12.5t-74.5 34.5t-45.5 49t-23 60.5t-4.5 65t8 64.5z" />
    <glyph glyph-name="ibreve" unicode="&#x12d;" horiz-adv-x="565" 
d="M268 0h-211l207 989h211zM152 1405h147q-30 -150 123 -150q154 0 184 150h158q-9 -42 -24.5 -79.5t-44.5 -78t-68 -69.5t-98.5 -47.5t-131.5 -18.5t-123.5 18.5t-78.5 47.5t-40 69t-12.5 78.5t9.5 79.5z" />
    <glyph glyph-name="Iogonek" unicode="&#x12e;" horiz-adv-x="688" 
d="M109 0l284 1337h230l-285 -1337q-272 -108 -272 -236q0 -41 31.5 -64.5t88.5 -23.5q31 0 131 17l-10 -131q-98 -25 -186 -25q-117 0 -183.5 47t-66.5 125q0 48 21.5 93t59 81t78.5 64.5t89 52.5h-10z" />
    <glyph glyph-name="iogonek" unicode="&#x12f;" horiz-adv-x="565" 
d="M268 0q-272 -108 -272 -236q0 -41 32 -64.5t89 -23.5q31 0 131 17l-10 -131q-98 -25 -187 -25q-117 0 -183.5 47t-66.5 125q0 63 41.5 123t94.5 99t120 73l207 985h211zM303 1300q0 54 43.5 94t104.5 40q52 0 87 -33.5t35 -79.5q0 -55 -44 -93t-105 -38q-53 0 -87 31.5
t-34 78.5z" />
    <glyph glyph-name="Idotaccent" unicode="&#x130;" horiz-adv-x="688" 
d="M338 0h-229l284 1337h230zM442 1618q0 51 41 89t99 38q48 0 81 -32.5t33 -76.5q0 -52 -40.5 -87.5t-98.5 -35.5q-50 0 -82.5 30t-32.5 75z" />
    <glyph glyph-name="dotlessi" unicode="&#x131;" horiz-adv-x="565" 
d="M268 0h-211l207 989h211z" />
    <glyph glyph-name="IJ" unicode="&#x132;" horiz-adv-x="2011" 
d="M338 0h-229l284 1337h230zM1741 1337h229l-192 -917q-46 -219 -203 -340t-373 -121q-215 0 -355.5 100.5t-182.5 300.5l206 80q25 -133 113.5 -203.5t235.5 -70.5q123 0 213.5 72.5t117.5 203.5z" />
    <glyph glyph-name="ij" unicode="&#x133;" horiz-adv-x="1130" 
d="M268 0h-211l207 989h211zM303 1300q0 54 43.5 94t104.5 40q52 0 87 -33.5t35 -79.5q0 -55 -44 -93t-105 -38q-53 0 -87 31.5t-34 78.5zM389 -465l-27 166q35 7 58 14t54.5 22t52.5 35t40 54t29 78l233 1085h211l-233 -1085q-20 -97 -67.5 -171.5t-107.5 -116
t-121.5 -61.5t-121.5 -20zM866 1300q0 54 43.5 94t104.5 40q52 0 87.5 -33.5t35.5 -79.5q0 -55 -44.5 -93t-105.5 -38q-53 0 -87 31.5t-34 78.5z" />
    <glyph glyph-name="Jcircumflex" unicode="&#x134;" horiz-adv-x="1323" 
d="M1053 1337h229l-192 -917q-46 -219 -203 -340t-373 -121q-215 0 -356 100.5t-183 300.5l207 80q25 -133 113 -203.5t235 -70.5q123 0 214 73t118 203zM874 1495l271 272h237l150 -272h-158l-125 152l-192 -152h-183z" />
    <glyph glyph-name="jcircumflex" unicode="&#x135;" horiz-adv-x="565" 
d="M-176 -465l-27 166q35 7 58 14t54.5 22t52.5 35t40 54t29 78l233 1085h211l-233 -1085q-20 -97 -67.5 -171.5t-107.5 -116t-121.5 -61.5t-121.5 -20zM72 1130l270 279h238l149 -279h-164l-123 160l-194 -160h-176z" />
    <glyph glyph-name="uni0136" unicode="&#x136;" horiz-adv-x="1527" 
d="M623 1337l-140 -641l807 641h285l-645 -530l479 -807h-266l-391 672l-324 -252l-90 -420h-229l284 1337h230zM606 -129l180 43q56 -60 56 -147q0 -121 -101.5 -197t-261.5 -76q-79 0 -168 25l47 131q78 -12 115 -12q82 0 127 34t45 95q0 54 -39 104z" />
    <glyph glyph-name="uni0137" unicode="&#x137;" horiz-adv-x="1142" 
d="M881 989h284l-467 -368l320 -621h-240l-243 492l-195 -152l-72 -340h-213l305 1434h213l-180 -848zM367 -121l182 35q67 -72 67 -152q0 -117 -96 -192.5t-254 -75.5q-64 0 -112 14l26 130q36 -7 94 -7q144 0 144 131q0 58 -51 117z" />
    <glyph glyph-name="kgreenlandic" unicode="&#x138;" horiz-adv-x="1142" 
d="M881 991h284l-467 -368l320 -623h-240l-243 494l-195 -154l-72 -340h-213l211 991h213l-86 -405z" />
    <glyph glyph-name="Lacute" unicode="&#x139;" horiz-adv-x="1298" 
d="M393 1337h230l-242 -1132h821l-43 -205h-1050zM575 1495h-202l205 266h278z" />
    <glyph glyph-name="lacute" unicode="&#x13a;" horiz-adv-x="583" 
d="M276 0h-210l305 1434h211zM543 1575h-203l205 266h278z" />
    <glyph glyph-name="uni013B" unicode="&#x13b;" horiz-adv-x="1298" 
d="M393 1337h230l-242 -1132h821l-43 -205h-1050zM479 -129l180 43q56 -60 56 -147q0 -121 -101.5 -197t-261.5 -76q-79 0 -168 25l47 131q78 -12 115 -12q82 0 127 34t45 95q0 54 -39 104z" />
    <glyph glyph-name="uni013C" unicode="&#x13c;" horiz-adv-x="583" 
d="M276 0h-210l305 1434h211zM92 -121l182 35q68 -73 68 -152q0 -117 -96 -192.5t-254 -75.5q-65 0 -113 14l27 130q36 -7 94 -7q143 0 143 131q0 58 -51 117z" />
    <glyph glyph-name="Lcaron" unicode="&#x13d;" horiz-adv-x="1298" 
d="M109 0l284 1337h230l-242 -1132h821l-43 -205h-1050zM934 971h-119l98 463h211q-31 -145 -75 -252.5t-115 -210.5z" />
    <glyph glyph-name="lcaron" unicode="&#x13e;" horiz-adv-x="583" 
d="M66 0l305 1434h211l-306 -1434h-210zM735 971h-119l99 463h211q-31 -144 -75.5 -252t-115.5 -211z" />
    <glyph glyph-name="Ldot" unicode="&#x13f;" horiz-adv-x="1335" 
d="M393 1337h230l-242 -1132h821l-43 -205h-1050zM913 803q0 51 41 89t99 38q48 0 81 -32.5t33 -76.5q0 -52 -40.5 -87.5t-98.5 -35.5q-50 0 -82.5 30t-32.5 75z" />
    <glyph glyph-name="ldot" unicode="&#x140;" horiz-adv-x="667" 
d="M500 723q0 51 40 89t97 38q50 0 82.5 -32.5t32.5 -76.5q0 -52 -41 -87.5t-99 -35.5q-50 0 -81 30t-31 75zM276 0h-210l305 1434h211z" />
    <glyph glyph-name="Lslash" unicode="&#x141;" horiz-adv-x="1349" 
d="M446 1337h230l-107 -499l465 239l-41 -205l-469 -241l-90 -426h821l-43 -205h-1050l106 498l-229 -117l41 205l231 119z" />
    <glyph glyph-name="lslash" unicode="&#x142;" horiz-adv-x="663" 
d="M317 0h-211l134 623l-146 -74l-45 123l225 116l138 646h211l-113 -525l192 101l46 -123l-273 -142z" />
    <glyph glyph-name="Nacute" unicode="&#x143;" horiz-adv-x="1665" 
d="M109 0l284 1337h203l567 -966h2l205 966h229l-284 -1337h-203l-567 967h-2l-205 -967h-229zM1063 1495h-203l205 266h278z" />
    <glyph glyph-name="nacute" unicode="&#x144;" horiz-adv-x="1239" 
d="M780 1022q132 0 224 -91t92 -233q0 -40 -23 -153l-117 -545h-213l117 545q0 2 4 20.5t8 37.5t7.5 43.5t3.5 41.5q0 72 -50.5 110t-125.5 38q-78 0 -147.5 -41t-145.5 -117l-144 -678h-211l156 741q28 142 31 248h188q3 -37 -8 -141q191 174 354 174zM788 1128h-190
l164 299h244z" />
    <glyph glyph-name="uni0145" unicode="&#x145;" horiz-adv-x="1665" 
d="M109 0l284 1337h203l567 -966h2l205 966h229l-284 -1337h-203l-567 967h-2l-205 -967h-229zM608 -129l180 43q56 -60 56 -147q0 -121 -101.5 -197t-261.5 -76q-79 0 -168 25l47 131q78 -12 115 -12q82 0 127 34t45 95q0 54 -39 104z" />
    <glyph glyph-name="uni0146" unicode="&#x146;" horiz-adv-x="1239" 
d="M780 1022q132 0 224 -91t92 -233q0 -40 -23 -153l-117 -545h-213l117 545q0 2 4 20.5t8 37.5t7.5 43.5t3.5 41.5q0 72 -50.5 110t-125.5 38q-78 0 -147.5 -41t-145.5 -117l-144 -678h-211l156 741q28 142 31 248h188q3 -37 -8 -141q191 174 354 174zM383 -121l182 35
q68 -73 68 -152q0 -117 -96 -192.5t-254 -75.5q-65 0 -113 14l27 130q36 -7 94 -7q143 0 143 131q0 58 -51 117z" />
    <glyph glyph-name="Ncaron" unicode="&#x147;" horiz-adv-x="1665" 
d="M109 0l284 1337h203l567 -966h2l205 966h229l-284 -1337h-203l-567 967h-2l-205 -967h-229zM1419 1767l-270 -272h-238l-149 272h158l124 -151l193 151h182z" />
    <glyph glyph-name="ncaron" unicode="&#x148;" horiz-adv-x="1239" 
d="M780 1022q132 0 224 -91t92 -233q0 -40 -23 -153l-117 -545h-213l117 545q0 2 4 20.5t8 37.5t7.5 43.5t3.5 41.5q0 72 -50.5 110t-125.5 38q-78 0 -147.5 -41t-145.5 -117l-144 -678h-211l156 741q28 142 31 248h188q3 -37 -8 -141q191 174 354 174zM1126 1409l-270 -279
h-238l-149 279h164l123 -160l194 160h176z" />
    <glyph glyph-name="napostrophe" unicode="&#x149;" horiz-adv-x="1239" 
d="M96 1073l-61 105q42 11 87.5 34.5t84 63t39.5 80.5v14q-24 -8 -43 -8q-41 0 -67.5 28.5t-26.5 71.5q0 48 40.5 82.5t98.5 34.5q62 0 106.5 -46.5t44.5 -115.5q0 -59 -20 -110.5t-50 -87t-72.5 -66t-80.5 -48t-80 -32.5zM780 1022q132 0 224 -91t92 -233q0 -40 -23 -153
l-117 -545h-213l117 545q0 2 4 20.5t8 37.5t7.5 43.5t3.5 41.5q0 72 -50.5 110t-125.5 38q-78 0 -147.5 -41t-145.5 -117l-144 -678h-211l156 741q28 142 31 248h188q3 -37 -8 -141q191 174 354 174z" />
    <glyph glyph-name="Eng" unicode="&#x14a;" horiz-adv-x="1665" 
d="M109 0l284 1337h203l567 -966h2l205 966h229l-284 -1341q-49 -222 -208 -341.5t-392 -119.5l41 207q125 0 218.5 77t117.5 218h-2l-545 930h-2l-205 -967h-229z" />
    <glyph glyph-name="eng" unicode="&#x14b;" horiz-adv-x="1239" 
d="M518 -465l-26 166q35 7 58 14t54.5 22t52 35t39.5 54t29 78l135 641l6 29q7 29 12 59.5t5 48.5q-1 69 -54 111.5t-127 42.5q-130 0 -288 -158l-144 -678h-211l156 741q28 142 31 248h188q3 -37 -8 -141q191 174 354 174q132 0 224 -91t92 -233q0 -40 -23 -153l-137 -641
q-20 -97 -67.5 -171.5t-107.5 -116t-121.5 -61.5t-121.5 -20z" />
    <glyph glyph-name="Omacron" unicode="&#x14c;" horiz-adv-x="1722" 
d="M125 612q0 154 65.5 295.5t174.5 244.5t257.5 164.5t307.5 61.5q151 0 283.5 -51t225.5 -137.5t147 -206.5t54 -254q0 -155 -66.5 -298t-177.5 -246t-260.5 -164.5t-308.5 -61.5q-151 0 -282 50.5t-223 138t-144.5 208t-52.5 256.5zM369 612q0 -186 131.5 -317
t326.5 -131q151 0 282.5 75.5t209.5 206.5t78 283q0 184 -136 314.5t-331 130.5q-113 0 -217 -44.5t-179 -120t-120 -179.5t-45 -218zM784 1710h535l-35 -164h-534z" />
    <glyph glyph-name="omacron" unicode="&#x14d;" horiz-adv-x="1263" 
d="M88 451q0 156 74.5 286.5t208.5 207.5t299 77q216 0 345.5 -136.5t129.5 -342.5q0 -157 -75 -288.5t-210 -208.5t-301 -77q-215 0 -343 136.5t-128 345.5zM307 459q0 -133 72.5 -223.5t198.5 -90.5q156 0 253 114.5t97 275.5q0 131 -73.5 221t-203.5 90
q-101 0 -181 -54.5t-121.5 -142.5t-41.5 -190zM500 1346h534l-35 -164h-534z" />
    <glyph glyph-name="Obreve" unicode="&#x14e;" horiz-adv-x="1722" 
d="M125 612q0 154 65.5 295.5t174.5 244.5t257.5 164.5t307.5 61.5q151 0 283.5 -51t225.5 -137.5t147 -206.5t54 -254q0 -155 -66.5 -298t-177.5 -246t-260.5 -164.5t-308.5 -61.5q-151 0 -282 50.5t-223 138t-144.5 208t-52.5 256.5zM369 612q0 -186 131.5 -317
t326.5 -131q151 0 282.5 75.5t209.5 206.5t78 283q0 184 -136 314.5t-331 130.5q-113 0 -217 -44.5t-179 -120t-120 -179.5t-45 -218zM760 1763h147q-29 -143 123 -143q155 0 184 143h158q-9 -41 -24.5 -78t-44.5 -76.5t-67.5 -67.5t-98 -46t-131.5 -18q-60 0 -106.5 12.5
t-74.5 34.5t-45.5 49t-23 60.5t-4.5 65t8 64.5z" />
    <glyph glyph-name="obreve" unicode="&#x14f;" horiz-adv-x="1263" 
d="M88 451q0 156 74.5 286.5t208.5 207.5t299 77q216 0 345.5 -136.5t129.5 -342.5q0 -157 -75 -288.5t-210 -208.5t-301 -77q-215 0 -343 136.5t-128 345.5zM307 459q0 -133 72.5 -223.5t198.5 -90.5q156 0 253 114.5t97 275.5q0 131 -73.5 221t-203.5 90
q-101 0 -181 -54.5t-121.5 -142.5t-41.5 -190zM473 1405h148q-30 -150 122 -150q155 0 185 150h157q-9 -42 -24.5 -79.5t-44.5 -78t-67.5 -69.5t-98 -47.5t-131.5 -18.5q-60 0 -106.5 12.5t-74.5 35.5t-45.5 51t-23 62t-4.5 66t8 66z" />
    <glyph glyph-name="Ohungarumlaut" unicode="&#x150;" horiz-adv-x="1722" 
d="M125 612q0 154 65.5 295.5t174.5 244.5t257.5 164.5t307.5 61.5q151 0 283.5 -51t225.5 -137.5t147 -206.5t54 -254q0 -155 -66.5 -298t-177.5 -246t-260.5 -164.5t-308.5 -61.5q-151 0 -282 50.5t-223 138t-144.5 208t-52.5 256.5zM369 612q0 -186 131.5 -317
t326.5 -131q151 0 282.5 75.5t209.5 206.5t78 283q0 184 -136 314.5t-331 130.5q-113 0 -217 -44.5t-179 -120t-120 -179.5t-45 -218zM868 1489h-137l121 287h195zM1229 1489h-135l120 287h195z" />
    <glyph glyph-name="ohungarumlaut" unicode="&#x151;" horiz-adv-x="1263" 
d="M88 451q0 156 74.5 286.5t208.5 207.5t299 77q216 0 345.5 -136.5t129.5 -342.5q0 -157 -75 -288.5t-210 -208.5t-301 -77q-215 0 -343 136.5t-128 345.5zM307 459q0 -133 72.5 -223.5t198.5 -90.5q156 0 253 114.5t97 275.5q0 131 -73.5 221t-203.5 90
q-101 0 -181 -54.5t-121.5 -142.5t-41.5 -190zM582 1124h-138l121 287h195zM942 1124h-135l121 287h194z" />
    <glyph glyph-name="OE" unicode="&#x152;" horiz-adv-x="2615" 
d="M2191 801l-43 -205h-514l-84 -391h906l-43 -205h-1115l37 182q-202 -223 -508 -223q-151 0 -282 50.5t-223 138t-144.5 208t-52.5 256.5q0 154 65.5 295.5t174.5 244.5t257.5 164.5t307.5 61.5q196 0 341 -69.5t236 -225.5l56 254h1085l-43 -204h-856l-72 -332h514z
M369 612q0 -186 131.5 -317t326.5 -131q156 0 292 75.5t217 206.5t81 283q0 184 -141.5 314.5t-345.5 130.5q-113 0 -217 -44.5t-179 -120t-120 -179.5t-45 -218z" />
    <glyph glyph-name="oe" unicode="&#x153;" horiz-adv-x="2048" 
d="M559 -31q-199 0 -335 139t-136 343q0 115 48.5 221.5t128 182.5t186 121.5t219.5 45.5q123 0 231 -61t160 -162q61 101 179 162t247 61q92 0 172 -25t145.5 -76t103.5 -137.5t38 -199.5q0 -55 -13 -135h-798v-9q3 -119 74 -201.5t188 -82.5q67 0 135 17.5t109 36t96 48.5
l110 -149q-111 -65 -222 -102.5t-249 -37.5q-131 0 -233 59t-148 158q-67 -99 -187.5 -158t-248.5 -59zM575 145q104 0 186 54.5t124.5 143t42.5 192.5q0 131 -73.5 221t-203.5 90q-101 0 -181 -54.5t-121.5 -142.5t-41.5 -190q0 -134 71 -224t197 -90zM1161 614h557
q11 111 -64 171.5t-186 60.5t-190.5 -63.5t-116.5 -168.5z" />
    <glyph glyph-name="Racute" unicode="&#x154;" horiz-adv-x="1601" 
d="M1540 961q0 -149 -109.5 -268t-277.5 -158l201 -535h-252l-178 514h-478l-108 -514h-229l284 1337h719q215 0 322 -110q106 -109 106 -266zM492 719h552q106 0 187.5 62t81.5 165q0 79 -56 133q-31 30 -72 42t-116 12h-489zM1034 1495h-203l205 266h279z" />
    <glyph glyph-name="racute" unicode="&#x155;" horiz-adv-x="817" 
d="M678 815q-119 0 -270 -168l-138 -647h-211l152 717q30 148 33 272h194q0 -34 -16 -166q5 6 26.5 32.5t27.5 33.5t25.5 29.5t29 29.5t28.5 23.5t32.5 22t33 14t39 11.5t41.5 3q101 0 139 -41l-43 -197q-20 13 -59.5 22t-63.5 9zM582 1128h-191l164 299h244z" />
    <glyph glyph-name="uni0156" unicode="&#x156;" horiz-adv-x="1601" 
d="M1540 961q0 -149 -109.5 -268t-277.5 -158l201 -535h-252l-178 514h-478l-108 -514h-229l284 1337h719q215 0 322 -110q106 -109 106 -266zM492 719h552q106 0 187.5 62t81.5 165q0 79 -56 133q-31 30 -72 42t-116 12h-489zM621 -129l180 43q55 -59 55 -147
q0 -121 -101 -197t-261 -76q-79 0 -168 25l47 131q78 -12 114 -12q82 0 127 34t45 95q0 55 -38 104z" />
    <glyph glyph-name="uni0157" unicode="&#x157;" horiz-adv-x="817" 
d="M678 815q-119 0 -270 -168l-138 -647h-211l152 717q30 148 33 272h194q0 -34 -16 -166q5 6 26.5 32.5t27.5 33.5t25.5 29.5t29 29.5t28.5 23.5t32.5 22t33 14t39 11.5t41.5 3q101 0 139 -41l-43 -197q-20 13 -59.5 22t-63.5 9zM80 -121l182 35q68 -73 68 -152
q0 -117 -96 -192.5t-254 -75.5q-65 0 -113 14l27 130q36 -7 94 -7q143 0 143 131q0 58 -51 117z" />
    <glyph glyph-name="Rcaron" unicode="&#x158;" horiz-adv-x="1601" 
d="M1540 961q0 -149 -109.5 -268t-277.5 -158l201 -535h-252l-178 514h-478l-108 -514h-229l284 1337h719q215 0 322 -110q106 -109 106 -266zM492 719h552q106 0 187.5 62t81.5 165q0 79 -56 133q-31 30 -72 42t-116 12h-489zM1391 1767l-271 -272h-237l-150 272h158
l125 -151l192 151h183z" />
    <glyph glyph-name="rcaron" unicode="&#x159;" horiz-adv-x="817" 
d="M678 815q-119 0 -270 -168l-138 -647h-211l152 717q30 148 33 272h194q0 -34 -16 -166q5 6 26.5 32.5t27.5 33.5t25.5 29.5t29 29.5t28.5 23.5t32.5 22t33 14t39 11.5t41.5 3q101 0 139 -41l-43 -197q-20 13 -59.5 22t-63.5 9zM920 1409l-271 -279h-237l-150 279h164
l123 -160l194 160h177z" />
    <glyph glyph-name="Sacute" unicode="&#x15a;" horiz-adv-x="1499" 
d="M1421 1122l-172 -145q-79 99 -222 151t-296 52q-44 0 -86 -7.5t-85 -24.5t-69 -51.5t-26 -82.5q0 -45 21 -77t74.5 -55t87 -32.5t115.5 -28.5q16 -4 25 -6h1h1l1 -1h1h1h1h1h1l1 -1h1h1h2q217 -38 321 -80q255 -102 256 -325q0 -108 -43.5 -194t-120.5 -141.5t-180 -84.5
t-225 -29q-234 0 -431 88.5t-343 263.5l170 144q110 -141 265.5 -219t342.5 -78q60 0 114 9.5t104.5 30.5t81 62.5t30.5 97.5q0 51 -27.5 89.5t-85 65.5t-124 45t-165.5 36q-79 16 -123 26.5t-114.5 32t-110.5 47.5t-82.5 63.5t-62 90t-19.5 117.5q0 81 27 148t74 114.5
t112 80.5t139.5 48.5t157.5 15.5q193 0 371 -65.5t311 -190.5zM940 1495h-203l205 266h279z" />
    <glyph glyph-name="sacute" unicode="&#x15b;" horiz-adv-x="1142" 
d="M1049 866l-113 -153q-71 58 -180.5 97.5t-202.5 39.5q-74 0 -127 -27t-53 -80q0 -29 16.5 -51.5t47.5 -36.5t61 -22t71 -15q44 -8 62.5 -11t62 -13t66 -17.5t60 -22t57.5 -29.5t46 -38t39.5 -48.5t23 -60t9.5 -73.5q0 -157 -127.5 -248.5t-326.5 -91.5
q-148 0 -288.5 52.5t-244.5 150.5l113 151q84 -77 200 -127.5t228 -50.5q57 0 106 13t85 46.5t36 82.5q0 34 -16.5 58t-49.5 39.5t-64 23.5t-79 16h-1h-1l-1 1h-1h-1h-1h-1h-1l-1 1q-170 29 -242 62q-157 71 -158 233q0 145 109.5 227t289.5 82q130 0 261.5 -43t230.5 -117z
M721 1128h-191l164 299h244z" />
    <glyph glyph-name="Scircumflex" unicode="&#x15c;" horiz-adv-x="1499" 
d="M1421 1122l-172 -145q-79 99 -222 151t-296 52q-44 0 -86 -7.5t-85 -24.5t-69 -51.5t-26 -82.5q0 -45 21 -77t74.5 -55t87 -32.5t115.5 -28.5q16 -4 25 -6h1h1l1 -1h1h1h1h1h1l1 -1h1h1h2q217 -38 321 -80q255 -102 256 -325q0 -108 -43.5 -194t-120.5 -141.5t-180 -84.5
t-225 -29q-234 0 -431 88.5t-343 263.5l170 144q110 -141 265.5 -219t342.5 -78q60 0 114 9.5t104.5 30.5t81 62.5t30.5 97.5q0 51 -27.5 89.5t-85 65.5t-124 45t-165.5 36q-79 16 -123 26.5t-114.5 32t-110.5 47.5t-82.5 63.5t-62 90t-19.5 117.5q0 81 27 148t74 114.5
t112 80.5t139.5 48.5t157.5 15.5q193 0 371 -65.5t311 -190.5zM575 1495l271 272h237l150 -272h-158l-125 152l-192 -152h-183z" />
    <glyph glyph-name="scircumflex" unicode="&#x15d;" horiz-adv-x="1142" 
d="M1049 866l-113 -153q-71 58 -180.5 97.5t-202.5 39.5q-74 0 -127 -27t-53 -80q0 -29 16.5 -51.5t47.5 -36.5t61 -22t71 -15q44 -8 62.5 -11t62 -13t66 -17.5t60 -22t57.5 -29.5t46 -38t39.5 -48.5t23 -60t9.5 -73.5q0 -157 -127.5 -248.5t-326.5 -91.5
q-148 0 -288.5 52.5t-244.5 150.5l113 151q84 -77 200 -127.5t228 -50.5q57 0 106 13t85 46.5t36 82.5q0 34 -16.5 58t-49.5 39.5t-64 23.5t-79 16h-1h-1l-1 1h-1h-1h-1h-1h-1l-1 1q-170 29 -242 62q-157 71 -158 233q0 145 109.5 227t289.5 82q130 0 261.5 -43t230.5 -117z
M340 1130l270 279h238l149 -279h-163l-123 160l-195 -160h-176z" />
    <glyph glyph-name="Scedilla" unicode="&#x15e;" horiz-adv-x="1499" 
d="M1421 1122l-172 -145q-79 99 -222 151t-296 52q-44 0 -86 -7.5t-85 -24.5t-69 -51.5t-26 -82.5q0 -45 21 -77t74.5 -55t87 -32.5t115.5 -28.5q16 -4 25 -6h1h1l1 -1h1h1h1h1h1l1 -1h1h1h2q217 -38 321 -80q255 -102 256 -325q0 -108 -43.5 -194t-120.5 -141.5t-180 -84.5
t-225 -29q-36 0 -102 4l-62 -84q32 4 49 4q76 0 135.5 -43t59.5 -112q0 -87 -91 -139t-231 -52q-63 0 -129 13.5t-103 26t-112 40.5l58 111q5 -2 28 -9.5t29.5 -9.5t27.5 -8.5t29.5 -8.5t27.5 -7.5t29 -7.5t27 -5t29 -4.5t26.5 -2.5t28.5 -1q61 0 97 17t36 49q0 59 -114 59
q-12 0 -33.5 -1t-28.5 -1l-41 70l94 127q-320 65 -538 327l170 144q110 -141 265.5 -219t342.5 -78q60 0 114 9.5t104.5 30.5t81 62.5t30.5 97.5q0 51 -27.5 89.5t-85 65.5t-124 45t-165.5 36q-79 16 -123 26.5t-114.5 32t-110.5 47.5t-82.5 63.5t-62 90t-19.5 117.5
q0 81 27 148t74 114.5t112 80.5t139.5 48.5t157.5 15.5q193 0 371 -65.5t311 -190.5z" />
    <glyph glyph-name="scedilla" unicode="&#x15f;" horiz-adv-x="1142" 
d="M1049 866l-113 -153q-71 58 -180.5 97.5t-202.5 39.5q-74 0 -127 -27t-53 -80q0 -29 16.5 -51.5t47.5 -36.5t61 -22t71 -15q44 -8 62.5 -11t62 -13t66 -17.5t60 -22t57.5 -29.5t46 -38t39.5 -48.5t23 -60t9.5 -73.5q0 -157 -127.5 -248.5t-326.5 -91.5h-9l-61 -86
q32 4 49 4q76 0 135.5 -43t59.5 -112q0 -87 -91 -139t-231 -52q-63 0 -129 13.5t-103 26t-112 40.5l57 111q155 -50 219 -59q34 -5 64 -5q61 0 97 17t36 49q0 59 -114 59q-12 0 -33.5 -1t-28.5 -1l-41 70l90 120q-227 40 -387 191l113 151q84 -77 200 -127.5t228 -50.5
q57 0 106 13t85 46.5t36 82.5q0 34 -16.5 58t-49.5 39.5t-64 23.5t-79 16h-1h-1l-1 1h-1h-1h-1h-1h-1l-1 1q-170 29 -242 62q-157 71 -158 233q0 145 109.5 227t289.5 82q130 0 261.5 -43t230.5 -117z" />
    <glyph glyph-name="Scaron" unicode="&#x160;" horiz-adv-x="1499" 
d="M1421 1122l-172 -145q-79 99 -222 151t-296 52q-44 0 -86 -7.5t-85 -24.5t-69 -51.5t-26 -82.5q0 -45 21 -77t74.5 -55t87 -32.5t115.5 -28.5q16 -4 25 -6h1h1l1 -1h1h1h1h1h1l1 -1h1h1h2q217 -38 321 -80q255 -102 256 -325q0 -108 -43.5 -194t-120.5 -141.5t-180 -84.5
t-225 -29q-234 0 -431 88.5t-343 263.5l170 144q110 -141 265.5 -219t342.5 -78q60 0 114 9.5t104.5 30.5t81 62.5t30.5 97.5q0 51 -27.5 89.5t-85 65.5t-124 45t-165.5 36q-79 16 -123 26.5t-114.5 32t-110.5 47.5t-82.5 63.5t-62 90t-19.5 117.5q0 81 27 148t74 114.5
t112 80.5t139.5 48.5t157.5 15.5q193 0 371 -65.5t311 -190.5zM1296 1767l-270 -272h-238l-149 272h158l125 -151l192 151h182z" />
    <glyph glyph-name="scaron" unicode="&#x161;" horiz-adv-x="1142" 
d="M1049 866l-113 -153q-71 58 -180.5 97.5t-202.5 39.5q-74 0 -127 -27t-53 -80q0 -29 16.5 -51.5t47.5 -36.5t61 -22t71 -15q44 -8 62.5 -11t62 -13t66 -17.5t60 -22t57.5 -29.5t46 -38t39.5 -48.5t23 -60t9.5 -73.5q0 -157 -127.5 -248.5t-326.5 -91.5
q-148 0 -288.5 52.5t-244.5 150.5l113 151q84 -77 200 -127.5t228 -50.5q57 0 106 13t85 46.5t36 82.5q0 34 -16.5 58t-49.5 39.5t-64 23.5t-79 16h-1h-1l-1 1h-1h-1h-1h-1h-1l-1 1q-170 29 -242 62q-157 71 -158 233q0 145 109.5 227t289.5 82q130 0 261.5 -43t230.5 -117z
M1059 1409l-271 -279h-237l-150 279h164l123 -160l195 160h176z" />
    <glyph glyph-name="uni0162" unicode="&#x162;" horiz-adv-x="1380" 
d="M158 1133l45 204h1280l-45 -204h-525l-239 -1133l-88 -121q32 4 49 4q76 0 135 -43t59 -112q0 -87 -90.5 -139t-230.5 -52q-63 0 -129 13.5t-103 26t-112 40.5l57 111q155 -50 219 -59q34 -5 64 -5q61 0 97 17t36 49q0 59 -115 59q-12 0 -33 -1t-28 -1l-41 70l106 143
h-82l240 1133h-526z" />
    <glyph glyph-name="uni0163" unicode="&#x163;" horiz-adv-x="794" 
d="M102 823l35 166h182l64 293h211l-64 -293h263l-35 -166h-262l-117 -559q-6 -21 -6 -47q0 -72 98 -72q28 0 76.5 5.5t68.5 11.5l-14 -166q-29 -16 -94 -26.5t-117 -10.5q-18 0 -26 2l-60 -82q32 4 49 4q76 0 135.5 -43t59.5 -112q0 -87 -91 -139t-231 -52q-63 0 -129 13.5
t-103 26t-112 40.5l58 111q5 -2 28 -9.5t29.5 -9.5t27.5 -8.5t29.5 -8.5t27.5 -7.5t29 -7.5t27 -5t29 -4.5t26.5 -2.5t28.5 -1q61 0 97 17t36 49q0 59 -114 59q-12 0 -33.5 -1t-28.5 -1l-41 70l105 139q-88 51 -88 176q0 38 8 74l121 577h-183z" />
    <glyph glyph-name="Tcaron" unicode="&#x164;" horiz-adv-x="1380" 
d="M158 1133l45 204h1280l-45 -204h-525l-239 -1133h-230l240 1133h-526zM1266 1767l-271 -272h-237l-150 272h158l125 -151l192 151h183z" />
    <glyph glyph-name="tcaron" unicode="&#x165;" horiz-adv-x="794" 
d="M102 823l35 166h182l64 293h211l-64 -293h263l-35 -166h-262l-117 -559q-6 -21 -6 -47q0 -72 98 -72q28 0 76.5 5.5t68.5 11.5l-14 -166q-29 -16 -94 -26.5t-117 -10.5q-64 0 -114 18t-85.5 67.5t-35.5 127.5q0 38 8 74l121 577h-183zM807 1124h-119l98 463h211
q-30 -144 -73.5 -252t-116.5 -211z" />
    <glyph glyph-name="Tbar" unicode="&#x166;" horiz-adv-x="1380" 
d="M158 1133l45 204h1280l-45 -204h-525l-75 -353h311l-39 -184h-311l-125 -596h-230l125 596h-303l39 184h303l76 353h-526z" />
    <glyph glyph-name="tbar" unicode="&#x167;" horiz-adv-x="794" 
d="M102 823l35 166h182l64 293h211l-64 -293h263l-35 -166h-262l-54 -254h275l-31 -143h-274l-33 -162q-6 -21 -6 -47q0 -72 98 -72q28 0 76.5 5.5t68.5 11.5l-14 -166q-29 -16 -94 -26.5t-117 -10.5q-64 0 -114 18t-85.5 67.5t-35.5 127.5q0 38 8 74l37 180h-170l30 143
h170l54 254h-183z" />
    <glyph glyph-name="Utilde" unicode="&#x168;" horiz-adv-x="1591" 
d="M1321 1337h231l-190 -905q-33 -156 -122.5 -264.5t-212 -158.5t-271.5 -50q-156 0 -284 53.5t-206 159t-78 244.5q0 112 41 303l131 618h228l-135 -643q-37 -174 -37 -245q0 -138 98.5 -211.5t245.5 -73.5q143 0 244.5 73t132.5 220zM758 1493l-121 74q78 97 142 138.5
t130 41.5q70 0 133 -53q4 -3 14.5 -11.5t15 -11.5t13.5 -9.5t14.5 -9t13.5 -6t16 -5t16 -1.5q23 0 49 16t41 31t43 46l113 -70q-138 -182 -273 -182q-73 0 -133 49q-5 4 -17 14.5t-17 14.5t-14.5 11t-16 9.5t-15.5 5t-18 2.5q-12 0 -24.5 -4.5t-21.5 -10t-22 -17
t-19.5 -18.5t-21.5 -22.5t-20 -21.5z" />
    <glyph glyph-name="utilde" unicode="&#x169;" horiz-adv-x="1239" 
d="M1149 989l-152 -717q-39 -179 -41 -272h-194q-4 43 16 139q-186 -170 -350 -170q-133 0 -224 91t-91 233q0 45 22 153l117 543h213l-117 -545q-22 -97 -22 -133q0 -81 50.5 -119t125.5 -38q78 0 148 41t145 116l143 678h211zM502 1128l-121 74q78 97 142 138.5t130 41.5
q70 0 133 -53q3 -2 12.5 -10t13 -10t12 -8.5t12.5 -8.5l12 -6t13.5 -5.5t13 -3t14.5 -1.5q23 0 48.5 15.5t41.5 31t43 45.5l113 -70q-138 -182 -273 -182q-73 0 -133 49q-5 4 -20 17t-20.5 17t-17 11.5t-20.5 10t-20 2.5q-14 0 -27 -4.5t-28.5 -17.5t-23 -20t-27 -28
t-23.5 -25z" />
    <glyph glyph-name="Umacron" unicode="&#x16a;" horiz-adv-x="1591" 
d="M1321 1337h231l-190 -905q-33 -156 -122.5 -264.5t-212 -158.5t-271.5 -50q-156 0 -284 53.5t-206 159t-78 244.5q0 112 41 303l131 618h228l-135 -643q-37 -174 -37 -245q0 -138 98.5 -211.5t245.5 -73.5q143 0 244.5 73t132.5 220zM768 1710h535l-35 -164h-535z" />
    <glyph glyph-name="umacron" unicode="&#x16b;" horiz-adv-x="1239" 
d="M1149 989l-152 -717q-39 -179 -41 -272h-194q-4 43 16 139q-186 -170 -350 -170q-133 0 -224 91t-91 233q0 45 22 153l117 543h213l-117 -545q-22 -97 -22 -133q0 -81 50.5 -119t125.5 -38q78 0 148 41t145 116l143 678h211zM514 1346h535l-35 -164h-535z" />
    <glyph glyph-name="Ubreve" unicode="&#x16c;" horiz-adv-x="1591" 
d="M1321 1337h231l-190 -905q-33 -156 -122.5 -264.5t-212 -158.5t-271.5 -50q-156 0 -284 53.5t-206 159t-78 244.5q0 112 41 303l131 618h228l-135 -643q-37 -174 -37 -245q0 -138 98.5 -211.5t245.5 -73.5q143 0 244.5 73t132.5 220zM743 1763h148q-29 -143 123 -143
q155 0 184 143h158q-9 -41 -24.5 -78t-44.5 -76t-68 -67.5t-98.5 -46.5t-131.5 -18q-60 0 -106.5 12.5t-74.5 34.5t-45.5 49t-23 60.5t-4.5 65t8 64.5z" />
    <glyph glyph-name="ubreve" unicode="&#x16d;" horiz-adv-x="1239" 
d="M1149 989l-152 -717q-39 -179 -41 -272h-194q-4 43 16 139q-186 -170 -350 -170q-133 0 -224 91t-91 233q0 45 22 153l117 543h213l-117 -545q-22 -97 -22 -133q0 -81 50.5 -119t125.5 -38q78 0 148 41t145 116l143 678h211zM487 1405h148q-30 -150 123 -150
q154 0 184 150h158q-9 -42 -24.5 -79.5t-44.5 -78t-68 -69.5t-98.5 -47.5t-131.5 -18.5q-60 0 -106.5 12.5t-74.5 35.5t-45.5 51t-23 62t-4.5 66t8 66z" />
    <glyph glyph-name="Uring" unicode="&#x16e;" horiz-adv-x="1591" 
d="M1321 1337h231l-190 -905q-33 -156 -122.5 -264.5t-212 -158.5t-271.5 -50q-156 0 -284 53.5t-206 159t-78 244.5q0 112 41 303l131 618h228l-135 -643q-37 -174 -37 -245q0 -138 98.5 -211.5t245.5 -73.5q143 0 244.5 73t132.5 220zM887 1620q0 -44 33.5 -72t87.5 -28
q62 0 103.5 33.5t41.5 86.5q0 47 -34 79t-87 32q-61 0 -103 -38.5t-42 -92.5zM997 1421q-113 0 -175 55t-62 136q0 97 76 165t206 68q114 0 177 -56t63 -140q0 -95 -78 -161.5t-207 -66.5z" />
    <glyph glyph-name="uring" unicode="&#x16f;" horiz-adv-x="1239" 
d="M1149 989l-152 -717q-39 -179 -41 -272h-194q-4 43 16 139q-186 -170 -350 -170q-133 0 -224 91t-91 233q0 45 22 153l117 543h213l-117 -545q-22 -97 -22 -133q0 -81 50.5 -119t125.5 -38q78 0 148 41t145 116l143 678h211zM637 1309q0 -44 33.5 -72.5t87.5 -28.5
q62 0 103.5 34t41.5 87q0 48 -33.5 80.5t-87.5 32.5q-60 0 -102.5 -39t-42.5 -94zM510 1300q0 97 76.5 165.5t206.5 68.5q113 0 176 -56.5t63 -140.5q0 -94 -77.5 -159.5t-206.5 -65.5q-114 0 -176 53.5t-62 134.5z" />
    <glyph glyph-name="Uhungarumlaut" unicode="&#x170;" horiz-adv-x="1591" 
d="M1321 1337h231l-190 -905q-33 -156 -122.5 -264.5t-212 -158.5t-271.5 -50q-156 0 -284 53.5t-206 159t-78 244.5q0 112 41 303l131 618h228l-135 -643q-37 -174 -37 -245q0 -138 98.5 -211.5t245.5 -73.5q143 0 244.5 73t132.5 220zM852 1489h-137l121 287h194z
M1212 1489h-135l121 287h195z" />
    <glyph glyph-name="uhungarumlaut" unicode="&#x171;" horiz-adv-x="1239" 
d="M1149 989l-152 -717q-39 -179 -41 -272h-194q-4 43 16 139q-186 -170 -350 -170q-133 0 -224 91t-91 233q0 45 22 153l117 543h213l-117 -545q-22 -97 -22 -133q0 -81 50.5 -119t125.5 -38q78 0 148 41t145 116l143 678h211zM596 1124h-137l121 287h194zM956 1124h-135
l121 287h195z" />
    <glyph glyph-name="Uogonek" unicode="&#x172;" horiz-adv-x="1591" 
d="M1321 1337h231l-190 -905q-31 -147 -112.5 -252t-193.5 -157.5t-249 -61.5q-77 -37 -129.5 -87t-52.5 -110q0 -41 31.5 -64.5t88.5 -23.5q32 0 132 17l-11 -131q-98 -25 -186 -25q-117 0 -183.5 47t-66.5 125q0 145 195 260q-193 32 -315 150t-122 297q0 112 41 303
l131 618h228l-135 -643q-37 -174 -37 -245q0 -138 98.5 -211.5t245.5 -73.5q143 0 244.5 73t132.5 220z" />
    <glyph glyph-name="uogonek" unicode="&#x173;" horiz-adv-x="1239" 
d="M1149 989l-152 -717q-39 -179 -41 -272q-272 -108 -272 -236q0 -41 32 -64.5t89 -23.5q31 0 131 17l-10 -131q-98 -25 -187 -25q-117 0 -183.5 47t-66.5 125q0 50 24.5 97.5t66.5 85.5t86 66t94 52q0 46 18 129q-186 -170 -350 -170q-133 0 -224 91t-91 233q0 45 22 153
l117 543h213l-117 -545q-22 -97 -22 -133q0 -81 50.5 -119t125.5 -38q78 0 148 41t145 116l143 678h211z" />
    <glyph glyph-name="Wcircumflex" unicode="&#x174;" horiz-adv-x="2062" 
d="M233 1337h244l90 -983h13l526 983h164l108 -983h13l507 983h248l-712 -1337h-230l-102 895h-12l-484 -895h-229zM893 1495l270 272h238l149 -272h-157l-125 152l-193 -152h-182z" />
    <glyph glyph-name="wcircumflex" unicode="&#x175;" horiz-adv-x="1617" 
d="M793 989h200l62 -708h12l338 708h235l-546 -989h-213l-50 678h-12l-340 -678h-213l-116 989h217l65 -708h12zM592 1130l270 279h238l149 -279h-164l-122 160l-195 -160h-176z" />
    <glyph glyph-name="Ycircumflex" unicode="&#x176;" horiz-adv-x="1372" 
d="M1225 1337h288l-702 -721l-131 -616h-229l131 616l-396 721h273l272 -516zM557 1495l270 272h238l149 -272h-157l-125 152l-193 -152h-182z" />
    <glyph glyph-name="ycircumflex" unicode="&#x177;" horiz-adv-x="1118" 
d="M496 303h12l453 686h233l-973 -1413h-231l360 506l-225 907h225zM358 1130l271 279h237l150 -279h-164l-123 160l-194 -160h-177z" />
    <glyph glyph-name="Ydieresis" unicode="&#x178;" horiz-adv-x="1372" 
d="M1225 1337h288l-702 -721l-131 -616h-229l131 616l-396 721h273l272 -516zM571 1618q0 51 41 89t99 38q48 0 81 -32.5t33 -76.5q0 -52 -40.5 -87.5t-98.5 -35.5q-50 0 -82.5 30t-32.5 75zM1006 1618q0 52 40.5 89.5t98.5 37.5q49 0 82 -32.5t33 -76.5q0 -52 -41 -87.5
t-99 -35.5q-50 0 -82 30t-32 75z" />
    <glyph glyph-name="Zacute" unicode="&#x179;" horiz-adv-x="1363" 
d="M1202 205l-45 -205h-1153l31 143l964 990h-778l45 204h1110l-30 -143l-963 -989h819zM840 1495h-203l205 266h278z" />
    <glyph glyph-name="zacute" unicode="&#x17a;" horiz-adv-x="1075" 
d="M901 166l-35 -166h-874l26 125l684 698h-540l35 166h833l-26 -125l-682 -698h579zM686 1128h-190l163 299h244z" />
    <glyph glyph-name="Zdotaccent" unicode="&#x17b;" horiz-adv-x="1363" 
d="M1202 205l-45 -205h-1153l31 143l964 990h-778l45 204h1110l-30 -143l-963 -989h819zM707 1618q0 52 40.5 89.5t98.5 37.5q49 0 82 -32.5t33 -76.5q0 -52 -41 -87.5t-99 -35.5q-50 0 -82 30t-32 75z" />
    <glyph glyph-name="zdotaccent" unicode="&#x17c;" horiz-adv-x="1075" 
d="M901 166l-35 -166h-874l26 125l684 698h-540l35 166h833l-26 -125l-682 -698h579zM541 1253q0 51 40 89t97 38q50 0 82.5 -32t32.5 -76q0 -52 -41 -87.5t-99 -35.5q-50 0 -81 29.5t-31 74.5z" />
    <glyph glyph-name="Zcaron" unicode="&#x17d;" horiz-adv-x="1363" 
d="M1202 205l-45 -205h-1153l31 143l964 990h-778l45 204h1110l-30 -143l-963 -989h819zM1196 1767l-270 -272h-238l-149 272h157l125 -151l193 151h182z" />
    <glyph glyph-name="zcaron" unicode="&#x17e;" horiz-adv-x="1075" 
d="M901 166l-35 -166h-874l26 125l684 698h-540l35 166h833l-26 -125l-682 -698h579zM1024 1409l-270 -279h-238l-149 279h163l123 -160l195 160h176z" />
    <glyph glyph-name="Schwa" unicode="&#x18f;" horiz-adv-x="1599" 
d="M352 989l-139 154q115 105 291 170t360 65q153 0 278 -51t206 -138.5t124.5 -203t43.5 -246.5q0 -162 -63 -307t-170.5 -248.5t-256 -164t-313.5 -60.5q-93 0 -177.5 20t-161.5 64t-133 109t-89 161t-33 213q0 81 14 164h1139v10q-3 210 -115 342t-315 132
q-133 0 -267 -54t-223 -131zM743 166q168 0 297 90t189 240h-871q-7 -81 22 -146t85 -104t127 -59.5t151 -20.5z" />
    <glyph glyph-name="florin" unicode="&#x192;" horiz-adv-x="948" 
d="M117 702h227l76 240q22 70 65.5 123.5t98 82t109 42.5t108.5 14q60 0 123.5 -12.5t91.5 -26.5l-88 -176q-18 12 -64.5 21.5t-81.5 9.5q-59 0 -100 -20.5t-51 -55.5l-76 -242h260l-35 -163h-278l-170 -539q-29 -92 -80.5 -160.5t-115.5 -107.5t-131 -57.5t-138 -18.5
l16 164q37 8 56.5 13t53.5 19t54 31t42 47.5t34 69.5l170 539h-211z" />
    <glyph glyph-name="Aringacute" unicode="&#x1fa;" horiz-adv-x="1531" 
d="M-80 0l905 1337h209l336 -1337h-240l-83 360h-639l-236 -360h-252zM870 1063l-342 -518h476l-121 518h-13zM860 1620q0 -44 33.5 -72t87.5 -28q62 0 103.5 33.5t41.5 86.5q0 47 -33.5 79t-86.5 32q-61 0 -103.5 -38.5t-42.5 -92.5zM971 1421q-113 0 -175.5 55t-62.5 136
q0 97 76.5 165t206.5 68q114 0 176.5 -56t62.5 -140q0 -95 -77.5 -161.5t-206.5 -66.5zM1092 1921h-203l205 266h278z" />
    <glyph glyph-name="aringacute" unicode="&#x1fb;" horiz-adv-x="1236" 
d="M762 0q-3 30 2 115q-177 -135 -361 -135q-71 0 -136 20t-118 57.5t-84.5 99t-31.5 138.5q0 108 64 187t164.5 116t221.5 37q90 0 189.5 -24.5t173.5 -86.5l28 117q5 25 5 41q0 54 -44 91.5t-103.5 52t-127.5 14.5q-90 0 -186 -25.5t-154 -56.5l-37 182q73 33 176 57.5
t207 24.5q58 0 120 -8t129.5 -28t120 -50t86.5 -79t34 -109q0 -22 -4 -48t-13 -68t-12 -57l-84 -397q-23 -108 -12 -178h-213zM248 313q0 -79 69 -120t166 -41q55 1 109.5 15.5t97 37.5t64 36.5t37.5 26.5l20 101q-53 54 -141.5 78t-173.5 24q-66 0 -119 -14t-91 -51
t-38 -93zM637 1309q0 -44 33.5 -72.5t87.5 -28.5q62 0 103.5 34t41.5 87q0 48 -33.5 80.5t-87.5 32.5q-60 0 -102.5 -39t-42.5 -94zM510 1300q0 97 76.5 165.5t206.5 68.5q113 0 176 -56.5t63 -140.5q0 -94 -77.5 -159.5t-206.5 -65.5q-114 0 -176 53.5t-62 134.5zM870 1602
h-202l204 266h279z" />
    <glyph glyph-name="AEacute" unicode="&#x1fc;" horiz-adv-x="2207" 
d="M-131 0l1173 1337h1199l-43 -204h-857l-71 -332h514l-43 -205h-514l-84 -391h905l-43 -205h-1133l78 360h-491l-303 -360h-287zM614 545h375l129 588h-8zM1495 1495h-203l205 266h279z" />
    <glyph glyph-name="aeacute" unicode="&#x1fd;" horiz-adv-x="1968" 
d="M426 -31q-164 0 -278.5 86.5t-114.5 237.5q0 109 64.5 188.5t163.5 116.5t218 37q93 0 196 -25t177 -88q1 12 14 70.5t13 85.5q0 57 -44 95t-103 52.5t-128 14.5q-90 0 -186 -25.5t-154 -56.5l-37 182q73 33 176 57.5t211 24.5q52 0 103 -6t112.5 -21t112 -48t78.5 -81
l14 -28q66 94 166.5 139t216.5 45q67 0 129.5 -14.5t122 -48t103 -82.5t70 -124t26.5 -167q0 -57 -13 -137h-808v-7q0 -51 16.5 -99.5t49.5 -91.5t90 -69t130 -26q143 0 326 102l110 -149q-239 -140 -458 -140q-265 0 -381 178q-100 -75 -238.5 -126.5t-265.5 -51.5z
M473 152q90 0 200 42t191 89l-12 57q-89 73 -168.5 102t-187.5 29q-41 0 -78.5 -6t-78.5 -21.5t-66 -49t-25 -81.5q0 -78 69.5 -119.5t155.5 -41.5zM1073 614h567q10 109 -57.5 170.5t-173.5 61.5q-124 0 -208.5 -64t-127.5 -168zM1153 1128h-190l163 299h244z" />
    <glyph glyph-name="Oslashacute" unicode="&#x1fe;" horiz-adv-x="1722" 
d="M1499 1483l129 -105l-180 -198q92 -89 142 -205t50 -246q0 -155 -66.5 -298t-177.5 -246t-260.5 -164.5t-308.5 -61.5q-220 0 -395 104l-186 -206l-131 102l188 207q-178 184 -178 446q0 154 65.5 295.5t174.5 244.5t257.5 164.5t307.5 61.5q207 0 385 -98zM1397 729
q0 157 -105 281l-708 -781q106 -65 243 -65q151 0 282.5 75.5t209.5 206.5t78 283zM369 612q0 -153 92 -272l702 774q-110 60 -233 60q-113 0 -217 -44.5t-179 -120t-120 -179.5t-45 -218zM1042 1495h-202l204 266h279z" />
    <glyph glyph-name="oslashacute" unicode="&#x1ff;" horiz-adv-x="1263" 
d="M774 1128h-190l164 299h243zM133 -123l-100 82l160 174q-103 127 -103 318q0 156 74.5 286.5t208.5 207.5t299 77q148 0 266 -72l149 164l101 -82l-154 -168q113 -132 113 -321q0 -157 -75 -288.5t-210 -208.5t-301 -77q-154 0 -272 78zM578 145q156 0 254 114.5
t98 275.5q0 96 -41 170l-467 -510q66 -50 156 -50zM309 459q0 -95 33 -162l461 506q-65 43 -150 43q-101 0 -181 -54.5t-121.5 -142.5t-41.5 -190z" />
    <glyph glyph-name="uni0218" unicode="&#x218;" horiz-adv-x="1499" 
d="M1421 1122l-172 -145q-79 99 -222 151t-296 52q-44 0 -86 -7.5t-85 -24.5t-69 -51.5t-26 -82.5q0 -45 21 -77t74.5 -55t87 -32.5t115.5 -28.5q16 -4 25 -6h1h1l1 -1h1h1h1h1h1l1 -1h1h1h2q217 -38 321 -80q255 -102 256 -325q0 -108 -43.5 -194t-120.5 -141.5t-180 -84.5
t-225 -29q-234 0 -431 88.5t-343 263.5l170 144q110 -141 265.5 -219t342.5 -78q60 0 114 9.5t104.5 30.5t81 62.5t30.5 97.5q0 51 -27.5 89.5t-85 65.5t-124 45t-165.5 36q-79 16 -123 26.5t-114.5 32t-110.5 47.5t-82.5 63.5t-62 90t-19.5 117.5q0 81 27 148t74 114.5
t112 80.5t139.5 48.5t157.5 15.5q193 0 371 -65.5t311 -190.5zM559 -129l180 43q56 -60 56 -147q0 -121 -101.5 -197t-261.5 -76q-79 0 -168 25l47 131q78 -12 115 -12q82 0 127 34t45 95q0 54 -39 104z" />
    <glyph glyph-name="uni0219" unicode="&#x219;" horiz-adv-x="1142" 
d="M1049 866l-113 -153q-71 58 -180.5 97.5t-202.5 39.5q-74 0 -127 -27t-53 -80q0 -29 16.5 -51.5t47.5 -36.5t61 -22t71 -15q44 -8 62.5 -11t62 -13t66 -17.5t60 -22t57.5 -29.5t46 -38t39.5 -48.5t23 -60t9.5 -73.5q0 -157 -127.5 -248.5t-326.5 -91.5
q-148 0 -288.5 52.5t-244.5 150.5l113 151q84 -77 200 -127.5t228 -50.5q57 0 106 13t85 46.5t36 82.5q0 34 -16.5 58t-49.5 39.5t-64 23.5t-79 16h-1h-1l-1 1h-1h-1h-1h-1h-1l-1 1q-170 29 -242 62q-157 71 -158 233q0 145 109.5 227t289.5 82q130 0 261.5 -43t230.5 -117z
M289 -121l182 35q68 -73 68 -152q0 -117 -96.5 -192.5t-254.5 -75.5q-64 0 -112 14l26 130q36 -7 95 -7q143 0 143 131q0 58 -51 117z" />
    <glyph glyph-name="uni021A" unicode="&#x21a;" horiz-adv-x="1380" 
d="M158 1133l45 204h1280l-45 -204h-525l-239 -1133h-230l240 1133h-526zM500 -129l180 43q55 -59 55 -147q0 -121 -101 -197t-261 -76q-79 0 -168 25l47 131q78 -12 115 -12q82 0 127 34t45 95q0 54 -39 104z" />
    <glyph glyph-name="uni021B" unicode="&#x21b;" horiz-adv-x="794" 
d="M102 823l35 166h182l64 293h211l-64 -293h263l-35 -166h-262l-117 -559q-6 -21 -6 -47q0 -72 98 -72q28 0 76.5 5.5t68.5 11.5l-14 -166q-29 -16 -94 -26.5t-117 -10.5q-64 0 -114 18t-85.5 67.5t-35.5 127.5q0 38 8 74l121 577h-183zM264 -121l182 35q68 -73 68 -152
q0 -117 -96 -192.5t-254 -75.5q-65 0 -113 14l27 130q36 -7 94 -7q143 0 143 131q0 58 -51 117z" />
    <glyph glyph-name="dotlessj" unicode="&#x237;" horiz-adv-x="565" 
d="M-176 -465l-27 166q35 7 58 14t54.5 22t52.5 35t40 54t29 78l233 1085h211l-233 -1085q-20 -97 -67.5 -171.5t-107.5 -116t-121.5 -61.5t-121.5 -20z" />
    <glyph glyph-name="schwa" unicode="&#x259;" horiz-adv-x="1214" 
d="M283 733l-111 150q111 65 222 102t249 37q139 0 244 -63.5t158 -167.5t53 -230q0 -160 -75.5 -296.5t-206 -216t-284.5 -79.5q-82 0 -155 20t-137.5 63t-104.5 110t-56 162t7 219h799q0 122 -71 207.5t-191 85.5q-67 0 -135.5 -17.5t-108.5 -36t-96 -49.5zM530 145
q117 0 201.5 63t124.5 169h-555q-10 -112 58.5 -172t170.5 -60z" />
    <glyph glyph-name="circumflex" unicode="&#x2c6;" 
d="M299 1130l270 279h238l149 -279h-163l-123 160l-195 -160h-176z" />
    <glyph glyph-name="caron" unicode="&#x2c7;" 
d="M1018 1409l-270 -279h-238l-150 279h164l123 -160l195 160h176z" />
    <glyph glyph-name="breve" unicode="&#x2d8;" 
d="M379 1405h147q-30 -150 123 -150q155 0 185 150h157q-9 -42 -24.5 -79.5t-44.5 -78t-67.5 -69.5t-98 -47.5t-131.5 -18.5q-60 0 -106.5 12.5t-74.5 35.5t-45.5 51t-23 62t-4.5 66t8 66z" />
    <glyph glyph-name="dotaccent" unicode="&#x2d9;" 
d="M535 1253q0 51 40 89t97 38q50 0 82 -32t32 -76q0 -52 -40.5 -87.5t-98.5 -35.5q-50 0 -81 29.5t-31 74.5z" />
    <glyph glyph-name="ring" unicode="&#x2da;" 
d="M528 1309q0 -44 33.5 -72.5t87.5 -28.5q62 0 104 34t42 87q0 48 -33.5 80.5t-87.5 32.5q-60 0 -103 -39t-43 -94zM401 1300q0 97 76.5 165.5t206.5 68.5q114 0 177 -56.5t63 -140.5q0 -94 -78 -159.5t-207 -65.5q-114 0 -176 53.5t-62 134.5z" />
    <glyph glyph-name="ogonek" unicode="&#x2db;" 
d="M451 57l86 -57q-273 -108 -273 -236q0 -41 32 -64.5t89 -23.5q31 0 131 17l-10 -131q-98 -25 -187 -25q-117 0 -183 47t-66 125q0 54 30.5 105.5t72.5 88t99 70t97.5 51.5t81.5 33z" />
    <glyph glyph-name="tilde" unicode="&#x2dc;" 
d="M393 1128l-121 74q77 97 142 138.5t131 41.5q70 0 133 -53q3 -3 14 -11.5t15 -11t13 -9t14.5 -9t14 -6t16 -5t15.5 -1.5q23 0 48.5 15.5t41.5 31t43 45.5l113 -70q-138 -182 -272 -182q-73 0 -133 49q-5 4 -17 14.5t-17 14.5t-15 11t-16.5 10t-15.5 5.5t-18 2.5
q-14 0 -27 -4.5t-28.5 -17.5t-23 -20t-27 -28t-23.5 -25z" />
    <glyph glyph-name="hungarumlaut" unicode="&#x2dd;" 
d="M487 1124h-137l121 287h195zM848 1124h-135l121 287h194z" />
    <glyph glyph-name="pi" unicode="&#x3c0;" horiz-adv-x="1380" 
d="M123 803l35 166h1228l-34 -166h-207l-133 -637q-16 -69 -19 -166h-209q3 91 19 166l133 637h-358l-166 -803h-209l166 803h-246z" />
    <glyph glyph-name="Wgrave" unicode="&#x1e80;" horiz-adv-x="2062" 
d="M233 1337h244l90 -983h13l526 983h164l108 -983h13l507 983h248l-712 -1337h-230l-102 895h-12l-484 -895h-229zM1190 1761l205 -266h-205l-279 266h279z" />
    <glyph glyph-name="wgrave" unicode="&#x1e81;" horiz-adv-x="1617" 
d="M793 989h200l62 -708h12l338 708h235l-546 -989h-213l-50 678h-12l-340 -678h-213l-116 989h217l65 -708h12zM653 1427h244l164 -299h-191z" />
    <glyph glyph-name="Wacute" unicode="&#x1e82;" horiz-adv-x="2062" 
d="M233 1337h244l90 -983h13l526 983h164l108 -983h13l507 983h248l-712 -1337h-230l-102 895h-12l-484 -895h-229zM1257 1495h-202l205 266h278z" />
    <glyph glyph-name="wacute" unicode="&#x1e83;" horiz-adv-x="1617" 
d="M793 989h200l62 -708h12l338 708h235l-546 -989h-213l-50 678h-12l-340 -678h-213l-116 989h217l65 -708h12zM973 1128h-191l164 299h244z" />
    <glyph glyph-name="Wdieresis" unicode="&#x1e84;" horiz-adv-x="2062" 
d="M233 1337h244l90 -983h13l526 983h164l108 -983h13l507 983h248l-712 -1337h-230l-102 895h-12l-484 -895h-229zM907 1618q0 51 41 89t99 38q48 0 81 -32.5t33 -76.5q0 -52 -40.5 -87.5t-98.5 -35.5q-50 0 -82.5 30t-32.5 75zM1341 1618q0 51 41 89t99 38q48 0 81 -32.5
t33 -76.5q0 -52 -40.5 -87.5t-98.5 -35.5q-50 0 -82.5 30t-32.5 75z" />
    <glyph glyph-name="wdieresis" unicode="&#x1e85;" horiz-adv-x="1617" 
d="M793 989h200l62 -708h12l338 708h235l-546 -989h-213l-50 678h-12l-340 -678h-213l-116 989h217l65 -708h12zM606 1253q0 51 40 89t97 38q50 0 82.5 -32t32.5 -76q0 -52 -40.5 -87.5t-98.5 -35.5q-50 0 -81.5 29.5t-31.5 74.5zM1040 1253q0 51 40.5 89t97.5 38
q50 0 82 -32t32 -76q0 -52 -40.5 -87.5t-98.5 -35.5q-50 0 -81.5 29.5t-31.5 74.5z" />
    <glyph glyph-name="Ygrave" unicode="&#x1ef2;" horiz-adv-x="1372" 
d="M1225 1337h288l-702 -721l-131 -616h-229l131 616l-396 721h273l272 -516zM854 1761l205 -266h-205l-279 266h279z" />
    <glyph glyph-name="ygrave" unicode="&#x1ef3;" horiz-adv-x="1118" 
d="M496 303h12l453 686h233l-973 -1413h-231l360 506l-225 907h225zM420 1427h244l163 -299h-190z" />
    <glyph glyph-name="endash" unicode="&#x2013;" horiz-adv-x="1284" 
d="M111 438l34 189h1012l-35 -189h-1011z" />
    <glyph glyph-name="emdash" unicode="&#x2014;" horiz-adv-x="2267" 
d="M111 438l34 189h1995l-35 -189h-1994z" />
    <glyph glyph-name="quoteleft" unicode="&#x2018;" horiz-adv-x="610" 
d="M596 1399l49 -129q-41 -10 -87 -30t-92 -48.5t-76.5 -66t-31.5 -76.5v-17q40 10 56 10q61 0 101 -34.5t40 -87.5q0 -60 -50 -103t-120 -43q-78 0 -134 57t-56 142q0 73 26.5 136.5t66.5 107.5t96.5 81.5t106 59.5t105.5 41z" />
    <glyph glyph-name="quoteright" unicode="&#x2019;" horiz-adv-x="606" 
d="M225 754l-49 129q41 10 87 30t92 48.5t76.5 66t31.5 76.5v16q-40 -10 -55 -10q-61 0 -101.5 35t-40.5 88q0 60 50 102.5t120 42.5q78 0 134.5 -56.5t56.5 -141.5q0 -291 -402 -426z" />
    <glyph glyph-name="quotesinglbase" unicode="&#x201a;" horiz-adv-x="616" 
d="M0 -358l-49 129q41 10 87 30t92 48.5t76.5 66t31.5 76.5v16q-40 -10 -56 -10q-61 0 -101 35t-40 88q0 60 50 102.5t120 42.5q78 0 134 -56.5t56 -141.5q0 -73 -26.5 -136.5t-66.5 -107.5t-96.5 -81.5t-106 -59.5t-105.5 -41z" />
    <glyph glyph-name="quotedblleft" unicode="&#x201c;" horiz-adv-x="1169" 
d="M596 1399l49 -129q-41 -10 -87 -30t-92 -48.5t-76.5 -66t-31.5 -76.5v-17q40 10 56 10q61 0 101 -34.5t40 -87.5q0 -60 -50 -103t-120 -43q-78 0 -134 57t-56 142q0 73 26.5 136.5t66.5 107.5t96.5 81.5t106 59.5t105.5 41zM1155 1399l49 -129q-41 -10 -87 -30
t-91.5 -48.5t-76 -66t-31.5 -76.5v-17q40 10 55 10q61 0 101 -34.5t40 -87.5q0 -60 -50 -103t-120 -43q-78 0 -134 57t-56 142q0 73 26.5 136.5t66.5 107.5t96.5 81.5t106 59.5t105.5 41z" />
    <glyph glyph-name="quotedblright" unicode="&#x201d;" horiz-adv-x="1167" 
d="M225 754l-49 129q41 10 87 30t92 48.5t76.5 66t31.5 76.5v16q-40 -10 -55 -10q-61 0 -101.5 35t-40.5 88q0 60 50 102.5t120 42.5q78 0 134.5 -56.5t56.5 -141.5q0 -291 -402 -426zM786 754l-49 129q41 10 87 30t92 48.5t76.5 66t31.5 76.5v16q-40 -10 -55 -10
q-61 0 -101.5 35t-40.5 88q0 60 50 102.5t120 42.5q78 0 134.5 -56.5t56.5 -141.5q0 -291 -402 -426z" />
    <glyph glyph-name="quotedblbase" unicode="&#x201e;" horiz-adv-x="1177" 
d="M0 -358l-49 129q41 10 87 30t92 48.5t76.5 66t31.5 76.5v16q-40 -10 -56 -10q-61 0 -101 35t-40 88q0 60 50 102.5t120 42.5q78 0 134 -56.5t56 -141.5q0 -73 -26.5 -136.5t-66.5 -107.5t-96.5 -81.5t-106 -59.5t-105.5 -41zM561 -358l-49 129q41 10 87 30t92 48.5
t76.5 66t31.5 76.5v16q-40 -10 -56 -10q-61 0 -101 35t-40 88q0 60 50 102.5t120 42.5q78 0 134.5 -56.5t56.5 -141.5q0 -291 -402 -426z" />
    <glyph glyph-name="dagger" unicode="&#x2020;" horiz-adv-x="1026" 
d="M600 1434h188l-71 -336h315l-35 -168h-315l-162 -766h-188l162 766h-314l35 168h313z" />
    <glyph glyph-name="daggerdbl" unicode="&#x2021;" horiz-adv-x="1052" 
d="M606 512l-74 -348h-188l74 348h-314l35 168h314l53 250h-313l36 168h314l71 336h189l-72 -336h316l-37 -168h-316l-53 -250h315l-34 -168h-316z" />
    <glyph glyph-name="bullet" unicode="&#x2022;" horiz-adv-x="897" 
d="M453 287q-138 0 -236 92.5t-98 224.5t98 225t236 93q137 0 235 -93t98 -225t-98 -224.5t-235 -92.5z" />
    <glyph glyph-name="ellipsis" unicode="&#x2026;" horiz-adv-x="2048" 
d="M117 104q0 66 52.5 114t125.5 48q64 0 106.5 -39.5t42.5 -97.5q0 -66 -53 -113t-127 -47q-64 0 -105.5 38.5t-41.5 96.5zM774 104q0 66 52.5 114t125.5 48q64 0 107 -40t43 -97q0 -66 -53 -113t-127 -47q-64 0 -106 39t-42 96zM1432 104q0 66 52.5 114t125.5 48
q64 0 106.5 -39.5t42.5 -97.5q0 -66 -53 -113t-127 -47q-64 0 -105.5 38.5t-41.5 96.5z" />
    <glyph glyph-name="perthousand" unicode="&#x2030;" horiz-adv-x="3121" 
d="M176 889q0 101 59 189t159 140t214 52q157 0 266 -98t109 -236q0 -101 -61.5 -189.5t-163.5 -140t-217 -51.5q-156 0 -260.5 97t-104.5 237zM373 899q0 -69 53 -119.5t131 -50.5q91 0 160 59t69 138q0 69 -56.5 119.5t-135.5 50.5q-90 0 -155.5 -58t-65.5 -139z
M1638 1239l-852 -1239h-182l854 1239h180zM1260 303q0 101 59 189t159 140t214 52q157 0 265.5 -98t108.5 -236q0 -101 -61.5 -189.5t-163.5 -140t-217 -51.5q-156 0 -260 96.5t-104 237.5zM1456 313q0 -69 53 -119.5t131 -50.5q91 0 160.5 59t69.5 138q0 69 -57 119.5
t-136 50.5q-90 0 -155.5 -58t-65.5 -139zM2163 303q0 101 59 189t159 140t214 52q157 0 266 -98t109 -236q0 -101 -61.5 -189.5t-163.5 -140t-216 -51.5q-157 0 -261.5 96.5t-104.5 237.5zM2359 313q0 -69 53.5 -119.5t131.5 -50.5q91 0 160 59t69 138q0 69 -57 119.5
t-136 50.5q-89 0 -155 -58t-66 -139z" />
    <glyph glyph-name="guilsinglleft" unicode="&#x2039;" horiz-adv-x="675" 
d="M346 809h254l-313 -307l-2 -17l186 -284h-233l-158 250l18 106z" />
    <glyph glyph-name="guilsinglright" unicode="&#x203a;" horiz-adv-x="677" 
d="M303 201h-254l313 307l3 16l-187 285h234l157 -250l-18 -106z" />
    <glyph glyph-name="fraction" unicode="&#x2044;" horiz-adv-x="450" 
d="M608 1337h180l-899 -1337h-182z" />
    <glyph glyph-name="zero.superior" unicode="&#x2070;" horiz-adv-x="1189" 
d="M147 854q0 140 79.5 259.5t210 188t276.5 68.5q199 0 334 -126.5t135 -311.5q0 -139 -80.5 -258.5t-211.5 -187.5t-278 -68q-198 0 -331.5 125.5t-133.5 310.5zM346 870q0 -115 81.5 -194.5t203.5 -79.5q139 0 244.5 96t105.5 226q0 115 -83.5 194.5t-205.5 79.5
q-139 0 -242.5 -96t-103.5 -226z" />
    <glyph glyph-name="four.superior" unicode="&#x2074;" horiz-adv-x="1167" 
d="M1149 799l-35 -162h-176l-39 -186h-199l39 186h-673l28 135l824 565h169l-114 -538h176zM399 803v-4h375l60 280h-17z" />
    <glyph glyph-name="five.superior" unicode="&#x2075;" horiz-adv-x="1058" 
d="M1034 1337l-39 -178h-555l-34 -168q125 58 241 58q49 0 99.5 -8.5t103 -29.5t93 -51.5t66 -79.5t25.5 -110q0 -88 -38 -157.5t-103.5 -111.5t-146.5 -63.5t-173 -21.5q-164 0 -284.5 36t-227.5 111l127 148q140 -119 398 -119q41 0 81 8t79 25t63.5 50t24.5 77
q0 35 -24 62t-62 40.5t-76 20t-74 6.5q-129 0 -289 -72l-104 100l92 428h737z" />
    <glyph glyph-name="six.superior" unicode="&#x2076;" horiz-adv-x="1112" 
d="M1149 1225l-150 -127q-58 44 -138 69t-156 25q-126 0 -232 -64.5t-135 -177.5q184 86 350 86q67 0 132.5 -15.5t123.5 -46t93.5 -84t35.5 -122.5q0 -104 -59.5 -185t-157 -123t-213.5 -42q-90 0 -176.5 27.5t-158.5 79.5t-116.5 137t-44.5 190q0 147 77.5 266.5
t209.5 185.5t289 66q113 0 224 -37t202 -108zM641 877q-137 0 -305 -66q24 -104 115 -163.5t204 -51.5q53 3 98.5 18t81 51t35.5 87q0 37 -22.5 63t-59.5 38.5t-73 18t-74 5.5z" />
    <glyph glyph-name="seven.superior" unicode="&#x2077;" horiz-adv-x="985" 
d="M184 1159l39 178h858l-39 -178l-651 -708h-262l684 708h-629z" />
    <glyph glyph-name="eight.superior" unicode="&#x2078;" horiz-adv-x="1114" 
d="M113 719q0 99 71 166.5t191 79.5q-127 38 -127 161q0 54 27 97.5t69 70.5t96.5 45t106 25.5t100.5 7.5q53 0 110 -8t119 -28t110.5 -50t80 -79t31.5 -109q0 -81 -53 -132.5t-150 -58.5q73 -21 119.5 -76.5t46.5 -136.5q0 -58 -29 -106.5t-75.5 -79.5t-106.5 -52.5
t-119.5 -30.5t-116.5 -9q-76 0 -157 16t-161 49.5t-131.5 95.5t-51.5 142zM336 750q-8 -42 20.5 -74t78.5 -49t99 -25t91 -8q32 0 66 5t71 17t60.5 36t23.5 57q0 40 -30.5 71t-77 47t-91.5 23.5t-84 7.5q-28 0 -60.5 -4.5t-70 -15.5t-64 -33.5t-32.5 -54.5zM461 1114
q0 -35 27.5 -60t70 -36.5t78.5 -16t68 -4.5q27 0 53 3.5t55 12.5t46.5 29t17.5 48q0 42 -39.5 71t-88 40t-96.5 11q-28 0 -58.5 -4.5t-62 -15t-51.5 -30.5t-20 -48z" />
    <glyph glyph-name="nine.superior" unicode="&#x2079;" horiz-adv-x="1114" 
d="M102 565l150 127q56 -45 136 -70.5t157 -25.5q126 0 230.5 64.5t133.5 177.5q-172 -86 -346 -86q-68 0 -133.5 15.5t-123 46t-93 84t-35.5 122.5q0 157 125 253.5t305 96.5q71 0 140.5 -17t134 -52.5t113.5 -85.5t78.5 -122.5t29.5 -156.5q0 -147 -77.5 -266.5
t-210 -185.5t-290.5 -66q-113 0 -224 37.5t-200 109.5zM610 911q137 0 301 66q-23 102 -113.5 161.5t-201.5 53.5q-53 -3 -99 -17.5t-82 -50.5t-36 -88q0 -37 22.5 -63t60 -38.5t73.5 -18t75 -5.5z" />
    <glyph glyph-name="parenleft.superior" unicode="&#x207d;" horiz-adv-x="608" 
d="M522 322l-125 -111q-132 94 -204 232t-72 298q0 239 143 425t398 292l71 -131q-179 -76 -296.5 -230.5t-117.5 -346.5q0 -128 55 -242.5t148 -185.5z" />
    <glyph glyph-name="parenright.superior" unicode="&#x207e;" horiz-adv-x="606" 
d="M199 1350l125 108q132 -94 204 -232t72 -298q0 -238 -143 -423.5t-398 -293.5l-71 131q178 78 294.5 232t116.5 346q0 129 -53.5 243t-146.5 187z" />
    <glyph glyph-name="n.superior" unicode="&#x207f;" horiz-adv-x="946" 
d="M295 451h-180l110 522q25 123 27 186h162q1 -27 1 -31.5t-3 -29t-4 -35.5q66 56 126 88.5t128 32.5q96 0 163.5 -66.5t67.5 -169.5q0 -40 -16 -112l-84 -385h-183l84 385q2 5 9.5 42.5t7.5 57.5q-1 41 -36 66.5t-81 25.5q-87 0 -197 -106z" />
    <glyph glyph-name="zero.inferior" unicode="&#x2080;" horiz-adv-x="1187" 
d="M-23 59q0 140 79.5 259.5t210 188t276.5 68.5q199 0 334 -126.5t135 -311.5q0 -139 -80.5 -258.5t-211.5 -187.5t-278 -68q-198 0 -331.5 125.5t-133.5 310.5zM176 76q0 -115 81.5 -195t203.5 -80q139 0 244.5 96t105.5 226q0 115 -83.5 194.5t-205.5 79.5
q-139 0 -242.5 -95.5t-103.5 -225.5z" />
    <glyph glyph-name="one.inferior" unicode="&#x2081;" horiz-adv-x="641" 
d="M-14 270v162l276 111h201l-184 -887h-201l149 706z" />
    <glyph glyph-name="two.inferior" unicode="&#x2082;" horiz-adv-x="972" 
d="M147 299l-84 150q61 32 95.5 48.5t91.5 38.5t112.5 32t114.5 10q42 0 87 -7t95 -25t89 -45t64.5 -71.5t25.5 -99.5q0 -260 -455 -328q-52 -8 -84.5 -16.5t-68 -25t-58 -45.5t-35.5 -71l-8 -28h580l-35 -160h-774l41 192q17 80 64 141.5t115.5 99t139.5 59t154 32.5
q7 0 37.5 6.5t74 19t76.5 40t33 61.5q0 27 -18.5 46t-47 28t-54 12.5t-48.5 3.5q-149 0 -320 -98z" />
    <glyph glyph-name="three.inferior" unicode="&#x2083;" horiz-adv-x="1093" 
d="M182 293l-94 133q230 149 438 149q55 0 115.5 -14.5t118 -43t94.5 -78t37 -111.5q0 -63 -33.5 -120t-91.5 -79q46 -19 79.5 -66t33.5 -129q0 -100 -66 -172t-171 -105.5t-234 -33.5q-335 0 -519 246l148 127q68 -94 169 -144.5t224 -50.5q110 0 181 36t71 100
q0 40 -25.5 65t-53.5 32t-58 7h-174l37 160h172q46 0 75 23.5t29 64.5q0 38 -29.5 64t-66 35t-76.5 9q-160 0 -330 -104z" />
    <glyph glyph-name="four.inferior" unicode="&#x2084;" horiz-adv-x="1159" 
d="M981 4l-35 -162h-176l-39 -186h-199l39 186h-673l28 135l824 566h170l-115 -539h176zM231 8v-4h375l60 281h-17z" />
    <glyph glyph-name="five.inferior" unicode="&#x2085;" horiz-adv-x="1058" 
d="M864 543l-39 -178h-555l-34 -168q123 57 241 57q49 0 99.5 -8.5t103 -29.5t93 -51.5t66 -79.5t25.5 -110q0 -88 -38 -157.5t-103.5 -111.5t-146.5 -63.5t-173 -21.5q-163 0 -284 36.5t-228 111.5l127 147q140 -119 398 -119q41 0 81 8t79 25t63.5 50t24.5 77q0 35 -24 62
t-62 40.5t-76 20t-74 6.5q-129 0 -289 -72l-104 101l92 428h737z" />
    <glyph glyph-name="six.inferior" unicode="&#x2086;" horiz-adv-x="1110" 
d="M981 430l-150 -127q-58 44 -138 69t-156 25q-81 0 -156 -26.5t-133 -82.5t-78 -132q184 86 350 86q53 0 105.5 -9t103.5 -30t89.5 -51.5t62.5 -76.5t24 -102q0 -104 -59.5 -185t-157 -123t-213.5 -42q-71 0 -141 17t-134 52.5t-113 85.5t-78 122.5t-29 156.5
q0 147 77.5 266.5t209 185.5t288.5 66q113 0 224 -37t202 -108zM473 82q-137 0 -305 -66q24 -102 115 -161.5t204 -53.5q53 3 98.5 18t81 51t35.5 87q0 37 -22.5 63t-59.5 38.5t-73 18t-74 5.5z" />
    <glyph glyph-name="seven.inferior" unicode="&#x2087;" horiz-adv-x="974" 
d="M16 365l39 178h858l-39 -178l-651 -709h-262l684 709h-629z" />
    <glyph glyph-name="eight.inferior" unicode="&#x2088;" horiz-adv-x="1114" 
d="M-55 -76q0 99 71 166.5t191 79.5q-127 38 -127 162q0 54 27 97.5t69 70.5t96.5 45t106 25.5t100.5 7.5q53 0 110 -8t119 -28.5t110.5 -50.5t80 -79t31.5 -109q0 -81 -53 -132t-150 -58q73 -21 119.5 -76.5t46.5 -136.5q0 -72 -43.5 -128.5t-112.5 -88t-143.5 -47
t-147.5 -15.5q-76 0 -157 16t-161 49.5t-131.5 95.5t-51.5 142zM168 -45q-8 -42 20.5 -74t78.5 -49t99 -25t91 -8q32 0 66 5t71 17t60.5 36t23.5 57q0 40 -30.5 71t-77 47t-91.5 23.5t-84 7.5q-28 0 -60.5 -4.5t-70 -15.5t-64 -33.5t-32.5 -54.5zM293 319q0 -35 27.5 -60
t70 -36t78.5 -15.5t68 -4.5q28 0 53.5 3.5t54.5 12.5t46.5 28.5t17.5 47.5q0 42 -39.5 71.5t-88 40.5t-96.5 11q-40 0 -80 -7.5t-76 -31.5t-36 -60z" />
    <glyph glyph-name="nine.inferior" unicode="&#x2089;" horiz-adv-x="1110" 
d="M-70 -229l150 127q56 -45 136 -71t157 -26q126 0 230.5 64.5t133.5 177.5q-180 -86 -346 -86q-68 0 -133.5 15.5t-123 46t-93 84t-35.5 122.5q0 157 125 253.5t305 96.5q71 0 140.5 -17t134 -52.5t113.5 -85.5t78.5 -122.5t29.5 -156.5q0 -147 -77.5 -266.5t-210 -185.5
t-290.5 -66q-113 0 -224 38t-200 110zM438 117q139 0 301 65q-23 102 -113.5 161.5t-201.5 53.5q-39 -2 -74.5 -11.5t-69 -26.5t-53.5 -47t-20 -70q0 -37 22.5 -63t60 -38.5t73.5 -18t75 -5.5z" />
    <glyph glyph-name="colonmonetary" unicode="&#x20a1;" horiz-adv-x="1544" 
d="M1483 944l-168 -108q-59 56 -154 106l-248 -782q188 36 336 145l117 -141q-233 -177 -514 -199l-78 -250h-133l78 250q-94 6 -180 31l-88 -281h-132l103 326q-143 72 -225 198t-82 287t86 308t240.5 246t342.5 118l62 193h133l-59 -191q86 -3 180 -26l69 217h134
l-82 -258q157 -66 262 -189zM598 184q83 -31 180 -34l264 837q-96 27 -178 27h-4zM342 541q0 -85 38 -161t107 -130l234 745q-164 -44 -271.5 -173t-107.5 -281z" />
    <glyph glyph-name="franc" unicode="&#x20a3;" horiz-adv-x="1435" 
d="M39 219l29 141h204l166 803h1016l-41 -202h-786l-47 -216h477l-41 -202h-475l-39 -183h360l-28 -141h-361l-45 -219h-229l45 219h-205z" />
    <glyph glyph-name="lira" unicode="&#x20a4;" horiz-adv-x="1482" 
d="M164 651l26 144h248l11 57q15 88 66.5 157t122.5 110t149 62t155 21q113 0 237.5 -42t231.5 -111l-147 -158q-84 47 -183 77.5t-172 30.5q-83 0 -152.5 -38.5t-80.5 -108.5l-10 -57h518l-27 -144h-516l-23 -133h510l-28 -143h-506q-18 -86 -67 -131t-150 -62h909
l-33 -182h-1224l34 182h80q110 0 155.5 42t66.5 151h-259l29 143h254l25 133h-250z" />
    <glyph glyph-name="peseta" unicode="&#x20a7;" horiz-adv-x="3196" 
d="M317 0h-229l244 1163h669q213 0 316 -106q34 -38 51 -68h227l64 293h211l-64 -293h262l-34 -166h-262l-117 -559q-6 -21 -6 -47q0 -72 98 -72q28 0 76.5 5.5t68.5 11.5l-14 -166q-29 -16 -94 -26.5t-117 -10.5q-64 0 -114 18t-85.5 67.5t-35.5 127.5q0 38 8 74l121 577
h-148q0 -143 -115 -254q-140 -137 -395 -137h-495zM3080 866l-112 -153q-71 58 -180.5 97.5t-202.5 39.5q-74 0 -127.5 -27t-53.5 -80q0 -29 16.5 -51.5t47.5 -36.5t61.5 -22t71.5 -15q44 -8 62.5 -11t62 -13t66 -17.5t60 -22t57.5 -29.5t46 -38t39.5 -48.5t23 -60
t9.5 -73.5q0 -157 -128 -248.5t-327 -91.5q-147 0 -287.5 52.5t-244.5 150.5l112 151q84 -77 200 -127.5t228 -50.5q57 0 106.5 13t85.5 46.5t36 82.5q0 34 -16.5 58t-49.5 39.5t-64 23.5t-79 16q-169 30 -238 58q-163 66 -171 220q-1 9 -1 19q0 145 110 227t290 82
q130 0 261 -43t230 -117zM522 961l-71 -328h475q144 0 211 61q49 46 49 111q0 68 -45 113q-26 26 -66 34.5t-117 8.5h-436z" />
    <glyph glyph-name="Euro" unicode="&#x20ac;" horiz-adv-x="1630" 
d="M1554 934l-178 -115q-76 76 -193 127t-247 51q-112 0 -208.5 -55t-158.5 -147h588l-27 -144h-626q-15 -56 -15 -112v-21h615l-29 -143h-549q44 -95 134 -152t208 -57q241 0 447 153l127 -149q-119 -92 -268.5 -149.5t-317.5 -57.5q-214 0 -375.5 111.5t-212.5 300.5h-186
l29 143h139v8q0 64 12 125h-125l27 144h147q82 178 251.5 291.5t377.5 113.5q181 0 344.5 -70t269.5 -196z" />
    <glyph glyph-name="peso" unicode="&#x20b1;" horiz-adv-x="1646" 
d="M90 664l29 141h207l73 358h656q97 0 160.5 -24t113.5 -74q108 -111 113 -260h192l-28 -141h-183q-33 -120 -141 -222q-71 -69 -157.5 -104t-215.5 -35h-456l-66 -303h-227l135 664h-205zM1124 575q40 37 64 89h-664l-30 -156h438q120 0 192 67zM584 961l-31 -156h655
q-7 68 -55 113q-25 24 -55 33.5t-84 9.5h-430z" />
    <glyph glyph-name="Rupee" unicode="&#x20b9;" horiz-adv-x="1669" 
d="M231 664l31 141h868q-7 68 -55 113q-25 24 -55 33.5t-84 9.5h-643l45 202h1309l-31 -141h-346l18 -18q73 -76 76 -199h207l-31 -141h-194q-33 -119 -142 -222q-70 -59 -156.5 -88.5t-216.5 -29.5l-256 14l535 -338h-379l-561 367l29 141h655q121 0 193 67q39 36 63 89
h-879z" />
    <glyph glyph-name="litre" unicode="&#x2113;" horiz-adv-x="1126" 
d="M80 225l-21 154l250 121l84 391q88 414 414 414q135 0 210 -72.5t75 -190.5q0 -327 -590 -614l-29 -135q-10 -60 -10 -70q0 -69 119 -69q99 0 233 59l-2 -164q-90 -47 -153 -63.5t-130 -16.5q-57 0 -103.5 10t-88.5 32.5t-66 66t-24 104.5q0 30 10 82l10 51zM602 891
l-61 -279q163 85 248 189.5t85 202.5q0 56 -26.5 86t-75.5 30q-26 0 -47 -8.5t-44 -31t-43.5 -70.5t-35.5 -119z" />
    <glyph glyph-name="soundrecordingcopyright" unicode="&#x2117;" horiz-adv-x="2070" 
d="M1030 -297q-185 0 -353.5 67t-290 180t-193.5 270.5t-72 330.5t72 330t194.5 270t290.5 179.5t352 66.5q246 0 456 -112.5t333 -307.5t123 -426t-123 -426.5t-333 -308.5t-456 -113zM1028 -152q200 0 371.5 95t272 257.5t100.5 352.5q0 142 -59.5 271t-159.5 222.5
t-237.5 149t-287.5 55.5q-200 0 -370 -94t-268.5 -254.5t-98.5 -349.5q0 -190 98.5 -352t268.5 -257.5t370 -95.5zM1188 403h-299v-231h-191v793h439q63 0 121 -11.5t117.5 -39.5t95.5 -85.5t36 -138.5q0 -72 -28 -128.5t-74 -90t-101.5 -51t-115.5 -17.5zM889 799v-230h299
q50 0 89.5 28.5t39.5 90.5q0 57 -39.5 84t-89.5 27h-299z" />
    <glyph glyph-name="servicemark" unicode="&#x2120;" horiz-adv-x="1839" 
d="M862 1253l-104 -88q-32 34 -98.5 52t-137.5 18q-17 0 -34.5 -2.5t-38.5 -8t-34.5 -18.5t-13.5 -32q0 -15 9 -27.5t20.5 -20t33 -14.5t34 -10t37.5 -8q125 -25 168 -41q139 -53 139 -170q0 -112 -84 -175t-217 -63q-228 0 -367 160l105 88q50 -59 124 -90t154 -31
q28 0 55 6t50.5 24.5t23.5 47.5q0 35 -43.5 56.5t-140.5 39.5q-119 28 -167 55q-89 50 -89 144q0 104 85 160.5t212 56.5q185 0 319 -109zM1708 668h-152l84 401h-4l-264 -330h-18l-127 330h-4l-86 -401h-144l144 669h139l131 -358h2l287 358h153z" />
    <glyph glyph-name="trademark" unicode="&#x2122;" horiz-adv-x="1771" 
d="M1620 668h-152l84 401h-4l-264 -330h-18l-127 330h-4l-86 -401h-144l144 669h139l131 -358h2l287 358h153zM244 1214l24 123h602l-24 -123h-225l-117 -546h-152l117 546h-225z" />
    <glyph glyph-name="Omega" unicode="&#x2126;" horiz-adv-x="1810" 
d="M96 0l37 184h332q-150 55 -235 184t-85 294q0 144 68 276.5t182 228.5t270.5 153.5t325.5 57.5q201 0 364.5 -82.5t255 -223.5t91.5 -310q0 -191 -123.5 -351t-314.5 -227h346l-37 -184h-588l37 184q194 47 316 206t122 358q0 179 -139.5 302.5t-351.5 123.5
q-156 0 -289.5 -68t-213 -187t-79.5 -260q0 -169 94 -300.5t240 -174.5l-37 -184h-588z" />
    <glyph glyph-name="estimated" unicode="&#x212e;" horiz-adv-x="1665" 
d="M475 897v-178q0 -4 4.5 -8t7.5 -4h723q17 0 17 12v178q0 17 -13 43q-57 91 -149.5 140.5t-210.5 49.5q-102 0 -210.5 -54.5t-154.5 -135.5q-14 -22 -14 -43zM1499 309q-122 -174 -289.5 -260t-355.5 -86q-132 0 -260.5 48t-229 131.5t-161.5 205.5t-60 260
q0 114 40 216.5t109 178.5t159.5 132.5t193.5 85t209 28.5q142 0 269.5 -46t225 -129t155 -208.5t57.5 -275.5h-1074q-3 0 -7.5 -5.5t-4.5 -11.5v-245q0 -40 14 -58q157 -188 365 -188q117 0 221 59t185 168h239z" />
    <glyph glyph-name="onethird" unicode="&#x2153;" horiz-adv-x="2183" 
d="M156 1065v162l276 110h201l-184 -886h-201l149 706zM1249 1337h181l-900 -1337h-182zM1346 637l-95 133q97 63 212.5 106.5t226.5 43.5q55 0 115.5 -15t117.5 -43.5t94 -78t37 -111.5q0 -63 -33.5 -120t-91.5 -79q46 -19 79.5 -65.5t33.5 -128.5q0 -100 -66 -172
t-171 -106t-234 -34q-334 0 -518 246l147 127q68 -94 169 -144.5t224 -50.5q110 0 181 36t71 100q0 40 -25.5 65t-53.5 32t-58 7h-174l37 160h172q46 0 75 23.5t29 64.5q0 38 -29.5 64t-66 35t-76.5 9q-159 0 -329 -104z" />
    <glyph glyph-name="twothirds" unicode="&#x2154;" horiz-adv-x="2514" 
d="M317 1094l-84 149q61 32 95.5 48.5t91.5 38.5t112.5 32t114.5 10q42 0 87 -7t95 -25t89 -45t64.5 -71.5t25.5 -99.5q0 -259 -455 -327q-52 -8 -84.5 -16.5t-68 -25t-58 -45.5t-35.5 -71l-8 -29h580l-35 -159h-774l41 192q17 80 64 141.5t115.5 99t139.5 59t154 32.5
q7 0 37.5 6.5t74 19t76.5 40t33 61.5q0 27 -18.5 46t-47 28t-54 12.5t-48.5 3.5q-149 0 -320 -98zM1581 1337h180l-899 -1337h-182zM1677 637l-94 133q231 150 438 150q55 0 115.5 -15t118 -43.5t94.5 -78t37 -111.5q0 -63 -33.5 -120t-91.5 -79q46 -19 79.5 -65.5
t33.5 -128.5q0 -100 -66 -172t-171 -106t-234 -34q-335 0 -519 246l148 127q68 -94 169 -144.5t224 -50.5q110 0 181 36t71 100q0 40 -25.5 65t-53.5 32t-58 7h-174l37 160h172q46 0 75 23.5t29 64.5q0 38 -29.5 64t-66 35t-76.5 9q-160 0 -330 -104z" />
    <glyph glyph-name="oneeighth" unicode="&#x215b;" horiz-adv-x="2205" 
d="M156 1065v162l276 110h201l-184 -886h-201l149 706zM1249 1337h181l-900 -1337h-182zM1108 268q0 99 71 166.5t191 79.5q-127 38 -127 162q0 54 27 97.5t69 70.5t96.5 45t106 25.5t100.5 7.5q53 0 110 -8t119 -28.5t110.5 -50.5t80 -79t31.5 -109q0 -81 -53 -132
t-150 -58q73 -21 119.5 -76.5t46.5 -136.5q0 -72 -43.5 -128.5t-112 -88t-143 -47t-147.5 -15.5q-59 0 -123 9.5t-133 32.5t-122.5 56t-88.5 86.5t-35 118.5zM1331 299q-8 -42 20.5 -74t78.5 -49t99 -25t91 -8q32 0 66 5t71 17t60.5 36t23.5 57q0 40 -30.5 71.5t-77 47.5
t-91 23.5t-83.5 7.5q-28 0 -60.5 -4.5t-70 -15.5t-64.5 -34t-33 -55zM1456 664q0 -35 27.5 -60t70 -36.5t78.5 -16t68 -4.5q28 0 53.5 3.5t54.5 12.5t46.5 28.5t17.5 47.5q0 42 -39 71.5t-87.5 40.5t-96.5 11q-28 0 -58.5 -4.5t-62 -15t-52 -31t-20.5 -47.5z" />
    <glyph glyph-name="threeeighths" unicode="&#x215c;" horiz-adv-x="2658" 
d="M352 1087l-94 134q230 149 438 149q55 0 115.5 -15t118 -43.5t94.5 -78t37 -111.5q0 -63 -33.5 -119.5t-91.5 -78.5q46 -19 79.5 -66t33.5 -129q0 -100 -66 -172t-171 -105.5t-234 -33.5q-335 0 -519 246l148 127q68 -94 169 -144.5t224 -50.5q110 0 181 35.5t71 99.5
q0 40 -25.5 65t-53.5 32.5t-58 7.5h-174l37 159h172q46 0 75 23.5t29 64.5q0 38 -29.5 64t-66.5 35.5t-76 9.5q-158 0 -330 -105zM1702 1337h180l-899 -1337h-182zM1561 268q0 99 71 166.5t191 79.5q-127 38 -127 162q0 54 27 97.5t69 70.5t96.5 45t106 25.5t100.5 7.5
q53 0 110 -8t119 -28.5t110.5 -50.5t80 -79t31.5 -109q0 -81 -53 -132t-150 -58q73 -21 119.5 -76.5t46.5 -136.5q0 -72 -43.5 -128.5t-112.5 -88t-143.5 -47t-147.5 -15.5q-76 0 -157 16t-161 49.5t-131.5 95.5t-51.5 142zM1784 299q-8 -42 20.5 -74t78.5 -49t99 -25t91 -8
q32 0 66 5t71 17t60.5 36t23.5 57q0 40 -30.5 71.5t-77 47.5t-91.5 23.5t-84 7.5q-28 0 -60.5 -4.5t-70 -15.5t-64 -34t-32.5 -55zM1909 664q0 -35 27.5 -60t69.5 -36.5t78 -16t68 -4.5q28 0 53.5 3.5t54.5 12.5t46.5 28.5t17.5 47.5q0 42 -39 71.5t-87.5 40.5t-96.5 11
q-28 0 -58.5 -4.5t-62 -15t-51.5 -30.5t-20 -48z" />
    <glyph glyph-name="fiveeighths" unicode="&#x215d;" horiz-adv-x="2625" 
d="M1036 1337l-39 -178h-555l-34 -168q125 58 241 58q49 0 99.5 -8.5t103 -29.5t93 -51.5t66 -79.5t25.5 -110q0 -88 -38 -157.5t-103.5 -111.5t-146.5 -63.5t-173 -21.5q-164 0 -284.5 36t-227.5 111l127 148q140 -119 398 -119q41 0 81 8t79 25t63.5 50t24.5 77
q0 35 -24 62t-62 40.5t-76 20t-74 6.5q-129 0 -289 -72l-104 100l92 428h737zM1669 1337h180l-899 -1337h-182zM1528 268q0 99 71 166.5t191 79.5q-127 38 -127 162q0 54 27 97.5t69 70.5t96.5 45t106 25.5t100.5 7.5q53 0 110 -8t119 -28.5t110.5 -50.5t80 -79t31.5 -109
q0 -81 -53 -132t-150 -58q73 -21 119.5 -76.5t46.5 -136.5q0 -72 -43.5 -128.5t-112 -88t-143 -47t-147.5 -15.5q-59 0 -123 9.5t-133 32.5t-122.5 56t-88.5 86.5t-35 118.5zM1751 299q-8 -42 20.5 -74t78.5 -49t99 -25t91 -8q32 0 66 5t71 17t60.5 36t23.5 57
q0 40 -30.5 71.5t-77 47.5t-91.5 23.5t-84 7.5q-28 0 -60.5 -4.5t-70 -15.5t-64 -34t-32.5 -55zM1876 664q0 -35 27.5 -60t70 -36.5t78.5 -16t68 -4.5q28 0 53.5 3.5t54.5 12.5t46.5 28.5t17.5 47.5q0 42 -39.5 71.5t-88 40.5t-96.5 11q-28 0 -58.5 -4.5t-62 -15
t-51.5 -30.5t-20 -48z" />
    <glyph glyph-name="seveneighths" unicode="&#x215e;" horiz-adv-x="2455" 
d="M184 1159l39 178h858l-39 -178l-651 -708h-262l684 708h-629zM1499 1337h180l-899 -1337h-182zM1358 268q0 99 71 166.5t191 79.5q-127 38 -127 162q0 54 27 97.5t69 70.5t96.5 45t106 25.5t100.5 7.5q53 0 110 -8t119 -28.5t110.5 -50.5t80 -79t31.5 -109
q0 -81 -53 -132t-150 -58q73 -21 119.5 -76.5t46.5 -136.5q0 -72 -43.5 -128.5t-112 -88t-143 -47t-147.5 -15.5q-59 0 -123 9.5t-133 32.5t-122.5 56t-88.5 86.5t-35 118.5zM1581 299q-8 -42 20.5 -74t78.5 -49t99 -25t91 -8q32 0 66 5t71 17t60.5 36t23.5 57
q0 40 -30.5 71.5t-77 47.5t-91.5 23.5t-84 7.5q-28 0 -60.5 -4.5t-70 -15.5t-64 -34t-32.5 -55zM1706 664q0 -35 27.5 -60t70 -36.5t78.5 -16t68 -4.5q28 0 53.5 3.5t54.5 12.5t46.5 28.5t17.5 47.5q0 42 -39.5 71.5t-88 40.5t-96.5 11q-28 0 -58.5 -4.5t-62 -15
t-51.5 -30.5t-20 -48z" />
    <glyph glyph-name="arrowleft" unicode="&#x2190;" horiz-adv-x="1691" 
d="M1188 623l313 4v-205l-313 6l-715 4l-90 2l-2 -8l115 -86l397 -397l-133 -140l-694 693v57l694 692l133 -139l-397 -395l-115 -86l2 -11l90 4z" />
    <glyph glyph-name="arrowup" unicode="&#x2191;" horiz-adv-x="1693" 
d="M942 117l6 -312h-205l5 312l4 717l4 90l-8 4l-86 -117l-406 -405l-141 133l700 702h57l703 -702l-139 -133l-408 405l-86 117l-8 -4l4 -93z" />
    <glyph glyph-name="arrowright" unicode="&#x2192;" horiz-adv-x="1691" 
d="M190 627l314 -4l715 -5l90 -4l2 11l-115 86l-397 395l133 139l694 -692v-57l-694 -693l-133 140l397 397l115 86l-2 8l-90 -2l-715 -4l-314 -6v205z" />
    <glyph glyph-name="arrowdown" unicode="&#x2193;" horiz-adv-x="1693" 
d="M948 1241l-6 -311l-4 -715l-4 -92l8 -4l86 117l408 405l139 -133l-703 -703h-57l-700 703l141 133l406 -405l86 -117l8 4l-4 90l-4 717l-5 311h205z" />
    <glyph glyph-name="arrowupleft" unicode="&#x2196;" horiz-adv-x="1691" 
d="M1274 203l223 -215l-145 -146l-248 256l-565 570l-64 69l-10 -6l27 -143v-588h-193v999l41 41h997v-194h-583l-148 26l-4 -10l68 -61z" />
    <glyph glyph-name="arrowupright" unicode="&#x2197;" horiz-adv-x="1691" 
d="M197 -12l223 215l604 598l68 61l-5 10l-147 -26h-584v194h998l41 -41v-999h-193v588l27 143l-10 6l-64 -69l-565 -570l-248 -256z" />
    <glyph glyph-name="arrowdownright" unicode="&#x2198;" horiz-adv-x="1691" 
d="M420 838l-223 215l145 145l248 -256l565 -569l64 -70l10 6l-27 144v587h193v-999l-41 -41h-998v195h584l147 -27l5 10l-68 62z" />
    <glyph glyph-name="arrowdownleft" unicode="&#x2199;" horiz-adv-x="1691" 
d="M1497 1053l-223 -215l-604 -598l-68 -62l4 -10l148 27h583v-195h-997l-41 41v999h193v-587l-27 -144l10 -6l64 70l565 569l248 256z" />
    <glyph glyph-name="partialdiff" unicode="&#x2202;" horiz-adv-x="1331" 
d="M614 940q249 0 390 -192q6 38 6 63q0 37 -11.5 75.5t-43 82.5t-80.5 79.5t-132.5 63.5t-189.5 37l41 186q146 -14 257.5 -53t180 -91.5t111.5 -123.5t59.5 -143t16.5 -156q0 -118 -26 -233t-80.5 -219t-130.5 -183t-184.5 -125.5t-234.5 -46.5q-94 0 -179.5 30t-152.5 85
t-107 140.5t-40 189.5q0 145 69 267.5t191 194.5t270 72zM567 129q134 2 242 95.5t160 279.5q-41 111 -135 188.5t-216 77.5q-136 0 -230.5 -103t-94.5 -251q0 -131 78 -210t196 -77z" />
    <glyph glyph-name="Delta" unicode="&#x2206;" horiz-adv-x="1486" 
d="M25 184l780 1153h209l289 -1153l-39 -184h-1278zM850 1063l-578 -879h795l-205 879h-12z" />
    <glyph glyph-name="product" unicode="&#x220f;" horiz-adv-x="1671" 
d="M233 1133l43 204h1453l-43 -204h-207l-287 -1352h-229l286 1352h-583l-287 -1352h-229l286 1352h-203z" />
    <glyph glyph-name="summation" unicode="&#x2211;" horiz-adv-x="1476" 
d="M1528 1337l-43 -204h-897l522 -519l-29 -135l-702 -493h862l-43 -205h-1264l31 143l897 631l2 12l-631 627l31 143h1264z" />
    <glyph glyph-name="minus" unicode="&#x2212;" horiz-adv-x="1550" 
d="M184 436v189h1180v-189h-1180z" />
    <glyph glyph-name="radical" unicode="&#x221a;" horiz-adv-x="1312" 
d="M127 991h352l183 -676l577 1229h219l-751 -1544h-142l-241 823h-234z" />
    <glyph glyph-name="infinity" unicode="&#x221e;" horiz-adv-x="2146" 
d="M958 780l123 -114l148 114q203 152 373 152h24q169 0 279 -101.5t112 -242.5q0 -90 -37 -173.5t-100 -145.5t-151.5 -99t-186.5 -37h-24q-167 0 -338 150l-127 110l-150 -112q-196 -148 -371 -148h-24q-167 0 -276 101.5t-111 240.5q0 90 36.5 174t99 146t150.5 99.5
t185 37.5h24q177 0 342 -152zM1360 657l-164 -125l139 -124q106 -95 201 -95h25q109 0 182.5 72.5t73.5 185.5q0 74 -58.5 126.5t-150.5 52.5h-25q-41 0 -101.5 -24t-121.5 -69zM551 313q101 0 223 95l162 124l-135 125q-104 93 -203 93h-25q-107 0 -180.5 -71.5
t-73.5 -180.5q-2 -75 56.5 -130t150.5 -55h25z" />
    <glyph glyph-name="integral" unicode="&#x222b;" horiz-adv-x="890" 
d="M983 1481l-39 -187h-119q-54 0 -92 -38t-49 -93l-274 -1284q-25 -111 -129 -186.5t-269 -75.5h-98l39 186h117q54 0 92 37.5t49 93.5l274 1285q24 109 104.5 185.5t201.5 76.5h192z" />
    <glyph glyph-name="approxequal" unicode="&#x2248;" horiz-adv-x="1550" 
d="M184 162v190q163 115 320 115q79 0 139 -20t125 -56q139 -80 256 -80q80 0 172.5 33.5t167.5 87.5v-194q-162 -117 -340 -117q-135 0 -262 76q-46 25 -77.5 39.5t-81 27t-101.5 12.5q-163 0 -318 -114zM184 664v190q160 113 320 113q79 0 139 -20t125 -56
q139 -80 256 -80q80 0 172.5 34t167.5 89v-195q-159 -118 -340 -118q-137 0 -262 75q-47 26 -77.5 40t-80.5 27t-102 13q-161 0 -318 -112z" />
    <glyph glyph-name="notequal" unicode="&#x2260;" horiz-adv-x="1550" 
d="M184 686v191h684l131 206h207l-131 -206h289v-191h-408l-194 -309h602v-191h-723l-129 -206h-209l129 206h-248v191h369l195 309h-564z" />
    <glyph glyph-name="lessequal" unicode="&#x2264;" horiz-adv-x="1550" 
d="M184 0v190h1180v-190h-1180zM1364 1200v-213l-913 -239v-25l913 -238v-213l-1180 359v209z" />
    <glyph glyph-name="greaterequal" unicode="&#x2265;" horiz-adv-x="1550" 
d="M1364 190v-190h-1180v190h1180zM184 987v213l1180 -360v-209l-1180 -359v213l914 238v25z" />
    <glyph glyph-name="squarecrossed" unicode="&#x22a0;" horiz-adv-x="1730" 
d="M197 1337h1335v-1337h-1335v1337zM485 217l-55 -53l4 -4l119 6h623l118 -6l4 4l-55 53l-360 361l-21 22l-20 -22zM430 1174l55 -54l357 -358l20 -25l21 25l360 358l53 54l-4 4l-116 -7h-623l-119 7zM358 1106l-4 -4l6 -111v-637l-6 -118l4 -3l50 56l360 360l25 19l-25 22
l-360 363zM1374 1102l-4 4l-47 -53l-385 -385l23 -19l362 -360l47 -56l4 3l-6 118v637z" />
    <glyph glyph-name="blacksquare" unicode="&#x25a0;" horiz-adv-x="1482" 
d="M162 1163h1161v-1163h-1161v1163z" />
    <glyph glyph-name="whitesquare" unicode="&#x25a1;" horiz-adv-x="1730" 
d="M197 1337h1335v-1337h-1335v1337zM373 1171v-1005h985v1005h-985z" />
    <glyph glyph-name="blacksmallsquare" unicode="&#x25aa;" horiz-adv-x="960" 
d="M172 911h616v-616h-616v616z" />
    <glyph glyph-name="blackuppointingtriangle" unicode="&#x25b2;" horiz-adv-x="1353" 
d="M664 1206h18l575 -1188v-18h-1171v18z" />
    <glyph glyph-name="blackrightpointingtriangle" unicode="&#x25b6;" horiz-adv-x="1544" 
d="M190 1110h19l1188 -580v-18l-1188 -578h-19v1176z" />
    <glyph glyph-name="blackdownpointingtriangle" unicode="&#x25bc;" horiz-adv-x="1353" 
d="M86 991h1171v-20l-575 -1186h-18l-578 1186v20z" />
    <glyph glyph-name="blackleftpointingtriangle" unicode="&#x25c0;" horiz-adv-x="1544" 
d="M147 530l1186 580h19v-1176h-19l-1186 578v18z" />
    <glyph glyph-name="lozenge" unicode="&#x25ca;" horiz-adv-x="1376" 
d="M786 1337h129l396 -600l-29 -133l-651 -604h-129l-393 604l28 133zM819 1116l-495 -463l-2 -4l276 -428h2l496 465l2 6l-277 424h-2z" />
    <glyph glyph-name="whitecircle" unicode="&#x25cb;" horiz-adv-x="1714" 
d="M102 662q0 153 60.5 292.5t162 239.5t240.5 159.5t291 59.5q153 0 292.5 -59.5t240.5 -159.5t161 -239.5t60 -292.5t-60 -292.5t-161 -240.5t-240.5 -161t-292.5 -60q-203 0 -376.5 101t-275.5 275t-102 378zM287 662q0 -159 76 -294t207 -213.5t286 -78.5
q156 0 287.5 78.5t207.5 213.5t76 294q0 119 -45 227t-121.5 186t-182 124t-222.5 46q-155 0 -286 -77.5t-207 -212t-76 -293.5z" />
    <glyph glyph-name="blackcircle" unicode="&#x25cf;" horiz-adv-x="1464" 
d="M113 582q0 126 49 241t131.5 198t197 132t240.5 49q168 0 311 -83t226.5 -226t83.5 -311t-83.5 -310.5t-226.5 -225.5t-311 -83t-310.5 83t-225 225.5t-82.5 310.5z" />
    <glyph glyph-name="blackmediumsquare" unicode="&#x25fc;" horiz-adv-x="1122" 
d="M162 991h799v-798h-799v798z" />
    <glyph glyph-name="blackmediumcircle" unicode="&#x26ab;" horiz-adv-x="1124" 
d="M563 1034q185 0 314 -126t129 -308q0 -181 -129 -306.5t-314 -125.5q-187 0 -315.5 125t-128.5 307q0 183 128.5 308.5t315.5 125.5z" />
    <glyph glyph-name="circlecrossed" unicode="&#x2a02;" horiz-adv-x="1714" 
d="M102 662q0 153 60.5 292.5t162 239.5t240.5 159.5t291 59.5q153 0 292.5 -59.5t240.5 -159.5t161 -239.5t60 -292.5t-60 -292.5t-161 -240.5t-240.5 -161t-292.5 -60q-203 0 -376.5 101t-275.5 275t-102 378zM856 70q218 0 379 145l-358 360l-21 23l-20 -23l-357 -360
q161 -145 377 -145zM1307 295q127 159 127 367q0 205 -136 374l-348 -344l-20 -20zM762 692l-348 344q-133 -165 -133 -374q0 -208 125 -365l356 354l22 21zM856 1251q-202 0 -367 -135l347 -348l20 -25l21 25l346 348q-161 135 -367 135z" />
    <glyph glyph-name="blacklargesquare" unicode="&#x2b1b;" horiz-adv-x="1730" 
d="M197 1337h1335v-1337h-1335v1337z" />
    <glyph glyph-name="blacklargecircle" unicode="&#x2b24;" horiz-adv-x="1714" 
d="M102 662q0 153 60.5 292.5t162 239.5t240.5 159.5t291 59.5q153 0 292.5 -59.5t240.5 -159.5t161 -239.5t60 -292.5t-60 -292.5t-161 -240.5t-240.5 -161t-292.5 -60q-203 0 -376.5 101t-275.5 275t-102 378z" />
    <glyph glyph-name="commaaccent" unicode="&#xf6c3;" 
d="M291 -121l182 35q68 -73 68 -152q0 -117 -96.5 -192.5t-254.5 -75.5q-64 0 -112 14l26 130q36 -7 95 -7q143 0 143 131q0 58 -51 117z" />
    <glyph glyph-name="rupiah" unicode="&#xf6dd;" horiz-adv-x="2689" 
d="M1380 -424l246 1141q2 8 12 62t13.5 75t9 61.5t6.5 73.5h195q2 -42 -15 -133q68 65 114 94q112 72 237 72q176 0 282.5 -127t106.5 -313q0 -110 -40.5 -219.5t-110 -197t-172.5 -142t-220 -54.5q-193 0 -334 160l-119 -553h-211zM1831 678l-82 -385q49 -56 122.5 -97.5
t153.5 -41.5q141 -1 233.5 123t92.5 280q0 115 -56 197t-165 82q-144 0 -299 -158zM305 0h-229l243 1163h666q218 0 324 -112q92 -98 92 -230q0 -128 -98.5 -232t-255.5 -138l194 -451h-252l-172 432h-422zM510 961l-74 -328h518q52 0 101 19t84 60.5t35 96.5q0 63 -46 109
q-32 28 -63.5 35.5t-97.5 7.5h-457z" />
    <glyph glyph-name="sweetfonts.com" unicode="&#xf8ff;" horiz-adv-x="2048" 
d="M702 868q0 134 94 228t228 94t228 -94t94 -228q0 -133 -94 -227t-228 -94t-228 94t-94 227zM1446 877l485 280q6 5 11.5 2t5.5 -10v-561q0 -7 -5.5 -10t-11.5 2l-485 280q-4 3 -4 8.5t4 8.5zM100 588v561q0 7 5.5 10t11.5 -2l485 -280q6 -3 6 -8.5t-6 -8.5l-485 -280
q-6 -5 -11.5 -2t-5.5 10zM1798 0v238h-117v41h283v-41h-117v-238h-49zM1350 0v279h239v-41h-190v-66h127v-41h-127v-90h203v-41h-252zM967 0v279h239v-41h-190v-66h127v-41h-127v-90h203v-41h-252zM549 0l-96 279h51l61 -203h4l70 203h31l67 -203h4l66 203h47l-100 -279h-33
l-68 199h-4l-67 -199h-33zM76 45l24 31q67 -43 125 -43q101 0 101 49q0 17 -14 26.5t-31 11.5t-45 3h-7q-67 2 -104 18t-37 58q0 34 31.5 59t91.5 25q74 0 141 -37l-24 -33q-52 31 -117 31q-38 0 -58 -12.5t-20 -30.5q0 -19 24 -25t72 -8q69 -2 105.5 -19t36.5 -65
q0 -43 -41.5 -66.5t-104.5 -23.5q-85 0 -149 51z" />
    <glyph glyph-name="one.alt" horiz-adv-x="645" 
d="M86 0l252 1163h225l-250 -1163h-227z" />
    <glyph glyph-name="dollar.superior" horiz-adv-x="1064" 
d="M1051 1206l-140 -119q-59 68 -176 97l-41 -193q53 -11 93.5 -22.5t88 -32.5t78 -47.5t51.5 -67.5t21 -92q0 -147 -114.5 -229t-297.5 -82h-41l-38 -185h-132l43 203q-216 53 -358 219l139 115q103 -121 254 -166l49 230q-53 12 -88 22.5t-83 31.5t-76.5 45.5t-49 64.5
t-20.5 89q0 136 107 209.5t268 73.5q37 0 55 -2l31 143h131l-35 -161q165 -40 281 -144zM831 686q0 79 -176 121l-47 -223h31q192 0 192 102zM408 1124q0 -72 161 -108l39 186q-16 2 -45 2q-87 0 -120 -18q-35 -20 -35 -62z" />
    <glyph glyph-name="cent.superior" horiz-adv-x="888" 
d="M905 1061l-143 -109q-39 39 -90 58l-135 -422q89 6 186 69l92 -127q-37 -35 -119 -69.5t-186 -34.5h-25l-61 -193h-133l67 213q-110 35 -170.5 121t-60.5 207q0 80 34.5 156.5t93 134.5t141 93.5t173.5 35.5h29l43 131h131l-49 -154q104 -29 182 -110zM330 776
q0 -48 21.5 -91.5t62.5 -70.5l133 418q-92 -6 -154.5 -83t-62.5 -173z" />
    <glyph glyph-name="Euro.superior" horiz-adv-x="1171" 
d="M1198 1161l-156 -100q-50 54 -131.5 91.5t-173.5 37.5q-138 0 -227 -127h397l-26 -123h-426q-11 -40 -11 -84v-6h418l-26 -123h-363q29 -59 82.5 -94t126.5 -35q180 0 324 119l106 -133q-207 -164 -444 -164q-155 0 -269 83t-149 224h-137l26 123h97q0 38 10 90h-90
l26 123h105q64 135 186 220t272 85q135 0 256 -55t197 -152z" />
    <glyph glyph-name="sterling.superior" horiz-adv-x="1056" 
d="M154 852l28 143h168l21 105q16 89 80 152.5t139.5 90.5t152.5 27q82 0 173.5 -32t170.5 -87l-131 -139q-59 36 -126.5 58t-118.5 22t-93 -24.5t-49 -67.5l-18 -105h356l-30 -143h-351l-16 -92q-11 -66 -49.5 -102t-116.5 -48h649l-35 -159h-890l34 159h58q75 0 104 32
t45 118l17 92h-172z" />
    <glyph glyph-name="yen.superior" horiz-adv-x="1173" 
d="M158 940l26 123h240l-150 274h238l162 -309l299 309h252l-273 -274h244l-27 -123h-338l-88 -90h408l-27 -123h-407l-62 -276h-200l61 276h-403l24 123h404l-49 90h-334z" />
    <glyph glyph-name="numbersign.superior" horiz-adv-x="1275" 
d="M967 1413h145l-76 -268h291l-31 -144h-301l-67 -245h272l-29 -144h-284l-86 -311h-146l86 311h-227l-86 -311h-145l86 311h-287l29 144h299l67 245h-270l31 144h280l76 268h145l-75 -268h227zM623 1001l-68 -245h227l68 245h-227z" />
    <glyph glyph-name="percent.superior" horiz-adv-x="1615" 
d="M1280 1395l-635 -944h-158l637 944h156zM985 678q0 117 95.5 205t224.5 88q114 0 191 -74t77 -178q0 -119 -98 -206t-228 -87q-113 0 -187.5 72.5t-74.5 179.5zM1157 688q0 -45 31 -77.5t76 -32.5q56 0 97.5 39.5t41.5 91.5q0 44 -33 76t-80 32q-54 0 -93.5 -37.5
t-39.5 -91.5zM193 1128q0 117 95 205t224 88q114 0 191 -74t77 -178q0 -119 -97.5 -205.5t-227.5 -86.5q-113 0 -187.5 72t-74.5 179zM365 1139q0 -45 30.5 -78t75.5 -33q56 0 97.5 39.5t41.5 91.5q0 45 -32.5 77t-79.5 32q-54 0 -93.5 -37.5t-39.5 -91.5z" />
    <glyph glyph-name="period.superior" horiz-adv-x="473" 
d="M100 537q0 55 44 95t104 40q54 0 90.5 -33.5t36.5 -81.5q0 -54 -45 -93.5t-107 -39.5q-53 0 -88 33t-35 80z" />
    <glyph glyph-name="comma.superior" horiz-adv-x="507" 
d="M70 162l-43 117q41 9 92 31t94 56.5t43 65.5q-8 -2 -29 -2q-55 0 -91 31.5t-36 79.5q0 54 45.5 92.5t108.5 38.5q62 0 108 -45.5t46 -114.5q0 -59 -22.5 -111.5t-56.5 -88.5t-81.5 -67t-89 -49.5t-88.5 -33.5z" />
    <glyph glyph-name="hyphen.superior" horiz-adv-x="593" 
d="M147 715l31 182h371l-29 -182h-373z" />
    <glyph glyph-name="zero.tos" horiz-adv-x="1409" 
d="M96 514q0 185 97.5 345t255.5 251.5t333 91.5q150 0 273 -73t192.5 -199.5t69.5 -280.5q0 -140 -58 -269t-153.5 -220.5t-222 -146t-258.5 -54.5q-149 0 -270.5 73t-190 200t-68.5 282zM324 537q0 -157 93 -265t236 -108q110 0 210 62.5t161 170t61 230.5
q0 156 -96.5 265t-236.5 109q-83 0 -161.5 -37.5t-137 -100t-94 -148.5t-35.5 -178z" />
    <glyph glyph-name="one.tos" horiz-adv-x="1409" 
d="M137 0l37 180h444l166 776l-460 -127l-13 185l516 149h228l-209 -983h338l-37 -180h-1010z" />
    <glyph glyph-name="two.tos" horiz-adv-x="1409" 
d="M371 870l-103 172q153 77 279 118.5t276 41.5q61 0 125 -9t135 -32.5t125.5 -59t90.5 -93.5t36 -131q0 -65 -25 -120.5t-64 -94t-95 -70.5t-109.5 -51t-116.5 -34.5t-107 -23t-90 -14.5q-10 -1 -15 -2q-69 -10 -116.5 -19.5t-100 -27.5t-86.5 -42t-62 -61.5t-41 -87.5
l-12 -49h858l-39 -180h-1081l47 231q81 359 663 439q36 2 86 11.5t117 28.5t112.5 57t45.5 87q0 34 -21 61t-53 42.5t-72.5 26t-76 14t-68.5 3.5q-120 0 -224 -34t-218 -97z" />
    <glyph glyph-name="three.tos" horiz-adv-x="1409" 
d="M365 858l-107 154q125 81 271 135.5t286 54.5q54 0 113.5 -11.5t121 -37t110 -61t79.5 -90t31 -117.5q0 -83 -50 -159t-128 -105q62 -25 106.5 -86t44.5 -166q0 -102 -49 -182t-133 -129t-188.5 -74t-221.5 -25q-197 0 -367 78.5t-288 241.5l174 145q85 -126 216.5 -195
t289.5 -69q94 0 169.5 22t124 70.5t48.5 116.5q0 42 -19 73.5t-49 47t-58.5 23t-55.5 7.5h-224l43 182h222q65 0 107 37.5t42 100.5q0 55 -39 93t-89 53t-103 15q-202 0 -430 -143z" />
    <glyph glyph-name="four.tos" horiz-adv-x="1409" 
d="M1298 436l-43 -180h-219l-55 -256h-227l55 256h-823l41 158l1015 749h197l-162 -727h221zM375 442l-2 -6h475l94 432h-18z" />
    <glyph glyph-name="five.tos" horiz-adv-x="1409" 
d="M1282 1163l-45 -200h-741l-58 -273q86 37 157.5 54.5t160.5 17.5q66 0 133 -11t137 -38.5t123 -67.5t87 -104.5t34 -143.5q0 -88 -33 -161.5t-90 -124t-133.5 -85.5t-162 -51t-177.5 -16q-211 0 -368 61.5t-288 188.5l152 147q88 -94 223 -144t295 -50q58 0 115 10.5
t112.5 33.5t90 67t34.5 104q0 52 -34.5 91.5t-89 60t-109.5 30.5t-107 10q-70 0 -141 -11t-116.5 -23.5t-114.5 -34.5l-113 114l117 549h950z" />
    <glyph glyph-name="six.tos" horiz-adv-x="1409" 
d="M1343 1030l-153 -147q-69 56 -170 87t-203 31q-108 0 -207 -41t-173.5 -122.5t-100.5 -188.5q236 117 446 117q86 0 168.5 -20t155 -60.5t116.5 -110t44 -159.5q0 -102 -45 -189t-121 -145t-174.5 -90.5t-206.5 -32.5q-89 0 -175 22t-164 68t-137 110.5t-93.5 156.5
t-34.5 200q0 145 58 273.5t156 218.5t231.5 142t281.5 52q137 0 267.5 -44t233.5 -128zM725 582q-175 0 -399 -95q20 -154 136.5 -243.5t270.5 -81.5q52 2 102.5 17t95.5 41.5t73 72.5t28 104q0 52 -29.5 90.5t-78 58t-98 28t-101.5 8.5z" />
    <glyph glyph-name="seven.tos" horiz-adv-x="1409" 
d="M193 963l40 200h1182l-41 -205l-930 -958h-299l969 963h-921z" />
    <glyph glyph-name="eight.tos" horiz-adv-x="1409" 
d="M61 346q0 137 98 225.5t255 102.5q-166 51 -166 213q0 70 34 127t86 92t120 58.5t131 32.5t124 9q65 0 135 -10.5t145.5 -36.5t134 -64t96.5 -99.5t38 -137.5q0 -112 -72 -178t-196 -74q94 -30 154.5 -102.5t60.5 -177.5q0 -78 -37 -142t-95.5 -105t-133.5 -69.5
t-149 -40.5t-144 -12q-72 0 -151.5 12.5t-164 42.5t-151 73t-109.5 111t-43 150zM319 387q-8 -47 16 -86.5t66.5 -64.5t96.5 -42.5t104 -24.5t92 -7q43 0 89 8.5t95.5 27t81 56t31.5 88.5q0 55 -39 98t-98.5 65.5t-118.5 34t-110 11.5q-39 0 -83 -7t-93.5 -23.5t-85.5 -51.5
t-44 -82zM492 877q0 -49 35.5 -84.5t90.5 -52t102 -23t89 -6.5q37 0 71.5 5t73.5 18t62.5 41t23.5 69q0 46 -29.5 82.5t-76 56t-95 29.5t-94.5 10q-37 0 -77 -7t-81.5 -22t-68 -45t-26.5 -71z" />
    <glyph glyph-name="nine.tos" horiz-adv-x="1409" 
d="M70 135l155 146q66 -56 167 -88.5t200 -32.5q108 0 207.5 41t174.5 122.5t101 188.5q-232 -115 -448 -115q-84 0 -165.5 20.5t-153.5 60.5t-116.5 110.5t-44.5 159.5q0 135 76.5 240t200.5 159.5t272 54.5q111 0 216.5 -35.5t193 -102t141 -175t53.5 -242.5
q0 -193 -99.5 -352t-267 -247.5t-366.5 -88.5q-133 0 -263.5 45.5t-233.5 130.5zM684 582q188 0 401 92q-18 154 -134 242.5t-271 82.5q-52 -2 -102 -16t-96 -40.5t-74.5 -72.5t-28.5 -104q0 -52 30 -90t78.5 -57.5t97 -28t99.5 -8.5z" />
    <glyph glyph-name="dollar.tos" horiz-adv-x="1409" 
d="M1298 987l-159 -135q-83 92 -254 135l-60 -289q72 -15 124.5 -29t117 -42t105 -62t68.5 -88.5t28 -122.5q0 -186 -149 -289.5t-386 -103.5q-10 0 -30 1t-29 1l-51 -248h-152l53 269q-291 62 -483 284l160 131q141 -170 362 -227l72 346q-50 11 -87 20.5t-84 25t-81 32.5
t-68.5 42t-56.5 54.5t-35.5 69.5t-13.5 86q0 88 39 157t106 111t152.5 64t183.5 22q26 0 84 -4l39 193h154l-43 -215q219 -49 374 -189zM1047 307q0 68 -67 110t-198 70l-69 -337h45q53 0 98.5 6.5t91.5 22t72.5 48.5t26.5 80zM430 887q0 -63 63.5 -99t184.5 -63l57 287
q-23 2 -69 2q-34 0 -60 -1.5t-61 -9t-58.5 -20.5t-40 -37.5t-16.5 -58.5z" />
    <glyph glyph-name="cent.tos" horiz-adv-x="1409" 
d="M868 1133h156l-66 -201q184 -42 310 -150l-158 -125q-90 66 -211 95l-194 -598h8q192 0 342 96l119 -146q-56 -44 -178 -88.5t-279 -44.5q-47 0 -70 2l-84 -258h-153l90 281q-179 45 -282 160.5t-103 279.5q0 100 49 194.5t132 166.5t203 115.5t253 43.5q9 0 28.5 -1
t28.5 -1zM348 432q0 -80 56.5 -150.5t154.5 -103.5l191 592q-171 0 -286.5 -102.5t-115.5 -235.5z" />
    <glyph glyph-name="Euro.tos" horiz-adv-x="1409" 
d="M1368 934l-182 -115q-60 77 -157 127.5t-210 50.5q-92 0 -171 -54.5t-132 -147.5h498l-31 -144h-522q-15 -62 -15 -125v-8h512l-32 -143h-457q33 -96 103 -152.5t167 -56.5q109 0 210 42.5t179 110.5l123 -149q-107 -92 -242.5 -149.5t-287.5 -57.5q-188 0 -326 112
t-178 300h-162l33 143h117q0 70 14 133h-106l30 144h121q78 178 230 291.5t335 113.5q161 0 305 -70t234 -196z" />
    <glyph glyph-name="sterling.tos" horiz-adv-x="1409" 
d="M125 539l35 163h235l27 150q16 87 67.5 157t121 110.5t144.5 61.5t148 21q106 0 226.5 -41.5t224.5 -111.5l-150 -158q-78 47 -172.5 77.5t-163.5 30.5q-78 0 -143 -38.5t-76 -108.5l-26 -150h491l-33 -163h-485l-25 -146q-15 -94 -64 -143.5t-151 -67.5h871l-35 -182
h-1178l37 182h76q107 0 150 44.5t65 166.5l25 146h-242z" />
    <glyph glyph-name="yen.tos" horiz-adv-x="1409" 
d="M113 651l30 144h301l-184 368h270l199 -430l375 430h289l-342 -368h303l-31 -144h-405l-111 -121l-4 -12h493l-32 -143h-492l-82 -375h-227l80 375h-488l31 143h487l5 12l-62 121h-403z" />
    <glyph glyph-name="florin.tos" horiz-adv-x="1409" 
d="M389 702h227l76 240q22 70 65.5 123.5t98 82t109 42.5t108.5 14q60 0 123.5 -12.5t91.5 -26.5l-88 -176q-18 12 -64 21.5t-81 9.5q-59 0 -100.5 -20.5t-51.5 -55.5l-76 -242h260l-34 -163h-279l-170 -539q-29 -92 -80.5 -160.5t-115.5 -107.5t-131 -57.5t-138 -18.5
l17 164q26 6 39.5 9t39 11t40.5 16t36 22t34.5 30t27 39.5t22.5 52.5l170 539h-211z" />
    <glyph glyph-name="colonmonetary.tos" horiz-adv-x="1409" 
d="M1370 944l-170 -108q-55 59 -119 98l-239 -772q159 35 297 143l112 -141q-217 -175 -471 -199l-75 -250h-132l76 248q-65 5 -157 31l-86 -279h-130l101 328q-126 70 -197 192.5t-71 280.5q0 121 47.5 238t129.5 210t198.5 156t246.5 78l60 193h131l-60 -191
q89 -6 160 -26l68 217h133l-82 -263q141 -67 229 -184zM551 184q70 -31 156 -34l258 837q-83 27 -160 27zM336 535q0 -166 106 -275l226 731q-146 -46 -239 -174.5t-93 -281.5z" />
    <glyph glyph-name="franc.tos" horiz-adv-x="1409" 
d="M39 219l29 141h200l166 803h998l-43 -202h-766l-48 -216h465l-41 -202h-462l-39 -183h352l-29 -141h-352l-45 -219h-229l45 219h-201z" />
    <glyph glyph-name="lira.tos" horiz-adv-x="1409" 
d="M158 651l26 144h238l10 57q16 87 67.5 157t121 110.5t144.5 61.5t148 21q106 0 226.5 -41.5t224.5 -111.5l-150 -158q-78 47 -172 77.5t-163 30.5q-78 0 -143.5 -38.5t-76.5 -108.5l-10 -57h498l-29 -144h-493l-23 -133h490l-31 -143h-483q-17 -86 -65.5 -131t-145.5 -62
h870l-35 -182h-1177l36 182h76q103 0 146 41t65 152h-250l31 143h244l24 133h-239z" />
    <glyph glyph-name="peso.tos" horiz-adv-x="1409" 
d="M84 664l29 141h184l74 358h501q97 0 161 -24t114 -74q108 -111 113 -260h163l-28 -141h-154q-33 -120 -141 -222q-71 -69 -157.5 -104t-215.5 -35h-303l-66 -303h-227l135 664h-182zM942 575q40 37 64 89h-510l-31 -156h285q120 0 192 67zM555 961l-31 -156h502
q-7 68 -55 113q-25 24 -55.5 33.5t-84.5 9.5h-276z" />
    <glyph glyph-name="Rupee.tos" horiz-adv-x="1409" 
d="M72 664l30 141h869q-7 66 -56 113q-25 24 -55 33.5t-84 9.5h-643l45 202h1309l-31 -141h-346l18 -18q73 -76 76 -199h207l-31 -141h-194q-33 -119 -142 -222q-71 -59 -156.5 -88.5t-215.5 -29.5l-256 14l534 -338h-379l-561 367l29 141h655q121 0 193 67q39 36 63 89
h-878z" />
    <glyph glyph-name="section.tos" horiz-adv-x="1409" 
d="M1122 147q-36 -27 -127 -69l15 -41q6 -24 6 -62q0 -103 -60 -174.5t-153 -103t-209 -31.5q-125 0 -246.5 38t-220.5 110l129 143q159 -104 340 -104q190 0 190 108q0 21 -10 31q-6 9 -16.5 16.5t-26 14.5t-28.5 12t-36 11t-37.5 9t-43 9.5t-41.5 9.5q-61 14 -105 27
t-110.5 38t-119 62t-85.5 84q-51 74 -51 161q0 78 40 151t113 128q45 37 125 68q-3 4 -5 10t-4 14l-3 12q-8 56 -8 72q0 100 64.5 171t159 102.5t206.5 31.5q122 0 242 -38t217 -109l-127 -144q-168 109 -346 109q-157 0 -181 -92q-8 -34 6 -51q6 -9 15.5 -16.5t25.5 -14.5
t27.5 -11.5t36 -10.5t36.5 -8.5t43.5 -9t43.5 -9.5q320 -69 422 -213q47 -68 47 -158q0 -84 -39.5 -158.5t-110.5 -124.5zM764 602q-10 2 -41.5 8.5t-45.5 9.5t-42.5 9.5t-46.5 12t-42.5 13.5t-45 17t-39.5 20q0 -1 -2.5 -2.5t-13 -8.5t-23.5 -17q-111 -84 -111 -187
q0 -52 25 -84q20 -28 49.5 -49.5t72.5 -36.5t64.5 -20.5t67.5 -16.5q10 -2 51.5 -11t55.5 -12t48 -12t52.5 -15.5t44 -17t45.5 -22.5l43 31q110 87 110 184q0 49 -26 86q-22 32 -69 58t-86 38t-95 25z" />
    <glyph glyph-name="numbersign.tos" horiz-adv-x="1409" 
d="M1012 1264h170l-99 -363h328l-39 -162h-332l-94 -354h307l-41 -164h-311l-110 -418h-166l110 418h-248l-110 -418h-168l110 418h-321l39 164h328l94 354h-305l36 162h312l96 363h168l-96 -363h245zM627 739l-95 -354h246l94 354h-245z" />
    <glyph glyph-name="percent.tos" horiz-adv-x="1409" 
d="M115 913q19 147 109 252t200 105q97 0 159 -87.5t62 -215.5q0 -164 -98 -288t-221 -124q-109 0 -171 105t-40 253zM1137 1239l-660 -1239h-180l661 1239h179zM287 913q-11 -76 9.5 -130t59.5 -54q43 0 79 68.5t36 154.5q0 61 -21 102.5t-53 41.5q-35 0 -68 -54t-42 -129z
M786 270q0 107 44.5 203t117.5 153.5t154 57.5q95 0 158 -88.5t63 -214.5q0 -108 -46.5 -204t-121.5 -152t-156 -56q-94 0 -153.5 86t-59.5 215zM961 283q0 -59 19 -99.5t50 -40.5q43 0 80 69t37 155q0 61 -21 102t-53 41q-42 0 -77 -69t-35 -158z" />
    <glyph glyph-name="zero.pl" horiz-adv-x="1669" 
d="M121 573q0 146 66 280.5t174.5 231t254 154t299.5 57.5q137 0 260 -48t210.5 -130t138.5 -195.5t51 -240.5q0 -147 -66.5 -281.5t-176.5 -231t-256.5 -153.5t-301.5 -57q-137 0 -258.5 47.5t-208 129.5t-136.5 195.5t-50 241.5zM350 590q0 -179 127.5 -302.5
t317.5 -123.5q143 0 269 67.5t202.5 184t76.5 250.5q0 178 -129.5 302t-320.5 124q-142 0 -267.5 -68t-200.5 -184.5t-75 -249.5z" />
    <glyph glyph-name="one.pl" horiz-adv-x="884" 
d="M141 907v187l412 161h229l-262 -1255h-229l221 1049z" />
    <glyph glyph-name="one.pl.alt" horiz-adv-x="684" 
d="M90 0l262 1255h230l-263 -1255h-229z" />
    <glyph glyph-name="two.pl" horiz-adv-x="1368" 
d="M354 954l-98 172q77 41 128.5 64.5t126 52t150.5 42t156 13.5q61 0 126 -10t136 -36t126 -64t90.5 -100.5t35.5 -139.5q0 -67 -25 -124.5t-58.5 -97t-94.5 -74t-104 -53.5t-118 -38.5t-105 -25.5t-95 -17q-8 -2 -12 -2.5t-10 -1.5t-11 -2q-84 -12 -145 -29t-117.5 -48
t-94 -80.5t-56.5 -118.5l-15 -52h873l-39 -184h-1098l51 240q85 391 674 475q369 53 369 209q0 48 -31 83t-79.5 52t-94.5 25t-90 8q-121 0 -227 -36t-224 -102z" />
    <glyph glyph-name="three.pl" horiz-adv-x="1542" 
d="M692 569l41 185h246q80 0 136 41.5t56 109.5q0 49 -27.5 86.5t-72 58.5t-92 31.5t-94.5 10.5q-123 0 -250 -42.5t-238 -109.5l-108 154q136 86 296.5 144t315.5 58q50 0 105 -9t113 -26.5t109.5 -47t93 -66t65.5 -88t24 -109.5q0 -91 -57.5 -170t-147.5 -110
q33 -12 63.5 -32.5t60.5 -53.5t47.5 -83.5t17.5 -111.5q0 -107 -55.5 -191.5t-149 -135.5t-208 -77t-241.5 -26q-223 0 -413 83t-326 257l170 145q102 -136 255.5 -208t338.5 -72q79 0 149 13.5t128 40t92 71t34 102.5q0 48 -24 85t-61 56t-72 28t-66 9h-254z" />
    <glyph glyph-name="four.pl" horiz-adv-x="1607" 
d="M1509 465l-41 -184h-251l-60 -281h-229l59 281h-985l35 159l1184 815h202l-168 -790h254zM385 473l-2 -8h643l107 496h-23z" />
    <glyph glyph-name="five.pl" horiz-adv-x="1503" 
d="M1397 1255l-45 -204h-830l-59 -285q177 78 348 78q73 0 147.5 -12t151.5 -41t136 -72.5t96.5 -113.5t37.5 -156q0 -99 -36 -182t-97.5 -139.5t-144 -95.5t-174.5 -57t-191 -18q-233 0 -409 77t-324 234l170 146q101 -122 251 -188t325 -66q67 0 132.5 13.5t127.5 42.5
t100.5 83.5t38.5 128.5q0 49 -26.5 89t-67.5 64t-94.5 40.5t-104 23t-98.5 6.5q-109 0 -203 -25t-203 -71l-121 117l125 583h1041z" />
    <glyph glyph-name="six.pl" horiz-adv-x="1546" 
d="M1499 1085l-172 -145q-81 72 -194 112t-230 40q-128 0 -244.5 -46.5t-202.5 -138t-114 -211.5q273 129 514 129q97 0 191 -22t177 -66t134 -120.5t51 -174.5q0 -110 -50.5 -202t-135 -153t-194 -94.5t-228.5 -33.5q-100 0 -197 24t-184.5 74.5t-154 120.5t-105.5 170.5
t-39 216.5q0 154 63.5 290.5t171.5 233t256 152t312 55.5q159 0 307.5 -54t267.5 -157zM803 641q-202 0 -467 -109q14 -116 84 -202.5t173 -128.5t222 -37q64 2 125 18t116 46t88.5 81t33.5 115q0 49 -24.5 88t-63 62.5t-90 39t-100 21.5t-97.5 6z" />
    <glyph glyph-name="seven.pl" horiz-adv-x="1343" 
d="M168 1051l43 204h1196l-43 -204l-952 -1051h-301l989 1051h-932z" />
    <glyph glyph-name="eight.pl" horiz-adv-x="1548" 
d="M766 -45q-81 0 -170.5 14t-184.5 46.5t-170 79.5t-123 121t-48 163q0 147 116.5 240.5t290.5 107.5q-205 57 -205 236q0 75 37 134.5t95 96.5t132.5 62t145 34.5t137.5 9.5q72 0 150.5 -11.5t163 -39.5t150.5 -69t108.5 -107t42.5 -147q0 -121 -88 -191t-228 -78
q118 -33 195.5 -113.5t77.5 -197.5q0 -82 -41.5 -150t-107 -112t-149.5 -74t-166.5 -42.5t-160.5 -12.5zM326 414q-9 -66 36.5 -117.5t120.5 -80t151 -42.5t142 -14q41 0 85.5 5t96.5 19.5t92 36t66.5 58.5t26.5 83q0 63 -48 113t-120.5 76.5t-144.5 39.5t-134 13
q-50 0 -104 -8.5t-114.5 -27.5t-102.5 -59t-49 -95zM825 1116q-45 0 -93.5 -8t-99 -25.5t-82.5 -52.5t-32 -82q0 -45 30 -80t73 -54t99.5 -31.5t100.5 -16.5t84 -4q44 0 86 6t88 21t73.5 47.5t27.5 78.5q0 51 -36 92t-91.5 63.5t-114.5 34t-113 11.5z" />
    <glyph glyph-name="nine.pl" horiz-adv-x="1548" 
d="M72 170l172 145q80 -72 193 -111.5t231 -39.5q128 0 244.5 46t202 137.5t112.5 211.5q-264 -129 -512 -129q-97 0 -191 22t-177 66t-134 120.5t-51 174.5q0 110 50.5 202t135 153t194 94.5t228.5 33.5q100 0 197 -24t184.5 -74.5t154 -120.5t105.5 -170.5t39 -216.5
q0 -154 -63.5 -290.5t-171.5 -233t-256 -152t-312 -55.5q-159 0 -307.5 54t-267.5 157zM768 614q207 0 467 107q-23 175 -159.5 276t-319.5 95q-64 -2 -125 -18.5t-116 -46.5t-88.5 -81t-33.5 -115q0 -49 24.5 -88t63 -62.5t90 -39t100 -21.5t97.5 -6z" />
    <glyph glyph-name="dollar.pl" horiz-adv-x="1435" 
d="M856 1501h154l-49 -231q237 -55 399 -207l-160 -135q-92 106 -280 151l-70 -331q63 -13 111 -25t107 -32.5t101 -47.5t79 -63t56 -86.5t19 -110.5q0 -134 -76 -231.5t-204 -145t-293 -47.5q-12 0 -34 1t-32 1l-57 -268h-154l62 289q-314 64 -517 307l160 133
q157 -190 397 -248l82 391q-55 13 -93.5 23t-89.5 27t-86 34.5t-72 44t-59.5 57t-37 72t-14.5 90.5q0 95 41.5 169.5t113 120t163 69.5t196.5 24q30 0 92 -4zM1100 334q0 79 -75.5 126t-219.5 77l-82 -385q18 -2 53 -2q46 0 88 4.5t86.5 17t76.5 32t52.5 53t20.5 77.5z
M428 956q0 -38 20 -67t59.5 -50t85 -35t109.5 -28l70 326q-58 4 -82 4q-262 0 -262 -150z" />
    <glyph glyph-name="cent.pl" horiz-adv-x="1155" 
d="M774 1214h154l-70 -219q165 -49 268 -161l-165 -125q-60 64 -162 102l-209 -657q150 0 305 106l109 -147q-52 -47 -165 -95.5t-255 -48.5q-36 0 -54 2l-88 -278h-153l96 305q-153 44 -239.5 162t-86.5 286q0 110 47.5 215t128 184.5t194 128t237.5 48.5q8 0 23.5 -1
t23.5 -1zM293 449q0 -84 40 -155t113 -108l207 650q-151 0 -255.5 -117.5t-104.5 -269.5z" />
    <glyph glyph-name="Euro.pl" horiz-adv-x="1617" 
d="M1591 1008l-180 -115q-79 85 -200.5 141t-256.5 56q-121 0 -225.5 -65t-171.5 -173h623l-31 -143h-653q-17 -73 -17 -134v-20h639l-31 -143h-577q43 -111 138 -178.5t222 -67.5q128 0 248.5 46t216.5 120l123 -152q-125 -97 -279 -158t-325 -61q-222 0 -386.5 122
t-211.5 329h-193l31 143h146v6q0 70 16 148h-131l31 143h147q88 194 266.5 318t393.5 124q186 0 353 -75.5t275 -210.5z" />
    <glyph glyph-name="sterling.pl" horiz-adv-x="1476" 
d="M131 588l35 166h260l31 166q18 94 72.5 168.5t129 118.5t155 66.5t159.5 22.5q112 0 239 -44t238 -119l-150 -160q-87 53 -187.5 86t-176.5 33q-89 0 -163.5 -44.5t-88.5 -127.5l-31 -166h537l-35 -166h-530l-29 -170q-19 -105 -70.5 -159.5t-158.5 -74.5h940l-39 -184
h-1262l39 184h82q119 0 166.5 49t71.5 185l30 170h-264z" />
    <glyph glyph-name="yen.pl" horiz-adv-x="1644" 
d="M152 709l30 143h365l-228 403h273l260 -475l471 475h289l-404 -403h365l-31 -143h-477l-133 -134l-4 -20h581l-30 -143h-584l-90 -412h-230l91 412h-576l29 143h579l4 20l-75 134h-475z" />
    <glyph glyph-name="florin.pl" horiz-adv-x="870" 
d="M86 588l37 166h233l82 258q20 62 55 112t76 82t88.5 53t92 30t88.5 9q62 0 127 -14.5t94 -32.5l-94 -176q-17 13 -64.5 25t-83.5 12q-63 0 -107 -25.5t-61 -74.5l-82 -258h271l-37 -166h-287l-186 -588q-32 -98 -86 -171.5t-120.5 -115.5t-136 -62t-141.5 -20l19 166
q36 7 59.5 14t56.5 22t56 35t45.5 54t36.5 78l186 588h-217z" />
    <glyph glyph-name="colonmonetary.pl" horiz-adv-x="1476" 
d="M1178 1501h133l-88 -278q162 -73 270 -205l-170 -109q-63 66 -162 121l-276 -872q196 36 356 159l115 -143q-246 -189 -535 -211l-84 -270h-133l84 270q-93 6 -186 35l-96 -305h-134l113 354q-144 77 -226.5 210t-82.5 304q0 175 91 335t253.5 267t357.5 127l68 211h133
l-66 -207q98 -6 189 -30zM563 190q89 -37 185 -40l294 927q-92 29 -186 29h-4zM303 578q0 -94 39 -177t111 -143l262 829q-177 -47 -294.5 -191.5t-117.5 -317.5z" />
    <glyph glyph-name="franc.pl" horiz-adv-x="1400" 
d="M10 248l31 143h213l184 864h1045l-45 -204h-815l-54 -250h494l-43 -205h-494l-43 -205h371l-31 -143h-370l-54 -248h-229l53 248h-213z" />
    <glyph glyph-name="lira.pl" horiz-adv-x="1488" 
d="M172 709l29 143h258l12 68q17 94 71 168.5t128 118.5t155 66.5t160 22.5q116 0 243 -45t236 -118l-149 -160q-87 53 -188 86t-177 33q-89 0 -163.5 -44.5t-88.5 -127.5l-12 -68h539l-29 -143h-534l-27 -154h528l-30 -143h-525q-19 -101 -70 -154.5t-157 -73.5h940
l-39 -184h-1262l39 184h82q117 0 164.5 48t71.5 180h-268l30 143h264l29 154h-260z" />
    <glyph glyph-name="peso.pl" horiz-adv-x="1703" 
d="M119 729l31 143h212l82 383h635q206 0 320 -114q106 -109 112 -269h199l-31 -143h-186q-37 -134 -150 -244q-72 -69 -159.5 -105t-220.5 -36h-484l-73 -344h-230l156 729h-213zM1182 618q53 50 78 111h-699l-37 -178h463q70 0 114.5 16.5t80.5 50.5zM1036 1051h-407
l-39 -179h686q-9 67 -55 117q-62 62 -185 62z" />
    <glyph glyph-name="peseta.pl" horiz-adv-x="3272" 
d="M1995 162l-15 -166q-29 -16 -94 -26.5t-117 -10.5q-64 0 -114 18t-85.5 67.5t-35.5 127.5q0 38 8 74l121 577h-174q-26 -117 -125 -213q-73 -70 -168 -103.5t-229 -33.5h-527l-104 -473h-230l277 1255h696q216 0 322 -112q61 -67 84 -154h213l63 293h211l-63 -293h262
l-35 -166h-262l-117 -559q-6 -21 -6 -47q0 -72 98 -72q29 0 77.5 5.5t68.5 11.5zM3183 866l-113 -153q-71 58 -180.5 97.5t-202.5 39.5q-74 0 -127 -27t-53 -80q0 -29 16.5 -51.5t47.5 -36.5t61 -22t71 -15q44 -8 62.5 -11t62 -13t66 -17.5t60 -22t57.5 -29.5t46 -38
t39.5 -48.5t23 -60t9.5 -73.5q0 -157 -127.5 -248.5t-326.5 -91.5q-148 0 -288.5 52.5t-244.5 150.5l113 151q84 -77 200 -127.5t228 -50.5q57 0 106 13t85 46.5t36 82.5q0 34 -16.5 58t-49.5 39.5t-64 23.5t-79 16h-1h-1l-1 1h-1h-1h-1h-1h-1l-1 1q-170 29 -242 62
q-157 71 -158 233q0 145 109.5 227t289.5 82q130 0 261.5 -43t230.5 -117zM569 1051l-84 -371h486q165 0 246 76q53 50 53 131q0 65 -47 112q-27 27 -62.5 39.5t-103.5 12.5h-488z" />
    <glyph glyph-name="rupiah.pl" horiz-adv-x="2748" 
d="M336 0h-230l277 1255h694q117 0 193 -28t131 -86q94 -100 94 -234q0 -138 -104.5 -250.5t-260.5 -148.5l185 -508h-252l-164 496h-453zM569 1051l-77 -351h528q93 0 170.5 52.5t77.5 134.5q0 67 -45 112q-22 23 -53 35t-55 14.5t-60 2.5h-486zM1450 -424l246 1141
q41 197 41 272h194q2 -46 -14 -133q66 63 108 91q114 75 242 75q176 0 282.5 -127t106.5 -313q0 -110 -40 -219.5t-109.5 -197t-172.5 -142t-220 -54.5q-193 0 -334 160l-119 -553h-211zM1901 678l-82 -385q49 -56 122.5 -97.5t153.5 -41.5q139 -1 232.5 122t93.5 281
q0 115 -56 197t-165 82q-144 0 -299 -158z" />
    <glyph glyph-name="Rupee.pl" horiz-adv-x="1738" 
d="M266 729l31 143h915q-9 67 -55 117q-62 62 -184 62h-635l43 204h1348l-31 -143h-359l21 -18q81 -81 88 -222h199l-31 -143h-186q-37 -134 -150 -244q-72 -58 -160 -89t-221 -31l-264 16l557 -381h-379l-612 401l32 150h691q70 0 114 16.5t80 50.5q53 50 78 111h-930z" />
    <glyph glyph-name="section.pl" horiz-adv-x="1409" 
d="M1319 465q0 -90 -44 -170t-120 -137q-51 -39 -145 -76q12 -24 18 -45q8 -27 8 -70q0 -82 -37 -145.5t-100 -102t-142 -58t-169 -19.5q-134 0 -262 41.5t-232 119.5l129 146q163 -119 369 -119q213 0 213 125q0 24 -10 37q-8 12 -24 22t-31.5 17t-44 15t-45.5 12t-54 12
t-53 12q-62 14 -112.5 29t-118.5 41.5t-123.5 66.5t-90.5 90q-53 72 -53 172q0 172 164 301q48 39 143 76q-8 11 -16 41q-8 32 -8 76q0 80 39.5 144t105.5 102.5t145.5 58.5t165.5 20q128 0 256 -42t230 -119l-129 -146q-76 56 -174.5 89.5t-198.5 33.5q-180 0 -205 -108
q-8 -36 8 -58q5 -8 12.5 -14.5t18.5 -12.5t21 -11t26.5 -10t28 -8.5t33 -8.5t34 -8t38 -8.5t38.5 -8.5q345 -78 447 -227q51 -73 51 -168zM778 662q-11 2 -74.5 16t-90 21t-72.5 23.5t-80 35.5q-27 -13 -60 -39q-122 -95 -122 -205q0 -53 30 -96q27 -40 80 -69.5t94.5 -42
t102.5 -25.5q9 -2 63.5 -14t73 -16.5t58 -16t68 -23.5t54.5 -27q1 0 9 4.5t21.5 13t29.5 21.5q122 94 122 205q0 54 -30 96q-57 87 -277 138z" />
    <glyph glyph-name="numbersign.pl" horiz-adv-x="1767" 
d="M1284 1364h170l-111 -395h429l-35 -164h-439l-110 -397h403l-35 -164h-415l-127 -457h-170l127 457h-363l-127 -457h-170l127 457h-424l33 164h438l111 397h-403l34 164h414l111 395h170l-111 -395h363zM766 805l-111 -397h363l110 397h-362z" />
    <glyph glyph-name="percent.pl" horiz-adv-x="2179" 
d="M1470 1337h181l-899 -1337h-183zM1245 324q0 109 62.5 205t167.5 153t225 57q160 0 269.5 -104.5t109.5 -251.5q0 -110 -64.5 -206.5t-171 -153t-225.5 -56.5q-160 0 -266.5 103.5t-106.5 253.5zM1444 336q0 -79 55 -136t137 -57q97 0 171.5 68t74.5 160q0 80 -58.5 136
t-142.5 56q-96 0 -166.5 -67t-70.5 -160zM141 954q0 109 62.5 205.5t167.5 153.5t225 57q160 0 269.5 -104.5t109.5 -251.5q0 -110 -64.5 -206.5t-171 -153t-225.5 -56.5q-160 0 -266.5 103t-106.5 253zM340 967q0 -79 55 -136t137 -57q97 0 171.5 67.5t74.5 159.5
q0 80 -58 136.5t-142 56.5q-96 0 -167 -67t-71 -160z" />
    <glyph glyph-name="perthousand.pl" horiz-adv-x="3102" 
d="M1470 1337h181l-899 -1337h-183zM1245 324q0 109 62.5 205t167.5 153t225 57q160 0 269.5 -104.5t109.5 -251.5q0 -110 -64.5 -206.5t-171 -153t-225.5 -56.5q-160 0 -266.5 103.5t-106.5 253.5zM1444 336q0 -79 55 -136t137 -57q97 0 171.5 68t74.5 160q0 80 -58.5 136
t-142.5 56q-96 0 -166.5 -67t-70.5 -160zM2177 324q0 109 62.5 205t167.5 153t225 57q160 0 269.5 -104.5t109.5 -251.5q0 -110 -64.5 -206.5t-171 -153t-225.5 -56.5q-160 0 -266.5 103.5t-106.5 253.5zM2376 336q0 -79 55 -136t137 -57q97 0 171.5 68t74.5 160
q0 80 -58.5 136t-142.5 56q-96 0 -166.5 -67t-70.5 -160zM141 954q0 109 62.5 205.5t167.5 153.5t225 57q160 0 269.5 -104.5t109.5 -251.5q0 -110 -64.5 -206.5t-171 -153t-225.5 -56.5q-160 0 -266.5 103t-106.5 253zM340 967q0 -79 55 -136t137 -57q97 0 171.5 67.5
t74.5 159.5q0 80 -58 136.5t-142 56.5q-96 0 -167 -67t-71 -160z" />
    <glyph glyph-name="zero.tl" horiz-adv-x="1576" 
d="M113 567q0 147 63.5 282.5t167.5 233t243 155.5t285 58q128 0 242.5 -47t196 -128t129 -194t47.5 -239q0 -196 -108 -365.5t-284 -266.5t-372 -97q-171 0 -311 80t-219.5 219t-79.5 309zM342 586q0 -177 115 -299.5t288 -122.5q98 0 191.5 40.5t163.5 108.5t112.5 162
t42.5 195q0 177 -117 299.5t-292 122.5q-98 0 -190.5 -41t-161.5 -109t-110.5 -162t-41.5 -194z" />
    <glyph glyph-name="one.tl" horiz-adv-x="1576" 
d="M160 0l39 184h497l183 865l-527 -142l-12 185l584 163h229l-227 -1071h422l-39 -184h-1149z" />
    <glyph glyph-name="two.tl" horiz-adv-x="1576" 
d="M401 954l-102 172q84 40 140 64.5t137.5 52.5t164.5 41.5t172 13.5q72 0 147.5 -10.5t157 -36.5t144.5 -65t104 -103t41 -143q0 -67 -27 -124.5t-67.5 -97t-103 -72.5t-119 -53t-130 -36.5t-122 -24.5t-107.5 -17q-15 -2 -22 -3q-103 -12 -177.5 -29t-143 -48
t-112.5 -80.5t-65 -118.5l-14 -52h1016l-35 -184h-1241l47 240q88 393 752 475q37 3 73 8t91 15t100 25.5t87.5 36.5t66.5 52.5t24 69.5q0 48 -38 83.5t-98.5 53t-119 25.5t-115.5 8q-138 0 -255 -35.5t-251 -102.5z" />
    <glyph glyph-name="three.tl" horiz-adv-x="1576" 
d="M408 940l-111 154q138 86 301.5 144t321.5 58q50 0 106 -9t114.5 -26.5t111.5 -47t95 -66t66.5 -88t24.5 -109.5q0 -91 -58.5 -170t-150.5 -110q34 -12 65.5 -32.5t62 -53.5t48.5 -84t18 -113q0 -107 -56.5 -191t-151 -134.5t-210.5 -76.5t-243 -26q-227 0 -421 82.5
t-333 257.5l170 145q105 -136 261.5 -208t344.5 -72q80 0 152.5 13.5t132 40t94.5 71t35 102.5q0 48 -25 85t-63 56t-74 28t-67 9h-260l41 185h249q82 0 140.5 41.5t58.5 109.5q0 64 -50 108.5t-114 61.5t-131 17q-241 0 -495 -152z" />
    <glyph glyph-name="four.tl" horiz-adv-x="1576" 
d="M1475 465l-41 -184h-246l-60 -281h-229l59 281h-958l35 159l1157 815h203l-168 -790h248zM383 473l-2 -8h616l105 496h-23z" />
    <glyph glyph-name="five.tl" horiz-adv-x="1576" 
d="M1454 1255l-43 -204h-872l-62 -285q183 78 365 78q77 0 155.5 -12t160 -41.5t143.5 -73.5t101.5 -114.5t39.5 -158.5q0 -99 -37.5 -181t-101 -138t-149.5 -94.5t-180.5 -56t-195.5 -17.5q-241 0 -425.5 77t-338.5 234l170 146q106 -121 263.5 -187.5t340.5 -66.5
q71 0 140 13.5t135 42t106.5 83t40.5 127.5q0 62 -41.5 108t-108 70t-134.5 35.5t-135 11.5q-113 0 -209.5 -25t-212.5 -71l-121 117l123 583h1083z" />
    <glyph glyph-name="six.tl" horiz-adv-x="1576" 
d="M1522 1085l-170 -145q-82 72 -197 112t-235 40q-202 0 -366 -109t-204 -289q272 131 522 131q64 0 128.5 -9.5t128 -28.5t118.5 -51t97 -73.5t66 -98.5t24 -124q0 -87 -33 -164.5t-91.5 -134.5t-136 -98.5t-168 -62.5t-186.5 -21q-101 0 -199 24t-187 74.5t-156.5 121
t-107.5 171t-40 217.5q0 154 64 290t173 232t258.5 151.5t315.5 55.5q160 0 311 -54t271 -157zM819 641q-210 0 -475 -109q23 -175 163 -275.5t327 -92.5q64 2 126 18t118 46t90 81t34 115q0 61 -37 106t-97 67.5t-122 33t-127 10.5z" />
    <glyph glyph-name="seven.tl" horiz-adv-x="1576" 
d="M197 1051l34 204h1375l-37 -204l-1088 -1051h-301l1125 1051h-1108z" />
    <glyph glyph-name="eight.tl" horiz-adv-x="1576" 
d="M76 379q0 147 119 240.5t297 107.5q-211 57 -211 236q0 75 37.5 134.5t96 96.5t134 62t146.5 34.5t139 9.5q73 0 152 -11.5t164.5 -39.5t152.5 -69t110 -107t43 -147q0 -120 -89.5 -190.5t-231.5 -78.5q122 -33 201 -113t79 -198q0 -102 -62.5 -181t-161 -123t-203 -65.5
t-206.5 -21.5q-82 0 -172.5 14t-187 46.5t-172.5 79.5t-125 121t-49 163zM332 414q-9 -66 37.5 -117.5t123 -80t154.5 -42.5t146 -14q42 0 88 5t98.5 19.5t93 36t67.5 58.5t27 83q0 51 -33 94t-83 69.5t-113 45t-120 26t-107 7.5q-51 0 -106.5 -8.5t-117.5 -27.5t-105 -59
t-50 -95zM526 948q0 -45 30.5 -80t75 -54t102.5 -31.5t103.5 -16.5t86.5 -4q45 0 87.5 6t88.5 21t74 47.5t28 78.5q0 51 -36.5 92t-93 63.5t-116.5 34t-116 11.5q-46 0 -96 -8t-101 -25.5t-84 -52.5t-33 -82z" />
    <glyph glyph-name="nine.tl" horiz-adv-x="1576" 
d="M80 170l170 145q82 -72 196.5 -111.5t233.5 -39.5q131 0 249 46t204 137.5t114 211.5q-268 -129 -518 -129q-78 0 -154.5 13t-150.5 43t-130.5 73.5t-91 109t-34.5 144.5q0 110 51 202t136.5 153t196 94.5t230.5 33.5q101 0 199 -24t186.5 -74.5t156 -121t107 -171
t39.5 -217.5q0 -154 -63.5 -290t-172 -232t-257.5 -151.5t-315 -55.5q-162 0 -312.5 54t-269.5 157zM782 614q209 0 473 107q-23 175 -162.5 276t-324.5 95q-64 -2 -126.5 -18.5t-118 -46.5t-90 -81t-34.5 -115q0 -61 37 -106t97 -67.5t122 -33t127 -10.5z" />
    <glyph glyph-name="dollar.tl" horiz-adv-x="1576" 
d="M1473 1063l-158 -135q-107 107 -324 153l-69 -331q59 -11 105.5 -21t103 -27t99 -36.5t85 -48t70 -62t44.5 -79.5t17 -99q0 -132 -82 -228t-219.5 -143t-313.5 -47q-14 0 -38.5 1t-36.5 1l-58 -268h-155l59 287q-341 60 -569 309l157 133q174 -192 453 -252l84 395
q-62 12 -105 22t-100 27t-95 35t-79 45t-65.5 58.5t-40 74.5t-15.5 93q0 93 44 166t120 118.5t173.5 68.5t209.5 23q37 0 107 -4l45 209h155l-49 -231q261 -53 441 -207zM1223 332q0 81 -88.5 129t-257.5 80l-82 -389q20 -2 59 -2q69 0 128.5 8t117 26.5t90.5 56.5t33 91z
M449 958q0 -40 23.5 -70t70.5 -51t99.5 -35t129.5 -28l70 328q-62 4 -92 4q-301 0 -301 -148z" />
    <glyph glyph-name="cent.tl" horiz-adv-x="1576" 
d="M987 1214h158l-74 -215q217 -45 367 -165l-158 -125q-114 77 -272 110l-230 -665h29q236 0 405 106l119 -147q-25 -19 -67.5 -40.5t-108.5 -46.5t-157 -41t-187 -16q-32 0 -94 4l-96 -280h-156l104 303q-206 48 -326 171.5t-120 299.5q0 107 55.5 208.5t151 177.5
t231.5 122.5t287 46.5q13 0 37 -1t35 -1zM356 463q0 -93 75 -171.5t200 -115.5l225 660h-8q-208 0 -350 -113t-142 -260z" />
    <glyph glyph-name="Euro.tl" horiz-adv-x="1576" 
d="M1550 1008l-180 -115q-76 85 -192.5 141t-247.5 56q-117 0 -217 -65t-164 -173h600l-31 -143h-629q-16 -72 -16 -136v-18h614l-30 -143h-555q40 -111 130 -178.5t212 -67.5q241 0 452 166l121 -152q-120 -97 -271.5 -158t-318.5 -61q-216 0 -375 122t-204 329h-187
l31 143h141v2q0 83 17 152h-127l31 143h143q86 194 259.5 318t383.5 124q182 0 344.5 -75.5t265.5 -210.5z" />
    <glyph glyph-name="sterling.tl" horiz-adv-x="1576" 
d="M145 588l33 166h281l30 166q18 94 74.5 168.5t134.5 118.5t163 66.5t167 22.5q118 0 252.5 -44t253.5 -119l-148 -160q-95 53 -202.5 86t-188.5 33q-98 0 -180 -44.5t-98 -127.5l-31 -166h576l-33 -166h-572l-28 -170q-19 -105 -72.5 -159.5t-165.5 -74.5h1000l-37 -184
h-1334l37 184h86q128 0 179 49.5t75 184.5l31 170h-283z" />
    <glyph glyph-name="yen.tl" horiz-adv-x="1576" 
d="M145 709l31 143h346l-213 403h273l239 -475l445 475h288l-389 -403h348l-32 -143h-455l-127 -134l-4 -20h555l-33 -143h-555l-90 -412h-229l90 412h-551l31 143h553l4 20l-72 134h-453z" />
    <glyph glyph-name="florin.tl" horiz-adv-x="1576" 
d="M438 588l37 166h234l82 258q25 77 71.5 135t103 89.5t112.5 46.5t112 15q62 0 127 -14.5t94 -32.5l-94 -176q-17 13 -64.5 25t-83.5 12q-63 0 -107 -25.5t-61 -74.5l-81 -258h270l-37 -166h-287l-186 -588q-32 -98 -86 -171.5t-120 -115.5t-135.5 -62t-141.5 -20l18 166
q36 7 59.5 14t56.5 22t56 35t45.5 54t36.5 78l186 588h-217z" />
    <glyph glyph-name="colonmonetary.tl" horiz-adv-x="1576" 
d="M1575 1018l-168 -109q-75 72 -184 125l-283 -876q205 33 383 159l115 -143q-264 -192 -561 -213l-86 -268h-134l86 270q-102 6 -200 37l-99 -307h-133l113 354q-154 77 -243 212t-89 308q0 130 56.5 255.5t153.5 223t233.5 163.5t289.5 81l68 211h135l-67 -207
q89 -3 202 -30l78 237h133l-90 -278q173 -72 291 -205zM604 190q87 -37 201 -40l299 927q-98 29 -197 29h-8zM319 582q0 -96 45.5 -182t127.5 -146l268 833q-189 -48 -315 -191t-126 -314z" />
    <glyph glyph-name="franc.tl" horiz-adv-x="1576" 
d="M33 248l26 143h238l184 864h1151l-41 -204h-921l-60 -250h561l-36 -205h-564l-45 -205h412l-29 -143h-413l-54 -248h-229l53 248h-233z" />
    <glyph glyph-name="lira.tl" horiz-adv-x="1576" 
d="M180 709l27 143h280l13 68q18 94 74.5 168.5t134.5 118.5t162.5 66.5t166.5 22.5q118 0 252.5 -44t253.5 -119l-147 -160q-95 53 -202.5 86t-188.5 33q-98 0 -181.5 -44.5t-97.5 -127.5l-12 -68h577l-28 -143h-574l-26 -154h567l-31 -143h-563q-19 -101 -72 -154.5
t-164 -73.5h1000l-37 -184h-1333l37 184h86q126 0 177 48t75 180h-289l28 143h287l29 154h-281z" />
    <glyph glyph-name="peso.tl" horiz-adv-x="1576" 
d="M106 729l31 143h201l82 383h561q205 0 319 -114q107 -110 113 -269h184l-30 -143h-172q-37 -134 -150 -244q-72 -68 -160 -104.5t-221 -36.5h-409l-74 -344h-229l155 729h-201zM1083 618q53 50 78 111h-624l-37 -178h389q70 0 114 16.5t80 50.5zM938 1051h-334l-39 -179
h613q-8 66 -56 117q-62 62 -184 62z" />
    <glyph glyph-name="Rupee.tl" horiz-adv-x="1576" 
d="M160 729l30 143h916q-9 67 -55 117q-62 62 -185 62h-635l43 204h1348l-31 -143h-358l24 -22q77 -80 84 -218h199l-31 -143h-186q-38 -136 -149 -244q-72 -58 -160 -89t-221 -31l-265 16l557 -381h-378l-613 401l33 150h690q70 0 114.5 16.5t80.5 50.5q53 50 78 111h-930z
" />
    <glyph glyph-name="section.tl" horiz-adv-x="1576" 
d="M1294 158q-58 -37 -174 -76q16 -19 27 -45q14 -32 14 -76q0 -80 -40 -142.5t-108.5 -100t-152.5 -57t-178 -19.5q-148 0 -290 41.5t-257 119.5l127 146q189 -119 420 -119q46 0 85.5 5t78.5 17.5t61.5 38.5t22.5 62q0 24 -15 39q-12 14 -33 25.5t-56 21t-58.5 15t-74 15
t-70.5 13.5q-374 72 -494 227q-63 76 -63 178q0 171 172 295q55 37 174 76q-16 17 -27 41q-12 32 -12 80q0 80 42.5 143t113 101t155.5 57.5t176 19.5q141 0 282.5 -42t254.5 -119l-125 -146q-88 56 -199.5 89.5t-224.5 33.5q-220 0 -242 -108q-6 -38 12 -58q6 -8 15 -14.5
t22 -12.5t24 -11t31 -10t32.5 -8.5t38.5 -8.5t39.5 -8t45 -8.5t45.5 -8.5q379 -74 496 -227q59 -74 59 -174q0 -89 -46 -167.5t-126 -133.5zM872 662q-19 4 -81.5 16.5t-96.5 20t-84.5 24t-87.5 35.5q-43 -10 -92 -39q-131 -92 -131 -201q0 -61 39 -100q32 -40 91.5 -69.5
t110 -42.5t122.5 -25q14 -3 70 -14t79 -16.5t65.5 -16t73.5 -23t60 -27.5q45 10 92 39q133 94 133 201q0 58 -39 100q-68 90 -324 138z" />
    <glyph glyph-name="numbersign.tl" horiz-adv-x="1576" 
d="M1157 1364h168l-108 -395h380l-38 -164h-385l-109 -397h358l-39 -164h-364l-123 -457h-170l125 457h-307l-125 -457h-168l123 457h-375l35 164h385l108 397h-356l37 164h362l109 395h170l-109 -395h308zM698 805l-108 -397h307l109 397h-308z" />
    <glyph glyph-name="percent.tl" horiz-adv-x="1576" 
d="M1272 1337l-746 -1337h-182l750 1337h178zM895 303q0 174 111 305t254 131q115 0 191.5 -98t76.5 -238q0 -174 -114 -305t-257 -131q-114 0 -188 96.5t-74 239.5zM1073 319q0 -74 31.5 -125t81.5 -51q64 0 115 73t51 169q0 76 -33.5 127t-85.5 51q-62 0 -111 -73
t-49 -171zM90 934q0 174 111 305t254 131q115 0 191.5 -98t76.5 -238q0 -174 -114 -305t-257 -131q-114 0 -188 96.5t-74 239.5zM268 950q0 -74 31.5 -125t81.5 -51q64 0 115 73t51 169q0 76 -33.5 127t-85.5 51q-62 0 -111 -73t-49 -171z" />
    <glyph glyph-name="zero.numerator" horiz-adv-x="1183" 
d="M143 854q0 140 79.5 259.5t210 188t276.5 68.5q199 0 334 -126.5t135 -311.5q0 -139 -80.5 -258.5t-211.5 -187.5t-278 -68q-198 0 -331.5 125.5t-133.5 310.5zM342 870q0 -115 81.5 -194.5t203.5 -79.5q139 0 244.5 96t105.5 226q0 115 -83.5 194.5t-205.5 79.5
q-139 0 -242.5 -96t-103.5 -226z" />
    <glyph glyph-name="one.numerator" horiz-adv-x="641" 
d="M156 1065v162l276 110h201l-184 -886h-201l149 706z" />
    <glyph glyph-name="two.numerator" horiz-adv-x="972" 
d="M317 1094l-84 149q61 32 95.5 48.5t91.5 38.5t112.5 32t114.5 10q42 0 87 -7t95 -25t89 -45t64.5 -71.5t25.5 -99.5q0 -259 -455 -327q-52 -8 -84.5 -16.5t-68 -25t-58 -45.5t-35.5 -71l-8 -29h580l-35 -159h-774l41 192q17 80 64 141.5t115.5 99t139.5 59t154 32.5
q7 0 37.5 6.5t74 19t76.5 40t33 61.5q0 27 -18.5 46t-47 28t-54 12.5t-48.5 3.5q-149 0 -320 -98z" />
    <glyph glyph-name="three.numerator" horiz-adv-x="1093" 
d="M352 1087l-94 134q230 149 438 149q55 0 115.5 -15t118 -43.5t94.5 -78t37 -111.5q0 -63 -33.5 -119.5t-91.5 -78.5q46 -19 79.5 -66t33.5 -129q0 -100 -66 -172t-171 -105.5t-234 -33.5q-335 0 -519 246l148 127q68 -94 169 -144.5t224 -50.5q110 0 181 35.5t71 99.5
q0 40 -25.5 65t-53.5 32.5t-58 7.5h-174l37 159h172q46 0 75 23.5t29 64.5q0 38 -29.5 64t-66.5 35.5t-76 9.5q-158 0 -330 -105z" />
    <glyph glyph-name="four.numerator" horiz-adv-x="1159" 
d="M1149 799l-35 -162h-176l-39 -186h-199l39 186h-673l28 135l824 565h169l-114 -538h176zM399 803v-4h375l60 280h-17z" />
    </font>
</defs>
</svg>
