<?xml version="1.0" standalone="no"?>
<!DOCTYPE svg PUBLIC "-//W3C//DTD SVG 1.1//EN" "http://www.w3.org/Graphics/SVG/1.1/DTD/svg11.dtd" >
<svg xmlns="http://www.w3.org/2000/svg" xmlns:xlink="http://www.w3.org/1999/xlink" version="1.1">
<metadata>
Created by FontForge 20170731 at Tue Sep 29 10:57:07 2020
 By Aleksey,,,
Copyright (C) 2011 Markanna Studios Inc.www.SweetFonts.com
</metadata>
<defs>
<font id="SweetSansPro-Medium" horiz-adv-x="1024" >
  <font-face 
    font-family="Sweet Sans Pro Medium"
    font-weight="500"
    font-stretch="normal"
    units-per-em="2048"
    panose-1="2 0 0 0 0 0 0 0 0 0"
    ascent="1577"
    descent="-471"
    x-height="989"
    cap-height="1337"
    bbox="-242 -629 3152 2187"
    underline-thickness="114"
    underline-position="-376"
    unicode-range="U+000D-FB04"
  />
<missing-glyph horiz-adv-x="1185" 
d="M0 0v1337h1186v-1337h-1186zM592 516l-291 -328h582zM301 1149l291 -328l291 328h-582zM727 668l250 -279v559zM457 668l-248 280v-559z" />
    <glyph glyph-name="f_f" unicode="ff" horiz-adv-x="1443" 
d="M1159 1169v-180h260v-166h-260v-823h-211v823h-479v-823h-211v823h-182v166h182v180q0 77 26 135t69 90t91.5 47t100.5 15q57 0 122 -14.5t95 -32.5l-39 -176q-19 13 -62.5 25t-74.5 12q-54 0 -85.5 -27t-31.5 -74v-180h479v180q0 77 26 135t69 90t91.5 47t100.5 15
q57 0 122 -14.5t95 -32.5l-39 -176q-19 13 -62.5 25t-74.5 12q-54 0 -85.5 -27t-31.5 -74z" />
    <glyph glyph-name="f_i" unicode="fi" horiz-adv-x="1320" 
d="M76 989h182v180q0 77 26 135t69 90t91.5 47t100.5 15q57 0 122 -14.5t95 -32.5l-39 -176q-19 13 -62.5 25t-74.5 12q-54 0 -85.5 -27t-31.5 -74v-180h260v-166h-260v-823h-211v823h-182v166zM1147 0h-211v989h211v-989zM907 1311q0 51 38 87t95 36q56 0 96 -36.5
t40 -86.5q0 -51 -39.5 -86t-96.5 -35t-95 35t-38 86z" />
    <glyph glyph-name="f_l" unicode="fl" horiz-adv-x="1343" 
d="M76 989h182v180q0 77 26 135t69 90t91.5 47t100.5 15q57 0 122 -14.5t95 -32.5l-39 -176q-19 13 -62.5 25t-74.5 12q-54 0 -85.5 -27t-31.5 -74v-180h260v-166h-260v-823h-211v823h-182v166zM1157 0h-211v1434h211v-1434z" />
    <glyph glyph-name="f_f_i" unicode="ffi" horiz-adv-x="2011" 
d="M948 0v823h-479v-823h-211v823h-182v166h182v180q0 77 26 135t69 90t91.5 47t100.5 15q57 0 122 -14.5t95 -32.5l-39 -176q-19 13 -62.5 25t-74.5 12q-54 0 -85.5 -27t-31.5 -74v-180h479v180q0 77 26 135t69 90t91.5 47t100.5 15q57 0 122 -14.5t95 -32.5l-39 -176
q-19 13 -62.5 25t-74.5 12q-54 0 -85.5 -27t-31.5 -74v-180h260v-166h-260v-823h-211zM1626 0v989h211v-989h-211zM1731 1190q-57 0 -95.5 35t-38.5 86t38.5 87t95.5 36q56 0 95.5 -36.5t39.5 -86.5q0 -51 -39 -86t-96 -35z" />
    <glyph glyph-name="f_f_l" unicode="ffl" horiz-adv-x="2033" 
d="M948 0v823h-479v-823h-211v823h-182v166h182v180q0 77 26 135t69 90t91.5 47t100.5 15q57 0 122 -14.5t95 -32.5l-39 -176q-19 13 -62.5 25t-74.5 12q-54 0 -85.5 -27t-31.5 -74v-180h479v180q0 77 26 135t69 90t91.5 47t100.5 15q57 0 122 -14.5t95 -32.5l-39 -176
q-19 13 -62.5 25t-74.5 12q-54 0 -85.5 -27t-31.5 -74v-180h260v-166h-260v-823h-211zM1636 0v1434h211v-1434h-211z" />
    <glyph glyph-name="f_j" unicode="fj" horiz-adv-x="1320" 
d="M76 989h182v180q0 77 26 135t69 90t91.5 47t100.5 15q57 0 122 -14.5t95 -32.5l-39 -176q-19 13 -62.5 25t-74.5 12q-54 0 -85.5 -27t-31.5 -74v-180h260v-166h-260v-823h-211v823h-182v166zM807 -465l-62 166q34 7 55.5 14t50 22t45 35t28.5 54t12 78v1085h211v-1085
q0 -97 -31.5 -171.5t-83 -116t-108.5 -61.5t-117 -20zM907 1311q0 51 38 87t95 36q56 0 96 -36.5t40 -86.5q0 -51 -39.5 -86t-96.5 -35t-95 35t-38 86z" />
    <glyph glyph-name="f_f_j" unicode="ffj" horiz-adv-x="2011" 
d="M948 0v823h-479v-823h-211v823h-182v166h182v180q0 77 26 135t69 90t91.5 47t100.5 15q57 0 122 -14.5t95 -32.5l-39 -176q-19 13 -62.5 25t-74.5 12q-54 0 -85.5 -27t-31.5 -74v-180h479v180q0 77 26 135t69 90t91.5 47t100.5 15q57 0 122 -14.5t95 -32.5l-39 -176
q-19 13 -62.5 25t-74.5 12q-54 0 -85.5 -27t-31.5 -74v-180h260v-166h-260v-823h-211zM1497 -465l-61 166q33 7 55 14t50 22t44.5 35t28.5 54t12 78v1085h211v-1085q0 -97 -31.5 -171.5t-83 -116t-108.5 -61.5t-117 -20zM1731 1190q-57 0 -95.5 35t-38.5 86t38.5 87t95.5 36
q56 0 95.5 -36.5t39.5 -86.5q0 -51 -39 -86t-96 -35z" />
    <glyph glyph-name="f_t" unicode="ft" horiz-adv-x="1492" 
d="M469 1169v-180h494v293h211v-293h260v-166h-260v-577q0 -49 30.5 -75t85.5 -26q31 0 78 5.5t66 11.5l20 -166q-25 -16 -87.5 -26.5t-117.5 -10.5q-41 0 -80 9t-77 30.5t-66 53.5t-45.5 82t-17.5 112v577h-494v-823h-211v823h-182v166h182v180q0 77 26 135t69 90t91.5 47
t100.5 15q57 0 122 -14.5t95 -32.5l-39 -176q-19 13 -62.5 25t-74.5 12q-54 0 -85.5 -27t-31.5 -74z" />
    <glyph glyph-name="f_f_t" unicode="fft" horiz-adv-x="2183" 
d="M76 823v166h182v180q0 77 26 135t69 90t91.5 47t100.5 15q57 0 122 -14.5t95 -32.5l-39 -176q-19 13 -62.5 25t-74.5 12q-54 0 -85.5 -27t-31.5 -74v-180h479v180q0 77 26 135t69 90t91.5 47t100.5 15q57 0 122 -14.5t95 -32.5l-39 -176q-19 13 -62.5 25t-74.5 12
q-54 0 -85.5 -27t-31.5 -74v-180h494v293h211v-293h260v-166h-260v-577q0 -49 30.5 -75t85.5 -26q31 0 78 5.5t66 11.5l20 -166q-25 -16 -87.5 -26.5t-117.5 -10.5q-41 0 -80 9t-77 30.5t-66 53.5t-45.5 82t-17.5 112v577h-494v-823h-211v823h-479v-823h-211v823h-182z" />
    <glyph glyph-name="t_t" unicode="tt" horiz-adv-x="1562" 
d="M55 823v166h185v293h211v-293h544v293h211v-293h260v-166h-260v-577q0 -49 31 -75t86 -26q31 0 77.5 5.5t65.5 11.5l21 -166q-25 -16 -87.5 -26.5t-117.5 -10.5q-52 0 -100.5 15t-91.5 47t-69 90t-26 135v577h-544v-577q0 -49 30.5 -75t85.5 -26q31 0 78 5.5t66 11.5
l20 -166q-25 -16 -87.5 -26.5t-117.5 -10.5q-41 0 -80 9t-77 30.5t-66 53.5t-45.5 82t-17.5 112v577h-185z" />
    <glyph glyph-name=".notdef" horiz-adv-x="1185" 
d="M0 0v1337h1186v-1337h-1186zM592 516l-291 -328h582zM301 1149l291 -328l291 328h-582zM727 668l250 -279v559zM457 668l-248 280v-559z" />
    <glyph glyph-name=".null" horiz-adv-x="501" 
 />
    <glyph glyph-name=".null" horiz-adv-x="501" 
 />
    <glyph glyph-name="nonmarkingreturn" horiz-adv-x="682" 
 />
    <glyph glyph-name="CR" unicode="&#xd;" horiz-adv-x="501" 
 />
    <glyph glyph-name="space" unicode=" " horiz-adv-x="460" 
 />
    <glyph glyph-name="exclam" unicode="!" horiz-adv-x="636" 
d="M156 117q0 62 46.5 105.5t114.5 43.5q69 0 116.5 -43.5t47.5 -105.5t-47.5 -105t-116.5 -43t-115 43t-46 105zM391 430h-147l-51 584v323h249v-323z" />
    <glyph glyph-name="quotedbl" unicode="&#x22;" horiz-adv-x="1028" 
d="M307 774h-127l-51 336v227h229v-227zM848 774h-127l-51 336v227h229v-227z" />
    <glyph glyph-name="numbersign" unicode="#" horiz-adv-x="1826" 
d="M1212 1264h170l-67 -363h405v-162h-434l-65 -354h381v-164h-412l-76 -418h-170l76 418h-346l-76 -418h-170l76 418h-400v164h431l65 354h-379v162h408l67 363h170l-67 -363h346zM770 739l-65 -354h346l65 354h-346z" />
    <glyph glyph-name="dollar" unicode="$" horiz-adv-x="1470" 
d="M657 1391h154v-197q149 -17 276 -65.5t211 -106.5l-131 -152q-52 46 -143 83t-213 53v-289q54 -3 100 -8t102.5 -16.5t101 -28.5t89 -45t74 -63.5t47.5 -87t18 -114.5q0 -101 -41.5 -178t-115.5 -122.5t-167.5 -68t-207.5 -24.5v-246h-154v254q-312 35 -559 236l131 147
q194 -157 428 -192v360q-71 6 -124 14.5t-113.5 23.5t-102.5 38t-78.5 56t-54.5 81t-18 109q0 79 29.5 142t77 102.5t113 66t132 37.5t139.5 12v189zM1130 324q0 90 -78.5 129.5t-240.5 54.5v-358q143 2 231 45t88 129zM383 862q0 -114 274 -137v289q-274 -4 -274 -152z" />
    <glyph glyph-name="percent" unicode="%" horiz-adv-x="2150" 
d="M106 913q0 147 117 252t283 105t285.5 -105.5t119.5 -251.5q0 -147 -119.5 -252.5t-285.5 -105.5q-167 0 -283.5 105t-116.5 253zM1536 1239l-735 -1239h-183l738 1239h180zM303 913q0 -75 59.5 -129.5t143.5 -54.5q86 0 147.5 54.5t61.5 129.5t-61.5 129t-147.5 54
q-84 0 -143.5 -54t-59.5 -129zM1243 328q0 145 117 250.5t282 105.5q166 0 286 -105.5t120 -250.5q0 -149 -120 -254t-286 -105t-282.5 105t-116.5 254zM1440 328q0 -76 59 -130.5t143 -54.5q86 0 147.5 55t61.5 130t-61.5 128.5t-147.5 53.5q-84 0 -143 -53.5t-59 -128.5z
" />
    <glyph glyph-name="ampersand" unicode="&#x26;" horiz-adv-x="1591" 
d="M1174 1178l-115 -181q-127 95 -264 95q-70 0 -112 -37t-42 -90q0 -24 13.5 -54.5t30.5 -56t47 -59t48.5 -52.5t50 -49.5t37.5 -36.5l244 -243q113 113 223 293l185 -95q-133 -198 -271 -336l281 -276h-301l-142 137q-230 -168 -456 -168q-87 0 -167.5 24t-147.5 70.5
t-107.5 124t-40.5 174.5q0 278 311 400q-67 98 -67 196q0 101 54.5 179.5t141.5 118.5t191 40q176 0 375 -118zM688 535l-82 79q-42 -17 -73.5 -34t-65.5 -45t-52 -68.5t-18 -91.5q0 -98 76 -149.5t178 -51.5q138 0 297 102z" />
    <glyph glyph-name="quotesingle" unicode="'" horiz-adv-x="487" 
d="M307 774h-127l-51 336v227h229v-227z" />
    <glyph glyph-name="parenleft" unicode="(" horiz-adv-x="811" 
d="M641 1425l115 -139q-198 -107 -316 -306.5t-118 -438.5q0 -240 118 -438.5t316 -305.5l-115 -139q-260 132 -404.5 364t-144.5 519t144.5 519.5t404.5 364.5z" />
    <glyph glyph-name="parenright" unicode=")" horiz-adv-x="811" 
d="M55 1286l115 139q260 -132 404.5 -364.5t144.5 -519.5t-144.5 -519t-404.5 -364l-115 139q198 107 316 305.5t118 438.5q0 239 -118 438.5t-316 306.5z" />
    <glyph glyph-name="asterisk" unicode="*" horiz-adv-x="1185" 
d="M371 508l-127 96l194 293l-332 123l52 154l338 -95l16 355h164l18 -353l334 93l51 -152l-331 -125l194 -293l-127 -96l-223 274z" />
    <glyph glyph-name="plus" unicode="+" horiz-adv-x="1550" 
d="M184 436v189h488v407h207v-407h485v-189h-485v-407h-207v407h-488z" />
    <glyph glyph-name="comma" unicode="," horiz-adv-x="634" 
d="M139 -391l-63 135q41 11 86.5 32t88.5 51t71 69.5t28 80.5v17q-40 -10 -57 -10q-69 0 -115.5 40.5t-46.5 100.5q0 59 46.5 100t115.5 41q89 0 156 -66t67 -165q0 -74 -24.5 -137.5t-62 -108t-90 -81.5t-100 -59t-100.5 -40z" />
    <glyph glyph-name="hyphen" unicode="-" horiz-adv-x="800" 
d="M137 418v209h527v-209h-527z" />
    <glyph glyph-name="period" unicode="." horiz-adv-x="585" 
d="M129 117q0 62 46.5 105.5t115.5 43.5t116.5 -43.5t47.5 -105.5t-47.5 -105t-116.5 -43t-115.5 43t-46.5 105z" />
    <glyph glyph-name="slash" unicode="/" horiz-adv-x="1095" 
d="M1001 1337l-702 -1581h-209l703 1581h208z" />
    <glyph glyph-name="zero" unicode="0" horiz-adv-x="1495" 
d="M104 582q0 127 51.5 242.5t137.5 198t204.5 131t247.5 48.5q173 0 321.5 -82t236.5 -225.5t88 -312.5q0 -170 -88 -313.5t-236.5 -225.5t-321.5 -82t-320 82t-234 225t-87 314zM332 582q0 -172 121 -296t292 -124q170 0 294 124t124 296q0 112 -56.5 209t-153 153.5
t-208.5 56.5q-171 0 -292 -123.5t-121 -295.5z" />
    <glyph glyph-name="one" unicode="1" horiz-adv-x="817" 
d="M90 829l-49 185l340 149h227v-1163h-227v956z" />
    <glyph glyph-name="two" unicode="2" horiz-adv-x="1234" 
d="M256 829l-133 160q64 51 108 81t110 64.5t141.5 51t162.5 16.5q72 0 139.5 -12t128.5 -38t106.5 -64t72 -93.5t26.5 -122.5q0 -41 -10 -78.5t-24 -67t-40 -57t-48 -46.5t-59 -39.5t-61 -32t-66 -26.5t-62 -21.5t-62 -18.5t-53 -16q-66 -21 -112 -42t-88 -53t-63.5 -77.5
t-21.5 -103.5v-13h744v-180h-971v172q0 361 506 498q264 67 264 196q0 68 -70.5 101.5t-169.5 33.5q-121 0 -209 -43.5t-186 -128.5z" />
    <glyph glyph-name="three" unicode="3" horiz-adv-x="1388" 
d="M614 520v182h183q68 0 116 38t48 98q0 57 -39.5 95.5t-92.5 53t-114 14.5q-111 0 -218.5 -53.5t-193.5 -134.5l-139 139q266 250 555 250q63 0 125.5 -10.5t126 -35t111.5 -61t78 -93t30 -125.5q0 -83 -43.5 -146.5t-93.5 -85.5q37 -9 72.5 -27t71.5 -49.5t58.5 -84
t22.5 -117.5q0 -127 -81.5 -221t-216.5 -140.5t-304 -46.5q-372 0 -615 246l140 160q196 -203 475 -203q161 0 268 59t107 160q0 41 -22.5 70.5t-59.5 43.5t-73 19.5t-75 5.5h-207z" />
    <glyph glyph-name="four" unicode="4" horiz-adv-x="1458" 
d="M1376 436v-180h-225v-256h-229v256h-856v158l886 749h199v-727h225zM410 442v-6h512v432h-19z" />
    <glyph glyph-name="five" unicode="5" horiz-adv-x="1349" 
d="M1114 1163v-202h-717v-299q73 38 109 54.5t107 34t149 17.5q94 0 181.5 -24t158 -70t113 -120.5t42.5 -166.5q0 -91 -34.5 -165t-92 -122t-135.5 -80.5t-161.5 -46.5t-174.5 -14q-321 0 -579 184l119 160q202 -141 463 -141q71 0 133.5 12t116.5 37t86 69.5t32 104.5
q0 89 -81 138.5t-193 49.5q-127 0 -223 -28.5t-201 -81.5l-139 100v600h921z" />
    <glyph glyph-name="six" unicode="6" horiz-adv-x="1392" 
d="M1231 1083l-119 -159q-141 77 -342 77q-115 0 -214 -45.5t-165 -137t-76 -212.5q236 160 494 160q118 0 212.5 -32.5t151.5 -86.5t87 -118.5t30 -133.5q0 -187 -148.5 -310.5t-381.5 -123.5q-101 0 -195.5 24t-177 74t-144.5 120t-98 169t-36 215q0 146 54 268t146 202.5
t212.5 124.5t254.5 44q246 0 455 -119zM788 582q-212 0 -454 -144q42 -131 159.5 -203.5t270.5 -72.5q128 0 213.5 71t85.5 166q0 71 -69 127t-206 56z" />
    <glyph glyph-name="seven" unicode="7" horiz-adv-x="1249" 
d="M88 961v202h1067v-205l-637 -958h-299l674 961h-805z" />
    <glyph glyph-name="eight" unicode="8" horiz-adv-x="1409" 
d="M705 -43q-115 0 -221 25.5t-189 72.5t-132.5 119.5t-49.5 159.5q0 125 81 203.5t197 99.5q-102 19 -157.5 81.5t-55.5 162.5q0 80 49.5 144.5t128 102.5t169 58t180.5 20q91 0 181 -20t168.5 -58t127.5 -102.5t49 -144.5q0 -206 -215 -244q117 -21 198.5 -99.5
t81.5 -203.5q0 -115 -85.5 -203t-218 -131t-287.5 -43zM705 158q89 0 166 22t127.5 67.5t50.5 106.5t-54.5 106t-131 65t-158.5 20t-158 -20t-131.5 -65t-55.5 -106q0 -90 103 -143t242 -53zM705 713q135 0 205.5 37.5t70.5 109.5q0 77 -85.5 121.5t-190.5 44.5
q-65 0 -126.5 -17.5t-106 -57t-44.5 -91.5q0 -72 71 -109.5t206 -37.5z" />
    <glyph glyph-name="nine" unicode="9" horiz-adv-x="1388" 
d="M158 80l116 160q143 -78 342 -78q115 0 213.5 45t164 136t75.5 212q-239 -158 -489 -158q-118 0 -213 32.5t-152.5 86.5t-88 118.5t-30.5 133.5q0 187 150 310.5t383 123.5q101 0 195 -24t176.5 -74t144.5 -120.5t97.5 -169t35.5 -214.5q0 -146 -54 -268t-146 -202.5
t-212.5 -124.5t-253.5 -44q-253 0 -454 119zM600 582q216 0 453 141q-41 132 -159.5 205t-268.5 73q-129 0 -215 -71t-86 -166q0 -71 69 -126.5t207 -55.5z" />
    <glyph glyph-name="colon" unicode=":" horiz-adv-x="661" 
d="M168 117q0 62 46.5 105.5t115.5 43.5t116.5 -43.5t47.5 -105.5t-47.5 -105t-116.5 -43t-115.5 43t-46.5 105zM168 862q0 62 47 106t115 44q69 0 116.5 -44t47.5 -106t-47.5 -104.5t-116.5 -42.5t-115.5 42.5t-46.5 104.5z" />
    <glyph glyph-name="semicolon" unicode=";" horiz-adv-x="688" 
d="M176 -391l-63 135q41 11 86.5 32t88.5 51t71 69.5t28 80.5v17q-40 -10 -57 -10q-69 0 -115.5 40.5t-46.5 100.5q0 59 46.5 100t115.5 41q89 0 156 -66t67 -165q0 -74 -24.5 -137.5t-62 -108t-90 -81.5t-100 -59t-100.5 -40zM168 862q0 62 47 106t115 44q69 0 116.5 -44
t47.5 -106t-47.5 -104.5t-116.5 -42.5t-115.5 42.5t-46.5 104.5z" />
    <glyph glyph-name="less" unicode="&#x3c;" horiz-adv-x="1550" 
d="M1364 1014v-215l-913 -256v-25l913 -256v-213l-1180 379v205z" />
    <glyph glyph-name="equal" unicode="=" horiz-adv-x="1550" 
d="M184 686v191h1180v-191h-1180zM184 186v191h1180v-191h-1180z" />
    <glyph glyph-name="greater" unicode="&#x3e;" horiz-adv-x="1550" 
d="M184 799v215l1180 -381v-205l-1180 -379v213l914 256v25z" />
    <glyph glyph-name="question" unicode="?" horiz-adv-x="1187" 
d="M238 993l-144 131q55 61 104 102.5t114.5 78t147.5 54t183 17.5q90 0 164 -17.5t135 -54t95 -101t34 -152.5q0 -143 -102 -242q-35 -33 -89.5 -69.5t-99.5 -64.5t-88 -62.5t-68.5 -80.5t-27.5 -102h-205q-3 83 26 151.5t81 117t104.5 84.5t114 75.5t92.5 69.5
q57 54 57 116q0 71 -65 109.5t-164 38.5q-92 0 -167 -27t-125 -67t-107 -105zM371 117q0 62 46.5 105.5t114.5 43.5q69 0 116.5 -43.5t47.5 -105.5t-47.5 -105t-116.5 -43t-115 43t-46 105z" />
    <glyph glyph-name="at" unicode="@" horiz-adv-x="2015" 
d="M1305 967h190l-174 -533q-8 -21 -8 -43q0 -49 26.5 -74.5t73.5 -25.5q49 0 104 32.5t103 87t79.5 138.5t31.5 176q0 220 -174 364t-453 144q-161 0 -308 -52t-258 -144.5t-177 -229.5t-66 -297q0 -126 41.5 -233t112 -181.5t164 -127t197 -77t210.5 -24.5
q131 0 278.5 33.5t229.5 76.5l53 -139q-89 -50 -252 -92.5t-319 -42.5q-128 0 -254.5 30.5t-244 96.5t-207.5 158.5t-144 227t-54 292.5t53 299t147 247.5t219 184.5t273.5 118t305.5 40q176 0 325.5 -51.5t251.5 -140.5t159.5 -210.5t57.5 -259.5q0 -133 -50.5 -250.5
t-129 -193.5t-171.5 -120t-181 -44q-93 0 -154 44t-61 116v16q-68 -83 -155 -128.5t-173 -45.5q-56 0 -106 20t-91 59.5t-65 104.5t-24 148q0 113 45.5 217.5t115.5 175.5t154.5 113.5t163.5 42.5q92 0 157.5 -55t81.5 -132zM879 313q56 0 124.5 33.5t129.5 97.5l63 197
q-14 76 -65 130t-115 54q-41 0 -87 -23t-88 -64t-69 -106.5t-27 -142.5q0 -87 35.5 -131.5t98.5 -44.5z" />
    <glyph glyph-name="A" unicode="A" horiz-adv-x="1548" 
d="M49 0l621 1337h209l620 -1337h-252l-162 360h-636l-160 -360h-240zM762 1063l-232 -518h474l-230 518h-12z" />
    <glyph glyph-name="B" unicode="B" horiz-adv-x="1673" 
d="M1057 0h-826v1337h809q206 0 322 -116q90 -90 90 -211q0 -91 -48.5 -167t-121.5 -106q115 -27 179.5 -119.5t64.5 -218.5q0 -166 -123 -284q-59 -54 -136.5 -84.5t-209.5 -30.5zM1065 600h-604v-395h604q105 0 166 61q55 55 55 135q0 71 -53 127q-69 72 -168 72z
M1016 1133h-555v-349h555q91 0 141 50q55 55 55 133q0 67 -47 114q-52 52 -149 52z" />
    <glyph glyph-name="C" unicode="C" horiz-adv-x="1579" 
d="M1350 389l153 -151q-122 -122 -289.5 -200.5t-369.5 -78.5q-215 0 -383 96t-258 257.5t-90 357.5q0 193 90 354t256 257.5t375 96.5q179 0 344.5 -64t281.5 -171l-155 -154q-89 84 -216.5 134.5t-250.5 50.5q-143 0 -254.5 -69t-170.5 -184t-59 -253q0 -140 60.5 -254
t174 -182t259.5 -68q148 0 278.5 62.5t223.5 162.5z" />
    <glyph glyph-name="D" unicode="D" horiz-adv-x="1669" 
d="M872 0h-641v1337h641q172 0 286 -44.5t206 -133.5q182 -188 182 -489q0 -151 -50.5 -282.5t-145.5 -223.5q-94 -84 -200.5 -124t-277.5 -40zM461 205h401q117 0 177.5 23.5t129.5 80.5q65 65 101.5 159.5t36.5 201.5q0 218 -129 350q-64 59 -131.5 86t-184.5 27h-401
v-928z" />
    <glyph glyph-name="E" unicode="E" horiz-adv-x="1462" 
d="M975 801v-205h-514v-391h905v-205h-1135v1337h1086v-204h-856v-332h514z" />
    <glyph glyph-name="F" unicode="F" horiz-adv-x="1353" 
d="M461 0h-230v1337h1076v-204h-846v-332h514v-205h-514v-596z" />
    <glyph glyph-name="G" unicode="G" horiz-adv-x="1648" 
d="M1464 1137l-159 -144q-83 83 -211 132t-250 49q-141 0 -254.5 -69t-175.5 -184.5t-62 -252.5q0 -98 33.5 -187.5t96 -161t162 -113.5t222.5 -42q108 0 218 29t176 79v269h-420v204h628v-585q-126 -92 -292 -146.5t-324 -54.5q-156 0 -294 56t-235 151.5t-153.5 227
t-56.5 276.5q0 194 96 356.5t264 257t369 94.5q161 0 324 -62.5t298 -178.5z" />
    <glyph glyph-name="H" unicode="H" horiz-adv-x="1648" 
d="M461 0h-230v1337h230v-506h727v506h229v-1337h-229v627h-727v-627z" />
    <glyph glyph-name="I" unicode="I" horiz-adv-x="692" 
d="M461 0h-230v1337h230v-1337z" />
    <glyph glyph-name="J" unicode="J" horiz-adv-x="1327" 
d="M893 1337h229v-862q0 -242 -154.5 -379t-404.5 -137q-96 0 -178 23t-136 56t-100.5 82.5t-72 90t-49.5 90.5l190 100q104 -237 344 -237q149 0 240.5 82t91.5 229v862z" />
    <glyph glyph-name="K" unicode="K" horiz-adv-x="1568" 
d="M461 1337v-661l698 661h285l-547 -512l666 -825h-297l-535 672l-270 -252v-420h-230v1337h230z" />
    <glyph glyph-name="L" unicode="L" horiz-adv-x="1325" 
d="M231 1337h230v-1132h821v-205h-1051v1337z" />
    <glyph glyph-name="M" unicode="M" horiz-adv-x="1857" 
d="M1626 0h-229v909h-11l-444 -749h-37l-444 749h-10v-909h-220v1337h236l465 -788h4l465 788h225v-1337z" />
    <glyph glyph-name="N" unicode="N" horiz-adv-x="1669" 
d="M1208 1337h230v-1337h-203l-772 928h-2v-928h-230v1337h203l772 -927h2v927z" />
    <glyph glyph-name="O" unicode="O" horiz-adv-x="1732" 
d="M113 672q0 193 99 355t272 256.5t380 94.5q124 0 240 -35.5t209.5 -100.5t163 -152t107.5 -195t38 -223q0 -195 -101 -359t-275 -259t-382 -95q-207 0 -380 95t-272 258.5t-99 359.5zM354 672q0 -138 67 -254.5t184.5 -185t258.5 -68.5q142 0 261 68.5t187 185t68 254.5
q0 136 -68 251.5t-187 183t-261 67.5q-141 0 -258.5 -67.5t-184.5 -183t-67 -251.5z" />
    <glyph glyph-name="P" unicode="P" horiz-adv-x="1536" 
d="M461 0h-230v1337h738q256 0 387 -141q106 -115 106 -268q0 -169 -123 -289q-132 -125 -370 -125h-508v-514zM969 1133h-508v-414h508q132 0 202 65q62 59 62 142q0 77 -55 135q-41 44 -93 58t-116 14z" />
    <glyph glyph-name="Q" unicode="Q" horiz-adv-x="1732" 
d="M113 672q0 193 99 355t272 256.5t380 94.5q124 0 240 -35.5t209.5 -100.5t163 -152t107.5 -195t38 -223q0 -188 -93.5 -346.5t-252.5 -253.5l172 -248l-221 -72l-162 234q-106 -27 -201 -27q-207 0 -380 95t-272 258.5t-99 359.5zM766 418l221 71l166 -239
q104 68 165.5 180.5t61.5 241.5q0 136 -68 251.5t-187 183t-261 67.5q-141 0 -258.5 -67.5t-184.5 -183t-67 -251.5q0 -138 67 -254.5t184.5 -185t258.5 -68.5q24 0 74 4z" />
    <glyph glyph-name="R" unicode="R" horiz-adv-x="1603" 
d="M461 0h-230v1337h738q255 0 387 -141q106 -112 106 -268q0 -132 -79.5 -232t-215.5 -151l320 -545h-264l-287 514h-475v-514zM969 1133h-508v-414h549q91 0 157 61.5t66 147.5q0 75 -55 133q-43 45 -92.5 58.5t-116.5 13.5z" />
    <glyph glyph-name="S" unicode="S" horiz-adv-x="1507" 
d="M1317 1184l-139 -160q-67 62 -193 109t-293 47q-132 0 -216.5 -47t-84.5 -146q0 -97 127 -133q68 -19 259 -32q9 -1 16 -1q212 -14 317 -44q287 -81 298 -346q1 -11 1 -23q0 -95 -31 -171t-84.5 -127.5t-129 -85.5t-161.5 -49.5t-184 -15.5q-419 0 -731 281l139 159
q50 -45 99.5 -80.5t124.5 -75.5t170.5 -62.5t201.5 -22.5q103 0 181.5 22.5t127 73t48.5 123.5q0 49 -18.5 85.5t-49.5 59.5t-83 38.5t-105.5 23.5t-130.5 14q-83 6 -129.5 10t-123 15.5t-121 26.5t-100 42.5t-85.5 63.5t-51 90t-21 121q0 92 32.5 164.5t85.5 117.5t125 75
t144.5 42t150.5 12q193 0 357 -59t260 -135z" />
    <glyph glyph-name="T" unicode="T" horiz-adv-x="1402" 
d="M61 1133v204h1280v-204h-524v-1133h-229v1133h-527z" />
    <glyph glyph-name="U" unicode="U" horiz-adv-x="1595" 
d="M1161 1337h230v-862q0 -241 -166 -378.5t-428 -137.5q-170 0 -303 59t-211 177.5t-78 279.5v862h229v-862q0 -146 102.5 -228.5t260.5 -82.5q159 0 261.5 82.5t102.5 228.5v862z" />
    <glyph glyph-name="V" unicode="V" horiz-adv-x="1540" 
d="M1245 1337h250l-621 -1337h-208l-621 1337h262l463 -1044h12z" />
    <glyph glyph-name="W" unicode="W" horiz-adv-x="2064" 
d="M76 1337h252l299 -983h12l317 983h164l318 -983h12l299 983h240l-428 -1337h-230l-293 895h-12l-293 -895h-229z" />
    <glyph glyph-name="X" unicode="X" horiz-adv-x="1501" 
d="M1143 1337h278l-526 -639l553 -698h-293l-410 537l-426 -537h-278l567 688l-512 649h293l369 -487z" />
    <glyph glyph-name="Y" unicode="Y" horiz-adv-x="1392" 
d="M1090 1337h270l-549 -721v-616h-229v616l-549 721h291l383 -516z" />
    <glyph glyph-name="Z" unicode="Z" horiz-adv-x="1386" 
d="M1262 205v-205h-1158v143l824 990h-783v204h1117v-143l-824 -989h824z" />
    <glyph glyph-name="bracketleft" unicode="[" horiz-adv-x="753" 
d="M670 -131v-184h-488v1726h488v-184h-279v-1358h279z" />
    <glyph glyph-name="backslash" unicode="\" horiz-adv-x="1101" 
d="M819 -244l-702 1581h209l702 -1581h-209z" />
    <glyph glyph-name="bracketright" unicode="]" horiz-adv-x="753" 
d="M84 1411h487v-1726h-487v184h278v1358h-278v184z" />
    <glyph glyph-name="asciicircum" unicode="^" horiz-adv-x="1550" 
d="M453 436h-238l451 819h225l444 -819h-235l-314 598h-16z" />
    <glyph glyph-name="underscore" unicode="_" horiz-adv-x="1228" 
d="M-12 -352v147h1253v-147h-1253z" />
    <glyph glyph-name="grave" unicode="`" 
d="M244 1427h243l164 -299h-190z" />
    <glyph glyph-name="a" unicode="a" horiz-adv-x="1239" 
d="M227 721l-73 174q82 50 206.5 88.5t262.5 38.5q88 0 165 -15.5t142 -48t103 -91t38 -136.5v-553q0 -116 27 -178h-213q-16 40 -25 123q-74 -64 -161.5 -103.5t-215.5 -39.5q-176 0 -282.5 93.5t-106.5 245.5q0 137 121.5 227.5t335.5 90.5q87 0 173 -20t136 -56v109
q0 87 -68 129.5t-180 42.5q-105 0 -213.5 -38.5t-171.5 -82.5zM528 156q64 0 125.5 18t104 44.5t67 46t35.5 32.5v100q-39 29 -113.5 51.5t-160.5 22.5q-279 0 -279 -152q0 -71 59 -117t162 -46z" />
    <glyph glyph-name="b" unicode="b" horiz-adv-x="1288" 
d="M354 0h-194q18 94 18 272v1162h211v-566q138 154 305 154q132 0 242.5 -64.5t177 -185.5t66.5 -274q0 -118 -38.5 -218t-104.5 -167.5t-155 -105.5t-188 -38q-108 0 -196.5 53.5t-128.5 114.5q0 -73 -15 -137zM674 836q-150 0 -285 -138v-405q23 -28 55 -55.5t96.5 -55.5
t133.5 -28q115 0 193.5 95.5t78.5 248.5q0 151 -78 244.5t-194 93.5z" />
    <glyph glyph-name="c" unicode="c" horiz-adv-x="1155" 
d="M1059 860l-141 -141q-57 57 -132 87t-151 30q-126 0 -211.5 -93.5t-85.5 -244.5q0 -153 89 -247.5t220 -94.5q160 0 295 135l141 -133q-20 -24 -54 -51t-90.5 -61t-139 -55.5t-172.5 -21.5q-141 0 -259 64t-190 186.5t-72 278.5q0 154 71.5 274.5t192 185t265.5 64.5
q250 0 424 -162z" />
    <glyph glyph-name="d" unicode="d" horiz-adv-x="1288" 
d="M1128 0h-194q-14 60 -14 137q-40 -61 -129 -114.5t-197 -53.5q-99 0 -187.5 38t-154.5 105.5t-104.5 167.5t-38.5 218q0 153 66.5 274t176.5 185.5t242 64.5q169 0 305 -133v545h211v-1162q0 -178 18 -272zM614 836q-116 0 -194 -93.5t-78 -244.5q0 -153 78.5 -248.5
t193.5 -95.5q69 0 133.5 28t96.5 55.5t55 55.5v405q-135 138 -285 138z" />
    <glyph glyph-name="e" unicode="e" horiz-adv-x="1222" 
d="M950 291l142 -137q-86 -82 -215.5 -133.5t-272.5 -51.5q-154 0 -268.5 71t-172 187.5t-57.5 259.5q0 148 65 270t184 193.5t268 71.5q74 0 143.5 -17.5t134 -57.5t113 -98.5t77.5 -146t29 -194.5q0 -39 -2 -59h-799q11 -129 90.5 -211t217.5 -82q91 0 177.5 36.5
t145.5 98.5zM612 846q-109 0 -180.5 -64.5t-99.5 -167.5h555q-1 75 -43 129.5t-102.5 78.5t-129.5 24z" />
    <glyph glyph-name="f" unicode="f" horiz-adv-x="753" 
d="M76 989h182v180q0 77 26 135t69 90t91.5 47t100.5 15q57 0 122 -14.5t95 -32.5l-39 -176q-19 13 -62.5 25t-74.5 12q-54 0 -85.5 -27t-31.5 -74v-180h260v-166h-260v-823h-211v823h-182v166z" />
    <glyph glyph-name="g" unicode="g" horiz-adv-x="1288" 
d="M899 -51v172q-136 -152 -305 -152q-99 0 -187.5 38t-154.5 105t-104.5 166t-38.5 214q0 157 66 279t176 186.5t243 64.5q107 0 195.5 -58t130.5 -122q0 80 14 149h194q-18 -94 -18 -272v-770q0 -179 -130 -296.5t-366 -117.5q-288 0 -452 164l125 127q120 -115 327 -115
q135 0 210 66.5t75 171.5zM614 154q151 0 285 137v405q-23 28 -54.5 55.5t-96.5 56t-134 28.5q-115 0 -193.5 -95.5t-78.5 -248.5q0 -151 78 -244.5t194 -93.5z" />
    <glyph glyph-name="h" unicode="h" horiz-adv-x="1236" 
d="M387 0h-211v1434h211v-566q127 154 289 154q177 0 287 -98.5t110 -253.5v-670h-213v670q0 69 -58 117.5t-147 48.5q-145 0 -268 -158v-678z" />
    <glyph glyph-name="i" unicode="i" horiz-adv-x="563" 
d="M387 0h-211v989h211v-989zM147 1311q0 51 38.5 87t95.5 36q56 0 95.5 -36.5t39.5 -86.5q0 -51 -39 -86t-96 -35t-95.5 35t-38.5 86z" />
    <glyph glyph-name="j" unicode="j" horiz-adv-x="563" 
d="M47 -465l-61 166q33 7 55 14t50 22t44.5 35t28.5 54t12 78v1085h211v-1085q0 -97 -31.5 -171.5t-83 -116t-108.5 -61.5t-117 -20zM147 1311q0 51 38.5 87t95.5 36q56 0 95.5 -36.5t39.5 -86.5q0 -51 -39 -86t-96 -35t-95.5 35t-38.5 86z" />
    <glyph glyph-name="k" unicode="k" horiz-adv-x="1171" 
d="M819 989h285l-391 -358l450 -631h-264l-342 489l-168 -153v-336h-213v1434h213v-869z" />
    <glyph glyph-name="l" unicode="l" horiz-adv-x="583" 
d="M397 0h-211v1434h211v-1434z" />
    <glyph glyph-name="m" unicode="m" horiz-adv-x="1843" 
d="M1034 678v-678h-213v670q0 69 -52 117.5t-130 48.5q-135 0 -250 -158v-678h-211v719q0 145 -24 270h192q15 -66 21 -145q31 40 57 67t63.5 55t84.5 42t102 14q108 0 195 -54t130 -145q131 199 320 199q152 0 256 -100t104 -252v-670h-213v670q0 69 -52 117.5t-130 48.5
q-135 0 -250 -158z" />
    <glyph glyph-name="n" unicode="n" horiz-adv-x="1239" 
d="M367 844q69 84 142.5 131t184.5 47q161 0 271 -100t110 -252v-670h-213v670q0 69 -57.5 117.5t-145.5 48.5q-146 0 -270 -158v-678h-211v717q0 147 -24 272h192q15 -66 21 -145z" />
    <glyph glyph-name="o" unicode="o" horiz-adv-x="1265" 
d="M106 498q0 145 65 264t186 189.5t274 70.5q232 0 380 -151t148 -373q0 -148 -65.5 -268.5t-187 -190.5t-275.5 -70q-115 0 -213.5 41t-166.5 112t-106.5 168.5t-38.5 207.5zM326 498q0 -149 82.5 -251t222.5 -102q143 0 227 102t84 251q0 145 -84.5 246.5t-226.5 101.5
q-139 0 -222 -101.5t-83 -246.5z" />
    <glyph glyph-name="p" unicode="p" horiz-adv-x="1288" 
d="M160 989h194q15 -73 15 -137q40 62 128.5 116t196.5 54q99 0 188 -38t155 -106t104.5 -168t38.5 -218q0 -115 -39 -214t-105 -166t-154.5 -105t-187.5 -38q-169 0 -305 152v-545h-211v1143q0 176 -18 270zM674 154q116 0 194 93.5t78 244.5q0 153 -78.5 248.5
t-193.5 95.5q-69 0 -134 -28.5t-96.5 -56t-54.5 -55.5v-405q134 -137 285 -137z" />
    <glyph glyph-name="q" unicode="q" horiz-adv-x="1288" 
d="M934 989h194q-18 -94 -18 -270v-1143h-211v545q-136 -152 -305 -152q-99 0 -187.5 38t-154.5 105t-104.5 166t-38.5 214q0 157 66 279t176 186.5t243 64.5q108 0 197 -54t129 -116q0 68 14 137zM614 154q151 0 285 137v405q-23 28 -54.5 55.5t-96.5 56t-134 28.5
q-115 0 -193.5 -95.5t-78.5 -248.5q0 -151 78 -244.5t194 -93.5z" />
    <glyph glyph-name="r" unicode="r" horiz-adv-x="823" 
d="M604 815q-34 0 -64.5 -14t-58.5 -41.5t-47 -51.5t-45 -61v-647h-211v719q0 134 -26 270h194q15 -73 21 -166q30 45 54 74.5t59 61t78.5 47.5t94.5 16q99 0 140 -41l-64 -197q-20 13 -60 22t-65 9z" />
    <glyph glyph-name="s" unicode="s" horiz-adv-x="1140" 
d="M983 911l-80 -161q-64 36 -167 68t-199 32q-86 0 -143.5 -29t-57.5 -86q0 -29 17.5 -50t41 -32.5t61 -18.5t62.5 -9t60 -4q50 -2 82 -4.5t86.5 -11t91 -20.5t80 -35.5t69.5 -54.5t44 -79t18 -107q0 -114 -62.5 -193t-164.5 -115t-236 -36q-266 0 -492 152l80 159
q47 -28 80.5 -45.5t89 -41.5t116 -36t124.5 -12q112 0 183 39t71 109q0 27 -11 48.5t-33 34.5t-44.5 22.5t-56.5 14.5t-57 7t-58 4q-43 3 -70.5 5t-69.5 7t-70 11t-64 17.5t-59 26t-48 36t-39 48t-23.5 62.5t-9.5 78q0 70 24 125.5t63.5 90.5t93.5 57.5t109.5 32t116.5 9.5
q126 0 252.5 -36.5t198.5 -78.5z" />
    <glyph glyph-name="t" unicode="t" horiz-adv-x="806" 
d="M55 823v166h185v293h211v-293h260v-166h-260v-577q0 -49 30.5 -75t85.5 -26q31 0 78 5.5t66 11.5l20 -166q-25 -16 -87.5 -26.5t-117.5 -10.5q-41 0 -80 9t-77 30.5t-66 53.5t-45.5 82t-17.5 112v577h-185z" />
    <glyph glyph-name="u" unicode="u" horiz-adv-x="1236" 
d="M868 145q-69 -84 -141.5 -130t-183.5 -46q-162 0 -271.5 99t-109.5 251v670h213v-670q0 -69 57.5 -117t145.5 -48q147 0 270 157v678h211v-717q0 -178 18 -272h-194q-15 64 -15 145z" />
    <glyph glyph-name="v" unicode="v" horiz-adv-x="1140" 
d="M872 989h218l-433 -989h-176l-430 989h240l278 -696h13z" />
    <glyph glyph-name="w" unicode="w" horiz-adv-x="1605" 
d="M709 989h200l205 -708h12l191 708h227l-327 -989h-213l-195 678h-12l-195 -678h-213l-328 989h230l201 -708h12z" />
    <glyph glyph-name="x" unicode="x" horiz-adv-x="1175" 
d="M840 989h268l-391 -481l413 -508h-266l-276 373l-275 -373h-268l414 508l-391 481h270l250 -348z" />
    <glyph glyph-name="y" unicode="y" horiz-adv-x="1155" 
d="M571 303h13l307 686h215l-674 -1413h-219l250 494l-414 919h240z" />
    <glyph glyph-name="z" unicode="z" horiz-adv-x="1083" 
d="M971 166v-166h-877v125l582 698h-541v166h836v-125l-582 -698h582z" />
    <glyph glyph-name="braceleft" unicode="{" horiz-adv-x="794" 
d="M711 -131v-184q-90 0 -151.5 5t-113.5 19t-82.5 36.5t-52 60.5t-29.5 88.5t-8 121.5v260q0 199 -221 199v180q90 0 156.5 58t66.5 151v211q1 86 15 143t42.5 97t81.5 60.5t121.5 29t174.5 8.5v-184q-134 0 -178.5 -29t-47.5 -125v-211q0 -124 -66 -204.5t-157 -86.5v-16
q221 -4 221 -281v-260q0 -91 46 -119t182 -28z" />
    <glyph glyph-name="bar" unicode="|" horiz-adv-x="716" 
d="M264 -629v2482h195v-2482h-195z" />
    <glyph glyph-name="braceright" unicode="}" horiz-adv-x="794" 
d="M84 -315v184q129 0 178 28.5t49 118.5v260q0 277 221 281v16q-91 6 -157 86.5t-66 204.5v211q-3 95 -50 124.5t-175 29.5v184q88 0 149 -5.5t111.5 -20t81.5 -38t52 -62t30 -89.5t10 -123v-211q0 -93 66.5 -151t156.5 -58v-180q-221 0 -221 -199v-260q0 -107 -19 -170
t-72 -100t-131.5 -49t-213.5 -12z" />
    <glyph glyph-name="asciitilde" unicode="~" horiz-adv-x="1550" 
d="M258 389l-156 100q114 130 210 193t198 63q167 0 324 -141q33 -28 50.5 -41.5t58 -32t79.5 -18.5q110 0 264 160l162 -101q-232 -264 -434 -264q-25 0 -49.5 3.5t-44.5 7.5t-42.5 13l-37.5 15t-35 19t-30 19t-28.5 20.5t-24 19.5t-22 19.5t-18.5 15.5q-100 82 -180 82
q-95 0 -244 -152z" />
    <glyph glyph-name="nbspace" unicode="&#xa0;" horiz-adv-x="460" 
 />
    <glyph glyph-name="exclamdown" unicode="&#xa1;" horiz-adv-x="618" 
d="M430 866q0 -62 -46.5 -105.5t-115.5 -43.5t-116.5 43.5t-47.5 105.5t47.5 105t116.5 43t115.5 -43t46.5 -105zM195 553h147l51 -584v-323h-250v323z" />
    <glyph glyph-name="cent" unicode="&#xa2;" horiz-adv-x="1243" 
d="M719 1133h153l-45 -197q162 -39 285 -131l-139 -139q-82 58 -187 86l-133 -598q172 0 322 125l141 -134q-20 -22 -54.5 -47.5t-92 -56.5t-142 -51.5t-176.5 -20.5q-27 0 -39 2l-55 -256h-151l61 281q-161 47 -262 172t-101 297q0 144 72.5 257t194 173.5t268.5 60.5
q27 0 41 -2zM336 465q0 -97 47.5 -171t126.5 -110l129 586q-129 0 -216 -84t-87 -221z" />
    <glyph glyph-name="sterling" unicode="&#xa3;" horiz-adv-x="1476" 
d="M123 539v163h264v150q0 70 27 129t72.5 99t106.5 68t128.5 41t138.5 13q98 0 234.5 -42.5t253.5 -110.5l-113 -158q-95 48 -198.5 78t-176.5 30q-99 0 -172.5 -38t-73.5 -109v-150h502v-163h-502v-146q0 -98 -40.5 -146t-137.5 -65h912v-182h-1225v182h80q106 0 145 42
t39 169v146h-264z" />
    <glyph glyph-name="currency" unicode="&#xa4;" horiz-adv-x="1527" 
d="M201 528q0 161 90 297l-166 156l147 147l164 -153q145 104 326 104q182 0 330 -104l165 153l148 -147l-168 -156q92 -139 92 -297q0 -160 -92 -299l168 -153l-148 -148l-165 154q-150 -105 -330 -105q-176 0 -326 103l-164 -152l-147 148l166 153q-90 136 -90 299z
M430 528q0 -141 98 -242.5t234 -101.5q139 0 238.5 101.5t99.5 242.5t-99.5 242.5t-238.5 101.5q-136 0 -234 -101.5t-98 -242.5z" />
    <glyph glyph-name="yen" unicode="&#xa5;" horiz-adv-x="1613" 
d="M131 651v144h346l-301 368h291l350 -430l348 430h271l-299 -368h348v-144h-465l-98 -121v-12h563v-143h-563v-375h-230v375h-561v143h561v12l-98 121h-463z" />
    <glyph glyph-name="brokenbar" unicode="&#xa6;" horiz-adv-x="716" 
d="M264 788v844h195v-844h-195zM264 -467v860h195v-860h-195z" />
    <glyph glyph-name="section" unicode="&#xa7;" horiz-adv-x="1472" 
d="M1272 199q-48 -45 -123 -82q11 -11 25 -39q24 -46 24 -111q0 -80 -41 -140.5t-108.5 -94t-143.5 -50t-157 -16.5q-113 0 -228 27t-201 74l99 155q65 -33 154 -53.5t176 -20.5q35 0 69.5 5t71 16t59.5 35t23 57t-21 51q-11 10 -28.5 17.5t-33 12t-44.5 9t-44.5 6t-53 5
t-50.5 4.5q-339 32 -477 165q-90 87 -90 211q0 133 102 232q39 39 119 80q-12 15 -22 34q-25 59 -25 117q0 80 41 140.5t109 94t144.5 50t158.5 16.5q111 0 225.5 -26t200.5 -72l-99 -158q-65 33 -153 53.5t-174 20.5q-34 0 -67 -4t-72 -14.5t-63 -35t-24 -59.5
q0 -31 21 -49q9 -9 22 -15.5t31 -11.5t33 -8.5t40.5 -6.5t40 -4.5t45.5 -4.5t44 -4q337 -31 475 -164q90 -87 90 -213q0 -134 -100 -231zM805 608q-1 0 -30.5 2.5t-36 3.5t-34.5 3.5t-39.5 4.5t-36.5 5.5t-40.5 7t-36.5 8.5t-39 10.5t-35 12.5l-41 -33q-78 -72 -78 -162
q0 -68 50 -115q81 -75 288 -92q1 0 39.5 -3.5t48 -4.5t45 -5t53 -7.5t46 -9t51.5 -12.5t45 -15q27 17 43 33q78 72 78 161q0 67 -51 115q-81 75 -289 92z" />
    <glyph glyph-name="dieresis" unicode="&#xa8;" 
d="M168 1264q0 48 36 82t89 34t90 -34.5t37 -81.5q0 -49 -36.5 -82t-90.5 -33t-89.5 32.5t-35.5 82.5zM602 1264q0 48 36 82t89 34t90 -34.5t37 -81.5q0 -49 -36.5 -82t-90.5 -33t-89.5 32.5t-35.5 82.5z" />
    <glyph glyph-name="copyright" unicode="&#xa9;" horiz-adv-x="2033" 
d="M1421 848l-78 -141q-136 124 -327 124q-127 0 -207 -81t-80 -199q0 -113 84 -182.5t209 -69.5q76 0 140.5 18t101.5 38.5t90 58.5l78 -142q-88 -69 -178.5 -104t-231.5 -35q-204 0 -343.5 116.5t-139.5 301.5q0 190 132 318t345 128q108 0 215.5 -41.5t189.5 -107.5z
M1020 1397q184 0 351.5 -67t289.5 -180t194 -270.5t72 -330.5t-72 -330t-194 -270t-289.5 -179.5t-351.5 -66.5q-185 0 -354 66.5t-292 179.5t-195.5 270t-72.5 330t72.5 330.5t195.5 270.5t292 180t354 67zM1020 1251q-149 0 -287 -56.5t-238 -150.5t-159.5 -224
t-59.5 -271q0 -142 59.5 -272t159.5 -224t237.5 -149.5t287.5 -55.5q201 0 370.5 94t268 255.5t98.5 351.5q0 189 -98.5 350.5t-268.5 256.5t-370 95z" />
    <glyph glyph-name="ordfeminine" unicode="&#xaa;" horiz-adv-x="950" 
d="M180 948l-63 146q62 36 158.5 63t203.5 27q67 0 125 -11t108 -34t78.5 -64.5t28.5 -97.5v-399q0 -74 19 -127h-183q-6 17 -16 77q-39 -31 -66 -48.5t-81.5 -34.5t-118.5 -17q-131 0 -212 71t-81 181q0 97 92 161t254 64q56 0 116.5 -11t96.5 -28v58q0 55 -45.5 82.5
t-124.5 27.5q-77 0 -160.5 -27.5t-128.5 -58.5zM412 584q57 0 111.5 21t77.5 37.5t38 31.5v53q-86 39 -182 39q-195 0 -195 -86q0 -42 40.5 -69t109.5 -27z" />
    <glyph glyph-name="guillemotleft" unicode="&#xab;" horiz-adv-x="1241" 
d="M309 809h254l-248 -297v-16l248 -295h-254l-203 250v106zM608 496v16l240 297h254l-248 -297v-16l248 -295h-254z" />
    <glyph glyph-name="logicalnot" unicode="&#xac;" horiz-adv-x="1550" 
d="M1364 231h-209v416h-971v191h1180v-607z" />
    <glyph glyph-name="registered" unicode="&#xae;" horiz-adv-x="1282" 
d="M637 418q-144 0 -263.5 63.5t-188 174t-68.5 243.5q0 95 40.5 183.5t109.5 153t165.5 103.5t204.5 39q219 0 373.5 -142t154.5 -337q0 -202 -153.5 -341.5t-374.5 -139.5zM637 502q184 0 311 115.5t127 281.5q0 163 -127.5 281t-310.5 118q-180 0 -305 -118t-125 -281
q0 -166 124.5 -281.5t305.5 -115.5zM522 672h-110v481h311q80 0 133 -42t53 -107q0 -43 -30 -80t-78 -58l121 -194h-127l-109 182h-164v-182zM723 1063h-201v-117h199q29 0 53.5 18t24.5 40q0 27 -22 43t-54 16z" />
    <glyph glyph-name="macron" unicode="&#xaf;" 
d="M244 1346h534v-164h-534v164z" />
    <glyph glyph-name="degree" unicode="&#xb0;" horiz-adv-x="999" 
d="M500 1300q187 0 292 -99t105 -247q0 -144 -105 -243t-292 -99t-292.5 99t-105.5 243q0 148 105.5 247t292.5 99zM500 776q99 0 154 50.5t55 127.5q0 79 -55 131t-154 52t-154 -52t-55 -131q0 -77 55 -127.5t154 -50.5z" />
    <glyph glyph-name="plusminus" unicode="&#xb1;" horiz-adv-x="1550" 
d="M184 647v191h488v336h207v-336h485v-191h-485v-336h-207v336h-488zM184 0v190h1180v-190h-1180z" />
    <glyph glyph-name="two.superior" unicode="&#xb2;" horiz-adv-x="976" 
d="M209 1063l-119 139q57 42 89 63.5t87.5 50.5t115.5 41.5t130 12.5q99 0 182.5 -25.5t141 -85t57.5 -145.5q0 -58 -24.5 -106t-61 -78.5t-87 -55t-93.5 -39t-90 -27.5q-23 -6 -33 -9q-103 -31 -157 -71.5t-54 -115.5v-2h577v-159h-776v143q0 80 33 145t92 110t127.5 75.5
t151.5 50.5q23 5 46.5 12.5t62 24t62 42t23.5 56.5q0 43 -50.5 62.5t-123.5 19.5q-96 0 -167 -33.5t-142 -95.5z" />
    <glyph glyph-name="three.superior" unicode="&#xb3;" horiz-adv-x="1093" 
d="M483 836v159h179q41 0 64.5 24.5t23.5 63.5q0 56 -55 82.5t-126 26.5q-89 0 -173 -39t-150 -100l-121 121q212 196 448 196q62 0 125 -14t121 -42.5t94.5 -79t36.5 -116.5q0 -62 -26.5 -110t-57.5 -64q56 -14 104 -66t48 -145q0 -99 -65 -171.5t-172 -108t-242 -35.5
q-301 0 -494 190l121 140q155 -152 371 -152q122 0 202 39t80 110q0 91 -155 91h-181z" />
    <glyph glyph-name="acute" unicode="&#xb4;" 
d="M537 1427h243l-217 -299h-190z" />
    <glyph glyph-name="mu" unicode="&#xb5;" horiz-adv-x="1239" 
d="M371 -471h-213v1440h213v-668q0 -65 57.5 -111.5t144.5 -46.5q147 0 271 158v668h211v-697q0 -178 18 -272h-194q-15 64 -15 135q-69 -84 -141.5 -130t-183.5 -46q-103 0 -168 49v-479z" />
    <glyph glyph-name="mu" unicode="&#x3bc;" horiz-adv-x="1239" 
d="M371 -471h-213v1440h213v-668q0 -65 57.5 -111.5t144.5 -46.5q147 0 271 158v668h211v-697q0 -178 18 -272h-194q-15 64 -15 135q-69 -84 -141.5 -130t-183.5 -46q-103 0 -168 49v-479z" />
    <glyph glyph-name="paragraph" unicode="&#xb6;" horiz-adv-x="1763" 
d="M1163 -422h-188v950h-414q-67 0 -131 14t-125.5 46t-107 78.5t-73.5 118t-28 157.5q0 395 451 395h1018v-1759h-189v1575h-213v-1575zM305 942q0 -60 23.5 -106t62 -72t81.5 -38.5t89 -12.5h414v440h-428q-53 0 -94 -9.5t-75.5 -32t-53.5 -65.5t-19 -104z" />
    <glyph glyph-name="periodcentered" unicode="&#xb7;" horiz-adv-x="1550" 
d="M592 530q0 68 52.5 117t129.5 49q76 0 129 -49t53 -117q0 -69 -52.5 -116t-129.5 -47q-78 0 -130 47t-52 116z" />
    <glyph glyph-name="cedilla" unicode="&#xb8;" 
d="M496 39h135l-68 -150q37 11 62 11q83 2 147 -42.5t64 -121.5q0 -90 -93.5 -144.5t-242.5 -54.5q-113 0 -293 45l33 117q10 -2 41 -8t44 -8.5t40 -7t43.5 -6.5t39 -3.5t41.5 -1.5q72 0 114 19t42 55q0 55 -96 55q-25 0 -88 -10l-55 65z" />
    <glyph glyph-name="one.superior" unicode="&#xb9;" horiz-adv-x="661" 
d="M63 1065l-43 160l265 112h200v-886h-200v706z" />
    <glyph glyph-name="ordmasculine" unicode="&#xba;" horiz-adv-x="950" 
d="M80 807q0 156 116 266.5t277 110.5q163 0 280 -110.5t117 -266.5q0 -159 -116.5 -269t-280.5 -110q-161 0 -277 110.5t-116 268.5zM268 807q0 -98 53.5 -160.5t151.5 -62.5q101 0 156 62.5t55 160.5q0 95 -55.5 158t-155.5 63q-97 0 -151 -63t-54 -158z" />
    <glyph glyph-name="guillemotright" unicode="&#xbb;" horiz-adv-x="1241" 
d="M678 809h254l203 -252v-106l-203 -250h-254l248 295v16zM633 512v-16l-240 -295h-254l248 295v16l-248 297h254z" />
    <glyph glyph-name="onequarter" unicode="&#xbc;" horiz-adv-x="2187" 
d="M59 1065l-43 160l265 112h200v-886h-200v706zM1174 1337h180l-758 -1337h-182zM2124 348v-162h-174v-186h-201v186h-674v136l705 565h170v-539h174zM1374 352v-4h375v281h-16q-58 -46 -179 -138.5t-180 -138.5z" />
    <glyph glyph-name="onehalf" unicode="&#xbd;" horiz-adv-x="2080" 
d="M59 1065l-43 160l265 112h200v-886h-200v706zM1174 1337h180l-758 -1337h-182zM1313 612l-119 140q57 42 89 63.5t87.5 50.5t115.5 41.5t130 12.5q99 0 182.5 -25.5t141 -85t57.5 -145.5q0 -42 -13.5 -79.5t-32.5 -64t-52.5 -51t-60 -39.5t-69.5 -31t-65.5 -23t-64.5 -19
q-21 -6 -31 -9q-50 -15 -83.5 -29t-65 -35.5t-47 -52t-15.5 -69.5v-2h577v-160h-776v143q0 80 33 145t92 110t127.5 75.5t151.5 50.5q23 5 46.5 12.5t62 24t62 42t23.5 56.5q0 43 -50.5 62.5t-123.5 19.5q-96 0 -167 -33.5t-142 -95.5z" />
    <glyph glyph-name="threequarters" unicode="&#xbe;" horiz-adv-x="2627" 
d="M483 836v159h179q41 0 64.5 24.5t23.5 63.5q0 56 -55 82.5t-126 26.5q-89 0 -173 -39t-150 -100l-121 121q212 196 448 196q62 0 125 -14t121 -42.5t94.5 -79t36.5 -116.5q0 -62 -26.5 -110t-57.5 -64q56 -14 104 -66t48 -145q0 -99 -65 -171.5t-172 -108t-242 -35.5
q-301 0 -494 190l121 140q155 -152 371 -152q122 0 202 39t80 110q0 91 -155 91h-181zM1614 1337h180l-758 -1337h-182zM2564 348v-162h-174v-186h-201v186h-673v136l704 565h170v-539h174zM1815 352v-4h374v281h-16q-58 -46 -179 -138.5t-179 -138.5z" />
    <glyph glyph-name="questiondown" unicode="&#xbf;" horiz-adv-x="1169" 
d="M913 -10l144 -131q-55 -61 -104 -102.5t-114.5 -78t-147.5 -54t-183 -17.5q-90 0 -164 17.5t-135 54t-95 101t-34 152.5q0 143 102 242q35 33 89.5 69.5t99.5 64.5t88 62.5t68.5 80.5t27.5 102h205q3 -83 -26 -151.5t-81 -117t-104.5 -84.5t-114 -75.5t-92.5 -69.5
q-57 -54 -57 -116q0 -71 65 -109.5t164 -38.5q92 0 167 27t125 67t107 105zM780 866q0 -62 -46.5 -105.5t-115.5 -43.5t-116 43.5t-47 105.5t47 105t116 43t115.5 -43t46.5 -105z" />
    <glyph glyph-name="Agrave" unicode="&#xc0;" horiz-adv-x="1548" 
d="M49 0l621 1337h209l620 -1337h-252l-162 360h-636l-160 -360h-240zM762 1063l-232 -518h474l-230 518h-12zM739 1495l-278 266h278l205 -266h-205z" />
    <glyph glyph-name="Aacute" unicode="&#xc1;" horiz-adv-x="1548" 
d="M49 0l621 1337h209l620 -1337h-252l-162 360h-636l-160 -360h-240zM762 1063l-232 -518h474l-230 518h-12zM604 1495l205 266h278l-280 -266h-203z" />
    <glyph glyph-name="Acircumflex" unicode="&#xc2;" horiz-adv-x="1548" 
d="M49 0l621 1337h209l620 -1337h-252l-162 360h-636l-160 -360h-240zM762 1063l-232 -518h474l-230 518h-12zM444 1495l211 272h238l209 -272h-170l-158 152l-160 -152h-170z" />
    <glyph glyph-name="Atilde" unicode="&#xc3;" horiz-adv-x="1548" 
d="M49 0l621 1337h209l620 -1337h-252l-162 360h-636l-160 -360h-240zM762 1063l-232 -518h474l-230 518h-12zM541 1493l-138 74q57 97 112.5 138.5t121.5 41.5q70 0 145 -53q3 -2 13 -9t13 -9l12 -8t13 -8t11.5 -6.5t12.5 -6t12 -3.5t13.5 -3t12.5 -1q23 0 46 16.5t34 30
t35 46.5l127 -70q-102 -182 -234 -182q-76 0 -143 49q-4 3 -17.5 13t-17.5 12.5t-15 9.5t-16 9.5t-14 6.5t-16 5t-15 1q-12 0 -23.5 -4.5t-19 -9.5t-18.5 -17.5t-15.5 -18.5t-16.5 -22.5t-15 -21.5z" />
    <glyph glyph-name="Adieresis" unicode="&#xc4;" horiz-adv-x="1548" 
d="M49 0l621 1337h209l620 -1337h-252l-162 360h-636l-160 -360h-240zM762 1063l-232 -518h474l-230 518h-12zM430 1628q0 48 36 82.5t89 34.5t90 -35t37 -82q0 -49 -36.5 -82t-90.5 -33t-89.5 32.5t-35.5 82.5zM864 1628q0 48 36 82.5t89 34.5t90 -35t37 -82
q0 -49 -36.5 -82t-90.5 -33t-89.5 32.5t-35.5 82.5z" />
    <glyph glyph-name="Aring" unicode="&#xc5;" horiz-adv-x="1548" 
d="M49 0l621 1337h209l620 -1337h-252l-162 360h-636l-160 -360h-240zM762 1063l-232 -518h474l-230 518h-12zM637 1630q0 -49 37 -79.5t94 -30.5q59 0 96 30.5t37 79.5q0 52 -37.5 86.5t-95.5 34.5q-57 0 -94 -35t-37 -86zM768 1421q-121 0 -189.5 60t-68.5 149
q0 91 68.5 153t189.5 62t191.5 -62.5t70.5 -152.5q0 -89 -70.5 -149t-191.5 -60z" />
    <glyph glyph-name="AE" unicode="&#xc6;" horiz-adv-x="2224" 
d="M995 0v360h-503l-254 -360h-256l970 1337h1127v-204h-856v-332h514v-205h-514v-391h905v-205h-1133zM987 1063l-366 -518h374v518h-8z" />
    <glyph glyph-name="Ccedilla" unicode="&#xc7;" horiz-adv-x="1579" 
d="M1350 389l153 -151q-119 -119 -282.5 -197t-360.5 -82l-31 -70q37 11 62 11q83 2 147 -42.5t64 -121.5q0 -90 -93.5 -144.5t-242.5 -54.5q-113 0 -293 45l33 117q184 -35 250 -35q72 0 113.5 19t41.5 55q0 55 -96 55q-25 0 -88 -10l-55 65l55 119q-184 24 -324.5 123.5
t-215 250t-74.5 329.5q0 193 90 354t256 257.5t375 96.5q179 0 344.5 -64t281.5 -171l-155 -154q-89 84 -216.5 134.5t-250.5 50.5q-143 0 -254.5 -69t-170.5 -184t-59 -253q0 -140 60.5 -254t174 -182t259.5 -68q148 0 278.5 62.5t223.5 162.5z" />
    <glyph glyph-name="Egrave" unicode="&#xc8;" horiz-adv-x="1462" 
d="M975 801v-205h-514v-391h905v-205h-1135v1337h1086v-204h-856v-332h514zM741 1495l-278 266h278l205 -266h-205z" />
    <glyph glyph-name="Eacute" unicode="&#xc9;" horiz-adv-x="1462" 
d="M975 801v-205h-514v-391h905v-205h-1135v1337h1086v-204h-856v-332h514zM606 1495l205 266h279l-281 -266h-203z" />
    <glyph glyph-name="Ecircumflex" unicode="&#xca;" horiz-adv-x="1462" 
d="M975 801v-205h-514v-391h905v-205h-1135v1337h1086v-204h-856v-332h514zM446 1495l211 272h238l209 -272h-170l-158 152l-160 -152h-170z" />
    <glyph glyph-name="Edieresis" unicode="&#xcb;" horiz-adv-x="1462" 
d="M975 801v-205h-514v-391h905v-205h-1135v1337h1086v-204h-856v-332h514zM432 1628q0 48 36 82.5t89 34.5t90 -35t37 -82q0 -49 -36.5 -82t-90.5 -33t-89.5 32.5t-35.5 82.5zM866 1628q0 48 36 82.5t89 34.5t90 -35t37 -82q0 -49 -36.5 -82t-90.5 -33t-89.5 32.5
t-35.5 82.5z" />
    <glyph glyph-name="Igrave" unicode="&#xcc;" horiz-adv-x="692" 
d="M461 0h-230v1337h230v-1337zM311 1761l205 -266h-205l-278 266h278z" />
    <glyph glyph-name="Iacute" unicode="&#xcd;" horiz-adv-x="692" 
d="M461 0h-230v1337h230v-1337zM176 1495l205 266h278l-280 -266h-203z" />
    <glyph glyph-name="Icircumflex" unicode="&#xce;" horiz-adv-x="692" 
d="M461 0h-230v1337h230v-1337zM16 1495l211 272h238l209 -272h-170l-158 152l-160 -152h-170z" />
    <glyph glyph-name="Idieresis" unicode="&#xcf;" horiz-adv-x="692" 
d="M461 0h-230v1337h230v-1337zM2 1628q0 48 36 82.5t89 34.5t90 -35t37 -82q0 -49 -36.5 -82t-90.5 -33t-89.5 32.5t-35.5 82.5zM436 1628q0 48 36 82.5t89 34.5t90 -35t37 -82q0 -49 -36.5 -82t-90.5 -33t-89.5 32.5t-35.5 82.5z" />
    <glyph glyph-name="Eth" unicode="&#xd0;" horiz-adv-x="1730" 
d="M88 596v184h205v557h641q172 0 285 -44.5t206 -133.5q183 -189 183 -489q0 -151 -51 -282.5t-146 -223.5q-94 -84 -200 -124t-277 -40h-641v596h-205zM522 205h402q117 0 177.5 23.5t129.5 80.5q65 65 101 159.5t36 201.5q0 218 -129 350q-64 59 -131 86t-184 27h-402
v-353h393v-184h-393v-391z" />
    <glyph glyph-name="Ntilde" unicode="&#xd1;" horiz-adv-x="1669" 
d="M1208 1337h230v-1337h-203l-772 928h-2v-928h-230v1337h203l772 -927h2v927zM600 1493l-137 74q57 98 112 139t121 41q71 0 146 -53q4 -2 14.5 -9.5t14.5 -10.5t13 -9t14 -8.5t13.5 -6.5t14.5 -5.5t13.5 -3t14.5 -1.5q23 0 46 16.5t34 30t35 46.5l127 -70
q-102 -182 -233 -182q-77 0 -144 49q-5 4 -17 13t-17.5 12.5t-15 10t-15.5 9t-14 6t-15.5 5t-15.5 1.5q-10 0 -19.5 -2.5t-18.5 -9t-15.5 -11.5t-15.5 -16t-13.5 -17t-14 -19.5t-12.5 -18.5z" />
    <glyph glyph-name="Ograve" unicode="&#xd2;" horiz-adv-x="1732" 
d="M113 672q0 193 99 355t272 256.5t380 94.5q124 0 240 -35.5t209.5 -100.5t163 -152t107.5 -195t38 -223q0 -195 -101 -359t-275 -259t-382 -95q-207 0 -380 95t-272 258.5t-99 359.5zM354 672q0 -138 67 -254.5t184.5 -185t258.5 -68.5q142 0 261 68.5t187 185t68 254.5
q0 136 -68 251.5t-187 183t-261 67.5q-141 0 -258.5 -67.5t-184.5 -183t-67 -251.5zM831 1495l-278 266h278l205 -266h-205z" />
    <glyph glyph-name="Oacute" unicode="&#xd3;" horiz-adv-x="1732" 
d="M113 672q0 193 99 355t272 256.5t380 94.5q124 0 240 -35.5t209.5 -100.5t163 -152t107.5 -195t38 -223q0 -195 -101 -359t-275 -259t-382 -95q-207 0 -380 95t-272 258.5t-99 359.5zM354 672q0 -138 67 -254.5t184.5 -185t258.5 -68.5q142 0 261 68.5t187 185t68 254.5
q0 136 -68 251.5t-187 183t-261 67.5q-141 0 -258.5 -67.5t-184.5 -183t-67 -251.5zM696 1495l205 266h279l-281 -266h-203z" />
    <glyph glyph-name="Ocircumflex" unicode="&#xd4;" horiz-adv-x="1732" 
d="M113 672q0 193 99 355t272 256.5t380 94.5q124 0 240 -35.5t209.5 -100.5t163 -152t107.5 -195t38 -223q0 -195 -101 -359t-275 -259t-382 -95q-207 0 -380 95t-272 258.5t-99 359.5zM354 672q0 -138 67 -254.5t184.5 -185t258.5 -68.5q142 0 261 68.5t187 185t68 254.5
q0 136 -68 251.5t-187 183t-261 67.5q-141 0 -258.5 -67.5t-184.5 -183t-67 -251.5zM537 1495l211 272h237l209 -272h-170l-158 152l-159 -152h-170z" />
    <glyph glyph-name="Otilde" unicode="&#xd5;" horiz-adv-x="1732" 
d="M113 672q0 193 99 355t272 256.5t380 94.5q124 0 240 -35.5t209.5 -100.5t163 -152t107.5 -195t38 -223q0 -195 -101 -359t-275 -259t-382 -95q-207 0 -380 95t-272 258.5t-99 359.5zM354 672q0 -138 67 -254.5t184.5 -185t258.5 -68.5q142 0 261 68.5t187 185t68 254.5
q0 136 -68 251.5t-187 183t-261 67.5q-141 0 -258.5 -67.5t-184.5 -183t-67 -251.5zM633 1493l-137 74q57 98 112 139t121 41q70 0 145 -53q3 -2 13 -9t13 -9l12 -8t13 -8t11.5 -6.5t12.5 -6t12 -3.5t13.5 -3t12.5 -1q23 0 46 16.5t34 30t35 46.5l127 -70
q-102 -182 -234 -182q-76 0 -143 49q-4 3 -17.5 13t-17.5 12.5t-15 9.5t-16 9.5t-14 6.5t-16 5t-15 1q-12 0 -23.5 -4.5t-19 -9.5t-18.5 -17.5t-15.5 -18.5t-16.5 -22.5t-15 -21.5z" />
    <glyph glyph-name="Odieresis" unicode="&#xd6;" horiz-adv-x="1732" 
d="M113 672q0 193 99 355t272 256.5t380 94.5q124 0 240 -35.5t209.5 -100.5t163 -152t107.5 -195t38 -223q0 -195 -101 -359t-275 -259t-382 -95q-207 0 -380 95t-272 258.5t-99 359.5zM354 672q0 -138 67 -254.5t184.5 -185t258.5 -68.5q142 0 261 68.5t187 185t68 254.5
q0 136 -68 251.5t-187 183t-261 67.5q-141 0 -258.5 -67.5t-184.5 -183t-67 -251.5zM522 1628q0 48 36 82.5t89 34.5t90 -35t37 -82q0 -49 -36.5 -82t-90.5 -33t-89.5 32.5t-35.5 82.5zM956 1628q0 48 36 82.5t89 34.5t90 -35t37 -82q0 -49 -36.5 -82t-90.5 -33t-89.5 32.5
t-35.5 82.5z" />
    <glyph glyph-name="multiply" unicode="&#xd7;" horiz-adv-x="1550" 
d="M199 891l145 137l432 -371l432 371l140 -135l-424 -363l426 -362l-144 -135l-434 368l-432 -368l-139 133l424 362z" />
    <glyph glyph-name="Oslash" unicode="&#xd8;" horiz-adv-x="1732" 
d="M113 672q0 193 99 355t272 256.5t380 94.5q174 0 332 -71l123 176l151 -105l-116 -168q126 -99 197 -238.5t71 -299.5q0 -195 -101 -359t-275 -259t-382 -95q-169 0 -332 70l-118 -172l-154 102l115 166q-124 100 -193 242t-69 305zM1380 672q0 103 -40 195.5t-113 160.5
l-572 -821q93 -43 209 -43q142 0 261 68.5t187 185t68 254.5zM354 672q0 -104 39.5 -197t110.5 -164l569 819q-103 44 -209 44q-141 0 -258.5 -67.5t-184.5 -183t-67 -251.5z" />
    <glyph glyph-name="Ugrave" unicode="&#xd9;" horiz-adv-x="1595" 
d="M1161 1337h230v-862q0 -241 -166 -378.5t-428 -137.5q-170 0 -303 59t-211 177.5t-78 279.5v862h229v-862q0 -146 102.5 -228.5t260.5 -82.5q159 0 261.5 82.5t102.5 228.5v862zM762 1495l-279 266h279l205 -266h-205z" />
    <glyph glyph-name="Uacute" unicode="&#xda;" horiz-adv-x="1595" 
d="M1161 1337h230v-862q0 -241 -166 -378.5t-428 -137.5q-170 0 -303 59t-211 177.5t-78 279.5v862h229v-862q0 -146 102.5 -228.5t260.5 -82.5q159 0 261.5 82.5t102.5 228.5v862zM627 1495l204 266h279l-281 -266h-202z" />
    <glyph glyph-name="Ucircumflex" unicode="&#xdb;" horiz-adv-x="1595" 
d="M1161 1337h230v-862q0 -241 -166 -378.5t-428 -137.5q-170 0 -303 59t-211 177.5t-78 279.5v862h229v-862q0 -146 102.5 -228.5t260.5 -82.5q159 0 261.5 82.5t102.5 228.5v862zM467 1495l211 272h237l209 -272h-170l-157 152l-160 -152h-170z" />
    <glyph glyph-name="Udieresis" unicode="&#xdc;" horiz-adv-x="1595" 
d="M1161 1337h230v-862q0 -241 -166 -378.5t-428 -137.5q-170 0 -303 59t-211 177.5t-78 279.5v862h229v-862q0 -146 102.5 -228.5t260.5 -82.5q159 0 261.5 82.5t102.5 228.5v862zM453 1628q0 48 36 82.5t89 34.5t90 -35t37 -82q0 -49 -36.5 -82t-90.5 -33t-89.5 32.5
t-35.5 82.5zM887 1628q0 48 36 82.5t89 34.5t90 -35t37 -82q0 -49 -36.5 -82t-90.5 -33t-89.5 32.5t-35.5 82.5z" />
    <glyph glyph-name="Yacute" unicode="&#xdd;" horiz-adv-x="1392" 
d="M1090 1337h270l-549 -721v-616h-229v616l-549 721h291l383 -516zM526 1495l205 266h279l-281 -266h-203z" />
    <glyph glyph-name="Thorn" unicode="&#xde;" horiz-adv-x="1579" 
d="M461 1337v-256h549q256 0 387 -141q106 -115 106 -268q0 -169 -123 -289q-132 -125 -370 -125h-549v-258h-230v1337h230zM1010 877h-549v-414h549q132 0 202 65q62 59 62 142q0 77 -55 135q-41 44 -93 58t-116 14z" />
    <glyph glyph-name="germandbls" unicode="&#xdf;" horiz-adv-x="1210" 
d="M633 -20l-21 163q136 0 209.5 62t73.5 164q0 60 -26.5 114.5t-66.5 91.5t-89 66.5t-91.5 45t-76.5 20.5l20 161q93 19 145 86.5t52 149.5q0 83 -51 130.5t-125 47.5q-81 0 -141 -58t-60 -167v-1057h-209v1057q0 105 35 185t94.5 125.5t129.5 68t149 22.5q173 0 285 -98
t112 -238q0 -63 -25 -119t-64 -94.5t-77.5 -63.5t-75.5 -38q55 -14 115.5 -49t121 -89t99.5 -135t39 -172q0 -168 -127.5 -275t-353.5 -107z" />
    <glyph glyph-name="agrave" unicode="&#xe0;" horiz-adv-x="1239" 
d="M227 721l-73 174q82 50 206.5 88.5t262.5 38.5q88 0 165 -15.5t142 -48t103 -91t38 -136.5v-553q0 -116 27 -178h-213q-16 40 -25 123q-74 -64 -161.5 -103.5t-215.5 -39.5q-176 0 -282.5 93.5t-106.5 245.5q0 137 121.5 227.5t335.5 90.5q87 0 173 -20t136 -56v109
q0 87 -68 129.5t-180 42.5q-105 0 -213.5 -38.5t-171.5 -82.5zM528 156q64 0 125.5 18t104 44.5t67 46t35.5 32.5v100q-39 29 -113.5 51.5t-160.5 22.5q-279 0 -279 -152q0 -71 59 -117t162 -46zM350 1427h244l164 -299h-191z" />
    <glyph glyph-name="aacute" unicode="&#xe1;" horiz-adv-x="1239" 
d="M227 721l-73 174q82 50 206.5 88.5t262.5 38.5q88 0 165 -15.5t142 -48t103 -91t38 -136.5v-553q0 -116 27 -178h-213q-16 40 -25 123q-74 -64 -161.5 -103.5t-215.5 -39.5q-176 0 -282.5 93.5t-106.5 245.5q0 137 121.5 227.5t335.5 90.5q87 0 173 -20t136 -56v109
q0 87 -68 129.5t-180 42.5q-105 0 -213.5 -38.5t-171.5 -82.5zM528 156q64 0 125.5 18t104 44.5t67 46t35.5 32.5v100q-39 29 -113.5 51.5t-160.5 22.5q-279 0 -279 -152q0 -71 59 -117t162 -46zM643 1427h244l-217 -299h-191z" />
    <glyph glyph-name="acircumflex" unicode="&#xe2;" horiz-adv-x="1239" 
d="M227 721l-73 174q82 50 206.5 88.5t262.5 38.5q88 0 165 -15.5t142 -48t103 -91t38 -136.5v-553q0 -116 27 -178h-213q-16 40 -25 123q-74 -64 -161.5 -103.5t-215.5 -39.5q-176 0 -282.5 93.5t-106.5 245.5q0 137 121.5 227.5t335.5 90.5q87 0 173 -20t136 -56v109
q0 87 -68 129.5t-180 42.5q-105 0 -213.5 -38.5t-171.5 -82.5zM528 156q64 0 125.5 18t104 44.5t67 46t35.5 32.5v100q-39 29 -113.5 51.5t-160.5 22.5q-279 0 -279 -152q0 -71 59 -117t162 -46zM289 1130l211 279h237l209 -279h-170l-158 160l-159 -160h-170z" />
    <glyph glyph-name="atilde" unicode="&#xe3;" horiz-adv-x="1239" 
d="M227 721l-73 174q82 50 206.5 88.5t262.5 38.5q88 0 165 -15.5t142 -48t103 -91t38 -136.5v-553q0 -116 27 -178h-213q-16 40 -25 123q-74 -64 -161.5 -103.5t-215.5 -39.5q-176 0 -282.5 93.5t-106.5 245.5q0 137 121.5 227.5t335.5 90.5q87 0 173 -20t136 -56v109
q0 87 -68 129.5t-180 42.5q-105 0 -213.5 -38.5t-171.5 -82.5zM528 156q64 0 125.5 18t104 44.5t67 46t35.5 32.5v100q-39 29 -113.5 51.5t-160.5 22.5q-279 0 -279 -152q0 -71 59 -117t162 -46zM385 1128l-137 74q57 98 112 139t121 41q71 0 146 -53q2 -2 11 -8l12 -8
t11 -7.5t11.5 -7t10.5 -6t11 -6t10.5 -4t11.5 -3.5t11 -2t12 -1q23 0 45.5 16t34.5 30t35 46l127 -70q-102 -182 -233 -182q-77 0 -144 49q-6 4 -20 14.5t-20 14.5t-17 11t-18 10t-16.5 5.5t-18.5 2.5q-12 0 -23.5 -4.5t-19 -9.5t-19 -18t-16 -18.5t-16.5 -23t-15 -21.5z
" />
    <glyph glyph-name="adieresis" unicode="&#xe4;" horiz-adv-x="1239" 
d="M227 721l-73 174q82 50 206.5 88.5t262.5 38.5q88 0 165 -15.5t142 -48t103 -91t38 -136.5v-553q0 -116 27 -178h-213q-16 40 -25 123q-74 -64 -161.5 -103.5t-215.5 -39.5q-176 0 -282.5 93.5t-106.5 245.5q0 137 121.5 227.5t335.5 90.5q87 0 173 -20t136 -56v109
q0 87 -68 129.5t-180 42.5q-105 0 -213.5 -38.5t-171.5 -82.5zM528 156q64 0 125.5 18t104 44.5t67 46t35.5 32.5v100q-39 29 -113.5 51.5t-160.5 22.5q-279 0 -279 -152q0 -71 59 -117t162 -46zM274 1264q0 48 36 82t89 34t90 -34.5t37 -81.5q0 -49 -36.5 -82t-90.5 -33
t-89.5 32.5t-35.5 82.5zM709 1264q0 48 36 82t89 34t90 -34.5t37 -81.5q0 -49 -36.5 -82t-90.5 -33t-89.5 32.5t-35.5 82.5z" />
    <glyph glyph-name="aring" unicode="&#xe5;" horiz-adv-x="1239" 
d="M227 721l-73 174q82 50 206.5 88.5t262.5 38.5q88 0 165 -15.5t142 -48t103 -91t38 -136.5v-553q0 -116 27 -178h-213q-16 40 -25 123q-74 -64 -161.5 -103.5t-215.5 -39.5q-176 0 -282.5 93.5t-106.5 245.5q0 137 121.5 227.5t335.5 90.5q87 0 173 -20t136 -56v109
q0 87 -68 129.5t-180 42.5q-105 0 -213.5 -38.5t-171.5 -82.5zM528 156q64 0 125.5 18t104 44.5t67 46t35.5 32.5v100q-39 29 -113.5 51.5t-160.5 22.5q-279 0 -279 -152q0 -71 59 -117t162 -46zM481 1319q0 -49 37 -80t94 -31q59 0 96 31t37 80q0 53 -37.5 88t-95.5 35
q-57 0 -94 -35t-37 -88zM354 1319q0 91 68.5 153t189.5 62t191.5 -62.5t70.5 -152.5q0 -88 -70 -147.5t-192 -59.5q-121 0 -189.5 59t-68.5 148z" />
    <glyph glyph-name="ae" unicode="&#xe6;" horiz-adv-x="1976" 
d="M528 156q62 0 114.5 12.5t97 38t74.5 49t69 59.5q-17 56 -21 80q-122 76 -276 76q-279 0 -279 -152q0 -71 59 -117t162 -46zM1366 -31q-131 0 -236.5 53.5t-173.5 147.5q-89 -96 -212.5 -148.5t-260.5 -52.5q-175 0 -282 98.5t-107 251.5q0 137 121.5 227.5t335.5 90.5
q88 0 178.5 -20t140.5 -56v109q0 86 -72 129t-186 43q-105 0 -213.5 -38.5t-171.5 -82.5l-73 174q82 50 206.5 88.5t262.5 38.5q327 0 385 -178l2 -6q52 82 152 133t204 51q82 0 157.5 -19.5t143.5 -63.5t116 -109t72.5 -163t16.5 -218h-801q3 -35 16 -80q31 -93 105 -153
t174 -60q206 0 338 135l141 -137q-86 -84 -207.5 -134.5t-271.5 -50.5zM1077 614h563q-1 75 -42 129.5t-101.5 78.5t-130.5 24q-114 0 -186 -62t-103 -170z" />
    <glyph glyph-name="ccedilla" unicode="&#xe7;" horiz-adv-x="1155" 
d="M1059 860l-141 -141q-57 57 -132 87t-151 30q-126 0 -211.5 -93.5t-85.5 -244.5q0 -153 89 -247.5t220 -94.5q160 0 295 135l141 -133q-18 -22 -50 -48t-84 -58t-127 -54.5t-158 -26.5l-37 -82q37 11 61 11q83 2 147 -42.5t64 -121.5q0 -90 -93.5 -144.5t-242.5 -54.5
q-113 0 -293 45l33 117q184 -35 250 -35q72 0 114 19t42 55q0 55 -97 55q-26 0 -88 -10l-55 65l61 129q-184 32 -304 172.5t-120 348.5q0 154 71.5 274.5t192 185t265.5 64.5q250 0 424 -162z" />
    <glyph glyph-name="egrave" unicode="&#xe8;" horiz-adv-x="1222" 
d="M950 291l142 -137q-86 -82 -215.5 -133.5t-272.5 -51.5q-154 0 -268.5 71t-172 187.5t-57.5 259.5q0 148 65 270t184 193.5t268 71.5q74 0 143.5 -17.5t134 -57.5t113 -98.5t77.5 -146t29 -194.5q0 -39 -2 -59h-799q11 -129 90.5 -211t217.5 -82q91 0 177.5 36.5
t145.5 98.5zM612 846q-109 0 -180.5 -64.5t-99.5 -167.5h555q-1 75 -43 129.5t-102.5 78.5t-129.5 24zM352 1427h244l164 -299h-191z" />
    <glyph glyph-name="eacute" unicode="&#xe9;" horiz-adv-x="1222" 
d="M950 291l142 -137q-86 -82 -215.5 -133.5t-272.5 -51.5q-154 0 -268.5 71t-172 187.5t-57.5 259.5q0 148 65 270t184 193.5t268 71.5q74 0 143.5 -17.5t134 -57.5t113 -98.5t77.5 -146t29 -194.5q0 -39 -2 -59h-799q11 -129 90.5 -211t217.5 -82q91 0 177.5 36.5
t145.5 98.5zM612 846q-109 0 -180.5 -64.5t-99.5 -167.5h555q-1 75 -43 129.5t-102.5 78.5t-129.5 24zM645 1427h244l-217 -299h-191z" />
    <glyph glyph-name="ecircumflex" unicode="&#xea;" horiz-adv-x="1222" 
d="M950 291l142 -137q-86 -82 -215.5 -133.5t-272.5 -51.5q-154 0 -268.5 71t-172 187.5t-57.5 259.5q0 148 65 270t184 193.5t268 71.5q74 0 143.5 -17.5t134 -57.5t113 -98.5t77.5 -146t29 -194.5q0 -39 -2 -59h-799q11 -129 90.5 -211t217.5 -82q91 0 177.5 36.5
t145.5 98.5zM612 846q-109 0 -180.5 -64.5t-99.5 -167.5h555q-1 75 -43 129.5t-102.5 78.5t-129.5 24zM291 1130l211 279h237l209 -279h-170l-157 160l-160 -160h-170z" />
    <glyph glyph-name="edieresis" unicode="&#xeb;" horiz-adv-x="1222" 
d="M950 291l142 -137q-86 -82 -215.5 -133.5t-272.5 -51.5q-154 0 -268.5 71t-172 187.5t-57.5 259.5q0 148 65 270t184 193.5t268 71.5q74 0 143.5 -17.5t134 -57.5t113 -98.5t77.5 -146t29 -194.5q0 -39 -2 -59h-799q11 -129 90.5 -211t217.5 -82q91 0 177.5 36.5
t145.5 98.5zM612 846q-109 0 -180.5 -64.5t-99.5 -167.5h555q-1 75 -43 129.5t-102.5 78.5t-129.5 24zM276 1264q0 48 36 82t89 34t90 -34.5t37 -81.5q0 -49 -36.5 -82t-90.5 -33t-89.5 32.5t-35.5 82.5zM711 1264q0 48 36 82t89 34t90 -34.5t37 -81.5q0 -49 -36.5 -82
t-90.5 -33t-89.5 32.5t-35.5 82.5z" />
    <glyph glyph-name="igrave" unicode="&#xec;" horiz-adv-x="563" 
d="M387 0h-211v989h211v-989zM14 1427h244l164 -299h-191z" />
    <glyph glyph-name="iacute" unicode="&#xed;" horiz-adv-x="563" 
d="M387 0h-211v989h211v-989zM307 1427h244l-217 -299h-191z" />
    <glyph glyph-name="icircumflex" unicode="&#xee;" horiz-adv-x="563" 
d="M387 0h-211v989h211v-989zM-47 1130l211 279h237l209 -279h-170l-157 160l-160 -160h-170z" />
    <glyph glyph-name="idieresis" unicode="&#xef;" horiz-adv-x="563" 
d="M387 0h-211v989h211v-989zM-61 1264q0 48 35.5 82t88.5 34t90 -34.5t37 -81.5q0 -49 -36.5 -82t-90.5 -33t-89 32.5t-35 82.5zM373 1264q0 48 36 82t89 34t90 -34.5t37 -81.5q0 -49 -36.5 -82t-90.5 -33t-89.5 32.5t-35.5 82.5z" />
    <glyph glyph-name="eth" unicode="&#xf0;" horiz-adv-x="1282" 
d="M356 1049l-49 141l246 86q-81 68 -193 137l238 41q14 -10 44 -31.5t55 -40t48 -36.5l261 92l49 -142l-185 -65q273 -279 273 -696q0 -267 -150 -420q-72 -72 -168.5 -109t-203.5 -37q-140 0 -258 68t-186 184t-68 252q0 216 135 362t327 146q187 0 316 -137
q-52 155 -209 319zM330 477q0 -137 79 -229t207 -92q133 0 218 88q92 95 92 233q0 134 -87.5 226t-224.5 92q-128 0 -206 -91.5t-78 -226.5z" />
    <glyph glyph-name="ntilde" unicode="&#xf1;" horiz-adv-x="1239" 
d="M367 844q69 84 142.5 131t184.5 47q161 0 271 -100t110 -252v-670h-213v670q0 69 -57.5 117.5t-145.5 48.5q-146 0 -270 -158v-678h-211v717q0 147 -24 272h192q15 -66 21 -145zM385 1128l-137 74q57 98 112 139t121 41q71 0 146 -53q2 -2 11 -8l12 -8t11 -7.5t11.5 -7
t10.5 -6t11 -6t10.5 -4t11.5 -3.5t11 -2t12 -1q23 0 45.5 16t34.5 30t35 46l127 -70q-102 -182 -233 -182q-77 0 -144 49q-6 4 -20 14.5t-20 14.5t-17 11t-18 10t-16.5 5.5t-18.5 2.5q-12 0 -23.5 -4.5t-19 -9.5t-19 -18t-16 -18.5t-16.5 -23t-15 -21.5z" />
    <glyph glyph-name="ograve" unicode="&#xf2;" horiz-adv-x="1265" 
d="M106 498q0 145 65 264t186 189.5t274 70.5q232 0 380 -151t148 -373q0 -148 -65.5 -268.5t-187 -190.5t-275.5 -70q-115 0 -213.5 41t-166.5 112t-106.5 168.5t-38.5 207.5zM326 498q0 -149 82.5 -251t222.5 -102q143 0 227 102t84 251q0 145 -84.5 246.5t-226.5 101.5
q-139 0 -222 -101.5t-83 -246.5zM365 1427h243l164 -299h-190z" />
    <glyph glyph-name="oacute" unicode="&#xf3;" horiz-adv-x="1265" 
d="M106 498q0 145 65 264t186 189.5t274 70.5q232 0 380 -151t148 -373q0 -148 -65.5 -268.5t-187 -190.5t-275.5 -70q-115 0 -213.5 41t-166.5 112t-106.5 168.5t-38.5 207.5zM326 498q0 -149 82.5 -251t222.5 -102q143 0 227 102t84 251q0 145 -84.5 246.5t-226.5 101.5
q-139 0 -222 -101.5t-83 -246.5zM657 1427h244l-217 -299h-190z" />
    <glyph glyph-name="ocircumflex" unicode="&#xf4;" horiz-adv-x="1265" 
d="M106 498q0 145 65 264t186 189.5t274 70.5q232 0 380 -151t148 -373q0 -148 -65.5 -268.5t-187 -190.5t-275.5 -70q-115 0 -213.5 41t-166.5 112t-106.5 168.5t-38.5 207.5zM326 498q0 -149 82.5 -251t222.5 -102q143 0 227 102t84 251q0 145 -84.5 246.5t-226.5 101.5
q-139 0 -222 -101.5t-83 -246.5zM303 1130l211 279h238l209 -279h-170l-158 160l-160 -160h-170z" />
    <glyph glyph-name="otilde" unicode="&#xf5;" horiz-adv-x="1265" 
d="M106 498q0 145 65 264t186 189.5t274 70.5q232 0 380 -151t148 -373q0 -148 -65.5 -268.5t-187 -190.5t-275.5 -70q-115 0 -213.5 41t-166.5 112t-106.5 168.5t-38.5 207.5zM326 498q0 -149 82.5 -251t222.5 -102q143 0 227 102t84 251q0 145 -84.5 246.5t-226.5 101.5
q-139 0 -222 -101.5t-83 -246.5zM399 1128l-137 74q57 97 112.5 138.5t121.5 41.5q70 0 145 -53q29 -20 40 -27.5t33 -16.5t40 -9q23 0 45.5 16t33.5 29.5t35 46.5l127 -70q-102 -182 -233 -182q-77 0 -144 49q-6 4 -20 14.5t-20 14.5t-17 11t-18 10t-16.5 5.5t-18.5 2.5
q-12 0 -23.5 -4.5t-19 -9.5t-19 -18t-16 -18.5t-16.5 -23t-15 -21.5z" />
    <glyph glyph-name="odieresis" unicode="&#xf6;" horiz-adv-x="1265" 
d="M106 498q0 145 65 264t186 189.5t274 70.5q232 0 380 -151t148 -373q0 -148 -65.5 -268.5t-187 -190.5t-275.5 -70q-115 0 -213.5 41t-166.5 112t-106.5 168.5t-38.5 207.5zM326 498q0 -149 82.5 -251t222.5 -102q143 0 227 102t84 251q0 145 -84.5 246.5t-226.5 101.5
q-139 0 -222 -101.5t-83 -246.5zM289 1264q0 48 36 82t89 34t90 -34.5t37 -81.5q0 -49 -36.5 -82t-90.5 -33t-89.5 32.5t-35.5 82.5zM723 1264q0 48 36 82t89 34t90 -34.5t37 -81.5q0 -49 -36.5 -82t-90.5 -33t-89.5 32.5t-35.5 82.5z" />
    <glyph glyph-name="divide" unicode="&#xf7;" horiz-adv-x="1550" 
d="M184 436v189h1180v-189h-1180zM625 129q0 58 43.5 98.5t107.5 40.5t108 -41t44 -98q0 -58 -43.5 -97.5t-108.5 -39.5q-64 0 -107.5 39t-43.5 98zM625 930q0 59 43.5 99t107.5 40t108 -40t44 -99q0 -57 -44 -97t-108 -40t-107.5 40t-43.5 97z" />
    <glyph glyph-name="oslash" unicode="&#xf8;" horiz-adv-x="1265" 
d="M106 498q0 145 65 264t186 189.5t274 70.5q133 0 246 -55l102 147l119 -82l-103 -147q77 -71 120.5 -172t43.5 -215q0 -148 -65.5 -268.5t-187 -190.5t-275.5 -70q-127 0 -242 54l-102 -146l-119 82l102 145q-79 73 -121.5 174t-42.5 220zM942 498q0 127 -65 219
l-381 -541q60 -31 135 -31q143 0 227 102t84 251zM326 498q0 -132 63 -226l379 541q-64 33 -137 33q-139 0 -222 -101.5t-83 -246.5z" />
    <glyph glyph-name="ugrave" unicode="&#xf9;" horiz-adv-x="1236" 
d="M868 145q-69 -84 -141.5 -130t-183.5 -46q-162 0 -271.5 99t-109.5 251v670h213v-670q0 -69 57.5 -117t145.5 -48q147 0 270 157v678h211v-717q0 -178 18 -272h-194q-15 64 -15 145zM350 1427h244l164 -299h-191z" />
    <glyph glyph-name="uacute" unicode="&#xfa;" horiz-adv-x="1236" 
d="M868 145q-69 -84 -141.5 -130t-183.5 -46q-162 0 -271.5 99t-109.5 251v670h213v-670q0 -69 57.5 -117t145.5 -48q147 0 270 157v678h211v-717q0 -178 18 -272h-194q-15 64 -15 145zM643 1427h244l-217 -299h-191z" />
    <glyph glyph-name="ucircumflex" unicode="&#xfb;" horiz-adv-x="1236" 
d="M868 145q-69 -84 -141.5 -130t-183.5 -46q-162 0 -271.5 99t-109.5 251v670h213v-670q0 -69 57.5 -117t145.5 -48q147 0 270 157v678h211v-717q0 -178 18 -272h-194q-15 64 -15 145zM289 1130l211 279h237l209 -279h-170l-158 160l-159 -160h-170z" />
    <glyph glyph-name="udieresis" unicode="&#xfc;" horiz-adv-x="1236" 
d="M868 145q-69 -84 -141.5 -130t-183.5 -46q-162 0 -271.5 99t-109.5 251v670h213v-670q0 -69 57.5 -117t145.5 -48q147 0 270 157v678h211v-717q0 -178 18 -272h-194q-15 64 -15 145zM274 1264q0 48 36 82t89 34t90 -34.5t37 -81.5q0 -49 -36.5 -82t-90.5 -33t-89.5 32.5
t-35.5 82.5zM709 1264q0 48 36 82t89 34t90 -34.5t37 -81.5q0 -49 -36.5 -82t-90.5 -33t-89.5 32.5t-35.5 82.5z" />
    <glyph glyph-name="yacute" unicode="&#xfd;" horiz-adv-x="1155" 
d="M571 303h13l307 686h215l-674 -1413h-219l250 494l-414 919h240zM600 1427h244l-217 -299h-191z" />
    <glyph glyph-name="thorn" unicode="&#xfe;" horiz-adv-x="1286" 
d="M672 154q116 0 194 93.5t78 244.5q0 153 -78.5 248.5t-193.5 95.5q-69 0 -134 -28.5t-96.5 -56t-54.5 -55.5v-405q134 -137 285 -137zM387 1434v-562q43 57 120.5 103.5t184.5 46.5q99 0 188 -38t155 -106t104.5 -168t38.5 -218q0 -115 -39 -214t-105 -166t-154.5 -105
t-187.5 -38q-169 0 -305 152v-545h-211v1858h211z" />
    <glyph glyph-name="ydieresis" unicode="&#xff;" horiz-adv-x="1155" 
d="M571 303h13l307 686h215l-674 -1413h-219l250 494l-414 919h240zM231 1264q0 48 36 82t89 34t90 -34.5t37 -81.5q0 -49 -36.5 -82t-90.5 -33t-89.5 32.5t-35.5 82.5zM666 1264q0 48 36 82t89 34t90 -34.5t37 -81.5q0 -49 -36.5 -82t-90.5 -33t-89.5 32.5t-35.5 82.5z" />
    <glyph glyph-name="Amacron" unicode="&#x100;" horiz-adv-x="1548" 
d="M49 0l621 1337h209l620 -1337h-252l-162 360h-636l-160 -360h-240zM762 1063l-232 -518h474l-230 518h-12zM506 1710h534v-164h-534v164z" />
    <glyph glyph-name="amacron" unicode="&#x101;" horiz-adv-x="1239" 
d="M227 721l-73 174q82 50 206.5 88.5t262.5 38.5q88 0 165 -15.5t142 -48t103 -91t38 -136.5v-553q0 -116 27 -178h-213q-16 40 -25 123q-74 -64 -161.5 -103.5t-215.5 -39.5q-176 0 -282.5 93.5t-106.5 245.5q0 137 121.5 227.5t335.5 90.5q87 0 173 -20t136 -56v109
q0 87 -68 129.5t-180 42.5q-105 0 -213.5 -38.5t-171.5 -82.5zM528 156q64 0 125.5 18t104 44.5t67 46t35.5 32.5v100q-39 29 -113.5 51.5t-160.5 22.5q-279 0 -279 -152q0 -71 59 -117t162 -46zM350 1346h535v-164h-535v164z" />
    <glyph glyph-name="Abreve" unicode="&#x102;" horiz-adv-x="1548" 
d="M49 0l621 1337h209l620 -1337h-252l-162 360h-636l-160 -360h-240zM762 1063l-232 -518h474l-230 518h-12zM467 1763h154q0 -143 153 -143q154 0 154 143h151q0 -41 -7.5 -78t-28.5 -76t-53.5 -67.5t-88 -46.5t-127.5 -18t-127.5 18t-88.5 46.5t-54.5 67.5t-29 76
t-7.5 78z" />
    <glyph glyph-name="abreve" unicode="&#x103;" horiz-adv-x="1239" 
d="M227 721l-73 174q82 50 206.5 88.5t262.5 38.5q88 0 165 -15.5t142 -48t103 -91t38 -136.5v-553q0 -116 27 -178h-213q-16 40 -25 123q-74 -64 -161.5 -103.5t-215.5 -39.5q-176 0 -282.5 93.5t-106.5 245.5q0 137 121.5 227.5t335.5 90.5q87 0 173 -20t136 -56v109
q0 87 -68 129.5t-180 42.5q-105 0 -213.5 -38.5t-171.5 -82.5zM528 156q64 0 125.5 18t104 44.5t67 46t35.5 32.5v100q-39 29 -113.5 51.5t-160.5 22.5q-279 0 -279 -152q0 -71 59 -117t162 -46zM311 1405h154q0 -150 153 -150q154 0 154 150h152q0 -42 -7.5 -80t-28.5 -78
t-54 -69t-88.5 -47.5t-127.5 -18.5q-89 0 -152.5 27t-95.5 73t-45.5 93t-13.5 100z" />
    <glyph glyph-name="Aogonek" unicode="&#x104;" horiz-adv-x="1548" 
d="M49 0l621 1337h209l620 -1337h-76q-223 -98 -223 -217q0 -51 38 -79t103 -28q31 0 127 17l19 -131q-95 -25 -182 -25q-133 0 -211 56t-78 149q0 47 20 90.5t54.5 77.5t70.5 59.5t78 46.5l-154 344h-636l-160 -360h-240zM762 1063l-232 -518h474l-230 518h-12z" />
    <glyph glyph-name="aogonek" unicode="&#x105;" horiz-adv-x="1239" 
d="M227 721l-73 174q82 50 206.5 88.5t262.5 38.5q88 0 165 -15.5t142 -48t103 -91t38 -136.5v-553q0 -116 27 -178q-224 -98 -224 -217q0 -50 38.5 -78.5t103.5 -28.5q31 0 127 17l18 -131q-95 -25 -182 -25q-133 0 -211 56t-78 149q0 144 195 258q-16 40 -25 123
q-74 -64 -161.5 -103.5t-215.5 -39.5q-176 0 -282.5 93.5t-106.5 245.5q0 137 121.5 227.5t335.5 90.5q87 0 173 -20t136 -56v109q0 87 -68 129.5t-180 42.5q-105 0 -213.5 -38.5t-171.5 -82.5zM528 156q64 0 125.5 18t104 44.5t67 46t35.5 32.5v100q-39 29 -113.5 51.5
t-160.5 22.5q-279 0 -279 -152q0 -71 59 -117t162 -46z" />
    <glyph glyph-name="Cacute" unicode="&#x106;" horiz-adv-x="1579" 
d="M1350 389l153 -151q-122 -122 -289.5 -200.5t-369.5 -78.5q-215 0 -383 96t-258 257.5t-90 357.5q0 193 90 354t256 257.5t375 96.5q179 0 344.5 -64t281.5 -171l-155 -154q-89 84 -216.5 134.5t-250.5 50.5q-143 0 -254.5 -69t-170.5 -184t-59 -253q0 -140 60.5 -254
t174 -182t259.5 -68q148 0 278.5 62.5t223.5 162.5zM670 1495l204 266h279l-281 -266h-202z" />
    <glyph glyph-name="cacute" unicode="&#x107;" horiz-adv-x="1155" 
d="M1059 860l-141 -141q-57 57 -132 87t-151 30q-126 0 -211.5 -93.5t-85.5 -244.5q0 -153 89 -247.5t220 -94.5q160 0 295 135l141 -133q-20 -24 -54 -51t-90.5 -61t-139 -55.5t-172.5 -21.5q-141 0 -259 64t-190 186.5t-72 278.5q0 154 71.5 274.5t192 185t265.5 64.5
q250 0 424 -162zM659 1427h244l-217 -299h-190z" />
    <glyph glyph-name="Ccircumflex" unicode="&#x108;" horiz-adv-x="1579" 
d="M1350 389l153 -151q-122 -122 -289.5 -200.5t-369.5 -78.5q-215 0 -383 96t-258 257.5t-90 357.5q0 193 90 354t256 257.5t375 96.5q179 0 344.5 -64t281.5 -171l-155 -154q-89 84 -216.5 134.5t-250.5 50.5q-143 0 -254.5 -69t-170.5 -184t-59 -253q0 -140 60.5 -254
t174 -182t259.5 -68q148 0 278.5 62.5t223.5 162.5zM510 1495l211 272h237l209 -272h-170l-157 152l-160 -152h-170z" />
    <glyph glyph-name="ccircumflex" unicode="&#x109;" horiz-adv-x="1155" 
d="M1059 860l-141 -141q-57 57 -132 87t-151 30q-126 0 -211.5 -93.5t-85.5 -244.5q0 -153 89 -247.5t220 -94.5q160 0 295 135l141 -133q-20 -24 -54 -51t-90.5 -61t-139 -55.5t-172.5 -21.5q-141 0 -259 64t-190 186.5t-72 278.5q0 154 71.5 274.5t192 185t265.5 64.5
q250 0 424 -162zM305 1130l211 279h238l209 -279h-170l-158 160l-160 -160h-170z" />
    <glyph glyph-name="Cdotaccent" unicode="&#x10a;" horiz-adv-x="1579" 
d="M1350 389l153 -151q-122 -122 -289.5 -200.5t-369.5 -78.5q-215 0 -383 96t-258 257.5t-90 357.5q0 193 90 354t256 257.5t375 96.5q179 0 344.5 -64t281.5 -171l-155 -154q-89 84 -216.5 134.5t-250.5 50.5q-143 0 -254.5 -69t-170.5 -184t-59 -253q0 -140 60.5 -254
t174 -182t259.5 -68q148 0 278.5 62.5t223.5 162.5zM715 1628q0 48 36 82.5t89 34.5t90 -35t37 -82q0 -49 -36.5 -82t-90.5 -33t-89.5 32.5t-35.5 82.5z" />
    <glyph glyph-name="cdotaccent" unicode="&#x10b;" horiz-adv-x="1155" 
d="M1059 860l-141 -141q-57 57 -132 87t-151 30q-126 0 -211.5 -93.5t-85.5 -244.5q0 -153 89 -247.5t220 -94.5q160 0 295 135l141 -133q-20 -24 -54 -51t-90.5 -61t-139 -55.5t-172.5 -21.5q-141 0 -259 64t-190 186.5t-72 278.5q0 154 71.5 274.5t192 185t265.5 64.5
q250 0 424 -162zM510 1264q0 48 36 82t89 34t90 -34.5t37 -81.5q0 -49 -36.5 -82t-90.5 -33t-89.5 32.5t-35.5 82.5z" />
    <glyph glyph-name="Ccaron" unicode="&#x10c;" horiz-adv-x="1579" 
d="M1350 389l153 -151q-122 -122 -289.5 -200.5t-369.5 -78.5q-215 0 -383 96t-258 257.5t-90 357.5q0 193 90 354t256 257.5t375 96.5q179 0 344.5 -64t281.5 -171l-155 -154q-89 84 -216.5 134.5t-250.5 50.5q-143 0 -254.5 -69t-170.5 -184t-59 -253q0 -140 60.5 -254
t174 -182t259.5 -68q148 0 278.5 62.5t223.5 162.5zM680 1767l160 -151l157 151h170l-209 -272h-237l-211 272h170z" />
    <glyph glyph-name="ccaron" unicode="&#x10d;" horiz-adv-x="1155" 
d="M1059 860l-141 -141q-57 57 -132 87t-151 30q-126 0 -211.5 -93.5t-85.5 -244.5q0 -153 89 -247.5t220 -94.5q160 0 295 135l141 -133q-20 -24 -54 -51t-90.5 -61t-139 -55.5t-172.5 -21.5q-141 0 -259 64t-190 186.5t-72 278.5q0 154 71.5 274.5t192 185t265.5 64.5
q250 0 424 -162zM305 1411h170l160 -160l158 160h170l-209 -281h-238z" />
    <glyph glyph-name="Dcaron" unicode="&#x10e;" horiz-adv-x="1669" 
d="M872 0h-641v1337h641q172 0 286 -44.5t206 -133.5q182 -188 182 -489q0 -151 -50.5 -282.5t-145.5 -223.5q-94 -84 -200.5 -124t-277.5 -40zM461 205h401q117 0 177.5 23.5t129.5 80.5q65 65 101.5 159.5t36.5 201.5q0 218 -129 350q-64 59 -131.5 86t-184.5 27h-401
v-928zM637 1767l160 -151l157 151h170l-209 -272h-237l-211 272h170z" />
    <glyph glyph-name="dcaron" unicode="&#x10f;" horiz-adv-x="1288" 
d="M1128 0h-194q-14 60 -14 137q-40 -61 -129 -114.5t-197 -53.5q-99 0 -187.5 38t-154.5 105.5t-104.5 167.5t-38.5 218q0 153 66.5 274t176.5 185.5t242 64.5q169 0 305 -133v545h211v-1162q0 -178 18 -272zM899 293v405q-135 138 -285 138q-116 0 -194 -93.5t-78 -244.5
q0 -153 78.5 -248.5t193.5 -95.5q69 0 133.5 28t96.5 55.5t55 55.5zM1364 971h-119v463h211q0 -145 -21 -252.5t-71 -210.5z" />
    <glyph glyph-name="Dcroat" unicode="&#x110;" horiz-adv-x="1730" 
d="M88 596v184h205v557h641q172 0 285 -44.5t206 -133.5q183 -189 183 -489q0 -151 -51 -282.5t-146 -223.5q-94 -84 -200 -124t-277 -40h-641v596h-205zM522 205h402q117 0 177.5 23.5t129.5 80.5q65 65 101 159.5t36 201.5q0 218 -129 350q-64 59 -131 86t-184 27h-402
v-353h393v-184h-393v-391z" />
    <glyph glyph-name="dcroat" unicode="&#x111;" horiz-adv-x="1288" 
d="M614 1143v143h285v148h211v-148h150v-143h-150v-871q0 -178 18 -272h-194q-14 60 -14 137q-40 -61 -129 -114.5t-197 -53.5q-99 0 -187.5 38t-154.5 105.5t-104.5 167.5t-38.5 218q0 153 66.5 274t176.5 185.5t242 64.5q169 0 305 -133v254h-285zM614 836
q-116 0 -194 -93.5t-78 -244.5q0 -153 78.5 -248.5t193.5 -95.5q69 0 133.5 28t96.5 55.5t55 55.5v405q-135 138 -285 138z" />
    <glyph glyph-name="Emacron" unicode="&#x112;" horiz-adv-x="1462" 
d="M975 801v-205h-514v-391h905v-205h-1135v1337h1086v-204h-856v-332h514zM508 1710h534v-164h-534v164z" />
    <glyph glyph-name="emacron" unicode="&#x113;" horiz-adv-x="1222" 
d="M950 291l142 -137q-86 -82 -215.5 -133.5t-272.5 -51.5q-154 0 -268.5 71t-172 187.5t-57.5 259.5q0 148 65 270t184 193.5t268 71.5q74 0 143.5 -17.5t134 -57.5t113 -98.5t77.5 -146t29 -194.5q0 -39 -2 -59h-799q11 -129 90.5 -211t217.5 -82q91 0 177.5 36.5
t145.5 98.5zM612 846q-109 0 -180.5 -64.5t-99.5 -167.5h555q-1 75 -43 129.5t-102.5 78.5t-129.5 24zM352 1346h535v-164h-535v164z" />
    <glyph glyph-name="Ebreve" unicode="&#x114;" horiz-adv-x="1462" 
d="M975 801v-205h-514v-391h905v-205h-1135v1337h1086v-204h-856v-332h514zM469 1763h154q0 -143 153 -143q154 0 154 143h151q0 -41 -7.5 -78t-28.5 -76t-53.5 -67.5t-88 -46.5t-127.5 -18t-127.5 18t-88.5 46.5t-54.5 67.5t-29 76t-7.5 78z" />
    <glyph glyph-name="ebreve" unicode="&#x115;" horiz-adv-x="1222" 
d="M950 291l142 -137q-86 -82 -215.5 -133.5t-272.5 -51.5q-154 0 -268.5 71t-172 187.5t-57.5 259.5q0 148 65 270t184 193.5t268 71.5q74 0 143.5 -17.5t134 -57.5t113 -98.5t77.5 -146t29 -194.5q0 -39 -2 -59h-799q11 -129 90.5 -211t217.5 -82q91 0 177.5 36.5
t145.5 98.5zM612 846q-109 0 -180.5 -64.5t-99.5 -167.5h555q-1 75 -43 129.5t-102.5 78.5t-129.5 24zM313 1405h154q0 -150 154 -150q153 0 153 150h152q0 -42 -7.5 -80t-28.5 -78t-53.5 -69t-88 -47.5t-127.5 -18.5t-127.5 18.5t-89 47.5t-55 69t-29 78.5t-7.5 79.5z" />
    <glyph glyph-name="Edotaccent" unicode="&#x116;" horiz-adv-x="1462" 
d="M975 801v-205h-514v-391h905v-205h-1135v1337h1086v-204h-856v-332h514zM651 1628q0 48 36 82.5t89 34.5t90 -35t37 -82q0 -49 -36.5 -82t-90.5 -33t-89.5 32.5t-35.5 82.5z" />
    <glyph glyph-name="edotaccent" unicode="&#x117;" horiz-adv-x="1222" 
d="M950 291l142 -137q-86 -82 -215.5 -133.5t-272.5 -51.5q-154 0 -268.5 71t-172 187.5t-57.5 259.5q0 148 65 270t184 193.5t268 71.5q74 0 143.5 -17.5t134 -57.5t113 -98.5t77.5 -146t29 -194.5q0 -39 -2 -59h-799q11 -129 90.5 -211t217.5 -82q91 0 177.5 36.5
t145.5 98.5zM612 846q-109 0 -180.5 -64.5t-99.5 -167.5h555q-1 75 -43 129.5t-102.5 78.5t-129.5 24zM496 1264q0 48 36 82t89 34t90 -34.5t37 -81.5q0 -49 -36.5 -82t-90.5 -33t-89.5 32.5t-35.5 82.5z" />
    <glyph glyph-name="Eogonek" unicode="&#x118;" horiz-adv-x="1462" 
d="M975 801v-205h-514v-391h905v-205h-63q-224 -98 -224 -217q0 -50 38.5 -78.5t103.5 -28.5q31 0 127 17l18 -131q-95 -25 -182 -25q-133 0 -211 56t-78 149q0 144 195 258h-859v1337h1086v-204h-856v-332h514z" />
    <glyph glyph-name="eogonek" unicode="&#x119;" horiz-adv-x="1222" 
d="M950 291l142 -137q-111 -105 -277 -154q-223 -98 -223 -217q0 -51 38 -79t103 -28q31 0 127 17l19 -131q-95 -25 -183 -25q-133 0 -210.5 56t-77.5 149q0 129 147 229q-209 17 -329 162.5t-120 353.5q0 148 65 270t184 193.5t268 71.5q74 0 143.5 -17.5t134 -57.5
t113 -98.5t77.5 -146t29 -194.5q0 -39 -2 -59h-799q11 -129 90.5 -211t217.5 -82q91 0 177.5 36.5t145.5 98.5zM612 846q-109 0 -180.5 -64.5t-99.5 -167.5h555q-1 75 -43 129.5t-102.5 78.5t-129.5 24z" />
    <glyph glyph-name="Ecaron" unicode="&#x11a;" horiz-adv-x="1462" 
d="M975 801v-205h-514v-391h905v-205h-1135v1337h1086v-204h-856v-332h514zM616 1767l160 -151l158 151h170l-209 -272h-238l-211 272h170z" />
    <glyph glyph-name="ecaron" unicode="&#x11b;" horiz-adv-x="1222" 
d="M950 291l142 -137q-86 -82 -215.5 -133.5t-272.5 -51.5q-154 0 -268.5 71t-172 187.5t-57.5 259.5q0 148 65 270t184 193.5t268 71.5q74 0 143.5 -17.5t134 -57.5t113 -98.5t77.5 -146t29 -194.5q0 -39 -2 -59h-799q11 -129 90.5 -211t217.5 -82q91 0 177.5 36.5
t145.5 98.5zM612 846q-109 0 -180.5 -64.5t-99.5 -167.5h555q-1 75 -43 129.5t-102.5 78.5t-129.5 24zM291 1411h170l160 -160l157 160h170l-209 -281h-237z" />
    <glyph glyph-name="Gcircumflex" unicode="&#x11c;" horiz-adv-x="1648" 
d="M1464 1137l-159 -144q-83 83 -211 132t-250 49q-141 0 -254.5 -69t-175.5 -184.5t-62 -252.5q0 -98 33.5 -187.5t96 -161t162 -113.5t222.5 -42q108 0 218 29t176 79v269h-420v204h628v-585q-126 -92 -292 -146.5t-324 -54.5q-156 0 -294 56t-235 151.5t-153.5 227
t-56.5 276.5q0 194 96 356.5t264 257t369 94.5q161 0 324 -62.5t298 -178.5zM514 1495l211 272h238l208 -272h-170l-157 152l-160 -152h-170z" />
    <glyph glyph-name="gcircumflex" unicode="&#x11d;" horiz-adv-x="1288" 
d="M899 -51v172q-136 -152 -305 -152q-99 0 -187.5 38t-154.5 105t-104.5 166t-38.5 214q0 157 66 279t176 186.5t243 64.5q107 0 195.5 -58t130.5 -122q0 80 14 149h194q-18 -94 -18 -272v-770q0 -179 -130 -296.5t-366 -117.5q-288 0 -452 164l125 127q120 -115 327 -115
q135 0 210 66.5t75 171.5zM614 154q151 0 285 137v405q-23 28 -54.5 55.5t-96.5 56t-134 28.5q-115 0 -193.5 -95.5t-78.5 -248.5q0 -151 78 -244.5t194 -93.5zM313 1130l211 279h238l209 -279h-170l-158 160l-160 -160h-170z" />
    <glyph glyph-name="Gbreve" unicode="&#x11e;" horiz-adv-x="1648" 
d="M1464 1137l-159 -144q-83 83 -211 132t-250 49q-141 0 -254.5 -69t-175.5 -184.5t-62 -252.5q0 -98 33.5 -187.5t96 -161t162 -113.5t222.5 -42q108 0 218 29t176 79v269h-420v204h628v-585q-126 -92 -292 -146.5t-324 -54.5q-156 0 -294 56t-235 151.5t-153.5 227
t-56.5 276.5q0 194 96 356.5t264 257t369 94.5q161 0 324 -62.5t298 -178.5zM537 1763h153q0 -143 154 -143q153 0 153 143h152q0 -41 -7.5 -78t-28.5 -76t-53.5 -67.5t-88 -46.5t-127.5 -18t-127.5 18t-88.5 46.5t-54.5 67.5t-29 76t-7.5 78z" />
    <glyph glyph-name="gbreve" unicode="&#x11f;" horiz-adv-x="1288" 
d="M899 -51v172q-136 -152 -305 -152q-99 0 -187.5 38t-154.5 105t-104.5 166t-38.5 214q0 157 66 279t176 186.5t243 64.5q107 0 195.5 -58t130.5 -122q0 80 14 149h194q-18 -94 -18 -272v-770q0 -179 -130 -296.5t-366 -117.5q-288 0 -452 164l125 127q120 -115 327 -115
q135 0 210 66.5t75 171.5zM614 154q151 0 285 137v405q-23 28 -54.5 55.5t-96.5 56t-134 28.5q-115 0 -193.5 -95.5t-78.5 -248.5q0 -151 78 -244.5t194 -93.5zM336 1405h153q0 -150 154 -150t154 150h151q0 -42 -7.5 -80t-28.5 -78t-53.5 -69t-88 -47.5t-127.5 -18.5
q-89 0 -152.5 27t-95.5 73t-45.5 93t-13.5 100z" />
    <glyph glyph-name="Gdotaccent" unicode="&#x120;" horiz-adv-x="1648" 
d="M1464 1137l-159 -144q-83 83 -211 132t-250 49q-141 0 -254.5 -69t-175.5 -184.5t-62 -252.5q0 -98 33.5 -187.5t96 -161t162 -113.5t222.5 -42q108 0 218 29t176 79v269h-420v204h628v-585q-126 -92 -292 -146.5t-324 -54.5q-156 0 -294 56t-235 151.5t-153.5 227
t-56.5 276.5q0 194 96 356.5t264 257t369 94.5q161 0 324 -62.5t298 -178.5zM719 1628q0 48 36 82.5t89 34.5t90 -35t37 -82q0 -49 -36.5 -82t-90.5 -33t-89.5 32.5t-35.5 82.5z" />
    <glyph glyph-name="gdotaccent" unicode="&#x121;" horiz-adv-x="1288" 
d="M899 -51v172q-136 -152 -305 -152q-99 0 -187.5 38t-154.5 105t-104.5 166t-38.5 214q0 157 66 279t176 186.5t243 64.5q107 0 195.5 -58t130.5 -122q0 80 14 149h194q-18 -94 -18 -272v-770q0 -179 -130 -296.5t-366 -117.5q-288 0 -452 164l125 127q120 -115 327 -115
q135 0 210 66.5t75 171.5zM614 154q151 0 285 137v405q-23 28 -54.5 55.5t-96.5 56t-134 28.5q-115 0 -193.5 -95.5t-78.5 -248.5q0 -151 78 -244.5t194 -93.5zM518 1264q0 48 36 82t89 34t90 -34.5t37 -81.5q0 -49 -36.5 -82t-90.5 -33t-89.5 32.5t-35.5 82.5z" />
    <glyph glyph-name="uni0122" unicode="&#x122;" horiz-adv-x="1648" 
d="M1464 1137l-159 -144q-83 83 -211 132t-250 49q-141 0 -254.5 -69t-175.5 -184.5t-62 -252.5q0 -98 33.5 -187.5t96 -161t162 -113.5t222.5 -42q108 0 218 29t176 79v269h-420v204h628v-585q-126 -92 -292 -146.5t-324 -54.5q-156 0 -294 56t-235 151.5t-153.5 227
t-56.5 276.5q0 194 96 356.5t264 257t369 94.5q161 0 324 -62.5t298 -178.5zM776 -129l172 43q90 -80 90 -188q0 -105 -88.5 -168.5t-238.5 -63.5q-79 0 -174 25l18 131q86 -12 119 -12q79 0 122.5 27t43.5 77q0 69 -64 129z" />
    <glyph glyph-name="uni0123" unicode="&#x123;" horiz-adv-x="1288" 
d="M727 1151l-174 -35q-28 24 -46.5 44.5t-37 60.5t-18.5 84q0 104 84.5 167.5t232.5 63.5q65 0 115 -14v-129q-31 6 -95 6q-139 0 -139 -107q0 -42 20.5 -74t57.5 -67zM899 -51v172q-136 -152 -305 -152q-99 0 -187.5 38t-154.5 105t-104.5 166t-38.5 214q0 157 66 279
t176 186.5t243 64.5q107 0 195.5 -58t130.5 -122q0 80 14 149h194q-18 -94 -18 -272v-770q0 -179 -130 -296.5t-366 -117.5q-288 0 -452 164l125 127q120 -115 327 -115q135 0 210 66.5t75 171.5zM614 154q151 0 285 137v405q-23 28 -54.5 55.5t-96.5 56t-134 28.5
q-115 0 -193.5 -95.5t-78.5 -248.5q0 -151 78 -244.5t194 -93.5z" />
    <glyph glyph-name="Hcircumflex" unicode="&#x124;" horiz-adv-x="1648" 
d="M461 0h-230v1337h230v-506h727v506h229v-1337h-229v627h-727v-627zM494 1495l211 272h237l209 -272h-170l-158 152l-159 -152h-170z" />
    <glyph glyph-name="hcircumflex" unicode="&#x125;" horiz-adv-x="1236" 
d="M-37 1575l211 272h238l209 -272h-170l-158 151l-160 -151h-170zM387 0h-211v1434h211v-566q127 154 289 154q177 0 287 -98.5t110 -253.5v-670h-213v670q0 69 -58 117.5t-147 48.5q-145 0 -268 -158v-678z" />
    <glyph glyph-name="Hbar" unicode="&#x126;" horiz-adv-x="1681" 
d="M43 963v184h205v190h229v-190h727v190h230v-190h204v-184h-204v-963h-230v565h-727v-565h-229v963h-205zM477 770h727v193h-727v-193z" />
    <glyph glyph-name="hbar" unicode="&#x127;" horiz-adv-x="1236" 
d="M672 1286v-143h-285v-275q127 154 289 154q177 0 287 -98.5t110 -253.5v-670h-213v670q0 69 -58 117.5t-147 48.5q-145 0 -268 -158v-678h-211v1143h-149v143h149v148h211v-148h285z" />
    <glyph glyph-name="Itilde" unicode="&#x128;" horiz-adv-x="692" 
d="M461 0h-230v1337h230v-1337zM113 1493l-138 74q57 97 112.5 138.5t121.5 41.5q70 0 145 -53q3 -2 13 -9t13 -9l12 -8t13 -8t11.5 -6.5t12.5 -6t12 -3.5t13.5 -3t12.5 -1q23 0 46 16.5t34 30t35 46.5l127 -70q-102 -182 -234 -182q-76 0 -143 49q-4 3 -17.5 13t-17.5 12.5
t-15 9.5t-16 9.5t-14 6.5t-16 5t-15 1q-12 0 -23.5 -4.5t-19 -9.5t-18.5 -17.5t-15.5 -18.5t-16.5 -22.5t-15 -21.5z" />
    <glyph glyph-name="itilde" unicode="&#x129;" horiz-adv-x="563" 
d="M387 0h-211v989h211v-989zM49 1128l-137 74q57 98 112 139t121 41q71 0 146 -53q2 -2 11 -8l12 -8t11 -7.5t11.5 -7t10.5 -6t11 -6t10.5 -4t11.5 -3.5t11 -2t12 -1q23 0 45.5 16t34.5 30t35 46l127 -70q-102 -182 -233 -182q-77 0 -144 49q-6 4 -20 14.5t-20 14.5t-17 11
t-18 10t-16.5 5.5t-18.5 2.5q-12 0 -23.5 -4.5t-19 -9.5t-19 -18t-16 -18.5t-16.5 -23t-15 -21.5z" />
    <glyph glyph-name="Imacron" unicode="&#x12a;" horiz-adv-x="692" 
d="M461 0h-230v1337h230v-1337zM78 1710h534v-164h-534v164z" />
    <glyph glyph-name="imacron" unicode="&#x12b;" horiz-adv-x="563" 
d="M387 0h-211v989h211v-989zM14 1346h535v-164h-535v164z" />
    <glyph glyph-name="Ibreve" unicode="&#x12c;" horiz-adv-x="692" 
d="M461 0h-230v1337h230v-1337zM39 1763h154q0 -143 153 -143q154 0 154 143h151q0 -41 -7.5 -78t-28.5 -76t-53.5 -67.5t-88 -46.5t-127.5 -18t-127.5 18t-88.5 46.5t-54.5 67.5t-29 76t-7.5 78z" />
    <glyph glyph-name="ibreve" unicode="&#x12d;" horiz-adv-x="563" 
d="M387 0h-211v989h211v-989zM-25 1405h154q0 -150 154 -150q153 0 153 150h152q0 -42 -7.5 -80t-28.5 -78t-53.5 -69t-88 -47.5t-127.5 -18.5t-127.5 18.5t-89 47.5t-55 69t-29 78.5t-7.5 79.5z" />
    <glyph glyph-name="Iogonek" unicode="&#x12e;" horiz-adv-x="692" 
d="M461 0q-223 -98 -223 -217q0 -51 38 -79t103 -28q31 0 127 17l18 -131q-95 -25 -182 -25q-133 0 -211 56t-78 149q0 144 195 258h-17v1337h230v-1337z" />
    <glyph glyph-name="iogonek" unicode="&#x12f;" horiz-adv-x="563" 
d="M387 0q-223 -98 -223 -217q0 -51 38 -79t103 -28q31 0 127 17l19 -131q-95 -25 -183 -25q-133 0 -210.5 56t-77.5 149q0 147 196 258v989h211v-989zM147 1311q0 51 38.5 87t95.5 36q56 0 95.5 -36.5t39.5 -86.5q0 -51 -39 -86t-96 -35t-95.5 35t-38.5 86z" />
    <glyph glyph-name="Idotaccent" unicode="&#x130;" horiz-adv-x="692" 
d="M461 0h-230v1337h230v-1337zM221 1628q0 48 36 82.5t89 34.5t90 -35t37 -82q0 -49 -36.5 -82t-90.5 -33t-89.5 32.5t-35.5 82.5z" />
    <glyph glyph-name="dotlessi" unicode="&#x131;" horiz-adv-x="563" 
d="M387 0h-211v989h211v-989z" />
    <glyph glyph-name="IJ" unicode="&#x132;" horiz-adv-x="2019" 
d="M461 0h-230v1337h230v-1337zM1585 1337h230v-862q0 -242 -155 -379t-405 -137q-96 0 -178 23t-136 56t-100.5 82.5t-72 90t-49.5 90.5l190 100q104 -237 344 -237q149 0 240.5 82t91.5 229v862z" />
    <glyph glyph-name="ij" unicode="&#x133;" horiz-adv-x="1126" 
d="M387 0h-211v989h211v-989zM147 1311q0 51 38.5 87t95.5 36q56 0 95.5 -36.5t39.5 -86.5q0 -51 -39 -86t-96 -35t-95.5 35t-38.5 86zM610 -465l-61 166q33 7 55 14t50 22t44.5 35t28.5 54t12 78v1085h211v-1085q0 -97 -31.5 -171.5t-83 -116t-108.5 -61.5t-117 -20z
M711 1311q0 51 38 87t95 36q56 0 95.5 -36.5t39.5 -86.5q0 -51 -39 -86t-96 -35t-95 35t-38 86z" />
    <glyph glyph-name="Jcircumflex" unicode="&#x134;" horiz-adv-x="1327" 
d="M893 1337h229v-862q0 -242 -154.5 -379t-404.5 -137q-96 0 -178 23t-136 56t-100.5 82.5t-72 90t-49.5 90.5l190 100q104 -237 344 -237q149 0 240.5 82t91.5 229v862zM682 1495l211 272h237l209 -272h-170l-157 152l-160 -152h-170z" />
    <glyph glyph-name="jcircumflex" unicode="&#x135;" horiz-adv-x="563" 
d="M47 -465l-61 166q33 7 55 14t50 22t44.5 35t28.5 54t12 78v1085h211v-1085q0 -97 -31.5 -171.5t-83 -116t-108.5 -61.5t-117 -20zM-47 1130l211 279h237l209 -279h-170l-157 160l-160 -160h-170z" />
    <glyph glyph-name="uni0136" unicode="&#x136;" horiz-adv-x="1568" 
d="M461 1337v-661l698 661h285l-547 -512l666 -825h-297l-535 672l-270 -252v-420h-230v1337h230zM754 -129l172 43q90 -80 90 -188q0 -105 -89 -168.5t-239 -63.5q-79 0 -174 25l18 131q86 -12 119 -12q79 0 122.5 27t43.5 77q0 70 -63 129z" />
    <glyph glyph-name="uni0137" unicode="&#x137;" horiz-adv-x="1171" 
d="M819 989h285l-391 -358l450 -631h-264l-342 489l-168 -153v-336h-213v1434h213v-869zM522 -121l174 35q29 -25 47.5 -44.5t37 -59.5t18.5 -84q0 -105 -85 -168.5t-233 -63.5q-64 0 -114 14v130q36 -7 94 -7q139 0 139 107q0 42 -20.5 74t-57.5 67z" />
    <glyph glyph-name="kgreenlandic" unicode="&#x138;" horiz-adv-x="1171" 
d="M819 991h285l-393 -358l452 -633h-264l-342 489l-168 -153v-336h-213v991h213v-424z" />
    <glyph glyph-name="Lacute" unicode="&#x139;" horiz-adv-x="1325" 
d="M231 1337h230v-1132h821v-205h-1051v1337zM176 1495l205 266h278l-280 -266h-203z" />
    <glyph glyph-name="lacute" unicode="&#x13a;" horiz-adv-x="583" 
d="M186 0v1434h211v-1434h-211zM123 1575l205 266h278l-280 -266h-203z" />
    <glyph glyph-name="uni013B" unicode="&#x13b;" horiz-adv-x="1325" 
d="M231 1337h230v-1132h821v-205h-1051v1337zM633 -129l172 43q90 -80 90 -188q0 -105 -89 -168.5t-239 -63.5q-79 0 -174 25l19 131q86 -12 118 -12q79 0 122.5 27t43.5 77q0 70 -63 129z" />
    <glyph glyph-name="uni013C" unicode="&#x13c;" horiz-adv-x="583" 
d="M397 0h-211v1434h211v-1434zM242 -121l174 35q29 -25 47 -44.5t36.5 -59.5t18.5 -84q0 -105 -84.5 -168.5t-232.5 -63.5q-65 0 -115 14v130q36 -7 94 -7q139 0 139 107q0 42 -20 74t-57 67z" />
    <glyph glyph-name="Lcaron" unicode="&#x13d;" horiz-adv-x="1325" 
d="M231 0v1337h230v-1132h821v-205h-1051zM850 971h-119v463h211q0 -145 -21 -252.5t-71 -210.5z" />
    <glyph glyph-name="lcaron" unicode="&#x13e;" horiz-adv-x="583" 
d="M397 0h-211v1434h211v-1434zM649 971h-119v463h211q0 -145 -21 -252.5t-71 -210.5z" />
    <glyph glyph-name="Ldot" unicode="&#x13f;" horiz-adv-x="1359" 
d="M231 1337h230v-1132h821v-205h-1051v1337zM862 813q0 48 36 82.5t89 34.5t90 -35t37 -82q0 -49 -36.5 -82t-90.5 -33t-89.5 32.5t-35.5 82.5z" />
    <glyph glyph-name="ldot" unicode="&#x140;" horiz-adv-x="671" 
d="M465 735q0 48 36 82.5t89 34.5t90 -35t37 -82q0 -49 -36.5 -81.5t-90.5 -32.5t-89.5 32.5t-35.5 81.5zM397 0h-211v1434h211v-1434z" />
    <glyph glyph-name="Lslash" unicode="&#x141;" horiz-adv-x="1374" 
d="M76 401v185l205 119v632h229v-501l416 241v-184l-416 -242v-446h821v-205h-1050v520z" />
    <glyph glyph-name="lslash" unicode="&#x142;" horiz-adv-x="665" 
d="M438 0h-211v623l-129 -74l-71 123l200 116v646h211v-523l170 99l72 -123l-242 -142v-745z" />
    <glyph glyph-name="Nacute" unicode="&#x143;" horiz-adv-x="1669" 
d="M1208 1337h230v-1337h-203l-772 928h-2v-928h-230v1337h203l772 -927h2v927zM664 1495l204 266h279l-281 -266h-202z" />
    <glyph glyph-name="nacute" unicode="&#x144;" horiz-adv-x="1239" 
d="M367 844q69 84 142.5 131t184.5 47q161 0 271 -100t110 -252v-670h-213v670q0 69 -57.5 117.5t-145.5 48.5q-146 0 -270 -158v-678h-211v717q0 147 -24 272h192q15 -66 21 -145zM643 1427h244l-217 -299h-191z" />
    <glyph glyph-name="uni0145" unicode="&#x145;" horiz-adv-x="1669" 
d="M1208 1337h230v-1337h-203l-772 928h-2v-928h-230v1337h203l772 -927h2v927zM760 -129l172 43q90 -80 90 -188q0 -105 -89 -168.5t-239 -63.5q-79 0 -174 25l19 131q86 -12 118 -12q79 0 122.5 27t43.5 77q0 70 -63 129z" />
    <glyph glyph-name="uni0146" unicode="&#x146;" horiz-adv-x="1239" 
d="M367 844q69 84 142.5 131t184.5 47q161 0 271 -100t110 -252v-670h-213v670q0 69 -57.5 117.5t-145.5 48.5q-146 0 -270 -158v-678h-211v717q0 147 -24 272h192q15 -66 21 -145zM535 -121l174 35q29 -25 47 -44.5t36.5 -59.5t18.5 -84q0 -105 -84.5 -168.5t-232.5 -63.5
q-65 0 -115 14v130q36 -7 94 -7q139 0 139 107q0 42 -20 74t-57 67z" />
    <glyph glyph-name="Ncaron" unicode="&#x147;" horiz-adv-x="1669" 
d="M1208 1337h230v-1337h-203l-772 928h-2v-928h-230v1337h203l772 -927h2v927zM674 1767l160 -151l157 151h170l-209 -272h-237l-211 272h170z" />
    <glyph glyph-name="ncaron" unicode="&#x148;" horiz-adv-x="1239" 
d="M367 844q69 84 142.5 131t184.5 47q161 0 271 -100t110 -252v-670h-213v670q0 69 -57.5 117.5t-145.5 48.5q-146 0 -270 -158v-678h-211v717q0 147 -24 272h192q15 -66 21 -145zM289 1411h170l159 -160l158 160h170l-209 -281h-237z" />
    <glyph glyph-name="napostrophe" unicode="&#x149;" horiz-adv-x="1239" 
d="M-14 1073l-72 105q66 18 129 68t63 110v14q-24 -8 -45 -8q-44 0 -74 31t-30 75q0 47 35.5 79t89.5 32q68 0 120 -51.5t52 -126.5q0 -226 -268 -328zM367 844q69 84 142.5 131t184.5 47q161 0 271 -100t110 -252v-670h-213v670q0 69 -57.5 117.5t-145.5 48.5
q-146 0 -270 -158v-678h-211v717q0 147 -24 272h192q15 -66 21 -145z" />
    <glyph glyph-name="Eng" unicode="&#x14a;" horiz-adv-x="1669" 
d="M1208 1337h230v-1286q0 -242 -154.5 -379t-404.5 -137v205q142 0 232.5 78.5t96.5 216.5h-2l-743 893h-2v-928h-230v1337h203l772 -927h2v927z" />
    <glyph glyph-name="eng" unicode="&#x14b;" horiz-adv-x="1239" 
d="M1075 670v-766q0 -78 -21.5 -142t-55.5 -105.5t-79.5 -69.5t-92 -40t-93.5 -12l-61 166q33 7 55 14t50 22t44.5 35t28.5 54t12 78v766q0 69 -57.5 117.5t-145.5 48.5q-146 0 -270 -158v-678h-211v717q0 147 -24 272h192q15 -66 21 -145q69 84 142.5 131t184.5 47
q161 0 271 -100t110 -252z" />
    <glyph glyph-name="Omacron" unicode="&#x14c;" horiz-adv-x="1732" 
d="M113 672q0 193 99 355t272 256.5t380 94.5q124 0 240 -35.5t209.5 -100.5t163 -152t107.5 -195t38 -223q0 -195 -101 -359t-275 -259t-382 -95q-207 0 -380 95t-272 258.5t-99 359.5zM354 672q0 -138 67 -254.5t184.5 -185t258.5 -68.5q142 0 261 68.5t187 185t68 254.5
q0 136 -68 251.5t-187 183t-261 67.5q-141 0 -258.5 -67.5t-184.5 -183t-67 -251.5zM598 1710h535v-164h-535v164z" />
    <glyph glyph-name="omacron" unicode="&#x14d;" horiz-adv-x="1265" 
d="M106 498q0 145 65 264t186 189.5t274 70.5q232 0 380 -151t148 -373q0 -148 -65.5 -268.5t-187 -190.5t-275.5 -70q-115 0 -213.5 41t-166.5 112t-106.5 168.5t-38.5 207.5zM326 498q0 -149 82.5 -251t222.5 -102q143 0 227 102t84 251q0 145 -84.5 246.5t-226.5 101.5
q-139 0 -222 -101.5t-83 -246.5zM365 1346h534v-164h-534v164z" />
    <glyph glyph-name="Obreve" unicode="&#x14e;" horiz-adv-x="1732" 
d="M113 672q0 193 99 355t272 256.5t380 94.5q124 0 240 -35.5t209.5 -100.5t163 -152t107.5 -195t38 -223q0 -195 -101 -359t-275 -259t-382 -95q-207 0 -380 95t-272 258.5t-99 359.5zM354 672q0 -138 67 -254.5t184.5 -185t258.5 -68.5q142 0 261 68.5t187 185t68 254.5
q0 136 -68 251.5t-187 183t-261 67.5q-141 0 -258.5 -67.5t-184.5 -183t-67 -251.5zM559 1763h154q0 -143 153 -143q154 0 154 143h151q0 -41 -7.5 -78t-28.5 -76t-53.5 -67.5t-88 -46.5t-127.5 -18t-127.5 18t-88.5 46.5t-54.5 67.5t-29 76t-7.5 78z" />
    <glyph glyph-name="obreve" unicode="&#x14f;" horiz-adv-x="1265" 
d="M106 498q0 145 65 264t186 189.5t274 70.5q232 0 380 -151t148 -373q0 -148 -65.5 -268.5t-187 -190.5t-275.5 -70q-115 0 -213.5 41t-166.5 112t-106.5 168.5t-38.5 207.5zM326 498q0 -149 82.5 -251t222.5 -102q143 0 227 102t84 251q0 145 -84.5 246.5t-226.5 101.5
q-139 0 -222 -101.5t-83 -246.5zM326 1405h153q0 -150 154 -150q153 0 153 150h152q0 -42 -7.5 -80t-28.5 -78t-53.5 -69t-88 -47.5t-127.5 -18.5q-89 0 -152.5 27t-95.5 73t-45.5 93t-13.5 100z" />
    <glyph glyph-name="Ohungarumlaut" unicode="&#x150;" horiz-adv-x="1732" 
d="M113 672q0 193 99 355t272 256.5t380 94.5q124 0 240 -35.5t209.5 -100.5t163 -152t107.5 -195t38 -223q0 -195 -101 -359t-275 -259t-382 -95q-207 0 -380 95t-272 258.5t-99 359.5zM354 672q0 -138 67 -254.5t184.5 -185t258.5 -68.5q142 0 261 68.5t187 185t68 254.5
q0 136 -68 251.5t-187 183t-261 67.5q-141 0 -258.5 -67.5t-184.5 -183t-67 -251.5zM727 1489h-137l90 287h194zM1087 1489h-135l90 287h195z" />
    <glyph glyph-name="ohungarumlaut" unicode="&#x151;" horiz-adv-x="1265" 
d="M106 498q0 145 65 264t186 189.5t274 70.5q232 0 380 -151t148 -373q0 -148 -65.5 -268.5t-187 -190.5t-275.5 -70q-115 0 -213.5 41t-166.5 112t-106.5 168.5t-38.5 207.5zM326 498q0 -149 82.5 -251t222.5 -102q143 0 227 102t84 251q0 145 -84.5 246.5t-226.5 101.5
q-139 0 -222 -101.5t-83 -246.5zM494 1124h-138l90 287h195zM854 1124h-135l90 287h195z" />
    <glyph glyph-name="OE" unicode="&#x152;" horiz-adv-x="2611" 
d="M2124 801v-205h-514v-391h905v-205h-1135v193q-90 -119 -230 -176.5t-306 -57.5q-202 0 -370 95t-264.5 258.5t-96.5 359.5q0 193 96.5 355t265 256.5t369.5 94.5q367 0 536 -235v194h1086v-204h-856v-332h514zM354 672q0 -138 65 -254.5t178 -185t247 -68.5
q148 0 271.5 68.5t194 185t70.5 254.5q0 136 -70.5 251.5t-194 183t-271.5 67.5q-135 0 -247.5 -67.5t-177.5 -183t-65 -251.5z" />
    <glyph glyph-name="oe" unicode="&#x153;" horiz-adv-x="2058" 
d="M1786 291l141 -137q-86 -84 -207.5 -134.5t-271.5 -50.5q-134 0 -244.5 60t-163.5 159q-60 -99 -173.5 -159t-237.5 -60q-141 0 -261.5 69.5t-192 192t-71.5 267.5q0 143 71.5 264t192 190.5t261.5 69.5q127 0 242.5 -62.5t175.5 -164.5q55 104 164.5 165.5t236.5 61.5
q82 0 157.5 -19.5t143.5 -63.5t116 -109t72.5 -163t16.5 -218h-801q3 -42 14 -76q29 -95 104 -156t177 -61q206 0 338 135zM1448 846q-107 0 -178.5 -62.5t-100.5 -169.5h553q-1 75 -42 129.5t-101.5 78.5t-130.5 24zM324 498q0 -149 82.5 -251t222.5 -102q143 0 227 102
t84 251q0 145 -84.5 246.5t-226.5 101.5q-139 0 -222 -101.5t-83 -246.5z" />
    <glyph glyph-name="Racute" unicode="&#x154;" horiz-adv-x="1603" 
d="M461 0h-230v1337h738q255 0 387 -141q106 -112 106 -268q0 -132 -79.5 -232t-215.5 -151l320 -545h-264l-287 514h-475v-514zM969 1133h-508v-414h549q91 0 157 61.5t66 147.5q0 75 -55 133q-43 45 -92.5 58.5t-116.5 13.5zM633 1495l205 266h278l-280 -266h-203z" />
    <glyph glyph-name="racute" unicode="&#x155;" horiz-adv-x="823" 
d="M604 815q-34 0 -64.5 -14t-58.5 -41.5t-47 -51.5t-45 -61v-647h-211v719q0 134 -26 270h194q15 -73 21 -166q30 45 54 74.5t59 61t78.5 47.5t94.5 16q99 0 140 -41l-64 -197q-20 13 -60 22t-65 9zM436 1427h244l-217 -299h-191z" />
    <glyph glyph-name="uni0156" unicode="&#x156;" horiz-adv-x="1603" 
d="M461 0h-230v1337h738q255 0 387 -141q106 -112 106 -268q0 -132 -79.5 -232t-215.5 -151l320 -545h-264l-287 514h-475v-514zM969 1133h-508v-414h549q91 0 157 61.5t66 147.5q0 75 -55 133q-43 45 -92.5 58.5t-116.5 13.5zM772 -129l172 43q90 -80 90 -188
q0 -105 -88.5 -168.5t-238.5 -63.5q-80 0 -175 25l19 131q86 -12 119 -12q79 0 122.5 27t43.5 77q0 69 -64 129z" />
    <glyph glyph-name="uni0157" unicode="&#x157;" horiz-adv-x="823" 
d="M604 815q-34 0 -64.5 -14t-58.5 -41.5t-47 -51.5t-45 -61v-647h-211v719q0 134 -26 270h194q15 -73 21 -166q30 45 54 74.5t59 61t78.5 47.5t94.5 16q99 0 140 -41l-64 -197q-20 13 -60 22t-65 9zM231 -121l175 35q29 -25 47 -44.5t36.5 -59.5t18.5 -84
q0 -105 -85 -168.5t-233 -63.5q-64 0 -114 14v130q36 -7 94 -7q139 0 139 107q0 42 -20.5 74t-57.5 67z" />
    <glyph glyph-name="Rcaron" unicode="&#x158;" horiz-adv-x="1603" 
d="M461 0h-230v1337h738q255 0 387 -141q106 -112 106 -268q0 -132 -79.5 -232t-215.5 -151l320 -545h-264l-287 514h-475v-514zM969 1133h-508v-414h549q91 0 157 61.5t66 147.5q0 75 -55 133q-43 45 -92.5 58.5t-116.5 13.5zM643 1767l160 -151l158 151h169l-208 -272
h-238l-211 272h170z" />
    <glyph glyph-name="rcaron" unicode="&#x159;" horiz-adv-x="823" 
d="M604 815q-34 0 -64.5 -14t-58.5 -41.5t-47 -51.5t-45 -61v-647h-211v719q0 134 -26 270h194q15 -73 21 -166q30 45 54 74.5t59 61t78.5 47.5t94.5 16q99 0 140 -41l-64 -197q-20 13 -60 22t-65 9zM82 1411h170l160 -160l157 160h170l-209 -281h-237z" />
    <glyph glyph-name="Sacute" unicode="&#x15a;" horiz-adv-x="1507" 
d="M1317 1184l-139 -160q-67 62 -193 109t-293 47q-132 0 -216.5 -47t-84.5 -146q0 -97 127 -133q68 -19 259 -32q9 -1 16 -1q212 -14 317 -44q287 -81 298 -346q1 -11 1 -23q0 -95 -31 -171t-84.5 -127.5t-129 -85.5t-161.5 -49.5t-184 -15.5q-419 0 -731 281l139 159
q50 -45 99.5 -80.5t124.5 -75.5t170.5 -62.5t201.5 -22.5q103 0 181.5 22.5t127 73t48.5 123.5q0 49 -18.5 85.5t-49.5 59.5t-83 38.5t-105.5 23.5t-130.5 14q-83 6 -129.5 10t-123 15.5t-121 26.5t-100 42.5t-85.5 63.5t-51 90t-21 121q0 92 32.5 164.5t85.5 117.5t125 75
t144.5 42t150.5 12q193 0 357 -59t260 -135zM584 1495l204 266h279l-281 -266h-202z" />
    <glyph glyph-name="sacute" unicode="&#x15b;" horiz-adv-x="1140" 
d="M983 911l-80 -161q-64 36 -167 68t-199 32q-86 0 -143.5 -29t-57.5 -86q0 -29 17.5 -50t41 -32.5t61 -18.5t62.5 -9t60 -4q50 -2 82 -4.5t86.5 -11t91 -20.5t80 -35.5t69.5 -54.5t44 -79t18 -107q0 -114 -62.5 -193t-164.5 -115t-236 -36q-266 0 -492 152l80 159
q47 -28 80.5 -45.5t89 -41.5t116 -36t124.5 -12q112 0 183 39t71 109q0 27 -11 48.5t-33 34.5t-44.5 22.5t-56.5 14.5t-57 7t-58 4q-43 3 -70.5 5t-69.5 7t-70 11t-64 17.5t-59 26t-48 36t-39 48t-23.5 62.5t-9.5 78q0 70 24 125.5t63.5 90.5t93.5 57.5t109.5 32t116.5 9.5
q126 0 252.5 -36.5t198.5 -78.5zM594 1427h244l-217 -299h-191z" />
    <glyph glyph-name="Scircumflex" unicode="&#x15c;" horiz-adv-x="1507" 
d="M1317 1184l-139 -160q-67 62 -193 109t-293 47q-132 0 -216.5 -47t-84.5 -146q0 -97 127 -133q68 -19 259 -32q9 -1 16 -1q212 -14 317 -44q287 -81 298 -346q1 -11 1 -23q0 -95 -31 -171t-84.5 -127.5t-129 -85.5t-161.5 -49.5t-184 -15.5q-419 0 -731 281l139 159
q50 -45 99.5 -80.5t124.5 -75.5t170.5 -62.5t201.5 -22.5q103 0 181.5 22.5t127 73t48.5 123.5q0 49 -18.5 85.5t-49.5 59.5t-83 38.5t-105.5 23.5t-130.5 14q-83 6 -129.5 10t-123 15.5t-121 26.5t-100 42.5t-85.5 63.5t-51 90t-21 121q0 92 32.5 164.5t85.5 117.5t125 75
t144.5 42t150.5 12q193 0 357 -59t260 -135zM424 1495l211 272h237l209 -272h-170l-157 152l-160 -152h-170z" />
    <glyph glyph-name="scircumflex" unicode="&#x15d;" horiz-adv-x="1140" 
d="M983 911l-80 -161q-64 36 -167 68t-199 32q-86 0 -143.5 -29t-57.5 -86q0 -29 17.5 -50t41 -32.5t61 -18.5t62.5 -9t60 -4q50 -2 82 -4.5t86.5 -11t91 -20.5t80 -35.5t69.5 -54.5t44 -79t18 -107q0 -114 -62.5 -193t-164.5 -115t-236 -36q-266 0 -492 152l80 159
q47 -28 80.5 -45.5t89 -41.5t116 -36t124.5 -12q112 0 183 39t71 109q0 27 -11 48.5t-33 34.5t-44.5 22.5t-56.5 14.5t-57 7t-58 4q-43 3 -70.5 5t-69.5 7t-70 11t-64 17.5t-59 26t-48 36t-39 48t-23.5 62.5t-9.5 78q0 70 24 125.5t63.5 90.5t93.5 57.5t109.5 32t116.5 9.5
q126 0 252.5 -36.5t198.5 -78.5zM240 1130l211 279h237l209 -279h-170l-158 160l-159 -160h-170z" />
    <glyph glyph-name="Scedilla" unicode="&#x15e;" horiz-adv-x="1507" 
d="M1321 1184l-139 -160q-67 62 -193 109t-293 47q-132 0 -216.5 -47t-84.5 -146q0 -97 127 -133q68 -19 259 -32q9 -1 16 -1q212 -14 317 -44q287 -81 298 -346q1 -11 1 -23q0 -117 -46 -205t-127.5 -140t-184 -77.5t-224.5 -26.5l-30 -70q37 11 61 11q83 2 147 -42.5
t64 -121.5q0 -90 -93.5 -144.5t-242.5 -54.5q-113 0 -293 45l33 117q184 -35 250 -35q72 0 114 19t42 55q0 55 -97 55q-26 0 -88 -10l-55 65l55 117q-345 38 -606 275l139 159q50 -45 99.5 -80.5t124.5 -75.5t170.5 -62.5t201.5 -22.5q103 0 181.5 22.5t127 73t48.5 123.5
q0 49 -18.5 85.5t-49.5 59.5t-83 38.5t-105.5 23.5t-130.5 14q-83 6 -129.5 10t-123 15.5t-121 26.5t-100 42.5t-85.5 63.5t-51 90t-21 121q0 92 33 164.5t85.5 117.5t124.5 75t145 42t151 12q193 0 356.5 -59t259.5 -135z" />
    <glyph glyph-name="scedilla" unicode="&#x15f;" horiz-adv-x="1140" 
d="M983 911l-80 -161q-64 36 -167 68t-199 32q-86 0 -143.5 -29t-57.5 -86q0 -29 17.5 -50t41 -32.5t61 -18.5t62.5 -9t60 -4q50 -2 82 -4.5t86.5 -11t91 -20.5t80 -35.5t69.5 -54.5t44 -79t18 -107q0 -154 -108 -240t-286 -100l-34 -80q37 11 61 11q83 2 147 -42.5
t64 -121.5q0 -90 -93.5 -144.5t-242.5 -54.5q-113 0 -293 45l33 117q184 -35 250 -35q72 0 113.5 19t41.5 55q0 55 -96 55q-26 0 -88 -10l-55 65l55 119q-224 16 -424 150l80 159q47 -28 80.5 -45.5t89 -41.5t116 -36t124.5 -12q112 0 183 39t71 109q0 27 -11 48.5t-33 34.5
t-44.5 22.5t-56.5 14.5t-57 7t-58 4q-43 3 -70.5 5t-69.5 7t-70 11t-64 17.5t-59 26t-48 36t-39 48t-23.5 62.5t-9.5 78q0 70 24 125.5t63.5 90.5t93.5 57.5t109.5 32t116.5 9.5q126 0 252.5 -36.5t198.5 -78.5z" />
    <glyph glyph-name="Scaron" unicode="&#x160;" horiz-adv-x="1507" 
d="M1317 1184l-139 -160q-67 62 -193 109t-293 47q-132 0 -216.5 -47t-84.5 -146q0 -97 127 -133q68 -19 259 -32q9 -1 16 -1q212 -14 317 -44q287 -81 298 -346q1 -11 1 -23q0 -95 -31 -171t-84.5 -127.5t-129 -85.5t-161.5 -49.5t-184 -15.5q-419 0 -731 281l139 159
q50 -45 99.5 -80.5t124.5 -75.5t170.5 -62.5t201.5 -22.5q103 0 181.5 22.5t127 73t48.5 123.5q0 49 -18.5 85.5t-49.5 59.5t-83 38.5t-105.5 23.5t-130.5 14q-83 6 -129.5 10t-123 15.5t-121 26.5t-100 42.5t-85.5 63.5t-51 90t-21 121q0 92 32.5 164.5t85.5 117.5t125 75
t144.5 42t150.5 12q193 0 357 -59t260 -135zM594 1767l160 -151l157 151h170l-209 -272h-237l-211 272h170z" />
    <glyph glyph-name="scaron" unicode="&#x161;" horiz-adv-x="1140" 
d="M983 911l-80 -161q-64 36 -167 68t-199 32q-86 0 -143.5 -29t-57.5 -86q0 -29 17.5 -50t41 -32.5t61 -18.5t62.5 -9t60 -4q50 -2 82 -4.5t86.5 -11t91 -20.5t80 -35.5t69.5 -54.5t44 -79t18 -107q0 -114 -62.5 -193t-164.5 -115t-236 -36q-266 0 -492 152l80 159
q47 -28 80.5 -45.5t89 -41.5t116 -36t124.5 -12q112 0 183 39t71 109q0 27 -11 48.5t-33 34.5t-44.5 22.5t-56.5 14.5t-57 7t-58 4q-43 3 -70.5 5t-69.5 7t-70 11t-64 17.5t-59 26t-48 36t-39 48t-23.5 62.5t-9.5 78q0 70 24 125.5t63.5 90.5t93.5 57.5t109.5 32t116.5 9.5
q126 0 252.5 -36.5t198.5 -78.5zM240 1411h170l159 -160l158 160h170l-209 -281h-237z" />
    <glyph glyph-name="uni0162" unicode="&#x162;" horiz-adv-x="1402" 
d="M61 1133v204h1280v-204h-524v-1133l-49 -111q37 11 61 11q83 2 147 -42.5t64 -121.5q0 -90 -93 -144.5t-242 -54.5q-113 0 -293 45l32 117q184 -35 250 -35q72 0 114 19t42 55q0 55 -96 55q-26 0 -88 -10l-56 65l72 152h-94v1133h-527z" />
    <glyph glyph-name="uni0163" unicode="&#x163;" horiz-adv-x="806" 
d="M55 823v166h185v293h211v-293h260v-166h-260v-577q0 -49 30.5 -75t85.5 -26q31 0 78 5.5t66 11.5l20 -166q-25 -16 -87.5 -26.5t-117.5 -10.5q-19 0 -47 4l-33 -74q37 11 62 11q83 2 147 -42.5t64 -121.5q0 -90 -93.5 -144.5t-242.5 -54.5q-113 0 -293 45l33 117
q184 -35 250 -35q72 0 113.5 19t41.5 55q0 55 -96 55q-26 0 -88 -10l-55 65l71 154q-120 70 -120 244v577h-185z" />
    <glyph glyph-name="Tcaron" unicode="&#x164;" horiz-adv-x="1402" 
d="M61 1133v204h1280v-204h-524v-1133h-229v1133h-527zM541 1767l159 -151l158 151h170l-209 -272h-237l-211 272h170z" />
    <glyph glyph-name="tcaron" unicode="&#x165;" horiz-adv-x="806" 
d="M55 823v166h185v293h211v-293h260v-166h-260v-577q0 -49 30.5 -75t85.5 -26q31 0 78 5.5t66 11.5l20 -166q-25 -16 -87.5 -26.5t-117.5 -10.5q-41 0 -80 9t-77 30.5t-66 53.5t-45.5 82t-17.5 112v577h-185zM698 1124h-118v463h211q0 -144 -21.5 -252t-71.5 -211z" />
    <glyph glyph-name="Tbar" unicode="&#x166;" horiz-adv-x="1402" 
d="M61 1133v204h1280v-204h-524v-353h307v-184h-307v-596h-229v596h-307v184h307v353h-527z" />
    <glyph glyph-name="tbar" unicode="&#x167;" horiz-adv-x="806" 
d="M55 823v166h185v293h211v-293h260v-166h-260v-254h260v-143h-260v-180q0 -49 30.5 -75t85.5 -26q31 0 78 5.5t66 11.5l20 -166q-25 -16 -87.5 -26.5t-117.5 -10.5q-41 0 -80 9t-77 30.5t-66 53.5t-45.5 82t-17.5 112v180h-185v143h185v254h-185z" />
    <glyph glyph-name="Utilde" unicode="&#x168;" horiz-adv-x="1595" 
d="M1161 1337h230v-862q0 -241 -166 -378.5t-428 -137.5q-170 0 -303 59t-211 177.5t-78 279.5v862h229v-862q0 -146 102.5 -228.5t260.5 -82.5q159 0 261.5 82.5t102.5 228.5v862zM563 1493l-137 74q57 98 112 139t121 41q71 0 146 -53q3 -2 13 -9t13 -9l12 -8t13 -8
t11.5 -6.5t12.5 -6t12 -3.5t13.5 -3t12.5 -1q23 0 46 16.5t33 29.5t35 47l127 -70q-102 -182 -233 -182q-77 0 -144 49q-5 4 -17 13t-17.5 12.5t-15 10t-15.5 9t-14 6t-15.5 5t-15.5 1.5q-10 0 -19.5 -2.5t-18.5 -9t-15.5 -11.5t-15.5 -16t-13.5 -17t-14 -19.5t-12.5 -18.5z
" />
    <glyph glyph-name="utilde" unicode="&#x169;" horiz-adv-x="1236" 
d="M868 145q-69 -84 -141.5 -130t-183.5 -46q-162 0 -271.5 99t-109.5 251v670h213v-670q0 -69 57.5 -117t145.5 -48q147 0 270 157v678h211v-717q0 -178 18 -272h-194q-15 64 -15 145zM385 1128l-137 74q57 98 112 139t121 41q71 0 146 -53q2 -2 11 -8l12 -8t11 -7.5
t11.5 -7t10.5 -6t11 -6t10.5 -4t11.5 -3.5t11 -2t12 -1q23 0 45.5 16t34.5 30t35 46l127 -70q-102 -182 -233 -182q-77 0 -144 49q-6 4 -20 14.5t-20 14.5t-17 11t-18 10t-16.5 5.5t-18.5 2.5q-12 0 -23.5 -4.5t-19 -9.5t-19 -18t-16 -18.5t-16.5 -23t-15 -21.5z" />
    <glyph glyph-name="Umacron" unicode="&#x16a;" horiz-adv-x="1595" 
d="M1161 1337h230v-862q0 -241 -166 -378.5t-428 -137.5q-170 0 -303 59t-211 177.5t-78 279.5v862h229v-862q0 -146 102.5 -228.5t260.5 -82.5q159 0 261.5 82.5t102.5 228.5v862zM528 1710h535v-164h-535v164z" />
    <glyph glyph-name="umacron" unicode="&#x16b;" horiz-adv-x="1236" 
d="M868 145q-69 -84 -141.5 -130t-183.5 -46q-162 0 -271.5 99t-109.5 251v670h213v-670q0 -69 57.5 -117t145.5 -48q147 0 270 157v678h211v-717q0 -178 18 -272h-194q-15 64 -15 145zM350 1346h535v-164h-535v164z" />
    <glyph glyph-name="Ubreve" unicode="&#x16c;" horiz-adv-x="1595" 
d="M1161 1337h230v-862q0 -241 -166 -378.5t-428 -137.5q-170 0 -303 59t-211 177.5t-78 279.5v862h229v-862q0 -146 102.5 -228.5t260.5 -82.5q159 0 261.5 82.5t102.5 228.5v862zM489 1763h154q0 -143 154 -143q153 0 153 143h152q0 -41 -7.5 -78t-28.5 -76t-53.5 -67.5
t-88 -46.5t-127.5 -18t-127.5 18t-89 46.5t-55 67.5t-29 76t-7.5 78z" />
    <glyph glyph-name="ubreve" unicode="&#x16d;" horiz-adv-x="1236" 
d="M868 145q-69 -84 -141.5 -130t-183.5 -46q-162 0 -271.5 99t-109.5 251v670h213v-670q0 -69 57.5 -117t145.5 -48q147 0 270 157v678h211v-717q0 -178 18 -272h-194q-15 64 -15 145zM311 1405h154q0 -150 153 -150q154 0 154 150h152q0 -42 -7.5 -80t-28.5 -78t-54 -69
t-88.5 -47.5t-127.5 -18.5q-89 0 -152.5 27t-95.5 73t-45.5 93t-13.5 100z" />
    <glyph glyph-name="Uring" unicode="&#x16e;" horiz-adv-x="1595" 
d="M1161 1337h230v-862q0 -241 -166 -378.5t-428 -137.5q-170 0 -303 59t-211 177.5t-78 279.5v862h229v-862q0 -146 102.5 -228.5t260.5 -82.5q159 0 261.5 82.5t102.5 228.5v862zM659 1630q0 -49 37 -79.5t95 -30.5q59 0 96 30.5t37 79.5q0 52 -37.5 86.5t-95.5 34.5
q-57 0 -94.5 -35t-37.5 -86zM791 1421q-121 0 -190 60t-69 149q0 91 69 153t190 62t191.5 -62.5t70.5 -152.5q0 -89 -70.5 -149t-191.5 -60z" />
    <glyph glyph-name="uring" unicode="&#x16f;" horiz-adv-x="1236" 
d="M868 145q-69 -84 -141.5 -130t-183.5 -46q-162 0 -271.5 99t-109.5 251v670h213v-670q0 -69 57.5 -117t145.5 -48q147 0 270 157v678h211v-717q0 -178 18 -272h-194q-15 64 -15 145zM481 1319q0 -49 37 -80t94 -31q59 0 96 31t37 80q0 53 -37.5 88t-95.5 35
q-57 0 -94 -35t-37 -88zM354 1319q0 91 68.5 153t189.5 62t191.5 -62.5t70.5 -152.5q0 -88 -70 -147.5t-192 -59.5q-121 0 -189.5 59t-68.5 148z" />
    <glyph glyph-name="Uhungarumlaut" unicode="&#x170;" horiz-adv-x="1595" 
d="M1161 1337h230v-862q0 -241 -166 -378.5t-428 -137.5q-170 0 -303 59t-211 177.5t-78 279.5v862h229v-862q0 -146 102.5 -228.5t260.5 -82.5q159 0 261.5 82.5t102.5 228.5v862zM657 1489h-137l90 287h195zM1018 1489h-135l90 287h194z" />
    <glyph glyph-name="uhungarumlaut" unicode="&#x171;" horiz-adv-x="1236" 
d="M868 145q-69 -84 -141.5 -130t-183.5 -46q-162 0 -271.5 99t-109.5 251v670h213v-670q0 -69 57.5 -117t145.5 -48q147 0 270 157v678h211v-717q0 -178 18 -272h-194q-15 64 -15 145zM479 1124h-137l90 287h195zM840 1124h-135l90 287h194z" />
    <glyph glyph-name="Uogonek" unicode="&#x172;" horiz-adv-x="1595" 
d="M1161 1337h230v-862q0 -201 -117 -331.5t-313 -168.5q-168 -89 -168 -192q0 -51 38 -79t103 -28q31 0 127 17l18 -131q-95 -25 -182 -25q-133 0 -211 56t-78 149q0 117 133 219q-156 9 -276 70.5t-190 176t-70 267.5v862h229v-862q0 -146 102.5 -228.5t260.5 -82.5
q159 0 261.5 82.5t102.5 228.5v862z" />
    <glyph glyph-name="uogonek" unicode="&#x173;" horiz-adv-x="1236" 
d="M868 145q-69 -84 -141.5 -130t-183.5 -46q-162 0 -271.5 99t-109.5 251v670h213v-670q0 -69 57.5 -117t145.5 -48q147 0 270 157v678h211v-717q0 -178 18 -272q-223 -98 -223 -217q0 -51 38 -79t103 -28q31 0 127 17l19 -131q-95 -25 -183 -25q-133 0 -210.5 56
t-77.5 149q0 85 61 152.5t150 115.5q-13 67 -13 135z" />
    <glyph glyph-name="Wcircumflex" unicode="&#x174;" horiz-adv-x="2064" 
d="M76 1337h252l299 -983h12l317 983h164l318 -983h12l299 983h240l-428 -1337h-230l-293 895h-12l-293 -895h-229zM702 1495l211 272h238l209 -272h-170l-158 152l-160 -152h-170z" />
    <glyph glyph-name="wcircumflex" unicode="&#x175;" horiz-adv-x="1605" 
d="M709 989h200l205 -708h12l191 708h227l-327 -989h-213l-195 678h-12l-195 -678h-213l-328 989h230l201 -708h12zM473 1130l211 279h238l208 -279h-169l-158 160l-160 -160h-170z" />
    <glyph glyph-name="Ycircumflex" unicode="&#x176;" horiz-adv-x="1392" 
d="M1090 1337h270l-549 -721v-616h-229v616l-549 721h291l383 -516zM367 1495l211 272h237l209 -272h-170l-158 152l-159 -152h-170z" />
    <glyph glyph-name="ycircumflex" unicode="&#x177;" horiz-adv-x="1155" 
d="M571 303h13l307 686h215l-674 -1413h-219l250 494l-414 919h240zM246 1130l211 279h237l209 -279h-170l-158 160l-159 -160h-170z" />
    <glyph glyph-name="Ydieresis" unicode="&#x178;" horiz-adv-x="1392" 
d="M1090 1337h270l-549 -721v-616h-229v616l-549 721h291l383 -516zM352 1628q0 48 36 82.5t89 34.5t90 -35t37 -82q0 -49 -36.5 -82t-90.5 -33t-89.5 32.5t-35.5 82.5zM786 1628q0 48 36 82.5t89 34.5t90 -35t37 -82q0 -49 -36.5 -82t-90.5 -33t-89.5 32.5t-35.5 82.5z" />
    <glyph glyph-name="Zacute" unicode="&#x179;" horiz-adv-x="1386" 
d="M1262 205v-205h-1158v143l824 990h-783v204h1117v-143l-824 -989h824zM522 1495l205 266h279l-281 -266h-203z" />
    <glyph glyph-name="zacute" unicode="&#x17a;" horiz-adv-x="1083" 
d="M971 166v-166h-877v125l582 698h-541v166h836v-125l-582 -698h582zM567 1427h244l-217 -299h-191z" />
    <glyph glyph-name="Zdotaccent" unicode="&#x17b;" horiz-adv-x="1386" 
d="M1262 205v-205h-1158v143l824 990h-783v204h1117v-143l-824 -989h824zM567 1628q0 48 36 82.5t89 34.5t90 -35t37 -82q0 -49 -36.5 -82t-90.5 -33t-89.5 32.5t-35.5 82.5z" />
    <glyph glyph-name="zdotaccent" unicode="&#x17c;" horiz-adv-x="1083" 
d="M971 166v-166h-877v125l582 698h-541v166h836v-125l-582 -698h582zM418 1264q0 48 36 82t89 34t90 -34.5t37 -81.5q0 -49 -36.5 -82t-90.5 -33t-89.5 32.5t-35.5 82.5z" />
    <glyph glyph-name="Zcaron" unicode="&#x17d;" horiz-adv-x="1386" 
d="M1262 205v-205h-1158v143l824 990h-783v204h1117v-143l-824 -989h824zM532 1767l160 -151l158 151h170l-209 -272h-238l-211 272h170z" />
    <glyph glyph-name="zcaron" unicode="&#x17e;" horiz-adv-x="1083" 
d="M971 166v-166h-877v125l582 698h-541v166h836v-125l-582 -698h582zM213 1411h170l160 -160l157 160h170l-208 -281h-238z" />
    <glyph glyph-name="Schwa" unicode="&#x18f;" horiz-adv-x="1611" 
d="M774 -41q-105 0 -202 25t-185 82t-151 140t-96 207.5t-23 276.5h1138q-3 51 -12 101q-35 169 -158.5 276t-310.5 107q-133 0 -261 -54t-208 -131l-155 154q103 105 272.5 170t353.5 65q133 0 248.5 -36.5t201.5 -102t147.5 -154t92.5 -194t31 -219.5q0 -201 -93.5 -364.5
t-259 -256t-370.5 -92.5zM782 166q165 0 284.5 90t164.5 240h-869q2 -81 38.5 -146t96 -104t132.5 -59.5t153 -20.5z" />
    <glyph glyph-name="florin" unicode="&#x192;" horiz-adv-x="1019" 
d="M109 702h235l53 240q16 70 55.5 123.5t91 82t105 42.5t107.5 14q58 0 124 -12.5t97 -26.5l-76 -176q-18 12 -64 21.5t-81 9.5q-59 0 -98 -20.5t-48 -55.5l-53 -242h250v-163h-287l-121 -539q-21 -92 -66 -160.5t-105.5 -107.5t-126 -57.5t-136.5 -18.5v164
q36 8 55.5 13.5t51.5 19t51 30.5t37.5 47.5t27.5 69.5l119 539h-198v163z" />
    <glyph glyph-name="Aringacute" unicode="&#x1fa;" horiz-adv-x="1548" 
d="M49 0l621 1337h209l620 -1337h-252l-162 360h-636l-160 -360h-240zM762 1063l-232 -518h474l-230 518h-12zM637 1630q0 -49 37 -79.5t94 -30.5q59 0 96 30.5t37 79.5q0 52 -37.5 86.5t-95.5 34.5q-57 0 -94 -35t-37 -86zM768 1421q-121 0 -189.5 60t-68.5 149
q0 91 68.5 153t189.5 62t191.5 -62.5t70.5 -152.5q0 -89 -70.5 -149t-191.5 -60zM604 1921l205 266h278l-280 -266h-203z" />
    <glyph glyph-name="aringacute" unicode="&#x1fb;" horiz-adv-x="1239" 
d="M227 721l-73 174q82 50 206.5 88.5t262.5 38.5q88 0 165 -15.5t142 -48t103 -91t38 -136.5v-553q0 -116 27 -178h-213q-16 40 -25 123q-74 -64 -161.5 -103.5t-215.5 -39.5q-176 0 -282.5 93.5t-106.5 245.5q0 137 121.5 227.5t335.5 90.5q87 0 173 -20t136 -56v109
q0 87 -68 129.5t-180 42.5q-105 0 -213.5 -38.5t-171.5 -82.5zM528 156q64 0 125.5 18t104 44.5t67 46t35.5 32.5v100q-39 29 -113.5 51.5t-160.5 22.5q-279 0 -279 -152q0 -71 59 -117t162 -46zM481 1319q0 -49 37 -80t94 -31q59 0 96 31t37 80q0 53 -37.5 88t-95.5 35
q-57 0 -94 -35t-37 -88zM354 1319q0 91 68.5 153t189.5 62t191.5 -62.5t70.5 -152.5q0 -88 -70 -147.5t-192 -59.5q-121 0 -189.5 59t-68.5 148zM449 1602l204 266h279l-281 -266h-202z" />
    <glyph glyph-name="AEacute" unicode="&#x1fc;" horiz-adv-x="2224" 
d="M995 0v360h-503l-254 -360h-256l970 1337h1127v-204h-856v-332h514v-205h-514v-391h905v-205h-1133zM987 1063l-366 -518h374v518h-8zM1118 1495l205 266h279l-281 -266h-203z" />
    <glyph glyph-name="aeacute" unicode="&#x1fd;" horiz-adv-x="1976" 
d="M528 156q62 0 114.5 12.5t97 38t74.5 49t69 59.5q-17 56 -21 80q-122 76 -276 76q-279 0 -279 -152q0 -71 59 -117t162 -46zM1366 -31q-131 0 -236.5 53.5t-173.5 147.5q-89 -96 -212.5 -148.5t-260.5 -52.5q-175 0 -282 98.5t-107 251.5q0 137 121.5 227.5t335.5 90.5
q88 0 178.5 -20t140.5 -56v109q0 86 -72 129t-186 43q-105 0 -213.5 -38.5t-171.5 -82.5l-73 174q82 50 206.5 88.5t262.5 38.5q327 0 385 -178l2 -6q52 82 152 133t204 51q82 0 157.5 -19.5t143.5 -63.5t116 -109t72.5 -163t16.5 -218h-801q3 -35 16 -80q31 -93 105 -153
t174 -60q206 0 338 135l141 -137q-86 -84 -207.5 -134.5t-271.5 -50.5zM1077 614h563q-1 75 -42 129.5t-101.5 78.5t-130.5 24q-114 0 -186 -62t-103 -170zM1012 1427h243l-217 -299h-190z" />
    <glyph glyph-name="Oslashacute" unicode="&#x1fe;" horiz-adv-x="1732" 
d="M113 672q0 193 99 355t272 256.5t380 94.5q174 0 332 -71l123 176l151 -105l-116 -168q126 -99 197 -238.5t71 -299.5q0 -195 -101 -359t-275 -259t-382 -95q-169 0 -332 70l-118 -172l-154 102l115 166q-124 100 -193 242t-69 305zM1380 672q0 103 -40 195.5t-113 160.5
l-572 -821q93 -43 209 -43q142 0 261 68.5t187 185t68 254.5zM354 672q0 -104 39.5 -197t110.5 -164l569 819q-103 44 -209 44q-141 0 -258.5 -67.5t-184.5 -183t-67 -251.5zM696 1495l205 266h279l-281 -266h-203z" />
    <glyph glyph-name="oslashacute" unicode="&#x1ff;" horiz-adv-x="1265" 
d="M657 1427h244l-217 -299h-190zM106 498q0 145 65 264t186 189.5t274 70.5q133 0 246 -55l102 147l119 -82l-103 -147q77 -71 120.5 -172t43.5 -215q0 -148 -65.5 -268.5t-187 -190.5t-275.5 -70q-127 0 -242 54l-102 -146l-119 82l102 145q-79 73 -121.5 174t-42.5 220z
M942 498q0 127 -65 219l-381 -541q60 -31 135 -31q143 0 227 102t84 251zM326 498q0 -132 63 -226l379 541q-64 33 -137 33q-139 0 -222 -101.5t-83 -246.5z" />
    <glyph glyph-name="uni0218" unicode="&#x218;" horiz-adv-x="1507" 
d="M1317 1184l-139 -160q-67 62 -193 109t-293 47q-132 0 -216.5 -47t-84.5 -146q0 -97 127 -133q68 -19 259 -32q9 -1 16 -1q212 -14 317 -44q287 -81 298 -346q1 -11 1 -23q0 -95 -31 -171t-84.5 -127.5t-129 -85.5t-161.5 -49.5t-184 -15.5q-419 0 -731 281l139 159
q50 -45 99.5 -80.5t124.5 -75.5t170.5 -62.5t201.5 -22.5q103 0 181.5 22.5t127 73t48.5 123.5q0 49 -18.5 85.5t-49.5 59.5t-83 38.5t-105.5 23.5t-130.5 14q-83 6 -129.5 10t-123 15.5t-121 26.5t-100 42.5t-85.5 63.5t-51 90t-21 121q0 92 32.5 164.5t85.5 117.5t125 75
t144.5 42t150.5 12q193 0 357 -59t260 -135zM723 -129l172 43q90 -80 90 -188q0 -105 -89 -168.5t-239 -63.5q-79 0 -174 25l19 131q86 -12 119 -12q79 0 122 27t43 77q0 70 -63 129z" />
    <glyph glyph-name="uni0219" unicode="&#x219;" horiz-adv-x="1140" 
d="M983 911l-80 -161q-64 36 -167 68t-199 32q-86 0 -143.5 -29t-57.5 -86q0 -29 17.5 -50t41 -32.5t61 -18.5t62.5 -9t60 -4q50 -2 82 -4.5t86.5 -11t91 -20.5t80 -35.5t69.5 -54.5t44 -79t18 -107q0 -114 -62.5 -193t-164.5 -115t-236 -36q-266 0 -492 152l80 159
q47 -28 80.5 -45.5t89 -41.5t116 -36t124.5 -12q112 0 183 39t71 109q0 27 -11 48.5t-33 34.5t-44.5 22.5t-56.5 14.5t-57 7t-58 4q-43 3 -70.5 5t-69.5 7t-70 11t-64 17.5t-59 26t-48 36t-39 48t-23.5 62.5t-9.5 78q0 70 24 125.5t63.5 90.5t93.5 57.5t109.5 32t116.5 9.5
q126 0 252.5 -36.5t198.5 -78.5zM440 -121l174 35q29 -25 47.5 -44.5t37 -59.5t18.5 -84q0 -105 -85 -168.5t-233 -63.5q-64 0 -114 14v130q36 -7 94 -7q139 0 139 107q0 42 -20.5 74t-57.5 67z" />
    <glyph glyph-name="uni021A" unicode="&#x21a;" horiz-adv-x="1402" 
d="M61 1133v204h1280v-204h-524v-1133h-229v1133h-527zM670 -129l172 43q90 -80 90 -188q0 -105 -89 -168.5t-239 -63.5q-79 0 -174 25l19 131q86 -12 118 -12q79 0 122.5 27t43.5 77q0 70 -63 129z" />
    <glyph glyph-name="uni021B" unicode="&#x21b;" horiz-adv-x="806" 
d="M55 823v166h185v293h211v-293h260v-166h-260v-577q0 -49 30.5 -75t85.5 -26q31 0 78 5.5t66 11.5l20 -166q-25 -16 -87.5 -26.5t-117.5 -10.5q-41 0 -80 9t-77 30.5t-66 53.5t-45.5 82t-17.5 112v577h-185zM395 -121l174 35q29 -25 47.5 -44.5t37 -59.5t18.5 -84
q0 -105 -85 -168.5t-233 -63.5q-64 0 -114 14v130q36 -7 94 -7q139 0 139 107q0 42 -20.5 74t-57.5 67z" />
    <glyph glyph-name="dotlessj" unicode="&#x237;" horiz-adv-x="563" 
d="M47 -465l-61 166q33 7 55 14t50 22t44.5 35t28.5 54t12 78v1085h211v-1085q0 -97 -31.5 -171.5t-83 -116t-108.5 -61.5t-117 -20z" />
    <glyph glyph-name="schwa" unicode="&#x259;" horiz-adv-x="1222" 
d="M274 700l-141 138q85 84 207 134t272 50t267 -70.5t178 -186t61 -253.5q0 -151 -65 -275t-181.5 -196t-259.5 -72q-82 0 -157.5 19.5t-143.5 64t-116 109.5t-72.5 163t-16.5 218h799q-9 122 -90 207.5t-203 85.5q-205 0 -338 -136zM612 145q106 0 178 63t101 169h-553
q1 -75 42 -129.5t101.5 -78.5t130.5 -24z" />
    <glyph glyph-name="circumflex" unicode="&#x2c6;" 
d="M182 1130l211 279h238l209 -279h-170l-158 160l-160 -160h-170z" />
    <glyph glyph-name="caron" unicode="&#x2c7;" 
d="M182 1411h170l160 -160l158 160h170l-209 -281h-238z" />
    <glyph glyph-name="breve" unicode="&#x2d8;" 
d="M205 1405h153q0 -150 154 -150t154 150h151q0 -42 -7.5 -80t-28.5 -78t-53.5 -69t-88 -47.5t-127.5 -18.5q-89 0 -152.5 27t-95.5 73t-45.5 93t-13.5 100z" />
    <glyph glyph-name="dotaccent" unicode="&#x2d9;" 
d="M387 1264q0 48 36 82t89 34t90 -34.5t37 -81.5q0 -49 -36.5 -82t-90.5 -33t-89.5 32.5t-35.5 82.5z" />
    <glyph glyph-name="ring" unicode="&#x2da;" 
d="M375 1319q0 -49 37 -80t94 -31q59 0 96 31t37 80q0 53 -37.5 88t-95.5 35q-57 0 -94 -35t-37 -88zM248 1319q0 91 68.5 153t189.5 62t191.5 -62.5t70.5 -152.5q0 -88 -70 -147.5t-192 -59.5q-121 0 -189.5 59t-68.5 148z" />
    <glyph glyph-name="ogonek" unicode="&#x2db;" 
d="M563 57l99 -57q-224 -98 -224 -217q0 -50 38.5 -78.5t103.5 -28.5q31 0 127 17l18 -131q-95 -25 -182 -25q-133 0 -211 56t-78 149q0 49 24 95.5t58 79t80 63t79.5 47t67.5 30.5z" />
    <glyph glyph-name="tilde" unicode="&#x2dc;" 
d="M279 1128l-138 74q57 97 112.5 138.5t121.5 41.5q70 0 145 -53q29 -20 40 -27.5t33 -16.5t40 -9q23 0 45.5 16t34.5 30t35 46l126 -70q-102 -182 -233 -182q-76 0 -143 49q-5 3 -20 14.5t-20 15t-17 11t-19 10t-16.5 5t-18.5 2.5q-12 0 -23.5 -4.5t-19.5 -10t-18.5 -17.5
t-15.5 -19t-16 -23t-15 -21z" />
    <glyph glyph-name="hungarumlaut" unicode="&#x2dd;" 
d="M373 1124h-137l90 287h194zM733 1124h-135l90 287h195z" />
    <glyph glyph-name="Delta" unicode="&#x394;" horiz-adv-x="1486" 
d="M104 184l535 1153h209l534 -1153v-184h-1278v184zM731 1063l-391 -879h795l-392 879h-12z" />
    <glyph glyph-name="Delta" unicode="&#x2206;" horiz-adv-x="1486" 
d="M104 184l535 1153h209l534 -1153v-184h-1278v184zM731 1063l-391 -879h795l-392 879h-12z" />
    <glyph glyph-name="Omega" unicode="&#x3a9;" horiz-adv-x="1789" 
d="M154 0v184h340q-173 61 -273 204t-100 325q0 136 60 258.5t162.5 212t246 142t303.5 52.5t304.5 -52.5t248 -142t164.5 -212.5t61 -258q0 -176 -105.5 -321.5t-273.5 -207.5h338v-184h-588v184q172 44 280 190.5t108 338.5q0 125 -71 231t-194.5 168t-271.5 62
q-223 0 -377 -135t-154 -326q0 -190 105 -336t274 -193v-184h-587z" />
    <glyph glyph-name="Omega" unicode="&#x2126;" horiz-adv-x="1789" 
d="M154 0v184h340q-173 61 -273 204t-100 325q0 136 60 258.5t162.5 212t246 142t303.5 52.5t304.5 -52.5t248 -142t164.5 -212.5t61 -258q0 -176 -105.5 -321.5t-273.5 -207.5h338v-184h-588v184q172 44 280 190.5t108 338.5q0 125 -71 231t-194.5 168t-271.5 62
q-223 0 -377 -135t-154 -326q0 -190 105 -336t274 -193v-184h-587z" />
    <glyph glyph-name="pi" unicode="&#x3c0;" horiz-adv-x="1380" 
d="M74 803v166h1229v-166h-218l-65 -637q-8 -74 -2 -166h-209q-6 88 2 166l66 637h-357l-84 -803h-209l84 803h-237z" />
    <glyph glyph-name="Wgrave" unicode="&#x1e80;" horiz-adv-x="2064" 
d="M76 1337h252l299 -983h12l317 983h164l318 -983h12l299 983h240l-428 -1337h-230l-293 895h-12l-293 -895h-229zM997 1495l-278 266h278l205 -266h-205z" />
    <glyph glyph-name="wgrave" unicode="&#x1e81;" horiz-adv-x="1605" 
d="M709 989h200l205 -708h12l191 708h227l-327 -989h-213l-195 678h-12l-195 -678h-213l-328 989h230l201 -708h12zM535 1427h243l164 -299h-190z" />
    <glyph glyph-name="Wacute" unicode="&#x1e82;" horiz-adv-x="2064" 
d="M76 1337h252l299 -983h12l317 983h164l318 -983h12l299 983h240l-428 -1337h-230l-293 895h-12l-293 -895h-229zM862 1495l205 266h279l-281 -266h-203z" />
    <glyph glyph-name="wacute" unicode="&#x1e83;" horiz-adv-x="1605" 
d="M709 989h200l205 -708h12l191 708h227l-327 -989h-213l-195 678h-12l-195 -678h-213l-328 989h230l201 -708h12zM827 1427h244l-217 -299h-190z" />
    <glyph glyph-name="Wdieresis" unicode="&#x1e84;" horiz-adv-x="2064" 
d="M76 1337h252l299 -983h12l317 983h164l318 -983h12l299 983h240l-428 -1337h-230l-293 895h-12l-293 -895h-229zM688 1628q0 48 36 82.5t89 34.5t90 -35t37 -82q0 -49 -36.5 -82t-90.5 -33t-89.5 32.5t-35.5 82.5zM1122 1628q0 48 36 82.5t89 34.5t90 -35t37 -82
q0 -49 -36.5 -82t-90.5 -33t-89.5 32.5t-35.5 82.5z" />
    <glyph glyph-name="wdieresis" unicode="&#x1e85;" horiz-adv-x="1605" 
d="M709 989h200l205 -708h12l191 708h227l-327 -989h-213l-195 678h-12l-195 -678h-213l-328 989h230l201 -708h12zM459 1264q0 48 36 82t89 34t90 -34.5t37 -81.5q0 -49 -36.5 -82t-90.5 -33t-89.5 32.5t-35.5 82.5zM893 1264q0 48 36 82t89 34t90 -34.5t37 -81.5
q0 -49 -36.5 -82t-90.5 -33t-89.5 32.5t-35.5 82.5z" />
    <glyph glyph-name="Ygrave" unicode="&#x1ef2;" horiz-adv-x="1392" 
d="M1090 1337h270l-549 -721v-616h-229v616l-549 721h291l383 -516zM662 1495l-279 266h279l204 -266h-204z" />
    <glyph glyph-name="ygrave" unicode="&#x1ef3;" horiz-adv-x="1155" 
d="M571 303h13l307 686h215l-674 -1413h-219l250 494l-414 919h240zM307 1427h244l164 -299h-191z" />
    <glyph glyph-name="endash" unicode="&#x2013;" horiz-adv-x="1290" 
d="M139 438v189h1012v-189h-1012z" />
    <glyph glyph-name="emdash" unicode="&#x2014;" horiz-adv-x="2273" 
d="M139 438v189h1995v-189h-1995z" />
    <glyph glyph-name="quoteleft" unicode="&#x2018;" horiz-adv-x="614" 
d="M465 1399l61 -129q-55 -14 -112 -43.5t-103.5 -78t-46.5 -99.5v-17q40 10 55 10q66 0 110 -38t44 -95t-44 -96t-110 -39q-84 0 -148.5 63t-64.5 156q0 70 23.5 131t59 103t86 77.5t95 56.5t95.5 38z" />
    <glyph glyph-name="quoteright" unicode="&#x2019;" horiz-adv-x="614" 
d="M164 754l-62 129q55 14 112.5 43.5t104 78t46.5 99.5v16q-40 -10 -56 -10q-66 0 -109.5 38t-43.5 95t43.5 96t109.5 39q84 0 148.5 -63t64.5 -156q0 -283 -358 -405z" />
    <glyph glyph-name="quotesinglbase" unicode="&#x201a;" horiz-adv-x="618" 
d="M139 -358l-61 129q55 14 112 43.5t103.5 78t46.5 99.5v16q-40 -10 -55 -10q-66 0 -110 38t-44 95t44 96t110 39q84 0 148.5 -63t64.5 -156q0 -70 -23.5 -131t-59 -102.5t-86 -77t-95 -56.5t-95.5 -38z" />
    <glyph glyph-name="quotedblleft" unicode="&#x201c;" horiz-adv-x="1173" 
d="M465 1399l61 -129q-55 -14 -112 -43.5t-103.5 -78t-46.5 -99.5v-17q40 10 55 10q66 0 110 -38t44 -95t-44 -96t-110 -39q-84 0 -148.5 63t-64.5 156q0 70 23.5 131t59 103t86 77.5t95 56.5t95.5 38zM1024 1399l61 -129q-55 -14 -112 -43.5t-103.5 -78t-46.5 -99.5v-17
q40 10 56 10q66 0 109.5 -38t43.5 -95t-43.5 -96t-109.5 -39q-84 0 -148.5 63t-64.5 156q0 70 23.5 131t59 103t85.5 77.5t94.5 56.5t95.5 38z" />
    <glyph glyph-name="quotedblright" unicode="&#x201d;" horiz-adv-x="1173" 
d="M723 754l-61 129q55 14 112 43.5t103.5 78t46.5 99.5v16q-40 -10 -56 -10q-66 0 -109.5 38t-43.5 95t43.5 96t109.5 39q84 0 148.5 -63t64.5 -156q0 -283 -358 -405zM164 754l-62 129q55 14 112.5 43.5t104 78t46.5 99.5v16q-40 -10 -56 -10q-66 0 -109.5 38t-43.5 95
t43.5 96t109.5 39q84 0 148.5 -63t64.5 -156q0 -283 -358 -405z" />
    <glyph glyph-name="quotedblbase" unicode="&#x201e;" horiz-adv-x="1177" 
d="M139 -358l-61 129q55 14 112 43.5t103.5 78t46.5 99.5v16q-40 -10 -55 -10q-66 0 -110 38t-44 95t44 96t110 39q84 0 148.5 -63t64.5 -156q0 -70 -23.5 -131t-59 -102.5t-86 -77t-95 -56.5t-95.5 -38zM698 -358l-61 129q55 14 112 43.5t103.5 78t46.5 99.5v16
q-40 -10 -55 -10q-66 0 -110 38t-44 95t44 96t110 39q84 0 148.5 -63t64.5 -156q0 -70 -23.5 -131t-59 -102.5t-86 -77t-95 -56.5t-95.5 -38z" />
    <glyph glyph-name="dagger" unicode="&#x2020;" horiz-adv-x="1026" 
d="M418 1434h188v-336h316v-168h-316v-766h-188v766h-314v168h314v336z" />
    <glyph glyph-name="daggerdbl" unicode="&#x2021;" horiz-adv-x="1058" 
d="M623 512v-348h-189v348h-313v168h313v250h-313v168h313v336h189v-336h315v-168h-315v-250h315v-168h-315z" />
    <glyph glyph-name="bullet" unicode="&#x2022;" horiz-adv-x="892" 
d="M446 287q-138 0 -235.5 92.5t-97.5 224.5t97.5 225t235.5 93q137 0 235.5 -93t98.5 -225q0 -131 -98.5 -224t-235.5 -93z" />
    <glyph glyph-name="ellipsis" unicode="&#x2026;" horiz-adv-x="2048" 
d="M203 117q0 62 46.5 105.5t115.5 43.5t116 -43.5t47 -105.5t-47 -105t-116 -43t-115.5 43t-46.5 105zM860 117q0 62 46.5 105.5t115.5 43.5t116.5 -43.5t47.5 -105.5t-47.5 -105t-116.5 -43t-115.5 43t-46.5 105zM1518 117q0 62 46.5 105.5t114.5 43.5q69 0 116.5 -43.5
t47.5 -105.5t-47.5 -105t-116.5 -43t-115 43t-46 105z" />
    <glyph glyph-name="perthousand" unicode="&#x2030;" horiz-adv-x="3055" 
d="M111 913q0 147 116.5 252t282.5 105t285.5 -105.5t119.5 -251.5q0 -147 -119.5 -252.5t-285.5 -105.5q-167 0 -283 105t-116 253zM1540 1239l-735 -1239h-182l737 1239h180zM307 913q0 -75 59.5 -129.5t143.5 -54.5q86 0 147.5 54.5t61.5 129.5t-61.5 129t-147.5 54
q-84 0 -143.5 -54t-59.5 -129zM1247 328q0 145 117.5 250.5t282.5 105.5q166 0 285.5 -105.5t119.5 -250.5q0 -149 -119.5 -254t-285.5 -105t-283 105t-117 254zM1444 328q0 -76 59.5 -130.5t143.5 -54.5q86 0 147 55t61 130t-61 128.5t-147 53.5q-84 0 -143.5 -53.5
t-59.5 -128.5zM2150 328q0 145 117.5 250.5t282.5 105.5q166 0 285.5 -105.5t119.5 -250.5q0 -149 -119.5 -254t-285.5 -105t-283 105t-117 254zM2347 328q0 -76 59.5 -130.5t143.5 -54.5q86 0 148.5 55t62.5 130t-62.5 128.5t-148.5 53.5q-84 0 -143.5 -53.5t-59.5 -128.5z
" />
    <glyph glyph-name="guilsinglleft" unicode="&#x2039;" horiz-adv-x="702" 
d="M309 809h254l-248 -297v-16l248 -295h-254l-203 250v106z" />
    <glyph glyph-name="guilsinglright" unicode="&#x203a;" horiz-adv-x="702" 
d="M139 809h254l203 -252v-106l-203 -250h-254l248 295v16z" />
    <glyph glyph-name="fraction" unicode="&#x2044;" horiz-adv-x="450" 
d="M518 1337h180l-757 -1337h-183z" />
    <glyph glyph-name="zero.superior" unicode="&#x2070;" horiz-adv-x="1185" 
d="M78 895q0 129 69.5 239t187 173t255.5 63q139 0 258.5 -63t189.5 -172.5t70 -239.5q0 -131 -70 -241t-189 -173t-259 -63q-138 0 -255.5 62.5t-187 173t-69.5 241.5zM276 895q0 -123 92 -211t222 -88q131 0 225 88t94 211q0 121 -94.5 209t-224.5 88t-222 -87.5
t-92 -209.5z" />
    <glyph glyph-name="four.superior" unicode="&#x2074;" horiz-adv-x="1171" 
d="M1102 799v-162h-174v-186h-201v186h-674v135l705 565h170v-538h174zM352 803v-4h375v280h-16q-58 -46 -179.5 -138t-179.5 -138z" />
    <glyph glyph-name="five.superior" unicode="&#x2075;" horiz-adv-x="1069" 
d="M887 1337v-178h-557v-186q67 43 129 62.5t153 19.5q101 0 189 -32t146.5 -100.5t58.5 -160.5q0 -91 -41.5 -160t-112 -108t-152.5 -57.5t-174 -18.5q-260 0 -467 114l101 160q153 -96 368 -96q74 0 133.5 14t102.5 53t43 99q0 56 -59.5 89.5t-139.5 33.5q-103 0 -180 -27
t-156 -76l-125 86v469h740z" />
    <glyph glyph-name="six.superior" unicode="&#x2076;" horiz-adv-x="1103" 
d="M1004 1266l-121 -140q-107 66 -271 66q-136 0 -235.5 -73t-112.5 -199q187 116 381 116q95 0 170.5 -24.5t121 -65t69.5 -89.5t24 -103q0 -146 -119 -241t-307 -95q-101 0 -194 30t-167.5 86.5t-118.5 146.5t-44 200q0 112 43.5 205.5t117 154.5t170.5 95t205 34
q206 0 380 -99q6 -4 8 -5zM629 877q-153 0 -346 -103q37 -86 125 -132t200 -46q97 0 160 48.5t63 113.5q0 46 -50.5 82.5t-151.5 36.5z" />
    <glyph glyph-name="seven.superior" unicode="&#x2077;" horiz-adv-x="987" 
d="M63 1159v178h859v-178l-502 -708h-262l534 708h-629z" />
    <glyph glyph-name="eight.superior" unicode="&#x2078;" horiz-adv-x="1107" 
d="M555 416q-127 0 -234.5 33t-175 100t-67.5 156q0 95 62 154.5t149 74.5q-78 14 -120 61t-42 125q0 62 40 111.5t104 79.5t137.5 45.5t146.5 15.5q72 0 145 -15.5t137 -45.5t104 -79.5t40 -111.5q0 -159 -164 -186q89 -15 151 -74.5t62 -154.5q0 -89 -68 -156t-175 -100
t-232 -33zM555 594q106 0 182 34t76 95t-80.5 96t-177.5 35q-99 0 -179.5 -35t-80.5 -96t76.5 -95t183.5 -34zM555 999q209 0 209 103q0 51 -65.5 80.5t-143.5 29.5q-80 0 -145.5 -29.5t-65.5 -80.5q0 -103 211 -103z" />
    <glyph glyph-name="nine.superior" unicode="&#x2079;" horiz-adv-x="1103" 
d="M100 522l121 140q111 -66 271 -66q135 0 236 73t114 199q-187 -116 -383 -116q-95 0 -170.5 24.5t-121 65t-69.5 89.5t-24 103q0 146 119 241t307 95q101 0 194 -30t167.5 -86.5t118.5 -146.5t44 -200q0 -149 -75 -262t-196 -170t-266 -57q-35 0 -68.5 2.5t-63 8t-55 11
t-50.5 14.5t-42 15t-37 16t-29.5 14.5t-24.5 13t-17 9.5zM477 911q159 0 344 103q-37 85 -125.5 131.5t-199.5 46.5q-96 0 -160 -48.5t-64 -113.5q0 -46 51 -82.5t154 -36.5z" />
    <glyph glyph-name="parenleft.superior" unicode="&#x207d;" horiz-adv-x="604" 
d="M571 330l-100 -121q-190 98 -294.5 258t-104.5 364q0 206 104.5 366.5t294.5 258.5l100 -119q-137 -78 -219 -210t-82 -296q0 -163 82 -294t219 -207z" />
    <glyph glyph-name="parenright.superior" unicode="&#x207e;" horiz-adv-x="604" 
d="M33 1337l100 119q190 -99 294.5 -259t104.5 -366q0 -204 -105 -364t-294 -258l-100 121q136 77 217.5 207.5t81.5 293.5t-81.5 295.5t-217.5 210.5z" />
    <glyph glyph-name="n.superior" unicode="&#x207f;" horiz-adv-x="946" 
d="M324 451h-183v501q0 111 -16 207h164q7 -32 14 -100q49 61 98.5 93t130.5 32q120 0 203.5 -72.5t83.5 -181.5v-479h-182v479q0 40 -38.5 69t-96.5 29q-96 0 -178 -106v-471z" />
    <glyph glyph-name="zero.inferior" unicode="&#x2080;" horiz-adv-x="1181" 
d="M76 100q0 129 69.5 239t187 173t255.5 63q139 0 258.5 -63t189.5 -172.5t70 -239.5q0 -131 -70 -241t-189 -173t-259 -63q-138 0 -255.5 62.5t-187 173t-69.5 241.5zM274 100q0 -123 92 -211t222 -88q131 0 225 88t94 211q0 122 -94.5 209.5t-224.5 87.5t-222 -87.5
t-92 -209.5z" />
    <glyph glyph-name="one.inferior" unicode="&#x2081;" horiz-adv-x="655" 
d="M59 270l-43 160l265 113h200v-887h-200v706z" />
    <glyph glyph-name="two.inferior" unicode="&#x2082;" horiz-adv-x="974" 
d="M207 268l-119 140q56 42 88.5 63.5t88 50t115.5 41t130 12.5q99 0 182.5 -25.5t141 -85t57.5 -145.5q0 -58 -24.5 -106t-61 -78.5t-87 -55t-93.5 -39t-90 -27.5q-23 -6 -33 -9q-50 -15 -83.5 -29t-65 -35.5t-47 -52t-15.5 -69.5v-2h577v-160h-776v143q0 80 33 145t92 110
t127.5 75.5t151.5 50.5q23 5 46.5 12.5t62 24t62 42t23.5 56.5q0 43 -50.5 62.5t-123.5 19.5q-96 0 -167 -33.5t-142 -95.5z" />
    <glyph glyph-name="three.inferior" unicode="&#x2083;" horiz-adv-x="1093" 
d="M481 41v160h178q41 0 65 24.5t24 63.5q0 38 -29.5 63.5t-68.5 35t-83 9.5q-89 0 -173 -39t-150 -100l-121 121q212 196 448 196q63 0 125.5 -14t120.5 -42t94.5 -78.5t36.5 -116.5q0 -62 -26.5 -110t-57.5 -64q56 -14 104 -66t48 -145q0 -99 -65 -172t-172 -108.5
t-242 -35.5q-300 0 -494 191l121 139q155 -152 371 -152q122 0 202 39.5t80 110.5q0 90 -155 90h-181z" />
    <glyph glyph-name="four.inferior" unicode="&#x2084;" horiz-adv-x="1165" 
d="M1102 4v-162h-174v-186h-201v186h-674v135l705 566h170v-539h174zM352 8v-4h375v281h-16q-58 -46 -179 -138.5t-180 -138.5z" />
    <glyph glyph-name="five.inferior" unicode="&#x2085;" horiz-adv-x="1069" 
d="M887 543v-178h-557v-187q67 43 129 62.5t153 19.5q101 0 189 -32t146.5 -100.5t58.5 -160.5q0 -91 -41.5 -160t-112 -108t-152.5 -57.5t-174 -18.5q-258 0 -467 115l101 160q155 -97 368 -97q74 0 133.5 14t102.5 53t43 99q0 56 -59.5 89.5t-139.5 33.5
q-103 0 -180.5 -27t-155.5 -75l-125 86v469h740z" />
    <glyph glyph-name="six.inferior" unicode="&#x2086;" horiz-adv-x="1101" 
d="M1001 471l-120 -139q-106 65 -271 65q-136 0 -235.5 -73t-112.5 -199q189 117 381 117q184 0 284.5 -84.5t100.5 -198.5q0 -146 -119 -241t-307 -95q-101 0 -194 30t-167.5 86.5t-118.5 146.5t-44 200q0 112 43.5 205.5t117 154.5t170.5 95t205 34q206 0 379 -100z
M627 82q-155 0 -346 -102q37 -85 125.5 -132t199.5 -47q97 0 160 48.5t63 113.5q0 46 -50.5 82.5t-151.5 36.5z" />
    <glyph glyph-name="seven.inferior" unicode="&#x2087;" horiz-adv-x="976" 
d="M63 365v178h859v-178l-502 -709h-262l534 709h-629z" />
    <glyph glyph-name="eight.inferior" unicode="&#x2088;" horiz-adv-x="1107" 
d="M555 -379q-127 0 -234.5 33t-175 100t-67.5 156q0 95 62 154.5t149 74.5q-78 14 -120 61.5t-42 125.5q0 62 40 111.5t104 79.5t137.5 45.5t146.5 15.5q72 0 145 -15.5t137 -45.5t104 -79.5t40 -111.5q0 -160 -164 -187q89 -15 151 -74.5t62 -154.5q0 -89 -68 -156
t-175 -100t-232 -33zM555 -201q106 0 182 34t76 95t-80.5 96t-177.5 35q-99 0 -179.5 -35t-80.5 -96t76.5 -95t183.5 -34zM555 205q209 0 209 102q0 51 -65.5 81t-143.5 30q-50 0 -96.5 -12t-80.5 -38t-34 -61q0 -102 211 -102z" />
    <glyph glyph-name="nine.inferior" unicode="&#x2089;" horiz-adv-x="1101" 
d="M100 -272l121 139q111 -66 271 -66q135 0 236 73.5t114 199.5q-189 -117 -383 -117q-184 0 -284.5 84.5t-100.5 198.5q0 146 119 240.5t307 94.5q101 0 194 -30t167.5 -86t118.5 -146t44 -200q0 -149 -75 -262t-196 -170.5t-266 -57.5q-39 0 -77.5 4t-68 9t-61.5 14.5
t-51.5 16t-44.5 18t-35.5 17t-29 16t-19.5 10.5zM477 117q161 0 344 102q-37 85 -125.5 131.5t-199.5 46.5q-96 0 -160 -48t-64 -113q0 -46 51 -82.5t154 -36.5z" />
    <glyph glyph-name="colonmonetary" unicode="&#x20a1;" horiz-adv-x="1517" 
d="M1051 1391h133l-56 -252q152 -59 265 -166l-144 -123q-75 62 -164 102l-176 -790q103 22 198.5 79.5t168.5 131.5l141 -125q-107 -111 -250 -189t-301 -92l-55 -252h-131l55 252q-85 5 -184 33l-62 -285h-133l74 334q-154 82 -240 222t-86 309q0 240 161.5 414.5
t418.5 203.5l43 193h133l-41 -189q97 -3 185 -24zM594 190q81 -35 182 -38l187 841q-97 23 -187 23zM334 580q0 -95 37 -177t106 -141l162 733q-138 -41 -221.5 -155t-83.5 -260z" />
    <glyph glyph-name="franc" unicode="&#x20a3;" horiz-adv-x="1439" 
d="M113 219v141h206v803h1016v-202h-786v-216h475v-202h-475v-183h358v-141h-358v-219h-230v219h-206z" />
    <glyph glyph-name="lira" unicode="&#x20a4;" horiz-adv-x="1482" 
d="M131 651v144h264v57q0 70 27 129t72.5 99t106.5 68t128.5 41t138.5 13q98 0 234.5 -42.5t253.5 -110.5l-113 -158q-95 48 -198.5 78t-176.5 30q-99 0 -172 -38t-73 -109v-57h501v-144h-501v-133h501v-143h-501q-3 -89 -44.5 -133.5t-134.5 -59.5h912v-182h-1225v182h80
q102 0 141.5 38.5t42.5 154.5h-264v143h264v133h-264z" />
    <glyph glyph-name="peseta" unicode="&#x20a7;" horiz-adv-x="3139" 
d="M408 0h-228v1163h690q243 0 365 -125q30 -34 41 -49h178v293h211v-293h260v-166h-260v-577q0 -49 31 -75t86 -26q31 0 77.5 5.5t65.5 11.5l21 -166q-25 -16 -87.5 -26.5t-117.5 -10.5q-52 0 -100.5 15t-91.5 47t-69 90t-26 135v577h-123q2 -10 2 -26q0 -140 -100 -240
q-66 -66 -155 -95.5t-214 -29.5h-456v-432zM2966 911l-80 -161q-63 36 -167 68t-200 32q-86 0 -143.5 -29t-57.5 -86q0 -29 17.5 -50t41 -32.5t61 -18.5t62.5 -9t60 -4q50 -2 82 -4.5t86.5 -11t91 -20.5t80 -35.5t69.5 -54.5t44 -79t18 -107q0 -114 -62.5 -193t-164.5 -115
t-236 -36q-265 0 -491 152l80 159q64 -38 109.5 -61.5t131 -48.5t168.5 -25q112 0 183 39t71 109q0 27 -11 48.5t-33 34.5t-44.5 22.5t-56.5 14.5t-57 7t-58 4q-43 3 -70.5 5t-69.5 7t-70 11t-64 17.5t-59 26t-48 36t-39 48t-23.5 62.5t-9.5 78q0 70 24 125.5t63.5 90.5
t93.5 57.5t110 32t117 9.5q126 0 252.5 -36.5t198.5 -78.5zM870 961h-462v-328h456q135 0 197 59q45 45 45 105q0 58 -39 100q-60 64 -197 64z" />
    <glyph glyph-name="Euro" unicode="&#x20ac;" horiz-adv-x="1605" 
d="M115 651v144h207q70 181 238.5 294t379.5 113q154 0 293.5 -49t239.5 -137l-140 -158q-74 67 -177 104t-216 37q-115 0 -213 -55.5t-156 -148.5h537v-144h-592q-4 -23 -4 -69q0 -44 4 -64h592v-143h-539q56 -97 154.5 -154t216.5 -57q116 0 225 42.5t185 115.5l139 -158
q-110 -96 -251 -149.5t-298 -53.5q-212 0 -382 115.5t-239 298.5h-204v143h172q-4 40 -4 64q0 46 4 69h-172z" />
    <glyph glyph-name="peso" unicode="&#x20b1;" horiz-adv-x="1669" 
d="M74 664v141h207v358h653q231 0 354 -129q92 -98 109 -229h192v-141h-192q-17 -132 -125 -240q-65 -65 -140.5 -93t-197.5 -28h-424v-303h-229v664h-207zM934 961h-424v-156h661q-7 42 -47 90q-32 36 -73 51t-117 15zM1110 567q41 41 55 97h-655v-156h420q73 0 109.5 13.5
t70.5 45.5z" />
    <glyph glyph-name="Rupee" unicode="&#x20b9;" horiz-adv-x="1669" 
d="M219 664v141h891q-10 48 -47 90q-32 36 -73.5 51t-117.5 15h-653v202h1309v-141h-309q98 -78 118 -217h191v-141h-193q-19 -139 -125 -240q-66 -53 -139.5 -76.5t-198.5 -23.5l-200 14l606 -338h-420l-639 369v139h649q70 0 109 13t72 46q44 44 57 97h-887z" />
    <glyph glyph-name="litre" unicode="&#x2113;" horiz-adv-x="1126" 
d="M154 225l-54 154l226 121v391q0 414 325 414q158 0 251 -91t93 -235q0 -150 -120.5 -290.5t-339.5 -260.5v-164q0 -45 21.5 -71t48 -32.5t63.5 -6.5q105 0 225 59l33 -164q-80 -47 -139 -63.5t-125 -16.5t-121 13t-106 44t-80 91.5t-29 146.5v53zM535 891v-277
q125 73 188 165.5t63 181.5q0 75 -34.5 117t-96.5 42q-26 0 -45 -8.5t-37.5 -31t-28 -70.5t-9.5 -119z" />
    <glyph glyph-name="soundrecordingcopyright" unicode="&#x2117;" horiz-adv-x="2033" 
d="M1016 -297q-185 0 -353.5 67t-290.5 180t-194 270.5t-72 330.5q0 231 122.5 426t332 307.5t455.5 112.5q184 0 352.5 -66.5t291 -179.5t195 -270t72.5 -330t-72.5 -330.5t-195 -270.5t-291 -180t-352.5 -67zM1014 -152q200 0 371 95t271.5 257.5t100.5 352.5
q0 189 -100.5 350t-271.5 254.5t-371 93.5q-150 0 -287 -55.5t-235.5 -149.5t-157 -223t-58.5 -270q0 -142 58.5 -272t157 -225t235.5 -151.5t287 -56.5zM1174 403h-300v-231h-190v793h438q49 0 95.5 -6.5t98 -25t89.5 -47.5t63 -79.5t25 -116.5q0 -72 -28 -128.5t-74 -90
t-101.5 -51t-115.5 -17.5zM874 799v-230h300q50 0 89.5 28.5t39.5 90.5q0 57 -39.5 84t-89.5 27h-300z" />
    <glyph glyph-name="servicemark" unicode="&#x2120;" horiz-adv-x="1861" 
d="M1706 668h-152v401h-6l-194 -330h-19l-194 330h-6v-401h-144v669h152l207 -358h2l209 358h145v-669zM750 1266l-86 -99q-29 27 -93 47.5t-149 20.5q-117 0 -117 -74q0 -18 11.5 -29.5t31.5 -17t46 -9t56 -5.5q19 -1 29 -2q132 -11 191 -34q123 -50 123 -187
q0 -120 -80 -176t-211 -56q-222 0 -385 146l86 96q130 -115 303 -115q60 0 97.5 22t37.5 62q0 45 -35 64.5t-127 27.5q-43 3 -67 5.5t-63.5 9t-62.5 14.5t-51.5 23t-43.5 34.5t-26 48t-11 64.5q0 60 24.5 104t65.5 67t86.5 33.5t97.5 10.5q99 0 185.5 -29.5t136.5 -66.5z
" />
    <glyph glyph-name="trademark" unicode="&#x2122;" horiz-adv-x="1769" 
d="M1599 668h-151v401h-6l-195 -330h-18l-195 330h-6v-401h-143v669h151l207 -358h2l209 358h145v-669zM109 1214v123h602v-123h-226v-546h-151v546h-225z" />
    <glyph glyph-name="estimated" unicode="&#x212e;" horiz-adv-x="1646" 
d="M455 897v-178q0 -4 4.5 -8t7.5 -4h723q16 0 16 12v178q0 19 -12 43q-57 91 -149.5 140.5t-210.5 49.5q-102 0 -210.5 -54.5t-154.5 -135.5q-14 -22 -14 -43zM1479 309q-122 -174 -289.5 -260t-355.5 -86q-132 0 -260.5 48t-229 131.5t-161.5 205.5t-60 260
q0 114 40 216.5t109 178.5t159.5 132.5t193.5 85t209 28.5q142 0 269.5 -46t224.5 -129t154.5 -208.5t57.5 -275.5h-1073q-3 0 -7.5 -5.5t-4.5 -11.5v-245q0 -40 14 -58q157 -188 365 -188q117 0 220.5 59t184.5 168h240z" />
    <glyph glyph-name="onethird" unicode="&#x2153;" horiz-adv-x="2199" 
d="M59 1065l-43 160l265 112h200v-886h-200v706zM1174 1337h180l-758 -1337h-182zM1587 385v160h178q41 0 64.5 24.5t23.5 63.5q0 56 -54.5 82t-125.5 26q-89 0 -173 -39t-150 -100l-121 121q213 197 448 197q62 0 125 -14t121 -42.5t94.5 -79t36.5 -116.5q0 -62 -26.5 -110
t-57.5 -64q56 -14 104 -66t48 -145q0 -99 -65 -172t-172.5 -108.5t-242.5 -35.5q-299 0 -493 191l121 139q155 -152 370 -152q122 0 202.5 39.5t80.5 110.5q0 90 -156 90h-180z" />
    <glyph glyph-name="twothirds" unicode="&#x2154;" horiz-adv-x="2519" 
d="M207 1063l-119 139q57 42 89 63.5t87.5 50.5t115.5 41.5t130 12.5q99 0 182.5 -25.5t141 -85t57.5 -145.5q0 -58 -24.5 -106t-61 -78.5t-87 -55t-93.5 -39t-90 -27.5q-23 -6 -33 -9q-103 -31 -157 -71.5t-54 -115.5v-2h577v-159h-776v143q0 80 33 145t92 110t127.5 75.5
t151.5 50.5q23 5 46.5 12.5t62 24t62 42t23.5 56.5q0 43 -50.5 62.5t-123.5 19.5q-96 0 -167 -33.5t-142 -95.5zM1493 1337h180l-758 -1337h-182zM1907 385v160h178q41 0 64.5 24.5t23.5 63.5q0 56 -54.5 82t-125.5 26q-89 0 -173.5 -39t-150.5 -100l-121 121
q213 197 449 197q62 0 125 -14t121 -42.5t94.5 -79t36.5 -116.5q0 -62 -26.5 -110t-57.5 -64q56 -14 103.5 -66t47.5 -145q0 -99 -65 -172t-172 -108.5t-242 -35.5q-300 0 -494 191l121 139q155 -152 371 -152q122 0 202.5 39.5t80.5 110.5q0 90 -156 90h-180z" />
    <glyph glyph-name="oneeighth" unicode="&#x215b;" horiz-adv-x="2213" 
d="M59 1065l-43 160l265 112h200v-886h-200v706zM1174 1337h180l-758 -1337h-182zM1661 -35q-127 0 -234.5 33t-175 100t-67.5 156q0 95 62 154.5t149 74.5q-78 14 -120 61.5t-42 125.5q0 62 40 111.5t104 79.5t137.5 45.5t146.5 15.5q72 0 145 -15.5t137 -45.5t104 -79.5
t40 -111.5q0 -160 -164 -187q89 -15 151 -74.5t62 -154.5q0 -89 -68 -156t-175 -100t-232 -33zM1661 143q106 0 182 34t76 95t-80.5 96t-177.5 35q-99 0 -179.5 -35t-80.5 -96t76.5 -95t183.5 -34zM1661 549q209 0 209 102q0 51 -65.5 81t-143.5 30q-50 0 -96.5 -12
t-80.5 -38t-34 -61q0 -102 211 -102z" />
    <glyph glyph-name="threeeighths" unicode="&#x215c;" horiz-adv-x="2654" 
d="M483 836v159h179q41 0 64.5 24.5t23.5 63.5q0 56 -55 82.5t-126 26.5q-89 0 -173 -39t-150 -100l-121 121q212 196 448 196q62 0 125 -14t121 -42.5t94.5 -79t36.5 -116.5q0 -62 -26.5 -110t-57.5 -64q56 -14 104 -66t48 -145q0 -99 -65 -171.5t-172 -108t-242 -35.5
q-301 0 -494 190l121 140q155 -152 371 -152q122 0 202 39t80 110q0 91 -155 91h-181zM1614 1337h180l-758 -1337h-182zM2101 -35q-127 0 -234.5 33t-175 100t-67.5 156q0 95 62 154.5t149 74.5q-78 14 -120 61.5t-42 125.5q0 62 40 111.5t104 79.5t137.5 45.5t146.5 15.5
q72 0 145 -15.5t137 -45.5t104 -79.5t40 -111.5q0 -160 -164 -187q89 -15 151 -74.5t62 -154.5q0 -89 -68 -156t-175 -100t-232 -33zM2101 143q106 0 182 34t76 95t-80.5 96t-177.5 35q-99 0 -179.5 -35t-80.5 -96t76.5 -95t183.5 -34zM2101 549q209 0 209 102
q0 51 -65.5 81t-143.5 30q-50 0 -96.5 -12t-80.5 -38t-34 -61q0 -102 211 -102z" />
    <glyph glyph-name="fiveeighths" unicode="&#x215d;" horiz-adv-x="2627" 
d="M887 1337v-178h-557v-186q67 43 129 62.5t153 19.5q101 0 189 -32t146.5 -100.5t58.5 -160.5q0 -91 -41.5 -160t-112 -108t-152.5 -57.5t-174 -18.5q-260 0 -467 114l101 160q153 -96 368 -96q74 0 133.5 14t102.5 53t43 99q0 56 -59.5 89.5t-139.5 33.5q-103 0 -180 -27
t-156 -76l-125 86v469h740zM1587 1337h180l-757 -1337h-183zM2075 -35q-127 0 -234.5 33t-175.5 100t-68 156q0 95 62 154.5t149 74.5q-78 14 -119.5 61.5t-41.5 125.5q0 62 40 111.5t104 79.5t137.5 45.5t146.5 15.5q72 0 145 -15.5t137 -45.5t104 -79.5t40 -111.5
q0 -160 -164 -187q89 -15 151 -74.5t62 -154.5q0 -89 -68 -156t-175 -100t-232 -33zM2075 143q106 0 182 34t76 95t-80.5 96t-177.5 35q-99 0 -179.5 -35t-80.5 -96t76.5 -95t183.5 -34zM2075 549q209 0 209 102q0 51 -65.5 81t-143.5 30q-50 0 -96.5 -12t-80.5 -38t-34 -61
q0 -102 211 -102z" />
    <glyph glyph-name="seveneighths" unicode="&#x215e;" horiz-adv-x="2428" 
d="M63 1159v178h859v-178l-502 -708h-262l534 708h-629zM1389 1337h180l-758 -1337h-182zM1876 -35q-127 0 -234.5 33t-175 100t-67.5 156q0 95 62 154.5t149 74.5q-78 14 -120 61.5t-42 125.5q0 62 40 111.5t104 79.5t137.5 45.5t146.5 15.5q72 0 145 -15.5t137 -45.5
t104 -79.5t40 -111.5q0 -160 -164 -187q89 -15 151 -74.5t62 -154.5q0 -89 -68 -156t-175 -100t-232 -33zM1876 143q106 0 182 34t76 95t-80.5 96t-177.5 35q-99 0 -179.5 -35t-80.5 -96t76.5 -95t183.5 -34zM1876 549q209 0 209 102q0 51 -65.5 81t-143.5 30
q-50 0 -96.5 -12t-80.5 -38t-34 -61q0 -102 211 -102z" />
    <glyph glyph-name="arrowleft" unicode="&#x2190;" horiz-adv-x="1691" 
d="M1188 623l313 4v-205l-313 6l-715 4l-90 2l-2 -8l115 -86l397 -397l-133 -140l-694 693v57l694 692l133 -139l-397 -395l-115 -86l2 -11l90 4z" />
    <glyph glyph-name="arrowup" unicode="&#x2191;" horiz-adv-x="1693" 
d="M942 117l6 -312h-205l5 312l4 717l4 90l-8 4l-86 -117l-406 -405l-141 133l700 702h57l703 -702l-139 -133l-408 405l-86 117l-8 -4l4 -93z" />
    <glyph glyph-name="arrowright" unicode="&#x2192;" horiz-adv-x="1691" 
d="M190 627l314 -4l715 -5l90 -4l2 11l-115 86l-397 395l133 139l694 -692v-57l-694 -693l-133 140l397 397l115 86l-2 8l-90 -2l-715 -4l-314 -6v205z" />
    <glyph glyph-name="arrowdown" unicode="&#x2193;" horiz-adv-x="1693" 
d="M948 1241l-6 -311l-4 -715l-4 -92l8 -4l86 117l408 405l139 -133l-703 -703h-57l-700 703l141 133l406 -405l86 -117l8 4l-4 90l-4 717l-5 311h205z" />
    <glyph glyph-name="arrowupleft" unicode="&#x2196;" horiz-adv-x="1691" 
d="M1274 203l223 -215l-145 -146l-248 256l-565 570l-64 69l-10 -6l27 -143v-588h-193v999l41 41h997v-194h-583l-148 26l-4 -10l68 -61z" />
    <glyph glyph-name="arrowupright" unicode="&#x2197;" horiz-adv-x="1691" 
d="M197 -12l223 215l604 598l68 61l-5 10l-147 -26h-584v194h998l41 -41v-999h-193v588l27 143l-10 6l-64 -69l-565 -570l-248 -256z" />
    <glyph glyph-name="arrowdownright" unicode="&#x2198;" horiz-adv-x="1691" 
d="M420 838l-223 215l145 145l248 -256l565 -569l64 -70l10 6l-27 144v587h193v-999l-41 -41h-998v195h584l147 -27l5 10l-68 62z" />
    <glyph glyph-name="arrowdownleft" unicode="&#x2199;" horiz-adv-x="1691" 
d="M1497 1053l-223 -215l-604 -598l-68 -62l4 -10l148 27h583v-195h-997l-41 41v999h193v-587l-27 -144l10 -6l64 70l565 569l248 256z" />
    <glyph glyph-name="partialdiff" unicode="&#x2202;" horiz-adv-x="1333" 
d="M606 940q112 0 210.5 -46t160.5 -114v29q0 35 -14 76t-51.5 89.5t-94 87.5t-152 65t-214.5 26v186q132 0 241 -22t185.5 -59.5t135.5 -91.5t94.5 -113.5t58 -131t30.5 -137.5t8 -139q0 -140 -31 -255.5t-84 -194t-126 -132t-154.5 -78t-171.5 -24.5q-99 0 -192 30.5
t-169.5 89t-123 154t-46.5 214.5q0 96 30 177.5t80 138t115 97t135 59.5t140 19zM627 129q68 0 128.5 24.5t111.5 73t84.5 128t41.5 182.5q-61 100 -161 167.5t-209 67.5q-58 0 -112.5 -20.5t-98.5 -59.5t-70.5 -102t-26.5 -141q0 -152 92 -236t220 -84z" />
    <glyph glyph-name="product" unicode="&#x220f;" horiz-adv-x="1658" 
d="M104 1133v204h1452v-204h-206v-1352h-230v1352h-583v-1352h-230v1352h-203z" />
    <glyph glyph-name="summation" unicode="&#x2211;" horiz-adv-x="1478" 
d="M1364 1337v-204h-875l615 -504v-135l-615 -508h875v-205h-1264v143l764 631v12l-764 627v143h1264z" />
    <glyph glyph-name="minus" unicode="&#x2212;" horiz-adv-x="1550" 
d="M184 436v189h1180v-189h-1180z" />
    <glyph glyph-name="radical" unicode="&#x221a;" horiz-adv-x="1380" 
d="M55 991h371l254 -676l448 1229h209l-589 -1544h-142l-327 823h-224v168z" />
    <glyph glyph-name="infinity" unicode="&#x221e;" horiz-adv-x="2144" 
d="M553 932h25q177 0 358 -152l135 -116l137 116q183 152 355 152h24q182 0 306 -115t124 -268v-37q0 -98 -55 -185t-155 -140.5t-220 -53.5h-24q-172 0 -355 150l-137 110l-137 -112q-182 -148 -356 -148h-25q-180 0 -303 113.5t-123 265.5v37q0 153 123 268t303 115z
M1352 657l-154 -125l154 -124q115 -95 211 -95h24q97 0 164.5 60t67.5 139v37q0 81 -67 141t-165 60h-24q-41 0 -98 -24t-113 -69zM324 549v-37q0 -79 66 -139t163 -60h25q103 0 213 95l147 124l-147 125q-112 93 -213 93h-25q-98 0 -163.5 -60t-65.5 -141z" />
    <glyph glyph-name="integral" unicode="&#x222b;" horiz-adv-x="878" 
d="M782 1481v-187h-118q-54 0 -84.5 -38.5t-30.5 -92.5v-1284q0 -111 -88 -186.5t-254 -75.5h-101v186h119q55 0 85 37.5t30 93.5v1285q0 109 64.5 185.5t185.5 76.5h192z" />
    <glyph glyph-name="approxequal" unicode="&#x2248;" horiz-adv-x="1550" 
d="M184 162v190q163 115 320 115q79 0 139 -20t125 -56q139 -80 256 -80q80 0 172.5 33.5t167.5 87.5v-194q-162 -117 -340 -117q-135 0 -262 76q-46 25 -77.5 39.5t-81 27t-101.5 12.5q-163 0 -318 -114zM184 664v190q160 113 320 113q79 0 139 -20t125 -56
q139 -80 256 -80q80 0 172.5 34t167.5 89v-195q-159 -118 -340 -118q-137 0 -262 75q-47 26 -77.5 40t-80.5 27t-102 13q-161 0 -318 -112z" />
    <glyph glyph-name="notequal" unicode="&#x2260;" horiz-adv-x="1550" 
d="M184 686v191h684l131 206h207l-131 -206h289v-191h-408l-194 -309h602v-191h-723l-129 -206h-209l129 206h-248v191h369l195 309h-564z" />
    <glyph glyph-name="lessequal" unicode="&#x2264;" horiz-adv-x="1550" 
d="M184 0v190h1180v-190h-1180zM1364 1200v-213l-913 -239v-25l913 -238v-213l-1180 359v209z" />
    <glyph glyph-name="greaterequal" unicode="&#x2265;" horiz-adv-x="1550" 
d="M1364 190v-190h-1180v190h1180zM184 987v213l1180 -360v-209l-1180 -359v213l914 238v25z" />
    <glyph glyph-name="squarecrossed" unicode="&#x22a0;" horiz-adv-x="1730" 
d="M197 1337h1335v-1337h-1335v1337zM485 217l-55 -53l4 -4l119 6h623l118 -6l4 4l-55 53l-360 361l-21 22l-20 -22zM430 1174l55 -54l357 -358l20 -25l21 25l360 358l53 54l-4 4l-116 -7h-623l-119 7zM358 1106l-4 -4l6 -111v-637l-6 -118l4 -3l50 56l360 360l25 19l-25 22
l-360 363zM1374 1102l-4 4l-47 -53l-385 -385l23 -19l362 -360l47 -56l4 3l-6 118v637z" />
    <glyph glyph-name="blacksquare" unicode="&#x25a0;" horiz-adv-x="1482" 
d="M162 1163h1161v-1163h-1161v1163z" />
    <glyph glyph-name="whitesquare" unicode="&#x25a1;" horiz-adv-x="1730" 
d="M197 1337h1335v-1337h-1335v1337zM373 1171v-1005h985v1005h-985z" />
    <glyph glyph-name="blacksmallsquare" unicode="&#x25aa;" horiz-adv-x="960" 
d="M172 911h616v-616h-616v616z" />
    <glyph glyph-name="blackuppointingtriangle" unicode="&#x25b2;" horiz-adv-x="1353" 
d="M664 1206h18l575 -1188v-18h-1171v18z" />
    <glyph glyph-name="blackrightpointingtriangle" unicode="&#x25b6;" horiz-adv-x="1544" 
d="M190 1110h19l1188 -580v-18l-1188 -578h-19v1176z" />
    <glyph glyph-name="blackdownpointingtriangle" unicode="&#x25bc;" horiz-adv-x="1353" 
d="M86 991h1171v-20l-575 -1186h-18l-578 1186v20z" />
    <glyph glyph-name="blackleftpointingtriangle" unicode="&#x25c0;" horiz-adv-x="1544" 
d="M147 530l1186 580h19v-1176h-19l-1186 578v18z" />
    <glyph glyph-name="lozenge" unicode="&#x25ca;" horiz-adv-x="1370" 
d="M621 1337h129l522 -600v-133l-522 -604h-129l-523 604v133zM684 1104l-375 -432v-4l375 -435h2l375 433v6l-375 432h-2z" />
    <glyph glyph-name="whitecircle" unicode="&#x25cb;" horiz-adv-x="1714" 
d="M102 662q0 153 60.5 292.5t162 239.5t240.5 159.5t291 59.5q153 0 292.5 -59.5t240.5 -159.5t161 -239.5t60 -292.5t-60 -292.5t-161 -240.5t-240.5 -161t-292.5 -60q-203 0 -376.5 101t-275.5 275t-102 378zM287 662q0 -159 76 -294t207 -213.5t286 -78.5
q156 0 287.5 78.5t207.5 213.5t76 294q0 119 -45 227t-121.5 186t-182 124t-222.5 46q-155 0 -286 -77.5t-207 -212t-76 -293.5z" />
    <glyph glyph-name="blackcircle" unicode="&#x25cf;" horiz-adv-x="1464" 
d="M113 582q0 126 49 241t131.5 198t197 132t240.5 49q168 0 311 -83t226.5 -226t83.5 -311t-83.5 -310.5t-226.5 -225.5t-311 -83t-310.5 83t-225 225.5t-82.5 310.5z" />
    <glyph glyph-name="blackmediumsquare" unicode="&#x25fc;" horiz-adv-x="1122" 
d="M162 991h799v-798h-799v798z" />
    <glyph glyph-name="blackmediumcircle" unicode="&#x26ab;" horiz-adv-x="1124" 
d="M563 1034q185 0 314 -126t129 -308q0 -181 -129 -306.5t-314 -125.5q-187 0 -315.5 125t-128.5 307q0 183 128.5 308.5t315.5 125.5z" />
    <glyph glyph-name="circlecrossed" unicode="&#x2a02;" horiz-adv-x="1714" 
d="M102 662q0 153 60.5 292.5t162 239.5t240.5 159.5t291 59.5q153 0 292.5 -59.5t240.5 -159.5t161 -239.5t60 -292.5t-60 -292.5t-161 -240.5t-240.5 -161t-292.5 -60q-203 0 -376.5 101t-275.5 275t-102 378zM856 70q218 0 379 145l-358 360l-21 23l-20 -23l-357 -360
q161 -145 377 -145zM1307 295q127 159 127 367q0 205 -136 374l-348 -344l-20 -20zM762 692l-348 344q-133 -165 -133 -374q0 -208 125 -365l356 354l22 21zM856 1251q-202 0 -367 -135l347 -348l20 -25l21 25l346 348q-161 135 -367 135z" />
    <glyph glyph-name="blacklargesquare" unicode="&#x2b1b;" horiz-adv-x="1730" 
d="M197 1337h1335v-1337h-1335v1337z" />
    <glyph glyph-name="blacklargecircle" unicode="&#x2b24;" horiz-adv-x="1714" 
d="M102 662q0 153 60.5 292.5t162 239.5t240.5 159.5t291 59.5q153 0 292.5 -59.5t240.5 -159.5t161 -239.5t60 -292.5t-60 -292.5t-161 -240.5t-240.5 -161t-292.5 -60q-203 0 -376.5 101t-275.5 275t-102 378z" />
    <glyph glyph-name="commaaccent" unicode="&#xf6c3;" 
d="M440 -121l174 35q29 -25 47.5 -44.5t37 -59.5t18.5 -84q0 -105 -85 -168.5t-233 -63.5q-64 0 -114 14v130q36 -7 94 -7q139 0 139 107q0 42 -20.5 74t-57.5 67z" />
    <glyph glyph-name="rupiah" unicode="&#xf6dd;" horiz-adv-x="2686" 
d="M1573 991h194q15 -74 15 -139q40 62 128.5 116t196.5 54q99 0 188 -38t155 -106t104.5 -168t38.5 -218q0 -115 -39 -214t-105 -166t-154.5 -105t-187.5 -38q-169 0 -305 152v-545h-211v1143q0 178 -18 272zM2087 154q116 0 194 93.5t78 244.5q0 153 -78.5 248.5
t-193.5 95.5q-69 0 -134 -28.5t-96.5 -56t-54.5 -55.5v-405q134 -137 285 -137zM418 0h-228v1163h684q245 0 371 -129q98 -101 98 -235q0 -117 -74.5 -206t-195.5 -128l291 -465h-262l-262 432h-422v-432zM874 961h-456v-328h489q86 0 147.5 49t61.5 115q0 54 -41 98
q-36 40 -83.5 53t-117.5 13z" />
    <glyph glyph-name="sweetfonts.com" unicode="&#xf8ff;" horiz-adv-x="2048" 
d="M702 868q0 134 94 228t228 94t228 -94t94 -228q0 -133 -94 -227t-228 -94t-228 94t-94 227zM1446 877l485 280q6 5 11.5 2t5.5 -10v-561q0 -7 -5.5 -10t-11.5 2l-485 280q-4 3 -4 8.5t4 8.5zM100 588v561q0 7 5.5 10t11.5 -2l485 -280q6 -3 6 -8.5t-6 -8.5l-485 -280
q-6 -5 -11.5 -2t-5.5 10zM1798 0v238h-117v41h283v-41h-117v-238h-49zM1350 0v279h239v-41h-190v-66h127v-41h-127v-90h203v-41h-252zM967 0v279h239v-41h-190v-66h127v-41h-127v-90h203v-41h-252zM549 0l-96 279h51l61 -203h4l70 203h31l67 -203h4l66 203h47l-100 -279h-33
l-68 199h-4l-67 -199h-33zM76 45l24 31q67 -43 125 -43q101 0 101 49q0 17 -14 26.5t-31 11.5t-45 3h-7q-67 2 -104 18t-37 58q0 34 31.5 59t91.5 25q74 0 141 -37l-24 -33q-52 31 -117 31q-38 0 -58 -12.5t-20 -30.5q0 -19 24 -25t72 -8q69 -2 105.5 -19t36.5 -65
q0 -43 -41.5 -66.5t-104.5 -23.5q-85 0 -149 51z" />
    <glyph glyph-name="one.alt" horiz-adv-x="645" 
d="M209 0v1163h227v-1163h-227z" />
    <glyph glyph-name="dollar.superior" horiz-adv-x="1060" 
d="M469 1511h131v-149q206 -26 361 -131l-115 -131q-88 73 -246 96v-186q57 -4 104 -12t101.5 -28t92 -49.5t62.5 -80.5t25 -117q0 -80 -30 -139.5t-84 -95t-121.5 -52.5t-149.5 -18v-185h-131v191q-227 31 -406 182l113 129q134 -111 293 -141v242q-62 6 -108 14.5
t-95.5 26.5t-80.5 44.5t-51.5 69t-20.5 99.5q0 61 21 109.5t55 79.5t81.5 51.5t96 29.5t102.5 10v141zM797 696q0 60 -45 88.5t-152 40.5v-241q90 0 143.5 27.5t53.5 84.5zM301 1108q0 -74 168 -92v188q-168 -3 -168 -96z" />
    <glyph glyph-name="cent.superior" horiz-adv-x="901" 
d="M522 1325h133l-32 -149q115 -27 208 -99l-122 -123q-48 37 -119 60l-90 -426q109 6 209 90l122 -115q-16 -18 -42.5 -38t-70 -44t-106.5 -39.5t-133 -15.5h-14l-41 -193h-133l45 216q-119 38 -192.5 134.5t-73.5 229.5q0 169 115 275t284 106h25zM270 813
q0 -67 27.5 -117.5t75.5 -79.5l88 416q-81 -3 -136 -63.5t-55 -155.5z" />
    <glyph glyph-name="Euro.superior" horiz-adv-x="1148" 
d="M78 940v123h153q52 135 174.5 221t272.5 86q113 0 213.5 -37t173.5 -104l-121 -139q-50 48 -120 75t-146 27q-71 0 -130 -34.5t-97 -94.5h350v-123h-398q-2 -14 -2 -45t2 -45h398v-123h-352q37 -61 97.5 -96t131.5 -35q79 0 153 31.5t127 85.5l121 -140
q-168 -155 -401 -155q-150 0 -272.5 86t-174.5 223h-153v123h125q-2 14 -2 45t2 45h-125z" />
    <glyph glyph-name="sterling.superior" horiz-adv-x="1054" 
d="M84 852v143h178v105q0 67 30.5 120t81.5 85t112 48.5t128 16.5q73 0 174 -33t189 -86l-100 -139q-66 35 -139 57.5t-124 22.5q-61 0 -106 -24t-45 -68v-105h344v-143h-344v-92q0 -69 -31.5 -103.5t-105.5 -46.5h649v-159h-891v159h57q69 0 95 30t26 120v92h-178z" />
    <glyph glyph-name="yen.superior" horiz-adv-x="1175" 
d="M82 940v123h240l-211 274h254l231 -309l231 309h234l-211 -274h244v-123h-338l-68 -90h406v-123h-406v-276h-201v276h-405v123h405l-69 90h-336z" />
    <glyph glyph-name="numbersign.superior" horiz-adv-x="1314" 
d="M864 1413h146l-47 -268h282v-144h-307l-43 -245h266v-144h-293l-53 -311h-147l55 311h-227l-54 -311h-147l55 311h-280v144h305l43 245h-262v144h288l48 268h145l-47 -268h227zM565 1001l-43 -245h226l43 245h-226z" />
    <glyph glyph-name="percent.superior" horiz-adv-x="1562" 
d="M70 1149q0 111 84.5 191.5t205.5 80.5q120 0 207.5 -81t87.5 -191q0 -114 -87 -194.5t-208 -80.5t-205.5 80.5t-84.5 194.5zM1128 1395l-534 -944h-158l537 944h155zM240 1149q0 -50 35.5 -85.5t84.5 -35.5q51 0 88 36t37 85t-37 84t-88 35q-50 0 -85 -35t-35 -84z
M909 698q0 111 85 192t206 81t208 -81t87 -192q0 -112 -86.5 -192t-208.5 -80q-121 0 -206 79.5t-85 192.5zM1079 698q0 -49 35.5 -84.5t85.5 -35.5q52 0 88.5 35t36.5 85t-36.5 84.5t-88.5 34.5q-50 0 -85.5 -35t-35.5 -84z" />
    <glyph glyph-name="period.superior" horiz-adv-x="475" 
d="M102 547q0 53 39 89t97 36q57 0 97 -36.5t40 -88.5q0 -51 -40 -87t-97 -36q-58 0 -97 36t-39 87z" />
    <glyph glyph-name="comma.superior" horiz-adv-x="505" 
d="M109 162l-56 117q39 8 87.5 32.5t80.5 55.5q33 33 41 65q-8 -2 -24 -2q-58 0 -98 35t-40 86q0 50 40 85.5t98 35.5q67 0 119.5 -50t52.5 -124q0 -71 -28.5 -130.5t-76.5 -98.5t-95 -64t-101 -43z" />
    <glyph glyph-name="hyphen.superior" horiz-adv-x="589" 
d="M109 715v182h372v-182h-372z" />
    <glyph glyph-name="zero.tos" horiz-adv-x="1409" 
d="M92 582q0 102 31 197t88 171t132 133t167.5 88t191.5 31q123 0 236.5 -48.5t196.5 -131t132.5 -198t49.5 -242.5q0 -170 -83.5 -313.5t-225 -225.5t-306.5 -82t-305 82t-222.5 225t-82.5 314zM319 582q0 -173 112 -296.5t271 -123.5q158 0 273 124t115 296t-115 295.5
t-273 123.5q-159 0 -271 -123.5t-112 -295.5z" />
    <glyph glyph-name="one.tos" horiz-adv-x="1409" 
d="M248 0v180h444v776l-434 -127l-51 185l485 149h228v-983h337v-180h-1009z" />
    <glyph glyph-name="two.tos" horiz-adv-x="1409" 
d="M291 829l-133 160q71 51 120 81t122.5 64.5t156.5 51t180 16.5q102 0 194.5 -19.5t168.5 -58t121 -104t45 -148.5q0 -75 -37 -137.5t-78 -98.5t-127.5 -72t-125 -47.5t-131.5 -35.5q-30 -8 -44 -12q-79 -21 -135 -42t-108 -53t-78.5 -77.5t-26.5 -103.5v-13h864v-180
h-1092v172q0 361 570 498q42 8 85 19.5t102.5 34.5t96.5 60t37 82q0 46 -45 78t-109 44.5t-141 12.5q-97 0 -182.5 -25.5t-141.5 -58.5t-128 -88z" />
    <glyph glyph-name="three.tos" horiz-adv-x="1409" 
d="M629 520v182h184q70 0 119 38t49 98q0 57 -41 95.5t-95 53t-116 14.5q-113 0 -221.5 -53.5t-196.5 -134.5l-139 139q270 250 561 250q81 0 160.5 -18t152.5 -54t118.5 -101.5t45.5 -151.5q0 -83 -44 -146.5t-95 -85.5q37 -9 73 -27t73 -49.5t60 -84t23 -117.5
q0 -127 -82.5 -221t-219.5 -140.5t-308 -46.5q-376 0 -622 246l139 160q200 -203 483 -203q164 0 273.5 59t109.5 160q0 41 -23 70.5t-61 43.5t-74.5 19.5t-76.5 5.5h-209z" />
    <glyph glyph-name="four.tos" horiz-adv-x="1409" 
d="M1325 436v-180h-217v-256h-229v256h-824v158l856 749h197v-727h217zM399 442v-6h480v432h-17z" />
    <glyph glyph-name="five.tos" horiz-adv-x="1409" 
d="M1161 1163v-202h-751v-299q60 30 85.5 41.5t78 30.5t104 26.5t113.5 7.5q99 0 190 -24t165 -70t118.5 -120t44.5 -167q0 -91 -36 -165t-95.5 -122t-141 -80.5t-168 -46.5t-180.5 -14q-332 0 -600 184l119 160q213 -141 483 -141q75 0 141.5 12t124 37t91.5 69.5t34 104.5
t-43 103.5t-109.5 64t-144.5 20.5q-132 0 -232 -28.5t-208 -81.5l-139 100v600h956z" />
    <glyph glyph-name="six.tos" horiz-adv-x="1409" 
d="M1245 1083l-119 -159q-145 77 -348 77q-116 0 -216 -45.5t-166.5 -137t-76.5 -212.5q236 160 498 160q120 0 215.5 -32.5t153.5 -86.5t88.5 -118.5t30.5 -133.5q0 -187 -150.5 -310.5t-386.5 -123.5q-101 0 -196.5 24t-179 74t-146.5 120t-99 169t-36 215q0 146 54.5 268
t147.5 202.5t214.5 124.5t256.5 44q73 0 143.5 -11t113 -21.5t95.5 -33t64 -28.5t45 -25zM797 582q-215 0 -461 -146q43 -131 163 -202.5t273 -71.5q131 0 218 71t87 166q0 71 -70 127t-210 56z" />
    <glyph glyph-name="seven.tos" horiz-adv-x="1409" 
d="M113 961v202h1181v-205l-721 -958h-299l758 961h-919z" />
    <glyph glyph-name="eight.tos" horiz-adv-x="1409" 
d="M705 -43q-115 0 -221 25.5t-189 72.5t-132.5 119.5t-49.5 159.5q0 125 81 203.5t197 99.5q-102 19 -157.5 81.5t-55.5 162.5q0 80 49.5 144.5t128 102.5t169 58t180.5 20q91 0 181 -20t168.5 -58t127.5 -102.5t49 -144.5q0 -206 -215 -244q117 -21 198.5 -99.5
t81.5 -203.5q0 -115 -85.5 -203t-218 -131t-287.5 -43zM705 158q89 0 166 22t127.5 67.5t50.5 106.5t-54.5 106t-131 65t-158.5 20t-158 -20t-131.5 -65t-55.5 -106q0 -90 103 -143t242 -53zM705 713q135 0 205.5 37.5t70.5 109.5q0 77 -85.5 121.5t-190.5 44.5
q-65 0 -126.5 -17.5t-106 -57t-44.5 -91.5q0 -72 71 -109.5t206 -37.5z" />
    <glyph glyph-name="nine.tos" horiz-adv-x="1409" 
d="M160 80l116 160q146 -78 349 -78q117 0 217.5 45.5t167.5 137t77 212.5q-240 -160 -499 -160q-120 0 -217 32.5t-155.5 86.5t-89 118.5t-30.5 133.5q0 187 152.5 310.5t388.5 123.5q102 0 197.5 -24t179.5 -74t146.5 -120t99 -169t36.5 -215q0 -146 -55 -268
t-148.5 -202.5t-215 -124.5t-256.5 -44q-260 0 -461 119zM608 582q220 0 461 143q-41 131 -162 203.5t-274 72.5q-132 0 -220.5 -71t-88.5 -166q0 -71 71 -126.5t213 -55.5z" />
    <glyph glyph-name="dollar.tos" horiz-adv-x="1409" 
d="M627 1391h153v-197q144 -19 266 -67t203 -105l-131 -152q-49 46 -136 83t-202 51v-287q52 -3 96 -8t98 -16.5t96.5 -28.5t85 -45t71 -63.5t46 -87t17.5 -114.5q0 -82 -26 -147.5t-72 -110.5t-111 -75t-140 -44.5t-161 -15.5v-246h-153v254q-301 38 -537 236l131 147
q182 -154 406 -192v360q-82 8 -142.5 18.5t-126 33.5t-107 56t-68.5 87.5t-27 126.5q0 79 28 141.5t73.5 102t108.5 66t127 38t134 12.5v189zM1077 324q0 90 -72 129.5t-225 54.5v-358q133 2 215 45t82 129zM373 862q0 -117 254 -135v287q-254 -4 -254 -152z" />
    <glyph glyph-name="cent.tos" horiz-adv-x="1409" 
d="M815 1133h156l-49 -197q182 -36 317 -131l-139 -139q-103 64 -223 88l-152 -600h8q216 0 373 125l141 -134q-22 -22 -60.5 -47.5t-102 -56.5t-156.5 -51.5t-195 -20.5q-37 0 -53 2l-64 -256h-153l69 281q-181 47 -294 171.5t-113 297.5q0 144 80 257t215 173.5t299 60.5
q35 0 51 -2zM356 465q0 -101 61 -176.5t161 -110.5l147 592h-6q-153 0 -258 -84.5t-105 -220.5z" />
    <glyph glyph-name="Euro.tos" horiz-adv-x="1409" 
d="M88 651v144h184q64 181 214.5 294t338.5 113q139 0 263.5 -49t214.5 -137l-140 -158q-63 67 -151.5 104t-186.5 37q-96 0 -178 -55.5t-129 -148.5h459v-144h-506q-4 -46 -4 -69q0 -44 4 -64h506v-143h-463q48 -97 130.5 -154t180.5 -57q100 0 194.5 42.5t158.5 115.5
l139 -158q-97 -96 -224.5 -149.5t-267.5 -53.5q-189 0 -340.5 115.5t-214.5 298.5h-182v143h152q-2 20 -2 64q0 46 2 69h-152z" />
    <glyph glyph-name="sterling.tos" horiz-adv-x="1409" 
d="M111 539v163h249v150q0 87 39.5 156t105 110.5t145.5 62.5t167 21q95 0 225.5 -42.5t245.5 -110.5l-112 -158q-92 48 -190.5 78t-168.5 30q-92 0 -160.5 -38t-68.5 -109v-150h477v-163h-477v-146q0 -98 -39 -146t-133 -65h872v-182h-1177v182h77q68 0 103 16.5t52 62
t17 132.5v146h-249z" />
    <glyph glyph-name="yen.tos" horiz-adv-x="1409" 
d="M100 651v144h299l-262 368h291l285 -430l284 430h271l-262 -368h303v-144h-406l-86 -121v-12h492v-143h-492v-375h-229v375h-488v143h488v12l-86 121h-402z" />
    <glyph glyph-name="florin.tos" horiz-adv-x="1409" 
d="M362 702h236l53 240q16 70 55.5 123.5t91 82t105 42.5t107.5 14q58 0 124 -12.5t97 -26.5l-76 -176q-18 12 -64 21.5t-81 9.5q-59 0 -98 -20.5t-48 -55.5l-53 -242h250v-163h-287l-121 -539q-21 -92 -66 -160.5t-105.5 -107.5t-126 -57.5t-136.5 -18.5v164
q36 8 55.5 13.5t51.5 19t51 30.5t37.5 47.5t27.5 69.5l119 539h-199v163z" />
    <glyph glyph-name="colonmonetary.tos" horiz-adv-x="1409" 
d="M977 1391h133l-53 -252q142 -62 246 -166l-144 -123q-69 63 -141 98l-164 -784q94 24 180.5 80t149.5 129l141 -125q-99 -111 -231.5 -189t-280.5 -92l-51 -252h-129l51 252q-78 5 -166 33l-57 -285h-133l69 336q-141 82 -220 221.5t-79 307.5q0 158 65.5 291t187.5 220
t280 107l41 193h133l-39 -189q81 -3 166 -22zM559 193q71 -35 162 -41l174 841q-75 20 -168 23zM328 580q0 -189 114 -306l148 719q-120 -44 -191 -157t-71 -256z" />
    <glyph glyph-name="franc.tos" horiz-adv-x="1409" 
d="M111 219v141h202v803h996v-202h-766v-216h461v-202h-461v-183h350v-141h-350v-219h-230v219h-202z" />
    <glyph glyph-name="lira.tos" horiz-adv-x="1409" 
d="M123 651v144h248v57q0 70 26 129t69.5 99t102.5 68t123.5 41t132.5 13q95 0 225.5 -42.5t243.5 -110.5l-112 -158q-90 48 -188.5 78t-168.5 30q-91 0 -159 -38t-68 -109v-57h475v-144h-475v-133h475v-143h-475q-3 -89 -43 -133.5t-129 -59.5h868v-182h-1171v182h76
q96 0 132.5 38.5t39.5 154.5h-248v143h248v133h-248z" />
    <glyph glyph-name="peso.tos" horiz-adv-x="1409" 
d="M57 664v141h179v358h505q232 0 355 -129q91 -97 108 -229h166v-141h-166q-10 -74 -41.5 -131t-83.5 -109q-65 -65 -140.5 -93t-197.5 -28h-276v-303h-229v664h-179zM741 961h-276v-156h514q-7 42 -47 90q-32 36 -73.5 51t-117.5 15zM918 567q41 41 55 97h-508v-156h272
q73 0 110 13.5t71 45.5z" />
    <glyph glyph-name="Rupee.tos" horiz-adv-x="1409" 
d="M57 664v141h891q-10 48 -47 90q-32 36 -73 51t-117 15h-654v202h1309v-141h-309q99 -79 119 -217h190v-141h-192q-19 -139 -125 -240q-66 -53 -139.5 -76.5t-198.5 -23.5l-201 14l606 -338h-420l-639 369v139h650q69 0 108 13t72 46q44 44 57 97h-887z" />
    <glyph glyph-name="section.tos" horiz-adv-x="1409" 
d="M1200 199q-46 -46 -113 -82q12 -12 21 -39q22 -43 22 -111q0 -80 -39.5 -140.5t-104.5 -94t-137.5 -50t-150.5 -16.5q-106 0 -216 27t-191 74l96 155q62 -33 145 -53.5t166 -20.5q32 0 63.5 5t65.5 16t55 35t21 57q0 36 -18 51q-10 10 -26 17.5t-31 12t-41.5 9t-41.5 6
t-49 5t-47 4.5q-324 33 -454 165q-86 86 -86 211q0 134 98 232q36 41 106 80q-13 20 -18 34q-23 63 -23 117q0 64 26.5 116.5t69.5 86t100.5 56.5t117 32.5t121.5 9.5q106 0 215 -26t192 -72l-98 -158q-62 33 -145 53.5t-164 20.5q-30 0 -60 -4t-66 -14.5t-58.5 -35
t-22.5 -59.5q0 -31 18 -49q9 -9 20.5 -15.5t28.5 -11.5t31 -8.5t37.5 -6.5t37.5 -4.5t42.5 -4.5t40.5 -4q322 -32 454 -164q86 -89 86 -213q0 -132 -96 -231zM754 608q-1 0 -29 2.5t-34.5 3.5t-33 3.5t-38 4.5t-35.5 5.5t-39 7t-35.5 8.5t-37.5 10.5t-34 12.5l-26 -33
q-74 -71 -74 -162q0 -70 45 -115q72 -74 266 -92q6 -1 33.5 -3t38.5 -3.5t38 -4.5t42.5 -5.5t40.5 -6.5t43.5 -9t39.5 -11.5t40 -13.5q8 7 30 33q74 74 74 161q0 66 -49 115q-72 74 -266 92z" />
    <glyph glyph-name="numbersign.tos" horiz-adv-x="1409" 
d="M922 1264h168l-54 -363h307v-162h-331l-51 -354h288v-164h-311l-61 -418h-168l61 418h-238l-61 -418h-168l62 418h-304v164h326l51 354h-284v162h309l53 363h168l-53 -363h237zM606 739l-51 -354h238l51 354h-238z" />
    <glyph glyph-name="percent.tos" horiz-adv-x="1409" 
d="M39 913q0 147 79.5 252t192.5 105q114 0 195.5 -105.5t81.5 -251.5q0 -148 -81.5 -253t-195.5 -105t-193 105t-79 253zM1049 1239l-502 -1239h-182l505 1239h179zM213 913q0 -76 28.5 -130t69.5 -54t72 54.5t31 129.5t-31 129t-72 54t-69.5 -54t-28.5 -129zM825 328
q0 146 80 251t193 105q112 0 194 -105.5t82 -250.5q0 -149 -81.5 -254t-194.5 -105q-114 0 -193.5 105t-79.5 254zM999 328q0 -75 29 -130t70 -55q42 0 71 54.5t29 130.5t-29 129t-71 53q-41 0 -70 -53.5t-29 -128.5z" />
    <glyph glyph-name="zero.pl" horiz-adv-x="1675" 
d="M115 629q0 136 58 260t155 213t230 141.5t278 52.5q195 0 362 -88.5t266 -242.5t99 -336q0 -184 -99 -338.5t-266 -243t-362 -88.5q-145 0 -278 52.5t-230 141.5t-155 213.5t-58 262.5zM344 629q0 -126 66 -233t179 -169.5t247 -62.5t248.5 62.5t181.5 169.5t67 233
q0 190 -146.5 326.5t-350.5 136.5q-134 0 -247.5 -62.5t-179 -169t-65.5 -231.5z" />
    <glyph glyph-name="one.pl" horiz-adv-x="886" 
d="M88 907l-49 185l391 163h229v-1255h-229v1049z" />
    <glyph glyph-name="one.pl.alt" horiz-adv-x="684" 
d="M227 0v1255h230v-1255h-230z" />
    <glyph glyph-name="two.pl" horiz-adv-x="1386" 
d="M279 909l-136 160q73 55 121 86t123 68.5t158 55t180 17.5q102 0 195 -21t169.5 -62.5t122 -111.5t45.5 -159q0 -45 -12 -85.5t-26 -71t-48 -61.5t-54 -50t-69 -42.5t-69 -33.5t-77 -29t-70 -22.5t-71 -20.5q-33 -9 -48 -14q-79 -22 -136 -46t-109 -60.5t-79 -89
t-27 -119.5v-13h869v-184h-1098v176q0 91 32 169.5t85 135t128.5 103t154.5 77t172 54.5q151 38 220 78q103 60 103 143q0 41 -25.5 72.5t-69 49t-94.5 26t-108 8.5q-140 0 -242 -47t-210 -136z" />
    <glyph glyph-name="three.pl" horiz-adv-x="1556" 
d="M698 569v185h252q63 0 112.5 42.5t49.5 110.5q0 64 -49.5 108t-115 60.5t-138.5 16.5q-131 0 -255 -56.5t-224 -144.5l-140 139q300 266 623 266q69 0 139.5 -11.5t141.5 -38.5t125 -66t88 -99.5t34 -134.5q0 -91 -45.5 -159.5t-99.5 -92.5q31 -7 61.5 -19.5t65 -37.5
t61 -57t43.5 -80.5t17 -106.5q0 -136 -91.5 -236t-244 -149t-344.5 -49q-211 0 -381 63t-311 197l139 160q109 -102 242 -158.5t311 -56.5q127 0 227.5 27.5t161.5 83.5t61 133q0 48 -26 82t-68 50t-81.5 22.5t-80.5 6.5h-260z" />
    <glyph glyph-name="four.pl" horiz-adv-x="1628" 
d="M1536 465v-184h-252v-281h-229v281h-985v159l1011 815h203v-790h252zM412 473v-8h643v496h-23z" />
    <glyph glyph-name="five.pl" horiz-adv-x="1513" 
d="M1262 1255v-204h-832v-318q97 61 190.5 89t229.5 28q108 0 207.5 -26t180 -75t129 -129.5t48.5 -181.5q0 -102 -38.5 -184.5t-103 -136.5t-152 -90.5t-181 -52t-195.5 -15.5q-368 0 -667 238l139 159q223 -192 531 -192q84 0 159 14.5t139.5 45t102 85t37.5 127.5
q0 104 -100.5 161.5t-241.5 57.5q-145 0 -255.5 -37t-223.5 -104l-144 102v639h1041z" />
    <glyph glyph-name="six.pl" horiz-adv-x="1556" 
d="M1391 1143l-140 -160q-159 109 -391 109q-101 0 -193.5 -30.5t-166 -86t-119.5 -141t-53 -189.5q270 180 569 180q134 0 241.5 -35t172.5 -93.5t99 -128t34 -144.5q0 -198 -169 -331.5t-431 -133.5q-112 0 -217.5 26t-198 79.5t-161 129.5t-108.5 182.5t-40 231.5
q0 157 61 289t163.5 218t237 133.5t283.5 47.5q84 0 163.5 -13t130.5 -28.5t107 -42t75 -38t51 -31.5zM877 641q-246 0 -531 -164q46 -150 184.5 -231.5t317.5 -81.5q157 0 261.5 79t104.5 185q0 83 -84.5 148t-252.5 65z" />
    <glyph glyph-name="seven.pl" horiz-adv-x="1372" 
d="M84 1051v204h1196v-204l-729 -1051h-301l766 1051h-932z" />
    <glyph glyph-name="eight.pl" horiz-adv-x="1556" 
d="M778 -45q-128 0 -246.5 27.5t-211.5 77.5t-149 128t-56 172q0 70 28 128.5t76.5 98.5t107 66t124.5 37q-124 20 -190 87t-66 175q0 69 36 127.5t95 98t135.5 68t157 41.5t159.5 13q100 0 200.5 -21.5t187.5 -62.5t141.5 -110t54.5 -154q0 -109 -65.5 -175.5t-192.5 -86.5
q67 -11 126 -37t107 -66t76.5 -98.5t28.5 -128.5q0 -94 -56.5 -172t-150 -128t-212 -77.5t-245.5 -27.5zM778 160q106 0 198.5 24t154 76t61.5 121t-66 120.5t-157.5 74t-190.5 22.5q-72 0 -143.5 -13.5t-132.5 -39.5t-99 -68.5t-38 -95.5q0 -69 61.5 -121t153.5 -76
t198 -24zM778 766q162 0 248 42.5t86 123.5q0 59 -53.5 102.5t-127 62.5t-153.5 19t-153.5 -19t-127 -62.5t-53.5 -102.5q0 -81 86 -123.5t248 -42.5z" />
    <glyph glyph-name="nine.pl" horiz-adv-x="1552" 
d="M162 113l139 159q157 -108 391 -108q136 0 252 50.5t193 153t86 240.5q-273 -178 -568 -178q-108 0 -199.5 23t-154.5 62.5t-107 91t-64.5 108.5t-20.5 116q0 198 169 331.5t431 133.5q112 0 217.5 -26t198 -79.5t161 -129.5t108.5 -182.5t40 -231.5q0 -126 -39.5 -237
t-109.5 -192.5t-163.5 -140.5t-204 -88.5t-229.5 -29.5q-84 0 -163.5 13.5t-130 28.5t-107 42t-74 38t-51.5 32zM676 614q251 0 528 162q-44 150 -182 233t-317 83q-157 0 -262 -79.5t-105 -185.5q0 -83 85 -148t253 -65z" />
    <glyph glyph-name="dollar.pl" horiz-adv-x="1417" 
d="M635 1501h153v-213q155 -19 286 -71.5t216 -114.5l-131 -152q-139 116 -371 146v-328q56 -3 103 -8.5t106 -18t105 -30t92 -47.5t76.5 -68t49.5 -93t19 -122q0 -87 -28.5 -157.5t-78.5 -118.5t-120 -81t-151 -48.5t-173 -16.5v-266h-153v274q-326 38 -578 254l131 150
q197 -175 447 -211v409q-62 6 -110 13t-103 19.5t-95.5 29t-80 42t-64.5 58.5t-40 78.5t-15 101.5q0 85 30.5 152t79.5 109.5t117 70.5t136.5 40t144.5 13v205zM1124 350q0 102 -84 147t-252 60v-407q150 2 243 51.5t93 148.5zM344 932q0 -136 291 -154v328
q-291 -4 -291 -174z" />
    <glyph glyph-name="cent.pl" horiz-adv-x="1230" 
d="M713 1214h153l-45 -215q172 -41 293 -139l-141 -141q-79 65 -193 94l-139 -659q177 0 336 137l141 -133q-21 -24 -56.5 -51.5t-95 -61.5t-145.5 -56t-180 -22q-27 0 -41 2l-57 -276h-154l64 303q-166 53 -269.5 186t-103.5 316q0 154 74 274.5t199 185t276 64.5
q29 0 43 -2zM311 498q0 -109 50 -190.5t133 -121.5l139 650h-4q-135 0 -226.5 -93.5t-91.5 -244.5z" />
    <glyph glyph-name="Euro.pl" horiz-adv-x="1630" 
d="M109 709v143h213q70 196 244 320t392 124q160 0 302.5 -52.5t246.5 -147.5l-139 -160q-77 73 -185 114.5t-225 41.5q-123 0 -227 -65.5t-164 -174.5h566v-143h-615q-6 -40 -6 -80q0 -37 6 -74h615v-143h-570q58 -113 163 -180.5t232 -67.5q121 0 234 46.5t194 127.5
l140 -160q-113 -103 -259 -161t-309 -58q-220 0 -395 127t-244 326h-210v143h178q-4 25 -4 74q0 26 4 80h-178z" />
    <glyph glyph-name="sterling.pl" horiz-adv-x="1525" 
d="M133 588v166h275v166q0 94 42 168t112 118t155 67t178 23q101 0 240.5 -45t261.5 -118l-115 -160q-97 53 -204.5 86t-182.5 33q-104 0 -181 -44.5t-77 -127.5v-166h520v-166h-520v-170q0 -108 -41.5 -161.5t-140.5 -72.5h940v-184h-1262v184h82q111 0 152 46.5t41 187.5
v170h-275z" />
    <glyph glyph-name="yen.pl" horiz-adv-x="1669" 
d="M139 709v143h363l-316 403h291l367 -475l364 475h271l-316 -403h367v-143h-479l-103 -134v-20h582v-143h-582v-412h-229v412h-580v143h580v20l-105 134h-475z" />
    <glyph glyph-name="florin.pl" horiz-adv-x="888" 
d="M96 588v166h242l55 258q17 77 57.5 135t93.5 89.5t107.5 46.5t110.5 15q62 0 129 -14.5t98 -32.5l-76 -176q-19 13 -67.5 25t-83.5 12q-63 0 -104.5 -25.5t-53.5 -74.5l-55 -258h262v-166h-297l-125 -588q-21 -98 -67.5 -171.5t-108.5 -115.5t-129 -62t-139 -20v166
q35 7 58 14t54.5 22t52 35t39.5 54t29 78l125 588h-207z" />
    <glyph glyph-name="colonmonetary.pl" horiz-adv-x="1495" 
d="M1055 1501h133l-58 -270q165 -68 275 -178l-145 -125q-80 71 -170 112l-187 -878q110 22 209.5 83.5t175.5 143.5l142 -127q-110 -118 -258 -201.5t-310 -97.5l-57 -270h-133l57 272q-85 5 -190 37l-66 -309h-133l76 360q-159 88 -248.5 239.5t-89.5 334.5
q0 170 74.5 314t212 237.5t313.5 113.5l45 209h133l-43 -205q101 -3 193 -24zM580 195q81 -37 188 -43l199 931q-95 25 -195 25zM307 627q0 -107 40.5 -199.5t115.5 -157.5l172 817q-148 -44 -238 -170.5t-90 -289.5z" />
    <glyph glyph-name="franc.pl" horiz-adv-x="1411" 
d="M88 248v143h213v864h1045v-204h-816v-250h494v-205h-494v-205h371v-143h-371v-248h-229v248h-213z" />
    <glyph glyph-name="lira.pl" horiz-adv-x="1538" 
d="M147 709v143h275v68q0 94 42 168t112 118t155 67t178 23q101 0 240.5 -45t261.5 -118l-115 -160q-97 53 -204.5 86t-182.5 33q-104 0 -181 -44.5t-77 -127.5v-68h520v-143h-520v-154h520v-143h-520q-1 -105 -43 -157t-139 -71h940v-184h-1262v184h82q74 0 113.5 18t59 67
t20.5 143h-275v143h275v154h-275z" />
    <glyph glyph-name="peso.pl" horiz-adv-x="1738" 
d="M90 729v143h213v383h674q243 0 366 -133q91 -102 109 -250h199v-143h-197q-16 -151 -129 -264q-64 -64 -141.5 -92.5t-206.5 -28.5h-445v-344h-229v729h-213zM977 1051h-445v-179h689q-12 67 -47 107q-63 72 -197 72zM1165 618q41 41 56 111h-689v-178h443q126 0 190 67z
" />
    <glyph glyph-name="peseta.pl" horiz-adv-x="3246" 
d="M2038 162l20 -166q-24 -16 -86.5 -26.5t-113.5 -10.5q-43 0 -83 9t-78.5 30.5t-66.5 53.5t-45.5 82t-17.5 112v577h-168q-15 -135 -115 -229q-127 -121 -364 -121h-486v-473h-229v1255h715q123 0 212.5 -30t159.5 -101q59 -62 86 -135h189v293h211v-293h260v-166h-260
v-577q0 -49 30.5 -75t87.5 -26q29 0 76.5 5.5t65.5 11.5zM3078 911l-80 -161q-64 36 -167 68t-199 32q-86 0 -143.5 -29t-57.5 -86q0 -29 17.5 -50t41 -32.5t61 -18.5t62.5 -9t60 -4q50 -2 82 -4.5t86.5 -11t91 -20.5t80 -35.5t69.5 -54.5t44 -79t18 -107q0 -114 -62.5 -193
t-164.5 -115t-236 -36q-266 0 -492 152l80 159q47 -28 80.5 -45.5t89 -41.5t116 -36t124.5 -12q112 0 183 39t71 109q0 27 -11 48.5t-33 34.5t-44.5 22.5t-56.5 14.5t-57 7t-58 4q-43 3 -70.5 5t-69.5 7t-70 11t-64 17.5t-59 26t-48 36t-39 48t-23.5 62.5t-9.5 78
q0 70 24 125.5t63.5 90.5t93.5 57.5t110 32t117 9.5q126 0 252 -36.5t198 -78.5zM920 1051h-486v-371h484q134 0 198 61q55 52 55 123q0 70 -51 121q-66 66 -200 66z" />
    <glyph glyph-name="rupiah.pl" horiz-adv-x="2742" 
d="M436 0h-229v1255h713q255 0 380 -131q101 -106 101 -245q0 -121 -77 -217.5t-202 -141.5l303 -520h-264l-274 496h-451v-496zM920 1051h-484v-351h525q85 0 147.5 53.5t62.5 125.5q0 61 -45 106q-64 66 -206 66zM1624 991h195q14 -69 14 -139q19 28 47.5 55t69.5 54
t98.5 44t120.5 17q94 0 180.5 -38t151.5 -105.5t104 -167t39 -215.5t-39 -216t-104.5 -167.5t-151.5 -105.5t-180 -38q-179 0 -316 152v-545h-211v1143q0 178 -18 272zM2136 154q119 0 196.5 93.5t77.5 246.5q0 154 -78.5 248t-201.5 94q-89 0 -165 -47t-112 -93v-405
q63 -64 137 -100.5t146 -36.5z" />
    <glyph glyph-name="Rupee.pl" horiz-adv-x="1738" 
d="M240 729v143h919q-12 67 -47 107q-63 72 -197 72h-673v204h1347v-143h-321q106 -87 125 -240h196v-143h-196q-16 -151 -129 -264q-64 -53 -142 -76.5t-207 -23.5l-233 16l680 -381h-420l-700 403v148h671q127 0 191 67q40 40 55 111h-919z" />
    <glyph glyph-name="section.pl" horiz-adv-x="1411" 
d="M1343 463q0 -146 -104 -250q-49 -49 -129 -90q8 -9 27 -43q26 -54 26 -119q0 -85 -42.5 -149.5t-112.5 -100t-148 -52.5t-162 -17q-117 0 -234.5 29t-205.5 81l98 158q68 -38 160 -61t182 -23q37 0 74 5.5t75.5 18.5t62.5 40.5t24 64.5q0 36 -21 57q-10 9 -23 16.5
t-32 13.5t-34.5 9.5t-42 7t-42 5.5t-48 5t-46.5 5q-349 36 -489 178q-95 92 -95 227q0 143 105 248q43 45 127 90q-17 20 -25 39q-26 57 -26 125q0 69 28.5 124.5t74.5 91t107.5 59.5t125 34t129.5 10q117 0 234.5 -29t205.5 -81l-98 -158q-68 38 -160 61t-182 23
q-35 0 -70 -4.5t-75.5 -17t-65.5 -40t-25 -67.5q0 -36 21 -57q10 -9 23 -16.5t32 -13.5t34.5 -9.5t42 -7t42 -5.5t48 -5t46.5 -5q349 -36 489 -178q94 -91 94 -227zM758 668q-4 0 -57.5 5.5t-74 8.5t-64 9.5t-77 16t-63.5 21.5q-24 -16 -51 -43q-80 -80 -80 -178
q-3 -77 53 -129q81 -83 303 -105q4 0 57.5 -5.5t74 -8.5t64 -9.5t77 -16t63.5 -21.5q24 16 51 43q80 80 80 178q3 77 -53 129q-81 83 -303 105z" />
    <glyph glyph-name="numbersign.pl" horiz-adv-x="1820" 
d="M1221 1364h170l-70 -395h420v-164h-449l-69 -397h397v-164h-426l-80 -457h-170l80 457h-362l-80 -457h-170l80 457h-416v164h444l70 397h-393v164h421l70 395h170l-70 -395h363zM760 805l-70 -397h363l69 397h-362z" />
    <glyph glyph-name="percent.pl" horiz-adv-x="2160" 
d="M1370 1337h180l-757 -1337h-183zM80 985q0 158 120.5 271.5t291.5 113.5q170 0 293.5 -114t123.5 -271q0 -159 -123 -273t-294 -114t-291.5 113.5t-120.5 273.5zM276 985q0 -86 63.5 -148.5t152.5 -62.5q91 0 156 62.5t65 148.5t-65 147.5t-156 61.5q-89 0 -152.5 -61.5
t-63.5 -147.5zM1251 354q0 158 120.5 271.5t291.5 113.5q170 0 294 -114t124 -271q0 -159 -123.5 -273t-294.5 -114t-291.5 113.5t-120.5 273.5zM1448 354q0 -87 63 -149t152 -62q91 0 156 62.5t65 148.5t-65 147.5t-156 61.5q-89 0 -152 -61.5t-63 -147.5z" />
    <glyph glyph-name="perthousand.pl" horiz-adv-x="3078" 
d="M1370 1337h180l-757 -1337h-183zM80 985q0 158 120.5 271.5t291.5 113.5q170 0 293.5 -114t123.5 -271q0 -159 -123 -273t-294 -114t-291.5 113.5t-120.5 273.5zM276 985q0 -86 63.5 -148.5t152.5 -62.5q91 0 156 62.5t65 148.5t-65 147.5t-156 61.5q-89 0 -152.5 -61.5
t-63.5 -147.5zM1251 354q0 158 120.5 271.5t291.5 113.5q170 0 294 -114t124 -271q0 -159 -123.5 -273t-294.5 -114t-291.5 113.5t-120.5 273.5zM1448 354q0 -87 63 -149t152 -62q91 0 156 62.5t65 148.5t-65 147.5t-156 61.5q-89 0 -152 -61.5t-63 -147.5zM2183 354
q0 158 120.5 271.5t291.5 113.5q170 0 294 -114t124 -271q0 -159 -123.5 -273t-294.5 -114t-291.5 113.5t-120.5 273.5zM2380 354q0 -87 63 -149t152 -62q91 0 156 62.5t65 148.5t-65 147.5t-156 61.5q-89 0 -152 -61.5t-63 -147.5z" />
    <glyph glyph-name="zero.tl" horiz-adv-x="1576" 
d="M102 629q0 136 55 260t147 213t218 141.5t264 52.5q184 0 342.5 -88.5t252.5 -242.5t94 -336q0 -184 -94 -338.5t-252.5 -243t-342.5 -88.5q-138 0 -264 52.5t-218 141.5t-147 213.5t-55 262.5zM332 629q0 -126 60.5 -233t165 -169.5t228.5 -62.5q123 0 229 62.5
t168 169.5t62 233q0 125 -62 231.5t-168 169t-229 62.5q-188 0 -321 -136t-133 -327z" />
    <glyph glyph-name="one.tl" horiz-adv-x="1576" 
d="M274 0v184h498v865l-498 -142l-51 185l549 163h229v-1071h422v-184h-1149z" />
    <glyph glyph-name="two.tl" horiz-adv-x="1576" 
d="M313 909l-135 160q63 43 104.5 69t108.5 60t126 52.5t139.5 32t166.5 13.5q114 0 217.5 -21t189.5 -62.5t136.5 -111.5t50.5 -159q0 -45 -12.5 -85.5t-31 -72t-52.5 -61.5t-62 -50.5t-76 -42t-78.5 -34t-85 -28.5t-80.5 -23t-79 -20l-18 -4.5t-15.5 -4t-17.5 -4.5
q-75 -17 -132 -35t-113.5 -45t-93 -59t-59 -77t-22.5 -99v-13h1002v-184h-1231v176q0 393 639 539q389 73 389 221q0 41 -31 72.5t-83.5 49t-114 26t-130.5 8.5q-160 0 -277.5 -47t-238.5 -136z" />
    <glyph glyph-name="three.tl" horiz-adv-x="1576" 
d="M707 569v185h256q63 0 113 42.5t50 110.5q0 49 -28.5 86.5t-75 58t-98 30.5t-105.5 10q-134 0 -259.5 -56.5t-225.5 -144.5l-139 139q300 266 628 266q70 0 141 -11.5t142.5 -38.5t126.5 -66t89 -99.5t34 -134.5q0 -91 -46.5 -159.5t-101.5 -92.5q40 -9 80 -28.5
t80.5 -53.5t66 -91t25.5 -128q0 -137 -92.5 -236.5t-246.5 -148.5t-349 -49q-213 0 -383.5 63t-314.5 197l139 160q111 -102 245.5 -158.5t313.5 -56.5q130 0 232.5 27.5t164.5 83.5t62 133q0 48 -26.5 82t-69.5 50t-83 22.5t-81 6.5h-264z" />
    <glyph glyph-name="four.tl" horiz-adv-x="1576" 
d="M1489 465v-184h-244v-281h-229v281h-953v159l981 815h201v-790h244zM406 473v-8h610v496h-23q-105 -88 -587 -488z" />
    <glyph glyph-name="five.tl" horiz-adv-x="1576" 
d="M1311 1255v-204h-869v-318q102 61 199.5 89t239.5 28q112 0 214.5 -26t186.5 -75t134 -129.5t50 -181.5q0 -102 -40 -184.5t-106 -136.5t-156 -90.5t-186.5 -52t-201.5 -15.5q-384 0 -688 238l139 159q39 -33 85.5 -62t115.5 -61t160 -50.5t190 -18.5q88 0 166.5 14.5
t146 45t107 85t39.5 127.5q0 70 -53.5 121t-134 74.5t-175.5 23.5q-150 0 -264 -37t-233 -104l-144 102v639h1078z" />
    <glyph glyph-name="six.tl" horiz-adv-x="1576" 
d="M1407 1143l-139 -160q-162 109 -398 109q-102 0 -195.5 -30.5t-167.5 -86t-121 -141t-54 -189.5q281 180 575 180q109 0 201.5 -23t156.5 -62.5t108.5 -91t65.5 -108.5t21 -116q0 -198 -171 -331.5t-435 -133.5q-114 0 -220 26t-199 79.5t-162.5 129.5t-109.5 182.5
t-40 231.5q0 157 61.5 289t165.5 218t239.5 133.5t284.5 47.5q85 0 166 -13.5t131 -28t109 -42t74.5 -37t52.5 -32.5zM887 641q-252 0 -537 -164q46 -150 186 -231.5t322 -81.5q160 0 266.5 79t106.5 185q0 83 -86.5 148t-257.5 65z" />
    <glyph glyph-name="seven.tl" horiz-adv-x="1576" 
d="M109 1051v204h1347v-204l-840 -1051h-301l877 1051h-1083z" />
    <glyph glyph-name="eight.tl" horiz-adv-x="1576" 
d="M788 -45q-129 0 -249 27.5t-214.5 77.5t-151 128t-56.5 172q0 70 29 128.5t78 98.5t108.5 66t126.5 37q-126 20 -193 87t-67 175q0 85 55 154t143 110t189 62.5t202 21.5t202.5 -21.5t189.5 -62.5t143 -110t55 -154q0 -109 -66.5 -175.5t-195.5 -86.5q68 -11 128 -37
t109 -66t78 -98.5t29 -128.5q0 -94 -57 -172t-151.5 -128t-214.5 -77.5t-249 -27.5zM788 160q108 0 202 24t157 76t63 121q0 53 -39 95.5t-101.5 68.5t-135 39.5t-146.5 13.5t-146.5 -13.5t-135 -39.5t-101 -68.5t-38.5 -95.5q0 -69 62.5 -121t156.5 -76t202 -24zM788 766
q165 0 252.5 42.5t87.5 123.5q0 59 -54.5 102.5t-129.5 62.5t-156 19t-156 -19t-129 -62.5t-54 -102.5q0 -81 87 -123.5t252 -42.5z" />
    <glyph glyph-name="nine.tl" horiz-adv-x="1576" 
d="M166 113l139 159q160 -108 397 -108q138 0 256.5 51t197 154t87.5 241q-274 -180 -577 -180q-137 0 -246 35t-174.5 93.5t-100 128t-34.5 144.5q0 198 171.5 331.5t436.5 133.5q114 0 221 -26t200.5 -79.5t163.5 -129.5t110 -182.5t40 -231.5q0 -126 -40 -237
t-111 -192.5t-166 -140.5t-207 -88.5t-232 -29.5q-85 0 -165.5 13.5t-132 28.5t-108 42t-75.5 38t-51 32zM686 614q254 0 539 164q-46 149 -187 231.5t-323 82.5q-160 0 -267.5 -79.5t-107.5 -185.5q0 -83 87 -148t259 -65z" />
    <glyph glyph-name="dollar.tl" horiz-adv-x="1576" 
d="M705 1501h153v-213q168 -19 309.5 -71.5t233.5 -114.5l-131 -152q-152 118 -412 148v-328q61 -3 112.5 -8.5t115.5 -18t114.5 -30.5t101 -47.5t83.5 -68t54 -94t21 -122.5q0 -87 -31.5 -158t-86 -119t-131 -80.5t-164.5 -48t-189 -16.5v-266h-153v272q-351 35 -629 256
l131 150q228 -178 498 -213v411q-79 7 -139 15t-127.5 24t-115.5 40.5t-89 59.5t-61.5 86.5t-20.5 116.5q0 85 33.5 152t87 109.5t127.5 70.5t148.5 40t156.5 13v205zM1245 350q0 53 -27.5 91t-82.5 61t-120 35.5t-157 19.5v-407q111 1 195.5 21.5t138 66t53.5 112.5z
M369 932q0 -35 22 -62t54 -42.5t80 -27t88.5 -16t91.5 -8.5v330q-70 -1 -127.5 -10t-106 -28.5t-75.5 -54t-27 -81.5z" />
    <glyph glyph-name="cent.tl" horiz-adv-x="1576" 
d="M924 1214h155l-55 -210q208 -39 367 -144l-142 -141q-116 71 -274 100l-176 -665h24q264 0 434 137l144 -133q-25 -24 -68 -51.5t-114.5 -61.5t-176 -56t-219.5 -22q-48 0 -73 2l-72 -276h-156l80 301q-207 51 -336 184.5t-129 319.5q0 154 90.5 274.5t243.5 185
t338 64.5q40 0 63 -2zM369 498q0 -116 76.5 -201t203.5 -121l174 660h-14q-187 0 -313.5 -93.5t-126.5 -244.5z" />
    <glyph glyph-name="Euro.tl" horiz-adv-x="1576" 
d="M104 709v143h205q68 196 237 320t380 124q155 0 292 -52.5t238 -147.5l-139 -160q-75 73 -177 114.5t-214 41.5q-118 0 -217 -66t-154 -174h539v-143h-586q-6 -40 -6 -80q0 -24 4 -74h588v-143h-543q55 -112 155.5 -180t219.5 -68q117 0 224 46.5t185 127.5l140 -160
q-110 -104 -250.5 -161.5t-298.5 -57.5q-212 0 -382 127t-237 326h-203v143h172q-4 25 -4 74q0 26 4 80h-172z" />
    <glyph glyph-name="sterling.tl" horiz-adv-x="1576" 
d="M137 588v166h287v166q0 94 43.5 168t116 118t160 67t182.5 23q104 0 247.5 -45t268.5 -118l-115 -160q-100 53 -211.5 86t-189.5 33q-109 0 -191 -44.5t-82 -127.5v-166h541v-166h-541v-170q0 -108 -43 -161.5t-143 -72.5h973v-184h-1303v184h86q116 0 158.5 46.5
t42.5 187.5v170h-287z" />
    <glyph glyph-name="yen.tl" horiz-adv-x="1576" 
d="M127 709v143h340l-297 403h291l338 -475l334 475h270l-299 -403h346v-143h-451l-98 -134v-20h549v-143h-549v-412h-229v412h-545v143h545v20l-99 134h-446z" />
    <glyph glyph-name="florin.tl" horiz-adv-x="1576" 
d="M438 588v166h242l55 258q17 77 57.5 135t93.5 89.5t107.5 46.5t110.5 15q62 0 129 -14.5t98 -32.5l-76 -176q-19 13 -67.5 25t-83.5 12q-63 0 -104.5 -25.5t-53.5 -74.5l-55 -258h262v-166h-297l-125 -588q-21 -98 -67.5 -171.5t-108.5 -115.5t-129 -62t-139 -20v166
q35 7 58 14t54.5 22t52 35t39.5 54t29 78l125 588h-207z" />
    <glyph glyph-name="colonmonetary.tl" horiz-adv-x="1576" 
d="M1112 1501h133l-59 -270q163 -60 287 -178l-146 -125q-83 71 -184 114l-195 -880q115 21 221.5 82t188.5 145l141 -127q-117 -119 -271 -202t-323 -97l-59 -270h-135l59 272q-91 5 -203 37l-67 -309h-133l79 360q-168 87 -263 238.5t-95 335.5q0 259 176 446.5t455 218.5
l47 209h135l-45 -205q111 -3 205 -26zM610 195q95 -40 203 -43l207 931q-103 25 -205 25h-2zM317 627q0 -108 46 -203.5t129 -161.5l182 828q-160 -43 -258.5 -171t-98.5 -292z" />
    <glyph glyph-name="franc.tl" horiz-adv-x="1576" 
d="M102 248v143h238v864h1151v-204h-922v-250h561v-205h-561v-205h412v-143h-412v-248h-229v248h-238z" />
    <glyph glyph-name="lira.tl" horiz-adv-x="1576" 
d="M152 709v143h282v68q0 94 43 168t115 118t159 67t181 23q102 0 244.5 -45t267.5 -118l-115 -160q-100 53 -210.5 86t-186.5 33q-108 0 -188 -44.5t-80 -127.5v-68h534v-143h-534v-154h534v-143h-534q-1 -105 -43.5 -157t-141.5 -71h963v-184h-1290v184h84q76 0 116.5 18
t60.5 67t21 143h-282v143h282v154h-282z" />
    <glyph glyph-name="peso.tl" horiz-adv-x="1576" 
d="M66 729v143h198v383h596q244 0 367 -133q90 -101 108 -250h187v-143h-185q-16 -151 -129 -264q-64 -64 -141.5 -92.5t-206.5 -28.5h-366v-344h-230v729h-198zM860 1051h-366v-179h610q-12 67 -47 107q-63 72 -197 72zM1049 618q40 40 55 111h-610v-178h364q127 0 191 67z
" />
    <glyph glyph-name="Rupee.tl" horiz-adv-x="1576" 
d="M133 729v143h920q-12 67 -47 107q-63 72 -197 72h-674v204h1348v-143h-322q106 -87 125 -240h197v-143h-197q-16 -151 -129 -264q-64 -53 -141.5 -76.5t-206.5 -23.5l-234 16l680 -381h-419l-701 403v148h672q126 0 190 67q41 41 56 111h-920z" />
    <glyph glyph-name="section.tl" horiz-adv-x="1576" 
d="M1358 213q-51 -46 -148 -90q20 -20 33 -43q31 -57 31 -119q0 -69 -30.5 -124.5t-79.5 -91t-115 -59.5t-132.5 -34t-136.5 -10q-124 0 -249.5 29t-219.5 81l99 158q74 -38 173.5 -61t196.5 -23q42 0 83.5 5.5t84.5 18.5t69.5 40.5t26.5 64.5q0 35 -22 57q-11 9 -25.5 16.5
t-36 13.5t-38 9.5t-47 7t-47 5.5t-53.5 5.5t-52 4.5q-372 35 -520 178q-103 90 -103 227q0 145 111 248q45 43 145 90q-18 18 -30 39q-29 56 -29 125q0 85 44.5 149.5t118.5 100t156.5 52.5t171.5 17q126 0 252 -29t220 -81l-99 -158q-74 38 -174.5 61t-198.5 23
q-41 0 -79.5 -4.5t-83 -17t-72 -40t-27.5 -67.5q0 -37 23 -57q11 -9 25.5 -16.5t36 -13.5t38 -9.5t46.5 -7t46.5 -5.5t53 -5t51.5 -5q373 -34 522 -178q100 -90 100 -227q0 -148 -110 -250zM844 668q-11 1 -52.5 5t-62 6t-59.5 7t-65 10.5t-58.5 14t-59.5 18.5
q-39 -17 -71 -43q-86 -80 -86 -178q-3 -77 59 -129q91 -84 336 -105q8 -1 53 -5t62.5 -6t58 -7t65.5 -10.5t57.5 -14t59.5 -18.5q33 16 72 43q86 80 86 178q3 77 -59 129q-89 84 -336 105z" />
    <glyph glyph-name="numbersign.tl" horiz-adv-x="1576" 
d="M1049 1364h170l-62 -395h361v-164h-385l-62 -397h340v-164h-367l-69 -457h-168l70 457h-297l-70 -457h-170l70 457h-357v164h383l62 397h-338v164h362l62 395h168l-62 -395h297zM666 805l-62 -397h297l62 397h-297z" />
    <glyph glyph-name="percent.tl" horiz-adv-x="1576" 
d="M23 985q0 158 91.5 271.5t221.5 113.5t223.5 -114t93.5 -271q0 -160 -93 -273.5t-224 -113.5q-130 0 -221.5 113.5t-91.5 273.5zM1167 1337l-577 -1337h-180l579 1337h178zM199 985q0 -86 40.5 -148.5t96.5 -62.5q58 0 100.5 62.5t42.5 148.5t-42 147.5t-101 61.5
q-56 0 -96.5 -61.5t-40.5 -147.5zM922 354q0 158 91.5 271.5t221.5 113.5t223.5 -114t93.5 -271q0 -160 -93 -273.5t-224 -113.5q-130 0 -221.5 113.5t-91.5 273.5zM1098 354q0 -86 40.5 -148.5t96.5 -62.5q58 0 100.5 62.5t42.5 148.5t-42 147.5t-101 61.5
q-56 0 -96.5 -61.5t-40.5 -147.5z" />
    <glyph glyph-name="zero.numerator" horiz-adv-x="1181" 
d="M76 895q0 129 69.5 239t187 173t255.5 63q139 0 258.5 -63t189.5 -172.5t70 -239.5q0 -131 -70 -241t-189 -173t-259 -63q-138 0 -255.5 62.5t-187 173t-69.5 241.5zM274 895q0 -123 92 -211t222 -88q131 0 225 88t94 211q0 121 -94.5 209t-224.5 88t-222 -87.5
t-92 -209.5z" />
    <glyph glyph-name="one.numerator" horiz-adv-x="655" 
d="M59 1065l-43 160l265 112h200v-886h-200v706z" />
    <glyph glyph-name="two.numerator" horiz-adv-x="974" 
d="M207 1063l-119 139q57 42 89 63.5t87.5 50.5t115.5 41.5t130 12.5q99 0 182.5 -25.5t141 -85t57.5 -145.5q0 -58 -24.5 -106t-61 -78.5t-87 -55t-93.5 -39t-90 -27.5q-23 -6 -33 -9q-103 -31 -157 -71.5t-54 -115.5v-2h577v-159h-776v143q0 80 33 145t92 110t127.5 75.5
t151.5 50.5q23 5 46.5 12.5t62 24t62 42t23.5 56.5q0 43 -50.5 62.5t-123.5 19.5q-96 0 -167 -33.5t-142 -95.5z" />
    <glyph glyph-name="three.numerator" horiz-adv-x="1095" 
d="M483 836v159h179q41 0 64.5 24.5t23.5 63.5q0 56 -55 82.5t-126 26.5q-89 0 -173 -39t-150 -100l-121 121q212 196 448 196q62 0 125 -14t121 -42.5t94.5 -79t36.5 -116.5q0 -62 -26.5 -110t-57.5 -64q56 -14 104 -66t48 -145q0 -99 -65 -171.5t-172 -108t-242 -35.5
q-301 0 -494 190l121 140q155 -152 371 -152q122 0 202 39t80 110q0 91 -155 91h-181z" />
    <glyph glyph-name="four.numerator" horiz-adv-x="1165" 
d="M1102 799v-162h-174v-186h-201v186h-674v135l705 565h170v-538h174zM352 803v-4h375v280h-16q-58 -46 -179.5 -138t-179.5 -138z" />
    <glyph glyph-name="five.numerator" horiz-adv-x="1069" 
d="M887 1337v-178h-557v-186q67 43 129 62.5t153 19.5q101 0 189 -32t146.5 -100.5t58.5 -160.5q0 -91 -41.5 -160t-112 -108t-152.5 -57.5t-174 -18.5q-260 0 -467 114l101 160q153 -96 368 -96q74 0 133.5 14t102.5 53t43 99q0 56 -59.5 89.5t-139.5 33.5q-103 0 -180 -27
t-156 -76l-125 86v469h740z" />
    <glyph glyph-name="six.numerator" horiz-adv-x="1099" 
d="M1001 1266l-120 -140q-107 66 -271 66q-136 0 -235.5 -73t-112.5 -199q187 116 381 116q95 0 170.5 -24.5t121 -65t69.5 -89.5t24 -103q0 -146 -119 -241t-307 -95q-101 0 -194 30t-167.5 86.5t-118.5 146.5t-44 200q0 112 43.5 205.5t117 154.5t170.5 95t205 34
q206 0 379 -99q6 -4 8 -5zM627 877q-153 0 -346 -103q37 -86 125 -132t200 -46q97 0 160 48.5t63 113.5q0 46 -50.5 82.5t-151.5 36.5z" />
    <glyph glyph-name="seven.numerator" horiz-adv-x="976" 
d="M63 1159v178h859v-178l-502 -708h-262l534 708h-629z" />
    <glyph glyph-name="eight.numerator" horiz-adv-x="1107" 
d="M555 416q-127 0 -234.5 33t-175 100t-67.5 156q0 95 62 154.5t149 74.5q-78 14 -120 61t-42 125q0 62 40 111.5t104 79.5t137.5 45.5t146.5 15.5q72 0 145 -15.5t137 -45.5t104 -79.5t40 -111.5q0 -159 -164 -186q89 -15 151 -74.5t62 -154.5q0 -89 -68 -156t-175 -100
t-232 -33zM555 594q106 0 182 34t76 95t-80.5 96t-177.5 35q-99 0 -179.5 -35t-80.5 -96t76.5 -95t183.5 -34zM555 999q209 0 209 103q0 51 -65.5 80.5t-143.5 29.5q-80 0 -145.5 -29.5t-65.5 -80.5q0 -103 211 -103z" />
    <glyph glyph-name="nine.numerator" horiz-adv-x="1101" 
d="M100 522l121 140q111 -66 271 -66q135 0 236 73t114 199q-187 -116 -383 -116q-95 0 -170.5 24.5t-121 65t-69.5 89.5t-24 103q0 146 119 241t307 95q101 0 194 -30t167.5 -86.5t118.5 -146.5t44 -200q0 -149 -75 -262t-196 -170t-266 -57q-35 0 -68.5 2.5t-63 8t-55 11
t-50.5 14.5t-42 15t-37 16t-29.5 14.5t-24.5 13t-17 9.5zM477 911q159 0 344 103q-37 85 -125.5 131.5t-199.5 46.5q-96 0 -160 -48.5t-64 -113.5q0 -46 51 -82.5t154 -36.5z" />
    <glyph glyph-name="zero.denominator" horiz-adv-x="1181" 
d="M76 444q0 130 69.5 239.5t187 173t255.5 63.5q139 0 258.5 -63.5t189.5 -173t70 -239.5q0 -131 -70 -241t-189 -173t-259 -63q-138 0 -255.5 62.5t-187 173t-69.5 241.5zM274 444q0 -123 92 -211t222 -88q131 0 225 88t94 211q0 122 -94.5 209.5t-224.5 87.5t-222 -87.5
t-92 -209.5z" />
    <glyph glyph-name="one.denominator" horiz-adv-x="655" 
d="M59 614l-43 160l265 113h200v-887h-200v707z" />
    <glyph glyph-name="two.denominator" horiz-adv-x="974" 
d="M207 612l-119 140q57 42 89 63.5t87.5 50.5t115.5 41.5t130 12.5q99 0 182.5 -25.5t141 -85t57.5 -145.5q0 -42 -13.5 -79.5t-32.5 -64t-52.5 -51t-60 -39.5t-69.5 -31t-65.5 -23t-64.5 -19q-10 -3 -17 -5l-14 -4q-50 -15 -83.5 -29t-65 -35.5t-47 -52t-15.5 -69.5v-2
h577v-160h-776v143q0 80 33 145t92 110t127.5 75.5t151.5 50.5q23 5 46.5 12.5t62 24t62 42t23.5 56.5q0 43 -50.5 62.5t-123.5 19.5q-96 0 -167 -33.5t-142 -95.5z" />
    <glyph glyph-name="three.denominator" horiz-adv-x="1093" 
d="M481 385v160h178q41 0 65 24.5t24 63.5q0 38 -29.5 63.5t-68.5 35t-83 9.5q-89 0 -173 -39t-150 -100l-121 121q213 197 448 197q62 0 125 -14t121 -42.5t94.5 -79t36.5 -116.5q0 -62 -26.5 -110t-57.5 -64q56 -14 104 -66t48 -145q0 -99 -65 -172t-172 -108.5
t-242 -35.5q-300 0 -494 191l121 139q155 -152 371 -152q122 0 202 39.5t80 110.5q0 90 -155 90h-181z" />
    <glyph glyph-name="four.denominator" horiz-adv-x="1165" 
d="M1102 348v-162h-174v-186h-201v186h-674v136l705 565h170v-539h174zM352 352v-4h375v281h-16q-58 -46 -179 -138.5t-180 -138.5z" />
    <glyph glyph-name="five.denominator" horiz-adv-x="1069" 
d="M887 887v-178h-557v-187q67 43 129 62.5t153 19.5q101 0 189 -32t146.5 -100.5t58.5 -160.5q0 -91 -41.5 -160t-112 -108t-152.5 -57.5t-174 -18.5q-258 0 -467 115l101 160q155 -97 368 -97q74 0 133.5 14t102.5 53t43 99q0 56 -59.5 89.5t-139.5 33.5
q-103 0 -180.5 -27t-155.5 -75l-125 86v469h740z" />
    <glyph glyph-name="six.denominator" horiz-adv-x="1101" 
d="M1001 815l-120 -139q-106 65 -271 65q-136 0 -235.5 -73t-112.5 -199q189 117 381 117q184 0 284.5 -84.5t100.5 -198.5q0 -146 -119 -241t-307 -95q-101 0 -194 30t-167.5 86.5t-118.5 146.5t-44 200q0 149 74.5 262t195.5 170.5t266 57.5q32 0 63.5 -2.5t57 -6
t52.5 -10t46 -11.5t41.5 -14l35 -14t31.5 -14.5l25 -12.5t20 -11zM627 426q-155 0 -346 -102q37 -86 125.5 -132.5t199.5 -46.5q97 0 160 48.5t63 113.5q0 46 -50.5 82.5t-151.5 36.5z" />
    <glyph glyph-name="seven.denominator" horiz-adv-x="976" 
d="M63 709v178h859v-178l-502 -709h-262l534 709h-629z" />
    <glyph glyph-name="eight.denominator" horiz-adv-x="1107" 
d="M555 -35q-127 0 -234.5 33t-175 100t-67.5 156q0 95 62 154.5t149 74.5q-78 14 -120 61.5t-42 125.5q0 62 40 111.5t104 79.5t137.5 45.5t146.5 15.5q72 0 145 -15.5t137 -45.5t104 -79.5t40 -111.5q0 -160 -164 -187q89 -15 151 -74.5t62 -154.5q0 -89 -68 -156
t-175 -100t-232 -33zM555 143q106 0 182 34t76 95t-80.5 96t-177.5 35q-99 0 -179.5 -35t-80.5 -96t76.5 -95t183.5 -34zM555 549q209 0 209 102q0 51 -65.5 81t-143.5 30q-50 0 -96.5 -12t-80.5 -38t-34 -61q0 -102 211 -102z" />
    <glyph glyph-name="nine.denominator" horiz-adv-x="1101" 
d="M100 72l121 139q111 -66 271 -66q135 0 236 73.5t114 199.5q-189 -117 -383 -117q-184 0 -284.5 84.5t-100.5 198.5q0 146 119 241t307 95q101 0 194 -30t167.5 -86.5t118.5 -146.5t44 -200q0 -149 -75 -262t-196 -170.5t-266 -57.5q-39 0 -77.5 4t-68 9t-61.5 14.5
t-51.5 16t-44.5 18t-35.5 17t-29 16t-19.5 10.5zM477 461q161 0 344 102q-37 85 -125.5 131.5t-199.5 46.5q-96 0 -160 -48t-64 -113q0 -46 51 -82.5t154 -36.5z" />
    <glyph glyph-name="acute.cap" 
d="M342 1495l205 266h278l-280 -266h-203z" />
    <glyph glyph-name="grave.cap" 
d="M477 1495l-278 266h278l205 -266h-205z" />
    <glyph glyph-name="circumflex.cap" 
d="M182 1495l211 272h238l209 -272h-170l-158 152l-160 -152h-170z" />
    <glyph glyph-name="dieresis.cap" 
d="M168 1628q0 48 36 82.5t89 34.5t90 -35t37 -82q0 -49 -36.5 -82t-90.5 -33t-89.5 32.5t-35.5 82.5zM602 1628q0 48 36 82.5t89 34.5t90 -35t37 -82q0 -49 -36.5 -82t-90.5 -33t-89.5 32.5t-35.5 82.5z" />
    <glyph glyph-name="tilde.cap" 
d="M279 1493l-138 74q57 97 112.5 138.5t121.5 41.5q70 0 145 -53q3 -2 13 -9t13 -9l12 -8t13 -8t11.5 -6.5t12.5 -6t12 -3.5t13.5 -3t12.5 -1q23 0 46 16.5t34 30t35 46.5l126 -70q-102 -182 -233 -182q-76 0 -143 49q-4 3 -17.5 13t-17.5 12.5t-15 9.5t-16 9.5t-14 6.5
t-16 5t-15 1q-12 0 -23.5 -4.5t-19 -9.5t-18.5 -17.5t-15.5 -18.5t-16.5 -22.5t-15 -21.5z" />
    <glyph glyph-name="ring.cap" 
d="M375 1630q0 -49 37 -79.5t94 -30.5q59 0 96 30.5t37 79.5q0 52 -37.5 86.5t-95.5 34.5q-57 0 -94 -35t-37 -86zM506 1421q-121 0 -189.5 60t-68.5 149q0 91 68.5 153t189.5 62t191.5 -62.5t70.5 -152.5q0 -89 -70.5 -149t-191.5 -60z" />
    <glyph glyph-name="cedilla.cap" 
d="M496 39h135l-68 -150q37 11 62 11q83 2 147 -42.5t64 -121.5q0 -90 -93.5 -144.5t-242.5 -54.5q-113 0 -293 45l33 117q10 -2 41 -8t44 -8.5t40 -7t43.5 -6.5t39 -3.5t41.5 -1.5q72 0 114 19t42 55q0 55 -96 55q-25 0 -88 -10l-55 65z" />
    <glyph glyph-name="breve.cap" 
d="M205 1763h153q0 -143 154 -143t154 143h151q0 -41 -7.5 -78t-28.5 -76t-53.5 -67.5t-88 -46.5t-127.5 -18t-127.5 18t-88.5 46.5t-54.5 67.5t-29 76t-7.5 78z" />
    <glyph glyph-name="caron.cap" 
d="M352 1767l160 -151l158 151h170l-209 -272h-238l-211 272h170z" />
    <glyph glyph-name="dotaccent.cap" 
d="M387 1628q0 48 36 82.5t89 34.5t90 -35t37 -82q0 -49 -36.5 -82t-90.5 -33t-89.5 32.5t-35.5 82.5z" />
    <glyph glyph-name="hungarumlaut.cap" 
d="M373 1489h-137l90 287h194zM733 1489h-135l90 287h195z" />
    <glyph glyph-name="macron.cap" 
d="M244 1710h534v-164h-534v164z" />
    <glyph glyph-name="ogonek.cap" 
d="M563 57l99 -57q-224 -98 -224 -217q0 -50 38.5 -78.5t103.5 -28.5q31 0 127 17l18 -131q-95 -25 -182 -25q-133 0 -211 56t-78 149q0 49 24 95.5t58 79t80 63t79.5 47t67.5 30.5z" />
    <glyph glyph-name="commaaccent.cap" 
d="M481 -129l172 43q90 -80 90 -188q0 -105 -88.5 -168.5t-238.5 -63.5q-79 0 -174 25l18 131q86 -12 119 -12q79 0 122.5 27t43.5 77q0 69 -64 129z" />
    <glyph glyph-name="caron.cap.alt" 
d="M426 971v463h211q0 -145 -21 -252.5t-71 -210.5h-119z" />
    <glyph glyph-name="ampersand.cap" horiz-adv-x="1540" 
d="M1124 1253l-114 -180q-55 40 -130 70.5t-151 30.5q-73 0 -115.5 -41.5t-42.5 -102.5q0 -41 30 -93.5t61 -87.5t80 -84.5t57 -57.5l256 -275q112 128 211 305l184 -94q-134 -213 -264 -352l274 -291h-301l-135 143q-228 -176 -455 -176q-58 0 -118.5 12t-125 43t-114 77
t-81.5 121.5t-32 170.5q0 89 25.5 159t73.5 118t100 79.5t121 57.5q-76 109 -76 221q0 105 54.5 186.5t143 123.5t193.5 42q179 0 391 -125zM606 586l-69 73q-41 -18 -71 -36t-65 -48.5t-54 -74t-19 -97.5q0 -111 80 -171t184 -60q144 0 299 111z" />
    <glyph glyph-name="zero.cap" horiz-adv-x="1671" 
d="M113 670q0 145 58 276.5t155 226.5t230 151t278 56q146 0 280 -56t232 -151t156.5 -227t58.5 -276q0 -195 -99 -359.5t-266 -259t-362 -94.5q-145 0 -278 56t-230 151t-155 227.5t-58 278.5zM342 670q0 -137 65.5 -254t179 -185.5t247.5 -68.5t248.5 68.5t181.5 185.5
t67 254q0 136 -67 252.5t-181.5 185t-248.5 68.5t-247.5 -68.5t-179 -185t-65.5 -252.5z" />
    <glyph glyph-name="one.cap" horiz-adv-x="878" 
d="M82 977l-49 184l391 176h229v-1337h-229v1130z" />
    <glyph glyph-name="one.cap.alt" horiz-adv-x="843" 
d="M537 0h-230v1337h230v-1337z" />
    <glyph glyph-name="two.cap" horiz-adv-x="1374" 
d="M270 981l-135 160q73 58 121 90.5t123 72t158 58t180 18.5q102 0 195 -22.5t169.5 -66.5t122 -118t45.5 -169q0 -83 -37 -152.5t-79 -110.5t-127.5 -82t-126.5 -54.5t-132 -40.5q-29 -9 -42 -13q-79 -25 -136 -51.5t-109 -67t-79 -98.5t-27 -133v-17h869v-184h-1098v180
q0 417 571 574q1 0 28 7.5t37 11t39.5 13t44.5 16.5t42.5 20.5t42.5 25t34.5 29t30 35t18 39.5t7.5 46q0 46 -25.5 82t-69 56.5t-94.5 30.5t-108 10q-140 0 -242.5 -50t-210.5 -145z" />
    <glyph glyph-name="three.cap" horiz-adv-x="1544" 
d="M690 614v185h252q63 0 112.5 46.5t49.5 125.5q0 54 -28 95.5t-74 64.5t-97 34t-104 11q-131 0 -255 -61.5t-224 -156.5l-140 142q302 280 623 280q69 0 139.5 -12t141.5 -41t125 -70.5t88 -106t34 -142.5q0 -98 -45.5 -170.5t-99.5 -98.5q40 -10 78.5 -30.5t79 -57
t65.5 -97t25 -136.5q0 -144 -91.5 -250t-244 -158.5t-344.5 -52.5q-211 0 -381.5 67.5t-311.5 208.5l140 160q110 -110 243 -170.5t310 -60.5q195 0 322.5 72t127.5 198q0 53 -26 91t-68 56.5t-81.5 26.5t-80.5 8h-260z" />
    <glyph glyph-name="four.cap" horiz-adv-x="1615" 
d="M1532 487v-184h-252v-303h-229v303h-985v162l1011 872h203v-850h252zM408 496v-9h643v555h-23q-381 -334 -620 -546z" />
    </font>
</defs>
</svg>
