<?xml version="1.0" standalone="no"?>
<!DOCTYPE svg PUBLIC "-//W3C//DTD SVG 1.1//EN" "http://www.w3.org/Graphics/SVG/1.1/DTD/svg11.dtd" >
<svg xmlns="http://www.w3.org/2000/svg" xmlns:xlink="http://www.w3.org/1999/xlink" version="1.1">
<metadata>
Created by FontForge 20170731 at Tue Sep 29 10:57:06 2020
 By Aleksey,,,
Copyright (C) 2011 Markanna Studios Inc.www.SweetFonts.com
</metadata>
<defs>
<font id="SweetSansPro-BoldItalic" horiz-adv-x="1015" >
  <font-face 
    font-family="Sweet Sans Pro"
    font-weight="700"
    font-style="italic"
    font-stretch="normal"
    units-per-em="2048"
    panose-1="2 0 0 0 0 0 0 0 0 0"
    ascent="1577"
    descent="-471"
    x-height="999"
    cap-height="1337"
    bbox="-424 -629 3226 2247"
    underline-thickness="114"
    underline-position="-376"
    slope="-12"
    unicode-range="U+000D-FB04"
  />
<missing-glyph horiz-adv-x="1185" 
d="M0 0v1337h1186v-1337h-1186zM592 516l-291 -328h582zM301 1149l291 -328l291 328h-582zM727 668l250 -279v559zM457 668l-248 280v-559z" />
    <glyph glyph-name="f_f" unicode="ff" horiz-adv-x="1462" 
d="M1325 1157l-35 -158h246l-43 -202h-246l-168 -797h-274l168 797h-414l-168 -797h-274l168 797h-172l43 202h172l34 158q17 81 57.5 141t94.5 93.5t110 49t115 15.5q51 0 115 -11t90 -24l-74 -209q-25 9 -67.5 16t-65.5 7q-40 0 -67 -21t-33 -57l-35 -158h414l35 158
q17 81 57.5 141t94 93.5t109.5 49t115 15.5q51 0 115 -11t90 -24l-73 -209q-25 9 -68 16t-66 7q-40 0 -67 -21t-33 -57z" />
    <glyph glyph-name="f_i" unicode="fi" horiz-adv-x="1361" 
d="M156 999h172l34 158q17 81 57.5 141t94.5 93.5t110 49t115 15.5q51 0 115 -11t90 -24l-74 -209q-25 9 -67.5 16t-65.5 7q-40 0 -67 -21t-33 -57l-35 -158h246l-43 -202h-246l-168 -797h-274l168 797h-172zM1085 0h-274l209 999h272zM1059 1294q0 64 51.5 111t124.5 47
q64 0 107.5 -40.5t43.5 -98.5q0 -65 -52.5 -110.5t-123.5 -45.5q-66 0 -108.5 39.5t-42.5 97.5z" />
    <glyph glyph-name="f_l" unicode="fl" horiz-adv-x="1386" 
d="M156 999h172l34 158q17 81 57.5 141t94.5 93.5t110 49t115 15.5q51 0 115 -11t90 -24l-74 -209q-25 9 -67.5 16t-65.5 7q-40 0 -67 -21t-33 -57l-35 -158h246l-43 -202h-246l-168 -797h-274l168 797h-172zM1087 0h-272l305 1434h273z" />
    <glyph glyph-name="f_f_i" unicode="ffi" horiz-adv-x="2050" 
d="M1325 1157l-35 -158h246l-43 -202h-246l-168 -797h-274l168 797h-414l-168 -797h-274l168 797h-172l43 202h172l34 158q17 81 57.5 141t94.5 93.5t110 49t115 15.5q51 0 115 -11t90 -24l-74 -209q-25 9 -67.5 16t-65.5 7q-40 0 -67 -21t-33 -57l-35 -158h414l35 158
q17 81 57.5 141t94 93.5t109.5 49t115 15.5q51 0 115 -11t90 -24l-73 -209q-25 9 -68 16t-66 7q-40 0 -67 -21t-33 -57zM1774 0h-275l209 999h272zM1747 1294q0 64 51.5 111t124.5 47q64 0 108 -41t44 -98q0 -65 -52.5 -110.5t-124.5 -45.5q-66 0 -108.5 39.5t-42.5 97.5z
" />
    <glyph glyph-name="f_f_l" unicode="ffl" horiz-adv-x="2074" 
d="M1325 1157l-35 -158h246l-43 -202h-246l-168 -797h-274l168 797h-414l-168 -797h-274l168 797h-172l43 202h172l34 158q17 81 57.5 141t94.5 93.5t110 49t115 15.5q51 0 115 -11t90 -24l-74 -209q-25 9 -67.5 16t-65.5 7q-40 0 -67 -21t-33 -57l-35 -158h414l35 158
q17 81 57.5 141t94 93.5t109.5 49t115 15.5q51 0 115 -11t90 -24l-73 -209q-25 9 -68 16t-66 7q-40 0 -67 -21t-33 -57zM1778 0h-275l305 1434h273z" />
    <glyph glyph-name="f_j" unicode="fj" horiz-adv-x="1361" 
d="M156 999h172l34 158q17 81 57.5 141t94.5 93.5t110 49t115 15.5q51 0 115 -11t90 -24l-74 -209q-25 9 -67.5 16t-65.5 7q-40 0 -67 -21t-33 -57l-35 -158h246l-43 -202h-246l-168 -797h-274l168 797h-172zM598 -467l-33 205q40 8 70.5 18.5t65 30t57.5 52t33 77.5
l231 1083h274l-235 -1095q-16 -79 -53.5 -143.5t-85 -106t-104.5 -69.5t-112 -40t-108 -12zM1059 1294q0 64 51.5 111t124.5 47q64 0 109 -41t45 -98q0 -65 -53.5 -110.5t-125.5 -45.5q-66 0 -108.5 39.5t-42.5 97.5z" />
    <glyph glyph-name="f_f_j" unicode="ffj" horiz-adv-x="2050" 
d="M1325 1157l-35 -158h246l-43 -202h-246l-168 -797h-274l168 797h-414l-168 -797h-274l168 797h-172l43 202h172l34 158q17 81 57.5 141t94.5 93.5t110 49t115 15.5q51 0 115 -11t90 -24l-74 -209q-25 9 -67.5 16t-65.5 7q-40 0 -67 -21t-33 -57l-35 -158h414l35 158
q17 81 57.5 141t94 93.5t109.5 49t115 15.5q51 0 115 -11t90 -24l-73 -209q-25 9 -68 16t-66 7q-40 0 -67 -21t-33 -57zM1286 -467l-33 205q40 8 70.5 18.5t65 30t57.5 52t33 77.5l231 1083h275l-236 -1095q-16 -79 -53.5 -143.5t-85 -106t-104.5 -69.5t-112 -40t-108 -12z
M1747 1294q0 64 51.5 111t124.5 47q64 0 109 -41t45 -98q0 -65 -53.5 -110.5t-125.5 -45.5q-66 0 -108.5 39.5t-42.5 97.5z" />
    <glyph glyph-name="f_t" unicode="ft" horiz-adv-x="1521" 
d="M1350 205l-25 -205q-31 -20 -100 -29.5t-123 -9.5q-110 0 -184 52.5t-74 168.5q0 40 8 76l115 539h-408l-168 -797h-274l168 797h-172l43 202h172l34 158q17 81 57.5 141t94.5 93.5t110 49t115 15.5q51 0 115 -11t90 -24l-74 -209q-25 9 -67.5 16t-65.5 7q-40 0 -67 -21
t-33 -57l-35 -158h408l59 283h272l-61 -283h248l-43 -202h-248l-107 -508q-4 -24 -4 -35q0 -64 93 -64q59 0 131 15z" />
    <glyph glyph-name="f_f_t" unicode="fft" horiz-adv-x="2207" 
d="M2036 205l-23 -205q-31 -20 -100.5 -29.5t-124.5 -9.5q-110 0 -184 52.5t-74 168.5q0 40 8 76l115 539h-406l-168 -797h-274l168 797h-414l-168 -797h-274l168 797h-172l43 202h172l34 158q17 81 57.5 141t94.5 93.5t110 49t115 15.5q51 0 115 -11t90 -24l-74 -209
q-25 9 -67.5 16t-65.5 7q-40 0 -67 -21t-33 -57l-35 -158h414l35 158q17 81 57.5 141t94 93.5t109.5 49t115 15.5q51 0 115 -11t90 -24l-73 -209q-25 9 -68 16t-66 7q-40 0 -67 -21t-33 -57l-35 -158h406l59 283h275l-62 -283h248l-43 -202h-248l-106 -508q-4 -12 -4 -35
q0 -64 92 -64q61 0 129 15z" />
    <glyph glyph-name="t_t" unicode="tt" horiz-adv-x="1576" 
d="M90 797l43 202h174l60 283h272l-61 -283h487l59 283h275l-62 -283h248l-43 -202h-248l-106 -508q-4 -12 -4 -35q0 -64 92 -64q62 0 129 15l-23 -205q-31 -20 -100.5 -29.5t-124.5 -9.5q-110 0 -184 52.5t-74 168.5q0 40 8 76l115 539h-487l-107 -508q-4 -24 -4 -35
q0 -64 92 -64q58 0 131 15l-24 -205q-31 -20 -100.5 -29.5t-123.5 -9.5q-110 0 -184 52.5t-74 168.5q0 36 9 76l114 539h-174z" />
    <glyph glyph-name=".notdef" horiz-adv-x="1185" 
d="M0 0v1337h1186v-1337h-1186zM592 516l-291 -328h582zM301 1149l291 -328l291 328h-582zM727 668l250 -279v559zM457 668l-248 280v-559z" />
    <glyph glyph-name=".null" horiz-adv-x="501" 
 />
    <glyph glyph-name=".null" horiz-adv-x="501" 
 />
    <glyph glyph-name="nonmarkingreturn" horiz-adv-x="682" 
 />
    <glyph glyph-name="CR" unicode="&#xd;" horiz-adv-x="495" 
 />
    <glyph glyph-name="space" unicode=" " horiz-adv-x="460" 
 />
    <glyph glyph-name="exclam" unicode="!" horiz-adv-x="663" 
d="M53 127q0 76 61.5 132t147.5 56q74 0 124 -47t50 -114q0 -76 -62.5 -130.5t-148.5 -54.5q-74 0 -123 45.5t-49 112.5zM211 446l53 537l76 354h309l-76 -354l-172 -537h-190z" />
    <glyph glyph-name="quotedbl" unicode="&#x22;" horiz-adv-x="1073" 
d="M393 731h-186l18 359l49 247h291l-49 -247zM936 731h-186l18 359l49 247h291l-49 -247z" />
    <glyph glyph-name="numbersign" unicode="#" horiz-adv-x="1757" 
d="M1235 1264h184l-92 -334h402l-39 -205h-420l-90 -326h383l-41 -209h-400l-106 -389h-182l106 389h-334l-106 -389h-183l107 389h-397l39 209h415l88 326h-381l41 205h398l92 334h184l-92 -334h332zM754 725l-90 -326h333l88 326h-331z" />
    <glyph glyph-name="dollar" unicode="$" horiz-adv-x="1452" 
d="M748 -39q-26 0 -76 4l-58 -229h-192l67 258q-261 65 -452 262l170 166q150 -154 350 -213l74 287q-52 10 -93 19.5t-89 25t-84 33.5t-71 44.5t-57.5 57.5t-36.5 73t-14 91q0 89 41 159t112 114t161.5 66.5t193.5 22.5q54 0 109 -6l45 174h192l-55 -209q194 -53 346 -172
l-186 -168q-84 82 -227 123l-60 -235q76 -15 131.5 -30t119 -43.5t104 -64t67.5 -91.5t27 -126q0 -123 -73.5 -213t-199 -135t-286.5 -45zM1020 319q0 56 -56.5 89t-168.5 57l-74 -285h39q66 0 122 12.5t97 45t41 81.5zM471 872q0 -54 56 -82.5t167 -50.5l62 238
q-58 4 -82 4q-203 0 -203 -109z" />
    <glyph glyph-name="percent" unicode="%" horiz-adv-x="2215" 
d="M1661 1239l-850 -1239h-236l855 1239h231zM1239 311q0 155 132 269t312 114q163 0 276.5 -100t113.5 -240q0 -102 -63 -191.5t-167.5 -141.5t-222.5 -52q-163 0 -272 99t-109 243zM1483 319q0 -61 43.5 -104t107.5 -43q77 0 136 52t59 122q0 61 -46.5 104.5t-111.5 43.5
q-77 0 -132.5 -51.5t-55.5 -123.5zM168 885q0 155 132 270t312 115q163 0 276 -100t113 -240q0 -102 -62.5 -191.5t-167 -141.5t-222.5 -52q-163 0 -272 99t-109 241zM412 893q0 -61 43.5 -104.5t107.5 -43.5q77 0 136 52.5t59 122.5q0 61 -46.5 105t-111.5 44
q-77 0 -132.5 -51.5t-55.5 -124.5z" />
    <glyph glyph-name="ampersand" unicode="&#x26;" horiz-adv-x="1609" 
d="M1278 1196l-145 -219q-49 28 -125 52t-140 24q-71 0 -110 -31t-39 -74q0 -22 10 -47t31.5 -54t36 -47t43.5 -50.5t34 -38.5l220 -256q129 114 258 288l207 -106q-159 -205 -320 -350l248 -287h-361l-106 121q-124 -78 -248 -115t-225 -37q-58 0 -115 11.5t-115 39.5
t-101.5 70t-71 108.5t-27.5 149.5q0 86 28.5 156t81 120t111.5 84t135 62q-49 79 -49 164q0 106 64.5 190t169 128t227.5 44q183 0 393 -100zM872 291q-244 283 -278 323q-184 -84 -184 -233q0 -49 19 -85t50.5 -54.5t63.5 -26.5t65 -8q114 0 264 84z" />
    <glyph glyph-name="quotesingle" unicode="'" horiz-adv-x="532" 
d="M395 731h-186l16 359l49 247h291l-49 -247z" />
    <glyph glyph-name="parenleft" unicode="(" horiz-adv-x="831" 
d="M836 1427l96 -184q-249 -106 -415.5 -333.5t-166.5 -491.5q0 -177 76 -342t203 -269l-166 -147q-191 132 -297.5 333t-106.5 419q0 324 211 596.5t566 418.5z" />
    <glyph glyph-name="parenright" unicode=")" horiz-adv-x="829" 
d="M-16 -340l-97 184q249 104 415.5 332t166.5 492q0 177 -76 342t-203 270l166 147q191 -133 297.5 -333t106.5 -418q0 -324 -210.5 -597t-565.5 -419z" />
    <glyph glyph-name="asterisk" unicode="*" horiz-adv-x="1222" 
d="M379 547l-123 143l246 236l-293 186l92 160l301 -164l86 336l195 -41l-58 -340l340 24l19 -180l-344 -53l129 -315l-170 -80l-156 303z" />
    <glyph glyph-name="plus" unicode="+" horiz-adv-x="1542" 
d="M154 426v233h462v385h269v-385h458v-233h-458v-385h-269v385h-462z" />
    <glyph glyph-name="comma" unicode="," horiz-adv-x="649" 
d="M14 -393l-57 155q53 14 114.5 46t113 84.5t53.5 103.5v14q-32 -8 -60 -8q-63 0 -104 39t-41 98q0 73 62 124.5t147 51.5q88 0 149.5 -66.5t61.5 -170.5q0 -96 -42 -178t-111.5 -138.5t-139.5 -93.5t-146 -61z" />
    <glyph glyph-name="hyphen" unicode="-" horiz-adv-x="827" 
d="M96 406l47 253h574l-49 -253h-572z" />
    <glyph glyph-name="period" unicode="." horiz-adv-x="610" 
d="M33 129q0 75 60.5 130.5t144.5 55.5q76 0 127 -47.5t51 -115.5q0 -75 -61 -129t-146 -54q-76 0 -126 46t-50 114z" />
    <glyph glyph-name="slash" unicode="/" horiz-adv-x="1171" 
d="M1247 1337l-1038 -1581h-303l1040 1581h301z" />
    <glyph glyph-name="zero" unicode="0" horiz-adv-x="1490" 
d="M100 528q0 136 59.5 262t157 215.5t227.5 143t267 53.5q123 0 232.5 -44.5t187 -120t123 -180t45.5 -220.5q0 -137 -60 -263t-158.5 -216.5t-230.5 -144.5t-270 -54q-122 0 -230 45t-184.5 121t-121 181t-44.5 222zM381 547q0 -144 90.5 -244t230.5 -100q106 0 201 57
t153 153.5t58 204.5q0 142 -95 242.5t-233 100.5q-161 0 -283 -124t-122 -290z" />
    <glyph glyph-name="one" unicode="1" horiz-adv-x="823" 
d="M121 780l2 232l371 151h256l-246 -1163h-283l193 897z" />
    <glyph glyph-name="two" unicode="2" horiz-adv-x="1245" 
d="M330 834l-109 200q102 55 163 84t160 56.5t193 27.5q56 0 114 -9t122.5 -33t114 -60.5t82 -97t32.5 -136.5q0 -71 -25 -130t-69.5 -99.5t-96 -71.5t-115.5 -52t-116 -35t-108 -26q-20 -4 -29 -6q-59 -13 -95.5 -22.5t-76 -25t-63.5 -34t-44 -47t-32 -65.5l-8 -31h714
l-51 -221h-993l55 248q72 342 598 434q137 25 193 55q79 42 80 109q0 36 -21 62t-54.5 39t-64 18.5t-59.5 5.5q-92 0 -186 -36t-205 -101z" />
    <glyph glyph-name="three" unicode="3" horiz-adv-x="1376" 
d="M356 821l-118 191q314 190 569 190q81 0 159.5 -21.5t143.5 -60.5t105 -102t40 -139q0 -86 -48.5 -153.5t-129.5 -98.5q152 -80 152 -260q0 -99 -49.5 -178.5t-133 -128.5t-187 -75t-216.5 -26q-195 0 -363.5 81t-291.5 251l198 166q87 -128 211.5 -197.5t264.5 -69.5
q80 0 144 19t105 61t41 101q0 48 -29 79.5t-62 41.5t-66 10h-234l47 213h219q61 0 98.5 35t37.5 90q0 46 -30.5 77t-70 42.5t-82.5 11.5q-177 0 -424 -150z" />
    <glyph glyph-name="four" unicode="4" horiz-adv-x="1441" 
d="M1346 453l-50 -211h-211l-53 -242h-280l51 242h-815l39 168l1005 753h254l-156 -710h216zM444 461l-2 -8h408l80 364h-19q-78 -62 -239.5 -183t-227.5 -173z" />
    <glyph glyph-name="five" unicode="5" horiz-adv-x="1351" 
d="M1255 1163l-67 -231h-678l-51 -240q150 78 305 78q59 0 120 -10.5t124 -37.5t111 -66.5t79 -102.5t31 -141q0 -91 -33 -166.5t-89.5 -127.5t-133 -88t-161.5 -52.5t-177 -16.5q-199 0 -351 59.5t-284 180.5l152 190q94 -97 222 -149t273 -52q48 0 95 9.5t92.5 30t73.5 60
t28 91.5q0 46 -27 81.5t-69 54t-85 27.5t-83 9q-60 0 -125 -12t-110.5 -26t-114.5 -38l-134 135l119 551h948z" />
    <glyph glyph-name="six" unicode="6" horiz-adv-x="1378" 
d="M1311 1053l-162 -189q-156 107 -350 107q-142 0 -264 -91.5t-156 -240.5q218 125 422 125q63 0 126.5 -14t122.5 -43.5t104.5 -71t73 -101.5t27.5 -131q0 -103 -48.5 -189t-128.5 -140.5t-179 -84.5t-203 -30q-87 0 -172 22.5t-161.5 68t-135 109t-93 153t-34.5 192.5
q0 194 95.5 354.5t259 252t356.5 91.5q270 0 500 -149zM709 551q-155 0 -338 -78q19 -132 113 -209t231 -74q40 2 82 13.5t83 34t67 61.5t26 88q0 46 -25 79.5t-66.5 51t-84.5 25.5t-88 8z" />
    <glyph glyph-name="seven" unicode="7" horiz-adv-x="1251" 
d="M156 922l53 241h1083l-51 -225l-817 -938h-363l838 922h-743z" />
    <glyph glyph-name="eight" unicode="8" horiz-adv-x="1402" 
d="M61 354q0 126 87.5 214t232.5 118q-145 62 -145 193q0 72 34 129.5t87 93t122 59.5t133.5 33.5t126.5 9.5q65 0 135.5 -10.5t146.5 -37t135 -65.5t97.5 -101.5t38.5 -139.5q0 -98 -63 -161t-176 -85q85 -37 139.5 -109t54.5 -161q0 -79 -37.5 -144t-96.5 -107.5
t-135 -71.5t-150.5 -41.5t-145.5 -12.5q-73 0 -153 13t-164.5 44t-151 75t-109.5 113t-43 152zM367 387q-7 -50 26 -90.5t87.5 -63t110 -34t101.5 -11.5q37 0 78 8t83.5 24.5t69.5 49.5t27 76q0 49 -34 87t-86.5 58t-104 29.5t-96.5 9.5q-35 0 -72.5 -6t-80.5 -20.5
t-73 -44.5t-36 -72zM530 868q0 -42 30.5 -72t78 -43.5t88 -19.5t76.5 -6q31 0 59 4t59.5 15t50.5 34.5t19 57.5q0 53 -44 89.5t-98 50t-108 13.5q-31 0 -64.5 -6t-68 -19t-56.5 -38.5t-22 -59.5z" />
    <glyph glyph-name="nine" unicode="9" horiz-adv-x="1380" 
d="M76 111l162 186q158 -107 346 -107q142 0 264 90.5t158 239.5q-214 -123 -422 -123q-80 0 -158.5 23t-145.5 66t-108 114.5t-41 159.5q0 103 48.5 188.5t128 140t178.5 84t204 29.5q108 0 212.5 -36t191 -102t139.5 -171.5t53 -233.5q0 -145 -57 -275.5t-153.5 -223
t-228 -147t-276.5 -54.5q-264 0 -495 152zM674 610q154 0 340 78q-20 132 -113.5 209t-228.5 74q-40 -2 -82.5 -13.5t-83.5 -33t-67.5 -60.5t-26.5 -88q0 -46 25.5 -80t66.5 -52t83.5 -26t86.5 -8z" />
    <glyph glyph-name="colon" unicode=":" horiz-adv-x="688" 
d="M76 129q0 75 60.5 130.5t144.5 55.5q76 0 127 -47.5t51 -115.5q0 -75 -61 -129t-146 -54q-76 0 -126 46t-50 114zM197 823q0 76 60 131.5t144 55.5q76 0 127.5 -47t51.5 -115q0 -76 -61 -130t-146 -54q-76 0 -126 45.5t-50 113.5z" />
    <glyph glyph-name="semicolon" unicode=";" horiz-adv-x="696" 
d="M197 823q0 76 60 131.5t144 55.5q76 0 127.5 -47t51.5 -115q0 -76 -61 -130t-146 -54q-76 0 -126 45.5t-50 113.5zM43 -393l-57 155q53 14 114.5 46t112.5 84.5t53 103.5q0 5 1 10l1 4q-32 -8 -61 -8q-61 0 -102.5 39t-41.5 98q0 73 61 124.5t146 51.5q89 0 150 -66.5
t61 -170.5q0 -96 -42 -178t-111 -138.5t-139 -93.5t-146 -61z" />
    <glyph glyph-name="less" unicode="&#x3c;" horiz-adv-x="1542" 
d="M1343 1042v-264l-794 -223v-25l794 -223v-262l-1189 383v231z" />
    <glyph glyph-name="equal" unicode="=" horiz-adv-x="1542" 
d="M154 672v235h1189v-235h-1189zM154 178v236h1189v-236h-1189z" />
    <glyph glyph-name="greater" unicode="&#x3e;" horiz-adv-x="1542" 
d="M154 778v264l1189 -383v-231l-1189 -383v262l796 223v25z" />
    <glyph glyph-name="question" unicode="?" horiz-adv-x="1185" 
d="M354 1012l-139 174q134 95 257 143.5t288 48.5q78 0 147.5 -15.5t130.5 -49t97 -93.5t36 -141q0 -115 -65 -200t-188 -156q-32 -20 -96 -53t-102 -55.5t-77 -67t-53 -101.5h-266q10 67 37 123.5t60 94t82 73t89 57t95 51t87 50.5q67 44 88 68q35 37 35 79
q0 58 -48.5 87.5t-111.5 29.5q-102 0 -190.5 -37t-192.5 -110zM240 131q0 76 60 131t144 55q77 0 128 -47.5t51 -115.5q0 -75 -60.5 -129t-146.5 -54q-76 0 -126 46t-50 114z" />
    <glyph glyph-name="at" unicode="@" horiz-adv-x="2113" 
d="M1384 997h254l-227 -524q-29 -66 -29 -92q0 -70 78 -70q57 0 119.5 35.5t115.5 95t87.5 148.5t34.5 186q0 210 -156.5 343.5t-421.5 133.5q-138 0 -271.5 -37t-248 -108.5t-201.5 -168t-136.5 -224.5t-49.5 -269q0 -119 37.5 -219t101.5 -169t149 -117.5t179 -71.5
t192 -23q134 0 291 39t264 90l47 -170q-110 -59 -286.5 -106t-345.5 -47q-126 0 -248.5 29.5t-235.5 93t-198.5 153.5t-137 220t-51.5 284q0 148 45.5 285.5t125.5 248t191 201.5t240.5 152.5t274.5 95t293 33.5q178 0 325 -49t246 -135.5t153 -205t54 -255.5
q0 -121 -41.5 -233t-110.5 -194.5t-155.5 -144.5t-179.5 -93.5t-179 -31.5q-42 0 -79 9t-71 28t-54 55.5t-21 86.5q-162 -176 -330 -176q-51 0 -96.5 18.5t-82 54.5t-58 96.5t-21.5 137.5q0 100 34.5 196t92 170t127.5 131t145 87t142 30q82 0 138.5 -49t82.5 -129zM928 344
q102 0 221 113l80 184q-9 65 -45.5 109.5t-87.5 44.5q-37 0 -81.5 -23.5t-85 -64t-68 -104t-27.5 -134.5q0 -125 94 -125z" />
    <glyph glyph-name="A" unicode="A" horiz-adv-x="1531" 
d="M-102 0l905 1337h252l336 -1337h-308l-61 283h-621l-182 -283h-321zM854 987l-305 -473h422l-105 473h-12z" />
    <glyph glyph-name="B" unicode="B" horiz-adv-x="1624" 
d="M920 0h-828l281 1337h743q211 0 320 -112q86 -86 86 -201q0 -91 -60 -175t-157 -128q82 -38 130 -110t48 -169q0 -162 -131 -290q-155 -152 -432 -152zM1012 580h-504l-76 -338h477q147 0 213 63q54 51 54 121q0 58 -41 102q-46 52 -123 52zM1051 1094h-433l-63 -303h465
q98 0 151 53q48 45 48 114q0 58 -35 93q-43 43 -133 43z" />
    <glyph glyph-name="C" unicode="C" horiz-adv-x="1570" 
d="M1300 389l158 -194q-138 -105 -302 -170.5t-339 -65.5q-147 0 -276.5 46.5t-224.5 129.5t-150 204t-55 263q0 148 64 289.5t172 248.5t260 172.5t317 65.5q191 0 364.5 -83t292.5 -234l-229 -143q-81 91 -197 148.5t-240 57.5q-133 0 -248.5 -71.5t-183 -189
t-67.5 -247.5q0 -170 116.5 -287.5t301.5 -117.5q118 0 239.5 49t226.5 129z" />
    <glyph glyph-name="D" unicode="D" horiz-adv-x="1660" 
d="M438 252h314q96 0 168 18t116.5 45t98.5 74q70 68 108.5 158.5t38.5 189.5q0 146 -92 246q-57 51 -123.5 75.5t-185.5 24.5h-265zM739 0h-651l287 1337h534q195 0 311 -45.5t212 -136.5q76 -80 115.5 -184t39.5 -217q0 -142 -59 -280.5t-168 -244.5
q-118 -112 -264.5 -170.5t-356.5 -58.5z" />
    <glyph glyph-name="E" unicode="E" horiz-adv-x="1447" 
d="M1053 823l-54 -252h-491l-70 -319h869l-56 -252h-1161l285 1337h1114l-51 -254h-822l-57 -260h494z" />
    <glyph glyph-name="F" unicode="F" horiz-adv-x="1361" 
d="M383 0h-293l285 1337h1104l-54 -254h-811l-57 -270h492l-54 -252h-491z" />
    <glyph glyph-name="G" unicode="G" horiz-adv-x="1654" 
d="M1587 1141l-201 -185q-80 74 -207.5 121t-258.5 47q-98 0 -190.5 -41t-161.5 -110t-110.5 -164.5t-41.5 -198.5q0 -180 123.5 -289.5t328.5 -109.5q167 0 281 57l55 260h-401l51 242h680l-141 -668q-128 -69 -275.5 -106t-286.5 -37q-147 0 -278 46t-229 128t-155.5 205
t-57.5 268q0 149 66.5 290.5t177 247t262.5 170t315 64.5q182 0 350 -63t305 -174z" />
    <glyph glyph-name="H" unicode="H" horiz-adv-x="1642" 
d="M385 0h-295l283 1337h295l-107 -495h633l106 495h295l-284 -1337h-295l125 594h-631z" />
    <glyph glyph-name="I" unicode="I" horiz-adv-x="716" 
d="M385 0h-295l285 1337h295z" />
    <glyph glyph-name="J" unicode="J" horiz-adv-x="1329" 
d="M1012 1337h293l-191 -915q-46 -220 -206.5 -341.5t-381.5 -121.5q-222 0 -367 107t-190 321l269 105q25 -136 102 -207.5t201 -71.5q104 0 181 64t101 178z" />
    <glyph glyph-name="K" unicode="K" horiz-adv-x="1546" 
d="M670 1337l-123 -559l704 559h371l-657 -542l473 -795h-338l-363 621l-262 -205l-90 -416h-295l285 1337h295z" />
    <glyph glyph-name="L" unicode="L" horiz-adv-x="1312" 
d="M375 1337h295l-232 -1085h787l-54 -252h-1081z" />
    <glyph glyph-name="M" unicode="M" horiz-adv-x="1853" 
d="M1520 0h-295l166 776h-11l-508 -624h-81l-242 624h-10l-166 -776h-285l285 1337h268l283 -733h4l592 733h284z" />
    <glyph glyph-name="N" unicode="N" horiz-adv-x="1652" 
d="M90 0l285 1337h250l501 -854h2l181 854h297l-285 -1337h-252l-502 854h-2l-180 -854h-295z" />
    <glyph glyph-name="O" unicode="O" horiz-adv-x="1708" 
d="M113 614q0 152 66 293.5t175 244.5t258 164.5t308 61.5q203 0 368 -87t257.5 -236t92.5 -328q0 -154 -67 -296.5t-178 -245.5t-261.5 -164.5t-310.5 -61.5q-152 0 -284 51t-225 138.5t-146 208.5t-53 257zM422 614q0 -167 115 -285t284 -118q135 0 252 69.5t186.5 188.5
t69.5 258q0 164 -119 280.5t-290 116.5q-204 0 -351 -150t-147 -360z" />
    <glyph glyph-name="P" unicode="P" horiz-adv-x="1523" 
d="M543 739h456q130 0 197 64q53 53 53 125q0 68 -45 116q-46 46 -143 46h-445zM981 492h-492l-104 -492h-295l285 1337h708q232 0 351 -125q108 -111 108 -268q0 -171 -137 -305q-153 -147 -424 -147z" />
    <glyph glyph-name="Q" unicode="Q" horiz-adv-x="1708" 
d="M113 618q0 154 67.5 295.5t178 242.5t257 161.5t299.5 60.5q108 0 214 -30t197.5 -88t161.5 -136.5t110 -184t40 -222.5q0 -175 -86.5 -329.5t-232.5 -262.5l192 -281l-270 -86l-166 242q-121 -41 -250 -41q-136 0 -264 48t-227.5 132t-160 209.5t-60.5 269.5zM774 444
l270 88l123 -184q75 69 118.5 159.5t43.5 192.5q0 178 -121.5 301t-292.5 123q-92 0 -182 -38.5t-159.5 -103t-112.5 -157t-43 -192.5q0 -175 120 -298.5t289 -123.5q44 0 99 10z" />
    <glyph glyph-name="R" unicode="R" horiz-adv-x="1595" 
d="M1542 946q0 -143 -102 -262.5t-262 -163.5l196 -520h-319l-170 492h-396l-104 -492h-297l287 1337h708q234 0 355 -127q104 -113 104 -264zM543 739h477q108 0 176 68q53 50 53 123q0 65 -45 110q-28 28 -63 39t-90 11h-435z" />
    <glyph glyph-name="S" unicode="S" horiz-adv-x="1490" 
d="M1423 1130l-198 -182q-86 93 -223 141t-275 48q-36 0 -70.5 -6t-70.5 -19.5t-58 -42t-22 -68.5q0 -77 99 -117q47 -19 181 -48q215 -40 310 -74q237 -85 277 -264q9 -40 9 -84q0 -144 -78.5 -248t-210.5 -155.5t-302 -51.5q-225 0 -418.5 86t-339.5 252l184 182
q114 -130 265 -205t315 -75q72 0 133 15t106 55t45 100q0 30 -11 54t-35 43t-52.5 33.5t-72.5 27.5t-84.5 22t-98.5 20q-81 16 -126 26.5t-116.5 32.5t-112 48.5t-83.5 65t-62.5 93.5t-19.5 123q0 103 43 184.5t117.5 132t170 77t205.5 26.5q184 0 362.5 -64t317.5 -184z
" />
    <glyph glyph-name="T" unicode="T" horiz-adv-x="1353" 
d="M145 1083l56 254h1259l-53 -254h-481l-232 -1083h-295l230 1083h-484z" />
    <glyph glyph-name="U" unicode="U" horiz-adv-x="1593" 
d="M1274 1337h297l-191 -903q-26 -117 -84 -208.5t-140.5 -149t-183 -87.5t-214.5 -30q-159 0 -291 54t-213.5 161.5t-81.5 249.5q0 103 41 297q22 109 68.5 324.5t62.5 291.5h293l-137 -653q-35 -164 -35 -229q0 -117 86 -180.5t211 -63.5t213.5 64.5t116.5 193.5z" />
    <glyph glyph-name="V" unicode="V" horiz-adv-x="1521" 
d="M1339 1337h332l-905 -1337h-252l-336 1337h318l209 -970h12z" />
    <glyph glyph-name="W" unicode="W" horiz-adv-x="2048" 
d="M221 1337h309l72 -878h12l461 878h213l88 -878h13l442 878h317l-712 -1337h-279l-82 795h-12l-420 -795h-278z" />
    <glyph glyph-name="X" unicode="X" horiz-adv-x="1531" 
d="M1270 1337h375l-670 -645l403 -692h-348l-268 487l-490 -487h-376l716 690l-370 647h348l239 -440z" />
    <glyph glyph-name="Y" unicode="Y" horiz-adv-x="1357" 
d="M1155 1337h369l-690 -731l-129 -606h-295l129 614l-375 723h342l225 -465z" />
    <glyph glyph-name="Z" unicode="Z" horiz-adv-x="1384" 
d="M1235 252l-55 -252h-1180l37 176l885 907h-715l55 254h1141l-39 -178l-885 -907h756z" />
    <glyph glyph-name="bracketleft" unicode="[" horiz-adv-x="786" 
d="M563 -106l-45 -209h-534l364 1726h537l-43 -209h-267l-278 -1308h266z" />
    <glyph glyph-name="backslash" unicode="\" horiz-adv-x="1110" 
d="M612 -244l-364 1581h260l366 -1581h-262z" />
    <glyph glyph-name="bracketright" unicode="]" horiz-adv-x="786" 
d="M258 1411h537l-367 -1726h-537l46 209h266l278 1308h-266z" />
    <glyph glyph-name="asciicircum" unicode="^" horiz-adv-x="1542" 
d="M469 426h-303l457 829h262l448 -829h-301l-270 522h-17z" />
    <glyph glyph-name="underscore" unicode="_" horiz-adv-x="1234" 
d="M-223 -424l41 195h1257l-41 -195h-1257z" />
    <glyph glyph-name="grave" unicode="`" 
d="M332 1430h276l185 -300h-240z" />
    <glyph glyph-name="a" unicode="a" horiz-adv-x="1218" 
d="M713 0q-3 39 2 104q-160 -129 -324 -129q-70 0 -135 21t-118.5 61t-85.5 104t-32 142q0 109 63 188.5t160 116.5t214 37q202 0 338 -113l22 97q8 39 8 57q0 46 -35 76.5t-83.5 41.5t-108.5 11q-78 0 -173.5 -17t-154.5 -38l-47 213q72 22 182.5 39.5t212.5 17.5
q72 0 137.5 -8t130.5 -28t112 -50.5t76.5 -80.5t29.5 -113q0 -38 -29 -183l-76 -360q-23 -113 -16 -207h-270zM293 315q0 -71 56.5 -106t131.5 -35q78 0 149 32.5t107 63.5l19 92q-91 93 -260 93q-86 0 -144.5 -35.5t-58.5 -104.5z" />
    <glyph glyph-name="b" unicode="b" horiz-adv-x="1294" 
d="M897 567q0 103 -45.5 168.5t-136.5 65.5q-62 0 -131 -34.5t-129 -98.5l-74 -359q40 -46 104.5 -77t132.5 -31q125 0 202 109.5t77 256.5zM102 291l242 1143h272l-112 -531q139 129 301 129q119 0 208 -61t134 -163t45 -228q0 -115 -40.5 -224.5t-110.5 -195t-174 -137.5
t-222 -52q-214 0 -328 164q-20 -77 -43 -135h-249q11 29 20.5 58.5t15.5 50.5t13 51t10 43.5t9.5 46t8.5 41.5z" />
    <glyph glyph-name="c" unicode="c" horiz-adv-x="1128" 
d="M1120 854l-190 -168q-54 50 -123.5 82.5t-140.5 32.5q-125 0 -211 -103.5t-86 -240.5q0 -103 66 -180.5t177 -77.5q115 0 269 86l116 -197q-52 -39 -167 -79t-252 -40q-229 0 -366.5 133.5t-137.5 352.5q0 111 46.5 216t125 184.5t189 128t231.5 48.5q130 0 248.5 -46
t205.5 -132z" />
    <glyph glyph-name="d" unicode="d" horiz-adv-x="1292" 
d="M1313 1434l-244 -1155q-35 -168 -39 -279h-254q-2 33 8 117q-151 -146 -311 -146q-92 0 -169 35.5t-127.5 95.5t-78.5 139t-28 167q0 112 40.5 223.5t110.5 200.5t174.5 144.5t222.5 55.5q173 0 310 -147q17 93 56.5 280t55.5 269h273zM883 696q-43 43 -107 74t-129 31
q-83 0 -149 -54t-99.5 -135t-33.5 -170q0 -98 46.5 -169.5t137.5 -71.5q128 0 258 135z" />
    <glyph glyph-name="e" unicode="e" horiz-adv-x="1212" 
d="M915 268l109 -178q-248 -121 -473 -121q-113 0 -204 38t-149.5 103.5t-90 151t-31.5 182.5q0 160 76 295t208.5 214t290.5 79q92 0 174 -26t148.5 -77.5t105.5 -136.5t39 -194q0 -52 -16 -166h-762q8 -105 72.5 -174.5t177.5 -69.5q149 0 325 80zM647 823
q-99 0 -172 -57.5t-108 -151.5h485q4 98 -56 153.5t-149 55.5z" />
    <glyph glyph-name="f" unicode="f" horiz-adv-x="774" 
d="M156 999h172l34 158q17 81 57.5 141t94.5 93.5t110 49t115 15.5q51 0 115 -11t90 -24l-74 -209q-25 9 -67.5 16t-65.5 7q-40 0 -67 -21t-33 -57l-35 -158h246l-43 -202h-246l-168 -797h-274l168 797h-172z" />
    <glyph glyph-name="g" unicode="g" horiz-adv-x="1294" 
d="M721 -76l39 185q-134 -127 -287 -127q-92 0 -168.5 35.5t-127 96t-78 140t-27.5 168.5q0 157 68.5 296.5t194 226.5t277.5 87q104 0 190 -46.5t144 -125.5q9 44 45 139h256q-55 -137 -86 -290l-170 -807q-38 -172 -177 -270.5t-345 -98.5q-128 0 -252.5 41.5
t-216.5 126.5l141 168q64 -56 156.5 -87.5t179.5 -31.5q105 0 166.5 48t77.5 126zM367 442q0 -99 45.5 -165t132.5 -66q64 0 135.5 35t130.5 98l72 348q-42 45 -107.5 77t-132.5 32q-122 0 -199 -107.5t-77 -251.5z" />
    <glyph glyph-name="h" unicode="h" horiz-adv-x="1249" 
d="M39 0l303 1434h274l-114 -537q79 62 150 98.5t149 36.5q132 0 225.5 -88t93.5 -227q0 -47 -20 -164l-119 -553h-274l122 580q17 66 17 106q0 57 -40 86t-97 29q-66 0 -127 -35t-129 -98l-142 -668h-272z" />
    <glyph glyph-name="i" unicode="i" horiz-adv-x="591" 
d="M313 0h-272l207 999h274zM287 1294q0 63 52 110.5t124 47.5q65 0 109 -40.5t44 -98.5q0 -65 -53 -110.5t-125 -45.5q-66 0 -108.5 39.5t-42.5 97.5z" />
    <glyph glyph-name="j" unicode="j" horiz-adv-x="591" 
d="M-174 -467l-35 205q41 8 72 18.5t65 30t57 52t33 77.5l232 1083h272l-233 -1095q-17 -79 -55 -143.5t-85 -106t-104.5 -69.5t-111.5 -40t-107 -12zM285 1294q0 63 52 110.5t124 47.5q65 0 109 -40.5t44 -98.5q0 -65 -53 -110.5t-125 -45.5q-66 0 -108.5 39.5t-42.5 97.5z
" />
    <glyph glyph-name="k" unicode="k" horiz-adv-x="1167" 
d="M858 999h359l-451 -366l311 -633h-317l-211 459l-168 -137l-68 -322h-274l305 1434h274l-169 -793z" />
    <glyph glyph-name="l" unicode="l" horiz-adv-x="626" 
d="M330 0h-275l305 1434h275z" />
    <glyph glyph-name="m" unicode="m" horiz-adv-x="1847" 
d="M43 0l156 743q25 117 28 256h248q5 -51 -2 -125q178 158 328 158q89 0 155.5 -48.5t104.5 -133.5q87 87 182 134.5t182 47.5q121 0 208 -85.5t87 -231.5q0 -63 -22 -164l-117 -551h-276l118 559q21 99 21 123q0 55 -37.5 87t-91.5 32q-59 0 -119.5 -39.5t-110.5 -97.5
l-137 -664h-276l141 655q13 63 -27 104.5t-106 41.5q-105 0 -223 -131l-140 -670h-274z" />
    <glyph glyph-name="n" unicode="n" horiz-adv-x="1251" 
d="M803 1032q134 0 227.5 -88.5t93.5 -226.5q0 -49 -22 -166l-117 -551h-274l118 555q1 7 7 33t10 51t4 43q0 58 -41 88.5t-100 30.5q-108 0 -252 -133l-142 -668h-272l156 743q25 116 28 256h248q5 -54 -2 -127q83 74 161.5 117t168.5 43z" />
    <glyph glyph-name="o" unicode="o" horiz-adv-x="1273" 
d="M76 459q0 158 77.5 289t215.5 207.5t307 76.5q226 0 359.5 -136.5t133.5 -346.5q0 -118 -45 -225t-123.5 -185t-190.5 -124t-239 -46q-227 0 -361 139t-134 351zM356 467q0 -116 61.5 -194t172.5 -78q133 0 217 101.5t84 244.5q0 114 -62 189t-174 75
q-130 0 -214.5 -99.5t-84.5 -238.5z" />
    <glyph glyph-name="p" unicode="p" horiz-adv-x="1294" 
d="M-51 -424l246 1145q34 149 38 278h254q2 -38 -6 -116q30 28 54.5 47.5t67 46.5t93 41t105.5 14q119 0 210.5 -62.5t138 -164t46.5 -223.5q0 -111 -41 -220t-111.5 -196t-175.5 -141t-223 -54q-90 0 -164 35.5t-143 110.5l-115 -541h-274zM459 668l-76 -359
q43 -45 106 -76.5t129 -31.5q122 -1 201.5 108t79.5 250q0 99 -46 170.5t-136 71.5q-131 0 -258 -133z" />
    <glyph glyph-name="q" unicode="q" horiz-adv-x="1294" 
d="M367 436q0 -99 45.5 -167t132.5 -68q63 0 134 35t130 98l74 358q-40 45 -105.5 77t-132.5 32q-83 0 -147.5 -53.5t-97.5 -136t-33 -175.5zM1161 709l-239 -1133h-275l113 524q-136 -129 -287 -129q-184 0 -292.5 126.5t-108.5 318.5q0 115 40 225.5t110 197.5t174 140
t222 53q102 0 186 -44.5t142 -127.5q5 22 43 139h260q-50 -120 -88 -290z" />
    <glyph glyph-name="r" unicode="r" horiz-adv-x="835" 
d="M662 770q-50 0 -98 -32t-111 -95l-138 -643h-272l152 717q24 125 30 282h250q-3 -66 -12 -149q36 45 62 72.5t60.5 55.5t73 41t82.5 13q36 0 73 -11t56 -30l-57 -250q-85 29 -151 29z" />
    <glyph glyph-name="s" unicode="s" horiz-adv-x="1146" 
d="M1073 881l-133 -183q-78 53 -183 90t-192 37q-58 0 -100 -21t-45 -69q-1 -20 8.5 -36t23.5 -26t38.5 -18t44.5 -12.5t51 -9.5q43 -7 68 -12t69 -15.5t72.5 -22t65.5 -29t60.5 -40t45.5 -51.5t32.5 -67t10.5 -83q0 -163 -129 -255.5t-334 -92.5q-152 0 -294.5 52.5
t-256.5 152.5l133 184q83 -77 199 -128.5t227 -51.5q42 0 79.5 10t66 37.5t28.5 67.5q0 28 -14.5 48.5t-42 33t-53.5 19.5t-64 13q-169 31 -237 58q-156 62 -173 201q-2 18 -2 38q0 156 115.5 246t304.5 90q133 0 268.5 -41.5t241.5 -113.5z" />
    <glyph glyph-name="t" unicode="t" horiz-adv-x="819" 
d="M90 797l43 202h174l60 283h272l-61 -283h247l-43 -202h-247l-107 -508q-4 -24 -4 -35q0 -64 92 -64q58 0 131 15l-24 -205q-31 -20 -100.5 -29.5t-123.5 -9.5q-110 0 -184 52.5t-74 168.5q0 36 9 76l114 539h-174z" />
    <glyph glyph-name="u" unicode="u" horiz-adv-x="1251" 
d="M1180 999l-154 -733q-30 -144 -35 -266h-250q-3 34 7 125q-82 -73 -160.5 -115.5t-167.5 -42.5q-135 0 -228.5 89t-93.5 227q0 44 23 166l117 550h274l-119 -555q-20 -90 -20 -122q0 -63 41 -93t100 -30q110 0 252 131l141 669h273z" />
    <glyph glyph-name="v" unicode="v" horiz-adv-x="1146" 
d="M907 999h293l-649 -999h-219l-221 999h292l107 -630h12z" />
    <glyph glyph-name="w" unicode="w" horiz-adv-x="1632" 
d="M780 999h248l47 -639h12l291 639h289l-534 -999h-261l-43 612h-12l-307 -612h-258l-105 999h275l33 -639h12z" />
    <glyph glyph-name="x" unicode="x" horiz-adv-x="1228" 
d="M920 999h354l-504 -491l301 -508h-326l-170 328l-307 -328h-354l526 516l-301 483h330l164 -305z" />
    <glyph glyph-name="y" unicode="y" horiz-adv-x="1124" 
d="M518 403h12l390 596h299l-975 -1423h-299l379 533l-213 890h288z" />
    <glyph glyph-name="z" unicode="z" horiz-adv-x="1089" 
d="M932 211l-45 -211h-901l32 156l609 630h-480l43 213h863l-33 -157l-608 -631h520z" />
    <glyph glyph-name="braceleft" unicode="{" horiz-adv-x="827" 
d="M604 -106l-45 -209q-242 0 -336 41t-94 163q0 53 16 138l60 274q4 28 4 43q0 117 -180 117l45 205q85 0 156.5 47.5t88.5 124.5l50 227q18 88 45.5 147t67.5 100t104 62t143 30t197 9l-43 -209q-127 0 -175.5 -24.5t-66.5 -104.5l-49 -237q-23 -101 -96.5 -171.5
t-169.5 -93.5l-2 -10q159 -28 159 -178q0 -43 -8 -84l-61 -285q-4 -32 -4 -45q0 -46 42 -61.5t152 -15.5z" />
    <glyph glyph-name="bar" unicode="|" horiz-adv-x="708" 
d="M219 -629v2482h258v-2482h-258z" />
    <glyph glyph-name="braceright" unicode="}" horiz-adv-x="825" 
d="M-111 -315l45 209q125 0 174 23t66 99l62 285q28 126 95.5 186.5t168.5 75.5l2 10q-71 19 -115.5 73t-44.5 130q0 39 6 62l51 237q4 32 4 43q1 51 -41 68.5t-149 17.5l43 209q238 0 333 -44t95 -169q0 -64 -16 -135l-50 -227q-2 -10 -2 -31q-1 -63 51 -102t128 -39
l-45 -205q-209 0 -244 -160l-57 -274q-16 -73 -36 -125t-52 -91t-71.5 -62.5t-100 -38.5t-130.5 -20t-170 -5z" />
    <glyph glyph-name="asciitilde" unicode="~" horiz-adv-x="1542" 
d="M268 369l-202 131q125 139 225.5 206.5t208.5 67.5q46 0 91 -10.5t74 -22.5t65.5 -36t49 -34t41.5 -34q47 -40 85 -62t77 -22q90 0 244 164l209 -129q-249 -285 -459 -285q-25 0 -50 3t-44.5 7t-42 12.5t-37 14.5t-34.5 18t-29.5 18t-27.5 20t-23 17.5t-21 17.5t-17 15
q-98 78 -159 78q-75 0 -224 -155z" />
    <glyph glyph-name="nbspace" unicode="&#xa0;" horiz-adv-x="460" 
 />
    <glyph glyph-name="exclamdown" unicode="&#xa1;" horiz-adv-x="657" 
d="M541 856q0 -76 -61.5 -132t-147.5 -56q-74 0 -124 47t-50 114q0 76 62.5 130.5t148.5 54.5q74 0 123 -45.5t49 -112.5zM383 537l-53 -537l-76 -354h-309l75 354l173 537h190z" />
    <glyph glyph-name="cent" unicode="&#xa2;" horiz-adv-x="1241" 
d="M786 1108h193l-59 -182q137 -45 235 -127l-184 -166q-66 48 -131 72l-162 -510q122 12 252 75l121 -192q-56 -35 -172 -71t-256 -36h-5l-73 -235h-193l82 260q-165 43 -257.5 157.5t-92.5 276.5q0 102 46.5 199.5t125 171t190 118t234.5 44.5q9 0 29 -1t30 -1zM375 430
q0 -65 37.5 -122t103.5 -87l162 514q-129 -3 -216 -94t-87 -211z" />
    <glyph glyph-name="sterling" unicode="&#xa3;" horiz-adv-x="1454" 
d="M115 537l35 168h256l26 147q15 87 66.5 156t123.5 110t152.5 62.5t161.5 21.5q106 0 236.5 -36.5t240.5 -96.5l-160 -197q-81 43 -174 71t-161 28q-71 0 -131.5 -40.5t-73.5 -113.5l-21 -112h451l-35 -168h-444l-17 -103q-15 -97 -64 -145.5t-153 -67.5h842l-43 -221
h-1223l43 221h86q110 0 156 43.5t69 169.5l17 103h-262z" />
    <glyph glyph-name="currency" unicode="&#xa4;" horiz-adv-x="1728" 
d="M262 492q0 211 141 374l-190 226l219 143l174 -205q147 80 307 80q188 0 332 -109l223 173l183 -183l-242 -186q49 -107 49 -221q0 -206 -145 -377l196 -227l-225 -136l-174 203q-147 -80 -311 -80q-186 0 -330 109l-215 -168l-182 182l237 184q-47 100 -47 218zM553 494
q0 -114 73.5 -196.5t174.5 -82.5q147 0 255.5 108.5t108.5 258.5q0 117 -74.5 198.5t-179.5 81.5q-146 0 -252 -108.5t-106 -259.5z" />
    <glyph glyph-name="yen" unicode="&#xa5;" horiz-adv-x="1589" 
d="M133 647l29 150h323l-213 366h332l215 -391l381 391h359l-365 -366h317l-26 -150h-441l-120 -123v-2h534l-31 -147h-536l-80 -375h-285l78 375h-526l28 147h531l2 10l-68 115h-438z" />
    <glyph glyph-name="brokenbar" unicode="&#xa6;" horiz-adv-x="708" 
d="M219 788v844h258v-844h-258zM219 -467v860h258v-860h-258z" />
    <glyph glyph-name="section" unicode="&#xa7;" horiz-adv-x="1449" 
d="M1192 184q-58 -50 -148 -88q12 -30 13 -35q8 -24 8 -63q0 -107 -66.5 -183.5t-166.5 -111.5t-218 -35q-127 0 -253 40t-234 112l147 170q75 -46 167.5 -78.5t181.5 -32.5q153 0 153 86q0 25 -12 37q-28 30 -196 69q-5 1 -7.5 2t-6.5 2t-8 1.5t-7 1.5q-284 63 -389 184
q-74 77 -74 182q0 143 125 246q56 48 147 86q-4 8 -14 51q-6 18 -6 54q0 79 40 142.5t105.5 102.5t145 59.5t163.5 20.5q127 0 255 -40.5t239 -112.5l-146 -170q-85 48 -184.5 81t-181.5 33q-136 0 -146 -77q-6 -27 13 -46q6 -7 15 -13t22.5 -11.5t25.5 -9.5t34 -9.5
t36.5 -9t44.5 -10t47 -10.5q279 -63 387 -187q74 -81 74 -184q0 -71 -33 -135.5t-92 -110.5zM772 571q-7 1 -53 11t-62.5 14.5t-52 13.5t-61.5 18.5t-51 20.5q-2 -1 -56 -37q-80 -65 -80 -135q0 -43 31 -74q24 -27 69 -48t76.5 -29t90.5 -21q203 -41 278 -80q31 17 55 37
q80 65 80 135q0 43 -30 76q-52 61 -234 98z" />
    <glyph glyph-name="dieresis" unicode="&#xa8;" 
d="M281 1268q0 60 48 104.5t115 44.5q59 0 98.5 -38t39.5 -91q0 -60 -49 -101.5t-117 -41.5q-59 0 -97 35t-38 88zM741 1268q0 60 47.5 104.5t114.5 44.5q59 0 99 -38t40 -91q0 -60 -48.5 -101.5t-116.5 -41.5q-60 0 -98 35t-38 88z" />
    <glyph glyph-name="copyright" unicode="&#xa9;" horiz-adv-x="2150" 
d="M1505 887l-104 -182q-138 106 -291 106q-119 0 -193.5 -75t-74.5 -185q0 -103 79.5 -167.5t194.5 -64.5q86 0 152 23t147 68l98 -177q-93 -65 -186 -98t-233 -33q-144 0 -263 55t-189.5 158.5t-70.5 235.5q0 202 143 338.5t373 136.5q108 0 218 -38.5t200 -100.5z
M1075 1446q193 0 369.5 -70.5t305 -190t204.5 -286t76 -350.5t-76 -350.5t-204.5 -286t-305 -190t-369.5 -70.5q-195 0 -372.5 70.5t-307 190t-206 286t-76.5 350.5t76.5 350.5t206 286t307 190t372.5 70.5zM1075 1264q-152 0 -292 -57.5t-242 -154t-163 -229t-61 -274.5
q0 -145 61 -277.5t163 -227.5t242 -151.5t292 -56.5q154 0 293 56.5t239 151.5t159 227t59 278q0 143 -59 274.5t-159 228.5t-239 154.5t-293 57.5z" />
    <glyph glyph-name="ordfeminine" unicode="&#xaa;" horiz-adv-x="958" 
d="M272 993l-36 168q150 41 303 41q71 0 133 -10t119 -32.5t90.5 -64.5t33.5 -100q0 -36 -18 -135l-55 -256q-17 -71 -11 -153h-219v73q-58 -45 -112 -70.5t-123 -25.5q-114 0 -201.5 66.5t-87.5 179.5q0 117 97 182.5t235 65.5q146 0 250 -76l16 63q6 18 6 35
q0 48 -47.5 69t-118.5 21q-120 0 -254 -41zM442 588q93 0 189 69l12 56q-74 57 -194 57q-55 0 -96 -19.5t-44 -64.5q-1 -50 39.5 -74t93.5 -24z" />
    <glyph glyph-name="guillemotleft" unicode="&#xab;" horiz-adv-x="1267" 
d="M344 831h293l-313 -315l-2 -16l196 -299h-282l-166 256l22 116zM598 500l2 16l307 315h293l-317 -321l-4 -16l194 -293h-282z" />
    <glyph glyph-name="logicalnot" unicode="&#xac;" horiz-adv-x="1542" 
d="M1343 231h-270v396h-919v233h1189v-629z" />
    <glyph glyph-name="registered" unicode="&#xae;" horiz-adv-x="1292" 
d="M659 401q-211 0 -348 130t-137 321q0 142 79.5 266t214.5 197.5t290 73.5q140 0 254 -62.5t176.5 -167t62.5 -227.5q0 -143 -81.5 -266t-218 -194t-292.5 -71zM670 498q126 0 236 58t175.5 157t65.5 213q0 154 -112.5 262t-284.5 108q-125 0 -234.5 -59.5t-174.5 -160
t-65 -214.5q0 -155 111.5 -259.5t282.5 -104.5zM543 664h-129l118 491h304q74 0 118.5 -42.5t44.5 -100.5q0 -52 -41.5 -98.5t-103.5 -63.5l74 -186h-140l-61 174h-143zM635 1057l-27 -117h185q31 0 56 18t25 43q0 21 -17.5 38.5t-47.5 17.5h-174z" />
    <glyph glyph-name="macron" unicode="&#xaf;" 
d="M403 1362h549l-41 -191h-549z" />
    <glyph glyph-name="degree" unicode="&#xb0;" horiz-adv-x="1021" 
d="M616 1300q173 0 279 -98t106 -241q0 -79 -35 -152t-95 -128t-145.5 -87.5t-182.5 -32.5q-180 0 -285.5 103t-97.5 254q9 158 137 270t319 112zM559 762q87 0 143 54t56 130q0 65 -43.5 109.5t-116.5 44.5q-84 0 -138 -52t-57 -128q-5 -66 39 -112t117 -46z" />
    <glyph glyph-name="plusminus" unicode="&#xb1;" horiz-adv-x="1542" 
d="M154 662v235h462v317h269v-317h458v-235h-458v-318h-269v318h-462zM154 0v233h1189v-233h-1189z" />
    <glyph glyph-name="two.superior" unicode="&#xb2;" horiz-adv-x="989" 
d="M319 1069l-94 168q82 43 131 66t130.5 45t158.5 22q45 0 92.5 -7t100.5 -26t93.5 -47.5t67.5 -76t27 -107.5q0 -54 -20 -99.5t-57 -77t-78 -55t-94 -40.5t-94 -28t-88 -21l-15 -3q-53 -12 -80.5 -19t-59 -17.5t-46.5 -21.5t-28 -27.5t-20 -39.5l-6 -20h565l-39 -186h-807
l41 198q55 260 478 330q121 21 164 49q40 25 40 62q0 26 -15.5 44.5t-40 26.5t-46.5 11.5t-43 3.5q-129 0 -318 -107z" />
    <glyph glyph-name="three.superior" unicode="&#xb3;" horiz-adv-x="1095" 
d="M348 1063l-106 158q259 147 460 147q91 0 173.5 -28t139 -87t56.5 -137q0 -65 -35.5 -113.5t-97.5 -72.5q121 -69 121 -205q0 -97 -68.5 -168t-173.5 -104t-231 -33q-333 0 -533 254l166 137q73 -96 171.5 -147.5t209.5 -51.5q95 0 158 31.5t63 89.5q0 49 -39.5 70.5
t-83.5 21.5h-190l39 176h176q46 0 73 24.5t27 59.5q0 33 -23.5 54.5t-53 29t-62.5 7.5q-140 0 -336 -113z" />
    <glyph glyph-name="acute" unicode="&#xb4;" 
d="M649 1430h275l-222 -300h-237z" />
    <glyph glyph-name="mu" unicode="&#xb5;" horiz-adv-x="1275" 
d="M1184 999l-154 -733q-30 -144 -35 -266h-250q-3 34 7 125q-82 -73 -160.5 -115.5t-167.5 -42.5q-74 0 -117 37l-98 -453h-275l308 1448h274l-119 -555q-20 -90 -20 -120q0 -59 42 -92t101 -33q107 0 250 131l141 669h273z" />
    <glyph glyph-name="paragraph" unicode="&#xb6;" horiz-adv-x="1859" 
d="M969 -424h-254l200 940h-354q-100 0 -188.5 42.5t-147.5 130t-59 202.5q0 198 119 322t336 124h1189l-376 -1761h-252l327 1532h-217zM1042 1108h-417q-73 0 -131 -49.5t-58 -143.5q0 -78 50 -124t114 -46h365z" />
    <glyph glyph-name="periodcentered" unicode="&#xb7;" horiz-adv-x="1542" 
d="M541 543q0 76 60 130t149 54q87 0 147.5 -54t60.5 -130q0 -77 -60 -130t-148 -53q-90 0 -149.5 53t-59.5 130z" />
    <glyph glyph-name="cedilla" unicode="&#xb8;" 
d="M369 49h190l-90 -121q35 -10 54.5 -16.5t48.5 -20.5t45 -29.5t28 -41t12 -56.5q0 -101 -105.5 -165t-264.5 -64q-55 0 -112 10t-94 20.5t-101 31.5l71 141q9 -2 46.5 -11.5t52 -12.5t43 -9t50 -8t42.5 -2q61 0 96 18t35 49q0 33 -38.5 49.5t-82.5 16.5q-25 0 -35 -2
l-14 61z" />
    <glyph glyph-name="one.superior" unicode="&#xb9;" horiz-adv-x="669" 
d="M154 1028l-2 195l294 114h222l-183 -886h-243l139 663z" />
    <glyph glyph-name="ordmasculine" unicode="&#xba;" horiz-adv-x="976" 
d="M123 788q0 113 61 208.5t166 150.5t228 55q170 0 276.5 -100.5t106.5 -253.5q0 -175 -133.5 -297.5t-323.5 -122.5q-169 0 -275 102.5t-106 257.5zM350 793q0 -81 43.5 -134t124.5 -53q97 0 157 69t60 167q0 80 -44.5 130t-127.5 50q-96 0 -154.5 -66t-58.5 -163z" />
    <glyph glyph-name="guillemotright" unicode="&#xbb;" horiz-adv-x="1269" 
d="M903 201h-295l314 315l4 16l-197 299h281l168 -256l-25 -116zM649 532l-4 -16l-307 -315h-291l318 321l2 17l-193 292h281z" />
    <glyph glyph-name="onequarter" unicode="&#xbc;" horiz-adv-x="2230" 
d="M152 1028l-2 195l294 114h222l-181 -886h-243l137 663zM1245 1337h234l-899 -1337h-238zM2128 356l-37 -178h-170l-37 -178h-239l36 178h-653l29 137l796 572h218l-113 -531h170zM1417 360v-4h301l51 242h-16z" />
    <glyph glyph-name="onehalf" unicode="&#xbd;" horiz-adv-x="2097" 
d="M152 1028l-2 195l294 114h222l-181 -886h-243l137 663zM1245 1337h234l-899 -1337h-238zM1333 618l-94 168q63 33 98.5 50t93 40t113.5 33.5t115 10.5q45 0 92.5 -7t100.5 -26t93.5 -48t67.5 -76.5t27 -107.5q0 -47 -17.5 -87t-38 -68t-65 -54.5t-70.5 -40t-85.5 -31
t-77 -21.5t-76.5 -17q-11 -3 -17 -4q-125 -27 -171 -49.5t-62 -75.5l-6 -21h565l-39 -186h-807l41 199q55 259 477 329q121 21 164 48q41 26 41 63q0 26 -15.5 44.5t-40 26.5t-46.5 11.5t-43 3.5q-129 0 -318 -107z" />
    <glyph glyph-name="threequarters" unicode="&#xbe;" horiz-adv-x="2656" 
d="M346 1063l-104 158q259 147 460 147q91 0 173 -28t138 -87t56 -137q0 -65 -35.5 -113.5t-97.5 -72.5q123 -68 123 -205q0 -97 -68.5 -168t-173.5 -104t-231 -33q-336 0 -533 254l164 137q75 -97 174 -148t209 -51q94 0 157.5 32t63.5 89q0 49 -40 70.5t-85 21.5h-188
l37 176h178q45 0 71.5 24.5t26.5 59.5q0 47 -42 69t-95 22q-71 0 -161.5 -32t-176.5 -81zM1671 1337h234l-899 -1337h-238zM2554 356l-37 -178h-170l-37 -178h-239l36 178h-653l29 137l796 572h218l-113 -531h170zM1843 360v-4h301l51 242h-16z" />
    <glyph glyph-name="questiondown" unicode="&#xbf;" horiz-adv-x="1175" 
d="M762 -29l139 -174q-134 -95 -257 -143.5t-288 -48.5q-78 0 -147.5 15.5t-130.5 49t-97 93.5t-36 141q0 115 65.5 200t188.5 156q29 19 77 43t81.5 43t70.5 45.5t61.5 63t36.5 82.5h267q-10 -67 -37 -123.5t-60.5 -94t-82 -73t-89 -57t-95.5 -51t-87 -50.5
q-67 -44 -88 -68q-35 -37 -35 -79q0 -58 48.5 -87.5t111.5 -29.5q102 0 190.5 37t192.5 110zM877 852q0 -75 -60.5 -130.5t-144.5 -55.5q-77 0 -127.5 47.5t-50.5 115.5q0 75 60 129t146 54q76 0 126.5 -46t50.5 -114z" />
    <glyph glyph-name="Agrave" unicode="&#xc0;" horiz-adv-x="1531" 
d="M-102 0l905 1337h252l336 -1337h-308l-61 283h-621l-182 -283h-321zM854 987l-305 -473h422l-105 473h-12zM936 1769l205 -282h-246l-252 282h293z" />
    <glyph glyph-name="Aacute" unicode="&#xc1;" horiz-adv-x="1531" 
d="M-102 0l905 1337h252l336 -1337h-308l-61 283h-621l-182 -283h-321zM854 987l-305 -473h422l-105 473h-12zM782 1487l205 282h293l-254 -282h-244z" />
    <glyph glyph-name="Acircumflex" unicode="&#xc2;" horiz-adv-x="1531" 
d="M-102 0l905 1337h252l336 -1337h-308l-61 283h-621l-182 -283h-321zM854 987l-305 -473h422l-105 473h-12zM608 1487l279 285h270l156 -285h-203l-102 151l-170 -151h-230z" />
    <glyph glyph-name="Atilde" unicode="&#xc3;" horiz-adv-x="1531" 
d="M-102 0l905 1337h252l336 -1337h-308l-61 283h-621l-182 -283h-321zM854 987l-305 -473h422l-105 473h-12zM727 1477l-143 88q86 108 157 154t146 46q72 0 137 -51q4 -3 18 -14.5t20 -15t17 -10t20.5 -9t20.5 -2.5q23 0 50.5 17.5t40 30t44.5 46.5l134 -82
q-154 -205 -302 -205q-70 0 -133 48q-5 4 -16.5 14t-16 13.5t-14 10.5t-16 9.5t-15.5 5t-18 2.5q-12 0 -24.5 -4.5t-21.5 -10t-22.5 -18t-20.5 -19t-22 -23t-20 -21.5z" />
    <glyph glyph-name="Adieresis" unicode="&#xc4;" horiz-adv-x="1531" 
d="M-102 0l905 1337h252l336 -1337h-308l-61 283h-621l-182 -283h-321zM854 987l-305 -473h422l-105 473h-12zM612 1622q0 60 48.5 105t115.5 45q59 0 99 -38.5t40 -91.5q0 -60 -48.5 -101.5t-116.5 -41.5q-60 0 -99 35t-39 88zM1073 1622q0 61 48 105.5t116 44.5
q58 0 97.5 -38.5t39.5 -91.5q0 -60 -49 -101.5t-117 -41.5q-59 0 -97 35t-38 88z" />
    <glyph glyph-name="Aring" unicode="&#xc5;" horiz-adv-x="1531" 
d="M-102 0l905 1337h252l336 -1337h-308l-61 283h-621l-182 -283h-321zM854 987l-305 -473h422l-105 473h-12zM872 1630q0 -41 30.5 -65.5t78.5 -24.5q57 0 94 30.5t37 80.5q0 43 -30.5 72.5t-77.5 29.5q-54 0 -93 -36t-39 -87zM969 1419q-123 0 -189.5 58t-66.5 145
q0 101 81.5 174.5t221.5 73.5q122 0 189 -61t67 -150q0 -100 -82 -170t-221 -70z" />
    <glyph glyph-name="AE" unicode="&#xc6;" horiz-adv-x="2185" 
d="M-158 0l1096 1337h1288l-53 -254h-819l-58 -260h492l-51 -252h-494l-69 -319h868l-53 -252h-1162l60 283h-477l-230 -283h-338zM592 514h344l123 569h-10z" />
    <glyph glyph-name="Ccedilla" unicode="&#xc7;" horiz-adv-x="1570" 
d="M1300 389l158 -194q-138 -105 -302 -170.5t-339 -65.5q-9 0 -27 1t-26 1l-25 -33q35 -10 54.5 -16.5t49 -20.5t45.5 -29.5t28 -41t12 -56.5q0 -101 -106 -165t-265 -64q-55 0 -112 10t-94 20.5t-101 31.5l72 141q11 -3 47 -12t51 -12.5t42.5 -9t49.5 -7.5t43 -2
q61 0 96 18t35 49q0 33 -38.5 49.5t-82.5 16.5q-25 0 -35 -2l-14 61l76 103q-217 58 -349 221t-132 391q0 148 64 289.5t172 248.5t260 172.5t317 65.5q191 0 364.5 -83t292.5 -234l-229 -143q-81 91 -197 148.5t-240 57.5q-133 0 -248.5 -71.5t-183 -189t-67.5 -247.5
q0 -170 116.5 -287.5t301.5 -117.5q118 0 239.5 49t226.5 129z" />
    <glyph glyph-name="Egrave" unicode="&#xc8;" horiz-adv-x="1447" 
d="M1053 823l-54 -252h-491l-70 -319h869l-56 -252h-1161l285 1337h1114l-51 -254h-822l-57 -260h494zM938 1769l205 -282h-246l-252 282h293z" />
    <glyph glyph-name="Eacute" unicode="&#xc9;" horiz-adv-x="1447" 
d="M1053 823l-54 -252h-491l-70 -319h869l-56 -252h-1161l285 1337h1114l-51 -254h-822l-57 -260h494zM784 1487l205 282h293l-254 -282h-244z" />
    <glyph glyph-name="Ecircumflex" unicode="&#xca;" horiz-adv-x="1447" 
d="M1053 823l-54 -252h-491l-70 -319h869l-56 -252h-1161l285 1337h1114l-51 -254h-822l-57 -260h494zM610 1487l279 285h270l156 -285h-203l-102 151l-170 -151h-230z" />
    <glyph glyph-name="Edieresis" unicode="&#xcb;" horiz-adv-x="1447" 
d="M1053 823l-54 -252h-491l-70 -319h869l-56 -252h-1161l285 1337h1114l-51 -254h-822l-57 -260h494zM614 1622q0 60 48.5 105t115.5 45q59 0 99.5 -38.5t40.5 -91.5q0 -60 -49 -101.5t-117 -41.5q-60 0 -99 35t-39 88zM1075 1622q0 61 48 105.5t116 44.5q58 0 97.5 -38.5
t39.5 -91.5q0 -60 -49 -101.5t-117 -41.5q-59 0 -97 35t-38 88z" />
    <glyph glyph-name="Igrave" unicode="&#xcc;" horiz-adv-x="716" 
d="M385 0h-295l285 1337h295zM526 1769l205 -282h-246l-252 282h293z" />
    <glyph glyph-name="Iacute" unicode="&#xcd;" horiz-adv-x="716" 
d="M385 0h-295l285 1337h295zM373 1487l205 282h292l-254 -282h-243z" />
    <glyph glyph-name="Icircumflex" unicode="&#xce;" horiz-adv-x="716" 
d="M385 0h-295l285 1337h295zM199 1487l278 285h271l155 -285h-203l-102 151l-170 -151h-229z" />
    <glyph glyph-name="Idieresis" unicode="&#xcf;" horiz-adv-x="716" 
d="M385 0h-295l285 1337h295zM203 1622q0 60 48.5 105t115.5 45q59 0 99 -38.5t40 -91.5q0 -60 -49 -101.5t-117 -41.5q-60 0 -98.5 35t-38.5 88zM664 1622q0 61 47.5 105.5t115.5 44.5q58 0 98 -38.5t40 -91.5q0 -60 -49 -101.5t-117 -41.5q-59 0 -97 35t-38 88z" />
    <glyph glyph-name="Eth" unicode="&#xd0;" horiz-adv-x="1722" 
d="M74 575l45 213h196l117 549h537q193 0 309.5 -45.5t210.5 -136.5q77 -81 117.5 -185t40.5 -216q0 -140 -60 -279t-168 -246q-120 -112 -265 -170.5t-355 -58.5h-652l123 575h-196zM496 252h315q139 0 220.5 33t160.5 104q71 68 110 158.5t39 189.5q0 148 -94 246
q-57 52 -123 76t-186 24h-262l-66 -295h357l-45 -213h-357z" />
    <glyph glyph-name="Ntilde" unicode="&#xd1;" horiz-adv-x="1652" 
d="M90 0l285 1337h250l501 -854h2l181 854h297l-285 -1337h-252l-502 854h-2l-180 -854h-295zM784 1477l-143 88q86 108 157 154t146 46q72 0 137 -51q2 -2 18 -14.5t20.5 -15t16.5 -10t21.5 -9.5t20.5 -2q23 0 50.5 17.5t40 30t44.5 46.5l133 -82q-154 -205 -301 -205
q-70 0 -133 48q-4 3 -16.5 13.5t-16.5 14t-14.5 10.5t-16.5 9.5t-15 5t-18 2.5q-12 0 -24.5 -4.5t-21.5 -10t-22.5 -18t-20.5 -19t-22 -23t-20 -21.5z" />
    <glyph glyph-name="Ograve" unicode="&#xd2;" horiz-adv-x="1708" 
d="M113 614q0 152 66 293.5t175 244.5t258 164.5t308 61.5q203 0 368 -87t257.5 -236t92.5 -328q0 -154 -67 -296.5t-178 -245.5t-261.5 -164.5t-310.5 -61.5q-152 0 -284 51t-225 138.5t-146 208.5t-53 257zM422 614q0 -167 115 -285t284 -118q135 0 252 69.5t186.5 188.5
t69.5 258q0 164 -119 280.5t-290 116.5q-204 0 -351 -150t-147 -360zM993 1769l205 -282h-246l-252 282h293z" />
    <glyph glyph-name="Oacute" unicode="&#xd3;" horiz-adv-x="1708" 
d="M113 614q0 152 66 293.5t175 244.5t258 164.5t308 61.5q203 0 368 -87t257.5 -236t92.5 -328q0 -154 -67 -296.5t-178 -245.5t-261.5 -164.5t-310.5 -61.5q-152 0 -284 51t-225 138.5t-146 208.5t-53 257zM422 614q0 -167 115 -285t284 -118q135 0 252 69.5t186.5 188.5
t69.5 258q0 164 -119 280.5t-290 116.5q-204 0 -351 -150t-147 -360zM840 1487l204 282h293l-254 -282h-243z" />
    <glyph glyph-name="Ocircumflex" unicode="&#xd4;" horiz-adv-x="1708" 
d="M113 614q0 152 66 293.5t175 244.5t258 164.5t308 61.5q203 0 368 -87t257.5 -236t92.5 -328q0 -154 -67 -296.5t-178 -245.5t-261.5 -164.5t-310.5 -61.5q-152 0 -284 51t-225 138.5t-146 208.5t-53 257zM422 614q0 -167 115 -285t284 -118q135 0 252 69.5t186.5 188.5
t69.5 258q0 164 -119 280.5t-290 116.5q-204 0 -351 -150t-147 -360zM666 1487l278 285h270l156 -285h-203l-102 151l-170 -151h-229z" />
    <glyph glyph-name="Otilde" unicode="&#xd5;" horiz-adv-x="1708" 
d="M113 614q0 152 66 293.5t175 244.5t258 164.5t308 61.5q203 0 368 -87t257.5 -236t92.5 -328q0 -154 -67 -296.5t-178 -245.5t-261.5 -164.5t-310.5 -61.5q-152 0 -284 51t-225 138.5t-146 208.5t-53 257zM422 614q0 -167 115 -285t284 -118q135 0 252 69.5t186.5 188.5
t69.5 258q0 164 -119 280.5t-290 116.5q-204 0 -351 -150t-147 -360zM784 1477l-143 88q86 108 157 154t146 46q72 0 137 -51q2 -2 18 -14.5t20.5 -15t16.5 -10t21.5 -9.5t20.5 -2q23 0 50.5 17.5t40 30t44.5 46.5l133 -82q-154 -205 -301 -205q-70 0 -133 48
q-4 3 -16.5 13.5t-16.5 14t-14.5 10.5t-16.5 9.5t-15 5t-18 2.5q-12 0 -24.5 -4.5t-21.5 -10t-22.5 -18t-20.5 -19t-22 -23t-20 -21.5z" />
    <glyph glyph-name="Odieresis" unicode="&#xd6;" horiz-adv-x="1708" 
d="M113 614q0 152 66 293.5t175 244.5t258 164.5t308 61.5q203 0 368 -87t257.5 -236t92.5 -328q0 -154 -67 -296.5t-178 -245.5t-261.5 -164.5t-310.5 -61.5q-152 0 -284 51t-225 138.5t-146 208.5t-53 257zM422 614q0 -167 115 -285t284 -118q135 0 252 69.5t186.5 188.5
t69.5 258q0 164 -119 280.5t-290 116.5q-204 0 -351 -150t-147 -360zM670 1622q0 60 48.5 105t115.5 45q59 0 99 -38.5t40 -91.5q0 -60 -49 -101.5t-117 -41.5q-60 0 -98.5 35t-38.5 88zM1130 1622q0 61 48 105.5t116 44.5q58 0 98 -38.5t40 -91.5q0 -60 -49 -101.5
t-117 -41.5q-60 0 -98 35t-38 88z" />
    <glyph glyph-name="multiply" unicode="&#xd7;" horiz-adv-x="1542" 
d="M158 883l182 174l412 -352l409 352l178 -172l-399 -342l401 -342l-182 -172l-411 350l-412 -350l-176 170l399 342z" />
    <glyph glyph-name="Oslash" unicode="&#xd8;" horiz-adv-x="1708" 
d="M1462 1477l150 -119l-166 -182q92 -89 142 -204.5t50 -244.5q0 -154 -67 -296.5t-178 -245.5t-261.5 -164.5t-310.5 -61.5q-215 0 -391 102l-182 -200l-152 119l185 200q-168 182 -168 434q0 152 66 293.5t175 244.5t258 164.5t308 61.5q203 0 370 -90zM1329 727
q0 130 -80 234l-633 -695q88 -55 205 -55q135 0 252 69.5t186.5 188.5t69.5 258zM422 614q0 -121 59 -213l621 680q-88 43 -182 43q-204 0 -351 -150t-147 -360z" />
    <glyph glyph-name="Ugrave" unicode="&#xd9;" horiz-adv-x="1593" 
d="M1274 1337h297l-191 -903q-26 -117 -84 -208.5t-140.5 -149t-183 -87.5t-214.5 -30q-159 0 -291 54t-213.5 161.5t-81.5 249.5q0 103 41 297q22 109 68.5 324.5t62.5 291.5h293l-137 -653q-35 -164 -35 -229q0 -117 86 -180.5t211 -63.5t213.5 64.5t116.5 193.5z
M963 1769l204 -282h-245l-252 282h293z" />
    <glyph glyph-name="Uacute" unicode="&#xda;" horiz-adv-x="1593" 
d="M1274 1337h297l-191 -903q-26 -117 -84 -208.5t-140.5 -149t-183 -87.5t-214.5 -30q-159 0 -291 54t-213.5 161.5t-81.5 249.5q0 103 41 297q22 109 68.5 324.5t62.5 291.5h293l-137 -653q-35 -164 -35 -229q0 -117 86 -180.5t211 -63.5t213.5 64.5t116.5 193.5z
M809 1487l205 282h293l-254 -282h-244z" />
    <glyph glyph-name="Ucircumflex" unicode="&#xdb;" horiz-adv-x="1593" 
d="M1274 1337h297l-191 -903q-26 -117 -84 -208.5t-140.5 -149t-183 -87.5t-214.5 -30q-159 0 -291 54t-213.5 161.5t-81.5 249.5q0 103 41 297q22 109 68.5 324.5t62.5 291.5h293l-137 -653q-35 -164 -35 -229q0 -117 86 -180.5t211 -63.5t213.5 64.5t116.5 193.5z
M635 1487l278 285h271l155 -285h-202l-103 151l-170 -151h-229z" />
    <glyph glyph-name="Udieresis" unicode="&#xdc;" horiz-adv-x="1593" 
d="M1274 1337h297l-191 -903q-26 -117 -84 -208.5t-140.5 -149t-183 -87.5t-214.5 -30q-159 0 -291 54t-213.5 161.5t-81.5 249.5q0 103 41 297q22 109 68.5 324.5t62.5 291.5h293l-137 -653q-35 -164 -35 -229q0 -117 86 -180.5t211 -63.5t213.5 64.5t116.5 193.5z
M639 1622q0 60 48.5 105t115.5 45q59 0 99 -38.5t40 -91.5q0 -60 -49 -101.5t-117 -41.5q-60 0 -98.5 35t-38.5 88zM1100 1622q0 61 48 105.5t116 44.5q58 0 97.5 -38.5t39.5 -91.5q0 -60 -49 -101.5t-117 -41.5q-59 0 -97 35t-38 88z" />
    <glyph glyph-name="Yacute" unicode="&#xdd;" horiz-adv-x="1357" 
d="M1155 1337h369l-690 -731l-129 -606h-295l129 614l-375 723h342l225 -465zM696 1487l205 282h293l-254 -282h-244z" />
    <glyph glyph-name="Thorn" unicode="&#xde;" horiz-adv-x="1562" 
d="M492 494h497q127 0 195 65q55 49 55 123q0 69 -45 117q-45 45 -143 45h-486zM375 1337h295l-54 -245h457q231 0 350 -125q109 -112 109 -269q0 -170 -139 -303q-77 -76 -176 -112.5t-242 -36.5h-539l-51 -246h-295z" />
    <glyph glyph-name="germandbls" unicode="&#xdf;" horiz-adv-x="1257" 
d="M524 -16l-2 206q64 -2 121.5 9t105.5 35.5t76.5 68.5t28.5 103q1 56 -23 105t-62.5 81.5t-77 53t-73.5 30.5l48 207q91 11 158 76.5t67 148.5q0 59 -41 96t-109 37q-70 0 -128.5 -51t-80.5 -156l-221 -1034h-272l227 1065q23 105 74.5 184t120 123t142 65t151.5 21
q73 0 145 -19.5t133.5 -57t100 -100t38.5 -140.5q0 -117 -81.5 -211.5t-215.5 -132.5q39 -15 80 -46.5t81.5 -78t66.5 -115t26 -143.5q0 -81 -29 -152t-78.5 -122t-115 -87.5t-140 -54.5t-151.5 -18q-32 0 -90 4z" />
    <glyph glyph-name="agrave" unicode="&#xe0;" horiz-adv-x="1218" 
d="M713 0q-3 39 2 104q-160 -129 -324 -129q-70 0 -135 21t-118.5 61t-85.5 104t-32 142q0 109 63 188.5t160 116.5t214 37q202 0 338 -113l22 97q8 39 8 57q0 46 -35 76.5t-83.5 41.5t-108.5 11q-78 0 -173.5 -17t-154.5 -38l-47 213q72 22 182.5 39.5t212.5 17.5
q72 0 137.5 -8t130.5 -28t112 -50.5t76.5 -80.5t29.5 -113q0 -38 -29 -183l-76 -360q-23 -113 -16 -207h-270zM293 315q0 -71 56.5 -106t131.5 -35q78 0 149 32.5t107 63.5l19 92q-91 93 -260 93q-86 0 -144.5 -35.5t-58.5 -104.5zM436 1430h277l184 -300h-240z" />
    <glyph glyph-name="aacute" unicode="&#xe1;" horiz-adv-x="1218" 
d="M713 0q-3 39 2 104q-160 -129 -324 -129q-70 0 -135 21t-118.5 61t-85.5 104t-32 142q0 109 63 188.5t160 116.5t214 37q202 0 338 -113l22 97q8 39 8 57q0 46 -35 76.5t-83.5 41.5t-108.5 11q-78 0 -173.5 -17t-154.5 -38l-47 213q72 22 182.5 39.5t212.5 17.5
q72 0 137.5 -8t130.5 -28t112 -50.5t76.5 -80.5t29.5 -113q0 -38 -29 -183l-76 -360q-23 -113 -16 -207h-270zM293 315q0 -71 56.5 -106t131.5 -35q78 0 149 32.5t107 63.5l19 92q-91 93 -260 93q-86 0 -144.5 -35.5t-58.5 -104.5zM754 1430h274l-221 -300h-238z" />
    <glyph glyph-name="acircumflex" unicode="&#xe2;" horiz-adv-x="1218" 
d="M713 0q-3 39 2 104q-160 -129 -324 -129q-70 0 -135 21t-118.5 61t-85.5 104t-32 142q0 109 63 188.5t160 116.5t214 37q202 0 338 -113l22 97q8 39 8 57q0 46 -35 76.5t-83.5 41.5t-108.5 11q-78 0 -173.5 -17t-154.5 -38l-47 213q72 22 182.5 39.5t212.5 17.5
q72 0 137.5 -8t130.5 -28t112 -50.5t76.5 -80.5t29.5 -113q0 -38 -29 -183l-76 -360q-23 -113 -16 -207h-270zM293 315q0 -71 56.5 -106t131.5 -35q78 0 149 32.5t107 63.5l19 92q-91 93 -260 93q-86 0 -144.5 -35.5t-58.5 -104.5zM381 1133l278 288h271l155 -288h-206
l-101 155l-170 -155h-227z" />
    <glyph glyph-name="atilde" unicode="&#xe3;" horiz-adv-x="1218" 
d="M713 0q-3 39 2 104q-160 -129 -324 -129q-70 0 -135 21t-118.5 61t-85.5 104t-32 142q0 109 63 188.5t160 116.5t214 37q202 0 338 -113l22 97q8 39 8 57q0 46 -35 76.5t-83.5 41.5t-108.5 11q-78 0 -173.5 -17t-154.5 -38l-47 213q72 22 182.5 39.5t212.5 17.5
q72 0 137.5 -8t130.5 -28t112 -50.5t76.5 -80.5t29.5 -113q0 -38 -29 -183l-76 -360q-23 -113 -16 -207h-270zM293 315q0 -71 56.5 -106t131.5 -35q78 0 149 32.5t107 63.5l19 92q-91 93 -260 93q-86 0 -144.5 -35.5t-58.5 -104.5zM500 1122l-146 88q86 108 157.5 154.5
t145.5 46.5q76 0 138 -51q5 -4 23.5 -18t25.5 -18t21 -9.5t26 -5.5q24 0 51.5 17.5t40.5 30t45 46.5l133 -82q-154 -205 -303 -205q-73 0 -131 47q-7 5 -20.5 16.5t-20 16.5t-17 11.5t-20 9t-20.5 2.5q-14 0 -27.5 -5t-28 -17.5t-23.5 -21t-26.5 -27.5t-23.5 -26z" />
    <glyph glyph-name="adieresis" unicode="&#xe4;" horiz-adv-x="1218" 
d="M713 0q-3 39 2 104q-160 -129 -324 -129q-70 0 -135 21t-118.5 61t-85.5 104t-32 142q0 109 63 188.5t160 116.5t214 37q202 0 338 -113l22 97q8 39 8 57q0 46 -35 76.5t-83.5 41.5t-108.5 11q-78 0 -173.5 -17t-154.5 -38l-47 213q72 22 182.5 39.5t212.5 17.5
q72 0 137.5 -8t130.5 -28t112 -50.5t76.5 -80.5t29.5 -113q0 -38 -29 -183l-76 -360q-23 -113 -16 -207h-270zM293 315q0 -71 56.5 -106t131.5 -35q78 0 149 32.5t107 63.5l19 92q-91 93 -260 93q-86 0 -144.5 -35.5t-58.5 -104.5zM385 1268q0 60 48.5 104.5t115.5 44.5
q59 0 98 -38t39 -91q0 -60 -49 -101.5t-117 -41.5q-59 0 -97 35t-38 88zM846 1268q0 60 47.5 104.5t114.5 44.5q59 0 99 -38t40 -91q0 -60 -49 -101.5t-117 -41.5q-59 0 -97 35t-38 88z" />
    <glyph glyph-name="aring" unicode="&#xe5;" horiz-adv-x="1218" 
d="M713 0q-3 39 2 104q-160 -129 -324 -129q-70 0 -135 21t-118.5 61t-85.5 104t-32 142q0 109 63 188.5t160 116.5t214 37q202 0 338 -113l22 97q8 39 8 57q0 46 -35 76.5t-83.5 41.5t-108.5 11q-78 0 -173.5 -17t-154.5 -38l-47 213q72 22 182.5 39.5t212.5 17.5
q72 0 137.5 -8t130.5 -28t112 -50.5t76.5 -80.5t29.5 -113q0 -38 -29 -183l-76 -360q-23 -113 -16 -207h-270zM293 315q0 -71 56.5 -106t131.5 -35q78 0 149 32.5t107 63.5l19 92q-91 93 -260 93q-86 0 -144.5 -35.5t-58.5 -104.5zM647 1323q0 -41 30.5 -66.5t78.5 -25.5
q56 0 93.5 30.5t37.5 79.5q0 45 -30 75t-79 30q-54 0 -92.5 -36t-38.5 -87zM487 1313q0 101 82 174.5t222 73.5q122 0 189 -60.5t67 -148.5q0 -100 -82.5 -170t-221.5 -70q-123 0 -189.5 57t-66.5 144z" />
    <glyph glyph-name="ae" unicode="&#xe6;" horiz-adv-x="1927" 
d="M1632 268l109 -178q-249 -121 -457 -121q-265 0 -395 172q-102 -74 -233.5 -122t-252.5 -48q-100 0 -185.5 36.5t-141.5 114t-56 181.5q0 82 36 148.5t97.5 108t138.5 63.5t163 22q208 0 344 -113q2 17 14 73.5t12 78.5q0 37 -19.5 63.5t-53 40.5t-71.5 20.5t-83 6.5
q-78 0 -173.5 -17t-154.5 -38l-47 213q72 23 182.5 40t215.5 17q281 0 380 -127q10 -15 13 -18q138 147 358 147q88 0 168.5 -25.5t147 -76t106.5 -136t41 -194.5q0 -54 -16 -168h-766q8 -107 76.5 -175.5t185.5 -68.5q69 0 158 24t159 56zM496 455q-51 0 -94 -12t-76 -45
t-33 -83q0 -70 56 -105.5t128 -35.5q70 0 166.5 37t167.5 84q-1 8 -5 25t-5 22q-143 113 -305 113zM1362 823q-102 0 -175.5 -58t-109.5 -151h492q4 96 -55.5 152.5t-151.5 56.5z" />
    <glyph glyph-name="ccedilla" unicode="&#xe7;" horiz-adv-x="1128" 
d="M1120 854l-190 -168q-54 50 -123.5 82.5t-140.5 32.5q-125 0 -211 -103.5t-86 -240.5q0 -103 66 -180.5t177 -77.5q115 0 269 86l116 -197q-52 -39 -167 -79t-252 -40h-23l-31 -41q35 -10 54.5 -16.5t49 -20.5t45.5 -29.5t28 -41t12 -56.5q0 -101 -106 -165t-265 -64
q-55 0 -112 10t-94 20.5t-101 31.5l71 141q9 -2 46.5 -11.5t52 -12.5t43 -9t50 -8t42.5 -2q61 0 96 18t35 49q0 33 -38.5 49.5t-82.5 16.5q-25 0 -35 -2l-14 61l84 113q-147 47 -229 167t-82 288q0 111 46.5 216t125 184.5t189 128t231.5 48.5q130 0 248.5 -46t205.5 -132z
" />
    <glyph glyph-name="egrave" unicode="&#xe8;" horiz-adv-x="1212" 
d="M915 268l109 -178q-248 -121 -473 -121q-113 0 -204 38t-149.5 103.5t-90 151t-31.5 182.5q0 160 76 295t208.5 214t290.5 79q92 0 174 -26t148.5 -77.5t105.5 -136.5t39 -194q0 -52 -16 -166h-762q8 -105 72.5 -174.5t177.5 -69.5q149 0 325 80zM647 823
q-99 0 -172 -57.5t-108 -151.5h485q4 98 -56 153.5t-149 55.5zM432 1430h277l184 -300h-240z" />
    <glyph glyph-name="eacute" unicode="&#xe9;" horiz-adv-x="1212" 
d="M915 268l109 -178q-248 -121 -473 -121q-113 0 -204 38t-149.5 103.5t-90 151t-31.5 182.5q0 160 76 295t208.5 214t290.5 79q92 0 174 -26t148.5 -77.5t105.5 -136.5t39 -194q0 -52 -16 -166h-762q8 -105 72.5 -174.5t177.5 -69.5q149 0 325 80zM647 823
q-99 0 -172 -57.5t-108 -151.5h485q4 98 -56 153.5t-149 55.5zM750 1430h274l-221 -300h-238z" />
    <glyph glyph-name="ecircumflex" unicode="&#xea;" horiz-adv-x="1212" 
d="M915 268l109 -178q-248 -121 -473 -121q-113 0 -204 38t-149.5 103.5t-90 151t-31.5 182.5q0 160 76 295t208.5 214t290.5 79q92 0 174 -26t148.5 -77.5t105.5 -136.5t39 -194q0 -52 -16 -166h-762q8 -105 72.5 -174.5t177.5 -69.5q149 0 325 80zM647 823
q-99 0 -172 -57.5t-108 -151.5h485q4 98 -56 153.5t-149 55.5zM377 1133l278 288h271l155 -288h-207l-100 155l-170 -155h-227z" />
    <glyph glyph-name="edieresis" unicode="&#xeb;" horiz-adv-x="1212" 
d="M915 268l109 -178q-248 -121 -473 -121q-113 0 -204 38t-149.5 103.5t-90 151t-31.5 182.5q0 160 76 295t208.5 214t290.5 79q92 0 174 -26t148.5 -77.5t105.5 -136.5t39 -194q0 -52 -16 -166h-762q8 -105 72.5 -174.5t177.5 -69.5q149 0 325 80zM647 823
q-99 0 -172 -57.5t-108 -151.5h485q4 98 -56 153.5t-149 55.5zM381 1268q0 60 48.5 104.5t115.5 44.5q59 0 98 -38t39 -91q0 -60 -49 -101.5t-117 -41.5q-59 0 -97 35t-38 88zM842 1268q0 60 47.5 104.5t114.5 44.5q59 0 99 -38t40 -91q0 -60 -49 -101.5t-117 -41.5
q-59 0 -97 35t-38 88z" />
    <glyph glyph-name="igrave" unicode="&#xec;" horiz-adv-x="591" 
d="M313 0h-272l207 999h274zM117 1430h276l185 -300h-240z" />
    <glyph glyph-name="iacute" unicode="&#xed;" horiz-adv-x="591" 
d="M313 0h-272l207 999h274zM434 1430h275l-222 -300h-237z" />
    <glyph glyph-name="icircumflex" unicode="&#xee;" horiz-adv-x="591" 
d="M313 0h-272l207 999h274zM61 1133l279 288h270l156 -288h-207l-100 155l-170 -155h-228z" />
    <glyph glyph-name="idieresis" unicode="&#xef;" horiz-adv-x="591" 
d="M313 0h-272l207 999h274zM66 1268q0 60 48 104.5t115 44.5q59 0 98.5 -38t39.5 -91q0 -60 -49 -101.5t-117 -41.5q-59 0 -97 35t-38 88zM526 1268q0 60 47.5 104.5t114.5 44.5q59 0 99 -38t40 -91q0 -60 -48.5 -101.5t-116.5 -41.5q-60 0 -98 35t-38 88z" />
    <glyph glyph-name="eth" unicode="&#xf0;" horiz-adv-x="1292" 
d="M367 1059l-35 141l239 70q-62 49 -176 123l287 71q135 -96 158 -116l276 79l33 -141l-186 -55q215 -240 215 -574q0 -314 -166.5 -501t-442.5 -187q-226 0 -358.5 137.5t-132.5 342.5q0 151 68 275t189 195.5t269 71.5q164 0 281 -102q-48 131 -183 266zM360 459
q0 -111 60.5 -185.5t165.5 -74.5q127 0 213 96.5t86 230.5q0 111 -63.5 182.5t-174.5 71.5q-124 0 -205.5 -93.5t-81.5 -227.5z" />
    <glyph glyph-name="ntilde" unicode="&#xf1;" horiz-adv-x="1251" 
d="M803 1032q134 0 227.5 -88.5t93.5 -226.5q0 -49 -22 -166l-117 -551h-274l118 555q1 7 7 33t10 51t4 43q0 58 -41 88.5t-100 30.5q-108 0 -252 -133l-142 -668h-272l156 743q25 116 28 256h248q5 -54 -2 -127q83 74 161.5 117t168.5 43zM508 1122l-146 88
q86 108 158 154.5t146 46.5q75 0 137 -51q5 -4 23.5 -18t25.5 -18t21 -9.5t26 -5.5q24 0 51.5 17.5t40.5 30t45 46.5l133 -82q-154 -205 -303 -205q-73 0 -131 47q-7 5 -20.5 16.5t-20 16.5t-17 11.5t-20 9t-20.5 2.5q-14 0 -27.5 -5t-28 -17.5t-23.5 -21t-26.5 -27.5
t-23.5 -26z" />
    <glyph glyph-name="ograve" unicode="&#xf2;" horiz-adv-x="1273" 
d="M76 459q0 158 77.5 289t215.5 207.5t307 76.5q226 0 359.5 -136.5t133.5 -346.5q0 -118 -45 -225t-123.5 -185t-190.5 -124t-239 -46q-227 0 -361 139t-134 351zM356 467q0 -116 61.5 -194t172.5 -78q133 0 217 101.5t84 244.5q0 114 -62 189t-174 75
q-130 0 -214.5 -99.5t-84.5 -238.5zM442 1430h277l184 -300h-239z" />
    <glyph glyph-name="oacute" unicode="&#xf3;" horiz-adv-x="1273" 
d="M76 459q0 158 77.5 289t215.5 207.5t307 76.5q226 0 359.5 -136.5t133.5 -346.5q0 -118 -45 -225t-123.5 -185t-190.5 -124t-239 -46q-227 0 -361 139t-134 351zM356 467q0 -116 61.5 -194t172.5 -78q133 0 217 101.5t84 244.5q0 114 -62 189t-174 75
q-130 0 -214.5 -99.5t-84.5 -238.5zM760 1430h274l-221 -300h-238z" />
    <glyph glyph-name="ocircumflex" unicode="&#xf4;" horiz-adv-x="1273" 
d="M76 459q0 158 77.5 289t215.5 207.5t307 76.5q226 0 359.5 -136.5t133.5 -346.5q0 -118 -45 -225t-123.5 -185t-190.5 -124t-239 -46q-227 0 -361 139t-134 351zM356 467q0 -116 61.5 -194t172.5 -78q133 0 217 101.5t84 244.5q0 114 -62 189t-174 75
q-130 0 -214.5 -99.5t-84.5 -238.5zM387 1133l279 288h270l156 -288h-207l-101 155l-170 -155h-227z" />
    <glyph glyph-name="otilde" unicode="&#xf5;" horiz-adv-x="1273" 
d="M76 459q0 158 77.5 289t215.5 207.5t307 76.5q226 0 359.5 -136.5t133.5 -346.5q0 -118 -45 -225t-123.5 -185t-190.5 -124t-239 -46q-227 0 -361 139t-134 351zM356 467q0 -116 61.5 -194t172.5 -78q133 0 217 101.5t84 244.5q0 114 -62 189t-174 75
q-130 0 -214.5 -99.5t-84.5 -238.5zM506 1122l-146 88q86 108 158 154.5t146 46.5q75 0 137 -51q5 -4 23.5 -18t25.5 -18t21 -9.5t26 -5.5q24 0 51.5 17.5t40.5 30t45 46.5l133 -82q-154 -205 -303 -205q-73 0 -131 47q-7 5 -20.5 16.5t-20 16.5t-17 11.5t-20 9t-20.5 2.5
q-14 0 -27.5 -5t-28 -17.5t-23.5 -21t-26.5 -27.5t-23.5 -26z" />
    <glyph glyph-name="odieresis" unicode="&#xf6;" horiz-adv-x="1273" 
d="M76 459q0 158 77.5 289t215.5 207.5t307 76.5q226 0 359.5 -136.5t133.5 -346.5q0 -118 -45 -225t-123.5 -185t-190.5 -124t-239 -46q-227 0 -361 139t-134 351zM356 467q0 -116 61.5 -194t172.5 -78q133 0 217 101.5t84 244.5q0 114 -62 189t-174 75
q-130 0 -214.5 -99.5t-84.5 -238.5zM391 1268q0 60 48.5 104.5t115.5 44.5q59 0 98 -38t39 -91q0 -60 -49 -101.5t-117 -41.5q-59 0 -97 35t-38 88zM852 1268q0 60 47.5 104.5t114.5 44.5q59 0 99 -38t40 -91q0 -60 -49 -101.5t-117 -41.5q-59 0 -97 35t-38 88z" />
    <glyph glyph-name="divide" unicode="&#xf7;" horiz-adv-x="1542" 
d="M154 426v233h1189v-233h-1189zM571 141q0 65 52.5 111.5t128.5 46.5t128 -46.5t52 -111.5q0 -67 -51.5 -112t-128.5 -45t-129 45t-52 112zM571 942q0 66 52.5 112t128.5 46t128 -46t52 -112t-52 -112t-128 -46t-128.5 46t-52.5 112z" />
    <glyph glyph-name="oslash" unicode="&#xf8;" horiz-adv-x="1273" 
d="M1083 1126l125 -104l-143 -158q106 -127 106 -315q0 -118 -45 -225t-123.5 -185t-190.5 -124t-239 -46q-147 0 -266 66l-145 -160l-125 105l145 159q-104 132 -104 320q0 158 77.5 289t215.5 207.5t307 76.5q148 0 262 -63zM905 543q0 65 -22 123l-414 -455
q51 -31 121 -31q91 0 164 50.5t112 133t39 179.5zM348 465q0 -64 19 -123l411 449q-51 28 -119 28q-136 0 -223.5 -104.5t-87.5 -249.5z" />
    <glyph glyph-name="ugrave" unicode="&#xf9;" horiz-adv-x="1251" 
d="M1180 999l-154 -733q-30 -144 -35 -266h-250q-3 34 7 125q-82 -73 -160.5 -115.5t-167.5 -42.5q-135 0 -228.5 89t-93.5 227q0 44 23 166l117 550h274l-119 -555q-20 -90 -20 -122q0 -63 41 -93t100 -30q110 0 252 131l141 669h273zM446 1430h277l184 -300h-239z" />
    <glyph glyph-name="uacute" unicode="&#xfa;" horiz-adv-x="1251" 
d="M1180 999l-154 -733q-30 -144 -35 -266h-250q-3 34 7 125q-82 -73 -160.5 -115.5t-167.5 -42.5q-135 0 -228.5 89t-93.5 227q0 44 23 166l117 550h274l-119 -555q-20 -90 -20 -122q0 -63 41 -93t100 -30q110 0 252 131l141 669h273zM764 1430h274l-221 -300h-237z" />
    <glyph glyph-name="ucircumflex" unicode="&#xfb;" horiz-adv-x="1251" 
d="M1180 999l-154 -733q-30 -144 -35 -266h-250q-3 34 7 125q-82 -73 -160.5 -115.5t-167.5 -42.5q-135 0 -228.5 89t-93.5 227q0 44 23 166l117 550h274l-119 -555q-20 -90 -20 -122q0 -63 41 -93t100 -30q110 0 252 131l141 669h273zM391 1133l279 288h270l156 -288h-207
l-101 155l-170 -155h-227z" />
    <glyph glyph-name="udieresis" unicode="&#xfc;" horiz-adv-x="1251" 
d="M1180 999l-154 -733q-30 -144 -35 -266h-250q-3 34 7 125q-82 -73 -160.5 -115.5t-167.5 -42.5q-135 0 -228.5 89t-93.5 227q0 44 23 166l117 550h274l-119 -555q-20 -90 -20 -122q0 -63 41 -93t100 -30q110 0 252 131l141 669h273zM395 1268q0 60 48.5 104.5t115.5 44.5
q59 0 98 -38t39 -91q0 -60 -49 -101.5t-117 -41.5q-59 0 -97 35t-38 88zM856 1268q0 60 47.5 104.5t114.5 44.5q59 0 99 -38t40 -91q0 -60 -49 -101.5t-117 -41.5q-59 0 -97 35t-38 88z" />
    <glyph glyph-name="yacute" unicode="&#xfd;" horiz-adv-x="1124" 
d="M518 403h12l390 596h299l-975 -1423h-299l379 533l-213 890h288zM711 1430h274l-221 -300h-238z" />
    <glyph glyph-name="thorn" unicode="&#xfe;" horiz-adv-x="1294" 
d="M455 668l-74 -359q43 -45 106 -76.5t129 -31.5q122 -1 201.5 108t79.5 250q0 99 -46 170.5t-136 71.5q-130 0 -260 -133zM618 1434l-114 -529q32 26 52.5 41t60.5 38.5t86 35.5t96 12q119 0 210.5 -62.5t138 -164t46.5 -223.5q0 -111 -41 -220t-111.5 -196t-175.5 -141
t-223 -54q-90 0 -164 35.5t-143 110.5l-115 -541h-274l397 1858h274z" />
    <glyph glyph-name="ydieresis" unicode="&#xff;" horiz-adv-x="1124" 
d="M518 403h12l390 596h299l-975 -1423h-299l379 533l-213 890h288zM342 1268q0 60 48.5 104.5t115.5 44.5q59 0 98 -38t39 -91q0 -60 -49 -101.5t-117 -41.5q-59 0 -97 35t-38 88zM803 1268q0 60 47.5 104.5t114.5 44.5q59 0 99 -38t40 -91q0 -60 -49 -101.5t-117 -41.5
q-59 0 -97 35t-38 88z" />
    <glyph glyph-name="Amacron" unicode="&#x100;" horiz-adv-x="1531" 
d="M-102 0l905 1337h252l336 -1337h-308l-61 283h-621l-182 -283h-321zM854 987l-305 -473h422l-105 473h-12zM735 1716h549l-41 -190h-549z" />
    <glyph glyph-name="amacron" unicode="&#x101;" horiz-adv-x="1218" 
d="M713 0q-3 39 2 104q-160 -129 -324 -129q-70 0 -135 21t-118.5 61t-85.5 104t-32 142q0 109 63 188.5t160 116.5t214 37q202 0 338 -113l22 97q8 39 8 57q0 46 -35 76.5t-83.5 41.5t-108.5 11q-78 0 -173.5 -17t-154.5 -38l-47 213q72 22 182.5 39.5t212.5 17.5
q72 0 137.5 -8t130.5 -28t112 -50.5t76.5 -80.5t29.5 -113q0 -38 -29 -183l-76 -360q-23 -113 -16 -207h-270zM293 315q0 -71 56.5 -106t131.5 -35q78 0 149 32.5t107 63.5l19 92q-91 93 -260 93q-86 0 -144.5 -35.5t-58.5 -104.5zM508 1362h549l-41 -191h-549z" />
    <glyph glyph-name="Abreve" unicode="&#x102;" horiz-adv-x="1531" 
d="M-102 0l905 1337h252l336 -1337h-308l-61 283h-621l-182 -283h-321zM854 987l-305 -473h422l-105 473h-12zM692 1769h189q-29 -139 108 -139q139 0 168 139h195q-10 -43 -26.5 -82t-48 -80.5t-73 -71.5t-105.5 -49.5t-141 -19.5q-65 0 -114.5 13t-79.5 36.5t-49.5 52.5
t-25.5 64.5t-5 68.5t8 68z" />
    <glyph glyph-name="abreve" unicode="&#x103;" horiz-adv-x="1218" 
d="M713 0q-3 39 2 104q-160 -129 -324 -129q-70 0 -135 21t-118.5 61t-85.5 104t-32 142q0 109 63 188.5t160 116.5t214 37q202 0 338 -113l22 97q8 39 8 57q0 46 -35 76.5t-83.5 41.5t-108.5 11q-78 0 -173.5 -17t-154.5 -38l-47 213q72 22 182.5 39.5t212.5 17.5
q72 0 137.5 -8t130.5 -28t112 -50.5t76.5 -80.5t29.5 -113q0 -38 -29 -183l-76 -360q-23 -113 -16 -207h-270zM293 315q0 -71 56.5 -106t131.5 -35q78 0 149 32.5t107 63.5l19 92q-91 93 -260 93q-86 0 -144.5 -35.5t-58.5 -104.5zM465 1419h188q-29 -143 109 -143
q139 0 168 143h192q-11 -55 -36 -105t-69 -97.5t-118.5 -76t-169.5 -28.5q-65 0 -114.5 13.5t-79.5 37t-49 53t-25 65t-5 69t9 69.5z" />
    <glyph glyph-name="Aogonek" unicode="&#x104;" horiz-adv-x="1531" 
d="M-102 0l905 1337h252l336 -1337h-80q-33 -13 -46.5 -19t-51.5 -24t-59 -33.5t-47 -37.5t-38 -47t-12 -52q0 -37 27.5 -56.5t78.5 -19.5q29 0 125 17l-12 -164q-113 -29 -197 -29q-118 0 -186 49.5t-68 130.5q0 94 73.5 169.5t180.5 129.5l-57 269h-621l-182 -283h-321z
M854 987l-305 -473h422l-105 473h-12z" />
    <glyph glyph-name="aogonek" unicode="&#x105;" horiz-adv-x="1218" 
d="M983 0h-12q-33 -13 -46.5 -19t-51.5 -24t-59 -33.5t-47 -37.5t-38 -47t-12 -52q0 -37 27.5 -56.5t78.5 -19.5q29 0 125 17l-12 -164q-113 -29 -197 -29q-118 0 -186 49.5t-68 130.5q0 89 65.5 161t162.5 124q-3 39 2 104q-160 -129 -324 -129q-70 0 -135 21t-118.5 61
t-85.5 104t-32 142q0 109 63 188.5t160 116.5t214 37q202 0 338 -113l22 97q8 39 8 57q0 46 -35 76.5t-83.5 41.5t-108.5 11q-78 0 -173.5 -17t-154.5 -38l-47 213q72 22 182.5 39.5t212.5 17.5q72 0 137.5 -8t130.5 -28t112 -50.5t76.5 -80.5t29.5 -113q0 -38 -29 -183
l-76 -360q-23 -113 -16 -207zM293 315q0 -71 56.5 -106t131.5 -35q78 0 149 32.5t107 63.5l19 92q-91 93 -260 93q-86 0 -144.5 -35.5t-58.5 -104.5z" />
    <glyph glyph-name="Cacute" unicode="&#x106;" horiz-adv-x="1570" 
d="M1300 389l158 -194q-138 -105 -302 -170.5t-339 -65.5q-147 0 -276.5 46.5t-224.5 129.5t-150 204t-55 263q0 148 64 289.5t172 248.5t260 172.5t317 65.5q191 0 364.5 -83t292.5 -234l-229 -143q-81 91 -197 148.5t-240 57.5q-133 0 -248.5 -71.5t-183 -189
t-67.5 -247.5q0 -170 116.5 -287.5t301.5 -117.5q118 0 239.5 49t226.5 129zM829 1487l205 282h293l-254 -282h-244z" />
    <glyph glyph-name="cacute" unicode="&#x107;" horiz-adv-x="1128" 
d="M1120 854l-190 -168q-54 50 -123.5 82.5t-140.5 32.5q-125 0 -211 -103.5t-86 -240.5q0 -103 66 -180.5t177 -77.5q115 0 269 86l116 -197q-52 -39 -167 -79t-252 -40q-229 0 -366.5 133.5t-137.5 352.5q0 111 46.5 216t125 184.5t189 128t231.5 48.5q130 0 248.5 -46
t205.5 -132zM764 1430h274l-221 -300h-237z" />
    <glyph glyph-name="Ccircumflex" unicode="&#x108;" horiz-adv-x="1570" 
d="M1300 389l158 -194q-138 -105 -302 -170.5t-339 -65.5q-147 0 -276.5 46.5t-224.5 129.5t-150 204t-55 263q0 148 64 289.5t172 248.5t260 172.5t317 65.5q191 0 364.5 -83t292.5 -234l-229 -143q-81 91 -197 148.5t-240 57.5q-133 0 -248.5 -71.5t-183 -189
t-67.5 -247.5q0 -170 116.5 -287.5t301.5 -117.5q118 0 239.5 49t226.5 129zM655 1487l279 285h270l156 -285h-203l-102 151l-170 -151h-230z" />
    <glyph glyph-name="ccircumflex" unicode="&#x109;" horiz-adv-x="1128" 
d="M1120 854l-190 -168q-54 50 -123.5 82.5t-140.5 32.5q-125 0 -211 -103.5t-86 -240.5q0 -103 66 -180.5t177 -77.5q115 0 269 86l116 -197q-52 -39 -167 -79t-252 -40q-229 0 -366.5 133.5t-137.5 352.5q0 111 46.5 216t125 184.5t189 128t231.5 48.5q130 0 248.5 -46
t205.5 -132zM391 1133l279 288h270l156 -288h-207l-101 155l-170 -155h-227z" />
    <glyph glyph-name="Cdotaccent" unicode="&#x10a;" horiz-adv-x="1570" 
d="M1300 389l158 -194q-138 -105 -302 -170.5t-339 -65.5q-147 0 -276.5 46.5t-224.5 129.5t-150 204t-55 263q0 148 64 289.5t172 248.5t260 172.5t317 65.5q191 0 364.5 -83t292.5 -234l-229 -143q-81 91 -197 148.5t-240 57.5q-133 0 -248.5 -71.5t-183 -189
t-67.5 -247.5q0 -170 116.5 -287.5t301.5 -117.5q118 0 239.5 49t226.5 129zM889 1622q0 61 48 105.5t116 44.5q58 0 97.5 -38.5t39.5 -91.5q0 -60 -49 -101.5t-117 -41.5q-59 0 -97 35t-38 88z" />
    <glyph glyph-name="cdotaccent" unicode="&#x10b;" horiz-adv-x="1128" 
d="M1120 854l-190 -168q-54 50 -123.5 82.5t-140.5 32.5q-125 0 -211 -103.5t-86 -240.5q0 -103 66 -180.5t177 -77.5q115 0 269 86l116 -197q-52 -39 -167 -79t-252 -40q-229 0 -366.5 133.5t-137.5 352.5q0 111 46.5 216t125 184.5t189 128t231.5 48.5q130 0 248.5 -46
t205.5 -132zM627 1268q0 61 47 105t114 44q59 0 99.5 -38t40.5 -91q0 -60 -49 -101.5t-117 -41.5q-59 0 -97 35t-38 88z" />
    <glyph glyph-name="Ccaron" unicode="&#x10c;" horiz-adv-x="1570" 
d="M1300 389l158 -194q-138 -105 -302 -170.5t-339 -65.5q-147 0 -276.5 46.5t-224.5 129.5t-150 204t-55 263q0 148 64 289.5t172 248.5t260 172.5t317 65.5q191 0 364.5 -83t292.5 -234l-229 -143q-81 91 -197 148.5t-240 57.5q-133 0 -248.5 -71.5t-183 -189
t-67.5 -247.5q0 -170 116.5 -287.5t301.5 -117.5q118 0 239.5 49t226.5 129zM1423 1772l-278 -285h-271l-153 285h203l102 -152l168 152h229z" />
    <glyph glyph-name="ccaron" unicode="&#x10d;" horiz-adv-x="1128" 
d="M1120 854l-190 -168q-54 50 -123.5 82.5t-140.5 32.5q-125 0 -211 -103.5t-86 -240.5q0 -103 66 -180.5t177 -77.5q115 0 269 86l116 -197q-52 -39 -167 -79t-252 -40q-229 0 -366.5 133.5t-137.5 352.5q0 111 46.5 216t125 184.5t189 128t231.5 48.5q130 0 248.5 -46
t205.5 -132zM1159 1421l-278 -288h-271l-155 288h207l100 -157l170 157h227z" />
    <glyph glyph-name="Dcaron" unicode="&#x10e;" horiz-adv-x="1660" 
d="M438 252h314q96 0 168 18t116.5 45t98.5 74q70 68 108.5 158.5t38.5 189.5q0 146 -92 246q-57 51 -123.5 75.5t-185.5 24.5h-265zM739 0h-651l287 1337h534q195 0 311 -45.5t212 -136.5q76 -80 115.5 -184t39.5 -217q0 -142 -59 -280.5t-168 -244.5
q-118 -112 -264.5 -170.5t-356.5 -58.5zM1411 1772l-278 -285h-271l-153 285h202l103 -152l168 152h229z" />
    <glyph glyph-name="dcaron" unicode="&#x10f;" horiz-adv-x="1292" 
d="M1313 1434l-244 -1155q-35 -168 -39 -279h-254q-2 33 8 117q-151 -146 -311 -146q-92 0 -169 35.5t-127.5 95.5t-78.5 139t-28 167q0 112 40.5 223.5t110.5 200.5t174.5 144.5t222.5 55.5q173 0 310 -147q17 93 56.5 280t55.5 269h273zM883 696q-43 43 -107 74t-129 31
q-83 0 -149 -54t-99.5 -135t-33.5 -170q0 -98 46.5 -169.5t137.5 -71.5q128 0 258 135zM1483 950h-140q84 390 103 484h242q-31 -150 -78.5 -263t-126.5 -221z" />
    <glyph glyph-name="Dcroat" unicode="&#x110;" horiz-adv-x="1722" 
d="M76 575l45 213h196l117 549h537q193 0 309.5 -45.5t210.5 -136.5q77 -81 117.5 -185t40.5 -216q0 -140 -60 -279t-168 -246q-120 -112 -265 -170.5t-355 -58.5h-651l122 575h-196zM498 252h315q139 0 220.5 33t160.5 104q71 68 110 158.5t39 189.5q0 148 -94 246
q-57 52 -123 76t-186 24h-262l-66 -295h357l-45 -213h-357z" />
    <glyph glyph-name="dcroat" unicode="&#x111;" horiz-adv-x="1292" 
d="M1313 1434l-27 -123h152l-39 -181h-150l-180 -851q-35 -168 -39 -279h-254q-2 33 8 117q-151 -146 -311 -146q-92 0 -169 35.5t-127.5 95.5t-78.5 139t-28 167q0 112 40.5 223.5t110.5 200.5t174.5 144.5t222.5 55.5q173 0 310 -147q18 101 49 245h-262l37 181h264
l24 123h273zM883 696q-43 43 -107 74t-129 31q-83 0 -149 -54t-99.5 -135t-33.5 -170q0 -98 46.5 -169.5t137.5 -71.5q128 0 258 135z" />
    <glyph glyph-name="Emacron" unicode="&#x112;" horiz-adv-x="1447" 
d="M1053 823l-54 -252h-491l-70 -319h869l-56 -252h-1161l285 1337h1114l-51 -254h-822l-57 -260h494zM737 1716h549l-41 -190h-549z" />
    <glyph glyph-name="emacron" unicode="&#x113;" horiz-adv-x="1212" 
d="M915 268l109 -178q-248 -121 -473 -121q-113 0 -204 38t-149.5 103.5t-90 151t-31.5 182.5q0 160 76 295t208.5 214t290.5 79q92 0 174 -26t148.5 -77.5t105.5 -136.5t39 -194q0 -52 -16 -166h-762q8 -105 72.5 -174.5t177.5 -69.5q149 0 325 80zM647 823
q-99 0 -172 -57.5t-108 -151.5h485q4 98 -56 153.5t-149 55.5zM504 1362h549l-41 -191h-549z" />
    <glyph glyph-name="Ebreve" unicode="&#x114;" horiz-adv-x="1447" 
d="M1053 823l-54 -252h-491l-70 -319h869l-56 -252h-1161l285 1337h1114l-51 -254h-822l-57 -260h494zM694 1769h189q-29 -139 108 -139q139 0 168 139h195q-10 -43 -26.5 -82t-47.5 -80.5t-73 -71.5t-105.5 -49.5t-140.5 -19.5t-133 19t-84.5 50t-44.5 71t-13.5 81.5
t8.5 81.5z" />
    <glyph glyph-name="ebreve" unicode="&#x115;" horiz-adv-x="1212" 
d="M915 268l109 -178q-248 -121 -473 -121q-113 0 -204 38t-149.5 103.5t-90 151t-31.5 182.5q0 160 76 295t208.5 214t290.5 79q92 0 174 -26t148.5 -77.5t105.5 -136.5t39 -194q0 -52 -16 -166h-762q8 -105 72.5 -174.5t177.5 -69.5q149 0 325 80zM647 823
q-99 0 -172 -57.5t-108 -151.5h485q4 98 -56 153.5t-149 55.5zM461 1419h188q-29 -143 109 -143q139 0 168 143h192q-11 -55 -36 -105t-69 -97.5t-118.5 -76t-169.5 -28.5q-65 0 -114.5 13.5t-79.5 37t-49 53t-25 65t-5 69t9 69.5z" />
    <glyph glyph-name="Edotaccent" unicode="&#x116;" horiz-adv-x="1447" 
d="M1053 823l-54 -252h-491l-70 -319h869l-56 -252h-1161l285 1337h1114l-51 -254h-822l-57 -260h494zM844 1622q0 61 48 105.5t116 44.5q58 0 97.5 -38.5t39.5 -91.5q0 -60 -49 -101.5t-117 -41.5q-59 0 -97 35t-38 88z" />
    <glyph glyph-name="edotaccent" unicode="&#x117;" horiz-adv-x="1212" 
d="M915 268l109 -178q-248 -121 -473 -121q-113 0 -204 38t-149.5 103.5t-90 151t-31.5 182.5q0 160 76 295t208.5 214t290.5 79q92 0 174 -26t148.5 -77.5t105.5 -136.5t39 -194q0 -52 -16 -166h-762q8 -105 72.5 -174.5t177.5 -69.5q149 0 325 80zM647 823
q-99 0 -172 -57.5t-108 -151.5h485q4 98 -56 153.5t-149 55.5zM612 1268q0 60 47.5 104.5t114.5 44.5q59 0 99 -38t40 -91q0 -60 -48.5 -101.5t-116.5 -41.5q-60 0 -98 35t-38 88z" />
    <glyph glyph-name="Eogonek" unicode="&#x118;" horiz-adv-x="1447" 
d="M1053 823l-54 -252h-491l-70 -319h869l-56 -252h-90q-33 -13 -46.5 -19t-51.5 -24t-59 -33.5t-47 -37.5t-38 -47t-12 -52q0 -37 28 -56.5t79 -19.5q29 0 125 17l-13 -164q-113 -29 -196 -29q-118 0 -186 49.5t-68 130.5q0 161 225 285h-811l285 1337h1114l-51 -254h-822
l-57 -260h494z" />
    <glyph glyph-name="eogonek" unicode="&#x119;" horiz-adv-x="1212" 
d="M915 268l109 -178q-116 -58 -238 -90q-33 -13 -46.5 -19t-51.5 -24t-59 -33.5t-47 -37.5t-38 -47t-12 -52q0 -37 28 -56.5t79 -19.5q29 0 125 17l-12 -164q-113 -29 -197 -29q-118 0 -186 49.5t-68 130.5q0 141 180 258q-191 21 -298 153t-107 318q0 160 76 295
t208.5 214t290.5 79q92 0 174 -26t148.5 -77.5t105.5 -136.5t39 -194q0 -52 -16 -166h-762q8 -105 72.5 -174.5t177.5 -69.5q149 0 325 80zM647 823q-99 0 -172 -57.5t-108 -151.5h485q4 98 -56 153.5t-149 55.5z" />
    <glyph glyph-name="Ecaron" unicode="&#x11a;" horiz-adv-x="1447" 
d="M1053 823l-54 -252h-491l-70 -319h869l-56 -252h-1161l285 1337h1114l-51 -254h-822l-57 -260h494zM1378 1772l-278 -285h-271l-153 285h203l102 -152l168 152h229z" />
    <glyph glyph-name="ecaron" unicode="&#x11b;" horiz-adv-x="1212" 
d="M915 268l109 -178q-248 -121 -473 -121q-113 0 -204 38t-149.5 103.5t-90 151t-31.5 182.5q0 160 76 295t208.5 214t290.5 79q92 0 174 -26t148.5 -77.5t105.5 -136.5t39 -194q0 -52 -16 -166h-762q8 -105 72.5 -174.5t177.5 -69.5q149 0 325 80zM647 823
q-99 0 -172 -57.5t-108 -151.5h485q4 98 -56 153.5t-149 55.5zM1145 1421l-279 -288h-270l-156 288h207l101 -157l170 157h227z" />
    <glyph glyph-name="Gcircumflex" unicode="&#x11c;" horiz-adv-x="1654" 
d="M1587 1141l-201 -185q-80 74 -207.5 121t-258.5 47q-98 0 -190.5 -41t-161.5 -110t-110.5 -164.5t-41.5 -198.5q0 -180 123.5 -289.5t328.5 -109.5q167 0 281 57l55 260h-401l51 242h680l-141 -668q-128 -69 -275.5 -106t-286.5 -37q-147 0 -278 46t-229 128t-155.5 205
t-57.5 268q0 149 66.5 290.5t177 247t262.5 170t315 64.5q182 0 350 -63t305 -174zM674 1487l278 285h271l155 -285h-202l-103 151l-170 -151h-229z" />
    <glyph glyph-name="gcircumflex" unicode="&#x11d;" horiz-adv-x="1294" 
d="M721 -76l39 185q-134 -127 -287 -127q-92 0 -168.5 35.5t-127 96t-78 140t-27.5 168.5q0 157 68.5 296.5t194 226.5t277.5 87q104 0 190 -46.5t144 -125.5q9 44 45 139h256q-55 -137 -86 -290l-170 -807q-38 -172 -177 -270.5t-345 -98.5q-128 0 -252.5 41.5
t-216.5 126.5l141 168q64 -56 156.5 -87.5t179.5 -31.5q105 0 166.5 48t77.5 126zM367 442q0 -99 45.5 -165t132.5 -66q64 0 135.5 35t130.5 98l72 348q-42 45 -107.5 77t-132.5 32q-122 0 -199 -107.5t-77 -251.5zM410 1133l278 288h270l156 -288h-207l-100 155l-170 -155
h-227z" />
    <glyph glyph-name="Gbreve" unicode="&#x11e;" horiz-adv-x="1654" 
d="M1587 1141l-201 -185q-80 74 -207.5 121t-258.5 47q-98 0 -190.5 -41t-161.5 -110t-110.5 -164.5t-41.5 -198.5q0 -180 123.5 -289.5t328.5 -109.5q167 0 281 57l55 260h-401l51 242h680l-141 -668q-128 -69 -275.5 -106t-286.5 -37q-147 0 -278 46t-229 128t-155.5 205
t-57.5 268q0 149 66.5 290.5t177 247t262.5 170t315 64.5q182 0 350 -63t305 -174zM758 1769h188q-29 -139 109 -139q139 0 168 139h194q-10 -43 -26.5 -82t-47.5 -80.5t-73 -71.5t-105.5 -49.5t-140.5 -19.5q-65 0 -114.5 13t-79.5 36.5t-49.5 52.5t-25.5 64.5t-5 68.5
t8 68z" />
    <glyph glyph-name="gbreve" unicode="&#x11f;" horiz-adv-x="1294" 
d="M721 -76l39 185q-134 -127 -287 -127q-92 0 -168.5 35.5t-127 96t-78 140t-27.5 168.5q0 157 68.5 296.5t194 226.5t277.5 87q104 0 190 -46.5t144 -125.5q9 44 45 139h256q-55 -137 -86 -290l-170 -807q-38 -172 -177 -270.5t-345 -98.5q-128 0 -252.5 41.5
t-216.5 126.5l141 168q64 -56 156.5 -87.5t179.5 -31.5q105 0 166.5 48t77.5 126zM367 442q0 -99 45.5 -165t132.5 -66q64 0 135.5 35t130.5 98l72 348q-42 45 -107.5 77t-132.5 32q-122 0 -199 -107.5t-77 -251.5zM494 1419h188q-29 -143 109 -143t167 143h193
q-11 -55 -36 -105t-69 -97.5t-118.5 -76t-169.5 -28.5q-65 0 -114.5 13.5t-79.5 37t-49 53t-25 65t-5 69t9 69.5z" />
    <glyph glyph-name="Gdotaccent" unicode="&#x120;" horiz-adv-x="1654" 
d="M1587 1141l-201 -185q-80 74 -207.5 121t-258.5 47q-98 0 -190.5 -41t-161.5 -110t-110.5 -164.5t-41.5 -198.5q0 -180 123.5 -289.5t328.5 -109.5q167 0 281 57l55 260h-401l51 242h680l-141 -668q-128 -69 -275.5 -106t-286.5 -37q-147 0 -278 46t-229 128t-155.5 205
t-57.5 268q0 149 66.5 290.5t177 247t262.5 170t315 64.5q182 0 350 -63t305 -174zM907 1622q0 61 48 105.5t116 44.5q58 0 97.5 -38.5t39.5 -91.5q0 -60 -49 -101.5t-117 -41.5q-59 0 -97 35t-38 88z" />
    <glyph glyph-name="gdotaccent" unicode="&#x121;" horiz-adv-x="1294" 
d="M721 -76l39 185q-134 -127 -287 -127q-92 0 -168.5 35.5t-127 96t-78 140t-27.5 168.5q0 157 68.5 296.5t194 226.5t277.5 87q104 0 190 -46.5t144 -125.5q9 44 45 139h256q-55 -137 -86 -290l-170 -807q-38 -172 -177 -270.5t-345 -98.5q-128 0 -252.5 41.5
t-216.5 126.5l141 168q64 -56 156.5 -87.5t179.5 -31.5q105 0 166.5 48t77.5 126zM367 442q0 -99 45.5 -165t132.5 -66q64 0 135.5 35t130.5 98l72 348q-42 45 -107.5 77t-132.5 32q-122 0 -199 -107.5t-77 -251.5zM645 1268q0 60 47.5 104.5t114.5 44.5q59 0 99 -38t40 -91
q0 -60 -49 -101.5t-117 -41.5q-59 0 -97 35t-38 88z" />
    <glyph glyph-name="uni0122" unicode="&#x122;" horiz-adv-x="1654" 
d="M1587 1141l-201 -185q-80 74 -207.5 121t-258.5 47q-98 0 -190.5 -41t-161.5 -110t-110.5 -164.5t-41.5 -198.5q0 -180 123.5 -289.5t328.5 -109.5q167 0 281 57l55 260h-401l51 242h680l-141 -668q-128 -69 -275.5 -106t-286.5 -37q-147 0 -278 46t-229 128t-155.5 205
t-57.5 268q0 149 66.5 290.5t177 247t262.5 170t315 64.5q182 0 350 -63t305 -174zM637 -137l223 53q43 -62 43 -141q0 -130 -109.5 -212.5t-281.5 -82.5q-84 0 -182 28l55 154q96 -14 115 -14q76 0 119 33t43 96q0 46 -25 86z" />
    <glyph glyph-name="uni0123" unicode="&#x123;" horiz-adv-x="1294" 
d="M872 1165l-225 -41q-59 69 -59 148q0 124 104 205.5t275 81.5q55 0 106 -15l-33 -155q-27 6 -82 6q-60 0 -93.5 -32.5t-33.5 -90.5q0 -52 41 -107zM721 -76l39 185q-134 -127 -287 -127q-92 0 -168.5 35.5t-127 96t-78 140t-27.5 168.5q0 157 68.5 296.5t194 226.5
t277.5 87q104 0 190 -46.5t144 -125.5q9 44 45 139h256q-55 -137 -86 -290l-170 -807q-38 -172 -177 -270.5t-345 -98.5q-128 0 -252.5 41.5t-216.5 126.5l141 168q64 -56 156.5 -87.5t179.5 -31.5q105 0 166.5 48t77.5 126zM367 442q0 -99 45.5 -165t132.5 -66
q64 0 135.5 35t130.5 98l72 348q-42 45 -107.5 77t-132.5 32q-122 0 -199 -107.5t-77 -251.5z" />
    <glyph glyph-name="Hcircumflex" unicode="&#x124;" horiz-adv-x="1642" 
d="M385 0h-295l283 1337h295l-107 -495h633l106 495h295l-284 -1337h-295l125 594h-631zM659 1487l279 285h270l156 -285h-203l-102 151l-170 -151h-230z" />
    <glyph glyph-name="hcircumflex" unicode="&#x125;" horiz-adv-x="1249" 
d="M39 0l303 1434h274l-114 -537q79 62 150 98.5t149 36.5q132 0 225.5 -88t93.5 -227q0 -47 -20 -164l-119 -553h-274l122 580q17 66 17 106q0 57 -40 86t-97 29q-66 0 -127 -35t-129 -98l-142 -668h-272zM166 1567l278 284h271l155 -284h-202l-103 151l-170 -151h-229z
" />
    <glyph glyph-name="Hbar" unicode="&#x126;" horiz-adv-x="1687" 
d="M119 942l45 213h194l39 182h295l-39 -182h623l39 182h293l-39 -182h196l-45 -213h-196l-201 -942h-293l109 510h-623l-108 -510h-295l200 942h-194zM567 752h623l41 190h-623z" />
    <glyph glyph-name="hbar" unicode="&#x127;" horiz-adv-x="1249" 
d="M39 0l237 1130h-147l39 181h147l27 123h274l-26 -123h262l-39 -181h-262l-49 -233q79 62 150 98.5t149 36.5q132 0 225.5 -88t93.5 -227q0 -47 -20 -164l-119 -553h-274l122 580q17 66 17 104q0 53 -42 85t-99 32q-112 0 -252 -133l-142 -668h-272z" />
    <glyph glyph-name="Itilde" unicode="&#x128;" horiz-adv-x="716" 
d="M385 0h-295l285 1337h295zM317 1477l-143 88q86 108 157 154t146 46q72 0 137 -51q2 -2 18 -14.5t20.5 -15t16.5 -10t21.5 -9.5t20.5 -2q23 0 50.5 17.5t40 30t44.5 46.5l133 -82q-154 -205 -301 -205q-70 0 -133 48q-5 4 -16.5 14t-16 13.5t-14 10.5t-16 9.5t-15.5 5
t-18 2.5q-12 0 -24.5 -5t-21.5 -10t-23.5 -17.5t-20.5 -18.5t-22 -23.5t-20 -21.5z" />
    <glyph glyph-name="itilde" unicode="&#x129;" horiz-adv-x="591" 
d="M313 0h-272l207 999h274zM180 1122l-145 88q86 108 157.5 154.5t145.5 46.5q75 0 137 -51q5 -4 23.5 -18t25.5 -18t21 -9.5t26 -5.5q24 0 51.5 17t41.5 31t45 46l133 -82q-154 -205 -303 -205q-73 0 -131 47q-6 5 -20 16.5t-20.5 16t-17.5 11.5t-20.5 9.5t-20.5 2.5
q-14 0 -27.5 -5t-28 -17.5t-23.5 -21t-26.5 -27.5t-23.5 -26z" />
    <glyph glyph-name="Imacron" unicode="&#x12a;" horiz-adv-x="716" 
d="M385 0h-295l285 1337h295zM326 1716h548l-40 -190h-549z" />
    <glyph glyph-name="imacron" unicode="&#x12b;" horiz-adv-x="591" 
d="M313 0h-272l207 999h274zM188 1362h549l-41 -191h-549z" />
    <glyph glyph-name="Ibreve" unicode="&#x12c;" horiz-adv-x="716" 
d="M385 0h-295l285 1337h295zM283 1769h188q-29 -139 109 -139q139 0 168 139h194q-10 -43 -26.5 -82t-47.5 -80.5t-73 -71.5t-105.5 -49.5t-140.5 -19.5q-65 0 -114.5 13t-79.5 36.5t-49.5 52.5t-25.5 64.5t-5 68.5t8 68z" />
    <glyph glyph-name="ibreve" unicode="&#x12d;" horiz-adv-x="591" 
d="M313 0h-272l207 999h274zM145 1419h189q-29 -143 108 -143q139 0 168 143h193q-11 -55 -36 -105t-69 -97.5t-118.5 -76t-169.5 -28.5q-65 0 -114.5 13.5t-80 37t-49.5 53t-25 65t-5 69t9 69.5z" />
    <glyph glyph-name="Iogonek" unicode="&#x12e;" horiz-adv-x="716" 
d="M385 0q-33 -13 -46.5 -19t-51.5 -24t-59 -33.5t-47 -37.5t-38 -47t-12 -52q0 -37 28 -56.5t79 -19.5q28 0 124 17l-12 -164q-113 -29 -196 -29q-118 0 -186 49.5t-68 130.5q0 161 225 285h-35l285 1337h295z" />
    <glyph glyph-name="iogonek" unicode="&#x12f;" horiz-adv-x="591" 
d="M313 0q-33 -13 -46.5 -19t-51.5 -24t-59 -33.5t-47 -37.5t-38 -47t-12 -52q0 -37 28 -56.5t79 -19.5q29 0 125 17l-12 -164q-113 -29 -197 -29q-118 0 -186 49.5t-68 130.5q0 159 225 285h-12l207 999h274zM287 1294q0 63 52 110.5t124 47.5q65 0 109 -40.5t44 -98.5
q0 -65 -53 -110.5t-125 -45.5q-66 0 -108.5 39.5t-42.5 97.5z" />
    <glyph glyph-name="Idotaccent" unicode="&#x130;" horiz-adv-x="716" 
d="M385 0h-295l285 1337h295zM432 1622q0 61 48 105.5t116 44.5q58 0 97.5 -38.5t39.5 -91.5q0 -60 -49 -101.5t-117 -41.5q-59 0 -97 35t-38 88z" />
    <glyph glyph-name="dotlessi" unicode="&#x131;" horiz-adv-x="591" 
d="M313 0h-272l207 999h274z" />
    <glyph glyph-name="IJ" unicode="&#x132;" horiz-adv-x="2045" 
d="M385 0h-295l285 1337h295zM1729 1337h292l-190 -915q-46 -220 -206.5 -341.5t-381.5 -121.5q-222 0 -367 107t-190 321l268 105q25 -136 102 -207.5t201 -71.5q104 0 181.5 64t101.5 178z" />
    <glyph glyph-name="ij" unicode="&#x133;" horiz-adv-x="1185" 
d="M313 0h-272l207 999h274zM287 1294q0 63 52 110.5t124 47.5q65 0 109 -40.5t44 -98.5q0 -65 -53 -110.5t-125 -45.5q-66 0 -108.5 39.5t-42.5 97.5zM418 -467l-35 205q41 8 72 18.5t65 30t57 52t33 77.5l232 1083h272l-233 -1095q-17 -79 -55 -143.5t-85 -106
t-104.5 -69.5t-111.5 -40t-107 -12zM877 1294q0 63 52 110.5t124 47.5q65 0 109 -40.5t44 -98.5q0 -65 -53 -110.5t-125 -45.5q-66 0 -108.5 39.5t-42.5 97.5z" />
    <glyph glyph-name="Jcircumflex" unicode="&#x134;" horiz-adv-x="1329" 
d="M1012 1337h293l-191 -915q-46 -220 -206.5 -341.5t-381.5 -121.5q-222 0 -367 107t-190 321l269 105q25 -136 102 -207.5t201 -71.5q104 0 181 64t101 178zM842 1487l278 285h271l155 -285h-203l-102 151l-170 -151h-229z" />
    <glyph glyph-name="jcircumflex" unicode="&#x135;" horiz-adv-x="591" 
d="M-174 -467l-35 205q41 8 72 18.5t65 30t57 52t33 77.5l232 1083h272l-233 -1095q-17 -79 -55 -143.5t-85 -106t-104.5 -69.5t-111.5 -40t-107 -12zM61 1133l279 288h270l156 -288h-207l-100 155l-170 -155h-228z" />
    <glyph glyph-name="uni0136" unicode="&#x136;" horiz-adv-x="1546" 
d="M670 1337l-123 -559l704 559h371l-657 -542l473 -795h-338l-363 621l-262 -205l-90 -416h-295l285 1337h295zM592 -137l223 53q43 -62 43 -141q0 -130 -109.5 -212.5t-281.5 -82.5q-84 0 -182 28l55 154q96 -14 115 -14q76 0 118.5 33t42.5 96q0 48 -24 86z" />
    <glyph glyph-name="uni0137" unicode="&#x137;" horiz-adv-x="1167" 
d="M858 999h359l-451 -366l311 -633h-317l-211 459l-168 -137l-68 -322h-274l305 1434h274l-169 -793zM354 -125l226 41q17 -22 26.5 -36t21 -46t11.5 -67q0 -124 -104 -205.5t-275 -81.5q-59 0 -106 16l32 156q27 -6 82 -6q60 0 93.5 31.5t33.5 91.5q0 47 -41 106z" />
    <glyph glyph-name="kgreenlandic" unicode="&#x138;" horiz-adv-x="1167" 
d="M858 999h359l-451 -366l311 -633h-317l-211 459l-168 -137l-68 -322h-274l213 999h274l-75 -358z" />
    <glyph glyph-name="Lacute" unicode="&#x139;" horiz-adv-x="1312" 
d="M375 1337h295l-232 -1085h787l-54 -252h-1081zM373 1487l205 282h292l-254 -282h-243z" />
    <glyph glyph-name="lacute" unicode="&#x13a;" horiz-adv-x="626" 
d="M330 0h-275l305 1434h275zM348 1567l205 282h293l-254 -282h-244z" />
    <glyph glyph-name="uni013B" unicode="&#x13b;" horiz-adv-x="1312" 
d="M375 1337h295l-232 -1085h787l-54 -252h-1081zM465 -137l223 53q43 -62 43 -141q0 -130 -109.5 -212.5t-281.5 -82.5q-84 0 -182 28l55 154q96 -14 115 -14q76 0 118.5 33t42.5 96q0 48 -24 86z" />
    <glyph glyph-name="uni013C" unicode="&#x13c;" horiz-adv-x="626" 
d="M330 0h-275l305 1434h275zM74 -125l225 41q17 -22 26.5 -36t21 -46t11.5 -67q0 -124 -103.5 -205.5t-274.5 -81.5q-60 0 -107 16l33 156q27 -6 82 -6q60 0 93.5 31.5t33.5 91.5q0 47 -41 106z" />
    <glyph glyph-name="Lcaron" unicode="&#x13d;" horiz-adv-x="1312" 
d="M375 1337h295l-232 -1085h787l-54 -252h-1081zM1014 950h-140q69 312 103 484h242q-33 -150 -80.5 -263t-124.5 -221z" />
    <glyph glyph-name="lcaron" unicode="&#x13e;" horiz-adv-x="626" 
d="M330 0h-273l303 1434h275zM805 950h-139q54 265 102 484h242q-33 -150 -80.5 -263t-124.5 -221z" />
    <glyph glyph-name="Ldot" unicode="&#x13f;" horiz-adv-x="1349" 
d="M375 1337h295l-232 -1085h787l-54 -252h-1081zM913 809q0 61 48 105t116 44q58 0 97.5 -38t39.5 -91q0 -60 -48.5 -101.5t-116.5 -41.5q-60 0 -98 35t-38 88z" />
    <glyph glyph-name="ldot" unicode="&#x140;" horiz-adv-x="759" 
d="M330 0h-275l305 1434h275zM557 723q0 60 47.5 104.5t114.5 44.5q59 0 99 -38t40 -91q0 -60 -49 -101.5t-117 -41.5q-59 0 -97 35t-38 88z" />
    <glyph glyph-name="Lslash" unicode="&#x141;" horiz-adv-x="1363" 
d="M422 1337h295l-99 -452l447 229l-53 -260l-449 -231l-78 -371h787l-53 -252h-1082l96 453l-221 -113l54 258l223 115z" />
    <glyph glyph-name="lslash" unicode="&#x142;" horiz-adv-x="671" 
d="M61 494l7 206l180 88l137 646h272l-106 -494l170 84l-8 -207l-209 -104l-152 -713h-272l119 561z" />
    <glyph glyph-name="Nacute" unicode="&#x143;" horiz-adv-x="1652" 
d="M90 0l285 1337h250l501 -854h2l181 854h297l-285 -1337h-252l-502 854h-2l-180 -854h-295zM840 1487l204 282h293l-254 -282h-243z" />
    <glyph glyph-name="nacute" unicode="&#x144;" horiz-adv-x="1251" 
d="M803 1032q134 0 227.5 -88.5t93.5 -226.5q0 -49 -22 -166l-117 -551h-274l118 555q1 7 7 33t10 51t4 43q0 58 -41 88.5t-100 30.5q-108 0 -252 -133l-142 -668h-272l156 743q25 116 28 256h248q5 -54 -2 -127q83 74 161.5 117t168.5 43zM762 1430h274l-221 -300h-237z
" />
    <glyph glyph-name="uni0145" unicode="&#x145;" horiz-adv-x="1652" 
d="M90 0l285 1337h250l501 -854h2l181 854h297l-285 -1337h-252l-502 854h-2l-180 -854h-295zM604 -137l223 53q43 -62 43 -141q0 -130 -109.5 -212.5t-281.5 -82.5q-84 0 -182 28l55 154q96 -14 115 -14q77 0 119.5 33t42.5 96q0 46 -25 86z" />
    <glyph glyph-name="uni0146" unicode="&#x146;" horiz-adv-x="1251" 
d="M803 1032q134 0 227.5 -88.5t93.5 -226.5q0 -49 -22 -166l-117 -551h-274l118 555q1 7 7 33t10 51t4 43q0 58 -41 88.5t-100 30.5q-108 0 -252 -133l-142 -668h-272l156 743q25 116 28 256h248q5 -54 -2 -127q83 74 161.5 117t168.5 43zM367 -125l225 41q17 -22 26.5 -36
t21 -46t11.5 -67q0 -124 -104 -205.5t-275 -81.5q-59 0 -106 16l33 156q27 -6 82 -6q60 0 93.5 31.5t33.5 91.5q0 47 -41 106z" />
    <glyph glyph-name="Ncaron" unicode="&#x147;" horiz-adv-x="1652" 
d="M90 0l285 1337h250l501 -854h2l181 854h297l-285 -1337h-252l-502 854h-2l-180 -854h-295zM1434 1772l-279 -285h-270l-154 285h203l102 -152l168 152h230z" />
    <glyph glyph-name="ncaron" unicode="&#x148;" horiz-adv-x="1251" 
d="M803 1032q134 0 227.5 -88.5t93.5 -226.5q0 -49 -22 -166l-117 -551h-274l118 555q1 7 7 33t10 51t4 43q0 58 -41 88.5t-100 30.5q-108 0 -252 -133l-142 -668h-272l156 743q25 116 28 256h248q5 -54 -2 -127q83 74 161.5 117t168.5 43zM1157 1421l-278 -288h-271
l-155 288h206l101 -157l170 157h227z" />
    <glyph glyph-name="napostrophe" unicode="&#x149;" horiz-adv-x="1251" 
d="M80 1063l-60 117q63 17 127 62.5t68 98.5q2 6 2 13q-24 -8 -47 -8q-41 0 -67.5 31t-26.5 77q0 58 49 98.5t117 40.5q67 0 113 -48.5t46 -123.5q0 -74 -30.5 -136.5t-81.5 -105t-101.5 -70t-107.5 -46.5zM803 1032q134 0 227.5 -88.5t93.5 -226.5q0 -49 -22 -166
l-117 -551h-274l118 555q1 7 7 33t10 51t4 43q0 58 -41 88.5t-100 30.5q-108 0 -252 -133l-142 -668h-272l156 743q25 116 28 256h248q5 -54 -2 -127q83 74 161.5 117t168.5 43z" />
    <glyph glyph-name="Eng" unicode="&#x14a;" horiz-adv-x="1652" 
d="M90 0l285 1337h250l501 -854h2l183 854h295l-283 -1339q-49 -226 -212 -344.5t-415 -118.5l54 254q104 0 180 63.5t100 178.5l6 24l-467 799h-2l-182 -854h-295z" />
    <glyph glyph-name="eng" unicode="&#x14b;" horiz-adv-x="1251" 
d="M502 -467l-33 205q40 8 70.5 18.5t65 30t57.5 52t32 77.5l135 639q1 7 7 33t10 50t4 40q0 57 -42 90t-101 33q-109 0 -250 -133l-142 -668h-272l156 743q25 116 28 256h248q5 -54 -2 -127q83 74 161.5 117t168.5 43q134 0 227.5 -88.5t93.5 -226.5q0 -49 -22 -166
l-137 -647q-16 -79 -53.5 -143.5t-85 -106t-104.5 -69.5t-112 -40t-108 -12z" />
    <glyph glyph-name="Omacron" unicode="&#x14c;" horiz-adv-x="1708" 
d="M113 614q0 152 66 293.5t175 244.5t258 164.5t308 61.5q203 0 368 -87t257.5 -236t92.5 -328q0 -154 -67 -296.5t-178 -245.5t-261.5 -164.5t-310.5 -61.5q-152 0 -284 51t-225 138.5t-146 208.5t-53 257zM422 614q0 -167 115 -285t284 -118q135 0 252 69.5t186.5 188.5
t69.5 258q0 164 -119 280.5t-290 116.5q-204 0 -351 -150t-147 -360zM793 1716h548l-41 -190h-548z" />
    <glyph glyph-name="omacron" unicode="&#x14d;" horiz-adv-x="1273" 
d="M76 459q0 158 77.5 289t215.5 207.5t307 76.5q226 0 359.5 -136.5t133.5 -346.5q0 -118 -45 -225t-123.5 -185t-190.5 -124t-239 -46q-227 0 -361 139t-134 351zM356 467q0 -116 61.5 -194t172.5 -78q133 0 217 101.5t84 244.5q0 114 -62 189t-174 75
q-130 0 -214.5 -99.5t-84.5 -238.5zM514 1362h549l-41 -191h-549z" />
    <glyph glyph-name="Obreve" unicode="&#x14e;" horiz-adv-x="1708" 
d="M113 614q0 152 66 293.5t175 244.5t258 164.5t308 61.5q203 0 368 -87t257.5 -236t92.5 -328q0 -154 -67 -296.5t-178 -245.5t-261.5 -164.5t-310.5 -61.5q-152 0 -284 51t-225 138.5t-146 208.5t-53 257zM422 614q0 -167 115 -285t284 -118q135 0 252 69.5t186.5 188.5
t69.5 258q0 164 -119 280.5t-290 116.5q-204 0 -351 -150t-147 -360zM750 1769h188q-29 -139 109 -139t167 139h195q-10 -43 -26.5 -82t-47.5 -80.5t-73 -71.5t-105.5 -49.5t-140.5 -19.5q-65 0 -114.5 13t-79.5 36.5t-49.5 52.5t-25.5 64.5t-5 68.5t8 68z" />
    <glyph glyph-name="obreve" unicode="&#x14f;" horiz-adv-x="1273" 
d="M76 459q0 158 77.5 289t215.5 207.5t307 76.5q226 0 359.5 -136.5t133.5 -346.5q0 -118 -45 -225t-123.5 -185t-190.5 -124t-239 -46q-227 0 -361 139t-134 351zM356 467q0 -116 61.5 -194t172.5 -78q133 0 217 101.5t84 244.5q0 114 -62 189t-174 75
q-130 0 -214.5 -99.5t-84.5 -238.5zM471 1419h188q-29 -143 109 -143q139 0 168 143h192q-11 -55 -36 -105t-69 -97.5t-118.5 -76t-169.5 -28.5q-65 0 -114.5 13.5t-79.5 37t-49 53t-25 65t-5 69t9 69.5z" />
    <glyph glyph-name="Ohungarumlaut" unicode="&#x150;" horiz-adv-x="1708" 
d="M113 614q0 152 66 293.5t175 244.5t258 164.5t308 61.5q203 0 368 -87t257.5 -236t92.5 -328q0 -154 -67 -296.5t-178 -245.5t-261.5 -164.5t-310.5 -61.5q-152 0 -284 51t-225 138.5t-146 208.5t-53 257zM422 614q0 -167 115 -285t284 -118q135 0 252 69.5t186.5 188.5
t69.5 258q0 164 -119 280.5t-290 116.5q-204 0 -351 -150t-147 -360zM1210 1776h232l-178 -293h-170zM836 1776h231l-176 -293h-172z" />
    <glyph glyph-name="ohungarumlaut" unicode="&#x151;" horiz-adv-x="1273" 
d="M76 459q0 158 77.5 289t215.5 207.5t307 76.5q226 0 359.5 -136.5t133.5 -346.5q0 -118 -45 -225t-123.5 -185t-190.5 -124t-239 -46q-227 0 -361 139t-134 351zM356 467q0 -116 61.5 -194t172.5 -78q133 0 217 101.5t84 244.5q0 114 -62 189t-174 75
q-130 0 -214.5 -99.5t-84.5 -238.5zM932 1421h229l-176 -293h-170zM557 1421h229l-176 -293h-170z" />
    <glyph glyph-name="OE" unicode="&#x152;" horiz-adv-x="2557" 
d="M2163 823l-54 -252h-491l-70 -319h869l-56 -252h-1140l28 139q-198 -180 -458 -180q-145 0 -271.5 51t-215.5 138.5t-140 208.5t-51 257q0 203 109 379.5t293 280.5t394 104q344 0 529 -250l49 209h1112l-51 -254h-822l-57 -260h494zM422 614q0 -167 115 -285t284 -118
q140 0 262 69.5t194.5 188.5t72.5 258q0 164 -125 280.5t-305 116.5q-204 0 -351 -150t-147 -360z" />
    <glyph glyph-name="oe" unicode="&#x153;" horiz-adv-x="2023" 
d="M1729 268l108 -178q-244 -121 -465 -121q-126 0 -225 50.5t-156 138.5q-74 -88 -186.5 -138.5t-233.5 -50.5q-220 0 -357.5 140.5t-137.5 349.5q0 117 47.5 223.5t128 183t191.5 121.5t233 45q120 0 222 -51.5t161 -140.5q69 89 177 140.5t228 51.5q91 0 172.5 -26
t148 -77.5t105.5 -136.5t39 -194q0 -75 -16 -166h-760q8 -105 73 -174.5t177 -69.5q150 0 326 80zM1448 823q-96 0 -166 -57.5t-104 -151.5h485q6 98 -57.5 153.5t-157.5 55.5zM356 467q0 -116 61.5 -194t172.5 -78q132 0 216.5 102t84.5 244q0 114 -62 189t-174 75
q-130 0 -214.5 -99.5t-84.5 -238.5z" />
    <glyph glyph-name="Racute" unicode="&#x154;" horiz-adv-x="1595" 
d="M1542 946q0 -143 -102 -262.5t-262 -163.5l196 -520h-319l-170 492h-396l-104 -492h-297l287 1337h708q234 0 355 -127q104 -113 104 -264zM543 739h477q108 0 176 68q53 50 53 123q0 65 -45 110q-28 28 -63 39t-90 11h-435zM819 1487l205 282h293l-254 -282h-244z" />
    <glyph glyph-name="racute" unicode="&#x155;" horiz-adv-x="835" 
d="M662 770q-50 0 -98 -32t-111 -95l-138 -643h-272l152 717q24 125 30 282h250q-3 -66 -12 -149q36 45 62 72.5t60.5 55.5t73 41t82.5 13q36 0 73 -11t56 -30l-57 -250q-85 29 -151 29zM561 1430h275l-222 -300h-237z" />
    <glyph glyph-name="uni0156" unicode="&#x156;" horiz-adv-x="1595" 
d="M1542 946q0 -143 -102 -262.5t-262 -163.5l196 -520h-319l-170 492h-396l-104 -492h-297l287 1337h708q234 0 355 -127q104 -113 104 -264zM543 739h477q108 0 176 68q53 50 53 123q0 65 -45 110q-28 28 -63 39t-90 11h-435zM600 -137l223 53q43 -62 43 -141
q0 -130 -109.5 -212.5t-281.5 -82.5q-84 0 -182 28l55 154q96 -14 115 -14q77 0 119.5 33t42.5 96q0 46 -25 86z" />
    <glyph glyph-name="uni0157" unicode="&#x157;" horiz-adv-x="835" 
d="M662 770q-50 0 -98 -32t-111 -95l-138 -643h-272l152 717q24 125 30 282h250q-3 -66 -12 -149q36 45 62 72.5t60.5 55.5t73 41t82.5 13q36 0 73 -11t56 -30l-57 -250q-85 29 -151 29zM88 -125l225 41q18 -23 27 -36t21 -45.5t12 -67.5q0 -124 -104 -205.5t-275 -81.5
q-60 0 -107 16l33 156q27 -6 82 -6q60 0 93.5 31.5t33.5 91.5q0 47 -41 106z" />
    <glyph glyph-name="Rcaron" unicode="&#x158;" horiz-adv-x="1595" 
d="M1542 946q0 -143 -102 -262.5t-262 -163.5l196 -520h-319l-170 492h-396l-104 -492h-297l287 1337h708q234 0 355 -127q104 -113 104 -264zM543 739h477q108 0 176 68q53 50 53 123q0 65 -45 110q-28 28 -63 39t-90 11h-435zM1413 1772l-278 -285h-271l-153 285h202
l103 -152l168 152h229z" />
    <glyph glyph-name="rcaron" unicode="&#x159;" horiz-adv-x="835" 
d="M662 770q-50 0 -98 -32t-111 -95l-138 -643h-272l152 717q24 125 30 282h250q-3 -66 -12 -149q36 45 62 72.5t60.5 55.5t73 41t82.5 13q36 0 73 -11t56 -30l-57 -250q-85 29 -151 29zM956 1421l-278 -288h-270l-156 288h207l100 -157l170 157h227z" />
    <glyph glyph-name="Sacute" unicode="&#x15a;" horiz-adv-x="1490" 
d="M1423 1130l-198 -182q-86 93 -223 141t-275 48q-36 0 -70.5 -6t-70.5 -19.5t-58 -42t-22 -68.5q0 -77 99 -117q47 -19 181 -48q215 -40 310 -74q237 -85 277 -264q9 -40 9 -84q0 -144 -78.5 -248t-210.5 -155.5t-302 -51.5q-225 0 -418.5 86t-339.5 252l184 182
q114 -130 265 -205t315 -75q72 0 133 15t106 55t45 100q0 30 -11 54t-35 43t-52.5 33.5t-72.5 27.5t-84.5 22t-98.5 20q-81 16 -126 26.5t-116.5 32.5t-112 48.5t-83.5 65t-62.5 93.5t-19.5 123q0 103 43 184.5t117.5 132t170 77t205.5 26.5q184 0 362.5 -64t317.5 -184z
M741 1487l205 282h293l-254 -282h-244z" />
    <glyph glyph-name="sacute" unicode="&#x15b;" horiz-adv-x="1146" 
d="M1073 881l-133 -183q-78 53 -183 90t-192 37q-58 0 -100 -21t-45 -69q-1 -20 8.5 -36t23.5 -26t38.5 -18t44.5 -12.5t51 -9.5q43 -7 68 -12t69 -15.5t72.5 -22t65.5 -29t60.5 -40t45.5 -51.5t32.5 -67t10.5 -83q0 -163 -129 -255.5t-334 -92.5q-152 0 -294.5 52.5
t-256.5 152.5l133 184q83 -77 199 -128.5t227 -51.5q42 0 79.5 10t66 37.5t28.5 67.5q0 28 -14.5 48.5t-42 33t-53.5 19.5t-64 13q-169 31 -237 58q-156 62 -173 201q-2 18 -2 38q0 156 115.5 246t304.5 90q133 0 268.5 -41.5t241.5 -113.5zM698 1430h275l-221 -300h-238z
" />
    <glyph glyph-name="Scircumflex" unicode="&#x15c;" horiz-adv-x="1490" 
d="M1423 1130l-198 -182q-86 93 -223 141t-275 48q-36 0 -70.5 -6t-70.5 -19.5t-58 -42t-22 -68.5q0 -77 99 -117q47 -19 181 -48q215 -40 310 -74q237 -85 277 -264q9 -40 9 -84q0 -144 -78.5 -248t-210.5 -155.5t-302 -51.5q-225 0 -418.5 86t-339.5 252l184 182
q114 -130 265 -205t315 -75q72 0 133 15t106 55t45 100q0 30 -11 54t-35 43t-52.5 33.5t-72.5 27.5t-84.5 22t-98.5 20q-81 16 -126 26.5t-116.5 32.5t-112 48.5t-83.5 65t-62.5 93.5t-19.5 123q0 103 43 184.5t117.5 132t170 77t205.5 26.5q184 0 362.5 -64t317.5 -184z
M567 1487l279 285h270l156 -285h-203l-102 151l-170 -151h-230z" />
    <glyph glyph-name="scircumflex" unicode="&#x15d;" horiz-adv-x="1146" 
d="M1073 881l-133 -183q-78 53 -183 90t-192 37q-58 0 -100 -21t-45 -69q-1 -20 8.5 -36t23.5 -26t38.5 -18t44.5 -12.5t51 -9.5q43 -7 68 -12t69 -15.5t72.5 -22t65.5 -29t60.5 -40t45.5 -51.5t32.5 -67t10.5 -83q0 -163 -129 -255.5t-334 -92.5q-152 0 -294.5 52.5
t-256.5 152.5l133 184q83 -77 199 -128.5t227 -51.5q42 0 79.5 10t66 37.5t28.5 67.5q0 28 -14.5 48.5t-42 33t-53.5 19.5t-64 13q-169 31 -237 58q-156 62 -173 201q-2 18 -2 38q0 156 115.5 246t304.5 90q133 0 268.5 -41.5t241.5 -113.5zM326 1133l278 288h270l156 -288
h-207l-100 155l-170 -155h-227z" />
    <glyph glyph-name="Scedilla" unicode="&#x15e;" horiz-adv-x="1490" 
d="M1423 1130l-198 -182q-86 93 -223 141t-275 48q-36 0 -70.5 -6t-70.5 -19.5t-58 -42t-22 -68.5q0 -77 99 -117q47 -19 181 -48q215 -40 310 -74q237 -85 277 -264q9 -40 9 -84q0 -144 -78.5 -248t-210.5 -155.5t-302 -51.5q-12 0 -33 1t-31 1l-25 -33q35 -10 54.5 -16.5
t49 -20.5t45.5 -29.5t28 -41t12 -56.5q0 -101 -106 -165t-265 -64q-55 0 -112 10t-94 20.5t-101 31.5l72 141q11 -3 47 -12t51 -12.5t42.5 -9t49.5 -7.5t43 -2q61 0 96 18t35 49q0 33 -38.5 49.5t-82.5 16.5q-24 0 -34 -2l-15 61l74 99q-306 66 -520 311l184 182
q114 -130 265 -205t315 -75q72 0 133 15t106 55t45 100q0 30 -11 54t-35 43t-52.5 33.5t-72.5 27.5t-84.5 22t-98.5 20q-81 16 -126 26.5t-116.5 32.5t-112 48.5t-83.5 65t-62.5 93.5t-19.5 123q0 103 43 184.5t117.5 132t170 77t205.5 26.5q184 0 362.5 -64t317.5 -184z
" />
    <glyph glyph-name="scedilla" unicode="&#x15f;" horiz-adv-x="1146" 
d="M1073 881l-133 -183q-78 53 -183 90t-192 37q-58 0 -100 -21t-45 -69q-1 -20 8.5 -36t23.5 -26t38.5 -18t44.5 -12.5t51 -9.5q43 -7 68 -12t69 -15.5t72.5 -22t65.5 -29t60.5 -40t45.5 -51.5t32.5 -67t10.5 -83q0 -161 -126 -253t-329 -95l-27 -37q35 -10 54.5 -16.5
t49 -20.5t45.5 -29.5t28 -41t12 -56.5q0 -101 -106 -165t-265 -64q-55 0 -112 10t-94 20.5t-101 31.5l72 141q11 -3 47 -12t51 -12.5t42.5 -9t49.5 -7.5t43 -2q61 0 96 18t35 49q0 33 -38.5 49.5t-82.5 16.5q-25 0 -35 -2l-14 61l72 95q-215 42 -381 188l133 184
q83 -77 199 -128.5t227 -51.5q42 0 79.5 10t66 37.5t28.5 67.5q0 28 -14.5 48.5t-42 33t-53.5 19.5t-64 13q-169 31 -237 58q-156 62 -173 201q-2 18 -2 38q0 156 115.5 246t304.5 90q133 0 268.5 -41.5t241.5 -113.5z" />
    <glyph glyph-name="Scaron" unicode="&#x160;" horiz-adv-x="1490" 
d="M1423 1130l-198 -182q-86 93 -223 141t-275 48q-36 0 -70.5 -6t-70.5 -19.5t-58 -42t-22 -68.5q0 -77 99 -117q47 -19 181 -48q215 -40 310 -74q237 -85 277 -264q9 -40 9 -84q0 -144 -78.5 -248t-210.5 -155.5t-302 -51.5q-225 0 -418.5 86t-339.5 252l184 182
q114 -130 265 -205t315 -75q72 0 133 15t106 55t45 100q0 30 -11 54t-35 43t-52.5 33.5t-72.5 27.5t-84.5 22t-98.5 20q-81 16 -126 26.5t-116.5 32.5t-112 48.5t-83.5 65t-62.5 93.5t-19.5 123q0 103 43 184.5t117.5 132t170 77t205.5 26.5q184 0 362.5 -64t317.5 -184z
M1335 1772l-278 -285h-271l-153 285h203l102 -152l168 152h229z" />
    <glyph glyph-name="scaron" unicode="&#x161;" horiz-adv-x="1146" 
d="M1073 881l-133 -183q-78 53 -183 90t-192 37q-58 0 -100 -21t-45 -69q-1 -20 8.5 -36t23.5 -26t38.5 -18t44.5 -12.5t51 -9.5q43 -7 68 -12t69 -15.5t72.5 -22t65.5 -29t60.5 -40t45.5 -51.5t32.5 -67t10.5 -83q0 -163 -129 -255.5t-334 -92.5q-152 0 -294.5 52.5
t-256.5 152.5l133 184q83 -77 199 -128.5t227 -51.5q42 0 79.5 10t66 37.5t28.5 67.5q0 28 -14.5 48.5t-42 33t-53.5 19.5t-64 13q-169 31 -237 58q-156 62 -173 201q-2 18 -2 38q0 156 115.5 246t304.5 90q133 0 268.5 -41.5t241.5 -113.5zM1094 1421l-279 -288h-270
l-156 288h207l100 -157l170 157h228z" />
    <glyph glyph-name="uni0162" unicode="&#x162;" horiz-adv-x="1353" 
d="M145 1083l56 254h1259l-53 -254h-481l-232 -1083l-55 -72q35 -10 54.5 -16.5t48.5 -20.5t45 -29.5t28 -41t12 -56.5q0 -101 -105.5 -165t-264.5 -64q-55 0 -112 10t-94 20.5t-101 31.5l71 141q9 -2 46.5 -11.5t52 -12.5t43 -9t50 -8t42.5 -2q61 0 96 18t35 49
q0 33 -38.5 49.5t-82.5 16.5q-25 0 -35 -2l-14 61l86 113h-103l230 1083h-484z" />
    <glyph glyph-name="uni0163" unicode="&#x163;" horiz-adv-x="819" 
d="M90 797l43 202h174l60 283h272l-61 -283h247l-43 -202h-247l-107 -508q-4 -24 -4 -35q0 -64 92 -64q58 0 131 15l-24 -205q-31 -20 -100.5 -29.5t-123.5 -9.5h-8l-24 -33q35 -10 54.5 -16.5t48.5 -20.5t45 -29.5t28 -41t12 -56.5q0 -101 -106 -165t-265 -64
q-55 0 -112 10t-94 20.5t-101 31.5l72 141q11 -3 47 -12t51 -12.5t42.5 -9t49.5 -7.5t43 -2q61 0 96 18t35 49q0 33 -38 49.5t-82 16.5q-25 0 -35 -2l-15 61l88 115q-90 59 -90 180q0 36 9 76l114 539h-174z" />
    <glyph glyph-name="Tcaron" unicode="&#x164;" horiz-adv-x="1353" 
d="M145 1083l56 254h1259l-53 -254h-481l-232 -1083h-295l230 1083h-484zM1274 1772l-279 -285h-270l-154 285h203l103 -152l167 152h230z" />
    <glyph glyph-name="tcaron" unicode="&#x165;" horiz-adv-x="819" 
d="M90 797l43 202h174l60 283h272l-61 -283h247l-43 -202h-247l-107 -508q-4 -24 -4 -35q0 -64 92 -64q58 0 131 15l-24 -205q-31 -20 -100.5 -29.5t-123.5 -9.5q-110 0 -184 52.5t-74 168.5q0 36 9 76l114 539h-174zM860 1118h-139q57 263 102 484h242q-31 -150 -78.5 -263
t-126.5 -221z" />
    <glyph glyph-name="Tbar" unicode="&#x166;" horiz-adv-x="1353" 
d="M145 1083l56 254h1259l-53 -254h-481l-64 -295h295l-45 -213h-295l-123 -575h-295l121 575h-291l45 213h291l64 295h-484z" />
    <glyph glyph-name="tbar" unicode="&#x167;" horiz-adv-x="819" 
d="M90 797l43 202h174l60 283h272l-61 -283h247l-43 -202h-247l-43 -201h256l-39 -180h-254l-27 -127q-4 -24 -4 -35q0 -64 92 -64q58 0 131 15l-24 -205q-31 -20 -100.5 -29.5t-123.5 -9.5q-110 0 -184 52.5t-74 168.5q0 36 9 76l32 158h-166l37 180h168l43 201h-174z" />
    <glyph glyph-name="Utilde" unicode="&#x168;" horiz-adv-x="1593" 
d="M1274 1337h297l-191 -903q-26 -117 -84 -208.5t-140.5 -149t-183 -87.5t-214.5 -30q-159 0 -291 54t-213.5 161.5t-81.5 249.5q0 103 41 297q22 109 68.5 324.5t62.5 291.5h293l-137 -653q-35 -164 -35 -229q0 -117 86 -180.5t211 -63.5t213.5 64.5t116.5 193.5z
M754 1477l-144 88q86 108 157 154t146 46q73 0 138 -51q4 -3 18 -14.5t20 -15t17 -10t20.5 -9t20.5 -2.5q23 0 50.5 17.5t40 30t44.5 46.5l133 -82q-154 -205 -301 -205q-70 0 -133 48q-5 4 -16.5 14t-16 13.5t-14 10.5t-16 9.5t-15.5 5t-18 2.5q-12 0 -24.5 -4.5t-21.5 -10
t-22.5 -18t-20.5 -19t-22 -23t-20 -21.5z" />
    <glyph glyph-name="utilde" unicode="&#x169;" horiz-adv-x="1251" 
d="M1180 999l-154 -733q-30 -144 -35 -266h-250q-3 34 7 125q-82 -73 -160.5 -115.5t-167.5 -42.5q-135 0 -228.5 89t-93.5 227q0 44 23 166l117 550h274l-119 -555q-20 -90 -20 -122q0 -63 41 -93t100 -30q110 0 252 131l141 669h273zM510 1122l-145 88q86 108 157.5 154.5
t145.5 46.5q75 0 137 -51q5 -4 23.5 -18t25.5 -18t21 -9.5t26 -5.5q24 0 51.5 17.5t40.5 30t45 46.5l133 -82q-154 -205 -303 -205q-73 0 -131 47q-7 5 -20.5 16.5t-20 16.5t-17 11.5t-20 9t-20.5 2.5q-14 0 -27.5 -5t-28 -17.5t-23.5 -21t-26.5 -27.5t-23.5 -26z" />
    <glyph glyph-name="Umacron" unicode="&#x16a;" horiz-adv-x="1593" 
d="M1274 1337h297l-191 -903q-26 -117 -84 -208.5t-140.5 -149t-183 -87.5t-214.5 -30q-159 0 -291 54t-213.5 161.5t-81.5 249.5q0 103 41 297q22 109 68.5 324.5t62.5 291.5h293l-137 -653q-35 -164 -35 -229q0 -117 86 -180.5t211 -63.5t213.5 64.5t116.5 193.5z
M762 1716h549l-41 -190h-549z" />
    <glyph glyph-name="umacron" unicode="&#x16b;" horiz-adv-x="1251" 
d="M1180 999l-154 -733q-30 -144 -35 -266h-250q-3 34 7 125q-82 -73 -160.5 -115.5t-167.5 -42.5q-135 0 -228.5 89t-93.5 227q0 44 23 166l117 550h274l-119 -555q-20 -90 -20 -122q0 -63 41 -93t100 -30q110 0 252 131l141 669h273zM518 1362h549l-41 -191h-549z" />
    <glyph glyph-name="Ubreve" unicode="&#x16c;" horiz-adv-x="1593" 
d="M1274 1337h297l-191 -903q-26 -117 -84 -208.5t-140.5 -149t-183 -87.5t-214.5 -30q-159 0 -291 54t-213.5 161.5t-81.5 249.5q0 103 41 297q22 109 68.5 324.5t62.5 291.5h293l-137 -653q-35 -164 -35 -229q0 -117 86 -180.5t211 -63.5t213.5 64.5t116.5 193.5z
M719 1769h188q-29 -139 109 -139q139 0 168 139h194q-10 -43 -26.5 -82t-47.5 -80.5t-73 -71.5t-105.5 -49.5t-140.5 -19.5q-65 0 -114.5 13t-79.5 36.5t-49.5 52.5t-25.5 64.5t-5 68.5t8 68z" />
    <glyph glyph-name="ubreve" unicode="&#x16d;" horiz-adv-x="1251" 
d="M1180 999l-154 -733q-30 -144 -35 -266h-250q-3 34 7 125q-82 -73 -160.5 -115.5t-167.5 -42.5q-135 0 -228.5 89t-93.5 227q0 44 23 166l117 550h274l-119 -555q-20 -90 -20 -122q0 -63 41 -93t100 -30q110 0 252 131l141 669h273zM475 1419h189q-29 -143 108 -143
q139 0 168 143h193q-11 -55 -36 -105t-69.5 -97.5t-119 -76t-169.5 -28.5q-65 0 -114.5 13.5t-79.5 37t-49 53t-25 65t-5 69t9 69.5z" />
    <glyph glyph-name="Uring" unicode="&#x16e;" horiz-adv-x="1593" 
d="M1274 1337h297l-191 -903q-26 -117 -84 -208.5t-140.5 -149t-183 -87.5t-214.5 -30q-159 0 -291 54t-213.5 161.5t-81.5 249.5q0 103 41 297q22 109 68.5 324.5t62.5 291.5h293l-137 -653q-35 -164 -35 -229q0 -117 86 -180.5t211 -63.5t213.5 64.5t116.5 193.5z
M899 1630q0 -41 30.5 -65.5t78.5 -24.5q57 0 94 30.5t37 80.5q0 43 -31 72.5t-78 29.5q-54 0 -92.5 -36t-38.5 -87zM995 1419q-123 0 -189.5 58t-66.5 145q0 101 81.5 174.5t221.5 73.5q122 0 189 -61t67 -150q0 -100 -82 -170t-221 -70z" />
    <glyph glyph-name="uring" unicode="&#x16f;" horiz-adv-x="1251" 
d="M1180 999l-154 -733q-30 -144 -35 -266h-250q-3 34 7 125q-82 -73 -160.5 -115.5t-167.5 -42.5q-135 0 -228.5 89t-93.5 227q0 44 23 166l117 550h274l-119 -555q-20 -90 -20 -122q0 -63 41 -93t100 -30q110 0 252 131l141 669h273zM657 1323q0 -41 30.5 -66.5
t78.5 -25.5q56 0 93.5 30.5t37.5 79.5q0 45 -30 75t-79 30q-54 0 -92.5 -36t-38.5 -87zM498 1313q0 101 81.5 174.5t221.5 73.5q122 0 189 -60.5t67 -148.5q0 -100 -82 -170t-221 -70q-123 0 -189.5 57t-66.5 144z" />
    <glyph glyph-name="Uhungarumlaut" unicode="&#x170;" horiz-adv-x="1593" 
d="M1274 1337h297l-191 -903q-26 -117 -84 -208.5t-140.5 -149t-183 -87.5t-214.5 -30q-159 0 -291 54t-213.5 161.5t-81.5 249.5q0 103 41 297q22 109 68.5 324.5t62.5 291.5h293l-137 -653q-35 -164 -35 -229q0 -117 86 -180.5t211 -63.5t213.5 64.5t116.5 193.5z
M1180 1776h231l-178 -293h-170zM805 1776h231l-176 -293h-172z" />
    <glyph glyph-name="uhungarumlaut" unicode="&#x171;" horiz-adv-x="1251" 
d="M1180 999l-154 -733q-30 -144 -35 -266h-250q-3 34 7 125q-82 -73 -160.5 -115.5t-167.5 -42.5q-135 0 -228.5 89t-93.5 227q0 44 23 166l117 550h274l-119 -555q-20 -90 -20 -122q0 -63 41 -93t100 -30q110 0 252 131l141 669h273zM936 1421h229l-176 -293h-170z
M561 1421h230l-177 -293h-170z" />
    <glyph glyph-name="Uogonek" unicode="&#x172;" horiz-adv-x="1593" 
d="M1274 1337h297l-191 -903q-51 -227 -214.5 -348.5t-391.5 -126.5q-160 -76 -160 -172q0 -37 28 -56.5t79 -19.5q29 0 125 17l-12 -164q-113 -29 -197 -29q-118 0 -186 49.5t-68 130.5q0 147 190 265q-179 41 -290 158t-111 286q0 103 41 297q22 109 68.5 324.5
t62.5 291.5h293l-137 -653q-35 -164 -35 -229q0 -117 86 -180.5t211 -63.5t213.5 64.5t116.5 193.5z" />
    <glyph glyph-name="uogonek" unicode="&#x173;" horiz-adv-x="1251" 
d="M1180 999l-154 -733q-30 -144 -35 -266q-33 -13 -46.5 -19t-51.5 -24t-59 -33.5t-47 -37.5t-38 -47t-12 -52q0 -37 28 -56.5t79 -19.5q29 0 125 17l-13 -164q-113 -29 -196 -29q-118 0 -186 49.5t-68 130.5q0 90 67 163.5t166 125.5q-1 30 9 121q-82 -73 -160.5 -115.5
t-167.5 -42.5q-135 0 -228.5 89t-93.5 227q0 44 23 166l117 550h274l-119 -555q-20 -90 -20 -122q0 -63 41 -93t100 -30q110 0 252 131l141 669h273z" />
    <glyph glyph-name="Wcircumflex" unicode="&#x174;" horiz-adv-x="2048" 
d="M221 1337h309l72 -878h12l461 878h213l88 -878h13l442 878h317l-712 -1337h-279l-82 795h-12l-420 -795h-278zM864 1487l279 285h270l156 -285h-203l-102 151l-170 -151h-230z" />
    <glyph glyph-name="wcircumflex" unicode="&#x175;" horiz-adv-x="1632" 
d="M780 999h248l47 -639h12l291 639h289l-534 -999h-261l-43 612h-12l-307 -612h-258l-105 999h275l33 -639h12zM580 1133l278 288h270l156 -288h-207l-100 155l-170 -155h-227z" />
    <glyph glyph-name="Ycircumflex" unicode="&#x176;" horiz-adv-x="1357" 
d="M1155 1337h369l-690 -731l-129 -606h-295l129 614l-375 723h342l225 -465zM522 1487l279 285h270l156 -285h-203l-102 151l-170 -151h-230z" />
    <glyph glyph-name="ycircumflex" unicode="&#x177;" horiz-adv-x="1124" 
d="M518 403h12l390 596h299l-975 -1423h-299l379 533l-213 890h288zM338 1133l278 288h271l155 -288h-206l-101 155l-170 -155h-227z" />
    <glyph glyph-name="Ydieresis" unicode="&#x178;" horiz-adv-x="1357" 
d="M1155 1337h369l-690 -731l-129 -606h-295l129 614l-375 723h342l225 -465zM526 1622q0 60 48.5 105t115.5 45q59 0 99 -38.5t40 -91.5q0 -60 -48.5 -101.5t-116.5 -41.5q-60 0 -99 35t-39 88zM987 1622q0 61 48 105.5t116 44.5q58 0 97.5 -38.5t39.5 -91.5
q0 -60 -49 -101.5t-117 -41.5q-59 0 -97 35t-38 88z" />
    <glyph glyph-name="Zacute" unicode="&#x179;" horiz-adv-x="1384" 
d="M1235 252l-55 -252h-1180l37 176l885 907h-715l55 254h1141l-39 -178l-885 -907h756zM670 1487l204 282h293l-254 -282h-243z" />
    <glyph glyph-name="zacute" unicode="&#x17a;" horiz-adv-x="1089" 
d="M932 211l-45 -211h-901l32 156l609 630h-480l43 213h863l-33 -157l-608 -631h520zM676 1430h274l-221 -300h-237z" />
    <glyph glyph-name="Zdotaccent" unicode="&#x17b;" horiz-adv-x="1384" 
d="M1235 252l-55 -252h-1180l37 176l885 907h-715l55 254h1141l-39 -178l-885 -907h756zM729 1622q0 61 48 105.5t116 44.5q58 0 97.5 -38.5t39.5 -91.5q0 -60 -49 -101.5t-117 -41.5q-59 0 -97 35t-38 88z" />
    <glyph glyph-name="zdotaccent" unicode="&#x17c;" horiz-adv-x="1089" 
d="M932 211l-45 -211h-901l32 156l609 630h-480l43 213h863l-33 -157l-608 -631h520zM539 1268q0 61 47 105t114 44q59 0 99.5 -38t40.5 -91q0 -60 -49 -101.5t-117 -41.5q-59 0 -97 35t-38 88z" />
    <glyph glyph-name="Zcaron" unicode="&#x17d;" horiz-adv-x="1384" 
d="M1235 252l-55 -252h-1180l37 176l885 907h-715l55 254h1141l-39 -178l-885 -907h756zM1264 1772l-279 -285h-270l-154 285h203l102 -152l168 152h230z" />
    <glyph glyph-name="zcaron" unicode="&#x17e;" horiz-adv-x="1089" 
d="M932 211l-45 -211h-901l32 156l609 630h-480l43 213h863l-33 -157l-608 -631h520zM1071 1421l-278 -288h-271l-155 288h206l101 -157l170 157h227z" />
    <glyph glyph-name="Schwa" unicode="&#x18f;" horiz-adv-x="1603" 
d="M375 954l-187 195q123 103 307.5 166t372.5 63q155 0 282 -51.5t209 -140t126.5 -204.5t44.5 -247q0 -214 -107.5 -392.5t-293 -281t-406.5 -102.5q-119 0 -224.5 33t-192.5 99.5t-138 180t-51 260.5q0 71 18 185h1086q-5 179 -102 293t-271 114q-122 0 -252.5 -49.5
t-220.5 -120.5zM752 207q139 0 253.5 78.5t165.5 206.5h-753q-5 -91 44.5 -157.5t125.5 -97t164 -30.5z" />
    <glyph glyph-name="florin" unicode="&#x192;" horiz-adv-x="960" 
d="M111 705h225l78 243q22 68 66 119.5t99 79.5t111.5 41.5t112.5 13.5q161 0 209 -28l-76 -199q-65 14 -141 14q-45 0 -77.5 -16.5t-39.5 -44.5l-72 -223h262l-34 -168h-281l-168 -535q-29 -91 -85 -160t-125.5 -108t-141.5 -57.5t-144 -18.5l-2 197q43 10 71 18.5t64 26
t60.5 46.5t36.5 68l164 523h-207z" />
    <glyph glyph-name="Aringacute" unicode="&#x1fa;" horiz-adv-x="1531" 
d="M-102 0l905 1337h252l336 -1337h-308l-61 283h-621l-182 -283h-321zM854 987l-305 -473h422l-105 473h-12zM872 1630q0 -41 30.5 -65.5t78.5 -24.5q57 0 94 30.5t37 80.5q0 43 -30.5 72.5t-77.5 29.5q-54 0 -93 -36t-39 -87zM969 1419q-123 0 -189.5 58t-66.5 145
q0 101 81.5 174.5t221.5 73.5q122 0 189 -61t67 -150q0 -100 -82 -170t-221 -70zM889 1964l205 283h292l-253 -283h-244z" />
    <glyph glyph-name="aringacute" unicode="&#x1fb;" horiz-adv-x="1218" 
d="M713 0q-3 39 2 104q-160 -129 -324 -129q-70 0 -135 21t-118.5 61t-85.5 104t-32 142q0 109 63 188.5t160 116.5t214 37q202 0 338 -113l22 97q8 39 8 57q0 46 -35 76.5t-83.5 41.5t-108.5 11q-78 0 -173.5 -17t-154.5 -38l-47 213q72 22 182.5 39.5t212.5 17.5
q72 0 137.5 -8t130.5 -28t112 -50.5t76.5 -80.5t29.5 -113q0 -38 -29 -183l-76 -360q-23 -113 -16 -207h-270zM293 315q0 -71 56.5 -106t131.5 -35q78 0 149 32.5t107 63.5l19 92q-91 93 -260 93q-86 0 -144.5 -35.5t-58.5 -104.5zM647 1323q0 -41 30.5 -66.5t78.5 -25.5
q56 0 93.5 30.5t37.5 79.5q0 45 -30 75t-79 30q-54 0 -92.5 -36t-38.5 -87zM487 1313q0 101 82 174.5t222 73.5q122 0 189 -60.5t67 -148.5q0 -100 -82.5 -170t-221.5 -70q-123 0 -189.5 57t-66.5 144zM659 1630l205 283h293l-254 -283h-244z" />
    <glyph glyph-name="AEacute" unicode="&#x1fc;" horiz-adv-x="2185" 
d="M-158 0l1096 1337h1288l-53 -254h-819l-58 -260h492l-51 -252h-494l-69 -319h868l-53 -252h-1162l60 283h-477l-230 -283h-338zM592 514h344l123 569h-10zM1268 1487l205 282h292l-254 -282h-243z" />
    <glyph glyph-name="aeacute" unicode="&#x1fd;" horiz-adv-x="1927" 
d="M1632 268l109 -178q-249 -121 -457 -121q-265 0 -395 172q-102 -74 -233.5 -122t-252.5 -48q-100 0 -185.5 36.5t-141.5 114t-56 181.5q0 82 36 148.5t97.5 108t138.5 63.5t163 22q208 0 344 -113q2 17 14 73.5t12 78.5q0 37 -19.5 63.5t-53 40.5t-71.5 20.5t-83 6.5
q-78 0 -173.5 -17t-154.5 -38l-47 213q72 23 182.5 40t215.5 17q281 0 380 -127q10 -15 13 -18q138 147 358 147q88 0 168.5 -25.5t147 -76t106.5 -136t41 -194.5q0 -54 -16 -168h-766q8 -107 76.5 -175.5t185.5 -68.5q69 0 158 24t159 56zM496 455q-51 0 -94 -12t-76 -45
t-33 -83q0 -70 56 -105.5t128 -35.5q70 0 166.5 37t167.5 84q-1 8 -5 25t-5 22q-143 113 -305 113zM1362 823q-102 0 -175.5 -58t-109.5 -151h492q4 96 -55.5 152.5t-151.5 56.5zM1098 1430h274l-221 -300h-238z" />
    <glyph glyph-name="Oslashacute" unicode="&#x1fe;" horiz-adv-x="1708" 
d="M1462 1477l150 -119l-166 -182q92 -89 142 -204.5t50 -244.5q0 -154 -67 -296.5t-178 -245.5t-261.5 -164.5t-310.5 -61.5q-215 0 -391 102l-182 -200l-152 119l185 200q-168 182 -168 434q0 152 66 293.5t175 244.5t258 164.5t308 61.5q203 0 370 -90zM1329 727
q0 130 -80 234l-633 -695q88 -55 205 -55q135 0 252 69.5t186.5 188.5t69.5 258zM422 614q0 -121 59 -213l621 680q-88 43 -182 43q-204 0 -351 -150t-147 -360zM840 1487l204 282h293l-254 -282h-243z" />
    <glyph glyph-name="oslashacute" unicode="&#x1ff;" horiz-adv-x="1273" 
d="M1083 1126l125 -104l-143 -158q106 -127 106 -315q0 -118 -45 -225t-123.5 -185t-190.5 -124t-239 -46q-147 0 -266 66l-145 -160l-125 105l145 159q-104 132 -104 320q0 158 77.5 289t215.5 207.5t307 76.5q148 0 262 -63zM905 543q0 65 -22 123l-414 -455
q51 -31 121 -31q91 0 164 50.5t112 133t39 179.5zM348 465q0 -64 19 -123l411 449q-51 28 -119 28q-136 0 -223.5 -104.5t-87.5 -249.5zM760 1430h274l-221 -300h-238z" />
    <glyph glyph-name="uni0218" unicode="&#x218;" horiz-adv-x="1490" 
d="M1423 1130l-198 -182q-86 93 -223 141t-275 48q-36 0 -70.5 -6t-70.5 -19.5t-58 -42t-22 -68.5q0 -77 99 -117q47 -19 181 -48q215 -40 310 -74q237 -85 277 -264q9 -40 9 -84q0 -144 -78.5 -248t-210.5 -155.5t-302 -51.5q-225 0 -418.5 86t-339.5 252l184 182
q114 -130 265 -205t315 -75q72 0 133 15t106 55t45 100q0 30 -11 54t-35 43t-52.5 33.5t-72.5 27.5t-84.5 22t-98.5 20q-81 16 -126 26.5t-116.5 32.5t-112 48.5t-83.5 65t-62.5 93.5t-19.5 123q0 103 43 184.5t117.5 132t170 77t205.5 26.5q184 0 362.5 -64t317.5 -184z
M543 -137l223 53q43 -62 43 -141q0 -130 -109.5 -212.5t-281.5 -82.5q-84 0 -182 28l55 154q96 -14 115 -14q76 0 118.5 33t42.5 96q0 48 -24 86z" />
    <glyph glyph-name="uni0219" unicode="&#x219;" horiz-adv-x="1146" 
d="M1073 881l-133 -183q-78 53 -183 90t-192 37q-58 0 -100 -21t-45 -69q-1 -20 8.5 -36t23.5 -26t38.5 -18t44.5 -12.5t51 -9.5q43 -7 68 -12t69 -15.5t72.5 -22t65.5 -29t60.5 -40t45.5 -51.5t32.5 -67t10.5 -83q0 -163 -129 -255.5t-334 -92.5q-152 0 -294.5 52.5
t-256.5 152.5l133 184q83 -77 199 -128.5t227 -51.5q42 0 79.5 10t66 37.5t28.5 67.5q0 28 -14.5 48.5t-42 33t-53.5 19.5t-64 13q-169 31 -237 58q-156 62 -173 201q-2 18 -2 38q0 156 115.5 246t304.5 90q133 0 268.5 -41.5t241.5 -113.5zM283 -125l225 41
q17 -22 26.5 -36t21 -46t11.5 -67q0 -124 -104 -205.5t-275 -81.5q-59 0 -106 16l33 156q27 -6 82 -6q60 0 93.5 31.5t33.5 91.5q0 47 -41 106z" />
    <glyph glyph-name="uni021A" unicode="&#x21a;" horiz-adv-x="1353" 
d="M145 1083l56 254h1259l-53 -254h-481l-232 -1083h-295l230 1083h-484zM469 -137l223 53q43 -62 43 -141q0 -130 -109.5 -212.5t-281.5 -82.5q-84 0 -182 28l55 154q96 -14 115 -14q76 0 119 33t43 96q0 46 -25 86z" />
    <glyph glyph-name="uni021B" unicode="&#x21b;" horiz-adv-x="819" 
d="M90 797l43 202h174l60 283h272l-61 -283h247l-43 -202h-247l-107 -508q-4 -24 -4 -35q0 -64 92 -64q58 0 131 15l-24 -205q-31 -20 -100.5 -29.5t-123.5 -9.5q-110 0 -184 52.5t-74 168.5q0 36 9 76l114 539h-174zM207 -125l225 41q18 -23 27 -36t21 -45.5t12 -67.5
q0 -124 -104 -205.5t-275 -81.5q-60 0 -107 16l33 156q27 -6 82 -6q60 0 93.5 31.5t33.5 91.5q0 47 -41 106z" />
    <glyph glyph-name="dotlessj" unicode="&#x237;" horiz-adv-x="591" 
d="M-174 -467l-35 205q41 8 72 18.5t65 30t57 52t33 77.5l232 1083h272l-233 -1095q-17 -79 -55 -143.5t-85 -106t-104.5 -69.5t-111.5 -40t-107 -12z" />
    <glyph glyph-name="schwa" unicode="&#x259;" horiz-adv-x="1210" 
d="M266 731l-108 180q248 121 463 121q152 0 264 -66t166.5 -172.5t54.5 -236.5q0 -160 -76 -295t-209 -214t-291 -79q-92 0 -174 26.5t-148.5 78t-105.5 137t-39 195.5q0 44 17 161h760q-8 106 -72 175t-176 69q-78 0 -166 -22.5t-160 -57.5zM535 176q99 0 172 58t108 153
h-485q-4 -98 56.5 -154.5t148.5 -56.5z" />
    <glyph glyph-name="circumflex" unicode="&#x2c6;" 
d="M276 1133l279 288h270l156 -288h-207l-100 155l-170 -155h-228z" />
    <glyph glyph-name="caron" unicode="&#x2c7;" 
d="M1044 1421l-278 -288h-270l-156 288h207l100 -157l170 157h227z" />
    <glyph glyph-name="breve" unicode="&#x2d8;" 
d="M360 1419h189q-29 -143 108 -143q139 0 168 143h193q-11 -55 -36 -105t-69 -97.5t-118.5 -76t-169.5 -28.5q-65 0 -114.5 13.5t-80 37t-49.5 53t-25 65t-5 69t9 69.5z" />
    <glyph glyph-name="dotaccent" unicode="&#x2d9;" 
d="M512 1268q0 60 47.5 104.5t114.5 44.5q59 0 99 -38t40 -91q0 -60 -49 -101.5t-117 -41.5q-59 0 -97 35t-38 88z" />
    <glyph glyph-name="ring" unicode="&#x2da;" 
d="M543 1323q0 -41 30 -66.5t78 -25.5q56 0 93.5 30.5t37.5 79.5q0 45 -29.5 75t-78.5 30q-54 0 -92.5 -36t-38.5 -87zM383 1313q0 101 81.5 174.5t221.5 73.5q122 0 189 -60.5t67 -148.5q0 -100 -82 -170t-221 -70q-123 0 -189.5 57t-66.5 144z" />
    <glyph glyph-name="ogonek" unicode="&#x2db;" 
d="M414 70l108 -70q-33 -13 -46.5 -19t-51.5 -24t-59 -33.5t-47 -37.5t-38 -47t-12 -52q0 -37 28 -56.5t79 -19.5q29 0 125 17l-13 -164q-113 -29 -196 -29q-118 0 -186 49.5t-68 130.5q0 55 29.5 107.5t71 89.5t98 71.5t96.5 52.5t82 34z" />
    <glyph glyph-name="tilde" unicode="&#x2dc;" 
d="M395 1122l-145 88q86 108 157.5 154.5t145.5 46.5q75 0 137 -51q5 -4 23.5 -18t25.5 -18t21 -9.5t26 -5.5q24 0 51.5 17t41.5 31t45 46l133 -82q-154 -205 -303 -205q-73 0 -131 47q-6 5 -20 16.5t-20.5 16t-17.5 11.5t-20.5 9.5t-20.5 2.5q-14 0 -27.5 -5t-28 -17.5
t-23.5 -21t-26.5 -27.5t-23.5 -26z" />
    <glyph glyph-name="hungarumlaut" unicode="&#x2dd;" 
d="M821 1421h230l-177 -293h-169zM446 1421h230l-176 -293h-170z" />
    <glyph glyph-name="pi" unicode="&#x3c0;" horiz-adv-x="1423" 
d="M463 0h-270l167 776h-239l43 213h1268l-46 -213h-190l-127 -610q-17 -77 -20 -166h-273q3 80 21 166l127 610h-293z" />
    <glyph glyph-name="Wgrave" unicode="&#x1e80;" horiz-adv-x="2048" 
d="M221 1337h309l72 -878h12l461 878h213l88 -878h13l442 878h317l-712 -1337h-279l-82 795h-12l-420 -795h-278zM1192 1769l205 -282h-246l-252 282h293z" />
    <glyph glyph-name="wgrave" unicode="&#x1e81;" horiz-adv-x="1632" 
d="M780 999h248l47 -639h12l291 639h289l-534 -999h-261l-43 612h-12l-307 -612h-258l-105 999h275l33 -639h12zM635 1430h276l185 -300h-240z" />
    <glyph glyph-name="Wacute" unicode="&#x1e82;" horiz-adv-x="2048" 
d="M221 1337h309l72 -878h12l461 878h213l88 -878h13l442 878h317l-712 -1337h-279l-82 795h-12l-420 -795h-278zM1038 1487l205 282h293l-254 -282h-244z" />
    <glyph glyph-name="wacute" unicode="&#x1e83;" horiz-adv-x="1632" 
d="M780 999h248l47 -639h12l291 639h289l-534 -999h-261l-43 612h-12l-307 -612h-258l-105 999h275l33 -639h12zM952 1430h275l-221 -300h-238z" />
    <glyph glyph-name="Wdieresis" unicode="&#x1e84;" horiz-adv-x="2048" 
d="M221 1337h309l72 -878h12l461 878h213l88 -878h13l442 878h317l-712 -1337h-279l-82 795h-12l-420 -795h-278zM868 1622q0 60 48.5 105t115.5 45q59 0 99 -38.5t40 -91.5q0 -60 -48.5 -101.5t-116.5 -41.5q-60 0 -99 35t-39 88zM1329 1622q0 61 48 105.5t116 44.5
q58 0 97.5 -38.5t39.5 -91.5q0 -60 -49 -101.5t-117 -41.5q-59 0 -97 35t-38 88z" />
    <glyph glyph-name="wdieresis" unicode="&#x1e85;" horiz-adv-x="1632" 
d="M780 999h248l47 -639h12l291 639h289l-534 -999h-261l-43 612h-12l-307 -612h-258l-105 999h275l33 -639h12zM584 1268q0 60 48.5 104.5t115.5 44.5q59 0 98 -38t39 -91q0 -60 -49 -101.5t-117 -41.5q-59 0 -97 35t-38 88zM1044 1268q0 60 47.5 104.5t114.5 44.5
q59 0 99.5 -38t40.5 -91q0 -60 -49 -101.5t-117 -41.5q-60 0 -98 35t-38 88z" />
    <glyph glyph-name="Ygrave" unicode="&#x1ef2;" horiz-adv-x="1357" 
d="M1155 1337h369l-690 -731l-129 -606h-295l129 614l-375 723h342l225 -465zM850 1769l205 -282h-246l-252 282h293z" />
    <glyph glyph-name="ygrave" unicode="&#x1ef3;" horiz-adv-x="1124" 
d="M518 403h12l390 596h299l-975 -1423h-299l379 533l-213 890h288zM393 1430h277l184 -300h-240z" />
    <glyph glyph-name="endash" unicode="&#x2013;" horiz-adv-x="1286" 
d="M98 426l47 233h1031l-48 -233h-1030z" />
    <glyph glyph-name="emdash" unicode="&#x2014;" horiz-adv-x="2217" 
d="M98 426l47 233h1962l-47 -233h-1962z" />
    <glyph glyph-name="quoteleft" unicode="&#x2018;" horiz-adv-x="620" 
d="M600 1399l49 -144q-86 -21 -173.5 -78t-94.5 -122v-17q44 11 59 11q60 0 101 -38.5t41 -95.5q0 -71 -60.5 -121.5t-142.5 -50.5q-84 0 -141.5 59.5t-57.5 151.5q0 75 27.5 140.5t69.5 112t100.5 86t111.5 63.5t111 43z" />
    <glyph glyph-name="quoteright" unicode="&#x2019;" horiz-adv-x="614" 
d="M221 723l-47 141q85 21 172 79t94 122q2 8 2 16q-40 -10 -59 -10q-61 0 -101 39t-40 96q0 71 60 121.5t142 50.5q84 0 141.5 -60t57.5 -153q0 -75 -28 -140.5t-70 -111.5t-101 -85t-112 -63t-111 -42z" />
    <glyph glyph-name="quotesinglbase" unicode="&#x201a;" horiz-adv-x="634" 
d="M10 -350l-47 141q85 21 172 79t94 122q2 8 2 16q-40 -10 -59 -10q-61 0 -101 39t-40 96q0 71 60 121.5t142 50.5q84 0 141.5 -60t57.5 -153q0 -75 -28 -140.5t-70 -111.5t-101 -85t-112 -63t-111 -42z" />
    <glyph glyph-name="quotedblleft" unicode="&#x201c;" horiz-adv-x="1185" 
d="M600 1399l49 -144q-86 -21 -173.5 -78t-94.5 -122v-17q44 11 59 11q60 0 101 -38.5t41 -95.5q0 -71 -60.5 -121.5t-142.5 -50.5q-84 0 -141.5 59.5t-57.5 151.5q0 75 27.5 140.5t69.5 112t100.5 86t111.5 63.5t111 43zM1165 1399l49 -144q-86 -21 -173.5 -78t-94.5 -122
v-17q44 11 60 11q60 0 100.5 -38.5t40.5 -95.5q0 -71 -60.5 -121.5t-142.5 -50.5q-84 0 -141.5 59.5t-57.5 151.5q0 75 27.5 140.5t69.5 112t100.5 86t111.5 63.5t111 43z" />
    <glyph glyph-name="quotedblright" unicode="&#x201d;" horiz-adv-x="1179" 
d="M221 723l-47 141q85 21 172 79t94 122q2 8 2 16q-40 -10 -59 -10q-61 0 -101 39t-40 96q0 71 60 121.5t142 50.5q84 0 141.5 -60t57.5 -153q0 -75 -28 -140.5t-70 -111.5t-101 -85t-112 -63t-111 -42zM788 723l-49 141q85 21 173.5 79t95.5 122v16q-40 -10 -58 -10
q-61 0 -102 39t-41 96q0 71 60.5 121.5t142.5 50.5q84 0 141 -60t57 -153q0 -75 -27.5 -140.5t-69.5 -111.5t-100.5 -85t-111.5 -63t-111 -42z" />
    <glyph glyph-name="quotedblbase" unicode="&#x201e;" horiz-adv-x="1200" 
d="M10 -350l-47 141q85 21 172 79t94 122q2 8 2 16q-40 -10 -59 -10q-61 0 -101 39t-40 96q0 71 60 121.5t142 50.5q84 0 141.5 -60t57.5 -153q0 -75 -28 -140.5t-70 -111.5t-101 -85t-112 -63t-111 -42zM578 -350l-50 141q85 21 173.5 79t95.5 122v16q-40 -10 -58 -10
q-61 0 -102 39t-41 96q0 71 60.5 121.5t142.5 50.5q84 0 141 -60t57 -153q0 -75 -27.5 -140.5t-69.5 -111.5t-100 -85t-111 -63t-111 -42z" />
    <glyph glyph-name="dagger" unicode="&#x2020;" horiz-adv-x="1040" 
d="M586 1434h231l-69 -330h307l-41 -193h-307l-158 -749h-232l158 749h-307l41 193h307z" />
    <glyph glyph-name="daggerdbl" unicode="&#x2021;" horiz-adv-x="1064" 
d="M631 502l-72 -340h-231l71 340h-305l41 194h305l45 215h-305l41 193h307l70 330h231l-69 -330h307l-41 -193h-309l-45 -215h309l-41 -194h-309z" />
    <glyph glyph-name="bullet" unicode="&#x2022;" horiz-adv-x="929" 
d="M465 266q-146 0 -249 97t-103 235q0 139 103 236.5t249 97.5q145 0 248.5 -97.5t103.5 -236.5q0 -138 -103.5 -235t-248.5 -97z" />
    <glyph glyph-name="ellipsis" unicode="&#x2026;" horiz-adv-x="2048" 
d="M86 129q0 75 60.5 130.5t144.5 55.5q76 0 127 -47.5t51 -115.5q0 -75 -61 -129t-146 -54q-76 0 -126 46t-50 114zM752 129q0 76 60 131t144 55q76 0 127.5 -47.5t51.5 -115.5q0 -75 -61 -129t-146 -54q-76 0 -126 46t-50 114zM1417 129q0 75 60.5 130.5t144.5 55.5
q76 0 127 -47.5t51 -115.5q0 -75 -61 -129t-146 -54q-76 0 -126 46t-50 114z" />
    <glyph glyph-name="perthousand" unicode="&#x2030;" horiz-adv-x="3123" 
d="M1661 1239l-852 -1239h-236l854 1239h234zM1235 311q0 155 132.5 269t313.5 114q163 0 275 -99.5t112 -240.5q0 -102 -62.5 -191.5t-167 -141.5t-222.5 -52q-162 0 -271.5 99.5t-109.5 242.5zM1481 319q0 -61 43 -104t108 -43q77 0 136 52t59 122q0 61 -47 104.5
t-113 43.5q-75 0 -130.5 -51.5t-55.5 -123.5zM2146 311q0 76 36.5 147t97 122.5t143 82.5t170.5 31q163 0 276 -100t113 -240q0 -102 -63 -191.5t-168 -141.5t-222 -52q-163 0 -273 99.5t-110 242.5zM2392 319q0 -61 43 -104t107 -43q77 0 135.5 52t58.5 122q0 62 -46 105
t-112 43q-74 0 -130 -52t-56 -123zM168 885q0 102 60.5 191t163.5 141.5t222 52.5q163 0 275 -99.5t112 -240.5q0 -102 -62.5 -191.5t-167 -141.5t-222.5 -52q-162 0 -271.5 99t-109.5 241zM414 893q0 -61 42.5 -104.5t106.5 -43.5q78 0 136.5 52.5t58.5 122.5
q0 62 -46 105.5t-112 43.5q-76 0 -131 -51.5t-55 -124.5z" />
    <glyph glyph-name="guilsinglleft" unicode="&#x2039;" horiz-adv-x="708" 
d="M342 831h295l-313 -315l-5 -16l197 -299h-280l-166 256l22 116z" />
    <glyph glyph-name="guilsinglright" unicode="&#x203a;" horiz-adv-x="710" 
d="M344 201h-293l314 315l2 16l-197 299h283l163 -256l-20 -116z" />
    <glyph glyph-name="fraction" unicode="&#x2044;" horiz-adv-x="442" 
d="M578 1337h233l-899 -1337h-238z" />
    <glyph glyph-name="zero.superior" unicode="&#x2070;" horiz-adv-x="1187" 
d="M139 860q0 103 47 197.5t124.5 162t181 108t213.5 40.5q205 0 345 -127.5t140 -312.5q0 -136 -80 -254t-211 -186t-278 -68q-205 0 -343.5 128t-138.5 312zM381 872q0 -104 72 -177.5t182 -73.5q123 0 217 89.5t94 207.5q0 102 -74.5 174.5t-183.5 72.5
q-122 0 -214.5 -87t-92.5 -206z" />
    <glyph glyph-name="four.superior" unicode="&#x2074;" horiz-adv-x="1165" 
d="M1155 807l-39 -178h-168l-37 -178h-241l37 178h-652l29 137l797 571h217l-113 -530h170zM442 811v-4h303l52 242h-17z" />
    <glyph glyph-name="five.superior" unicode="&#x2075;" horiz-adv-x="1077" 
d="M1069 1337l-57 -192h-537l-35 -160q127 62 244 62q48 0 97 -8.5t100 -29t89.5 -51t63.5 -80t25 -110.5q0 -70 -26.5 -129t-71.5 -99t-106.5 -68t-130 -41t-142.5 -13q-160 0 -283.5 39t-232.5 118l120 170q163 -135 404 -135q36 0 71.5 7t69.5 21.5t55 42t21 64.5
q0 43 -36.5 71.5t-78.5 38t-84 9.5q-114 0 -282 -63l-119 110l92 426h770z" />
    <glyph glyph-name="six.superior" unicode="&#x2076;" horiz-adv-x="1103" 
d="M1120 1251l-141 -155q-135 78 -283 78q-109 2 -201.5 -62.5t-119.5 -173.5q169 96 334 96q64 0 127.5 -18t118 -51t88.5 -88.5t34 -122.5q0 -104 -66.5 -182t-166 -115t-213.5 -37q-89 0 -175.5 28t-158.5 79t-116 133.5t-44 181.5q0 147 76 268t205.5 189.5t283.5 68.5
q224 0 418 -117zM633 858q-120 0 -260 -57q22 -89 94.5 -141t175.5 -48q41 1 82.5 12.5t76 42t34.5 74.5q0 33 -19.5 57t-51.5 36.5t-65 18t-67 5.5z" />
    <glyph glyph-name="seven.superior" unicode="&#x2077;" horiz-adv-x="993" 
d="M174 1135l43 202h881l-39 -186l-641 -700h-312l656 684h-588z" />
    <glyph glyph-name="eight.superior" unicode="&#x2078;" horiz-adv-x="1110" 
d="M104 727q0 91 64.5 157.5t177.5 92.5q-113 46 -113 143q0 54 27.5 98.5t70.5 72t98.5 46t108 26t103.5 7.5q54 0 111.5 -8t120.5 -28.5t112 -51t81 -80t32 -110.5q0 -69 -47.5 -117t-135.5 -68q67 -29 110.5 -84.5t43.5 -122.5q0 -73 -44.5 -130t-115 -89.5t-146 -48.5
t-149.5 -16q-60 0 -125.5 10t-135 34t-124.5 58.5t-90 88.5t-35 120zM367 748q-6 -35 20 -63.5t68.5 -43.5t86 -23t79.5 -8q28 0 58.5 5t62 16t51.5 32.5t20 51.5q0 35 -26.5 62t-67.5 40.5t-80.5 20t-75.5 6.5q-26 0 -54 -4t-60.5 -13t-55 -29.5t-26.5 -49.5zM487 1108
q0 -29 23.5 -50t60.5 -30.5t68 -13.5t59 -4q22 0 43 2.5t44.5 10t38 23.5t14.5 39q0 28 -19.5 50t-49.5 34t-62 18.5t-62 6.5q-23 0 -47.5 -4t-50.5 -13t-43 -27t-17 -42z" />
    <glyph glyph-name="nine.superior" unicode="&#x2079;" horiz-adv-x="1105" 
d="M123 537l141 155q129 -80 283 -80q108 0 200 64t119 170q-170 -94 -331 -94q-88 0 -170.5 30t-141.5 96.5t-59 155.5q0 104 67 182t167 115t214 37q88 0 174.5 -28t158.5 -79.5t116.5 -134.5t44.5 -182q0 -147 -76 -267.5t-206 -188.5t-285 -68q-227 0 -416 117zM610 930
q121 0 256 55q-20 89 -92.5 141t-175.5 50q-30 -2 -61 -9.5t-61.5 -22t-50 -40.5t-19.5 -60q0 -43 35.5 -70t78 -35.5t90.5 -8.5z" />
    <glyph glyph-name="parenleft.superior" unicode="&#x207d;" horiz-adv-x="630" 
d="M551 330l-135 -119q-144 98 -225.5 240.5t-81.5 296.5q0 227 152.5 415.5t412.5 294.5l80 -149q-172 -74 -289 -225.5t-117 -329.5q0 -120 56.5 -234t146.5 -190z" />
    <glyph glyph-name="parenright.superior" unicode="&#x207e;" horiz-adv-x="628" 
d="M193 1339l135 119q145 -98 226 -240.5t81 -297.5q0 -226 -153 -415t-414 -294l-80 149q172 74 288.5 225.5t116.5 329.5q0 121 -55 235t-145 189z" />
    <glyph glyph-name="n.superior" unicode="&#x207f;" horiz-adv-x="972" 
d="M328 451h-222l113 536q20 93 23 191h200q2 -28 -2 -91q64 54 121.5 84.5t124.5 30.5q101 0 173.5 -65.5t72.5 -167.5q0 -36 -17 -119l-84 -399h-223l86 401q17 60 17 90q-1 38 -31.5 59t-71.5 21q-78 0 -178 -92z" />
    <glyph glyph-name="zero.inferior" unicode="&#x2080;" horiz-adv-x="1187" 
d="M-31 66q0 137 79.5 254.5t210.5 185t278 67.5q134 0 245 -58.5t174.5 -159.5t63.5 -222q0 -136 -79.5 -254t-210.5 -186t-279 -68q-204 0 -343 128.5t-139 312.5zM211 78q0 -103 73 -177.5t181 -74.5q123 0 218 89.5t95 207.5q0 103 -74.5 175.5t-185.5 72.5
q-121 0 -214 -87t-93 -206z" />
    <glyph glyph-name="one.inferior" unicode="&#x2081;" horiz-adv-x="667" 
d="M-18 233l-2 195l294 115h222l-181 -887h-243l137 663z" />
    <glyph glyph-name="two.inferior" unicode="&#x2082;" horiz-adv-x="987" 
d="M150 274l-95 168q81 43 131.5 66t131 45t157.5 22q45 0 92.5 -7t100.5 -26t93.5 -47.5t67.5 -76t27 -107.5q0 -47 -17.5 -87t-38 -68t-65 -54.5t-70.5 -40t-85 -31t-77 -21.5t-76 -17l-6 -1.5t-5 -1t-6 -1.5q-124 -28 -170.5 -50t-63.5 -75l-6 -21h565l-37 -186h-807
l41 199q52 258 478 329q42 7 63 12t60.5 18t59 33.5t19.5 47.5q0 26 -15.5 44.5t-40 26.5t-46.5 11.5t-43 3.5q-128 0 -317 -107z" />
    <glyph glyph-name="three.inferior" unicode="&#x2083;" horiz-adv-x="1095" 
d="M178 268l-106 158q259 147 460 147q91 0 173.5 -27.5t139 -86.5t56.5 -137q0 -65 -35.5 -114t-97.5 -73q121 -69 121 -205q0 -97 -68.5 -168t-173.5 -104t-231 -33q-333 0 -533 254l166 137q73 -96 171.5 -147t209.5 -51q95 0 158 31.5t63 89.5q0 49 -39.5 70.5
t-83.5 21.5h-190l39 176h176q46 0 73 24.5t27 59.5q0 47 -42.5 68.5t-96.5 21.5q-140 0 -336 -113z" />
    <glyph glyph-name="four.inferior" unicode="&#x2084;" horiz-adv-x="1163" 
d="M987 12l-39 -178h-168l-37 -178h-241l37 178h-652l29 137l797 572h217l-113 -531h170zM274 16v-4h304l51 242h-17z" />
    <glyph glyph-name="five.inferior" unicode="&#x2085;" horiz-adv-x="1079" 
d="M901 543l-57 -193h-539l-33 -160q124 62 244 62q61 0 122 -14.5t119.5 -44.5t95 -87t36.5 -133q0 -88 -40 -156.5t-107.5 -110t-151 -62.5t-176.5 -21q-160 0 -283 39t-235 119l120 170q163 -135 406 -135q35 0 70 7t69 21.5t55 42t21 64.5q0 43 -36 71.5t-78 38t-85 9.5
q-109 0 -280 -64l-119 111l90 426h772z" />
    <glyph glyph-name="six.inferior" unicode="&#x2086;" horiz-adv-x="1103" 
d="M952 457l-141 -156q-135 78 -283 78q-109 2 -201.5 -62.5t-119.5 -173.5q171 97 334 97q88 0 169.5 -30t140 -96t58.5 -155q0 -104 -66.5 -182t-166 -115t-213.5 -37q-89 0 -175.5 28t-158.5 79t-116 133.5t-44 181.5q0 147 76.5 268t206 189.5t283.5 68.5
q224 0 417 -116zM465 63q-120 0 -260 -57q22 -89 94.5 -140t175.5 -48q41 1 82.5 12.5t76 42t34.5 74.5q0 33 -19.5 57t-51.5 36t-65 17.5t-67 5.5z" />
    <glyph glyph-name="seven.inferior" unicode="&#x2087;" horiz-adv-x="987" 
d="M6 340l43 203h881l-39 -187l-641 -700h-311l655 684h-588z" />
    <glyph glyph-name="eight.inferior" unicode="&#x2088;" horiz-adv-x="1110" 
d="M-63 -68q0 91 64 157.5t177 92.5q-112 46 -112 144q0 67 40.5 118t105 78t131 40t130.5 13q54 0 111.5 -8t120.5 -28.5t112 -51t81 -80t32 -110.5q0 -69 -47 -116.5t-135 -67.5q67 -29 110 -84.5t43 -122.5q0 -73 -44.5 -130.5t-115 -89.5t-146.5 -48.5t-149 -16.5
q-60 0 -125.5 10t-135 34t-124 58.5t-89.5 88.5t-35 120zM199 -47q-6 -35 20 -63t68.5 -43.5t86 -23t79.5 -7.5q40 0 80 7.5t76 32.5t36 64q0 35 -26.5 62t-67.5 40.5t-80.5 20t-75.5 6.5q-26 0 -54 -4t-60.5 -13t-55 -29.5t-26.5 -49.5zM319 313q0 -29 24 -50t61 -30.5
t68 -13.5t58 -4q23 0 44 3t44.5 10t37.5 23.5t14 39.5q0 36 -34 62t-76 36t-83 10q-23 0 -47.5 -4t-50.5 -13t-43 -27t-17 -42z" />
    <glyph glyph-name="nine.inferior" unicode="&#x2089;" horiz-adv-x="1103" 
d="M-49 -258l143 156q126 -80 281 -80q109 0 201.5 64.5t119.5 170.5q-173 -96 -334 -96q-87 0 -169 30.5t-140.5 97t-58.5 155.5q0 104 66.5 181.5t166 114.5t213.5 37q89 0 176 -28t159 -79.5t116.5 -134t44.5 -181.5q0 -110 -45 -208t-121 -167t-180.5 -109.5
t-220.5 -40.5q-229 0 -418 117zM438 135q123 0 258 55q-20 89 -92.5 141t-175.5 50q-30 -2 -60.5 -9t-61.5 -21.5t-50.5 -40.5t-19.5 -60q0 -33 19.5 -56.5t51.5 -35.5t64.5 -17.5t66.5 -5.5z" />
    <glyph glyph-name="colonmonetary" unicode="&#x20a1;" horiz-adv-x="1554" 
d="M1495 928l-215 -133q-50 44 -127 92l-213 -678q151 38 291 137l153 -176q-244 -181 -520 -205l-71 -229h-144l72 227q-85 6 -162 27l-80 -254h-141l94 301q-152 72 -239 200t-87 293q0 121 53.5 238t145 207.5t221 151t273.5 71.5l55 172h141l-55 -174q74 -5 160 -29
l65 203h142l-80 -250q152 -67 268 -192zM631 219q79 -29 162 -29l237 752q-83 26 -162 29zM397 541q0 -149 115 -252l209 659q-141 -43 -232.5 -157.5t-91.5 -249.5z" />
    <glyph glyph-name="franc" unicode="&#x20a3;" horiz-adv-x="1445" 
d="M25 195l32 159h205l168 809h1043l-48 -225h-755l-39 -188h467l-45 -224h-467l-37 -172h340l-31 -159h-342l-41 -195h-285l39 195h-204z" />
    <glyph glyph-name="lira" unicode="&#x20a4;" horiz-adv-x="1464" 
d="M145 647l29 150h258l10 55q15 87 66.5 156t123 110t152 62.5t162.5 21.5q107 0 236.5 -36.5t240.5 -96.5l-159 -197q-80 43 -174 71t-162 28q-71 0 -131.5 -40.5t-73.5 -113.5l-4 -20h448l-28 -150h-445l-22 -125h442l-31 -147h-440q-22 -67 -69 -103t-134 -51h842
l-43 -221h-1223l43 221h86q97 0 143.5 32.5t69.5 121.5h-268l31 147h264l23 125h-263z" />
    <glyph glyph-name="peseta" unicode="&#x20a7;" horiz-adv-x="3239" 
d="M365 0h-289l243 1163h658q231 0 346 -121q26 -30 35 -43h233l60 283h272l-61 -283h247l-43 -202h-247l-107 -508q-4 -24 -4 -35q0 -64 92 -64q58 0 131 15l-24 -205q-31 -20 -100.5 -29.5t-123.5 -9.5q-110 0 -184 52.5t-74 168.5q0 36 9 76l114 539h-129
q-6 -133 -116 -240q-144 -141 -406 -141h-444zM3140 881l-131 -183q-78 53 -183.5 90t-193.5 37q-56 0 -98.5 -21t-45.5 -69q-1 -25 11 -43t39 -29.5t51 -17.5t63 -12q49 -8 78.5 -14t80 -19t82.5 -27.5t70.5 -39.5t61 -54.5t38 -72t15.5 -93.5q0 -163 -130 -255.5
t-335 -92.5q-152 0 -294 52.5t-255 152.5l131 184q85 -77 200 -128.5t226 -51.5q69 0 123 28t54 87q0 28 -15 48.5t-43.5 33t-54.5 19.5t-64 13q-170 31 -238 58q-154 63 -169 204q-2 17 -2 35q0 156 115.5 246t304.5 90q133 0 267.5 -41.5t240.5 -113.5zM561 928l-59 -277
h416q116 0 172 51q40 40 40 97q0 49 -34 88q-41 41 -148 41h-387z" />
    <glyph glyph-name="Euro" unicode="&#x20ac;" horiz-adv-x="1638" 
d="M1552 954l-209 -135q-71 63 -171 103.5t-205 40.5q-98 0 -186 -45t-148 -121h522l-29 -150h-569q-14 -49 -14 -106v-19h559l-31 -147h-487q46 -81 129 -128.5t192 -47.5q201 0 402 123l147 -181q-113 -79 -257.5 -128.5t-301.5 -49.5q-229 0 -401.5 112t-227.5 300h-188
l31 147h137v8q0 58 12 117h-125l29 150h147q88 176 266.5 289.5t393.5 113.5q168 0 323.5 -64.5t259.5 -181.5z" />
    <glyph glyph-name="peso" unicode="&#x20b1;" horiz-adv-x="1675" 
d="M104 653l33 148h195l76 362h653q111 0 187.5 -28.5t133.5 -87.5q100 -103 109 -246h160l-31 -148h-143q-36 -129 -146 -233q-74 -73 -166.5 -108.5t-220.5 -35.5h-434l-59 -276h-285l135 653h-197zM1133 571q38 35 57 82h-602l-29 -149h375q129 0 199 67zM643 938
l-27 -137h586q-11 50 -53 92q-25 25 -59.5 35t-96.5 10h-350z" />
    <glyph glyph-name="Rupee" unicode="&#x20b9;" horiz-adv-x="1632" 
d="M231 653l33 148h805q-12 53 -51 92q-26 25 -60.5 35t-95.5 10h-569l47 225h1288l-31 -149h-350q102 -82 111 -213h194l-32 -148h-177q-30 -123 -143 -233q-75 -61 -165.5 -89t-221.5 -28l-188 8l479 -311h-436l-498 354l31 150h600q127 0 200 67q42 42 56 82h-826z" />
    <glyph glyph-name="litre" unicode="&#x2113;" horiz-adv-x="1171" 
d="M72 193l-19 188l232 111l84 393q89 420 446 420q157 0 242.5 -77.5t85.5 -201.5q0 -329 -606 -610l-27 -131q-20 -97 96 -97q93 0 273 74l-2 -203q-118 -52 -195 -71t-152 -19q-66 0 -119 12t-100 40.5t-68 84.5t-10 136l5 28zM639 885l-51 -232q141 72 213.5 158.5
t72.5 175.5q0 51 -22.5 80t-65.5 29q-46 0 -83.5 -43.5t-63.5 -167.5z" />
    <glyph glyph-name="soundrecordingcopyright" unicode="&#x2117;" horiz-adv-x="2150" 
d="M1073 -346q-195 0 -372.5 70.5t-306 190t-205 286t-76.5 350.5t76.5 350.5t205 286t306 190t372.5 70.5q193 0 370 -70.5t305.5 -190t205 -286t76.5 -350.5t-76.5 -350.5t-205 -286t-305.5 -190t-370 -70.5zM1071 -162q154 0 293.5 56.5t240.5 152t160.5 228t59.5 278.5
q0 143 -59.5 274t-160 227t-240.5 153t-294 57q-202 0 -376 -96.5t-276 -260.5t-102 -354q0 -145 60.5 -277.5t161.5 -228.5t240.5 -152.5t291.5 -56.5zM1227 375h-266v-232h-263v852h478q55 0 106.5 -7t108.5 -27t99 -52.5t69.5 -89t27.5 -129.5q0 -79 -31.5 -141
t-83.5 -99t-114.5 -56t-130.5 -19zM961 793v-215h243q49 0 85 25.5t36 84.5q0 52 -36.5 78.5t-84.5 26.5h-243z" />
    <glyph glyph-name="servicemark" unicode="&#x2120;" horiz-adv-x="1779" 
d="M856 1268l-108 -115q-35 31 -100.5 49.5t-127.5 18.5q-98 0 -98 -56q0 -28 30 -41t99 -28q44 -10 75.5 -18.5t70.5 -25.5t63 -37t40.5 -51.5t16.5 -70.5q0 -118 -83.5 -185t-223.5 -67q-98 0 -190.5 35.5t-163.5 107.5l98 109q49 -51 121 -80t147 -29q23 0 46 4t46 20.5
t23 43.5q0 56 -131 80q-49 11 -74 17.5t-67 23.5t-63.5 36t-38.5 51.5t-17 74.5q0 106 79.5 167.5t211.5 61.5q174 0 319 -96zM1657 668h-176l73 354h-4l-239 -299h-19l-114 299h-4l-76 -354h-168l145 669h160l119 -333h2l266 333h176z" />
    <glyph glyph-name="trademark" unicode="&#x2122;" horiz-adv-x="1751" 
d="M1612 668h-178l73 354h-4l-237 -299h-19l-114 299h-5l-75 -354h-168l143 669h160l121 -333h2l264 333h178zM233 1194l29 143h617l-29 -143h-221l-113 -526h-176l113 526h-220z" />
    <glyph glyph-name="Omega" unicode="&#x2126;" horiz-adv-x="1812" 
d="M86 0l47 233h289q-130 66 -206.5 185t-76.5 256q0 142 68.5 272t183.5 224.5t272.5 151t327.5 56.5q153 0 287.5 -47.5t229.5 -129t149.5 -193.5t54.5 -238q0 -167 -106 -312.5t-279 -224.5h303l-47 -233h-631l43 215q181 44 295.5 192t114.5 330q0 164 -124 275.5
t-312 111.5q-105 0 -200.5 -36.5t-166 -99t-112 -151t-41.5 -186.5q0 -154 87 -274t224 -162l-43 -215h-631z" />
    <glyph glyph-name="estimated" unicode="&#x212e;" horiz-adv-x="1693" 
d="M487 897v-168q0 -4 5 -8t8 -4h723q16 0 16 12v168q0 19 -12 43q-57 87 -150 133.5t-211 46.5q-101 0 -209.5 -52t-154.5 -128q-15 -24 -15 -43zM1542 319q-129 -180 -304 -268t-372 -88q-137 0 -269 48t-235 131.5t-165.5 205.5t-61.5 260q0 114 41 216.5t112 178.5
t164 132.5t199 85t215 28.5q145 0 276.5 -46.5t232 -131t159.5 -212t59 -279.5h-1093q-3 0 -8 -5.5t-5 -11.5v-225q0 -38 15 -57q158 -189 364 -189q240 0 416 227h260z" />
    <glyph glyph-name="onethird" unicode="&#x2153;" horiz-adv-x="2203" 
d="M152 1028l-2 195l294 114h222l-181 -886h-243l137 663zM1245 1337h234l-899 -1337h-238zM1360 612l-105 158q261 148 461 148q91 0 173 -28t138 -87t56 -137q0 -65 -35.5 -114t-97.5 -73q123 -68 123 -205q0 -97 -68.5 -168t-174 -104t-231.5 -33q-335 0 -532 254
l164 137q75 -96 173.5 -147t209.5 -51q94 0 157.5 32t63.5 89q0 49 -40 70.5t-85 21.5h-188l37 176h178q45 0 71.5 24.5t26.5 59.5q0 47 -42 68.5t-95 21.5q-71 0 -161.5 -32t-176.5 -81z" />
    <glyph glyph-name="twothirds" unicode="&#x2154;" horiz-adv-x="2523" 
d="M319 1069l-94 168q82 43 131 66t130.5 45t158.5 22q45 0 92.5 -7t100.5 -26t93.5 -47.5t67.5 -76t27 -107.5q0 -54 -20 -99.5t-57 -77t-78 -55t-94 -40.5t-94 -28t-88 -21l-15 -3q-53 -12 -80.5 -19t-59 -17.5t-46.5 -21.5t-28 -27.5t-20 -39.5l-6 -20h565l-39 -186h-807
l41 198q55 260 478 330q121 21 164 49q40 25 40 62q0 26 -15.5 44.5t-40 26.5t-46.5 11.5t-43 3.5q-129 0 -318 -107zM1565 1337h233l-899 -1337h-237zM1679 612l-104 158q261 148 461 148q91 0 173 -28t137.5 -87t55.5 -137q0 -65 -35.5 -114t-97.5 -73q123 -68 123 -205
q0 -97 -68.5 -168t-173.5 -104t-231 -33q-336 0 -533 254l164 137q75 -96 173.5 -147t209.5 -51q94 0 157.5 32t63.5 89q0 49 -39.5 70.5t-84.5 21.5h-189l37 176h178q45 0 71.5 24.5t26.5 59.5q0 47 -42 68.5t-95 21.5q-71 0 -161.5 -32t-176.5 -81z" />
    <glyph glyph-name="oneeighth" unicode="&#x215b;" horiz-adv-x="2220" 
d="M152 1028l-2 195l294 114h222l-181 -886h-243l137 663zM1245 1337h234l-899 -1337h-238zM1118 276q0 90 65.5 157t178.5 93q-115 46 -115 144q0 67 41 118.5t105.5 78.5t131 40t130.5 13q54 0 112.5 -8t121.5 -29t112 -51.5t81 -80t32 -110.5q0 -69 -47.5 -116.5
t-135.5 -67.5q67 -29 109.5 -84.5t42.5 -122.5q0 -73 -44.5 -130.5t-114.5 -89.5t-145.5 -48.5t-148.5 -16.5q-60 0 -125.5 10t-135.5 34t-125 58.5t-90.5 88.5t-35.5 120zM1380 297q-5 -35 21 -63t69 -43.5t86.5 -23t79.5 -7.5q39 0 79 7.5t77 32.5t37 64q0 35 -27 62
t-68.5 40.5t-81 20t-75.5 6.5q-37 0 -75 -6t-77.5 -29t-44.5 -61zM1501 657q0 -29 24 -50t61.5 -30.5t68.5 -13.5t59 -4q22 0 43 3t44.5 10t37.5 23.5t14 39.5q0 36 -33.5 62t-75.5 36t-83 10q-33 0 -66.5 -6.5t-63.5 -27.5t-30 -52z" />
    <glyph glyph-name="threeeighths" unicode="&#x215c;" horiz-adv-x="2646" 
d="M346 1063l-104 158q259 147 460 147q91 0 173 -28t138 -87t56 -137q0 -65 -35.5 -113.5t-97.5 -72.5q123 -68 123 -205q0 -97 -68.5 -168t-173.5 -104t-231 -33q-336 0 -533 254l164 137q75 -97 174 -148t209 -51q94 0 157.5 32t63.5 89q0 49 -40 70.5t-85 21.5h-188
l37 176h178q45 0 71.5 24.5t26.5 59.5q0 47 -42 69t-95 22q-71 0 -161.5 -32t-176.5 -81zM1671 1337h234l-899 -1337h-238zM1544 276q0 90 65.5 157t178.5 93q-115 46 -115 144q0 67 41 118.5t105.5 78.5t131 40t130.5 13q54 0 112.5 -8t121.5 -29t112 -51.5t81 -80
t32 -110.5q0 -69 -47.5 -116.5t-135.5 -67.5q67 -29 109.5 -84.5t42.5 -122.5q0 -73 -44.5 -130.5t-114.5 -89.5t-145.5 -48.5t-148.5 -16.5q-60 0 -125.5 10t-135.5 34t-125 58.5t-90.5 88.5t-35.5 120zM1806 297q-5 -35 21 -63t69 -43.5t86.5 -23t79.5 -7.5q39 0 79 7.5
t77 32.5t37 64q0 35 -27 62t-68.5 40.5t-81 20t-75.5 6.5q-37 0 -75 -6t-77.5 -29t-44.5 -61zM1927 657q0 -29 24 -50t61.5 -30.5t68.5 -13.5t59 -4q22 0 43 3t44.5 10t37.5 23.5t14 39.5q0 36 -33.5 62t-75.5 36t-83 10q-33 0 -66.5 -6.5t-63.5 -27.5t-30 -52z" />
    <glyph glyph-name="fiveeighths" unicode="&#x215d;" horiz-adv-x="2631" 
d="M1071 1337l-57 -192h-539l-33 -160q124 62 244 62q61 0 122 -14.5t119.5 -44.5t95 -87t36.5 -133q0 -88 -40 -156.5t-107.5 -110t-151 -62.5t-176.5 -21q-161 0 -284 39t-234 118l120 170q163 -135 406 -135q35 0 70 7t69 21.5t55 42t21 64.5q0 43 -36 71.5t-78 38
t-85 9.5q-112 0 -280 -63l-119 110l90 426h772zM1657 1337h233l-899 -1337h-237zM1530 276q0 90 65.5 157t178.5 93q-115 46 -115 144q0 54 27.5 98.5t70.5 72t98.5 46t108 26t102.5 7.5q54 0 112.5 -8t121.5 -29t112 -51.5t81 -80t32 -110.5q0 -69 -47 -116.5t-135 -67.5
q67 -29 109 -84.5t42 -122.5q0 -73 -44.5 -130.5t-114 -89.5t-145 -48.5t-148.5 -16.5q-60 0 -125.5 10t-135.5 34t-125 58.5t-90.5 88.5t-35.5 120zM1792 297q-5 -35 21 -63t69 -43.5t86.5 -23t79.5 -7.5q39 0 79 7.5t77 32.5t37 64q0 35 -27 62t-68.5 40.5t-81 20
t-75.5 6.5q-37 0 -75 -6t-77.5 -29t-44.5 -61zM1913 657q0 -29 24 -50t61.5 -30.5t68.5 -13.5t59 -4q22 0 43 3t44.5 10t37.5 23.5t14 39.5q0 36 -33.5 62t-75.5 36t-83 10q-33 0 -66.5 -6.5t-63.5 -27.5t-30 -52z" />
    <glyph glyph-name="seveneighths" unicode="&#x215e;" horiz-adv-x="2467" 
d="M174 1135l43 202h881l-39 -186l-641 -700h-312l656 684h-588zM1493 1337h233l-899 -1337h-237zM1366 276q0 90 65.5 157t178.5 93q-115 46 -115 144q0 67 41 118.5t105.5 78.5t131 40t130.5 13q70 0 143.5 -14.5t147 -44.5t120.5 -87.5t47 -132.5q0 -69 -47 -116.5
t-135 -67.5q67 -29 109.5 -84.5t42.5 -122.5q0 -73 -44.5 -130.5t-114.5 -89.5t-145.5 -48.5t-148.5 -16.5q-60 0 -125.5 10t-135.5 34t-125 58.5t-90.5 88.5t-35.5 120zM1628 297q-5 -35 21 -63t69 -43.5t86.5 -23t79.5 -7.5q39 0 79 7.5t77 32.5t37 64q0 35 -27 62
t-68.5 40.5t-81 20t-75.5 6.5q-37 0 -75 -6t-77.5 -29t-44.5 -61zM1749 657q0 -29 24 -50t61.5 -30.5t68.5 -13.5t59 -4q22 0 43 3t44.5 10t37.5 23.5t14 39.5q0 36 -33.5 62t-75.5 36t-83 10q-33 0 -66.5 -6.5t-63.5 -27.5t-30 -52z" />
    <glyph glyph-name="arrowleft" unicode="&#x2190;" horiz-adv-x="1683" 
d="M1167 649l330 4v-258l-330 6l-624 7l-94 2l-3 -11l115 -80l350 -350l-168 -176l-696 694v74l696 694l168 -174l-350 -350l-115 -80l5 -10l92 2z" />
    <glyph glyph-name="arrowup" unicode="&#x2191;" horiz-adv-x="1685" 
d="M963 117l8 -326h-260l6 326l6 626l4 95l-12 4l-80 -117l-354 -354l-177 168l699 700h74l700 -700l-176 -168l-357 354l-79 117l-9 -4l2 -95z" />
    <glyph glyph-name="arrowright" unicode="&#x2192;" horiz-adv-x="1683" 
d="M186 653l328 -4l625 -6l94 -4l2 12l-115 80l-350 350l168 174l696 -694v-74l-696 -694l-168 176l350 350l115 80l-2 11l-94 -2l-625 -7l-328 -6v258z" />
    <glyph glyph-name="arrowdown" unicode="&#x2193;" horiz-adv-x="1685" 
d="M971 1255l-6 -325l-2 -578l-9 -143l11 -4l82 117l354 354l176 -168l-700 -701h-74l-699 701l177 168l356 -354l78 -117l10 4l-6 143l-2 578l-6 325h260z" />
    <glyph glyph-name="arrowupleft" unicode="&#x2196;" horiz-adv-x="1683" 
d="M1272 238l233 -226l-184 -184l-242 252l-510 518l-65 72l-12 -6l30 -142v-522h-241v1004l51 51h1001v-244h-520l-143 31l-6 -13l71 -63z" />
    <glyph glyph-name="arrowupright" unicode="&#x2197;" horiz-adv-x="1683" 
d="M178 12l236 226l534 528l72 63l-6 13l-144 -31h-520v244h1002l53 -51v-1004h-244v522l31 142l-10 6l-68 -72l-510 -518l-242 -252z" />
    <glyph glyph-name="arrowdownright" unicode="&#x2198;" horiz-adv-x="1683" 
d="M412 817l-234 225l184 185l242 -252l510 -518l68 -72l10 6l-31 141v523h244v-1004l-53 -51h-1002v244h520l144 -31l6 12l-72 64z" />
    <glyph glyph-name="arrowdownleft" unicode="&#x2199;" horiz-adv-x="1683" 
d="M1505 1042l-235 -225l-498 -495l-108 -97l6 -12l143 31h520v-244h-1001l-51 51v1004h241v-523l-30 -141l12 -6l98 111l477 479l242 252z" />
    <glyph glyph-name="partialdiff" unicode="&#x2202;" horiz-adv-x="1335" 
d="M616 930q228 0 359 -182q6 38 6 63q0 33 -10.5 66.5t-40 72.5t-75.5 70t-123.5 55.5t-176.5 32.5l51 227q146 -14 257.5 -53t180 -91.5t111.5 -123.5t59.5 -143t16.5 -156q0 -118 -26 -233t-80.5 -219t-130.5 -183t-184.5 -125.5t-234.5 -46.5q-98 0 -187 30t-159 85
t-111.5 140.5t-41.5 189.5q0 142 70.5 262t195 191t274.5 71zM580 170q117 2 211.5 85.5t138.5 248.5q-37 90 -116.5 152.5t-182.5 62.5q-119 0 -202 -88.5t-83 -214.5q0 -113 66.5 -180.5t167.5 -65.5z" />
    <glyph glyph-name="Delta" unicode="&#x2206;" horiz-adv-x="1492" 
d="M23 209l761 1128h254l283 -1128l-45 -209h-1299zM838 987l-484 -754h660l-164 754h-12z" />
    <glyph glyph-name="product" unicode="&#x220f;" horiz-adv-x="1667" 
d="M219 1087l51 250h1459l-54 -250h-196l-277 -1306h-291l277 1306h-490l-276 -1306h-289l277 1306h-191z" />
    <glyph glyph-name="summation" unicode="&#x2211;" horiz-adv-x="1472" 
d="M1528 1337l-51 -250h-809l456 -471l-32 -149l-607 -438h766l-53 -248h-1270l37 174l838 600l2 12l-582 598l35 172h1270z" />
    <glyph glyph-name="minus" unicode="&#x2212;" horiz-adv-x="1542" 
d="M154 426v233h1189v-233h-1189z" />
    <glyph glyph-name="radical" unicode="&#x221a;" horiz-adv-x="1327" 
d="M127 999h393l158 -573l524 1118h285l-752 -1544h-188l-234 786h-233z" />
    <glyph glyph-name="infinity" unicode="&#x221e;" horiz-adv-x="2095" 
d="M965 801l96 -88l113 88q200 149 376 149h25q174 0 287.5 -108.5t115.5 -255.5q0 -85 -38.5 -167t-103.5 -143.5t-156.5 -99t-190.5 -37.5h-23q-175 0 -344 148l-96 86q-13 -10 -119 -88q-193 -146 -375 -146h-22q-173 0 -286 108.5t-113 254.5q0 85 38 166.5t102 143.5
t155 100t190 38h22q185 0 347 -149zM1339 641l-127 -96l109 -99q93 -81 168 -81h24q83 0 142 60t59 144q0 61 -46.5 107.5t-117.5 46.5h-22q-34 0 -84.5 -21t-104.5 -61zM557 365q80 0 186 81l125 99l-104 96q-92 82 -170 82h-23q-83 0 -141.5 -59.5t-58.5 -141.5
q0 -63 46 -110t118 -47h22z" />
    <glyph glyph-name="integral" unicode="&#x222b;" horiz-adv-x="913" 
d="M1012 1481l-49 -232h-138q-39 0 -66.5 -28t-37.5 -68l-268 -1262q-25 -116 -131.5 -195t-276.5 -79h-139l47 231h137q38 0 66.5 28.5t36.5 68.5l268 1259q25 115 109.5 196t211.5 81h230z" />
    <glyph glyph-name="approxequal" unicode="&#x2248;" horiz-adv-x="1542" 
d="M154 131v242q81 57 156.5 85.5t162.5 28.5q79 0 139.5 -19.5t124.5 -55.5q139 -80 256 -80q80 0 172.5 33.5t167.5 87.5v-246q-163 -117 -340 -117q-135 0 -262 76q-47 26 -77.5 40t-80.5 27t-102 13q-160 0 -317 -115zM154 629v241q160 113 319 113q79 0 139 -20
t125 -56q139 -80 256 -80q80 0 172.5 34t167.5 89v-245q-161 -119 -340 -119q-61 0 -120 16t-80.5 27t-61.5 33q-46 25 -77.5 39.5t-81 27t-101.5 12.5q-160 0 -317 -112z" />
    <glyph glyph-name="notequal" unicode="&#x2260;" horiz-adv-x="1542" 
d="M154 672v235h661l125 197h277l-125 -197h251v-235h-399l-149 -238h548v-235h-696l-123 -197h-278l123 197h-215v235h364l150 238h-514z" />
    <glyph glyph-name="lessequal" unicode="&#x2264;" horiz-adv-x="1542" 
d="M154 0v233h1189v-233h-1189zM1343 1253v-262l-788 -207v-24l788 -205v-262l-1189 360v238z" />
    <glyph glyph-name="greaterequal" unicode="&#x2265;" horiz-adv-x="1542" 
d="M1343 233v-233h-1189v233h1189zM154 991v262l1189 -362v-238l-1189 -360v262l788 205v24z" />
    <glyph glyph-name="squarecrossed" unicode="&#x22a0;" horiz-adv-x="1724" 
d="M195 1337h1335v-1337h-1335v1337zM485 1130l58 -55l295 -297l22 -24l21 24l299 297l55 55l-4 5l-121 -9h-498l-123 9zM395 1049l-4 -5l8 -114v-516l-8 -121l4 -4l51 57l302 301l24 21l-24 22l-302 303zM1331 1044l-4 5l-49 -56l-301 -303l-25 -22l25 -21l301 -301l49 -57
l4 4l-8 121v516zM543 260l-58 -55l4 -4l123 8h498l123 -8l4 4l-57 55l-299 299l-21 25l-22 -25z" />
    <glyph glyph-name="blacksquare" unicode="&#x25a0;" horiz-adv-x="1456" 
d="M147 1161h1162v-1161h-1162v1161z" />
    <glyph glyph-name="whitesquare" unicode="&#x25a1;" horiz-adv-x="1724" 
d="M195 1337h1335v-1337h-1335v1337zM416 1126v-917h893v917h-893z" />
    <glyph glyph-name="blacksmallsquare" unicode="&#x25aa;" horiz-adv-x="964" 
d="M162 920h643v-644h-643v644z" />
    <glyph glyph-name="blackuppointingtriangle" unicode="&#x25b2;" horiz-adv-x="1345" 
d="M659 1206h19l575 -1188v-18h-1171v18z" />
    <glyph glyph-name="blackrightpointingtriangle" unicode="&#x25b6;" horiz-adv-x="1536" 
d="M186 1114h19l1188 -579v-19l-1188 -577h-19v1175z" />
    <glyph glyph-name="blackdownpointingtriangle" unicode="&#x25bc;" horiz-adv-x="1345" 
d="M82 1001h1171v-20l-575 -1186h-19l-577 1186v20z" />
    <glyph glyph-name="blackleftpointingtriangle" unicode="&#x25c0;" horiz-adv-x="1536" 
d="M143 535l1186 579h19v-1175h-19l-1186 577v19z" />
    <glyph glyph-name="lozenge" unicode="&#x25ca;" horiz-adv-x="1372" 
d="M770 1337h160l385 -596l-31 -143l-639 -598h-160l-385 598l31 143zM809 1040l-426 -401v-4l217 -338h2l426 403l2 7l-219 333h-2z" />
    <glyph glyph-name="whitecircle" unicode="&#x25cb;" horiz-adv-x="1703" 
d="M92 662q0 154 60.5 294t162.5 241.5t242 161.5t293 60q155 0 295.5 -60t242.5 -161.5t162 -241.5t60 -294t-60 -294.5t-162 -242.5t-242.5 -162.5t-295.5 -60.5q-153 0 -293 60.5t-242 162.5t-162.5 242.5t-60.5 294.5zM324 662q0 -149 70 -275t191 -199t265 -73
q146 0 268 73t192 199t70 275t-70 274t-192 197.5t-268 72.5q-144 0 -265 -72.5t-191 -197.5t-70 -274z" />
    <glyph glyph-name="blackcircle" unicode="&#x25cf;" horiz-adv-x="1431" 
d="M100 582q0 125 49 239t131.5 196.5t196 131.5t238.5 49q167 0 309 -82.5t224.5 -224.5t82.5 -309q0 -125 -49 -238.5t-131.5 -196t-196.5 -131.5t-239 -49q-124 0 -238 49t-196.5 131.5t-131.5 196.5t-49 238z" />
    <glyph glyph-name="blackmediumsquare" unicode="&#x25fc;" horiz-adv-x="1114" 
d="M147 1001h820v-821h-820v821z" />
    <glyph glyph-name="blackmediumcircle" unicode="&#x26ab;" horiz-adv-x="1116" 
d="M559 1042q188 0 320.5 -129t132.5 -313q0 -90 -36 -171t-96.5 -139.5t-144.5 -93t-176 -34.5q-190 0 -322.5 127.5t-132.5 310.5q0 185 132.5 313.5t322.5 128.5z" />
    <glyph glyph-name="circlecrossed" unicode="&#x2a02;" horiz-adv-x="1703" 
d="M850 106q198 0 344 127l-324 324l-20 23l-21 -23l-319 -324q146 -127 340 -127zM850 1214q-182 0 -330 -116l309 -312l21 -26l20 26l312 312q-145 116 -332 116zM92 662q0 154 60.5 294t162.5 241.5t242 161.5t293 60q155 0 295.5 -60t242.5 -161.5t162 -241.5t60 -294
t-60 -294.5t-162 -242.5t-242.5 -162.5t-295.5 -60.5q-153 0 -293 60.5t-242 162.5t-162.5 242.5t-60.5 294.5zM963 651l319 -319q107 145 107 330q0 183 -115 337l-311 -307l-23 -20zM737 692l-311 307q-111 -153 -111 -337q0 -185 105 -328l317 317l25 21z" />
    <glyph glyph-name="blacklargesquare" unicode="&#x2b1b;" horiz-adv-x="1724" 
d="M195 1337h1335v-1337h-1335v1337z" />
    <glyph glyph-name="blacklargecircle" unicode="&#x2b24;" horiz-adv-x="1703" 
d="M92 662q0 154 60.5 294t162.5 241.5t242 161.5t293 60q155 0 295.5 -60t242.5 -161.5t162 -241.5t60 -294t-60 -294.5t-162 -242.5t-242.5 -162.5t-295.5 -60.5q-153 0 -293 60.5t-242 162.5t-162.5 242.5t-60.5 294.5z" />
    <glyph glyph-name="commaaccent" unicode="&#xf6c3;" 
d="M258 -125l225 41q18 -23 27 -36t21 -45.5t12 -67.5q0 -124 -104 -205.5t-275 -81.5q-60 0 -107 16l33 156q27 -6 82 -6q60 0 93.5 31.5t33.5 91.5q0 47 -41 106z" />
    <glyph glyph-name="rupiah" unicode="&#xf6dd;" horiz-adv-x="2701" 
d="M1362 -424l246 1145q1 5 10.5 57t12.5 72.5t8 64.5t6 84h256q0 -28 -9 -116q33 30 56.5 48t66.5 45.5t93.5 41.5t105.5 14q119 0 210 -62.5t137 -164t46 -223.5q0 -111 -40.5 -220t-111 -196t-175 -141t-222.5 -54q-176 0 -307 146l-117 -541h-272zM1870 668l-74 -359
q43 -45 105.5 -76.5t128.5 -31.5q122 -1 202 108t80 250q0 99 -47 170.5t-137 71.5q-128 0 -258 -133zM342 0h-291l244 1163h655q236 0 353 -123q92 -98 92 -229q0 -121 -92 -225.5t-240 -143.5l190 -442h-311l-164 416h-350zM537 928l-60 -277h436q97 0 154 54q41 45 41 94
q0 51 -37 88q-27 25 -55.5 33t-81.5 8h-397z" />
    <glyph glyph-name="sweetfonts.com" unicode="&#xf8ff;" horiz-adv-x="2048" 
d="M702 868q0 134 94 228t228 94t228 -94t94 -228q0 -133 -94 -227t-228 -94t-228 94t-94 227zM1446 877l485 280q6 5 11.5 2t5.5 -10v-561q0 -7 -5.5 -10t-11.5 2l-485 280q-4 3 -4 8.5t4 8.5zM100 588v561q0 7 5.5 10t11.5 -2l485 -280q6 -3 6 -8.5t-6 -8.5l-485 -280
q-6 -5 -11.5 -2t-5.5 10zM1798 0v238h-117v41h283v-41h-117v-238h-49zM1350 0v279h239v-41h-190v-66h127v-41h-127v-90h203v-41h-252zM967 0v279h239v-41h-190v-66h127v-41h-127v-90h203v-41h-252zM549 0l-96 279h51l61 -203h4l70 203h31l67 -203h4l66 203h47l-100 -279h-33
l-68 199h-4l-67 -199h-33zM76 45l24 31q67 -43 125 -43q101 0 101 49q0 17 -14 26.5t-31 11.5t-45 3h-7q-67 2 -104 18t-37 58q0 34 31.5 59t91.5 25q74 0 141 -37l-24 -33q-52 31 -117 31q-38 0 -58 -12.5t-20 -30.5q0 -19 24 -25t72 -8q69 -2 105.5 -19t36.5 -65
q0 -43 -41.5 -66.5t-104.5 -23.5q-85 0 -149 51z" />
    <glyph glyph-name="one.alt" horiz-adv-x="665" 
d="M61 0l250 1163h281l-250 -1163h-281z" />
    <glyph glyph-name="dollar.superior" horiz-adv-x="1075" 
d="M1063 1206l-156 -141q-58 55 -151 88l-43 -156q56 -11 98 -23.5t88 -34t75.5 -49t48.5 -69.5t19 -94q0 -144 -118.5 -225.5t-305.5 -81.5q-37 0 -55 2l-45 -168h-162l54 192q-188 54 -322 197l141 139q106 -106 240 -153l55 192q-40 9 -67.5 16t-65 19.5t-62.5 25.5
t-52 33t-43 43.5t-26.5 55t-10.5 69.5q0 92 54.5 157.5t140.5 96.5t192 31q26 0 80 -4l34 127h164l-45 -158q135 -44 246 -127zM801 696q0 35 -36.5 57.5t-109.5 41.5l-53 -193h29q67 0 118.5 22.5t51.5 71.5zM436 1112q0 -34 37.5 -54.5t106.5 -33.5l45 158q-20 2 -58 2
q-131 0 -131 -72z" />
    <glyph glyph-name="cent.superior" horiz-adv-x="923" 
d="M938 1069l-154 -139q-44 30 -79 45l-115 -359q79 9 170 54l94 -162q-39 -27 -125.5 -54t-189.5 -28l-54 -172h-163l59 190q-123 34 -192.5 122t-69.5 212q0 80 36 155.5t97 132.5t146.5 91.5t179.5 34.5q29 0 43 -2l34 106h162l-45 -135q89 -28 166 -92zM365 780
q0 -43 23.5 -83t66.5 -62l116 369q-88 -4 -147 -70.5t-59 -153.5z" />
    <glyph glyph-name="Euro.superior" horiz-adv-x="1204" 
d="M1217 1180l-175 -113q-48 43 -118.5 72.5t-141.5 29.5q-129 0 -223 -108h361l-25 -121h-399q-11 -37 -11 -80v-8h392l-25 -121h-332q32 -53 87 -84t126 -31q145 0 291 93l123 -154q-196 -133 -424 -133q-171 0 -299.5 83.5t-169.5 225.5h-143l26 121h101q0 49 8 88h-92
l24 121h111q67 134 201 219.5t296 85.5q124 0 239 -49t192 -137z" />
    <glyph glyph-name="sterling.superior" horiz-adv-x="1060" 
d="M141 854l29 139h186l19 107q16 87 78.5 150t141.5 90.5t163 27.5q79 0 177 -27t183 -71l-133 -168q-138 74 -242 74q-46 0 -85.5 -28.5t-47.5 -80.5l-12 -74h313l-30 -139h-308l-10 -61q-11 -71 -50 -108.5t-116 -49.5h609l-37 -184h-912l37 184h66q78 0 111.5 33
t50.5 125l10 61h-191z" />
    <glyph glyph-name="yen.superior" horiz-adv-x="1169" 
d="M150 940l26 121h230l-150 276h279l139 -282l260 282h303l-268 -276h227l-25 -121h-321l-84 -88h387l-25 -121h-393l-61 -280h-240l60 280h-385l22 121h389l-49 88h-321z" />
    <glyph glyph-name="numbersign.superior" horiz-adv-x="1288" 
d="M975 1413h149l-69 -246h295l-37 -174h-305l-66 -231h281l-35 -174h-293l-80 -289h-151l79 289h-231l-80 -289h-151l79 289h-288l34 174h304l63 231h-276l36 174h289l70 246h149l-69 -246h233zM625 993l-66 -231h234l63 231h-231z" />
    <glyph glyph-name="percent.superior" horiz-adv-x="1642" 
d="M1317 1395l-643 -944h-199l645 944h197zM983 686q0 119 100.5 207t235.5 88q123 0 206 -75.5t83 -182.5q0 -121 -102 -208t-238 -87q-122 0 -203.5 75t-81.5 183zM1188 694q0 -42 26.5 -71t65.5 -29q49 0 87 36.5t38 82.5q0 41 -28.5 70.5t-69.5 29.5q-48 0 -83.5 -35
t-35.5 -84zM184 1126q0 118 100.5 205.5t235.5 87.5q123 0 207 -75.5t84 -182.5q0 -119 -102 -207t-238 -88q-122 0 -204.5 75.5t-82.5 184.5zM391 1133q0 -40 26 -69.5t64 -29.5q51 0 88 35.5t37 83.5q0 41 -28 70.5t-68 29.5q-50 0 -84.5 -34.5t-34.5 -85.5z" />
    <glyph glyph-name="period.superior" horiz-adv-x="479" 
d="M88 553q0 59 48.5 101t115.5 42q61 0 103 -37.5t42 -91.5q0 -58 -49 -99.5t-117 -41.5q-62 0 -102.5 36.5t-40.5 90.5z" />
    <glyph glyph-name="comma.superior" horiz-adv-x="503" 
d="M84 166l-47 125q66 17 137 65t66 95q-10 -2 -35 -2q-51 0 -84 30.5t-33 77.5q0 58 50 98.5t120 40.5q68 0 115 -50t47 -130q0 -72 -32 -133t-85 -103t-106.5 -69t-112.5 -45z" />
    <glyph glyph-name="hyphen.superior" horiz-adv-x="620" 
d="M133 719l39 207h424l-39 -207h-424z" />
    <glyph glyph-name="zero.tos" horiz-adv-x="1390" 
d="M88 524q0 136 56.5 262.5t149 217t216 144.5t252.5 54q153 0 278 -74t196 -202t71 -283q0 -137 -57 -264.5t-150 -219t-217 -146t-254 -54.5q-114 0 -215 44t-172.5 120t-112.5 180t-41 221zM367 543q0 -141 80.5 -240.5t205.5 -99.5q146 0 259.5 126.5t113.5 293.5
q0 140 -84 239t-207 99q-95 0 -180 -57t-136.5 -154t-51.5 -207z" />
    <glyph glyph-name="one.tos" horiz-adv-x="1390" 
d="M117 0l47 227h418l143 672l-397 -133l-19 229l500 168h252l-199 -936h303l-47 -227h-1001z" />
    <glyph glyph-name="two.tos" horiz-adv-x="1390" 
d="M362 834l-116 200q78 40 130 63t127 51t150 41t154 13q51 0 104.5 -7t114 -21.5t113.5 -41.5t96 -63.5t68.5 -91t25.5 -119.5q0 -59 -22 -110t-53 -87t-85.5 -68t-96.5 -51t-111.5 -39t-104.5 -28t-99 -21q-26 -5 -38 -8q-58 -11 -94 -18.5t-79 -19.5t-69.5 -25.5
t-53 -32t-43 -43t-26.5 -55.5l-10 -31h815l-45 -221h-1096l52 248q73 344 655 434q143 24 199 45q118 43 118 117q0 37 -25.5 63.5t-66 39.5t-78.5 18.5t-75 5.5q-188 0 -435 -137z" />
    <glyph glyph-name="three.tos" horiz-adv-x="1390" 
d="M356 821l-120 191q319 190 573 190q111 0 212.5 -35.5t172 -111.5t70.5 -176q0 -86 -49 -153.5t-130 -98.5q156 -80 156 -262q0 -98 -50 -177.5t-133.5 -128t-188 -74.5t-218.5 -26q-197 0 -367 81t-294 251l196 166q91 -129 216 -198t268 -69q80 0 144.5 19t106.5 61
t42 101q0 48 -29.5 79.5t-63 41.5t-67.5 10h-236l45 213h224q61 0 98 35t37 90q0 46 -31 77t-71.5 42.5t-84.5 11.5q-181 0 -428 -150z" />
    <glyph glyph-name="four.tos" horiz-adv-x="1390" 
d="M1288 453l-47 -211h-205l-51 -242h-278l51 242h-783l39 168l969 753h252l-154 -710h207zM430 461v-8h373l78 364h-21z" />
    <glyph glyph-name="five.tos" horiz-adv-x="1390" 
d="M1290 1163l-65 -231h-707l-49 -240q153 78 315 78q62 0 125.5 -11t130 -37.5t117 -66.5t83 -104t32.5 -143q0 -90 -34 -165t-91.5 -126.5t-135.5 -87t-165 -52t-180 -16.5q-206 0 -364 59.5t-294 180.5l150 190q98 -97 232.5 -149t285.5 -52q50 0 100 9.5t97 30t76.5 59
t29.5 90.5q0 47 -29 83t-74.5 54.5t-91.5 27.5t-90 9q-62 0 -129.5 -12t-113.5 -26t-117 -38l-135 135l114 551h977z" />
    <glyph glyph-name="six.tos" horiz-adv-x="1390" 
d="M1315 1053l-162 -189q-156 107 -352 107q-145 0 -267.5 -91.5t-156.5 -240.5q218 125 424 125q82 0 161.5 -23t147.5 -66t110 -114.5t42 -159.5q0 -102 -48.5 -187.5t-128 -140t-179.5 -84.5t-206 -30q-110 0 -215.5 36.5t-192.5 103t-140.5 173.5t-53.5 236
q0 144 57 273t152.5 221t227.5 146t276 54q274 0 504 -149zM713 551q-156 0 -342 -78q22 -132 116 -209t232 -74q41 2 83.5 13.5t83.5 34t67 61.5t26 88q0 46 -25.5 79.5t-67.5 51t-85 25.5t-88 8z" />
    <glyph glyph-name="seven.tos" horiz-adv-x="1390" 
d="M178 922l47 241h1190l-47 -225l-893 -938h-364l917 922h-850z" />
    <glyph glyph-name="eight.tos" horiz-adv-x="1390" 
d="M53 356q0 126 87.5 213t232.5 117q-148 62 -148 193q0 72 34 129.5t87.5 93t122.5 59.5t133.5 33.5t126.5 9.5q66 0 137 -10.5t147 -37t135 -65.5t97.5 -101.5t38.5 -139.5q0 -98 -63 -161t-174 -85q84 -37 139 -109.5t55 -162.5q0 -66 -26 -122t-70.5 -96t-101 -71
t-120.5 -49.5t-126 -27.5t-121 -9q-73 0 -153 13t-165 44t-152 75.5t-110 114t-43 152.5zM358 387q-6 -50 27.5 -90.5t88 -63t110.5 -34t102 -11.5q37 0 78 8t83.5 24.5t69.5 49.5t27 76q0 49 -34.5 87t-87 58t-104.5 29.5t-97 9.5q-34 0 -72 -6t-81 -20.5t-73.5 -44.5
t-36.5 -72zM520 868q0 -42 31 -72t78.5 -43.5t88.5 -19.5t77 -6q31 0 59 4t59.5 15t50.5 34.5t19 57.5q0 53 -44 89.5t-98.5 50t-109.5 13.5q-30 0 -63.5 -6t-68 -19t-57 -38.5t-22.5 -59.5z" />
    <glyph glyph-name="nine.tos" horiz-adv-x="1390" 
d="M82 111l162 186q158 -107 350 -107q143 0 265.5 91.5t158.5 240.5q-215 -125 -426 -125q-80 0 -159.5 23t-147.5 66t-110 114.5t-42 159.5q0 103 48 188.5t128 140t179.5 84t205.5 29.5q87 0 173 -22.5t163.5 -68t137.5 -109.5t95 -154t35 -193q0 -144 -57 -274
t-153.5 -222t-228.5 -146t-277 -54q-266 0 -500 152zM682 610q158 0 344 78q-20 132 -115.5 209t-232.5 74q-41 -2 -84 -13.5t-85 -33t-68.5 -60.5t-26.5 -88q0 -46 26 -80t68 -52t85.5 -26t88.5 -8z" />
    <glyph glyph-name="dollar.tos" horiz-adv-x="1390" 
d="M713 -39q-26 0 -72 4l-59 -229h-191l70 260q-250 66 -426 260l168 166q144 -150 327 -211l74 287q-73 15 -125 29.5t-113 41.5t-99 61t-63.5 87.5t-25.5 120.5q0 89 40 159.5t108.5 114.5t156 67t187.5 23q50 0 106 -6l45 174h191l-58 -211q192 -61 324 -170l-184 -168
q-81 81 -209 121l-60 -233q73 -16 126 -31.5t113.5 -44t98 -63.5t63 -90t25.5 -124q0 -185 -150.5 -290t-387.5 -105zM967 319q0 55 -52.5 89.5t-152.5 58.5l-74 -285q12 -2 39 -2q60 0 111.5 12.5t90 45t38.5 81.5zM461 872q0 -54 51.5 -83t155.5 -50l61 238q-58 4 -80 4
q-188 0 -188 -109z" />
    <glyph glyph-name="cent.tos" horiz-adv-x="1390" 
d="M852 1108h197l-60 -178q164 -46 277 -131l-185 -166q-70 46 -170 78l-168 -516q152 6 297 75l131 -192q-61 -36 -185.5 -71.5t-280.5 -35.5h-21l-76 -235h-196l82 260q-183 45 -288.5 162.5t-105.5 281.5q0 101 49.5 196.5t133.5 167.5t204 115.5t252 43.5q10 0 32 -1
t34 -1zM393 436q0 -68 49 -128.5t133 -90.5l168 518q-151 -3 -250.5 -91.5t-99.5 -207.5z" />
    <glyph glyph-name="Euro.tos" horiz-adv-x="1390" 
d="M1335 985l-196 -145q-55 53 -131.5 88t-155.5 35q-80 0 -150.5 -45t-119.5 -121h417l-32 -150h-449q-14 -55 -14 -117v-8h442l-35 -147h-379q34 -81 98 -128.5t152 -47.5q161 0 326 102l131 -190q-99 -65 -221.5 -106.5t-249.5 -41.5q-202 0 -351.5 112t-191.5 300h-166
l35 147h115q0 53 14 125h-108l32 150h125q81 176 240 289.5t350 113.5q135 0 261.5 -56.5t211.5 -158.5z" />
    <glyph glyph-name="sterling.tos" horiz-adv-x="1390" 
d="M106 537l37 168h246l25 147q15 87 65 156t119 110t146.5 62.5t156.5 21.5q102 0 227.5 -36.5t233.5 -96.5l-160 -197q-76 43 -164.5 71t-152.5 28q-66 0 -123 -40.5t-68 -113.5l-18 -112h422l-35 -168h-416l-16 -103q-15 -97 -63 -145.5t-146 -67.5h799l-43 -221h-1176
l43 221h82q106 0 150.5 43.5t66.5 169.5l16 103h-254z" />
    <glyph glyph-name="yen.tos" horiz-adv-x="1390" 
d="M106 647l31 150h275l-176 366h329l158 -391l311 391h359l-328 -366h274l-30 -150h-377l-109 -123v-2h461l-33 -147h-460l-78 -375h-283l78 375h-457l33 147h455l2 10l-56 115h-379z" />
    <glyph glyph-name="florin.tos" horiz-adv-x="1390" 
d="M346 705h225l78 243q22 68 66 119.5t99 79.5t111.5 41.5t112.5 13.5q161 0 209 -28l-76 -199q-65 14 -141 14q-45 0 -77.5 -16.5t-39.5 -44.5l-71 -223h262l-35 -168h-281l-167 -535q-29 -91 -85 -160t-125.5 -108t-141.5 -57.5t-144 -18.5l-2 197q34 7 56 13.5t53 19
t52 28t40.5 41t29.5 57.5l164 523h-207z" />
    <glyph glyph-name="colonmonetary.tos" horiz-adv-x="1390" 
d="M1358 928l-217 -133q-34 37 -90 79l-201 -661q134 44 246 133l149 -176q-224 -178 -471 -205l-69 -229h-136l70 227q-67 5 -137 25l-76 -252h-135l90 299q-132 71 -208.5 196.5t-76.5 286.5q0 124 50 243.5t135 212t204.5 153.5t251.5 71l54 172h133l-54 -176
q52 -5 136 -27l61 203h135l-78 -252q138 -74 234 -190zM573 219q63 -29 136 -29l227 748q-67 28 -135 31zM387 535q0 -137 76 -232l199 645q-120 -44 -197.5 -161t-77.5 -252z" />
    <glyph glyph-name="franc.tos" horiz-adv-x="1390" 
d="M20 195l33 159h197l170 809h1005l-49 -225h-719l-39 -188h447l-47 -224h-447l-36 -172h325l-33 -159h-325l-39 -195h-285l39 195h-197z" />
    <glyph glyph-name="lira.tos" horiz-adv-x="1390" 
d="M139 647l29 150h227l11 55q15 87 66 156t121.5 110t149 62.5t158.5 21.5q104 0 232 -36.5t237 -96.5l-160 -197q-79 43 -170.5 71t-156.5 28q-68 0 -127 -40.5t-70 -113.5l-4 -20h442l-28 -150h-439l-22 -125h436l-33 -147h-432q-24 -67 -70 -103t-130 -51h823l-43 -221
h-1176l45 221h58q95 0 139 32t67 122h-237l33 147h231l23 125h-230z" />
    <glyph glyph-name="peso.tos" horiz-adv-x="1390" 
d="M84 653l33 148h155l76 362h500q111 0 187.5 -28.5t133.5 -87.5q100 -103 109 -246h149l-32 -148h-131q-36 -129 -146 -233q-74 -73 -166.5 -108.5t-220.5 -35.5h-278l-60 -276h-287l136 653h-158zM920 571q38 35 57 82h-447l-28 -149h219q129 0 199 67zM586 938l-27 -137
h430q-11 50 -53 92q-25 25 -59.5 35t-96.5 10h-194z" />
    <glyph glyph-name="Rupee.tos" horiz-adv-x="1390" 
d="M72 653l30 148h807q-11 50 -53 92q-25 25 -59.5 35t-96.5 10h-569l49 225h1288l-32 -149h-349q102 -86 111 -213h193l-31 -148h-176q-36 -129 -146 -233q-73 -61 -164 -89t-221 -28l-188 8l479 -311h-436l-500 354l31 150h602q129 0 199 67q38 35 57 82h-825z" />
    <glyph glyph-name="section.tos" horiz-adv-x="1390" 
d="M1145 184q-53 -48 -141 -88l10 -35q9 -28 6 -61q-1 -108 -66 -185t-162 -112t-212 -35q-247 0 -469 152l149 170q172 -111 332 -111q141 0 141 86q0 23 -14 37q-9 11 -23.5 20t-47.5 19t-49 14.5t-71 17.5q-13 3 -20 5q-270 65 -369 184q-71 78 -71 180q0 144 120 248
q51 46 140 86l-13 51q0 3 -2 19.5t-2 25.5q0 82 39 147.5t103.5 105t142 60.5t160.5 21q122 0 245.5 -40.5t231.5 -112.5l-148 -170q-82 48 -177 81t-173 33q-123 0 -133 -77q-6 -25 12 -46q6 -7 14 -13t21 -11.5t24.5 -9.5t32 -9.5t34.5 -9t41 -10t44 -10.5
q264 -63 367 -187q72 -78 72 -182q0 -71 -31.5 -136.5t-87.5 -111.5zM739 571q-8 2 -50.5 11.5t-59.5 14t-50.5 13.5t-59 18.5t-48.5 20.5q-7 -4 -49 -37q-74 -66 -74 -135q0 -44 27 -74q23 -27 65 -48t71.5 -29t84.5 -21q67 -14 97.5 -21t81 -23.5t85.5 -35.5q25 14 51 37
q72 65 72 135q0 42 -27 76q-50 61 -217 98z" />
    <glyph glyph-name="numbersign.tos" horiz-adv-x="1390" 
d="M1001 1264h173l-91 -334h322l-49 -205h-326l-88 -326h305l-51 -209h-309l-103 -389h-170l103 389h-246l-102 -389h-172l102 389h-313l49 209h319l88 326h-303l51 205h306l90 334h172l-90 -334h245zM614 725l-88 -326h246l86 326h-244z" />
    <glyph glyph-name="percent.tos" horiz-adv-x="1390" 
d="M92 879q6 93 48 181.5t117.5 149t164.5 60.5q102 0 164.5 -91.5t62.5 -215.5q0 -97 -43 -193t-121.5 -160.5t-169.5 -64.5q-110 0 -172 99t-51 235zM1128 1239l-647 -1239h-194l649 1239h192zM283 887q-5 -61 12 -104.5t49 -43.5q33 0 60 36.5t40 85t13 93.5
q0 52 -17 86.5t-47 34.5q-40 0 -72.5 -60.5t-37.5 -127.5zM766 276q0 98 42 193.5t120.5 160t171.5 64.5q101 0 164 -91.5t63 -215.5q0 -97 -43 -193t-122 -160.5t-171 -64.5q-102 0 -163.5 90t-61.5 217zM958 291q0 -53 17.5 -89t44.5 -36q49 0 82 70.5t33 142.5
q0 52 -17.5 87.5t-46.5 35.5q-45 0 -79 -69.5t-34 -141.5z" />
    <glyph glyph-name="zero.pl" horiz-adv-x="1642" 
d="M109 578q0 145 65.5 279t173.5 229.5t252.5 152.5t296.5 57q184 0 336.5 -82t239 -223t86.5 -311q0 -194 -111.5 -361t-294 -263.5t-387.5 -96.5q-184 0 -335 82.5t-236.5 224.5t-85.5 312zM399 592q0 -159 110.5 -272t276.5 -113q124 0 235 62.5t178 169t67 227.5
q0 158 -113 269.5t-279 111.5q-123 0 -233 -61.5t-176 -167t-66 -226.5z" />
    <glyph glyph-name="one.pl" horiz-adv-x="905" 
d="M131 854v238l418 163h266l-262 -1255h-291l207 983z" />
    <glyph glyph-name="one.pl.alt" horiz-adv-x="720" 
d="M78 0l264 1255h291l-264 -1255h-291z" />
    <glyph glyph-name="two.pl" horiz-adv-x="1363" 
d="M356 911l-112 207q84 44 132 67t126.5 54t153.5 45t155 14q52 0 106 -7.5t114.5 -23t113 -44.5t95.5 -67.5t68 -96.5t25 -127q0 -65 -22.5 -120.5t-53 -94.5t-87.5 -74t-98 -55t-114 -41.5t-107 -29.5t-104 -23q-7 -2 -11 -2.5t-10 -2t-11 -2.5q-84 -15 -138 -30.5
t-104 -40.5t-81 -62.5t-48 -91.5l-10 -33h823l-49 -229h-1112l55 260q81 374 668 471q155 26 221 56q102 47 102 126q0 42 -25.5 72.5t-66 45t-78 20.5t-75.5 6q-107 0 -213 -38t-228 -108z" />
    <glyph glyph-name="three.pl" horiz-adv-x="1515" 
d="M639 549l47 219h246q72 0 120 38.5t48 98.5q0 54 -39 90t-88 49t-103 13q-106 0 -233 -44t-246 -114l-125 195q346 202 629 202q88 0 175.5 -23t162 -65t120.5 -110.5t46 -151.5q0 -93 -55 -165t-146 -105q78 -38 130 -108.5t52 -178.5q0 -105 -55.5 -189t-149 -135.5
t-207.5 -78.5t-239 -27q-465 0 -737 352l201 170q104 -138 248 -211t309 -73q91 0 166.5 20t126.5 66.5t51 111.5q0 42 -21 74t-52.5 48t-62 24t-57.5 8h-262z" />
    <glyph glyph-name="four.pl" horiz-adv-x="1591" 
d="M1499 483l-49 -219h-240l-55 -264h-289l56 264h-932l37 176l1132 815h264l-166 -772h242zM459 492v-9h510l90 416h-23z" />
    <glyph glyph-name="five.pl" horiz-adv-x="1488" 
d="M1401 1255l-68 -239h-780l-55 -258q165 84 344 84q69 0 138.5 -11.5t142 -40.5t128 -72t90.5 -112t35 -155q0 -99 -36.5 -182t-99.5 -140t-147 -96.5t-178 -57.5t-194 -18q-224 0 -397 70.5t-324 212.5l166 194q109 -115 255 -177t310 -62q58 0 114 11.5t109 36t86 71
t33 108.5q0 53 -32.5 93.5t-83.5 61.5t-103.5 31t-103.5 10q-97 0 -188 -24t-204 -68l-143 140l127 589h1059z" />
    <glyph glyph-name="six.pl" horiz-adv-x="1517" 
d="M1460 1118l-178 -190q-80 60 -184 94.5t-215 34.5q-110 0 -212 -44t-177.5 -130t-100.5 -197q249 139 484 139q91 0 180.5 -24.5t166.5 -71t125 -124t48 -173.5q0 -111 -53.5 -202.5t-142 -149.5t-198 -89.5t-225.5 -31.5q-98 0 -193.5 24t-182 74t-152.5 119t-105 166
t-39 209q0 124 40 239t113 206t170.5 159t217.5 104.5t248 36.5q314 0 565 -178zM786 606q-182 0 -399 -92q23 -147 135 -233.5t273 -83.5q50 2 101 14.5t100 37.5t79.5 68.5t30.5 98.5q0 52 -31 91t-81 59.5t-102 30t-106 9.5z" />
    <glyph glyph-name="seven.pl" horiz-adv-x="1343" 
d="M160 1006l53 249h1206l-49 -231l-919 -1024h-375l938 1006h-854z" />
    <glyph glyph-name="eight.pl" horiz-adv-x="1527" 
d="M756 -45q-81 0 -170.5 14t-184.5 47.5t-169.5 81.5t-122.5 122.5t-48 164.5q0 137 102 230.5t265 123.5q-176 67 -176 213q0 76 38 138t96.5 100t134.5 63.5t147 36t139 10.5q73 0 152 -11.5t163.5 -40t150.5 -70.5t109 -109.5t43 -150.5q0 -106 -75.5 -174t-202.5 -91
q103 -41 170 -119.5t67 -179.5q0 -84 -41.5 -153t-107.5 -113.5t-150.5 -75.5t-167 -44t-161.5 -13zM377 416q-7 -57 32.5 -102.5t104 -70.5t130.5 -37.5t122 -12.5q44 0 93 9t100.5 27.5t84.5 55.5t33 86q0 45 -28 82t-70.5 60t-96 38.5t-102 22t-90.5 6.5t-87.5 -7
t-97 -23.5t-87 -51.5t-41.5 -82zM813 1081q-37 0 -77.5 -7t-82 -22t-68 -44.5t-26.5 -69.5q0 -38 25.5 -67.5t62.5 -46t84.5 -27t85.5 -14t72 -3.5q36 0 69.5 5t71 17.5t60 39.5t22.5 65q0 44 -30 79.5t-77 55t-96.5 29.5t-95.5 10z" />
    <glyph glyph-name="nine.pl" horiz-adv-x="1519" 
d="M82 135l178 191q80 -60 183.5 -93.5t215.5 -33.5q170 -2 310.5 100t177.5 270q-242 -139 -481 -139q-91 0 -180.5 24.5t-167 71t-125.5 124t-48 173.5q0 89 35 166t95 132.5t139 95.5t168.5 59.5t181.5 19.5q98 0 193.5 -24t182 -74t152.5 -119.5t105 -167t39 -209.5
q0 -155 -62.5 -293.5t-168.5 -236.5t-252 -155.5t-306 -57.5q-313 0 -565 176zM756 649q184 0 397 90q-23 148 -134.5 234.5t-270.5 83.5q-50 -1 -101.5 -13.5t-100 -37t-79.5 -68t-31 -98.5q0 -53 30.5 -92.5t81 -60t102.5 -29.5t106 -9z" />
    <glyph glyph-name="dollar.pl" horiz-adv-x="1460" 
d="M754 -41q-26 0 -76 4l-66 -250h-194l74 279q-275 73 -463 284l174 173q156 -169 358 -232l86 328q-78 15 -133.5 30t-120 43.5t-104.5 64t-67 92t-27 128.5q0 96 42.5 172.5t116 123.5t167.5 72t202 25q55 0 113 -6l49 191h194l-59 -228q205 -62 352 -186l-188 -172
q-88 90 -236 135l-69 -268q77 -16 134.5 -32.5t122 -47t105.5 -68t68.5 -96t27.5 -131.5q0 -134 -77 -232t-208 -147t-298 -49zM1049 346q0 63 -59.5 100t-176.5 64l-86 -324q14 -2 45 -2q50 0 96.5 8.5t88.5 26t67 50.5t25 77zM481 942q0 -31 16.5 -55t50 -41t71.5 -29
t94 -24l69 272q-58 4 -84 4q-217 0 -217 -127z" />
    <glyph glyph-name="cent.pl" horiz-adv-x="1224" 
d="M614 -31h-6l-82 -256h-194l90 281q-165 44 -258.5 166t-93.5 295q0 111 49 216t132 184.5t199.5 128t243.5 48.5q9 0 29 -1t29 -1l53 164h194l-65 -201q138 -46 244 -139l-189 -168q-61 51 -135 80l-182 -567q122 11 268 86l117 -197q-58 -39 -178 -79t-265 -40zM365 457
q0 -71 38 -134t105 -96l180 574q-89 -1 -164 -50t-117 -127.5t-42 -166.5z" />
    <glyph glyph-name="Euro.pl" horiz-adv-x="1648" 
d="M1599 1028l-213 -139q-72 70 -176.5 116t-214.5 46q-107 0 -201 -53t-159 -142h553l-33 -154h-594q-16 -66 -16 -124v-17h581l-32 -153h-512q44 -93 132 -149t204 -56q208 0 419 137l146 -186q-121 -85 -271.5 -139t-310.5 -54q-233 0 -408 121.5t-229 325.5h-194l32 153
h144v4q0 58 14 137h-129l33 154h149q92 192 278 315t410 123q174 0 333 -70t265 -196z" />
    <glyph glyph-name="sterling.pl" horiz-adv-x="1472" 
d="M121 582l37 176h266l29 162q17 94 71 168t129 118t158.5 67t167.5 23q108 0 241 -39t246 -104l-163 -205q-84 48 -180.5 78.5t-166.5 30.5q-75 0 -140 -44.5t-79 -127.5l-22 -127h467l-37 -176h-463l-20 -121q-19 -106 -70.5 -160t-157.5 -74h873l-50 -227h-1259l47 227
h88q116 0 164.5 48t73.5 186l20 121h-270z" />
    <glyph glyph-name="yen.pl" horiz-adv-x="1622" 
d="M139 702l33 154h338l-215 399h336l217 -432l405 432h363l-387 -399h334l-33 -154h-451l-131 -135l-2 -6h555l-33 -153h-555l-88 -408h-288l88 408h-545l31 153h546l5 14l-70 127h-453z" />
    <glyph glyph-name="florin.pl" horiz-adv-x="903" 
d="M72 582l37 176h233l84 262q24 75 70 131t103 86t115 44.5t117 14.5q163 0 216 -32l-84 -205q-79 18 -144 18q-46 0 -81.5 -21t-47.5 -57l-78 -241h273l-39 -176h-289l-182 -580q-32 -98 -91 -172.5t-131 -116.5t-145.5 -62t-146.5 -20v205q41 8 73 18.5t68 30t62 52
t40 77.5l181 568h-213z" />
    <glyph glyph-name="colonmonetary.pl" horiz-adv-x="1538" 
d="M1198 1481h143l-86 -271q156 -73 273 -209l-217 -135q-57 56 -133 103l-240 -756q157 38 309 149l152 -182q-114 -86 -252.5 -144.5t-288.5 -72.5l-78 -250h-143l78 248q-84 6 -168 31l-88 -279h-144l103 326q-151 77 -238.5 214t-87.5 312q0 132 56 258.5t151.5 225
t230.5 164t285 77.5l62 191h143l-62 -191q90 -9 168 -33zM621 227q82 -32 167 -32l265 831q-89 30 -168 33zM385 580q0 -163 117 -277l233 735q-151 -46 -250.5 -176t-99.5 -282z" />
    <glyph glyph-name="franc.pl" horiz-adv-x="1449" 
d="M14 219l35 164h213l187 872h1071l-52 -233h-782l-45 -215h483l-49 -232h-483l-41 -192h352l-35 -164h-352l-47 -219h-289l47 219h-213z" />
    <glyph glyph-name="lira.pl" horiz-adv-x="1484" 
d="M162 702l31 154h262l12 64q17 94 70.5 168t128 118t158 67t167.5 23q111 0 244.5 -39.5t245.5 -103.5l-164 -205q-84 48 -180 78.5t-166 30.5q-75 0 -140 -44.5t-79 -127.5l-7 -29h478l-31 -154h-473l-25 -141h467l-33 -153h-464q-23 -79 -73.5 -121.5t-141.5 -59.5h872
l-49 -227h-1260l41 227h88q105 0 155.5 38.5t76.5 142.5h-275l33 153h270l27 141h-266z" />
    <glyph glyph-name="peso.pl" horiz-adv-x="1726" 
d="M123 713l35 153h200l84 389h656q220 0 342 -125q101 -107 110 -264h168l-35 -153h-149q-39 -143 -154 -252q-76 -72 -167.5 -111t-227.5 -39h-455l-67 -311h-289l152 713h-203zM1178 616q44 41 65 97h-627l-32 -168h393q76 0 118.5 17.5t82.5 53.5zM1026 1022h-346
l-33 -156h608q-16 61 -53 101q-55 55 -176 55z" />
    <glyph glyph-name="peseta.pl" horiz-adv-x="3280" 
d="M1987 205l-25 -205q-31 -20 -100 -29.5t-123 -9.5q-110 0 -184 52.5t-74 168.5q0 40 8 76l115 539h-125q-26 -104 -117 -195q-151 -145 -414 -145h-475l-100 -457h-289l272 1255h686q233 0 351 -127q56 -62 77 -129h177l59 283h272l-61 -283h248l-43 -202h-248l-107 -508
q-4 -24 -4 -33q0 -66 92 -66q59 0 132 15zM3195 881l-131 -183q-79 53 -185 90t-188 37q-62 0 -104 -22t-43 -68q-1 -20 8.5 -36t22 -25.5t37 -18t43.5 -12.5t52 -10q38 -6 61 -10.5t62.5 -13.5t65 -17.5t60 -23t57.5 -30.5t47.5 -39.5t39 -50t24 -62t9.5 -75.5
q0 -107 -61 -186.5t-165 -119.5t-238 -40q-152 0 -294 52.5t-255 152.5l131 184q82 -76 199 -128t223 -52q77 0 128.5 30t51.5 85q0 23 -11 41t-25.5 29t-41.5 20t-46 13.5t-52 10.5q-57 10 -90 16.5t-82.5 19.5t-78.5 27t-63 36.5t-52.5 49.5t-31 65t-12.5 85
q0 155 116.5 244.5t307.5 89.5q129 0 263.5 -41.5t240.5 -113.5zM594 1016l-70 -320h437q124 0 194 64q47 44 47 112q0 57 -39 99q-45 45 -141 45h-428z" />
    <glyph glyph-name="rupiah.pl" horiz-adv-x="2779" 
d="M377 0h-291l274 1255h684q232 0 351 -125q98 -106 98 -239t-98 -245.5t-248 -153.5l186 -492h-313l-164 469h-377zM598 1016l-68 -309h459q50 0 96 17.5t74 45.5q45 42 45 102q0 57 -39 99q-45 45 -141 45h-426zM1436 -424l245 1145q36 170 39 278h254q2 -38 -6 -116
q31 28 55.5 47.5t67 46.5t94 41t107.5 14q117 0 207 -62t137 -163.5t47 -224.5q0 -111 -41 -220t-111.5 -196t-175 -141t-221.5 -54q-92 0 -166 35t-143 111l-115 -541h-274zM1946 668l-76 -359q43 -45 106 -76.5t129 -31.5q121 -1 201 108t80 248q0 102 -46 173t-138 71
q-129 0 -256 -133z" />
    <glyph glyph-name="Rupee.pl" horiz-adv-x="1662" 
d="M229 713l33 153h840q-16 61 -53 101q-55 52 -164 55h-588l49 233h1329l-33 -153h-362q51 -38 81.5 -102.5t35.5 -133.5h194l-32 -153h-177q-37 -149 -155 -252q-145 -121 -396 -121l-165 8l487 -348h-432l-557 389l33 156h626q76 0 118.5 17.5t82.5 53.5q45 42 66 97
h-861z" />
    <glyph glyph-name="section.pl" horiz-adv-x="1443" 
d="M1341 467q0 -155 -137 -272q-60 -54 -155 -95q11 -18 14 -37q8 -31 8 -69q-1 -69 -27.5 -127.5t-71.5 -99.5t-105 -69.5t-127.5 -42t-139.5 -13.5q-131 0 -260 43.5t-238 121.5l152 175q185 -121 360 -121q164 0 164 100q0 26 -12 41q-6 8 -15.5 14.5t-24.5 13t-27.5 11
t-36 11t-37.5 10t-45.5 11t-47.5 11.5q-295 73 -401 203q-72 82 -72 190q0 151 136 271q56 50 155 94q-8 15 -16 53q-4 28 -4 55q0 86 41.5 154.5t110 110t151 63.5t170.5 22q130 0 262 -43.5t244 -121.5l-152 -177q-85 55 -187 91t-190 36q-62 0 -106 -21.5t-51 -68.5
q-3 -31 14 -51q13 -16 43.5 -29.5t63 -22t94.5 -23.5q20 -5 30 -7q292 -67 400 -203q73 -83 73 -192zM782 627q-18 4 -70 16t-79 19t-67.5 20.5t-71.5 28.5q-28 -14 -62 -43q-88 -73 -88 -156q0 -48 31 -82q24 -31 69.5 -54t81.5 -33.5t95 -23.5q10 -2 42 -9.5t44.5 -10.5
t40.5 -10t44 -12t38.5 -12t41.5 -15t37 -17q35 20 60 43q86 71 86 154q0 44 -31 84q-58 73 -242 113z" />
    <glyph glyph-name="numbersign.pl" horiz-adv-x="1775" 
d="M1280 1364h186l-102 -365h418l-45 -213h-432l-103 -362h397l-45 -211h-411l-119 -428h-186l118 428h-346l-118 -428h-187l119 428h-412l43 211h428l103 362h-396l46 213h409l103 365h186l-103 -365h347zM772 786l-102 -362h346l102 362h-346z" />
    <glyph glyph-name="percent.pl" horiz-adv-x="2224" 
d="M1464 1337h236l-899 -1337h-238zM1249 330q0 110 64 207.5t172 155t231 57.5q166 0 279.5 -106.5t113.5 -256.5q0 -111 -66 -208.5t-175.5 -154.5t-231.5 -57q-166 0 -276.5 105.5t-110.5 257.5zM1497 342q0 -68 45.5 -117t112.5 -49q82 0 144.5 60t62.5 139
q0 69 -47.5 118.5t-116.5 49.5q-80 0 -140.5 -59.5t-60.5 -141.5zM158 967q8 163 145.5 283t319.5 120q166 0 279.5 -106t113.5 -256q0 -111 -66 -208.5t-175 -154.5t-230 -57q-172 0 -284 110.5t-103 268.5zM406 969q-5 -71 40.5 -121.5t114.5 -50.5q82 0 144.5 59.5
t62.5 138.5q0 69 -47.5 118.5t-116.5 49.5q-78 0 -136.5 -57.5t-61.5 -136.5z" />
    <glyph glyph-name="perthousand.pl" horiz-adv-x="3153" 
d="M1462 1337h236l-901 -1337h-236zM1245 330q0 110 64 207.5t172 155t231 57.5q166 0 279.5 -106.5t113.5 -256.5q0 -111 -66 -208.5t-175.5 -154.5t-231.5 -57q-166 0 -276.5 105.5t-110.5 257.5zM1493 342q0 -68 45.5 -117t112.5 -49q82 0 145.5 60t63.5 139
q0 69 -48.5 118.5t-117.5 49.5q-80 0 -140.5 -59.5t-60.5 -141.5zM2185 330q0 110 64 207.5t172 155t231 57.5q166 0 279.5 -106.5t113.5 -256.5q0 -111 -66 -208.5t-175.5 -154.5t-231.5 -57q-166 0 -276.5 105.5t-110.5 257.5zM2433 342q0 -68 45.5 -117t112.5 -49
q82 0 144.5 60t62.5 139q0 69 -47.5 118.5t-116.5 49.5q-80 0 -140.5 -59.5t-60.5 -141.5zM158 967q8 163 145.5 283t319.5 120q166 0 279.5 -106t113.5 -256q0 -111 -66 -208.5t-175 -154.5t-230 -57q-172 0 -283.5 110.5t-103.5 268.5zM406 969q-3 -71 42 -121.5
t115 -50.5q80 0 143.5 59.5t63.5 138.5q0 69 -48.5 118.5t-117.5 49.5q-78 0 -136.5 -57.5t-61.5 -136.5z" />
    <glyph glyph-name="zero.tl" horiz-adv-x="1538" 
d="M100 571q0 195 105 363t276.5 265t362.5 97q172 0 314 -80.5t223 -220.5t81 -309q0 -117 -40 -228.5t-112 -200.5t-165 -156.5t-205 -104.5t-227 -37q-173 0 -314 81.5t-220 221.5t-79 309zM389 590q0 -158 98 -270.5t246 -112.5q112 0 212.5 63t162 170t61.5 228
q0 158 -99.5 268.5t-248.5 110.5q-170 0 -301 -136.5t-131 -320.5z" />
    <glyph glyph-name="one.tl" horiz-adv-x="1538" 
d="M135 0l47 229h463l160 756l-467 -141l-12 231l565 180h264l-219 -1026h371l-50 -229h-1122z" />
    <glyph glyph-name="two.tl" horiz-adv-x="1538" 
d="M391 911l-121 207q91 44 143.5 67t137.5 54t167.5 45t170.5 14q59 0 120.5 -7.5t130.5 -23.5t128.5 -45.5t108.5 -69t77.5 -98.5t28.5 -130q0 -63 -22.5 -116.5t-63 -93t-91 -71.5t-112.5 -55t-120.5 -40t-122 -31t-110.5 -23q-26 -5 -38 -7q-99 -16 -162.5 -31t-124 -40
t-96.5 -62.5t-55 -91.5l-13 -33h948l-40 -229h-1240l52 260q82 375 735 471q178 26 252 52q133 47 133 128q0 43 -31.5 73.5t-82.5 45.5t-99 21t-96 6q-123 0 -239.5 -38t-252.5 -108z" />
    <glyph glyph-name="three.tl" horiz-adv-x="1538" 
d="M395 899l-127 195q350 202 633 202q90 0 179 -23t164 -65t122 -111t47 -153q0 -92 -56 -163.5t-147 -104.5q79 -38 133 -109.5t54 -179.5q0 -104 -56 -188t-149.5 -135t-208.5 -78t-240 -27q-222 0 -413 85.5t-332 266.5l201 170q105 -138 251 -211t312 -73q92 0 169 20
t129 66.5t52 111.5q0 42 -21.5 74t-54 48t-63.5 24t-58 8h-266l47 219h248q73 0 121.5 38.5t48.5 98.5q0 54 -39.5 90t-89 49t-104.5 13q-210 0 -486 -158z" />
    <glyph glyph-name="four.tl" horiz-adv-x="1538" 
d="M1444 483l-47 -219h-230l-55 -264h-289l54 264h-889l37 176l1087 815h262l-162 -772h232zM455 492v-9h469l86 416h-23z" />
    <glyph glyph-name="five.tl" horiz-adv-x="1538" 
d="M1438 1255l-66 -239h-811l-55 -258q168 84 354 84q72 0 145 -11.5t149 -41t133.5 -73t94.5 -113.5t37 -157q0 -99 -37.5 -181t-101 -138.5t-149.5 -95t-181.5 -56.5t-197.5 -18q-230 0 -410.5 70.5t-337.5 212.5l166 194q114 -116 266 -177.5t324 -61.5q60 0 119 11.5
t114.5 36t90 70.5t34.5 107q0 54 -34.5 94.5t-89.5 62t-111 31.5t-111 10q-101 0 -192.5 -23.5t-210.5 -68.5l-146 140l125 589h1090z" />
    <glyph glyph-name="six.tl" horiz-adv-x="1538" 
d="M1473 1118l-177 -190q-175 129 -403 129q-173 0 -315.5 -102t-178.5 -269q249 139 486 139q73 0 146.5 -15t142.5 -47t122 -77.5t85 -112t32 -145.5q0 -110 -53.5 -200.5t-141.5 -148t-198 -89t-227 -31.5q-99 0 -196 24t-184.5 74t-154 119.5t-106 167.5t-39.5 211
q0 206 106 376.5t287.5 267.5t396.5 97q316 0 570 -178zM797 606q-183 0 -404 -92q25 -148 139 -234t277 -83q50 2 101.5 14.5t100.5 37t80 67.5t31 98q0 53 -31 92.5t-82 60t-104 30t-108 9.5z" />
    <glyph glyph-name="seven.tl" horiz-adv-x="1538" 
d="M182 1006l43 249h1358l-43 -231l-1028 -1024h-377l1053 1006h-1006z" />
    <glyph glyph-name="eight.tl" horiz-adv-x="1538" 
d="M63 387q0 135 103.5 228.5t267.5 123.5q-180 66 -180 213q0 76 38 138t96.5 100t134.5 63.5t147 36t139 10.5q73 0 152 -11.5t164 -40.5t152 -71.5t110 -110.5t43 -151q0 -104 -76 -171.5t-203 -90.5q106 -41 174 -119.5t68 -179.5q0 -84 -41.5 -153t-107 -113.5
t-150.5 -75.5t-168 -44t-162 -13q-57 0 -119.5 7t-131 23.5t-132.5 40t-122.5 59t-101.5 78.5t-68.5 101t-25.5 123zM379 416q-6 -57 34 -102.5t105.5 -70.5t132 -37.5t123.5 -12.5q44 0 93 9t100.5 27.5t84.5 55.5t33 86q0 56 -41.5 99t-105 65.5t-125.5 33.5t-117 11
q-42 0 -88.5 -7t-98.5 -23.5t-88 -51.5t-42 -82zM561 938q0 -47 37 -80.5t94.5 -49t107.5 -22t95 -6.5q36 0 69.5 5t70 17.5t59 39.5t22.5 65q0 44 -30 79.5t-77 55t-97 29.5t-97 10q-37 0 -77.5 -7t-82 -22t-68 -44.5t-26.5 -69.5z" />
    <glyph glyph-name="nine.tl" horiz-adv-x="1538" 
d="M88 135l176 191q81 -60 186.5 -93.5t217.5 -33.5q111 -1 214 43t179 130t100 197q-249 -139 -485 -139q-73 0 -146.5 15t-142.5 47t-122.5 77t-85.5 111.5t-32 144.5q0 88 35 165t95.5 132t140 95t169 59.5t181.5 19.5q99 0 196 -24.5t184.5 -74.5t154 -120t106 -168
t39.5 -211q0 -205 -106.5 -375.5t-288 -267t-396.5 -96.5q-314 0 -569 176zM764 649q175 0 401 90q-25 148 -137.5 234.5t-273.5 83.5q-50 -1 -102.5 -13.5t-102 -37t-80.5 -68t-31 -98.5q0 -53 31.5 -92.5t82.5 -60t104 -29.5t108 -9z" />
    <glyph glyph-name="dollar.tl" horiz-adv-x="1538" 
d="M1446 1067l-189 -172q-100 95 -268 139l-67 -270q58 -11 104 -22t100 -29t94.5 -38t80 -49t64.5 -63.5t40.5 -81t15.5 -100.5q0 -133 -81 -229.5t-218 -144.5t-313 -48q-28 0 -82 4l-63 -250h-197l70 277q-298 68 -510 286l176 173q172 -172 401 -236l84 332
q-71 13 -121.5 25t-112.5 32.5t-103.5 46.5t-79 62t-56 86t-18.5 112q0 95 44.5 170t121.5 121.5t175.5 71t211.5 24.5q58 0 120 -6l50 191h196l-59 -226q225 -58 389 -188zM1133 344q0 66 -70 104t-205 66l-84 -328q16 -2 49 -2q57 0 109 8.5t99 26t74.5 50t27.5 75.5z
M483 944q0 -61 68.5 -94.5t200.5 -56.5l69 272q-66 4 -92 4q-246 0 -246 -125z" />
    <glyph glyph-name="cent.tl" horiz-adv-x="1538" 
d="M956 1194h205l-65 -193q199 -49 331 -147l-188 -168q-101 61 -229 94l-199 -581q194 3 375 86l137 -197q-64 -39 -207 -79t-323 -40q-34 0 -50 2l-88 -258h-204l96 283q-207 48 -328 174.5t-121 302.5q0 109 56 211t152 178.5t233 123t290 46.5q11 0 34.5 -1t35.5 -1z
M393 469q0 -79 65.5 -147.5t176.5 -100.5l196 580q-123 -1 -225 -48.5t-157.5 -123t-55.5 -160.5z" />
    <glyph glyph-name="Euro.tl" horiz-adv-x="1538" 
d="M1516 1028l-213 -139q-67 70 -164.5 116t-198.5 46q-100 0 -189 -53t-149 -142h518l-33 -154h-555q-16 -55 -16 -127v-14h545l-35 -153h-475q41 -94 121.5 -149.5t189.5 -55.5q198 0 398 137l143 -186q-116 -85 -259.5 -139t-295.5 -54q-226 0 -393.5 121.5t-218.5 325.5
h-191l35 153h137q0 75 14 141h-125l33 154h144q89 192 268.5 315t396.5 123q165 0 316.5 -70t251.5 -196z" />
    <glyph glyph-name="sterling.tl" horiz-adv-x="1538" 
d="M129 582l35 176h278l29 162q17 93 72.5 167.5t132.5 118.5t163 67t173 23q113 0 252 -39t258 -104l-164 -205q-89 48 -190.5 78.5t-174.5 30.5q-82 0 -151.5 -44.5t-85.5 -127.5l-23 -127h498l-35 -176h-494l-20 -121q-19 -106 -71 -160t-160 -74h915l-45 -227h-1313
l45 227h90q122 0 173.5 48t74.5 186l21 121h-283z" />
    <glyph glyph-name="yen.tl" horiz-adv-x="1538" 
d="M131 702l33 154h315l-198 399h333l191 -432l375 432h360l-369 -399h314l-33 -154h-422l-125 -135l-2 -6h520l-32 -153h-521l-86 -408h-288l86 408h-510l30 153h512l4 14l-63 127h-424z" />
    <glyph glyph-name="florin.tl" horiz-adv-x="1538" 
d="M387 582l39 176h231l84 262q24 75 70.5 131t104 86t115.5 44.5t116 14.5q164 0 217 -32l-84 -205q-83 18 -143 18q-48 0 -82.5 -21t-46.5 -57l-78 -241h270l-37 -176h-289l-184 -580q-32 -98 -90.5 -172.5t-130.5 -116.5t-145.5 -62t-147.5 -20l2 205q41 8 72.5 18.5
t67.5 30t62.5 52t41.5 77.5l180 568h-215z" />
    <glyph glyph-name="colonmonetary.tl" horiz-adv-x="1538" 
d="M1548 1001l-217 -135q-65 62 -145 107l-244 -762q170 41 326 151l151 -182q-264 -193 -557 -217l-80 -250h-143l80 248q-87 6 -178 31l-88 -279h-144l105 326q-158 77 -249 214.5t-91 313.5q0 132 57.5 258.5t155 224.5t235.5 163t291 77l61 191h146l-62 -191
q78 -5 177 -33l71 224h144l-86 -269q166 -74 284 -211zM616 227q85 -32 177 -32l268 833q-89 28 -176 31zM367 582q0 -170 129 -283l237 739q-158 -46 -262 -175t-104 -281z" />
    <glyph glyph-name="franc.tl" horiz-adv-x="1538" 
d="M14 219l31 164h231l187 872h1145l-49 -233h-857l-49 -215h531l-47 -232h-531l-41 -192h381l-33 -164h-383l-47 -219h-288l47 219h-228z" />
    <glyph glyph-name="lira.tl" horiz-adv-x="1538" 
d="M162 702l28 154h277l12 64q17 93 72.5 167.5t132.5 118.5t163 67t173 23q113 0 252 -39t258 -104l-164 -205q-89 48 -190.5 78.5t-174.5 30.5q-82 0 -151.5 -44.5t-85.5 -127.5l-6 -29h502l-31 -154h-498l-24 -141h489l-31 -153h-487q-24 -79 -74.5 -121.5t-144.5 -59.5
h915l-45 -227h-1313l45 227h91q110 0 161.5 38t75.5 143h-291l31 153h287l24 141h-278z" />
    <glyph glyph-name="peso.tl" horiz-adv-x="1538" 
d="M86 713l33 153h196l84 389h572q220 0 342 -125q103 -106 112 -264h146l-35 -153h-127q-39 -143 -154 -252q-75 -72 -168 -111t-229 -39h-373l-65 -311h-291l154 713h-197zM1053 616q44 41 65 97h-547l-32 -168h313q76 0 118.5 17.5t82.5 53.5zM899 1022h-264l-33 -156
h526q-12 60 -53 101q-55 55 -176 55z" />
    <glyph glyph-name="Rupee.tl" horiz-adv-x="1538" 
d="M141 713l33 153h840q-16 61 -53 101q-55 52 -164 55h-588l49 233h1329l-33 -153h-362q51 -38 81.5 -102.5t35.5 -133.5h194l-33 -153h-176q-37 -149 -155 -252q-145 -121 -396 -121l-165 8l487 -348h-432l-557 389l33 156h626q76 0 118.5 17.5t82.5 53.5q44 41 65 97
h-860z" />
    <glyph glyph-name="section.tl" horiz-adv-x="1538" 
d="M1290 195q-70 -56 -172 -95q7 -8 21 -37q10 -29 10 -73q0 -69 -28 -126.5t-75 -98t-110.5 -68.5t-134.5 -41.5t-146 -13.5q-288 0 -540 165l149 175q205 -121 400 -121q192 0 192 100q0 23 -14 41q-11 11 -28 19.5t-47 17.5t-51 14t-68.5 15.5t-69.5 15.5
q-328 71 -445 203q-78 81 -78 194q0 153 146 267q56 46 172 94q-14 20 -21 53q-8 19 -8 59q0 85 44 153t116.5 109t159 62.5t178.5 21.5q140 0 282 -43.5t262 -121.5l-149 -177q-92 55 -204 91t-210 36q-73 0 -126 -21.5t-60 -68.5q-3 -31 14 -51q6 -6 14 -11.5t19.5 -10.5
t21 -9t27 -9t28.5 -8t34 -8t36 -8t41.5 -9t42.5 -9q323 -66 445 -203q78 -88 78 -196q0 -156 -148 -268zM836 627q-24 5 -76.5 16t-86 18.5t-77.5 21t-78 28.5q-37 -15 -80 -43q-98 -72 -98 -154q0 -52 37 -84q27 -31 79 -54t93 -33.5t108 -23.5q7 -2 53.5 -11t59.5 -12
t51 -12t57.5 -15t47 -16t49.5 -20q40 16 78 43q98 69 98 152q0 49 -37 86q-67 74 -278 113z" />
    <glyph glyph-name="numbersign.tl" horiz-adv-x="1538" 
d="M1128 1364h179l-101 -365h367l-49 -213h-375l-98 -362h348l-51 -211h-355l-116 -428h-179l117 428h-293l-116 -428h-179l117 428h-362l49 211h370l99 362h-346l49 213h354l100 365h179l-101 -365h293zM678 786l-98 -362h292l99 362h-293z" />
    <glyph glyph-name="percent.tl" horiz-adv-x="1538" 
d="M1251 1337l-731 -1337h-198l735 1337h194zM862 307q0 177 110.5 310t252.5 133q115 0 191.5 -99t76.5 -241q0 -116 -53 -219t-138 -163.5t-178 -60.5q-114 0 -188 98t-74 242zM1067 313q0 -59 23 -98t63 -39q53 0 95 67t42 158q0 60 -25 101t-65 41q-52 0 -92.5 -68
t-40.5 -162zM86 928q0 177 110 309.5t253 132.5q115 0 191.5 -99t76.5 -241q0 -87 -31.5 -169t-83 -141.5t-118.5 -95.5t-136 -36q-114 0 -188 98t-74 242zM289 934q0 -59 23.5 -98t62.5 -39q53 0 95 67t42 158q0 61 -24 101t-66 40q-52 0 -92.5 -67.5t-40.5 -161.5z" />
    <glyph glyph-name="zero.numerator" horiz-adv-x="1185" 
d="M137 860q0 137 79 255t209 185.5t277 67.5q205 0 345.5 -127.5t140.5 -312.5q0 -102 -47.5 -196.5t-126 -162.5t-182.5 -108.5t-214 -40.5q-205 0 -343 128t-138 312zM379 872q0 -104 72 -177.5t182 -73.5q123 0 217 89.5t94 207.5q0 102 -74.5 174.5t-183.5 72.5
q-122 0 -214.5 -87t-92.5 -206z" />
    <glyph glyph-name="one.numerator" horiz-adv-x="667" 
d="M152 1028l-2 195l294 114h222l-181 -886h-243l137 663z" />
    <glyph glyph-name="two.numerator" horiz-adv-x="987" 
d="M319 1069l-94 168q82 43 131 66t130.5 45t158.5 22q45 0 92.5 -7t100.5 -26t93.5 -47.5t67.5 -76t27 -107.5q0 -54 -20 -99.5t-57 -77t-78 -55t-94 -40.5t-94 -28t-88 -21l-15 -3q-53 -12 -80.5 -19t-59 -17.5t-46.5 -21.5t-28 -27.5t-20 -39.5l-6 -20h565l-39 -186h-807
l41 198q55 260 478 330q121 21 164 49q40 25 40 62q0 26 -15.5 44.5t-40 26.5t-46.5 11.5t-43 3.5q-129 0 -318 -107z" />
    <glyph glyph-name="three.numerator" horiz-adv-x="1093" 
d="M346 1063l-104 158q259 147 460 147q91 0 173 -28t138 -87t56 -137q0 -65 -35.5 -113.5t-97.5 -72.5q123 -68 123 -205q0 -97 -68.5 -168t-173.5 -104t-231 -33q-336 0 -533 254l164 137q75 -97 174 -148t209 -51q94 0 157.5 32t63.5 89q0 49 -40 70.5t-85 21.5h-188
l37 176h178q45 0 71.5 24.5t26.5 59.5q0 47 -42 69t-95 22q-71 0 -161.5 -32t-176.5 -81z" />
    <glyph glyph-name="four.numerator" horiz-adv-x="1161" 
d="M1155 807l-39 -178h-168l-37 -178h-241l37 178h-652l29 137l797 571h217l-113 -530h170zM442 811v-4h303l52 242h-17z" />
    <glyph glyph-name="five.numerator" horiz-adv-x="1079" 
d="M1071 1337l-57 -192h-539l-33 -160q124 62 244 62q61 0 122 -14.5t119.5 -44.5t95 -87t36.5 -133q0 -88 -40 -156.5t-107.5 -110t-151 -62.5t-176.5 -21q-161 0 -284 39t-234 118l120 170q163 -135 406 -135q35 0 70 7t69 21.5t55 42t21 64.5q0 43 -36 71.5t-78 38
t-85 9.5q-112 0 -280 -63l-119 110l90 426h772z" />
    <glyph glyph-name="six.numerator" horiz-adv-x="1101" 
d="M1120 1251l-143 -155q-132 78 -283 78q-70 1 -136 -26t-116 -82.5t-67 -127.5q169 96 332 96q65 0 129 -18t118.5 -51t88.5 -88.5t34 -122.5q0 -104 -66.5 -182t-166.5 -115t-215 -37q-89 0 -175.5 28t-158.5 79t-116 133.5t-44 181.5q0 147 76 268t206 189.5t285 68.5
q220 0 418 -117zM633 858q-116 0 -260 -55q22 -91 94.5 -143t175.5 -48q41 1 82.5 12.5t76 42t34.5 74.5q0 33 -20 57t-52 36.5t-65 18t-66 5.5z" />
    <glyph glyph-name="seven.numerator" horiz-adv-x="987" 
d="M174 1135l43 202h881l-39 -186l-641 -700h-312l656 684h-588z" />
    <glyph glyph-name="eight.numerator" horiz-adv-x="1110" 
d="M104 727q0 91 64.5 157.5t177.5 92.5q-113 46 -113 143q0 54 27.5 98.5t70.5 72t98.5 46t108 26t103.5 7.5q54 0 111.5 -8t120.5 -28.5t112 -51t81 -80t32 -110.5q0 -69 -47.5 -117t-135.5 -68q67 -29 110.5 -84.5t43.5 -122.5q0 -73 -44.5 -130t-115 -89.5t-146 -48.5
t-149.5 -16q-60 0 -125.5 10t-135 34t-124.5 58.5t-90 88.5t-35 120zM367 748q-6 -35 20 -63.5t68.5 -43.5t86 -23t79.5 -8q28 0 58.5 5t62 16t51.5 32.5t20 51.5q0 35 -26.5 62t-67.5 40.5t-80.5 20t-75.5 6.5q-26 0 -54 -4t-60.5 -13t-55 -29.5t-26.5 -49.5zM487 1108
q0 -29 23.5 -50t60.5 -30.5t68 -13.5t59 -4q22 0 43 2.5t44.5 10t38 23.5t14.5 39q0 28 -19.5 50t-49.5 34t-62 18.5t-62 6.5q-23 0 -47.5 -4t-50.5 -13t-43 -27t-17 -42z" />
    <glyph glyph-name="nine.numerator" horiz-adv-x="1101" 
d="M121 537l143 155q126 -80 281 -80q109 0 201.5 64t119.5 172q-173 -96 -334 -96q-87 0 -169 30t-140.5 96.5t-58.5 155.5q0 104 66.5 182t166 115t213.5 37q71 0 141 -17t134 -53t113.5 -85.5t78.5 -119t29 -149.5q0 -147 -76 -267.5t-206 -188.5t-285 -68
q-229 0 -418 117zM608 930q123 0 258 55q-20 89 -92.5 141t-175.5 50q-30 -2 -61 -9.5t-61.5 -22t-50 -40.5t-19.5 -60q0 -43 35 -70t77 -35.5t90 -8.5z" />
    <glyph glyph-name="zero.denominator" horiz-adv-x="1187" 
d="M43 410q0 137 79 255t209 185.5t277 67.5q205 0 345.5 -128t140.5 -313q0 -102 -47.5 -196.5t-126 -162.5t-182.5 -108.5t-214 -40.5q-204 0 -342.5 128.5t-138.5 312.5zM285 422q0 -104 72 -178t182 -74q123 0 217 89.5t94 207.5q0 102 -74.5 175t-183.5 73
q-122 0 -214.5 -87t-92.5 -206z" />
    <glyph glyph-name="one.denominator" horiz-adv-x="665" 
d="M55 578l-2 194l295 115h221l-182 -887h-244l140 664z" />
    <glyph glyph-name="two.denominator" horiz-adv-x="987" 
d="M223 618l-94 168q63 33 98.5 50t93 40t113.5 33.5t115 10.5q45 0 92.5 -7t100.5 -26t93.5 -48t67.5 -76.5t27 -107.5q0 -47 -17.5 -87t-38 -68t-65 -54.5t-70.5 -40t-85.5 -31t-77 -21.5t-76.5 -17q-11 -3 -17 -4q-125 -27 -171 -49.5t-62 -75.5l-6 -21h565l-39 -186
h-807l41 199q55 259 477 329q121 21 164 48q41 26 41 63q0 26 -15.5 44.5t-40 26.5t-46.5 11.5t-43 3.5q-129 0 -318 -107z" />
    <glyph glyph-name="three.denominator" horiz-adv-x="1093" 
d="M250 612l-105 158q261 148 461 148q91 0 173 -28t138 -87t56 -137q0 -65 -35.5 -114t-97.5 -73q123 -68 123 -205q0 -97 -68.5 -168t-174 -104t-231.5 -33q-335 0 -532 254l164 137q75 -96 173.5 -147t209.5 -51q94 0 157.5 32t63.5 89q0 49 -40 70.5t-85 21.5h-188
l37 176h178q45 0 71.5 24.5t26.5 59.5q0 47 -42 68.5t-95 21.5q-71 0 -161.5 -32t-176.5 -81z" />
    </font>
</defs>
</svg>
