<?xml version="1.0" standalone="no"?>
<!DOCTYPE svg PUBLIC "-//W3C//DTD SVG 1.1//EN" "http://www.w3.org/Graphics/SVG/1.1/DTD/svg11.dtd" >
<svg xmlns="http://www.w3.org/2000/svg" xmlns:xlink="http://www.w3.org/1999/xlink" version="1.1">
<metadata>
Created by FontForge 20170731 at Tue Sep 29 10:57:04 2020
 By Aleksey,,,
Copyright (C) 2011 Markanna Studios Inc.www.SweetFonts.com
</metadata>
<defs>
<font id="SweetSansPro-Bold" horiz-adv-x="1015" >
  <font-face 
    font-family="Sweet Sans Pro"
    font-weight="700"
    font-stretch="normal"
    units-per-em="2048"
    panose-1="2 0 0 0 0 0 0 0 0 0"
    ascent="1577"
    descent="-471"
    x-height="999"
    cap-height="1337"
    bbox="-274 -629 3191 2247"
    underline-thickness="114"
    underline-position="-376"
    unicode-range="U+000D-FB04"
  />
<missing-glyph horiz-adv-x="1185" 
d="M0 0v1337h1186v-1337h-1186zM592 516l-291 -328h582zM301 1149l291 -328l291 328h-582zM727 668l250 -279v559zM457 668l-248 280v-559z" />
    <glyph glyph-name="f_f" unicode="ff" horiz-adv-x="1462" 
d="M1200 1157v-158h246v-202h-246v-797h-272v797h-416v-797h-272v797h-172v202h172v158q0 65 19 117t50 85.5t74 56t87.5 31.5t92.5 9q52 0 118 -11t93 -24l-29 -209q-71 23 -139 23q-43 0 -68.5 -21t-25.5 -57v-158h416v158q0 65 19 117t50 85.5t74 56t87.5 31.5t92.5 9
q52 0 118 -11t93 -24l-28 -209q-27 9 -71.5 16t-68.5 7q-43 0 -68.5 -21t-25.5 -57z" />
    <glyph glyph-name="f_i" unicode="fi" horiz-adv-x="1363" 
d="M68 999h172v158q0 65 19 117t50 85.5t74 56t87.5 31.5t92.5 9q52 0 118 -11t93 -24l-29 -209q-71 23 -139 23q-43 0 -68.5 -21t-25.5 -57v-158h246v-202h-246v-797h-272v797h-172v202zM1208 0h-274v999h274v-999zM907 1303q0 62 46.5 105.5t115.5 43.5t117.5 -44.5
t48.5 -104.5t-48.5 -103t-117.5 -43q-68 0 -115 42.5t-47 103.5z" />
    <glyph glyph-name="f_l" unicode="fl" horiz-adv-x="1376" 
d="M68 999h172v158q0 65 19 117t50 85.5t74 56t87.5 31.5t92.5 9q52 0 118 -11t93 -24l-29 -209q-71 23 -139 23q-43 0 -68.5 -21t-25.5 -57v-158h246v-202h-246v-797h-272v797h-172v202zM1212 0h-272v1434h272v-1434z" />
    <glyph glyph-name="f_f_i" unicode="ffi" horiz-adv-x="2052" 
d="M928 0v797h-416v-797h-272v797h-172v202h172v158q0 65 19 117t50 85.5t74 56t87.5 31.5t92.5 9q52 0 118 -11t93 -24l-29 -209q-71 23 -139 23q-43 0 -68.5 -21t-25.5 -57v-158h416v158q0 65 19 117t50 85.5t74 56t87.5 31.5t92.5 9q52 0 118 -11t93 -24l-28 -209
q-27 9 -71.5 16t-68.5 7q-43 0 -68.5 -21t-25.5 -57v-158h246v-202h-246v-797h-272zM1622 0v999h274v-999h-274zM1757 1157q-68 0 -115 42.5t-47 103.5q0 62 46.5 105.5t115.5 43.5t117.5 -44.5t48.5 -104.5t-48.5 -103t-117.5 -43z" />
    <glyph glyph-name="f_f_l" unicode="ffl" horiz-adv-x="2064" 
d="M928 0v797h-416v-797h-272v797h-172v202h172v158q0 65 19 117t50 85.5t74 56t87.5 31.5t92.5 9q52 0 118 -11t93 -24l-29 -209q-71 23 -139 23q-43 0 -68.5 -21t-25.5 -57v-158h416v158q0 65 19 117t50 85.5t74 56t87.5 31.5t92.5 9q52 0 118 -11t93 -24l-28 -209
q-27 9 -71.5 16t-68.5 7q-43 0 -68.5 -21t-25.5 -57v-158h246v-202h-246v-797h-272zM1628 0v1434h273v-1434h-273z" />
    <glyph glyph-name="f_j" unicode="fj" horiz-adv-x="1363" 
d="M68 999h172v158q0 65 19 117t50 85.5t74 56t87.5 31.5t92.5 9q52 0 118 -11t93 -24l-29 -209q-71 23 -139 23q-43 0 -68.5 -21t-25.5 -57v-158h246v-202h-246v-797h-272v797h-172v202zM821 -467l-76 203q43 10 69 18.5t57.5 27.5t47 51t15.5 77v1089h274v-1089
q0 -80 -24.5 -146t-63.5 -108t-90.5 -70.5t-103.5 -40.5t-105 -12zM907 1303q0 62 46.5 105.5t115.5 43.5t117.5 -44.5t48.5 -104.5t-48.5 -103t-117.5 -43q-68 0 -115 42.5t-47 103.5z" />
    <glyph glyph-name="f_f_j" unicode="ffj" horiz-adv-x="2052" 
d="M928 0v797h-416v-797h-272v797h-172v202h172v158q0 65 19 117t50 85.5t74 56t87.5 31.5t92.5 9q52 0 118 -11t93 -24l-29 -209q-71 23 -139 23q-43 0 -68.5 -21t-25.5 -57v-158h416v158q0 65 19 117t50 85.5t74 56t87.5 31.5t92.5 9q52 0 118 -11t93 -24l-28 -209
q-27 9 -71.5 16t-68.5 7q-43 0 -68.5 -21t-25.5 -57v-158h246v-202h-246v-797h-272zM1509 -467l-75 203q34 7 55 13.5t49 20t44.5 30.5t28 45t11.5 65v1089h274v-1089q0 -80 -24.5 -146t-63.5 -108t-90.5 -70.5t-103.5 -40.5t-105 -12zM1759 1157q-70 0 -117 42.5t-47 103.5
q0 62 47 105.5t117 43.5q68 0 116 -44t48 -105q0 -60 -47.5 -103t-116.5 -43z" />
    <glyph glyph-name="f_t" unicode="ft" horiz-adv-x="1523" 
d="M512 1157v-158h424v283h274v-283h246v-202h-246v-518q0 -89 107 -89q37 0 129 15l20 -205q-27 -20 -94.5 -29.5t-122.5 -9.5q-46 0 -89 9t-84.5 31.5t-72 55.5t-49 84.5t-18.5 116.5v539h-424v-797h-272v797h-172v202h172v158q0 65 19 117t50 85.5t74 56t87.5 31.5
t92.5 9q52 0 118 -11t93 -24l-29 -209q-71 23 -139 23q-43 0 -68.5 -21t-25.5 -57z" />
    <glyph glyph-name="f_f_t" unicode="fft" horiz-adv-x="2211" 
d="M68 797v202h172v158q0 65 19 117t50 85.5t74 56t87.5 31.5t92.5 9q52 0 118 -11t93 -24l-29 -209q-71 23 -139 23q-43 0 -68.5 -21t-25.5 -57v-158h416v158q0 65 19 117t50 85.5t74 56t87.5 31.5t92.5 9q52 0 118 -11t93 -24l-28 -209q-27 9 -71.5 16t-68.5 7
q-43 0 -68.5 -21t-25.5 -57v-158h424v283h274v-283h246v-202h-246v-518q0 -89 107 -89q37 0 129 15l20 -205q-27 -20 -94.5 -29.5t-122.5 -9.5q-46 0 -89 9t-84.5 31.5t-72 55.5t-49 84.5t-18.5 116.5v539h-424v-797h-272v797h-416v-797h-272v797h-172z" />
    <glyph glyph-name="t_t" unicode="tt" horiz-adv-x="1583" 
d="M45 797v202h174v283h273v-283h485v283h272v-283h246v-202h-246v-518q0 -89 109 -89q40 0 127 15l20 -205q-26 -20 -93.5 -29.5t-123.5 -9.5q-59 0 -111.5 15.5t-98.5 48.5t-73.5 93t-27.5 140v539h-485v-518q0 -89 108 -89q40 0 127 15l21 -205q-26 -20 -93.5 -29.5
t-124.5 -9.5q-59 0 -111.5 15.5t-98.5 48.5t-73.5 93t-27.5 140v539h-174z" />
    <glyph glyph-name=".notdef" horiz-adv-x="1185" 
d="M0 0v1337h1186v-1337h-1186zM592 516l-291 -328h582zM301 1149l291 -328l291 328h-582zM727 668l250 -279v559zM457 668l-248 280v-559z" />
    <glyph glyph-name=".null" horiz-adv-x="489" 
 />
    <glyph glyph-name=".null" horiz-adv-x="489" 
 />
    <glyph glyph-name="nonmarkingreturn" horiz-adv-x="682" 
 />
    <glyph glyph-name="CR" unicode="&#xd;" horiz-adv-x="489" 
 />
    <glyph glyph-name="space" unicode=" " horiz-adv-x="460" 
 />
    <glyph glyph-name="exclam" unicode="!" horiz-adv-x="661" 
d="M139 141q0 71 55 122.5t136 51.5q79 0 135.5 -51.5t56.5 -122.5q0 -72 -56 -122t-136 -50q-81 0 -136 50t-55 122zM424 446h-188l-62 537v354h311v-354z" />
    <glyph glyph-name="quotedbl" unicode="&#x22;" horiz-adv-x="1071" 
d="M356 731h-186l-51 359v247h291v-247zM899 731h-186l-51 359v247h290v-247z" />
    <glyph glyph-name="numbersign" unicode="#" horiz-adv-x="1810" 
d="M1196 1264h184l-61 -334h393v-205h-432l-59 -326h372v-209h-409l-72 -389h-184l71 389h-331l-72 -389h-184l71 389h-387v209h424l60 326h-367v205h405l62 334h184l-61 -334h332zM764 725l-59 -326h331l60 326h-332z" />
    <glyph glyph-name="dollar" unicode="$" horiz-adv-x="1466" 
d="M547 -264l26 244q-264 46 -485 210l158 185q190 -135 366 -176l33 293q-58 6 -104 12.5t-99 18.5t-92.5 28.5t-78 42t-63 58t-39.5 77.5t-15 100q0 102 46.5 177.5t125 116.5t167.5 60t189 19h33l18 168h193l-25 -188q230 -39 408 -142l-158 -188q-111 75 -285 109
l-26 -240q55 -4 101 -10.5t100 -19t96.5 -29.5t83 -45t67.5 -63t43.5 -84.5t16.5 -109.5q0 -104 -44 -182t-123 -124.5t-179 -69.5t-220 -23h-18l-25 -225h-192zM1071 334q0 68 -61.5 99t-196.5 44l-33 -297h8q129 0 206 40.5t77 113.5zM432 848q0 -29 20 -50.5t57 -34
t75 -19.5t88 -11l26 248h-22q-115 0 -179.5 -34.5t-64.5 -98.5z" />
    <glyph glyph-name="percent" unicode="%" horiz-adv-x="2138" 
d="M96 909q0 149 121 255t293 106q170 0 294 -106.5t124 -254.5q0 -150 -123.5 -257t-294.5 -107q-173 0 -293.5 106.5t-120.5 257.5zM1556 1239l-737 -1239h-233l739 1239h231zM340 909q0 -68 50 -116t120 -48q72 0 123 48t51 116q0 66 -51 113t-123 47q-70 0 -120 -47
t-50 -113zM1214 332q0 148 120.5 255t291.5 107q112 0 209 -49t154 -132.5t57 -180.5q0 -150 -124.5 -256.5t-295.5 -106.5q-172 0 -292 106t-120 257zM1458 332q0 -66 49.5 -114t118.5 -48q72 0 124 48t52 114t-52 114t-124 48q-69 0 -118.5 -48t-49.5 -114z" />
    <glyph glyph-name="ampersand" unicode="&#x26;" horiz-adv-x="1607" 
d="M1202 1196l-123 -219q-51 29 -126 52.5t-134 23.5q-64 0 -98.5 -28.5t-34.5 -68.5q0 -21 11 -46.5t25 -46.5t37.5 -48.5t37.5 -41.5t37.5 -37t25.5 -25l250 -260q117 124 223 292l217 -106q-130 -201 -278 -352l274 -285h-362l-113 115q-108 -74 -226 -110t-224 -36
q-87 0 -170 24t-154 71t-114.5 128t-43.5 185q0 271 316 393q-60 88 -60 182q0 103 59.5 182.5t155.5 120.5t211 41q176 0 381 -100zM905 285l-319 329q-158 -77 -158 -217q0 -51 21.5 -89.5t57 -59.5t74 -31t78.5 -10q115 0 246 78z" />
    <glyph glyph-name="quotesingle" unicode="'" horiz-adv-x="530" 
d="M358 731h-186l-53 359v247h291v-247z" />
    <glyph glyph-name="parenleft" unicode="(" horiz-adv-x="823" 
d="M643 1425l137 -168q-188 -107 -300.5 -299.5t-112.5 -418.5t112 -416t301 -297l-137 -168q-268 139 -417.5 370t-149.5 511q0 281 150 514.5t417 371.5z" />
    <glyph glyph-name="parenright" unicode=")" horiz-adv-x="823" 
d="M43 1257l137 168q268 -138 418 -371.5t150 -514.5q0 -280 -150 -511t-418 -370l-137 168q189 107 301.5 297.5t112.5 415.5q0 226 -113 418.5t-301 299.5z" />
    <glyph glyph-name="asterisk" unicode="*" horiz-adv-x="1191" 
d="M383 494l-152 112l193 283l-326 121l58 174l327 -97l15 347h198l17 -344l325 94l58 -172l-326 -123l191 -283l-150 -112l-215 264z" />
    <glyph glyph-name="plus" unicode="+" horiz-adv-x="1542" 
d="M154 426v233h462v385h269v-385h458v-233h-458v-385h-269v385h-462z" />
    <glyph glyph-name="comma" unicode="," horiz-adv-x="647" 
d="M154 -393l-74 155q53 15 108 46t100.5 83t45.5 105v16q-40 -10 -60 -10q-66 0 -112.5 43.5t-46.5 106.5q0 69 55 116t135 47q97 0 166.5 -74.5t69.5 -191.5q0 -75 -25 -140.5t-63.5 -111.5t-92 -85t-103 -63t-103.5 -42z" />
    <glyph glyph-name="hyphen" unicode="-" horiz-adv-x="827" 
d="M127 406v253h571v-253h-571z" />
    <glyph glyph-name="period" unicode="." horiz-adv-x="610" 
d="M115 141q0 71 54.5 122.5t133.5 51.5q81 0 137 -51.5t56 -122.5q0 -72 -55.5 -122t-137.5 -50q-79 0 -133.5 50t-54.5 122z" />
    <glyph glyph-name="slash" unicode="/" horiz-adv-x="1140" 
d="M1057 1337l-703 -1581h-276l704 1581h275z" />
    <glyph glyph-name="zero" unicode="0" horiz-adv-x="1476" 
d="M94 582q0 170 87 313t234.5 225t321.5 82q173 0 321 -82t236 -225t88 -313q0 -169 -87.5 -312t-236 -226t-321.5 -83t-321 83t-235 226t-87 312zM373 582q0 -155 106.5 -268t257.5 -113q149 0 258 113.5t109 267.5q0 156 -108.5 267.5t-258.5 111.5q-152 0 -258 -111
t-106 -268z" />
    <glyph glyph-name="one" unicode="1" horiz-adv-x="835" 
d="M94 782l-59 226l356 155h252v-1163h-281v899z" />
    <glyph glyph-name="two" unicode="2" horiz-adv-x="1239" 
d="M113 0v186q0 84 27.5 155t74 123t115 95t142 72.5t163.5 54.5q217 57 217 168q0 41 -30.5 68.5t-72.5 38t-92 10.5q-115 0 -203.5 -45t-193.5 -133l-154 184q56 44 91 69.5t92 59.5t106 52t115.5 31t138.5 13q73 0 141.5 -12t130.5 -39t108 -66.5t73.5 -98.5t27.5 -130
q0 -63 -20 -116.5t-55 -91.5t-79.5 -69t-97 -53.5t-103.5 -40t-102 -33.5q-3 -1 -5 -1q-138 -44 -205.5 -94t-67.5 -124v-12h713v-221h-995z" />
    <glyph glyph-name="three" unicode="3" horiz-adv-x="1370" 
d="M569 502v213h187q66 0 107.5 32t41.5 84q0 48 -33.5 81t-78 46t-93.5 13q-99 0 -202.5 -51.5t-194.5 -131.5l-158 173q277 241 560 241q81 0 161.5 -18.5t154 -56.5t119.5 -105.5t46 -155.5q0 -68 -39.5 -126t-93.5 -89q41 -15 76.5 -36t69.5 -54t53.5 -82t19.5 -108
q0 -127 -82 -222t-218.5 -142.5t-307.5 -47.5q-357 0 -615 246l156 184q209 -199 459 -199q141 0 234 52.5t93 142.5q0 35 -18.5 59.5t-49 36t-60 16.5t-60.5 5h-234z" />
    <glyph glyph-name="four" unicode="4" horiz-adv-x="1441" 
d="M1366 453v-211h-213v-242h-281v242h-817v168l846 753h252v-710h213zM451 461v-8h421v374h-18q-398 -361 -403 -366z" />
    <glyph glyph-name="five" unicode="5" horiz-adv-x="1347" 
d="M664 -41q-105 0 -201 17t-175 49t-124.5 54.5t-100.5 55.5l125 195q227 -140 476 -140q130 0 220.5 52t90.5 149q0 81 -69 122.5t-169 41.5q-109 0 -199.5 -29.5t-189.5 -83.5l-164 117v604h949v-231h-697v-273q84 58 161 87.5t183 29.5q73 0 142 -14.5t131.5 -45.5
t109 -75t74 -108t27.5 -140q0 -90 -34.5 -164t-92.5 -123.5t-136 -83t-162.5 -48.5t-174.5 -15z" />
    <glyph glyph-name="six" unicode="6" horiz-adv-x="1374" 
d="M1227 1098l-125 -195q-147 70 -322 70q-167 0 -287.5 -101t-130.5 -274q214 166 447 166q114 0 207.5 -32.5t151 -86t88 -119t30.5 -135.5q0 -183 -152.5 -306.5t-388.5 -123.5q-126 0 -241 39t-206 112t-145.5 189.5t-54.5 259.5q0 147 56 269.5t150.5 203t216.5 124.5
t255 44q215 0 451 -104zM770 551q-179 0 -385 -119q39 -115 136.5 -178.5t221.5 -63.5q113 0 189 61t76 140q0 63 -59 111.5t-179 48.5z" />
    <glyph glyph-name="seven" unicode="7" horiz-adv-x="1247" 
d="M84 922v241h1081v-221l-622 -942h-353l639 922h-745z" />
    <glyph glyph-name="eight" unicode="8" horiz-adv-x="1390" 
d="M696 -43q-115 0 -222 26.5t-190.5 74t-133.5 121.5t-50 163q0 113 70 190.5t180 110.5q-186 64 -186 234q0 79 49.5 143t128.5 103t171.5 60t184.5 21q90 0 180.5 -20.5t170 -60t129 -105.5t49.5 -148q0 -173 -187 -227q110 -33 180 -110.5t70 -190.5q0 -89 -50.5 -163
t-134 -121.5t-189.5 -74t-220 -26.5zM696 186q120 0 208.5 47.5t88.5 126.5q0 53 -47.5 92.5t-113 56.5t-136.5 17t-137 -17t-114 -56.5t-48 -92.5q0 -79 90.5 -126.5t208.5 -47.5zM696 729q112 0 172 32t60 91q0 45 -37.5 78.5t-89 48t-105.5 14.5q-55 0 -106.5 -14.5
t-89 -48t-37.5 -78.5q0 -59 60 -91t173 -32z" />
    <glyph glyph-name="nine" unicode="9" horiz-adv-x="1370" 
d="M143 66l123 192q149 -68 322 -68q168 0 287 99.5t129 271.5q-212 -164 -445 -164q-114 0 -207 32.5t-150.5 86t-88.5 120t-31 136.5q0 182 154 306t389 124q126 0 240.5 -39.5t205.5 -112.5t145 -189.5t54 -258.5q0 -147 -56 -269.5t-150 -203t-215.5 -124.5t-254.5 -44
q-213 0 -451 105zM600 610q177 0 383 119q-39 114 -137 178t-221 64q-112 0 -188.5 -60.5t-76.5 -138.5q0 -64 59.5 -113t180.5 -49z" />
    <glyph glyph-name="colon" unicode=":" horiz-adv-x="681" 
d="M152 141q0 71 54.5 121.5t133.5 50.5q81 0 136.5 -50.5t55.5 -121.5q0 -72 -55.5 -122t-136.5 -50q-79 0 -133.5 50t-54.5 122zM152 840q0 72 54.5 123t133.5 51q81 0 136.5 -51.5t55.5 -122.5q0 -72 -55.5 -122t-136.5 -50q-79 0 -133.5 50t-54.5 122z" />
    <glyph glyph-name="semicolon" unicode=";" horiz-adv-x="688" 
d="M186 -393l-73 155q53 15 108 46t100.5 83t45.5 105v16q-40 -10 -60 -10q-67 0 -113.5 43.5t-46.5 106.5q0 69 54.5 116t134.5 47q97 0 167 -74.5t70 -191.5q0 -75 -25 -140.5t-63.5 -111.5t-92 -85t-103 -63t-103.5 -42zM152 840q0 72 54.5 123t133.5 51
q81 0 136.5 -51.5t55.5 -122.5q0 -72 -55.5 -122t-136.5 -50q-79 0 -133.5 50t-54.5 122z" />
    <glyph glyph-name="less" unicode="&#x3c;" horiz-adv-x="1542" 
d="M1343 1042v-264l-794 -223v-25l794 -223v-262l-1189 383v231z" />
    <glyph glyph-name="equal" unicode="=" horiz-adv-x="1542" 
d="M154 672v235h1189v-235h-1189zM154 178v236h1189v-236h-1189z" />
    <glyph glyph-name="greater" unicode="&#x3e;" horiz-adv-x="1542" 
d="M154 778v264l1189 -383v-231l-1189 -383v262l796 223v25z" />
    <glyph glyph-name="question" unicode="?" horiz-adv-x="1175" 
d="M258 971l-174 157q57 58 104 96t113 76.5t148.5 57t181.5 18.5q90 0 166.5 -18t138.5 -56t97.5 -104t35.5 -154q0 -103 -47.5 -172.5t-134.5 -130.5q-26 -21 -68.5 -48t-72 -47.5t-60.5 -49t-48.5 -66t-19.5 -84.5h-266q-2 63 14.5 118.5t41 93t65.5 76t74.5 61.5
t82.5 56.5t75 53.5q47 34 71.5 63t24.5 68q0 58 -52 89.5t-133 31.5q-109 0 -191 -46.5t-167 -139.5zM332 141q0 72 54.5 123t135.5 51t137 -51.5t56 -122.5q0 -72 -56.5 -122t-136.5 -50t-135 50t-55 122z" />
    <glyph glyph-name="at" unicode="@" horiz-adv-x="2119" 
d="M1333 997h254l-172 -524q-18 -55 -18 -82q0 -80 84 -80q52 0 107 31.5t100.5 85t74.5 134.5t29 171q0 227 -174 373.5t-455 146.5q-164 0 -314 -53.5t-264 -148.5t-181.5 -236.5t-67.5 -306.5q0 -130 42.5 -240.5t114 -187t166 -130.5t197 -79t207.5 -25
q134 0 286.5 38.5t254.5 90.5l65 -170q-104 -59 -276.5 -106t-339.5 -47q-111 0 -222.5 23.5t-219 69t-200.5 118t-163.5 164.5t-111 215.5t-40.5 263.5q0 167 57 316.5t157.5 262.5t234 195.5t292 125t326.5 42.5q151 0 284.5 -35t235.5 -99.5t176.5 -151t113 -193.5
t38.5 -224q0 -113 -36 -215.5t-96 -178t-137 -132t-160.5 -85t-164.5 -28.5q-96 0 -166 43.5t-80 135.5q-143 -176 -311 -176q-56 0 -107 21.5t-93.5 62.5t-67.5 110.5t-25 157.5q0 117 45.5 225.5t115.5 182t155 117.5t164 44q81 0 143 -49t96 -129zM946 344q47 0 102 28.5
t107 84.5l62 184q-15 65 -58 109.5t-94 44.5q-34 0 -73 -21t-73.5 -58t-57.5 -96t-23 -126q0 -150 108 -150z" />
    <glyph glyph-name="A" unicode="A" horiz-adv-x="1542" 
d="M25 0l620 1337h252l621 -1337h-322l-123 283h-618l-121 -283h-309zM758 987l-203 -473h418l-203 473h-12z" />
    <glyph glyph-name="B" unicode="B" horiz-adv-x="1650" 
d="M1036 0h-825v1337h801q236 0 358 -129q84 -87 84 -200q0 -85 -46.5 -157.5t-121.5 -111.5q116 -39 178 -126t62 -205q0 -165 -125 -287q-65 -61 -149.5 -91t-215.5 -30zM1026 580h-520v-338h520q94 0 148 51q47 50 47 117q0 62 -47 112q-58 58 -148 58zM977 1094h-471
v-293h471q86 0 129 43q45 45 45 108q0 56 -41 97q-42 45 -133 45z" />
    <glyph glyph-name="C" unicode="C" horiz-adv-x="1568" 
d="M1329 424l187 -191q-130 -120 -303 -197t-377 -77q-163 0 -302 56t-234 152t-148.5 226.5t-53.5 276.5q0 143 53.5 272.5t147.5 226t231 153t295 56.5q180 0 352.5 -63.5t295.5 -169.5l-185 -193q-92 79 -211 125.5t-227 46.5q-198 0 -321 -132t-123 -324
q0 -126 55 -229.5t159.5 -165.5t239.5 -62q129 0 252 59.5t217 153.5z" />
    <glyph glyph-name="D" unicode="D" horiz-adv-x="1650" 
d="M840 0h-629v1337h629q179 0 305 -48t219 -142q88 -91 134 -213.5t46 -263.5q0 -147 -49.5 -274.5t-142.5 -219.5q-92 -87 -212 -131.5t-300 -44.5zM504 252h325q108 0 168.5 22.5t118.5 73.5q123 123 123 320q0 193 -113 309q-55 55 -120 80.5t-177 25.5h-325v-831z" />
    <glyph glyph-name="E" unicode="E" horiz-adv-x="1456" 
d="M997 823v-252h-493v-319h868v-252h-1161v1337h1114v-254h-821v-260h493z" />
    <glyph glyph-name="F" unicode="F" horiz-adv-x="1357" 
d="M504 0h-293v1337h1104v-254h-811v-270h493v-252h-493v-561z" />
    <glyph glyph-name="G" unicode="G" horiz-adv-x="1640" 
d="M1468 1139l-194 -183q-85 77 -207.5 122.5t-230.5 45.5q-125 0 -225.5 -62t-155 -166t-54.5 -228q0 -89 29.5 -169.5t85 -145t144 -102.5t196.5 -38q93 0 185.5 24t154.5 66v225h-403v242h677v-600q-130 -96 -299.5 -152.5t-326.5 -56.5q-210 0 -382 95t-269 257.5
t-97 356.5q0 193 97.5 355.5t267.5 257.5t373 95q160 0 325.5 -61.5t308.5 -177.5z" />
    <glyph glyph-name="H" unicode="H" horiz-adv-x="1642" 
d="M506 0h-295v1337h295v-495h631v495h295v-1337h-295v594h-631v-594z" />
    <glyph glyph-name="I" unicode="I" horiz-adv-x="714" 
d="M504 0h-293v1337h293v-1337z" />
    <glyph glyph-name="J" unicode="J" horiz-adv-x="1331" 
d="M850 1337h295v-854q0 -245 -158.5 -383.5t-415.5 -138.5q-99 0 -183.5 24.5t-141.5 60t-105.5 88t-76 97t-52.5 97.5l248 129q16 -36 32.5 -65.5t44 -64t59 -58.5t76.5 -40t97 -16q127 0 204 70.5t77 199.5v854z" />
    <glyph glyph-name="K" unicode="K" horiz-adv-x="1581" 
d="M506 1337v-581l612 581h369l-557 -522l657 -815h-370l-496 623l-215 -203v-420h-295v1337h295z" />
    <glyph glyph-name="L" unicode="L" horiz-adv-x="1329" 
d="M211 1337h293v-1085h786v-252h-1079v1337z" />
    <glyph glyph-name="M" unicode="M" horiz-adv-x="1853" 
d="M1642 0h-294v776h-11l-374 -624h-82l-375 624h-10v-776h-285v1337h281l438 -733h4l436 733h272v-1337z" />
    <glyph glyph-name="N" unicode="N" horiz-adv-x="1652" 
d="M1147 1337h295v-1337h-254l-680 827h-2v-827h-295v1337h252l682 -829h2v829z" />
    <glyph glyph-name="O" unicode="O" horiz-adv-x="1710" 
d="M96 672q0 144 59 274t159.5 225t241 151t296.5 56t297.5 -56t244 -150.5t162.5 -225.5t60 -274q0 -146 -60 -278.5t-162.5 -227.5t-244 -151t-297.5 -56q-209 0 -382.5 95t-273.5 258.5t-100 359.5zM403 672q0 -124 59 -230t162.5 -168.5t227.5 -62.5q191 0 324 135.5
t133 325.5q0 187 -133 319.5t-324 132.5q-188 0 -318.5 -132.5t-130.5 -319.5z" />
    <glyph glyph-name="P" unicode="P" horiz-adv-x="1523" 
d="M504 0h-293v1337h741q266 0 404 -147q108 -120 108 -275q0 -170 -127 -294q-135 -129 -385 -129h-448v-492zM963 1090h-459v-351h459q99 0 153 52q53 53 53 122t-49 121q-54 56 -157 56z" />
    <glyph glyph-name="Q" unicode="Q" horiz-adv-x="1710" 
d="M96 672q0 144 59 274t159.5 225t241 151t296.5 56t297.5 -56t244 -150.5t162.5 -225.5t60 -274q0 -177 -84 -328t-229 -250l165 -250l-270 -86l-149 226q-98 -25 -197 -25q-209 0 -382.5 95t-273.5 258.5t-100 359.5zM743 444l269 88l139 -210q74 66 116 157t42 193
q0 187 -133 319.5t-324 132.5q-188 0 -318.5 -132.5t-130.5 -319.5q0 -124 59 -230t162.5 -168.5t227.5 -62.5q29 0 45 2z" />
    <glyph glyph-name="R" unicode="R" horiz-adv-x="1597" 
d="M504 0h-293v1337h741q263 0 402 -145q110 -116 110 -277q0 -126 -72 -223.5t-198 -152.5l313 -539h-336l-270 492h-397v-492zM963 1090h-459v-351h479q78 0 132 50t54 126q0 70 -47 117q-53 58 -159 58z" />
    <glyph glyph-name="S" unicode="S" horiz-adv-x="1495" 
d="M1325 1198l-168 -205q-76 56 -198 100t-271 44q-108 0 -180 -41.5t-72 -122.5q0 -41 23.5 -67.5t83 -41t96 -19.5t126.5 -12q14 -1 21 -2q70 -5 112.5 -8.5t116.5 -15.5t121 -29t104.5 -48t90.5 -71.5t56.5 -102.5t23.5 -138q0 -120 -47.5 -210.5t-131.5 -143.5t-190 -79
t-233 -26q-411 0 -735 264l166 201q53 -43 102 -75t123 -70t163.5 -59t184.5 -21q133 0 219 50t86 140q0 38 -16.5 66t-44 46t-72.5 31t-92 19.5t-113 11.5q-59 4 -99.5 7t-98.5 10.5t-98 16.5t-89.5 24.5t-83 35.5t-68 48.5t-54.5 64t-33 82.5t-13 102q0 78 23 143.5
t64.5 111t94 79t116 53t126.5 28.5t129 9q190 0 357.5 -54.5t271.5 -125.5z" />
    <glyph glyph-name="T" unicode="T" horiz-adv-x="1368" 
d="M53 1083v254h1262v-254h-484v-1083h-292v1083h-486z" />
    <glyph glyph-name="U" unicode="U" horiz-adv-x="1593" 
d="M1112 1337h295v-856q0 -163 -79.5 -282.5t-217 -179.5t-315.5 -60q-174 0 -310.5 60t-217.5 179.5t-81 282.5v856h295v-856q0 -127 89.5 -198.5t224.5 -71.5q141 0 229 71t88 199v856z" />
    <glyph glyph-name="V" unicode="V" horiz-adv-x="1531" 
d="M1194 1337h319l-620 -1337h-254l-621 1337h332l416 -970h12z" />
    <glyph glyph-name="W" unicode="W" horiz-adv-x="2045" 
d="M59 1337h320l256 -878h12l275 878h215l272 -878h12l258 878h308l-428 -1337h-279l-252 795h-12l-250 -795h-279z" />
    <glyph glyph-name="X" unicode="X" horiz-adv-x="1538" 
d="M1124 1337h355l-529 -641l553 -696h-368l-371 485l-387 -485h-357l568 686l-512 651h368l332 -440z" />
    <glyph glyph-name="Y" unicode="Y" horiz-adv-x="1372" 
d="M1020 1337h344l-530 -727v-610h-295v610l-533 727h365l325 -465z" />
    <glyph glyph-name="Z" unicode="Z" horiz-adv-x="1396" 
d="M1280 252v-252h-1184v172l758 911h-719v254h1145v-174l-758 -911h758z" />
    <glyph glyph-name="bracketleft" unicode="[" horiz-adv-x="782" 
d="M702 -106v-209h-536v1726h536v-209h-266v-1308h266z" />
    <glyph glyph-name="backslash" unicode="\" horiz-adv-x="1146" 
d="M809 -244l-705 1581h277l702 -1581h-274z" />
    <glyph glyph-name="bracketright" unicode="]" horiz-adv-x="782" 
d="M80 1411h536v-1726h-536v209h266v1308h-266v209z" />
    <glyph glyph-name="asciicircum" unicode="^" horiz-adv-x="1542" 
d="M469 426h-303l457 829h262l448 -829h-301l-270 522h-17z" />
    <glyph glyph-name="underscore" unicode="_" horiz-adv-x="1234" 
d="M-12 -424v195h1259v-195h-1259z" />
    <glyph glyph-name="grave" unicode="`" 
d="M211 1430h274l185 -300h-238z" />
    <glyph glyph-name="a" unicode="a" horiz-adv-x="1224" 
d="M231 723l-84 203q84 42 209.5 74t257.5 32q90 0 169 -16.5t146.5 -50.5t106.5 -94.5t39 -141.5v-534q0 -107 29 -195h-270q-13 40 -25 115q-68 -67 -143 -103.5t-193 -36.5q-179 0 -287 95.5t-108 244.5q0 144 117.5 238t320.5 94q181 0 287 -82v101q0 75 -58 113
t-153 38q-87 0 -191.5 -30t-169.5 -64zM532 176q152 0 271 111v96q-35 30 -97.5 51t-134.5 21q-114 0 -167.5 -39t-53.5 -101q0 -64 48.5 -101.5t133.5 -37.5z" />
    <glyph glyph-name="b" unicode="b" horiz-adv-x="1294" 
d="M395 0h-258q23 117 23 285v1149h274v-535q62 62 136 97.5t147 35.5q132 0 242 -64.5t176.5 -186.5t66.5 -277q0 -236 -140.5 -384.5t-344.5 -148.5q-95 0 -175 43t-134 105q-4 -65 -13 -119zM676 801q-126 0 -242 -113v-377q38 -40 101 -75t141 -35q98 0 164.5 84.5
t66.5 218.5t-65.5 215.5t-165.5 81.5z" />
    <glyph glyph-name="c" unicode="c" horiz-adv-x="1142" 
d="M1073 862l-170 -180q-122 119 -256 119q-113 0 -189.5 -82t-76.5 -215q0 -134 80.5 -219.5t195.5 -85.5q130 0 269 135l168 -168q-16 -18 -40.5 -40t-69 -51t-95 -51.5t-120 -38.5t-142.5 -16q-108 0 -206 39t-171 107.5t-116.5 169.5t-43.5 219q0 156 72.5 277.5
t194.5 186t270 64.5q120 0 235.5 -42.5t210.5 -127.5z" />
    <glyph glyph-name="d" unicode="d" horiz-adv-x="1294" 
d="M1157 0h-258q-8 46 -12 119q-54 -62 -134 -105t-175 -43q-204 0 -345 148.5t-141 384.5q0 117 39 216.5t105 167.5t154.5 106t187.5 38q149 0 282 -123v525h275v-1149q0 -173 22 -285zM618 801q-100 0 -165.5 -81.5t-65.5 -215.5t66.5 -218.5t164.5 -84.5q78 0 141 35
t101 75v377q-116 113 -242 113z" />
    <glyph glyph-name="e" unicode="e" horiz-adv-x="1208" 
d="M954 291l129 -174q-86 -65 -213 -106.5t-258 -41.5q-123 0 -223.5 42t-165 114t-99 166.5t-34.5 200.5q0 150 67.5 273.5t189.5 195t274 71.5q95 0 181.5 -29.5t159.5 -89t116.5 -162t43.5 -235.5q0 -37 -4 -84h-760q18 -110 92.5 -177t196.5 -67q79 0 162 28.5t145 74.5
zM618 823q-102 0 -164.5 -58t-88.5 -151h481q-1 67 -37 116t-86 71t-105 22z" />
    <glyph glyph-name="f" unicode="f" horiz-adv-x="774" 
d="M68 999h172v158q0 65 19 117t50 85.5t74 56t87.5 31.5t92.5 9q52 0 118 -11t93 -24l-29 -209q-71 23 -139 23q-43 0 -68.5 -21t-25.5 -57v-158h246v-202h-246v-797h-272v797h-172v202z" />
    <glyph glyph-name="g" unicode="g" horiz-adv-x="1294" 
d="M860 -57v170q-128 -131 -282 -131q-99 0 -188 37.5t-155 104t-104.5 164t-38.5 210.5q0 119 38.5 220.5t104 169.5t154.5 106t189 38q90 0 173 -48.5t136 -109.5q0 65 14 130h254q-22 -114 -22 -287v-764q0 -181 -135.5 -299.5t-381.5 -118.5q-295 0 -475 162l144 158
q144 -105 331 -105q116 0 180 55t64 138zM616 211q123 0 244 111v366q-113 113 -244 113q-98 0 -164.5 -83.5t-66.5 -219.5q0 -127 67 -207t164 -80z" />
    <glyph glyph-name="h" unicode="h" horiz-adv-x="1245" 
d="M430 0h-272v1434h272v-539q137 137 289 137q169 0 275 -101t106 -259v-672h-275v662q0 58 -48 98.5t-120 40.5q-66 0 -126 -38t-101 -91v-672z" />
    <glyph glyph-name="i" unicode="i" horiz-adv-x="587" 
d="M430 0h-272v999h272v-999zM131 1303q0 62 46.5 105.5t115.5 43.5q68 0 116 -44t48 -105q0 -60 -47.5 -103t-116.5 -43q-68 0 -115 42.5t-47 103.5z" />
    <glyph glyph-name="j" unicode="j" horiz-adv-x="587" 
d="M43 -467l-74 203q33 8 54 14t49.5 19.5t45 30.5t28.5 45t12 65v1089h272v-1089q0 -80 -24 -146t-63 -108t-90.5 -70.5t-104 -40.5t-105.5 -12zM129 1303q0 62 47 105.5t117 43.5q68 0 116 -44t48 -105q0 -60 -47.5 -103t-116.5 -43q-70 0 -117 42.5t-47 103.5z" />
    <glyph glyph-name="k" unicode="k" horiz-adv-x="1196" 
d="M795 999h358l-391 -364l432 -635h-338l-289 453l-135 -125v-328h-274v1434h274v-797z" />
    <glyph glyph-name="l" unicode="l" horiz-adv-x="598" 
d="M436 0h-274v1434h274v-1434z" />
    <glyph glyph-name="m" unicode="m" horiz-adv-x="1841" 
d="M1065 672v-672h-277v662q0 58 -43.5 98.5t-111.5 40.5q-105 0 -201 -129v-672h-272v717q0 142 -29 282h252q11 -55 18 -131q67 75 142 119.5t172 44.5q95 0 173 -47.5t120 -128.5q58 78 145 127t190 49q150 0 251.5 -102t101.5 -258v-672h-275v662q0 58 -45.5 98.5
t-111.5 40.5q-111 0 -199 -129z" />
    <glyph glyph-name="n" unicode="n" horiz-adv-x="1249" 
d="M401 868q138 164 336 164q154 0 259.5 -102.5t105.5 -257.5v-672h-275v662q0 58 -46.5 98.5t-118.5 40.5q-113 0 -230 -129v-672h-272v715q0 144 -29 284h250q15 -74 20 -131z" />
    <glyph glyph-name="o" unicode="o" horiz-adv-x="1269" 
d="M90 504q0 148 67.5 268t192 190t283.5 70q241 0 394 -151t153 -377q0 -148 -68 -269.5t-194 -193.5t-285 -72q-158 0 -283 72t-192.5 193.5t-67.5 269.5zM371 504q0 -130 71 -219.5t191 -89.5q123 0 195.5 89.5t72.5 219.5q0 128 -72.5 214.5t-195.5 86.5
q-121 0 -191.5 -86.5t-70.5 -214.5z" />
    <glyph glyph-name="p" unicode="p" horiz-adv-x="1294" 
d="M137 999h258q7 -47 11 -125q54 65 135 111.5t176 46.5q99 0 187.5 -38t154.5 -105.5t104.5 -168.5t38.5 -220q0 -115 -39 -215t-104.5 -168t-154.5 -107t-187 -39q-162 0 -285 129v-524h-272v1141q0 163 -23 282zM676 201q98 0 164.5 83.5t66.5 215.5q0 136 -66.5 218.5
t-164.5 82.5q-135 0 -242 -113v-379q118 -108 242 -108z" />
    <glyph glyph-name="q" unicode="q" horiz-adv-x="1294" 
d="M899 999h258q-22 -114 -22 -282v-1141h-273v524q-123 -129 -284 -129q-98 0 -187 39t-155 107t-105 168t-39 215q0 119 38.5 220t104.5 168.5t154.5 105.5t188.5 38q95 0 176 -46.5t135 -111.5q4 88 10 125zM618 201q124 0 242 108v379q-107 113 -242 113
q-98 0 -164.5 -82.5t-66.5 -218.5q0 -132 66.5 -215.5t164.5 -83.5z" />
    <glyph glyph-name="r" unicode="r" horiz-adv-x="837" 
d="M606 770q-49 0 -85.5 -30.5t-86.5 -96.5v-643h-274v717q0 121 -29 282h250q14 -77 20 -149q52 87 113 134.5t150 47.5q41 0 84.5 -11t68.5 -30l-76 -250q-75 29 -135 29z" />
    <glyph glyph-name="s" unicode="s" horiz-adv-x="1140" 
d="M1006 930l-97 -195q-86 40 -184.5 65t-175.5 25q-78 0 -122 -24.5t-44 -71.5q0 -20 8 -35.5t25 -25.5t33 -16t42.5 -9.5t43 -5t45.5 -2.5q50 -2 84.5 -5t89 -11.5t92.5 -21t81.5 -36.5t70.5 -56t45 -80t18 -108q0 -115 -63.5 -196t-169 -118.5t-242.5 -37.5
q-268 0 -508 152l96 194q89 -55 199 -95t217 -40q94 0 146 32t52 85q0 23 -9 40.5t-27 28.5t-35.5 18.5t-45.5 12t-46 6.5t-47 4q-62 3 -95.5 6t-90.5 11t-89.5 20t-73.5 34t-63 51.5t-37.5 74t-15.5 100.5q0 74 25 132.5t66 96t97.5 62t115 35t122.5 10.5q122 0 256 -34
t211 -72z" />
    <glyph glyph-name="t" unicode="t" horiz-adv-x="825" 
d="M45 797v202h174v283h273v-283h245v-202h-245v-518q0 -89 108 -89q40 0 127 15l21 -205q-26 -20 -93.5 -29.5t-124.5 -9.5q-59 0 -111.5 15.5t-98.5 48.5t-73.5 93t-27.5 140v539h-174z" />
    <glyph glyph-name="u" unicode="u" horiz-adv-x="1247" 
d="M846 129q-144 -162 -336 -162q-154 0 -259.5 103t-105.5 258v671h275v-661q0 -59 46.5 -99t119.5 -40q118 0 229 129v671h272v-716q0 -144 25 -283h-254q-8 45 -12 129z" />
    <glyph glyph-name="v" unicode="v" horiz-adv-x="1142" 
d="M829 999h283l-432 -999h-219l-430 999h303l235 -630h13z" />
    <glyph glyph-name="w" unicode="w" horiz-adv-x="1622" 
d="M692 999h248l180 -639h13l155 639h281l-318 -999h-260l-174 612h-12l-176 -612h-258l-318 999h287l160 -639h12z" />
    <glyph glyph-name="x" unicode="x" horiz-adv-x="1218" 
d="M825 999h340l-391 -487l414 -512h-338l-242 324l-237 -324h-340l413 512l-393 487h344l213 -301z" />
    <glyph glyph-name="y" unicode="y" horiz-adv-x="1140" 
d="M575 403h13l264 596h281l-674 -1423h-285l260 516l-405 907h305z" />
    <glyph glyph-name="z" unicode="z" horiz-adv-x="1091" 
d="M987 211v-211h-901v152l522 634h-483v213h862v-153l-522 -635h522z" />
    <glyph glyph-name="braceleft" unicode="{" horiz-adv-x="825" 
d="M745 -315q-100 0 -168.5 5t-126 20t-91.5 38.5t-57.5 62.5t-32.5 90.5t-9 125.5v274q0 160 -209 160v205q86 0 148.5 47.5t62.5 124.5v227q1 74 10 126.5t33 92t58 64t91 39.5t125 20.5t166 5.5v-209q-127 0 -169.5 -24.5t-43.5 -104.5v-237q0 -100 -61 -171t-152 -94
v-10q211 -32 211 -262v-285q0 -76 43.5 -99t171.5 -23v-209z" />
    <glyph glyph-name="bar" unicode="|" horiz-adv-x="708" 
d="M219 -629v2482h258v-2482h-258z" />
    <glyph glyph-name="braceright" unicode="}" horiz-adv-x="825" 
d="M78 -315v209q126 0 170.5 23t44.5 99v285q0 230 211 262v10q-91 23 -152 94t-61 171v237q-1 80 -44.5 104.5t-168.5 24.5v209q98 0 166.5 -5.5t125 -20.5t91 -39.5t58.5 -64t33.5 -92t10.5 -126.5v-227q0 -77 62.5 -124.5t148.5 -47.5v-205q-211 0 -211 -160v-274
q0 -74 -9 -125.5t-32.5 -90.5t-57.5 -62.5t-91.5 -38.5t-126 -20t-168.5 -5z" />
    <glyph glyph-name="asciitilde" unicode="~" horiz-adv-x="1542" 
d="M268 369l-202 131q125 139 225.5 206.5t208.5 67.5q46 0 91 -10.5t74 -22.5t65.5 -36t49 -34t41.5 -34q47 -40 85 -62t77 -22q90 0 244 164l209 -129q-249 -285 -459 -285q-25 0 -50 3t-44.5 7t-42 12.5t-37 14.5t-34.5 18t-29.5 18t-27.5 20t-23 17.5t-21 17.5t-17 15
q-98 78 -159 78q-75 0 -224 -155z" />
    <glyph glyph-name="nbspace" unicode="&#xa0;" horiz-adv-x="460" 
 />
    <glyph glyph-name="exclamdown" unicode="&#xa1;" horiz-adv-x="649" 
d="M483 842q0 -72 -54.5 -123t-135.5 -51q-79 0 -136 51.5t-57 122.5q0 72 56.5 122t136.5 50q81 0 135.5 -50t54.5 -122zM199 537h188l62 -537v-354h-312v354z" />
    <glyph glyph-name="cent" unicode="&#xa2;" horiz-adv-x="1251" 
d="M418 -264l57 260q-168 47 -274.5 173.5t-106.5 299.5q0 146 74.5 259.5t200 174t278.5 60.5q29 0 43 -2l33 147h192l-38 -178q134 -37 253 -127l-165 -174q-72 51 -150 80l-115 -514q143 11 277 122l166 -161q-21 -23 -59.5 -50.5t-99 -60t-147 -54t-178.5 -22.5
l-51 -233h-190zM383 469q0 -81 42 -145t112 -99l112 510q-117 -6 -191.5 -77.5t-74.5 -188.5z" />
    <glyph glyph-name="sterling" unicode="&#xa3;" horiz-adv-x="1454" 
d="M113 537v168h264v147q0 70 27 129t72.5 99t106.5 68t128.5 41t138.5 13q98 0 234 -37t253 -96l-123 -197q-91 44 -188.5 71.5t-165.5 27.5q-78 0 -137 -40t-59 -114v-112h442v-168h-442v-103q0 -99 -40.5 -147.5t-136.5 -65.5h850v-221h-1224v221h80q106 0 145 42t39 171
v103h-264z" />
    <glyph glyph-name="currency" unicode="&#xa4;" horiz-adv-x="1570" 
d="M190 539q0 161 86 295l-167 157l184 183l168 -158q147 94 321 94q176 0 326 -94l172 158l182 -183l-170 -157q88 -138 88 -295t-88 -295l170 -156l-182 -184l-172 157q-150 -94 -326 -94q-174 0 -321 94l-168 -157l-184 184l167 156q-86 134 -86 295zM481 539
q0 -132 88.5 -228t212.5 -96q127 0 217.5 96t90.5 228q0 134 -90.5 228.5t-217.5 94.5q-124 0 -212.5 -94.5t-88.5 -228.5z" />
    <glyph glyph-name="yen" unicode="&#xa5;" horiz-adv-x="1591" 
d="M121 647v150h319l-288 366h354l299 -391l295 391h336l-289 -366h326v-150h-443l-92 -119v-6h535v-147h-535v-375h-287v375h-530v147h530v6l-94 119h-436z" />
    <glyph glyph-name="brokenbar" unicode="&#xa6;" horiz-adv-x="708" 
d="M219 788v844h258v-844h-258zM219 -467v860h258v-860h-258z" />
    <glyph glyph-name="section" unicode="&#xa7;" horiz-adv-x="1447" 
d="M1243 203q-46 -43 -98 -68q17 -23 24 -43q21 -51 21 -102q0 -68 -28.5 -124t-74.5 -92.5t-107.5 -61.5t-125 -35.5t-129.5 -10.5q-108 0 -226 28t-212 77l114 182q174 -78 328 -78q30 0 57.5 4t56 13.5t45.5 28.5t17 46t-16 43q-17 16 -58 27.5t-75.5 16t-110.5 12.5
q-315 37 -448 163q-91 84 -91 201q0 129 105 234q38 38 102 71l-20 35q-23 54 -23 111q0 85 42 149.5t111.5 101t149 54.5t164.5 18q110 0 230.5 -27t214.5 -75l-113 -184q-175 77 -336 77q-178 0 -178 -90q0 -28 18 -41q8 -7 18.5 -12.5t26.5 -10t29 -7.5t37 -6.5t38 -5.5
t46 -5.5t47 -5.5q320 -37 455 -172q84 -84 84 -197q0 -139 -111 -239zM776 575q-6 1 -65 7t-83.5 9.5t-69 12.5t-77.5 21q-12 -8 -45 -41q-53 -56 -53 -119q0 -51 37 -88q64 -59 264 -78q204 -19 295 -51q25 15 41 35q57 57 57 125q0 49 -37 86q-65 62 -264 81z" />
    <glyph glyph-name="dieresis" unicode="&#xa8;" 
d="M127 1280q0 56 42.5 96.5t104.5 40.5q64 0 108 -40.5t44 -96.5q0 -57 -44 -96t-108 -39q-63 0 -105 39t-42 96zM586 1280q0 56 42.5 96.5t106.5 40.5q63 0 107.5 -40.5t44.5 -96.5q0 -57 -44.5 -96t-107.5 -39q-64 0 -106.5 39t-42.5 96z" />
    <glyph glyph-name="copyright" unicode="&#xa9;" horiz-adv-x="2109" 
d="M1489 887l-105 -182q-138 106 -290 106q-119 0 -194 -75t-75 -185q0 -103 79.5 -167.5t195.5 -64.5q86 0 152 23t147 68l98 -177q-92 -64 -186 -97.5t-234 -33.5q-144 0 -263 55t-189 158.5t-70 235.5q0 202 143 338.5t373 136.5q108 0 218 -38.5t200 -100.5zM1059 1446
q193 0 369.5 -70.5t304.5 -190t204 -286t76 -350.5t-76 -350.5t-204 -286t-304.5 -190t-369.5 -70.5q-195 0 -373 70.5t-307 190t-206 286t-77 350.5t77 350.5t206 286t307 190t373 70.5zM1059 1264q-152 0 -292 -57.5t-242 -154t-163 -229t-61 -274.5q0 -145 61 -277.5
t163 -227.5t242 -151.5t292 -56.5q154 0 293 56.5t239 151.5t158.5 227t58.5 278q0 143 -59 274.5t-158.5 228.5t-238.5 154.5t-293 57.5z" />
    <glyph glyph-name="ordfeminine" unicode="&#xaa;" horiz-adv-x="954" 
d="M184 969l-67 157q64 30 161.5 53t198.5 23q70 0 131.5 -11.5t113.5 -36t82 -68.5t30 -103v-391q0 -80 20 -141h-219q-10 33 -17 77q-36 -32 -62 -50t-75.5 -34t-109.5 -16q-137 0 -221 71.5t-84 180.5q0 105 91 173.5t246 68.5q127 0 209 -54v64q0 51 -41 76.5t-112 25.5
q-65 0 -145 -20.5t-130 -44.5zM418 590q68 0 117.5 24.5t76.5 51.5v59q-68 45 -163 45q-162 0 -162 -90q0 -41 35 -65.5t96 -24.5z" />
    <glyph glyph-name="guillemotleft" unicode="&#xab;" horiz-adv-x="1286" 
d="M301 831h307l-258 -309v-16l258 -305h-307l-207 256v116zM604 506v16l248 309h307l-258 -309v-16l258 -305h-307z" />
    <glyph glyph-name="logicalnot" unicode="&#xac;" horiz-adv-x="1542" 
d="M1343 231h-270v396h-919v233h1189v-629z" />
    <glyph glyph-name="registered" unicode="&#xae;" horiz-adv-x="1286" 
d="M639 401q-225 0 -379 143t-154 349q0 99 41.5 190.5t112 158.5t170 107t209.5 40q147 0 272 -67.5t197 -182t72 -246.5q0 -135 -72 -248t-196.5 -178.5t-272.5 -65.5zM639 498q184 0 310 116t126 281q0 163 -127 282t-309 119q-180 0 -305 -118.5t-125 -282.5
q0 -166 124.5 -281.5t305.5 -115.5zM539 664h-127v491h311q84 0 138 -45t54 -115q0 -44 -27.5 -80.5t-78.5 -56.5l121 -194h-148l-102 174h-141v-174zM719 1057h-180v-117h178q28 0 48.5 18t20.5 39q0 24 -19 42t-48 18z" />
    <glyph glyph-name="macron" unicode="&#xaf;" 
d="M231 1362h551v-191h-551v191z" />
    <glyph glyph-name="degree" unicode="&#xb0;" 
d="M508 1300q184 0 302 -107.5t118 -262.5q0 -154 -118 -261.5t-302 -107.5q-186 0 -302 107t-116 262q0 156 116 263t302 107zM508 762q80 0 129 48.5t49 119.5q0 72 -49 121t-129 49t-128 -48.5t-48 -121.5q0 -71 48 -119.5t128 -48.5z" />
    <glyph glyph-name="plusminus" unicode="&#xb1;" horiz-adv-x="1542" 
d="M154 662v235h462v317h269v-317h458v-235h-458v-318h-269v318h-462zM154 0v233h1189v-233h-1189z" />
    <glyph glyph-name="two.superior" unicode="&#xb2;" horiz-adv-x="991" 
d="M209 1038l-131 154q58 44 95 68t94 53t119.5 42t135.5 13q75 0 143 -15.5t124.5 -46.5t90 -84.5t33.5 -121.5q0 -42 -13.5 -78.5t-31.5 -63t-52 -51.5t-60 -40t-72 -33t-70.5 -25.5t-72.5 -22.5q-112 -35 -162.5 -66.5t-50.5 -78.5v-4h565v-186h-807v149q0 79 32.5 143
t93.5 109t133 76t165 55q162 44 162 117q0 40 -42 58t-102 18q-91 0 -163 -35t-156 -103z" />
    <glyph glyph-name="three.superior" unicode="&#xb3;" horiz-adv-x="1093" 
d="M453 825v176h165q46 0 72.5 22.5t26.5 55.5q0 49 -46.5 73t-105.5 24q-80 0 -163.5 -39t-153.5 -99l-137 146q231 184 456 184q66 0 131.5 -14.5t126 -43.5t98.5 -81t38 -119q0 -50 -28.5 -93t-68.5 -67q68 -26 115 -78.5t47 -136.5q0 -147 -139.5 -231t-351.5 -84
q-295 0 -500 188l133 152q169 -148 364 -148q110 0 181 35.5t71 97.5q0 80 -135 80h-196z" />
    <glyph glyph-name="acute" unicode="&#xb4;" 
d="M528 1430h277l-221 -300h-240z" />
    <glyph glyph-name="mu" unicode="&#xb5;" horiz-adv-x="1265" 
d="M422 -449h-275v1438h275v-661q0 -56 47.5 -95.5t118.5 -39.5q116 0 229 129v667h273v-706q0 -158 26 -283h-256q-9 56 -12 125q-137 -162 -334 -162q-54 0 -92 25v-437z" />
    <glyph glyph-name="mu" unicode="&#x3bc;" horiz-adv-x="1265" 
d="M422 -449h-275v1438h275v-661q0 -56 47.5 -95.5t118.5 -39.5q116 0 229 129v667h273v-706q0 -158 26 -283h-256q-9 56 -12 125q-137 -162 -334 -162q-54 0 -92 25v-437z" />
    <glyph glyph-name="paragraph" unicode="&#xb6;" horiz-adv-x="1826" 
d="M1169 -424h-249v940h-357q-69 0 -134.5 14t-128 46t-109 79.5t-75 119t-28.5 159.5q0 403 469 403h1077v-1761h-252v1532h-213v-1532zM358 934q0 -94 62.5 -141.5t142.5 -47.5h357v363h-363q-199 0 -199 -174z" />
    <glyph glyph-name="periodcentered" unicode="&#xb7;" horiz-adv-x="1542" 
d="M541 543q0 76 60 130t149 54q87 0 147.5 -54t60.5 -130q0 -77 -60 -130t-148 -53q-90 0 -149.5 53t-59.5 130z" />
    <glyph glyph-name="cedilla" unicode="&#xb8;" 
d="M475 49h184l-55 -115q31 -5 59.5 -13t58.5 -23t52.5 -35t36.5 -49t14 -64q0 -95 -98.5 -155t-253.5 -60q-107 0 -283 43l39 146q15 -2 69.5 -11.5t87.5 -13.5t65 -4q63 0 99 17.5t36 49.5q0 19 -13.5 33.5t-33.5 21.5t-39 10t-35 3q-29 0 -47 -6l-27 59z" />
    <glyph glyph-name="one.superior" unicode="&#xb9;" horiz-adv-x="679" 
d="M63 1030l-51 189l287 118h217v-886h-244v663z" />
    <glyph glyph-name="ordmasculine" unicode="&#xba;" horiz-adv-x="976" 
d="M70 817q0 163 119.5 274t297.5 111t298 -111t120 -274q0 -164 -120 -276.5t-298 -112.5t-297.5 112.5t-119.5 276.5zM297 817q0 -90 50.5 -150.5t139.5 -60.5t141 60.5t52 150.5q0 89 -51.5 147t-141.5 58q-89 0 -139.5 -57.5t-50.5 -147.5z" />
    <glyph glyph-name="guillemotright" unicode="&#xbb;" horiz-adv-x="1286" 
d="M678 831h305l209 -258v-116l-209 -256h-305l256 305v16zM682 522v-16l-250 -305h-305l256 305v16l-256 309h305z" />
    <glyph glyph-name="onequarter" unicode="&#xbc;" horiz-adv-x="2199" 
d="M59 1030l-51 189l287 118h217v-886h-244v663zM1159 1337h234l-760 -1337h-236zM2144 356v-178h-168v-178h-241v178h-652v137l678 572h215v-531h168zM1421 360v-4h314v250h-17q-28 -23 -134.5 -111t-162.5 -135z" />
    <glyph glyph-name="onehalf" unicode="&#xbd;" horiz-adv-x="2101" 
d="M59 1030l-51 189l287 118h217v-886h-244v663zM1159 1337h234l-760 -1337h-236zM1321 588l-133 153q62 45 97 68t93 53t119.5 43t134.5 13q75 0 143 -16t124.5 -47t90 -84.5t33.5 -121.5q0 -33 -8 -62.5t-19.5 -52.5t-33.5 -45t-40 -37t-49.5 -31.5t-52.5 -26t-57.5 -22.5
t-55.5 -19t-56 -17q-110 -35 -160.5 -67t-50.5 -79v-4h565v-186h-807v150q0 79 32.5 143t93 109t133 75.5t165.5 54.5q160 44 160 117q0 28 -22 45.5t-52 24t-68 6.5q-93 0 -165.5 -35t-153.5 -102z" />
    <glyph glyph-name="threequarters" unicode="&#xbe;" horiz-adv-x="2621" 
d="M451 825v176h165q48 0 74.5 22t26.5 56q0 49 -47 73t-107 24q-153 0 -317 -138l-135 146q227 184 456 184q65 0 130 -14.5t125.5 -43.5t98 -81t37.5 -119q0 -50 -28.5 -93t-67.5 -67q70 -26 117 -78.5t47 -136.5q0 -99 -67 -171.5t-177.5 -108t-249.5 -35.5
q-292 0 -497 188l133 152q169 -148 364 -148q109 0 180.5 35.5t71.5 97.5q0 80 -135 80h-198zM1581 1337h234l-760 -1337h-236zM2566 356v-178h-168v-178h-241v178h-652v137l678 572h215v-531h168zM1843 360v-4h314v250h-17q-28 -23 -134.5 -111t-162.5 -135z" />
    <glyph glyph-name="questiondown" unicode="&#xbf;" horiz-adv-x="1159" 
d="M883 12l174 -157q-57 -58 -104 -96t-113 -76.5t-148.5 -57t-181.5 -18.5q-90 0 -166.5 18t-138.5 56t-97.5 104t-35.5 154q0 103 47.5 172.5t134.5 130.5q26 21 68 48t72 47.5t60.5 49t48 66t19.5 84.5h266q2 -63 -14.5 -118.5t-40.5 -93t-65 -76t-74.5 -61.5
t-82.5 -56.5t-75 -53.5q-47 -34 -71.5 -63t-24.5 -68q0 -58 51.5 -89.5t132.5 -31.5q109 0 191.5 47t167.5 139zM809 842q0 -71 -55 -122.5t-136 -51.5t-136.5 51.5t-55.5 122.5q0 72 56 122t136 50t135.5 -50t55.5 -122z" />
    <glyph glyph-name="Agrave" unicode="&#xc0;" horiz-adv-x="1542" 
d="M25 0l620 1337h252l621 -1337h-322l-123 283h-618l-121 -283h-309zM758 987l-203 -473h418l-203 473h-12zM743 1769l205 -282h-246l-251 282h292z" />
    <glyph glyph-name="Aacute" unicode="&#xc1;" horiz-adv-x="1542" 
d="M25 0l620 1337h252l621 -1337h-322l-123 283h-618l-121 -283h-309zM758 987l-203 -473h418l-203 473h-12zM592 1487l205 282h293l-254 -282h-244z" />
    <glyph glyph-name="Acircumflex" unicode="&#xc2;" horiz-adv-x="1542" 
d="M25 0l620 1337h252l621 -1337h-322l-123 283h-618l-121 -283h-309zM758 987l-203 -473h418l-203 473h-12zM418 1487l217 285h270l215 -285h-215l-135 151l-137 -151h-215z" />
    <glyph glyph-name="Atilde" unicode="&#xc3;" horiz-adv-x="1542" 
d="M25 0l620 1337h252l621 -1337h-322l-123 283h-618l-121 -283h-309zM758 987l-203 -473h418l-203 473h-12zM539 1477l-164 88q62 108 123.5 154t136.5 46t147 -51q4 -3 21.5 -14.5t24 -15t19 -10t22.5 -9t20 -2.5q24 0 47.5 17t35 31.5t34.5 45.5l151 -82
q-113 -205 -260 -205q-70 0 -141 48q-5 3 -17 12t-16.5 12t-14.5 9.5t-16 9t-14 6t-15.5 5t-15.5 1.5q-14 0 -26 -4.5t-25 -18t-19 -20t-20.5 -28t-17.5 -25.5z" />
    <glyph glyph-name="Adieresis" unicode="&#xc4;" horiz-adv-x="1542" 
d="M25 0l620 1337h252l621 -1337h-322l-123 283h-618l-121 -283h-309zM758 987l-203 -473h418l-203 473h-12zM389 1634q0 56 43 97t105 41q64 0 107.5 -41t43.5 -97q0 -57 -43.5 -96t-107.5 -39q-63 0 -105.5 39t-42.5 96zM848 1634q0 56 43 97t106 41t107.5 -41t44.5 -97
q0 -57 -44.5 -96t-107.5 -39q-64 0 -106.5 39t-42.5 96z" />
    <glyph glyph-name="Aring" unicode="&#xc5;" horiz-adv-x="1542" 
d="M25 0l620 1337h252l621 -1337h-322l-123 283h-618l-121 -283h-309zM758 987l-203 -473h418l-203 473h-12zM645 1640q0 -45 33.5 -72.5t85.5 -27.5t85.5 27.5t33.5 72.5q0 48 -34 80.5t-85 32.5t-85 -32.5t-34 -80.5zM764 1419q-132 0 -205.5 63.5t-73.5 157.5
q0 95 74 162.5t205 67.5q129 0 203.5 -67.5t74.5 -162.5q0 -94 -74 -157.5t-204 -63.5z" />
    <glyph glyph-name="AE" unicode="&#xc6;" horiz-adv-x="2193" 
d="M948 0v283h-485l-193 -283h-317l917 1337h1190v-254h-819v-260h492v-252h-492v-319h866v-252h-1159zM938 987l-322 -473h332v473h-10z" />
    <glyph glyph-name="Ccedilla" unicode="&#xc7;" horiz-adv-x="1568" 
d="M1329 424l187 -191q-121 -113 -282.5 -188.5t-348.5 -83.5l-13 -27q39 -6 75 -18t70.5 -33t55.5 -55.5t21 -77.5q0 -95 -98.5 -155t-254.5 -60q-106 0 -282 43l39 146q16 -3 69.5 -12t86.5 -13t65 -4q63 0 99 17.5t36 49.5q0 19 -13.5 33.5t-33.5 21.5t-39 10t-35 3
q-29 0 -47 -6l-27 59l43 86q-273 41 -438.5 237t-165.5 464q0 143 53.5 272.5t147.5 226t231 153t295 56.5q180 0 352.5 -63.5t295.5 -169.5l-185 -193q-92 79 -211 125.5t-227 46.5q-198 0 -321 -132t-123 -324q0 -126 55 -229.5t159.5 -165.5t239.5 -62q129 0 252 59.5
t217 153.5z" />
    <glyph glyph-name="Egrave" unicode="&#xc8;" horiz-adv-x="1456" 
d="M997 823v-252h-493v-319h868v-252h-1161v1337h1114v-254h-821v-260h493zM741 1769l205 -282h-246l-251 282h292z" />
    <glyph glyph-name="Eacute" unicode="&#xc9;" horiz-adv-x="1456" 
d="M997 823v-252h-493v-319h868v-252h-1161v1337h1114v-254h-821v-260h493zM590 1487l205 282h292l-253 -282h-244z" />
    <glyph glyph-name="Ecircumflex" unicode="&#xca;" horiz-adv-x="1456" 
d="M997 823v-252h-493v-319h868v-252h-1161v1337h1114v-254h-821v-260h493zM416 1487l217 285h270l215 -285h-215l-135 151l-137 -151h-215z" />
    <glyph glyph-name="Edieresis" unicode="&#xcb;" horiz-adv-x="1456" 
d="M997 823v-252h-493v-319h868v-252h-1161v1337h1114v-254h-821v-260h493zM387 1634q0 56 43 97t105 41q64 0 107.5 -41t43.5 -97q0 -57 -43.5 -96t-107.5 -39q-63 0 -105.5 39t-42.5 96zM846 1634q0 56 43 97t106 41t107.5 -41t44.5 -97q0 -57 -44.5 -96t-107.5 -39
q-64 0 -106.5 39t-42.5 96z" />
    <glyph glyph-name="Igrave" unicode="&#xcc;" horiz-adv-x="714" 
d="M504 0h-293v1337h293v-1337zM332 1769l205 -282h-246l-252 282h293z" />
    <glyph glyph-name="Iacute" unicode="&#xcd;" horiz-adv-x="714" 
d="M504 0h-293v1337h293v-1337zM180 1487l205 282h293l-254 -282h-244z" />
    <glyph glyph-name="Icircumflex" unicode="&#xce;" horiz-adv-x="714" 
d="M504 0h-293v1337h293v-1337zM6 1487l217 285h271l215 -285h-215l-136 151l-137 -151h-215z" />
    <glyph glyph-name="Idieresis" unicode="&#xcf;" horiz-adv-x="714" 
d="M504 0h-293v1337h293v-1337zM-23 1634q0 56 43 97t105 41q64 0 107.5 -41t43.5 -97q0 -57 -43.5 -96t-107.5 -39q-63 0 -105.5 39t-42.5 96zM436 1634q0 56 43 97t107 41q62 0 106.5 -41t44.5 -97q0 -57 -44 -96t-107 -39q-64 0 -107 39t-43 96z" />
    <glyph glyph-name="Eth" unicode="&#xd0;" horiz-adv-x="1712" 
d="M76 575v213h196v549h629q179 0 305 -48t219 -142q88 -91 134.5 -213.5t46.5 -263.5q0 -147 -49.5 -274.5t-143.5 -219.5q-92 -87 -212 -131.5t-300 -44.5h-629v575h-196zM565 252h326q108 0 168.5 22.5t118.5 73.5q122 122 122 320q0 194 -112 309q-55 55 -120 80.5
t-177 25.5h-326v-295h359v-213h-359v-323z" />
    <glyph glyph-name="Ntilde" unicode="&#xd1;" horiz-adv-x="1652" 
d="M1147 1337h295v-1337h-254l-680 827h-2v-827h-295v1337h252l682 -829h2v829zM594 1477l-164 88q62 108 123.5 154t136.5 46q76 0 148 -51q6 -4 22 -14.5t23 -14.5t19 -10.5t22 -9t20 -2.5q24 0 47.5 17t35 31.5t34.5 45.5l151 -82q-113 -205 -260 -205q-70 0 -141 48
q-5 3 -17 12t-16.5 12t-14.5 9.5t-16 9t-14 6t-15.5 5t-15.5 1.5q-14 0 -26 -4.5t-25 -18t-19 -20t-20.5 -28t-17.5 -25.5z" />
    <glyph glyph-name="Ograve" unicode="&#xd2;" horiz-adv-x="1710" 
d="M96 672q0 144 59 274t159.5 225t241 151t296.5 56t297.5 -56t244 -150.5t162.5 -225.5t60 -274q0 -146 -60 -278.5t-162.5 -227.5t-244 -151t-297.5 -56q-209 0 -382.5 95t-273.5 258.5t-100 359.5zM403 672q0 -124 59 -230t162.5 -168.5t227.5 -62.5q191 0 324 135.5
t133 325.5q0 187 -133 319.5t-324 132.5q-188 0 -318.5 -132.5t-130.5 -319.5zM827 1769l205 -282h-246l-251 282h292z" />
    <glyph glyph-name="Oacute" unicode="&#xd3;" horiz-adv-x="1710" 
d="M96 672q0 144 59 274t159.5 225t241 151t296.5 56t297.5 -56t244 -150.5t162.5 -225.5t60 -274q0 -146 -60 -278.5t-162.5 -227.5t-244 -151t-297.5 -56q-209 0 -382.5 95t-273.5 258.5t-100 359.5zM403 672q0 -124 59 -230t162.5 -168.5t227.5 -62.5q191 0 324 135.5
t133 325.5q0 187 -133 319.5t-324 132.5q-188 0 -318.5 -132.5t-130.5 -319.5zM676 1487l205 282h293l-254 -282h-244z" />
    <glyph glyph-name="Ocircumflex" unicode="&#xd4;" horiz-adv-x="1710" 
d="M96 672q0 144 59 274t159.5 225t241 151t296.5 56t297.5 -56t244 -150.5t162.5 -225.5t60 -274q0 -146 -60 -278.5t-162.5 -227.5t-244 -151t-297.5 -56q-209 0 -382.5 95t-273.5 258.5t-100 359.5zM403 672q0 -124 59 -230t162.5 -168.5t227.5 -62.5q191 0 324 135.5
t133 325.5q0 187 -133 319.5t-324 132.5q-188 0 -318.5 -132.5t-130.5 -319.5zM502 1487l217 285h270l215 -285h-215l-135 151l-137 -151h-215z" />
    <glyph glyph-name="Otilde" unicode="&#xd5;" horiz-adv-x="1710" 
d="M96 672q0 144 59 274t159.5 225t241 151t296.5 56t297.5 -56t244 -150.5t162.5 -225.5t60 -274q0 -146 -60 -278.5t-162.5 -227.5t-244 -151t-297.5 -56q-209 0 -382.5 95t-273.5 258.5t-100 359.5zM403 672q0 -124 59 -230t162.5 -168.5t227.5 -62.5q191 0 324 135.5
t133 325.5q0 187 -133 319.5t-324 132.5q-188 0 -318.5 -132.5t-130.5 -319.5zM623 1477l-164 88q62 108 123.5 154t136.5 46t147 -51q4 -3 21.5 -14.5t24 -15t19 -10t22.5 -9t20 -2.5q24 0 47.5 17t35 31.5t34.5 45.5l151 -82q-113 -205 -260 -205q-70 0 -141 48
q-5 3 -17 12t-16.5 12t-14.5 9.5t-16 9t-14 6t-15.5 5t-15.5 1.5q-14 0 -26 -4.5t-25 -18t-19 -20t-20.5 -28t-17.5 -25.5z" />
    <glyph glyph-name="Odieresis" unicode="&#xd6;" horiz-adv-x="1710" 
d="M96 672q0 144 59 274t159.5 225t241 151t296.5 56t297.5 -56t244 -150.5t162.5 -225.5t60 -274q0 -146 -60 -278.5t-162.5 -227.5t-244 -151t-297.5 -56q-209 0 -382.5 95t-273.5 258.5t-100 359.5zM403 672q0 -124 59 -230t162.5 -168.5t227.5 -62.5q191 0 324 135.5
t133 325.5q0 187 -133 319.5t-324 132.5q-188 0 -318.5 -132.5t-130.5 -319.5zM473 1634q0 56 43 97t105 41q64 0 107.5 -41t43.5 -97q0 -57 -43.5 -96t-107.5 -39q-63 0 -105.5 39t-42.5 96zM932 1634q0 56 43 97t106 41t107.5 -41t44.5 -97q0 -57 -44.5 -96t-107.5 -39
q-64 0 -106.5 39t-42.5 96z" />
    <glyph glyph-name="multiply" unicode="&#xd7;" horiz-adv-x="1542" 
d="M158 883l182 174l412 -352l409 352l178 -172l-399 -342l401 -342l-182 -172l-411 350l-412 -350l-176 170l399 342z" />
    <glyph glyph-name="Oslash" unicode="&#xd8;" horiz-adv-x="1710" 
d="M96 672q0 144 59 274t159.5 225t241 151t296.5 56q167 0 322 -65l114 164l176 -119l-108 -156q122 -98 191 -236t69 -294q0 -146 -60 -278.5t-162.5 -227.5t-244 -151t-297.5 -56q-162 0 -320 64l-112 -162l-176 119l106 153q-120 100 -187 239.5t-67 299.5zM1309 672
q0 171 -115 299l-508 -729q79 -31 166 -31q191 0 324 135.5t133 325.5zM403 672q0 -175 111 -305l506 725q-85 32 -168 32q-188 0 -318.5 -132.5t-130.5 -319.5z" />
    <glyph glyph-name="Ugrave" unicode="&#xd9;" horiz-adv-x="1593" 
d="M1112 1337h295v-856q0 -163 -79.5 -282.5t-217 -179.5t-315.5 -60q-174 0 -310.5 60t-217.5 179.5t-81 282.5v856h295v-856q0 -127 89.5 -198.5t224.5 -71.5q141 0 229 71t88 199v856zM768 1769l205 -282h-246l-252 282h293z" />
    <glyph glyph-name="Uacute" unicode="&#xda;" horiz-adv-x="1593" 
d="M1112 1337h295v-856q0 -163 -79.5 -282.5t-217 -179.5t-315.5 -60q-174 0 -310.5 60t-217.5 179.5t-81 282.5v856h295v-856q0 -127 89.5 -198.5t224.5 -71.5q141 0 229 71t88 199v856zM616 1487l205 282h293l-254 -282h-244z" />
    <glyph glyph-name="Ucircumflex" unicode="&#xdb;" horiz-adv-x="1593" 
d="M1112 1337h295v-856q0 -163 -79.5 -282.5t-217 -179.5t-315.5 -60q-174 0 -310.5 60t-217.5 179.5t-81 282.5v856h295v-856q0 -127 89.5 -198.5t224.5 -71.5q141 0 229 71t88 199v856zM442 1487l217 285h271l215 -285h-215l-135 151l-138 -151h-215z" />
    <glyph glyph-name="Udieresis" unicode="&#xdc;" horiz-adv-x="1593" 
d="M1112 1337h295v-856q0 -163 -79.5 -282.5t-217 -179.5t-315.5 -60q-174 0 -310.5 60t-217.5 179.5t-81 282.5v856h295v-856q0 -127 89.5 -198.5t224.5 -71.5q141 0 229 71t88 199v856zM414 1634q0 56 42.5 97t104.5 41q64 0 108 -41t44 -97q0 -57 -44 -96t-108 -39
q-63 0 -105 39t-42 96zM872 1634q0 56 43 97t107 41q63 0 107.5 -41t44.5 -97q0 -57 -44.5 -96t-107.5 -39q-64 0 -107 39t-43 96z" />
    <glyph glyph-name="Yacute" unicode="&#xdd;" horiz-adv-x="1372" 
d="M1020 1337h344l-530 -727v-610h-295v610l-533 727h365l325 -465zM508 1487l205 282h293l-254 -282h-244z" />
    <glyph glyph-name="Thorn" unicode="&#xde;" horiz-adv-x="1564" 
d="M504 1337v-245h489q265 0 404 -148q108 -120 108 -274q0 -171 -127 -295q-135 -129 -385 -129h-489v-246h-293v1337h293zM1004 844h-500v-350h500q100 0 153 51q53 53 53 123q0 68 -49 120q-54 56 -157 56z" />
    <glyph glyph-name="germandbls" unicode="&#xdf;" horiz-adv-x="1255" 
d="M635 -20l-21 204q136 0 209.5 56.5t73.5 148.5q0 51 -24 96.5t-60.5 77.5t-81 57t-83.5 38t-70 18l20 203q84 16 130 74t46 130q0 76 -48 119t-118 43q-74 0 -127 -58t-53 -171v-1016h-270v1018q0 115 38.5 202.5t103.5 138t142 75t164 24.5q198 0 320.5 -97t122.5 -249
q0 -59 -23 -111.5t-59 -88t-72.5 -59.5t-71.5 -36q51 -14 107 -49t112 -88.5t92.5 -134t36.5 -170.5q0 -176 -140 -285.5t-396 -109.5z" />
    <glyph glyph-name="agrave" unicode="&#xe0;" horiz-adv-x="1224" 
d="M231 723l-84 203q84 42 209.5 74t257.5 32q90 0 169 -16.5t146.5 -50.5t106.5 -94.5t39 -141.5v-534q0 -107 29 -195h-270q-13 40 -25 115q-68 -67 -143 -103.5t-193 -36.5q-179 0 -287 95.5t-108 244.5q0 144 117.5 238t320.5 94q181 0 287 -82v101q0 75 -58 113
t-153 38q-87 0 -191.5 -30t-169.5 -64zM532 176q152 0 271 111v96q-35 30 -97.5 51t-134.5 21q-114 0 -167.5 -39t-53.5 -101q0 -64 48.5 -101.5t133.5 -37.5zM315 1430h275l184 -300h-237z" />
    <glyph glyph-name="aacute" unicode="&#xe1;" horiz-adv-x="1224" 
d="M231 723l-84 203q84 42 209.5 74t257.5 32q90 0 169 -16.5t146.5 -50.5t106.5 -94.5t39 -141.5v-534q0 -107 29 -195h-270q-13 40 -25 115q-68 -67 -143 -103.5t-193 -36.5q-179 0 -287 95.5t-108 244.5q0 144 117.5 238t320.5 94q181 0 287 -82v101q0 75 -58 113
t-153 38q-87 0 -191.5 -30t-169.5 -64zM532 176q152 0 271 111v96q-35 30 -97.5 51t-134.5 21q-114 0 -167.5 -39t-53.5 -101q0 -64 48.5 -101.5t133.5 -37.5zM633 1430h276l-221 -300h-239z" />
    <glyph glyph-name="acircumflex" unicode="&#xe2;" horiz-adv-x="1224" 
d="M231 723l-84 203q84 42 209.5 74t257.5 32q90 0 169 -16.5t146.5 -50.5t106.5 -94.5t39 -141.5v-534q0 -107 29 -195h-270q-13 40 -25 115q-68 -67 -143 -103.5t-193 -36.5q-179 0 -287 95.5t-108 244.5q0 144 117.5 238t320.5 94q181 0 287 -82v101q0 75 -58 113
t-153 38q-87 0 -191.5 -30t-169.5 -64zM532 176q152 0 271 111v96q-35 30 -97.5 51t-134.5 21q-114 0 -167.5 -39t-53.5 -101q0 -64 48.5 -101.5t133.5 -37.5zM260 1133l217 288h271l215 -288h-215l-136 155l-137 -155h-215z" />
    <glyph glyph-name="atilde" unicode="&#xe3;" horiz-adv-x="1224" 
d="M231 723l-84 203q84 42 209.5 74t257.5 32q90 0 169 -16.5t146.5 -50.5t106.5 -94.5t39 -141.5v-534q0 -107 29 -195h-270q-13 40 -25 115q-68 -67 -143 -103.5t-193 -36.5q-179 0 -287 95.5t-108 244.5q0 144 117.5 238t320.5 94q181 0 287 -82v101q0 75 -58 113
t-153 38q-87 0 -191.5 -30t-169.5 -64zM532 176q152 0 271 111v96q-35 30 -97.5 51t-134.5 21q-114 0 -167.5 -39t-53.5 -101q0 -64 48.5 -101.5t133.5 -37.5zM381 1120l-164 88q62 110 123 156.5t137 46.5t148 -51q3 -2 8 -5q59 -42 88 -45q5 -1 10 -1q24 0 47 16t36.5 32
t33.5 46l151 -82q-113 -205 -260 -205q-71 0 -141 47q-6 4 -19.5 14t-19 14t-17 10.5t-18.5 9.5t-16.5 5.5t-18.5 2.5q-14 0 -26.5 -5.5t-24.5 -18t-19 -21.5t-20 -28.5t-18 -25.5z" />
    <glyph glyph-name="adieresis" unicode="&#xe4;" horiz-adv-x="1224" 
d="M231 723l-84 203q84 42 209.5 74t257.5 32q90 0 169 -16.5t146.5 -50.5t106.5 -94.5t39 -141.5v-534q0 -107 29 -195h-270q-13 40 -25 115q-68 -67 -143 -103.5t-193 -36.5q-179 0 -287 95.5t-108 244.5q0 144 117.5 238t320.5 94q181 0 287 -82v101q0 75 -58 113
t-153 38q-87 0 -191.5 -30t-169.5 -64zM532 176q152 0 271 111v96q-35 30 -97.5 51t-134.5 21q-114 0 -167.5 -39t-53.5 -101q0 -64 48.5 -101.5t133.5 -37.5zM231 1280q0 56 43 96.5t105 40.5q64 0 107.5 -40.5t43.5 -96.5q0 -57 -43.5 -96t-107.5 -39q-63 0 -105.5 39
t-42.5 96zM690 1280q0 56 43 96.5t107 40.5q63 0 107 -40.5t44 -96.5q0 -57 -44 -96t-107 -39q-64 0 -107 39t-43 96z" />
    <glyph glyph-name="aring" unicode="&#xe5;" horiz-adv-x="1224" 
d="M231 723l-84 203q84 42 209.5 74t257.5 32q90 0 169 -16.5t146.5 -50.5t106.5 -94.5t39 -141.5v-534q0 -107 29 -195h-270q-13 40 -25 115q-68 -67 -143 -103.5t-193 -36.5q-179 0 -287 95.5t-108 244.5q0 144 117.5 238t320.5 94q181 0 287 -82v101q0 75 -58 113
t-153 38q-87 0 -191.5 -30t-169.5 -64zM532 176q152 0 271 111v96q-35 30 -97.5 51t-134.5 21q-114 0 -167.5 -39t-53.5 -101q0 -64 48.5 -101.5t133.5 -37.5zM487 1331q0 -44 34 -72t85 -28t85 28t34 72q0 49 -34 82t-85 33t-85 -33t-34 -82zM328 1331q0 97 73 163.5
t205 66.5q129 0 204 -67t75 -163q0 -92 -74.5 -155.5t-204.5 -63.5q-132 0 -205 63t-73 156z" />
    <glyph glyph-name="ae" unicode="&#xe6;" horiz-adv-x="1918" 
d="M1667 291l129 -174q-87 -66 -210.5 -107t-256.5 -41q-132 0 -236.5 48.5t-174.5 134.5q-187 -181 -445 -181q-178 0 -286.5 97.5t-108.5 246.5q0 144 117.5 238t320.5 94q187 0 291 -82v101q0 75 -59.5 113t-155.5 38q-87 0 -191.5 -30t-169.5 -64l-84 203
q84 42 209.5 74t257.5 32q271 0 359 -141l8 -10q62 70 154.5 110.5t191.5 40.5q98 0 186 -29.5t161 -88.5t116 -161t43 -235q0 -37 -4 -86h-760q18 -106 93.5 -175t189.5 -69q170 0 315 103zM532 176q176 0 295 137q-11 33 -18 68q-98 74 -238 74q-114 0 -167.5 -39
t-53.5 -101q0 -64 48.5 -101.5t133.5 -37.5zM1331 823q-104 0 -168.5 -57t-89.5 -152h483q0 99 -68.5 154t-156.5 55z" />
    <glyph glyph-name="ccedilla" unicode="&#xe7;" horiz-adv-x="1142" 
d="M1073 862l-170 -180q-122 119 -256 119q-113 0 -189.5 -82t-76.5 -215q0 -134 80.5 -219.5t195.5 -85.5q130 0 269 135l168 -168q-20 -23 -52 -49t-83.5 -58.5t-124.5 -57t-152 -30.5l-16 -37q31 -5 59.5 -13t58.5 -23t52.5 -35t36.5 -49t14 -64q0 -95 -98.5 -155
t-253.5 -60q-107 0 -283 43l39 146q16 -3 69.5 -12t86.5 -13t65 -4q63 0 99 17.5t36 49.5q0 19 -13.5 33.5t-33.5 21.5t-39 10t-35 3q-29 0 -47 -6l-26 59l49 101q-179 38 -295.5 179t-116.5 341q0 156 72.5 277.5t194.5 186t270 64.5q120 0 235.5 -42.5t210.5 -127.5z" />
    <glyph glyph-name="egrave" unicode="&#xe8;" horiz-adv-x="1208" 
d="M954 291l129 -174q-86 -65 -213 -106.5t-258 -41.5q-123 0 -223.5 42t-165 114t-99 166.5t-34.5 200.5q0 150 67.5 273.5t189.5 195t274 71.5q95 0 181.5 -29.5t159.5 -89t116.5 -162t43.5 -235.5q0 -37 -4 -84h-760q18 -110 92.5 -177t196.5 -67q79 0 162 28.5t145 74.5
zM618 823q-102 0 -164.5 -58t-88.5 -151h481q-1 67 -37 116t-86 71t-105 22zM326 1430h274l184 -300h-237z" />
    <glyph glyph-name="eacute" unicode="&#xe9;" horiz-adv-x="1208" 
d="M954 291l129 -174q-86 -65 -213 -106.5t-258 -41.5q-123 0 -223.5 42t-165 114t-99 166.5t-34.5 200.5q0 150 67.5 273.5t189.5 195t274 71.5q95 0 181.5 -29.5t159.5 -89t116.5 -162t43.5 -235.5q0 -37 -4 -84h-760q18 -110 92.5 -177t196.5 -67q79 0 162 28.5t145 74.5
zM618 823q-102 0 -164.5 -58t-88.5 -151h481q-1 67 -37 116t-86 71t-105 22zM643 1430h277l-222 -300h-239z" />
    <glyph glyph-name="ecircumflex" unicode="&#xea;" horiz-adv-x="1208" 
d="M954 291l129 -174q-86 -65 -213 -106.5t-258 -41.5q-123 0 -223.5 42t-165 114t-99 166.5t-34.5 200.5q0 150 67.5 273.5t189.5 195t274 71.5q95 0 181.5 -29.5t159.5 -89t116.5 -162t43.5 -235.5q0 -37 -4 -84h-760q18 -110 92.5 -177t196.5 -67q79 0 162 28.5t145 74.5
zM618 823q-102 0 -164.5 -58t-88.5 -151h481q-1 67 -37 116t-86 71t-105 22zM270 1133l217 288h271l215 -288h-215l-135 155l-138 -155h-215z" />
    <glyph glyph-name="edieresis" unicode="&#xeb;" horiz-adv-x="1208" 
d="M954 291l129 -174q-86 -65 -213 -106.5t-258 -41.5q-123 0 -223.5 42t-165 114t-99 166.5t-34.5 200.5q0 150 67.5 273.5t189.5 195t274 71.5q95 0 181.5 -29.5t159.5 -89t116.5 -162t43.5 -235.5q0 -37 -4 -84h-760q18 -110 92.5 -177t196.5 -67q79 0 162 28.5t145 74.5
zM618 823q-102 0 -164.5 -58t-88.5 -151h481q-1 67 -37 116t-86 71t-105 22zM242 1280q0 56 42.5 96.5t104.5 40.5q64 0 108 -40.5t44 -96.5q0 -57 -44 -96t-108 -39q-63 0 -105 39t-42 96zM700 1280q0 56 43 96.5t107 40.5q63 0 107 -40.5t44 -96.5q0 -57 -44 -96t-107 -39
q-64 0 -107 39t-43 96z" />
    <glyph glyph-name="igrave" unicode="&#xec;" horiz-adv-x="587" 
d="M430 0h-272v999h272v-999zM-2 1430h274l185 -300h-238z" />
    <glyph glyph-name="iacute" unicode="&#xed;" horiz-adv-x="587" 
d="M430 0h-272v999h272v-999zM315 1430h277l-221 -300h-240z" />
    <glyph glyph-name="icircumflex" unicode="&#xee;" horiz-adv-x="587" 
d="M430 0h-272v999h272v-999zM-57 1133l217 288h270l215 -288h-215l-135 155l-137 -155h-215z" />
    <glyph glyph-name="idieresis" unicode="&#xef;" horiz-adv-x="587" 
d="M430 0h-272v999h272v-999zM-86 1280q0 56 42.5 96.5t104.5 40.5q64 0 108 -40.5t44 -96.5q0 -57 -44 -96t-108 -39q-63 0 -105 39t-42 96zM373 1280q0 56 42.5 96.5t106.5 40.5q63 0 107.5 -40.5t44.5 -96.5q0 -57 -44.5 -96t-107.5 -39q-64 0 -106.5 39t-42.5 96z" />
    <glyph glyph-name="eth" unicode="&#xf0;" horiz-adv-x="1292" 
d="M315 1059l-49 141l236 70q-61 46 -183 123l279 71q16 -11 49.5 -33.5t62.5 -42t54 -38.5l262 77l49 -141l-176 -53q275 -270 275 -678q0 -136 -42.5 -247.5t-116.5 -185t-173 -113.5t-213 -40t-214 41.5t-170.5 112t-111.5 167t-41 202.5q0 214 137 356.5t344 142.5
q156 0 277 -102q-67 134 -209 266zM373 494q0 -124 70 -209.5t184 -85.5q119 0 193.5 86t74.5 209t-73.5 204.5t-194.5 81.5q-116 0 -185 -81.5t-69 -204.5z" />
    <glyph glyph-name="ntilde" unicode="&#xf1;" horiz-adv-x="1249" 
d="M401 868q138 164 336 164q154 0 259.5 -102.5t105.5 -257.5v-672h-275v662q0 58 -46.5 98.5t-118.5 40.5q-113 0 -230 -129v-672h-272v715q0 144 -29 284h250q15 -74 20 -131zM391 1120l-164 88q62 110 123 156.5t137 46.5t148 -51q3 -2 8 -5q59 -42 88 -45q5 -1 10 -1
q24 0 47 16t36.5 32t33.5 46l152 -82q-113 -205 -260 -205q-72 0 -142 47q-5 4 -22.5 16.5t-23.5 16.5t-19 11t-22.5 9.5t-20.5 2.5q-14 0 -26.5 -5t-25 -18t-19 -21.5t-20.5 -29t-18 -25.5z" />
    <glyph glyph-name="ograve" unicode="&#xf2;" horiz-adv-x="1269" 
d="M90 504q0 148 67.5 268t192 190t283.5 70q241 0 394 -151t153 -377q0 -148 -68 -269.5t-194 -193.5t-285 -72q-158 0 -283 72t-192.5 193.5t-67.5 269.5zM371 504q0 -130 71 -219.5t191 -89.5q123 0 195.5 89.5t72.5 219.5q0 128 -72.5 214.5t-195.5 86.5
q-121 0 -191.5 -86.5t-70.5 -214.5zM338 1430h274l185 -300h-238z" />
    <glyph glyph-name="oacute" unicode="&#xf3;" horiz-adv-x="1269" 
d="M90 504q0 148 67.5 268t192 190t283.5 70q241 0 394 -151t153 -377q0 -148 -68 -269.5t-194 -193.5t-285 -72q-158 0 -283 72t-192.5 193.5t-67.5 269.5zM371 504q0 -130 71 -219.5t191 -89.5q123 0 195.5 89.5t72.5 219.5q0 128 -72.5 214.5t-195.5 86.5
q-121 0 -191.5 -86.5t-70.5 -214.5zM655 1430h277l-221 -300h-240z" />
    <glyph glyph-name="ocircumflex" unicode="&#xf4;" horiz-adv-x="1269" 
d="M90 504q0 148 67.5 268t192 190t283.5 70q241 0 394 -151t153 -377q0 -148 -68 -269.5t-194 -193.5t-285 -72q-158 0 -283 72t-192.5 193.5t-67.5 269.5zM371 504q0 -130 71 -219.5t191 -89.5q123 0 195.5 89.5t72.5 219.5q0 128 -72.5 214.5t-195.5 86.5
q-121 0 -191.5 -86.5t-70.5 -214.5zM283 1133l217 288h270l215 -288h-215l-135 155l-137 -155h-215z" />
    <glyph glyph-name="otilde" unicode="&#xf5;" horiz-adv-x="1269" 
d="M90 504q0 148 67.5 268t192 190t283.5 70q241 0 394 -151t153 -377q0 -148 -68 -269.5t-194 -193.5t-285 -72q-158 0 -283 72t-192.5 193.5t-67.5 269.5zM371 504q0 -130 71 -219.5t191 -89.5q123 0 195.5 89.5t72.5 219.5q0 128 -72.5 214.5t-195.5 86.5
q-121 0 -191.5 -86.5t-70.5 -214.5zM403 1120l-163 88q62 110 123 156.5t137 46.5q75 0 147 -51q27 -19 39 -26.5t32 -16t36 -8.5q24 0 47 16t35.5 32t33.5 46l152 -82q-113 -205 -260 -205q-71 0 -141 47q-6 4 -19.5 14t-19 14t-17 10.5t-18.5 9.5t-16.5 5.5t-18.5 2.5
q-14 0 -26.5 -5t-25 -18t-19 -21.5t-20.5 -29t-18 -25.5z" />
    <glyph glyph-name="odieresis" unicode="&#xf6;" horiz-adv-x="1269" 
d="M90 504q0 148 67.5 268t192 190t283.5 70q241 0 394 -151t153 -377q0 -148 -68 -269.5t-194 -193.5t-285 -72q-158 0 -283 72t-192.5 193.5t-67.5 269.5zM371 504q0 -130 71 -219.5t191 -89.5q123 0 195.5 89.5t72.5 219.5q0 128 -72.5 214.5t-195.5 86.5
q-121 0 -191.5 -86.5t-70.5 -214.5zM254 1280q0 56 42.5 96.5t104.5 40.5q64 0 108 -40.5t44 -96.5q0 -57 -44 -96t-108 -39q-63 0 -105 39t-42 96zM713 1280q0 56 42.5 96.5t106.5 40.5q63 0 107.5 -40.5t44.5 -96.5q0 -57 -44.5 -96t-107.5 -39q-64 0 -106.5 39t-42.5 96z
" />
    <glyph glyph-name="divide" unicode="&#xf7;" horiz-adv-x="1542" 
d="M154 426v233h1189v-233h-1189zM571 141q0 65 52.5 111.5t128.5 46.5t128 -46.5t52 -111.5q0 -67 -51.5 -112t-128.5 -45t-129 45t-52 112zM571 942q0 66 52.5 112t128.5 46t128 -46t52 -112t-52 -112t-128 -46t-128.5 46t-52.5 112z" />
    <glyph glyph-name="oslash" unicode="&#xf8;" horiz-adv-x="1269" 
d="M307 -125l-149 105l94 133q-162 156 -162 391q0 226 152 377t393 151q123 0 229 -45l99 139l147 -104l-92 -131q78 -73 121 -173t43 -214q0 -148 -68 -269.5t-194 -193.5t-285 -72q-123 0 -232 45zM635 180q127 0 202.5 94.5t75.5 229.5q0 95 -43 176l-335 -481
q46 -19 100 -19zM360 504q0 -101 41 -178l332 475q-43 18 -98 18q-126 0 -200.5 -90.5t-74.5 -224.5z" />
    <glyph glyph-name="ugrave" unicode="&#xf9;" horiz-adv-x="1247" 
d="M846 129q-144 -162 -336 -162q-154 0 -259.5 103t-105.5 258v671h275v-661q0 -59 46.5 -99t119.5 -40q118 0 229 129v671h272v-716q0 -144 25 -283h-254q-8 45 -12 129zM326 1430h274l184 -300h-237z" />
    <glyph glyph-name="uacute" unicode="&#xfa;" horiz-adv-x="1247" 
d="M846 129q-144 -162 -336 -162q-154 0 -259.5 103t-105.5 258v671h275v-661q0 -59 46.5 -99t119.5 -40q118 0 229 129v671h272v-716q0 -144 25 -283h-254q-8 45 -12 129zM643 1430h277l-222 -300h-239z" />
    <glyph glyph-name="ucircumflex" unicode="&#xfb;" horiz-adv-x="1247" 
d="M846 129q-144 -162 -336 -162q-154 0 -259.5 103t-105.5 258v671h275v-661q0 -59 46.5 -99t119.5 -40q118 0 229 129v671h272v-716q0 -144 25 -283h-254q-8 45 -12 129zM270 1133l217 288h271l215 -288h-215l-135 155l-138 -155h-215z" />
    <glyph glyph-name="udieresis" unicode="&#xfc;" horiz-adv-x="1247" 
d="M846 129q-144 -162 -336 -162q-154 0 -259.5 103t-105.5 258v671h275v-661q0 -59 46.5 -99t119.5 -40q118 0 229 129v671h272v-716q0 -144 25 -283h-254q-8 45 -12 129zM242 1280q0 56 42.5 96.5t104.5 40.5q64 0 108 -40.5t44 -96.5q0 -57 -44 -96t-108 -39
q-63 0 -105 39t-42 96zM700 1280q0 56 43 96.5t107 40.5q63 0 107 -40.5t44 -96.5q0 -57 -44 -96t-107 -39q-64 0 -107 39t-43 96z" />
    <glyph glyph-name="yacute" unicode="&#xfd;" horiz-adv-x="1140" 
d="M575 403h13l264 596h281l-674 -1423h-285l260 516l-405 907h305zM598 1430h276l-221 -300h-239z" />
    <glyph glyph-name="thorn" unicode="&#xfe;" horiz-adv-x="1294" 
d="M674 201q98 0 164.5 83.5t66.5 215.5q0 136 -67 218.5t-164 82.5q-131 0 -244 -113v-379q118 -108 244 -108zM430 1434v-531q129 129 283 129q205 0 346 -147t141 -385q0 -115 -39 -215t-105 -168t-155 -107t-188 -39q-160 0 -283 129v-524h-272v1858h272z" />
    <glyph glyph-name="ydieresis" unicode="&#xff;" horiz-adv-x="1140" 
d="M575 403h13l264 596h281l-674 -1423h-285l260 516l-405 907h305zM197 1280q0 56 42.5 96.5t104.5 40.5q64 0 108 -40.5t44 -96.5q0 -57 -44 -96t-108 -39q-63 0 -105 39t-42 96zM655 1280q0 56 43 96.5t107 40.5q63 0 107 -40.5t44 -96.5q0 -57 -44 -96t-107 -39
q-64 0 -107 39t-43 96z" />
    <glyph glyph-name="Amacron" unicode="&#x100;" horiz-adv-x="1542" 
d="M25 0l620 1337h252l621 -1337h-322l-123 283h-618l-121 -283h-309zM758 987l-203 -473h418l-203 473h-12zM494 1716h550v-190h-550v190z" />
    <glyph glyph-name="amacron" unicode="&#x101;" horiz-adv-x="1224" 
d="M231 723l-84 203q84 42 209.5 74t257.5 32q90 0 169 -16.5t146.5 -50.5t106.5 -94.5t39 -141.5v-534q0 -107 29 -195h-270q-13 40 -25 115q-68 -67 -143 -103.5t-193 -36.5q-179 0 -287 95.5t-108 244.5q0 144 117.5 238t320.5 94q181 0 287 -82v101q0 75 -58 113
t-153 38q-87 0 -191.5 -30t-169.5 -64zM532 176q152 0 271 111v96q-35 30 -97.5 51t-134.5 21q-114 0 -167.5 -39t-53.5 -101q0 -64 48.5 -101.5t133.5 -37.5zM336 1362h551v-191h-551v191z" />
    <glyph glyph-name="Abreve" unicode="&#x102;" horiz-adv-x="1542" 
d="M25 0l620 1337h252l621 -1337h-322l-123 283h-618l-121 -283h-309zM758 987l-203 -473h418l-203 473h-12zM440 1769h191q0 -139 139 -139q137 0 137 139h191q0 -43 -8 -82t-30.5 -80.5t-58 -71.5t-95 -49.5t-136.5 -19.5t-137 19.5t-95.5 49.5t-58 71t-31 80.5t-8.5 82.5
z" />
    <glyph glyph-name="abreve" unicode="&#x103;" horiz-adv-x="1224" 
d="M231 723l-84 203q84 42 209.5 74t257.5 32q90 0 169 -16.5t146.5 -50.5t106.5 -94.5t39 -141.5v-534q0 -107 29 -195h-270q-13 40 -25 115q-68 -67 -143 -103.5t-193 -36.5q-179 0 -287 95.5t-108 244.5q0 144 117.5 238t320.5 94q181 0 287 -82v101q0 75 -58 113
t-153 38q-87 0 -191.5 -30t-169.5 -64zM532 176q152 0 271 111v96q-35 30 -97.5 51t-134.5 21q-114 0 -167.5 -39t-53.5 -101q0 -64 48.5 -101.5t133.5 -37.5zM283 1419h190q0 -143 139 -143q138 0 138 143h190q0 -44 -8 -83.5t-30.5 -81.5t-58 -72.5t-95 -50t-136.5 -19.5
q-95 0 -163.5 28.5t-102.5 76.5t-48.5 97t-14.5 105z" />
    <glyph glyph-name="Aogonek" unicode="&#x104;" horiz-adv-x="1542" 
d="M25 0l620 1337h252l621 -1337h-86q-211 -93 -211 -197q0 -44 33 -68t92 -24q24 0 120 17l23 -164q-106 -29 -193 -29q-134 0 -213 59.5t-79 155.5q0 148 188 260l-119 273h-618l-121 -283h-309zM758 987l-203 -473h418l-203 473h-12z" />
    <glyph glyph-name="aogonek" unicode="&#x105;" horiz-adv-x="1224" 
d="M231 723l-84 203q84 42 209.5 74t257.5 32q90 0 169 -16.5t146.5 -50.5t106.5 -94.5t39 -141.5v-534q0 -107 29 -195h-14q-211 -93 -211 -197q0 -44 33 -68t92 -24q24 0 120 17l23 -164q-106 -29 -193 -29q-134 0 -213 59.5t-79 155.5q0 140 172 250q-13 40 -25 115
q-68 -67 -143 -103.5t-193 -36.5q-179 0 -287 95.5t-108 244.5q0 144 117.5 238t320.5 94q181 0 287 -82v101q0 75 -58 113t-153 38q-87 0 -191.5 -30t-169.5 -64zM532 176q152 0 271 111v96q-35 30 -97.5 51t-134.5 21q-114 0 -167.5 -39t-53.5 -101q0 -64 48.5 -101.5
t133.5 -37.5z" />
    <glyph glyph-name="Cacute" unicode="&#x106;" horiz-adv-x="1568" 
d="M1329 424l187 -191q-130 -120 -303 -197t-377 -77q-163 0 -302 56t-234 152t-148.5 226.5t-53.5 276.5q0 143 53.5 272.5t147.5 226t231 153t295 56.5q180 0 352.5 -63.5t295.5 -169.5l-185 -193q-92 79 -211 125.5t-227 46.5q-198 0 -321 -132t-123 -324
q0 -126 55 -229.5t159.5 -165.5t239.5 -62q129 0 252 59.5t217 153.5zM653 1487l205 282h293l-254 -282h-244z" />
    <glyph glyph-name="cacute" unicode="&#x107;" horiz-adv-x="1142" 
d="M1073 862l-170 -180q-122 119 -256 119q-113 0 -189.5 -82t-76.5 -215q0 -134 80.5 -219.5t195.5 -85.5q130 0 269 135l168 -168q-16 -18 -40.5 -40t-69 -51t-95 -51.5t-120 -38.5t-142.5 -16q-108 0 -206 39t-171 107.5t-116.5 169.5t-43.5 219q0 156 72.5 277.5
t194.5 186t270 64.5q120 0 235.5 -42.5t210.5 -127.5zM649 1430h277l-221 -300h-240z" />
    <glyph glyph-name="Ccircumflex" unicode="&#x108;" horiz-adv-x="1568" 
d="M1329 424l187 -191q-130 -120 -303 -197t-377 -77q-163 0 -302 56t-234 152t-148.5 226.5t-53.5 276.5q0 143 53.5 272.5t147.5 226t231 153t295 56.5q180 0 352.5 -63.5t295.5 -169.5l-185 -193q-92 79 -211 125.5t-227 46.5q-198 0 -321 -132t-123 -324
q0 -126 55 -229.5t159.5 -165.5t239.5 -62q129 0 252 59.5t217 153.5zM479 1487l217 285h271l215 -285h-215l-136 151l-137 -151h-215z" />
    <glyph glyph-name="ccircumflex" unicode="&#x109;" horiz-adv-x="1142" 
d="M1073 862l-170 -180q-122 119 -256 119q-113 0 -189.5 -82t-76.5 -215q0 -134 80.5 -219.5t195.5 -85.5q130 0 269 135l168 -168q-16 -18 -40.5 -40t-69 -51t-95 -51.5t-120 -38.5t-142.5 -16q-108 0 -206 39t-171 107.5t-116.5 169.5t-43.5 219q0 156 72.5 277.5
t194.5 186t270 64.5q120 0 235.5 -42.5t210.5 -127.5zM276 1133l218 288h270l215 -288h-215l-135 155l-137 -155h-216z" />
    <glyph glyph-name="Cdotaccent" unicode="&#x10a;" horiz-adv-x="1568" 
d="M1329 424l187 -191q-130 -120 -303 -197t-377 -77q-163 0 -302 56t-234 152t-148.5 226.5t-53.5 276.5q0 143 53.5 272.5t147.5 226t231 153t295 56.5q180 0 352.5 -63.5t295.5 -169.5l-185 -193q-92 79 -211 125.5t-227 46.5q-198 0 -321 -132t-123 -324
q0 -126 55 -229.5t159.5 -165.5t239.5 -62q129 0 252 59.5t217 153.5zM682 1634q0 56 42.5 97t104.5 41q64 0 108 -41t44 -97q0 -57 -44 -96t-108 -39q-63 0 -105 39t-42 96z" />
    <glyph glyph-name="cdotaccent" unicode="&#x10b;" horiz-adv-x="1142" 
d="M1073 862l-170 -180q-122 119 -256 119q-113 0 -189.5 -82t-76.5 -215q0 -134 80.5 -219.5t195.5 -85.5q130 0 269 135l168 -168q-16 -18 -40.5 -40t-69 -51t-95 -51.5t-120 -38.5t-142.5 -16q-108 0 -206 39t-171 107.5t-116.5 169.5t-43.5 219q0 156 72.5 277.5
t194.5 186t270 64.5q120 0 235.5 -42.5t210.5 -127.5zM479 1280q0 56 43 96.5t105 40.5q64 0 107.5 -40.5t43.5 -96.5q0 -57 -43.5 -96t-107.5 -39q-63 0 -105.5 39t-42.5 96z" />
    <glyph glyph-name="Ccaron" unicode="&#x10c;" horiz-adv-x="1568" 
d="M1329 424l187 -191q-130 -120 -303 -197t-377 -77q-163 0 -302 56t-234 152t-148.5 226.5t-53.5 276.5q0 143 53.5 272.5t147.5 226t231 153t295 56.5q180 0 352.5 -63.5t295.5 -169.5l-185 -193q-92 79 -211 125.5t-227 46.5q-198 0 -321 -132t-123 -324
q0 -126 55 -229.5t159.5 -165.5t239.5 -62q129 0 252 59.5t217 153.5zM694 1772l137 -154l136 154h215l-215 -285h-271l-217 285h215z" />
    <glyph glyph-name="ccaron" unicode="&#x10d;" horiz-adv-x="1142" 
d="M1073 862l-170 -180q-122 119 -256 119q-113 0 -189.5 -82t-76.5 -215q0 -134 80.5 -219.5t195.5 -85.5q130 0 269 135l168 -168q-16 -18 -40.5 -40t-69 -51t-95 -51.5t-120 -38.5t-142.5 -16q-108 0 -206 39t-171 107.5t-116.5 169.5t-43.5 219q0 156 72.5 277.5
t194.5 186t270 64.5q120 0 235.5 -42.5t210.5 -127.5zM276 1421h216l137 -157l135 157h215l-215 -288h-270z" />
    <glyph glyph-name="Dcaron" unicode="&#x10e;" horiz-adv-x="1650" 
d="M840 0h-629v1337h629q179 0 305 -48t219 -142q88 -91 134 -213.5t46 -263.5q0 -147 -49.5 -274.5t-142.5 -219.5q-92 -87 -212 -131.5t-300 -44.5zM504 252h325q108 0 168.5 22.5t118.5 73.5q123 123 123 320q0 193 -113 309q-55 55 -120 80.5t-177 25.5h-325v-831z
M668 1772l137 -154l135 154h215l-215 -285h-270l-217 285h215z" />
    <glyph glyph-name="dcaron" unicode="&#x10f;" horiz-adv-x="1294" 
d="M1157 0h-258q-8 46 -12 119q-54 -62 -134 -105t-175 -43q-204 0 -345 148.5t-141 384.5q0 117 39 216.5t105 167.5t154.5 106t187.5 38q149 0 282 -123v525h275v-1149q0 -173 22 -285zM618 801q-100 0 -165.5 -81.5t-65.5 -215.5t66.5 -218.5t164.5 -84.5q78 0 141 35
t101 75v377q-116 113 -242 113zM1407 950h-139v484h241q0 -153 -23 -265t-79 -219z" />
    <glyph glyph-name="Dcroat" unicode="&#x110;" horiz-adv-x="1712" 
d="M76 575v213h196v549h629q179 0 305 -48t219 -142q88 -91 134.5 -213.5t46.5 -263.5q0 -147 -49.5 -274.5t-143.5 -219.5q-92 -87 -212 -131.5t-300 -44.5h-629v575h-196zM565 252h326q108 0 168.5 22.5t118.5 73.5q122 122 122 320q0 194 -112 309q-55 55 -120 80.5
t-177 25.5h-326v-295h359v-213h-359v-323z" />
    <glyph glyph-name="dcroat" unicode="&#x111;" horiz-adv-x="1294" 
d="M598 1130v181h262v123h275v-123h149v-181h-149v-845q0 -173 22 -285h-258q-8 46 -12 119q-54 -62 -134 -105t-175 -43q-204 0 -345 148.5t-141 384.5q0 117 39 216.5t105 167.5t154.5 106t187.5 38q149 0 282 -123v221h-262zM618 801q-100 0 -165.5 -81.5t-65.5 -215.5
t66.5 -218.5t164.5 -84.5q78 0 141 35t101 75v377q-116 113 -242 113z" />
    <glyph glyph-name="Emacron" unicode="&#x112;" horiz-adv-x="1456" 
d="M997 823v-252h-493v-319h868v-252h-1161v1337h1114v-254h-821v-260h493zM492 1716h550v-190h-550v190z" />
    <glyph glyph-name="emacron" unicode="&#x113;" horiz-adv-x="1208" 
d="M954 291l129 -174q-86 -65 -213 -106.5t-258 -41.5q-123 0 -223.5 42t-165 114t-99 166.5t-34.5 200.5q0 150 67.5 273.5t189.5 195t274 71.5q95 0 181.5 -29.5t159.5 -89t116.5 -162t43.5 -235.5q0 -37 -4 -84h-760q18 -110 92.5 -177t196.5 -67q79 0 162 28.5t145 74.5
zM618 823q-102 0 -164.5 -58t-88.5 -151h481q-1 67 -37 116t-86 71t-105 22zM346 1362h551v-191h-551v191z" />
    <glyph glyph-name="Ebreve" unicode="&#x114;" horiz-adv-x="1456" 
d="M997 823v-252h-493v-319h868v-252h-1161v1337h1114v-254h-821v-260h493zM438 1769h191q0 -139 139 -139q137 0 137 139h191q0 -43 -8 -82t-30.5 -80.5t-58 -71.5t-95 -49.5t-136.5 -19.5t-137 19.5t-95.5 49.5t-58 71t-31 80.5t-8.5 82.5z" />
    <glyph glyph-name="ebreve" unicode="&#x115;" horiz-adv-x="1208" 
d="M954 291l129 -174q-86 -65 -213 -106.5t-258 -41.5q-123 0 -223.5 42t-165 114t-99 166.5t-34.5 200.5q0 150 67.5 273.5t189.5 195t274 71.5q95 0 181.5 -29.5t159.5 -89t116.5 -162t43.5 -235.5q0 -37 -4 -84h-760q18 -110 92.5 -177t196.5 -67q79 0 162 28.5t145 74.5
zM618 823q-102 0 -164.5 -58t-88.5 -151h481q-1 67 -37 116t-86 71t-105 22zM293 1419h190q0 -143 140 -143q137 0 137 143h190q0 -44 -8 -83.5t-30.5 -81.5t-57.5 -72.5t-94.5 -50t-136.5 -19.5t-137 19.5t-95.5 50t-58 72.5t-31 82t-8.5 83z" />
    <glyph glyph-name="Edotaccent" unicode="&#x116;" horiz-adv-x="1456" 
d="M997 823v-252h-493v-319h868v-252h-1161v1337h1114v-254h-821v-260h493zM618 1634q0 56 43 97t105 41q64 0 108 -41t44 -97q0 -57 -44 -96t-108 -39q-63 0 -105.5 39t-42.5 96z" />
    <glyph glyph-name="edotaccent" unicode="&#x117;" horiz-adv-x="1208" 
d="M954 291l129 -174q-86 -65 -213 -106.5t-258 -41.5q-123 0 -223.5 42t-165 114t-99 166.5t-34.5 200.5q0 150 67.5 273.5t189.5 195t274 71.5q95 0 181.5 -29.5t159.5 -89t116.5 -162t43.5 -235.5q0 -37 -4 -84h-760q18 -110 92.5 -177t196.5 -67q79 0 162 28.5t145 74.5
zM618 823q-102 0 -164.5 -58t-88.5 -151h481q-1 67 -37 116t-86 71t-105 22zM473 1280q0 56 43 96.5t105 40.5q64 0 107.5 -40.5t43.5 -96.5q0 -57 -43.5 -96t-107.5 -39q-63 0 -105.5 39t-42.5 96z" />
    <glyph glyph-name="Eogonek" unicode="&#x118;" horiz-adv-x="1456" 
d="M997 823v-252h-493v-319h868v-252h-88q-211 -93 -211 -197q0 -44 33 -68t92 -24q25 0 121 17l22 -164q-106 -29 -192 -29q-134 0 -213.5 59.5t-79.5 155.5q0 140 172 250h-817v1337h1114v-254h-821v-260h493z" />
    <glyph glyph-name="eogonek" unicode="&#x119;" horiz-adv-x="1208" 
d="M954 291l129 -174q-97 -75 -245 -117q-211 -93 -211 -197q0 -44 33 -68t92 -24q24 0 120 17l23 -164q-106 -29 -193 -29q-134 0 -213 59.5t-79 155.5q0 125 133 223q-143 15 -247.5 90t-155 185.5t-50.5 243.5q0 150 67.5 273.5t189.5 195t274 71.5q95 0 181.5 -29.5
t159.5 -89t116.5 -162t43.5 -235.5q0 -37 -4 -84h-760q18 -110 92.5 -177t196.5 -67q79 0 162 28.5t145 74.5zM618 823q-102 0 -164.5 -58t-88.5 -151h481q-1 67 -37 116t-86 71t-105 22z" />
    <glyph glyph-name="Ecaron" unicode="&#x11a;" horiz-adv-x="1456" 
d="M997 823v-252h-493v-319h868v-252h-1161v1337h1114v-254h-821v-260h493zM631 1772l137 -154l135 154h215l-215 -285h-270l-217 285h215z" />
    <glyph glyph-name="ecaron" unicode="&#x11b;" horiz-adv-x="1208" 
d="M954 291l129 -174q-86 -65 -213 -106.5t-258 -41.5q-123 0 -223.5 42t-165 114t-99 166.5t-34.5 200.5q0 150 67.5 273.5t189.5 195t274 71.5q95 0 181.5 -29.5t159.5 -89t116.5 -162t43.5 -235.5q0 -37 -4 -84h-760q18 -110 92.5 -177t196.5 -67q79 0 162 28.5t145 74.5
zM618 823q-102 0 -164.5 -58t-88.5 -151h481q-1 67 -37 116t-86 71t-105 22zM270 1421h215l138 -157l135 157h215l-215 -288h-271z" />
    <glyph glyph-name="Gcircumflex" unicode="&#x11c;" horiz-adv-x="1640" 
d="M1468 1139l-194 -183q-85 77 -207.5 122.5t-230.5 45.5q-125 0 -225.5 -62t-155 -166t-54.5 -228q0 -89 29.5 -169.5t85 -145t144 -102.5t196.5 -38q93 0 185.5 24t154.5 66v225h-403v242h677v-600q-130 -96 -299.5 -152.5t-326.5 -56.5q-210 0 -382 95t-269 257.5
t-97 356.5q0 193 97.5 355.5t267.5 257.5t373 95q160 0 325.5 -61.5t308.5 -177.5zM481 1487l217 285h271l215 -285h-215l-135 151l-138 -151h-215z" />
    <glyph glyph-name="gcircumflex" unicode="&#x11d;" horiz-adv-x="1294" 
d="M860 -57v170q-128 -131 -282 -131q-99 0 -188 37.5t-155 104t-104.5 164t-38.5 210.5q0 119 38.5 220.5t104 169.5t154.5 106t189 38q90 0 173 -48.5t136 -109.5q0 65 14 130h254q-22 -114 -22 -287v-764q0 -181 -135.5 -299.5t-381.5 -118.5q-295 0 -475 162l144 158
q144 -105 331 -105q116 0 180 55t64 138zM616 211q123 0 244 111v366q-113 113 -244 113q-98 0 -164.5 -83.5t-66.5 -219.5q0 -127 67 -207t164 -80zM293 1133l217 288h270l215 -288h-215l-135 155l-137 -155h-215z" />
    <glyph glyph-name="Gbreve" unicode="&#x11e;" horiz-adv-x="1640" 
d="M1468 1139l-194 -183q-85 77 -207.5 122.5t-230.5 45.5q-125 0 -225.5 -62t-155 -166t-54.5 -228q0 -89 29.5 -169.5t85 -145t144 -102.5t196.5 -38q93 0 185.5 24t154.5 66v225h-403v242h677v-600q-130 -96 -299.5 -152.5t-326.5 -56.5q-210 0 -382 95t-269 257.5
t-97 356.5q0 193 97.5 355.5t267.5 257.5t373 95q160 0 325.5 -61.5t308.5 -177.5zM504 1769h190q0 -139 140 -139q137 0 137 139h190q0 -43 -8 -82t-30.5 -80.5t-57.5 -71.5t-94.5 -49.5t-136.5 -19.5t-137 19.5t-95.5 49.5t-58 71t-31 80.5t-8.5 82.5z" />
    <glyph glyph-name="gbreve" unicode="&#x11f;" horiz-adv-x="1294" 
d="M860 -57v170q-128 -131 -282 -131q-99 0 -188 37.5t-155 104t-104.5 164t-38.5 210.5q0 119 38.5 220.5t104 169.5t154.5 106t189 38q90 0 173 -48.5t136 -109.5q0 65 14 130h254q-22 -114 -22 -287v-764q0 -181 -135.5 -299.5t-381.5 -118.5q-295 0 -475 162l144 158
q144 -105 331 -105q116 0 180 55t64 138zM616 211q123 0 244 111v366q-113 113 -244 113q-98 0 -164.5 -83.5t-66.5 -219.5q0 -127 67 -207t164 -80zM315 1419h191q0 -143 139 -143q137 0 137 143h191q0 -44 -8 -83.5t-30.5 -81.5t-58 -72.5t-95 -50t-136.5 -19.5t-137 19.5
t-95.5 50t-58 72.5t-31 82t-8.5 83z" />
    <glyph glyph-name="Gdotaccent" unicode="&#x120;" horiz-adv-x="1640" 
d="M1468 1139l-194 -183q-85 77 -207.5 122.5t-230.5 45.5q-125 0 -225.5 -62t-155 -166t-54.5 -228q0 -89 29.5 -169.5t85 -145t144 -102.5t196.5 -38q93 0 185.5 24t154.5 66v225h-403v242h677v-600q-130 -96 -299.5 -152.5t-326.5 -56.5q-210 0 -382 95t-269 257.5
t-97 356.5q0 193 97.5 355.5t267.5 257.5t373 95q160 0 325.5 -61.5t308.5 -177.5zM684 1634q0 56 42.5 97t104.5 41q64 0 108 -41t44 -97q0 -57 -44 -96t-108 -39q-63 0 -105 39t-42 96z" />
    <glyph glyph-name="gdotaccent" unicode="&#x121;" horiz-adv-x="1294" 
d="M860 -57v170q-128 -131 -282 -131q-99 0 -188 37.5t-155 104t-104.5 164t-38.5 210.5q0 119 38.5 220.5t104 169.5t154.5 106t189 38q90 0 173 -48.5t136 -109.5q0 65 14 130h254q-22 -114 -22 -287v-764q0 -181 -135.5 -299.5t-381.5 -118.5q-295 0 -475 162l144 158
q144 -105 331 -105q116 0 180 55t64 138zM616 211q123 0 244 111v366q-113 113 -244 113q-98 0 -164.5 -83.5t-66.5 -219.5q0 -127 67 -207t164 -80zM496 1280q0 56 42.5 96.5t104.5 40.5q64 0 108 -40.5t44 -96.5q0 -57 -44 -96t-108 -39q-63 0 -105 39t-42 96z" />
    <glyph glyph-name="uni0122" unicode="&#x122;" horiz-adv-x="1640" 
d="M1468 1139l-194 -183q-85 77 -207.5 122.5t-230.5 45.5q-125 0 -225.5 -62t-155 -166t-54.5 -228q0 -89 29.5 -169.5t85 -145t144 -102.5t196.5 -38q93 0 185.5 24t154.5 66v225h-403v242h677v-600q-130 -96 -299.5 -152.5t-326.5 -56.5q-210 0 -382 95t-269 257.5
t-97 356.5q0 193 97.5 355.5t267.5 257.5t373 95q160 0 325.5 -61.5t308.5 -177.5zM768 -137l213 53q78 -84 78 -188q0 -111 -93.5 -179.5t-250.5 -68.5q-83 0 -189 28l23 154q100 -14 117 -14q147 0 147 100q0 59 -45 115z" />
    <glyph glyph-name="uni0123" unicode="&#x123;" horiz-adv-x="1294" 
d="M745 1165l-217 -41q-49 49 -67 81q-27 49 -27 108q0 110 88.5 178t243.5 68q57 0 111 -15v-155q-27 6 -84 6q-113 0 -113 -99q0 -28 11 -54.5t22 -40.5t32 -36zM860 -57v170q-128 -131 -282 -131q-99 0 -188 37.5t-155 104t-104.5 164t-38.5 210.5q0 119 38.5 220.5
t104 169.5t154.5 106t189 38q90 0 173 -48.5t136 -109.5q0 65 14 130h254q-22 -114 -22 -287v-764q0 -181 -135.5 -299.5t-381.5 -118.5q-295 0 -475 162l144 158q144 -105 331 -105q116 0 180 55t64 138zM616 211q123 0 244 111v366q-113 113 -244 113q-98 0 -164.5 -83.5
t-66.5 -219.5q0 -127 67 -207t164 -80z" />
    <glyph glyph-name="Hcircumflex" unicode="&#x124;" horiz-adv-x="1642" 
d="M506 0h-295v1337h295v-495h631v495h295v-1337h-295v594h-631v-594zM467 1487l217 285h270l215 -285h-215l-135 151l-137 -151h-215z" />
    <glyph glyph-name="hcircumflex" unicode="&#x125;" horiz-adv-x="1245" 
d="M430 0h-272v1434h272v-539q137 137 289 137q169 0 275 -101t106 -259v-672h-275v662q0 58 -48 98.5t-120 40.5q-66 0 -126 -38t-101 -91v-672zM-53 1567l217 284h270l215 -284h-215l-135 151l-137 -151h-215z" />
    <glyph glyph-name="Hbar" unicode="&#x126;" horiz-adv-x="1687" 
d="M43 942v213h195v182h294v-182h623v182h293v-182h197v-213h-197v-942h-293v510h-623v-510h-294v942h-195zM532 752h623v190h-623v-190z" />
    <glyph glyph-name="hbar" unicode="&#x127;" horiz-adv-x="1245" 
d="M692 1311v-181h-262v-235q137 137 289 137q169 0 275 -101t106 -259v-672h-275v662q0 58 -48 98.5t-120 40.5q-66 0 -126 -38t-101 -91v-672h-272v1130h-152v181h152v123h272v-123h262z" />
    <glyph glyph-name="Itilde" unicode="&#x128;" horiz-adv-x="714" 
d="M504 0h-293v1337h293v-1337zM127 1477l-164 88q62 108 123.5 154t136.5 46q76 0 148 -51q6 -4 22 -14.5t23 -14.5t19 -10.5t22 -9t20 -2.5q24 0 47.5 17t35 31.5t34.5 45.5l151 -82q-113 -205 -260 -205q-70 0 -141 48q-5 4 -19 14t-19.5 13.5l-16.5 10.5t-18 9.5
t-16.5 5t-18.5 2.5q-12 0 -23.5 -4.5t-19.5 -10t-18.5 -18t-16 -19t-16.5 -23t-15 -21.5z" />
    <glyph glyph-name="itilde" unicode="&#x129;" horiz-adv-x="587" 
d="M430 0h-272v999h272v-999zM63 1120l-163 88q62 110 123 156.5t137 46.5q75 0 147 -51q27 -19 39 -26.5t32 -16t36 -8.5q24 0 47 16t35.5 32t33.5 46l152 -82q-113 -205 -260 -205q-71 0 -141 47q-6 4 -19.5 14t-19 14t-17 10.5t-18.5 9.5t-16.5 5.5t-18.5 2.5
q-14 0 -26.5 -5t-25 -18t-19 -21.5t-20.5 -29t-18 -25.5z" />
    <glyph glyph-name="Imacron" unicode="&#x12a;" horiz-adv-x="714" 
d="M504 0h-293v1337h293v-1337zM82 1716h551v-190h-551v190z" />
    <glyph glyph-name="imacron" unicode="&#x12b;" horiz-adv-x="587" 
d="M430 0h-272v999h272v-999zM18 1362h551v-191h-551v191z" />
    <glyph glyph-name="Ibreve" unicode="&#x12c;" horiz-adv-x="714" 
d="M504 0h-293v1337h293v-1337zM29 1769h190q0 -139 139 -139q138 0 138 139h190q0 -43 -8 -82t-30.5 -80.5t-58 -71.5t-95 -49.5t-136.5 -19.5t-136.5 19.5t-95 49.5t-58.5 71.5t-31 80.5t-8 82z" />
    <glyph glyph-name="ibreve" unicode="&#x12d;" horiz-adv-x="587" 
d="M430 0h-272v999h272v-999zM-35 1419h191q0 -143 139 -143q137 0 137 143h191q0 -44 -8 -83.5t-30.5 -81.5t-58 -72.5t-95 -50t-136.5 -19.5t-137 19.5t-95.5 50t-58 72.5t-31 82t-8.5 83z" />
    <glyph glyph-name="Iogonek" unicode="&#x12e;" horiz-adv-x="714" 
d="M504 0q-211 -93 -211 -197q0 -44 33 -68t92 -24q25 0 121 17l22 -164q-106 -29 -192 -29q-134 0 -213.5 59.5t-79.5 155.5q0 140 172 250h-37v1337h293v-1337z" />
    <glyph glyph-name="iogonek" unicode="&#x12f;" horiz-adv-x="587" 
d="M158 0v999h272v-999q-31 -14 -47.5 -22t-52.5 -30t-56 -40.5t-37.5 -47t-17.5 -57.5q0 -44 33.5 -68t91.5 -24q30 0 121 17l22 -164q-106 -29 -190 -29q-135 0 -215 59.5t-80 155.5q0 140 172 250h-16zM293 1157q-68 0 -115 42.5t-47 103.5q0 62 46.5 105.5t115.5 43.5
q68 0 116 -44t48 -105q0 -60 -47.5 -103t-116.5 -43z" />
    <glyph glyph-name="Idotaccent" unicode="&#x130;" horiz-adv-x="714" 
d="M504 0h-293v1337h293v-1337zM209 1634q0 56 42.5 97t104.5 41q64 0 108 -41t44 -97q0 -57 -44 -96t-108 -39q-63 0 -105 39t-42 96z" />
    <glyph glyph-name="dotlessi" unicode="&#x131;" horiz-adv-x="587" 
d="M430 0h-272v999h272v-999z" />
    <glyph glyph-name="IJ" unicode="&#x132;" horiz-adv-x="2045" 
d="M504 0h-293v1337h293v-1337zM1565 1337h295v-854q0 -245 -158.5 -383.5t-415.5 -138.5q-99 0 -183.5 24.5t-141.5 60t-105.5 88t-76 97t-52.5 97.5l248 129q16 -36 32.5 -65.5t44 -64t59 -58.5t76.5 -40t97 -16q127 0 204 70.5t77 199.5v854z" />
    <glyph glyph-name="ij" unicode="&#x133;" horiz-adv-x="1177" 
d="M430 0h-272v999h272v-999zM131 1303q0 62 46.5 105.5t115.5 43.5q68 0 116 -44t48 -105q0 -60 -47.5 -103t-116.5 -43q-68 0 -115 42.5t-47 103.5zM631 -467l-74 203q42 10 68 18.5t57.5 27.5t47 51t15.5 77v1089h273v-1089q0 -80 -24 -146t-63 -108t-90.5 -70.5
t-104 -40.5t-105.5 -12zM717 1303q0 62 47 105.5t117 43.5q68 0 115.5 -44t47.5 -105q0 -60 -47 -103t-116 -43q-70 0 -117 42.5t-47 103.5z" />
    <glyph glyph-name="Jcircumflex" unicode="&#x134;" horiz-adv-x="1331" 
d="M850 1337h295v-854q0 -245 -158.5 -383.5t-415.5 -138.5q-99 0 -183.5 24.5t-141.5 60t-105.5 88t-76 97t-52.5 97.5l248 129q16 -36 32.5 -65.5t44 -64t59 -58.5t76.5 -40t97 -16q127 0 204 70.5t77 199.5v854zM649 1487l217 285h271l215 -285h-215l-136 151l-137 -151
h-215z" />
    <glyph glyph-name="jcircumflex" unicode="&#x135;" horiz-adv-x="587" 
d="M43 -467l-74 203q33 8 54 14t49.5 19.5t45 30.5t28.5 45t12 65v1089h272v-1089q0 -80 -24 -146t-63 -108t-90.5 -70.5t-104 -40.5t-105.5 -12zM-57 1133l217 288h270l215 -288h-215l-135 155l-137 -155h-215z" />
    <glyph glyph-name="uni0136" unicode="&#x136;" horiz-adv-x="1581" 
d="M506 1337v-581l612 581h369l-557 -522l657 -815h-370l-496 623l-215 -203v-420h-295v1337h295zM741 -137l213 53q78 -84 78 -188q0 -111 -93.5 -179.5t-250.5 -68.5q-82 0 -188 28l22 154q100 -14 117 -14q147 0 147 100q0 59 -45 115z" />
    <glyph glyph-name="uni0137" unicode="&#x137;" horiz-adv-x="1196" 
d="M795 999h358l-391 -364l432 -635h-338l-289 453l-135 -125v-328h-274v1434h274v-797zM508 -125l215 41q50 -50 68 -84q26 -47 26 -104q0 -111 -88 -179.5t-244 -68.5q-59 0 -110 16v156q29 -6 84 -6q114 0 114 98q0 27 -11.5 53.5t-21.5 39.5t-32 38z" />
    <glyph glyph-name="kgreenlandic" unicode="&#x138;" horiz-adv-x="1196" 
d="M795 999h358l-391 -364l432 -635h-338l-289 453l-135 -125v-328h-274v999h274v-362z" />
    <glyph glyph-name="Lacute" unicode="&#x139;" horiz-adv-x="1329" 
d="M211 1337h293v-1085h786v-252h-1079v1337zM180 1487l205 282h293l-254 -282h-244z" />
    <glyph glyph-name="lacute" unicode="&#x13a;" horiz-adv-x="598" 
d="M436 0h-274v1434h274v-1434zM121 1567l205 282h292l-253 -282h-244z" />
    <glyph glyph-name="uni013B" unicode="&#x13b;" horiz-adv-x="1329" 
d="M211 1337h293v-1085h786v-252h-1079v1337zM616 -137l213 53q78 -84 78 -188q0 -111 -93.5 -179.5t-250.5 -68.5q-82 0 -188 28l22 154q100 -14 117 -14q71 0 109.5 25.5t38.5 74.5q0 57 -46 115z" />
    <glyph glyph-name="uni013C" unicode="&#x13c;" horiz-adv-x="598" 
d="M436 0h-274v1434h274v-1434zM209 -125l215 41q50 -50 68 -84q26 -47 26 -104q0 -111 -88 -179.5t-244 -68.5q-59 0 -110 16v156q29 -6 84 -6q114 0 114 98q0 27 -11.5 53.5t-21.5 39.5t-32 38z" />
    <glyph glyph-name="Lcaron" unicode="&#x13d;" horiz-adv-x="1329" 
d="M211 1337h293v-1085h786v-252h-1079v1337zM930 950h-139v484h241q0 -153 -23 -265t-79 -219z" />
    <glyph glyph-name="lcaron" unicode="&#x13e;" horiz-adv-x="598" 
d="M436 0h-274v1434h274v-1434zM709 950h-140v484h242q0 -151 -23.5 -263.5t-78.5 -220.5z" />
    <glyph glyph-name="Ldot" unicode="&#x13f;" horiz-adv-x="1363" 
d="M211 1337h293v-1085h786v-252h-1079v1337zM856 821q0 56 43 96.5t105 40.5q64 0 107.5 -40.5t43.5 -96.5q0 -57 -43.5 -96t-107.5 -39q-63 0 -105.5 39t-42.5 96z" />
    <glyph glyph-name="ldot" unicode="&#x140;" horiz-adv-x="761" 
d="M436 0h-274v1434h274v-1434zM508 737q0 56 42.5 96.5t104.5 40.5q64 0 108 -40.5t44 -96.5q0 -57 -44 -96t-108 -39q-63 0 -105 39t-42 96z" />
    <glyph glyph-name="Lslash" unicode="&#x141;" horiz-adv-x="1386" 
d="M70 354v238l198 115v630h293v-463l400 232v-236l-400 -231v-387h787v-252h-1080v469z" />
    <glyph glyph-name="lslash" unicode="&#x142;" horiz-adv-x="669" 
d="M74 494l-37 206l162 88v646h272v-494l152 84l34 -207l-186 -104v-713h-272v563z" />
    <glyph glyph-name="Nacute" unicode="&#x143;" horiz-adv-x="1652" 
d="M1147 1337h295v-1337h-254l-680 827h-2v-827h-295v1337h252l682 -829h2v829zM647 1487l205 282h293l-254 -282h-244z" />
    <glyph glyph-name="nacute" unicode="&#x144;" horiz-adv-x="1249" 
d="M401 868q138 164 336 164q154 0 259.5 -102.5t105.5 -257.5v-672h-275v662q0 58 -46.5 98.5t-118.5 40.5q-113 0 -230 -129v-672h-272v715q0 144 -29 284h250q15 -74 20 -131zM643 1430h277l-222 -300h-239z" />
    <glyph glyph-name="uni0145" unicode="&#x145;" horiz-adv-x="1652" 
d="M1147 1337h295v-1337h-254l-680 827h-2v-827h-295v1337h252l682 -829h2v829zM756 -137l213 53q78 -84 78 -188q0 -111 -94 -179.5t-251 -68.5q-82 0 -188 28l23 154q100 -14 116 -14q71 0 109.5 25.5t38.5 74.5q0 59 -45 115z" />
    <glyph glyph-name="uni0146" unicode="&#x146;" horiz-adv-x="1249" 
d="M401 868q138 164 336 164q154 0 259.5 -102.5t105.5 -257.5v-672h-275v662q0 58 -46.5 98.5t-118.5 40.5q-113 0 -230 -129v-672h-272v715q0 144 -29 284h250q15 -74 20 -131zM516 -125l215 41q50 -50 68 -84q26 -47 26 -104q0 -111 -87.5 -179.5t-243.5 -68.5
q-60 0 -111 16v156q29 -6 84 -6q115 0 115 98q0 27 -12 54t-21.5 39t-32.5 38z" />
    <glyph glyph-name="Ncaron" unicode="&#x147;" horiz-adv-x="1652" 
d="M1147 1337h295v-1337h-254l-680 827h-2v-827h-295v1337h252l682 -829h2v829zM688 1772l137 -154l136 154h215l-215 -285h-271l-217 285h215z" />
    <glyph glyph-name="ncaron" unicode="&#x148;" horiz-adv-x="1249" 
d="M401 868q138 164 336 164q154 0 259.5 -102.5t105.5 -257.5v-672h-275v662q0 58 -46.5 98.5t-118.5 40.5q-113 0 -230 -129v-672h-272v715q0 144 -29 284h250q15 -74 20 -131zM270 1421h215l138 -157l135 157h215l-215 -288h-271z" />
    <glyph glyph-name="napostrophe" unicode="&#x149;" horiz-adv-x="1249" 
d="M-31 1063l-71 117q60 16 119 62t59 99v13q-24 -8 -47 -8q-44 0 -75.5 34.5t-31.5 83.5q0 55 43.5 92t106.5 37q74 0 127 -53.5t53 -136.5q0 -71 -26.5 -130.5t-71.5 -99.5t-89.5 -66t-95.5 -44zM401 868q138 164 336 164q154 0 259.5 -102.5t105.5 -257.5v-672h-275v662
q0 58 -46.5 98.5t-118.5 40.5q-113 0 -230 -129v-672h-272v715q0 144 -29 284h250q15 -74 20 -131z" />
    <glyph glyph-name="Eng" unicode="&#x14a;" horiz-adv-x="1652" 
d="M1147 1337h295v-1280q0 -245 -158.5 -383.5t-415.5 -138.5v252q123 0 199.5 68.5t79.5 193.5l-639 778h-2v-827h-295v1337h252l682 -829h2v829z" />
    <glyph glyph-name="eng" unicode="&#x14b;" horiz-adv-x="1249" 
d="M1102 672v-762q0 -80 -24.5 -146t-63.5 -108t-90.5 -70.5t-103.5 -40.5t-105 -12l-76 203q34 7 55 13.5t49 20t44.5 30.5t28 45t11.5 65v752q0 58 -46.5 98.5t-118.5 40.5q-113 0 -230 -129v-672h-272v715q0 144 -29 284h250q15 -74 20 -131q138 164 336 164
q154 0 259.5 -102.5t105.5 -257.5z" />
    <glyph glyph-name="Omacron" unicode="&#x14c;" horiz-adv-x="1710" 
d="M96 672q0 144 59 274t159.5 225t241 151t296.5 56t297.5 -56t244 -150.5t162.5 -225.5t60 -274q0 -146 -60 -278.5t-162.5 -227.5t-244 -151t-297.5 -56q-209 0 -382.5 95t-273.5 258.5t-100 359.5zM403 672q0 -124 59 -230t162.5 -168.5t227.5 -62.5q191 0 324 135.5
t133 325.5q0 187 -133 319.5t-324 132.5q-188 0 -318.5 -132.5t-130.5 -319.5zM578 1716h550v-190h-550v190z" />
    <glyph glyph-name="omacron" unicode="&#x14d;" horiz-adv-x="1269" 
d="M90 504q0 148 67.5 268t192 190t283.5 70q241 0 394 -151t153 -377q0 -148 -68 -269.5t-194 -193.5t-285 -72q-158 0 -283 72t-192.5 193.5t-67.5 269.5zM371 504q0 -130 71 -219.5t191 -89.5q123 0 195.5 89.5t72.5 219.5q0 128 -72.5 214.5t-195.5 86.5
q-121 0 -191.5 -86.5t-70.5 -214.5zM358 1362h551v-191h-551v191z" />
    <glyph glyph-name="Obreve" unicode="&#x14e;" horiz-adv-x="1710" 
d="M96 672q0 144 59 274t159.5 225t241 151t296.5 56t297.5 -56t244 -150.5t162.5 -225.5t60 -274q0 -146 -60 -278.5t-162.5 -227.5t-244 -151t-297.5 -56q-209 0 -382.5 95t-273.5 258.5t-100 359.5zM403 672q0 -124 59 -230t162.5 -168.5t227.5 -62.5q191 0 324 135.5
t133 325.5q0 187 -133 319.5t-324 132.5q-188 0 -318.5 -132.5t-130.5 -319.5zM524 1769h191q0 -139 139 -139q137 0 137 139h191q0 -43 -8 -82t-30.5 -80.5t-58 -71.5t-95 -49.5t-136.5 -19.5t-137 19.5t-95.5 49.5t-58 71t-31 80.5t-8.5 82.5z" />
    <glyph glyph-name="obreve" unicode="&#x14f;" horiz-adv-x="1269" 
d="M90 504q0 148 67.5 268t192 190t283.5 70q241 0 394 -151t153 -377q0 -148 -68 -269.5t-194 -193.5t-285 -72q-158 0 -283 72t-192.5 193.5t-67.5 269.5zM371 504q0 -130 71 -219.5t191 -89.5q123 0 195.5 89.5t72.5 219.5q0 128 -72.5 214.5t-195.5 86.5
q-121 0 -191.5 -86.5t-70.5 -214.5zM305 1419h191q0 -143 139 -143q137 0 137 143h191q0 -44 -8 -83.5t-30.5 -81.5t-58 -72.5t-95 -50t-136.5 -19.5t-137 19.5t-95.5 50t-58 72.5t-31 82t-8.5 83z" />
    <glyph glyph-name="Ohungarumlaut" unicode="&#x150;" horiz-adv-x="1710" 
d="M96 672q0 144 59 274t159.5 225t241 151t296.5 56t297.5 -56t244 -150.5t162.5 -225.5t60 -274q0 -146 -60 -278.5t-162.5 -227.5t-244 -151t-297.5 -56q-209 0 -382.5 95t-273.5 258.5t-100 359.5zM403 672q0 -124 59 -230t162.5 -168.5t227.5 -62.5q191 0 324 135.5
t133 325.5q0 187 -133 319.5t-324 132.5q-188 0 -318.5 -132.5t-130.5 -319.5zM1016 1776h229l-145 -293h-170zM641 1776h229l-145 -293h-170z" />
    <glyph glyph-name="ohungarumlaut" unicode="&#x151;" horiz-adv-x="1269" 
d="M90 504q0 148 67.5 268t192 190t283.5 70q241 0 394 -151t153 -377q0 -148 -68 -269.5t-194 -193.5t-285 -72q-158 0 -283 72t-192.5 193.5t-67.5 269.5zM371 504q0 -130 71 -219.5t191 -89.5q123 0 195.5 89.5t72.5 219.5q0 128 -72.5 214.5t-195.5 86.5
q-121 0 -191.5 -86.5t-70.5 -214.5zM797 1421h229l-145 -293h-170zM422 1421h229l-145 -293h-170z" />
    <glyph glyph-name="OE" unicode="&#x152;" horiz-adv-x="2555" 
d="M2097 823v-252h-493v-319h868v-252h-1161v154q-89 -96 -210.5 -145.5t-258.5 -49.5q-154 0 -292.5 56t-238 151t-157.5 227.5t-58 278.5q0 192 98.5 354t270.5 257t377 95q138 0 259.5 -49t209.5 -147v155h1114v-254h-821v-260h493zM403 672q0 -190 128 -325.5
t311 -135.5q131 0 241 62.5t173 168.5t63 230q0 187 -138.5 319.5t-338.5 132.5q-121 0 -222 -61t-159 -165t-58 -226z" />
    <glyph glyph-name="oe" unicode="&#x153;" horiz-adv-x="2019" 
d="M1767 291l129 -174q-87 -66 -210 -107t-256 -41q-128 0 -232.5 50.5t-165.5 138.5q-68 -88 -174 -138.5t-225 -50.5q-114 0 -216 42t-173.5 114t-113.5 170.5t-42 208.5q0 147 71 268t196 190.5t278 69.5q122 0 230.5 -52t174.5 -142q65 90 168 142t221 52
q98 0 186 -29.5t161 -88.5t116 -161t43 -235q0 -39 -4 -86h-760q18 -106 93.5 -175t189.5 -69q170 0 315 103zM1432 823q-102 0 -165.5 -57.5t-88.5 -151.5h479q0 99 -68.5 154t-156.5 55zM369 504q0 -130 72 -219.5t192 -89.5q122 0 195 89.5t73 219.5q0 127 -73 214
t-195 87q-121 0 -192.5 -86.5t-71.5 -214.5z" />
    <glyph glyph-name="Racute" unicode="&#x154;" horiz-adv-x="1597" 
d="M504 0h-293v1337h741q263 0 402 -145q110 -116 110 -277q0 -126 -72 -223.5t-198 -152.5l313 -539h-336l-270 492h-397v-492zM963 1090h-459v-351h479q78 0 132 50t54 126q0 70 -47 117q-53 58 -159 58zM621 1487l204 282h293l-254 -282h-243z" />
    <glyph glyph-name="racute" unicode="&#x155;" horiz-adv-x="837" 
d="M606 770q-49 0 -85.5 -30.5t-86.5 -96.5v-643h-274v717q0 121 -29 282h250q14 -77 20 -149q52 87 113 134.5t150 47.5q41 0 84.5 -11t68.5 -30l-76 -250q-75 29 -135 29zM440 1430h277l-221 -300h-240z" />
    <glyph glyph-name="uni0156" unicode="&#x156;" horiz-adv-x="1597" 
d="M504 0h-293v1337h741q263 0 402 -145q110 -116 110 -277q0 -126 -72 -223.5t-198 -152.5l313 -539h-336l-270 492h-397v-492zM963 1090h-459v-351h479q78 0 132 50t54 126q0 70 -47 117q-53 58 -159 58zM752 -137l213 53q77 -83 77 -188q0 -111 -93.5 -179.5
t-250.5 -68.5q-82 0 -188 28l22 154q100 -14 117 -14q71 0 109.5 25.5t38.5 74.5q0 59 -45 115z" />
    <glyph glyph-name="uni0157" unicode="&#x157;" horiz-adv-x="837" 
d="M606 770q-49 0 -85.5 -30.5t-86.5 -96.5v-643h-274v717q0 121 -29 282h250q14 -77 20 -149q52 87 113 134.5t150 47.5q41 0 84.5 -11t68.5 -30l-76 -250q-75 29 -135 29zM240 -125l215 41q50 -50 68 -84q26 -47 26 -104q0 -111 -88 -179.5t-244 -68.5q-60 0 -111 16v156
q29 -6 84 -6q115 0 115 98q0 27 -11.5 53.5t-21.5 39.5t-32 38z" />
    <glyph glyph-name="Rcaron" unicode="&#x158;" horiz-adv-x="1597" 
d="M504 0h-293v1337h741q263 0 402 -145q110 -116 110 -277q0 -126 -72 -223.5t-198 -152.5l313 -539h-336l-270 492h-397v-492zM963 1090h-459v-351h479q78 0 132 50t54 126q0 70 -47 117q-53 58 -159 58zM662 1772l137 -154l135 154h215l-215 -285h-270l-218 285h216z" />
    <glyph glyph-name="rcaron" unicode="&#x159;" horiz-adv-x="837" 
d="M606 770q-49 0 -85.5 -30.5t-86.5 -96.5v-643h-274v717q0 121 -29 282h250q14 -77 20 -149q52 87 113 134.5t150 47.5q41 0 84.5 -11t68.5 -30l-76 -250q-75 29 -135 29zM68 1421h215l137 -157l135 157h215l-215 -288h-270z" />
    <glyph glyph-name="Sacute" unicode="&#x15a;" horiz-adv-x="1495" 
d="M1325 1198l-168 -205q-76 56 -198 100t-271 44q-108 0 -180 -41.5t-72 -122.5q0 -41 23.5 -67.5t83 -41t96 -19.5t126.5 -12q14 -1 21 -2q70 -5 112.5 -8.5t116.5 -15.5t121 -29t104.5 -48t90.5 -71.5t56.5 -102.5t23.5 -138q0 -120 -47.5 -210.5t-131.5 -143.5t-190 -79
t-233 -26q-411 0 -735 264l166 201q53 -43 102 -75t123 -70t163.5 -59t184.5 -21q133 0 219 50t86 140q0 38 -16.5 66t-44 46t-72.5 31t-92 19.5t-113 11.5q-59 4 -99.5 7t-98.5 10.5t-98 16.5t-89.5 24.5t-83 35.5t-68 48.5t-54.5 64t-33 82.5t-13 102q0 78 23 143.5
t64.5 111t94 79t116 53t126.5 28.5t129 9q190 0 357.5 -54.5t271.5 -125.5zM569 1487l205 282h293l-254 -282h-244z" />
    <glyph glyph-name="sacute" unicode="&#x15b;" horiz-adv-x="1140" 
d="M1006 930l-97 -195q-86 40 -184.5 65t-175.5 25q-78 0 -122 -24.5t-44 -71.5q0 -20 8 -35.5t25 -25.5t33 -16t42.5 -9.5t43 -5t45.5 -2.5q50 -2 84.5 -5t89 -11.5t92.5 -21t81.5 -36.5t70.5 -56t45 -80t18 -108q0 -115 -63.5 -196t-169 -118.5t-242.5 -37.5
q-268 0 -508 152l96 194q89 -55 199 -95t217 -40q94 0 146 32t52 85q0 23 -9 40.5t-27 28.5t-35.5 18.5t-45.5 12t-46 6.5t-47 4q-62 3 -95.5 6t-90.5 11t-89.5 20t-73.5 34t-63 51.5t-37.5 74t-15.5 100.5q0 74 25 132.5t66 96t97.5 62t115 35t122.5 10.5q122 0 256 -34
t211 -72zM590 1430h276l-221 -300h-239z" />
    <glyph glyph-name="Scircumflex" unicode="&#x15c;" horiz-adv-x="1495" 
d="M1325 1198l-168 -205q-76 56 -198 100t-271 44q-108 0 -180 -41.5t-72 -122.5q0 -41 23.5 -67.5t83 -41t96 -19.5t126.5 -12q14 -1 21 -2q70 -5 112.5 -8.5t116.5 -15.5t121 -29t104.5 -48t90.5 -71.5t56.5 -102.5t23.5 -138q0 -120 -47.5 -210.5t-131.5 -143.5t-190 -79
t-233 -26q-411 0 -735 264l166 201q53 -43 102 -75t123 -70t163.5 -59t184.5 -21q133 0 219 50t86 140q0 38 -16.5 66t-44 46t-72.5 31t-92 19.5t-113 11.5q-59 4 -99.5 7t-98.5 10.5t-98 16.5t-89.5 24.5t-83 35.5t-68 48.5t-54.5 64t-33 82.5t-13 102q0 78 23 143.5
t64.5 111t94 79t116 53t126.5 28.5t129 9q190 0 357.5 -54.5t271.5 -125.5zM395 1487l217 285h271l215 -285h-215l-135 151l-138 -151h-215z" />
    <glyph glyph-name="scircumflex" unicode="&#x15d;" horiz-adv-x="1140" 
d="M1006 930l-97 -195q-86 40 -184.5 65t-175.5 25q-78 0 -122 -24.5t-44 -71.5q0 -20 8 -35.5t25 -25.5t33 -16t42.5 -9.5t43 -5t45.5 -2.5q50 -2 84.5 -5t89 -11.5t92.5 -21t81.5 -36.5t70.5 -56t45 -80t18 -108q0 -115 -63.5 -196t-169 -118.5t-242.5 -37.5
q-268 0 -508 152l96 194q89 -55 199 -95t217 -40q94 0 146 32t52 85q0 23 -9 40.5t-27 28.5t-35.5 18.5t-45.5 12t-46 6.5t-47 4q-62 3 -95.5 6t-90.5 11t-89.5 20t-73.5 34t-63 51.5t-37.5 74t-15.5 100.5q0 74 25 132.5t66 96t97.5 62t115 35t122.5 10.5q122 0 256 -34
t211 -72zM217 1133l217 288h271l215 -288h-215l-136 155l-137 -155h-215z" />
    <glyph glyph-name="Scedilla" unicode="&#x15e;" horiz-adv-x="1495" 
d="M1327 1198l-168 -205q-76 56 -198 100t-271 44q-108 0 -180 -41.5t-72 -122.5q0 -41 23.5 -67.5t83 -41t96 -19.5t126.5 -12q14 -1 21 -2q70 -5 112.5 -8.5t116.5 -15.5t121 -29t104.5 -48t90.5 -71.5t56.5 -102.5t23.5 -138q0 -115 -43.5 -202.5t-121.5 -141
t-176.5 -81.5t-217.5 -32l-12 -27q31 -5 59.5 -13t58.5 -23t52.5 -35t36.5 -49t14 -64q0 -95 -98.5 -155t-253.5 -60q-107 0 -283 43l39 146q16 -3 69.5 -12t86.5 -13t65 -4q63 0 99 17.5t36 49.5q0 19 -13.5 33.5t-33.5 21.5t-39 10t-35 3q-29 0 -47 -6l-26 59l41 84
q-328 38 -594 256l166 201q53 -43 102 -75t123 -70t163.5 -59t184.5 -21q133 0 219 50t86 140q0 38 -16.5 66t-44 46t-72.5 31t-92 19.5t-113 11.5q-59 4 -99.5 7t-98.5 10.5t-98 16.5t-89.5 24.5t-83 35.5t-68 48.5t-54.5 64t-33 82.5t-13 102q0 78 23 143.5t64.5 111
t94 79t116 53t126.5 28.5t129 9q190 0 357.5 -54.5t271.5 -125.5z" />
    <glyph glyph-name="scedilla" unicode="&#x15f;" horiz-adv-x="1140" 
d="M1006 930l-97 -195q-86 40 -184.5 65t-175.5 25q-78 0 -122 -24.5t-44 -71.5q0 -20 8 -35.5t25 -25.5t33 -16t42.5 -9.5t43 -5t45.5 -2.5q50 -2 84.5 -5t89 -11.5t92.5 -21t81.5 -36.5t70.5 -56t45 -80t18 -108q0 -151 -103.5 -238.5t-275.5 -107.5l-16 -37
q31 -5 59.5 -13t58.5 -23t52.5 -35t36.5 -49t14 -64q0 -95 -98.5 -155t-253.5 -60q-107 0 -283 43l39 146q16 -3 69.5 -12t86.5 -13t65 -4q63 0 99 17.5t36 49.5q0 19 -13.5 33.5t-33.5 21.5t-39 10t-35 3q-29 0 -47 -6l-26 59l43 86q-218 21 -418 148l96 194
q89 -55 199 -95t217 -40q94 0 146 32t52 85q0 23 -9 40.5t-27 28.5t-35.5 18.5t-45.5 12t-46 6.5t-47 4q-62 3 -95.5 6t-90.5 11t-89.5 20t-73.5 34t-63 51.5t-37.5 74t-15.5 100.5q0 74 25 132.5t66 96t97.5 62t115 35t122.5 10.5q122 0 256 -34t211 -72z" />
    <glyph glyph-name="Scaron" unicode="&#x160;" horiz-adv-x="1495" 
d="M1325 1198l-168 -205q-76 56 -198 100t-271 44q-108 0 -180 -41.5t-72 -122.5q0 -41 23.5 -67.5t83 -41t96 -19.5t126.5 -12q14 -1 21 -2q70 -5 112.5 -8.5t116.5 -15.5t121 -29t104.5 -48t90.5 -71.5t56.5 -102.5t23.5 -138q0 -120 -47.5 -210.5t-131.5 -143.5t-190 -79
t-233 -26q-411 0 -735 264l166 201q53 -43 102 -75t123 -70t163.5 -59t184.5 -21q133 0 219 50t86 140q0 38 -16.5 66t-44 46t-72.5 31t-92 19.5t-113 11.5q-59 4 -99.5 7t-98.5 10.5t-98 16.5t-89.5 24.5t-83 35.5t-68 48.5t-54.5 64t-33 82.5t-13 102q0 78 23 143.5
t64.5 111t94 79t116 53t126.5 28.5t129 9q190 0 357.5 -54.5t271.5 -125.5zM610 1772l138 -154l135 154h215l-215 -285h-271l-217 285h215z" />
    <glyph glyph-name="scaron" unicode="&#x161;" horiz-adv-x="1140" 
d="M1006 930l-97 -195q-86 40 -184.5 65t-175.5 25q-78 0 -122 -24.5t-44 -71.5q0 -20 8 -35.5t25 -25.5t33 -16t42.5 -9.5t43 -5t45.5 -2.5q50 -2 84.5 -5t89 -11.5t92.5 -21t81.5 -36.5t70.5 -56t45 -80t18 -108q0 -115 -63.5 -196t-169 -118.5t-242.5 -37.5
q-268 0 -508 152l96 194q89 -55 199 -95t217 -40q94 0 146 32t52 85q0 23 -9 40.5t-27 28.5t-35.5 18.5t-45.5 12t-46 6.5t-47 4q-62 3 -95.5 6t-90.5 11t-89.5 20t-73.5 34t-63 51.5t-37.5 74t-15.5 100.5q0 74 25 132.5t66 96t97.5 62t115 35t122.5 10.5q122 0 256 -34
t211 -72zM217 1421h215l137 -157l136 157h215l-215 -288h-271z" />
    <glyph glyph-name="uni0162" unicode="&#x162;" horiz-adv-x="1368" 
d="M53 1083v254h1262v-254h-484v-1083l-32 -66q31 -5 59.5 -13t58.5 -23t52.5 -35t36.5 -49t14 -64q0 -95 -98.5 -155t-253.5 -60q-107 0 -283 43l39 146q16 -3 69.5 -12t86.5 -13t65 -4q63 0 99 17.5t36 49.5q0 19 -13.5 33.5t-33.5 21.5t-39 10t-35 3q-29 0 -47 -6l-26 59
l59 117h-106v1083h-486z" />
    <glyph glyph-name="uni0163" unicode="&#x163;" horiz-adv-x="825" 
d="M45 797v202h174v283h273v-283h245v-202h-245v-518q0 -89 108 -89q40 0 127 15l21 -205q-26 -20 -93.5 -29.5t-124.5 -9.5h-18l-12 -27q31 -5 59.5 -13t58.5 -23t52.5 -35t36.5 -49t14 -64q0 -95 -98.5 -155t-253.5 -60q-107 0 -283 43l39 146q16 -3 69.5 -12t86.5 -13
t65 -4q63 0 99 17.5t36 49.5q0 19 -13.5 33.5t-33.5 21.5t-39 10t-35 3q-29 0 -47 -6l-26 59l61 123q-129 75 -129 252v539h-174z" />
    <glyph glyph-name="Tcaron" unicode="&#x164;" horiz-adv-x="1368" 
d="M53 1083v254h1262v-254h-484v-1083h-292v1083h-486zM547 1772l137 -154l135 154h215l-215 -285h-270l-217 285h215z" />
    <glyph glyph-name="tcaron" unicode="&#x165;" horiz-adv-x="825" 
d="M45 797v202h174v283h273v-283h245v-202h-245v-518q0 -89 108 -89q40 0 127 15l21 -205q-26 -20 -93.5 -29.5t-124.5 -9.5q-59 0 -111.5 15.5t-98.5 48.5t-73.5 93t-27.5 140v539h-174zM750 1118h-140v484h242q0 -151 -23.5 -263.5t-78.5 -220.5z" />
    <glyph glyph-name="Tbar" unicode="&#x166;" horiz-adv-x="1368" 
d="M53 1083v254h1262v-254h-484v-295h295v-213h-295v-575h-292v575h-295v213h295v295h-486z" />
    <glyph glyph-name="tbar" unicode="&#x167;" horiz-adv-x="825" 
d="M45 797v202h174v283h273v-283h245v-202h-245v-201h245v-180h-245v-137q0 -89 108 -89q40 0 127 15l21 -205q-26 -20 -93.5 -29.5t-124.5 -9.5q-59 0 -111.5 15.5t-98.5 48.5t-73.5 93t-27.5 140v158h-174v180h174v201h-174z" />
    <glyph glyph-name="Utilde" unicode="&#x168;" horiz-adv-x="1593" 
d="M1112 1337h295v-856q0 -163 -79.5 -282.5t-217 -179.5t-315.5 -60q-174 0 -310.5 60t-217.5 179.5t-81 282.5v856h295v-856q0 -127 89.5 -198.5t224.5 -71.5q141 0 229 71t88 199v856zM563 1477l-164 88q62 108 123.5 154t136.5 46q76 0 148 -51q6 -4 22 -14.5t23 -14.5
t19 -10.5t22 -9t20 -2.5q24 0 47.5 17t35 31.5t34.5 45.5l152 -82q-113 -205 -260 -205q-71 0 -142 48q-5 4 -19 14t-19.5 13.5l-16.5 10.5t-18 9.5t-16.5 5t-18.5 2.5q-12 0 -23.5 -4.5t-19.5 -10t-18.5 -18t-16 -19t-16.5 -23t-15 -21.5z" />
    <glyph glyph-name="utilde" unicode="&#x169;" horiz-adv-x="1247" 
d="M846 129q-144 -162 -336 -162q-154 0 -259.5 103t-105.5 258v671h275v-661q0 -59 46.5 -99t119.5 -40q118 0 229 129v671h272v-716q0 -144 25 -283h-254q-8 45 -12 129zM391 1120l-164 88q62 110 123 156.5t137 46.5t148 -51q3 -2 8 -5q59 -42 88 -45q5 -1 10 -1
q24 0 47 16t36.5 32t33.5 46l152 -82q-113 -205 -260 -205q-72 0 -142 47q-5 4 -22.5 16.5t-23.5 16.5t-19 11t-22.5 9.5t-20.5 2.5q-14 0 -26.5 -5t-25 -18t-19 -21.5t-20.5 -29t-18 -25.5z" />
    <glyph glyph-name="Umacron" unicode="&#x16a;" horiz-adv-x="1593" 
d="M1112 1337h295v-856q0 -163 -79.5 -282.5t-217 -179.5t-315.5 -60q-174 0 -310.5 60t-217.5 179.5t-81 282.5v856h295v-856q0 -127 89.5 -198.5t224.5 -71.5q141 0 229 71t88 199v856zM518 1716h551v-190h-551v190z" />
    <glyph glyph-name="umacron" unicode="&#x16b;" horiz-adv-x="1247" 
d="M846 129q-144 -162 -336 -162q-154 0 -259.5 103t-105.5 258v671h275v-661q0 -59 46.5 -99t119.5 -40q118 0 229 129v671h272v-716q0 -144 25 -283h-254q-8 45 -12 129zM346 1362h551v-191h-551v191z" />
    <glyph glyph-name="Ubreve" unicode="&#x16c;" horiz-adv-x="1593" 
d="M1112 1337h295v-856q0 -163 -79.5 -282.5t-217 -179.5t-315.5 -60q-174 0 -310.5 60t-217.5 179.5t-81 282.5v856h295v-856q0 -127 89.5 -198.5t224.5 -71.5q141 0 229 71t88 199v856zM465 1769h190q0 -139 140 -139q137 0 137 139h190q0 -43 -8 -82t-30.5 -80.5
t-57.5 -71.5t-94.5 -49.5t-136.5 -19.5t-137 19.5t-95.5 49.5t-58 71t-31 80.5t-8.5 82.5z" />
    <glyph glyph-name="ubreve" unicode="&#x16d;" horiz-adv-x="1247" 
d="M846 129q-144 -162 -336 -162q-154 0 -259.5 103t-105.5 258v671h275v-661q0 -59 46.5 -99t119.5 -40q118 0 229 129v671h272v-716q0 -144 25 -283h-254q-8 45 -12 129zM293 1419h190q0 -143 140 -143q137 0 137 143h190q0 -44 -8 -83.5t-30.5 -81.5t-57.5 -72.5
t-94.5 -50t-136.5 -19.5t-137 19.5t-95.5 50t-58 72.5t-31 82t-8.5 83z" />
    <glyph glyph-name="Uring" unicode="&#x16e;" horiz-adv-x="1593" 
d="M1112 1337h295v-856q0 -163 -79.5 -282.5t-217 -179.5t-315.5 -60q-174 0 -310.5 60t-217.5 179.5t-81 282.5v856h295v-856q0 -127 89.5 -198.5t224.5 -71.5q141 0 229 71t88 199v856zM670 1640q0 -45 33 -72.5t85 -27.5t85.5 27.5t33.5 72.5q0 48 -34 80.5t-85 32.5
t-84.5 -32.5t-33.5 -80.5zM788 1419q-132 0 -205 63.5t-73 157.5q0 95 73.5 162.5t204.5 67.5q129 0 204 -67.5t75 -162.5q0 -94 -74.5 -157.5t-204.5 -63.5z" />
    <glyph glyph-name="uring" unicode="&#x16f;" horiz-adv-x="1247" 
d="M846 129q-144 -162 -336 -162q-154 0 -259.5 103t-105.5 258v671h275v-661q0 -59 46.5 -99t119.5 -40q118 0 229 129v671h272v-716q0 -144 25 -283h-254q-8 45 -12 129zM498 1331q0 -44 33.5 -72t84.5 -28t85 28t34 72q0 49 -34 82t-85 33t-84.5 -32.5t-33.5 -82.5z
M338 1331q0 97 73 163.5t205 66.5q129 0 204 -67t75 -163q0 -92 -74.5 -155.5t-204.5 -63.5q-132 0 -205 63t-73 156z" />
    <glyph glyph-name="Uhungarumlaut" unicode="&#x170;" horiz-adv-x="1593" 
d="M1112 1337h295v-856q0 -163 -79.5 -282.5t-217 -179.5t-315.5 -60q-174 0 -310.5 60t-217.5 179.5t-81 282.5v856h295v-856q0 -127 89.5 -198.5t224.5 -71.5q141 0 229 71t88 199v856zM956 1776h230l-146 -293h-170zM582 1776h229l-145 -293h-170z" />
    <glyph glyph-name="uhungarumlaut" unicode="&#x171;" horiz-adv-x="1247" 
d="M846 129q-144 -162 -336 -162q-154 0 -259.5 103t-105.5 258v671h275v-661q0 -59 46.5 -99t119.5 -40q118 0 229 129v671h272v-716q0 -144 25 -283h-254q-8 45 -12 129zM784 1421h230l-146 -293h-170zM410 1421h229l-145 -293h-170z" />
    <glyph glyph-name="Uogonek" unicode="&#x172;" horiz-adv-x="1593" 
d="M1112 1337h295v-856q0 -215 -132.5 -349.5t-354.5 -164.5q-142 -73 -142 -164q0 -44 33 -68t92 -24q25 0 121 17l23 -164q-106 -29 -193 -29q-134 0 -213.5 59.5t-79.5 155.5q0 119 123 215q-223 27 -360.5 163t-137.5 353v856h295v-856q0 -127 89.5 -198.5t224.5 -71.5
q141 0 229 71t88 199v856z" />
    <glyph glyph-name="uogonek" unicode="&#x173;" horiz-adv-x="1247" 
d="M846 129q-144 -162 -336 -162q-154 0 -259.5 103t-105.5 258v671h275v-661q0 -59 46.5 -99t119.5 -40q118 0 229 129v671h272v-716q0 -144 25 -283q-211 -93 -211 -197q0 -44 33 -68t92 -24q25 0 121 17l22 -164q-106 -29 -192 -29q-134 0 -213.5 59.5t-79.5 155.5
q0 139 174 250q-8 45 -12 129z" />
    <glyph glyph-name="Wcircumflex" unicode="&#x174;" horiz-adv-x="2045" 
d="M59 1337h320l256 -878h12l275 878h215l272 -878h12l258 878h308l-428 -1337h-279l-252 795h-12l-250 -795h-279zM670 1487l217 285h270l215 -285h-215l-135 151l-137 -151h-215z" />
    <glyph glyph-name="wcircumflex" unicode="&#x175;" horiz-adv-x="1622" 
d="M692 999h248l180 -639h13l155 639h281l-318 -999h-260l-174 612h-12l-176 -612h-258l-318 999h287l160 -639h12zM459 1133l217 288h270l215 -288h-215l-135 155l-137 -155h-215z" />
    <glyph glyph-name="Ycircumflex" unicode="&#x176;" horiz-adv-x="1372" 
d="M1020 1337h344l-530 -727v-610h-295v610l-533 727h365l325 -465zM334 1487l217 285h270l215 -285h-215l-135 151l-137 -151h-215z" />
    <glyph glyph-name="ycircumflex" unicode="&#x177;" horiz-adv-x="1140" 
d="M575 403h13l264 596h281l-674 -1423h-285l260 516l-405 907h305zM225 1133l217 288h271l215 -288h-215l-135 155l-138 -155h-215z" />
    <glyph glyph-name="Ydieresis" unicode="&#x178;" horiz-adv-x="1372" 
d="M1020 1337h344l-530 -727v-610h-295v610l-533 727h365l325 -465zM305 1634q0 56 43 97t105 41q64 0 107.5 -41t43.5 -97q0 -57 -43.5 -96t-107.5 -39q-63 0 -105.5 39t-42.5 96zM764 1634q0 56 43 97t106 41t107.5 -41t44.5 -97q0 -57 -44.5 -96t-107.5 -39
q-64 0 -106.5 39t-42.5 96z" />
    <glyph glyph-name="Zacute" unicode="&#x179;" horiz-adv-x="1396" 
d="M1280 252v-252h-1184v172l758 911h-719v254h1145v-174l-758 -911h758zM518 1487l205 282h293l-254 -282h-244z" />
    <glyph glyph-name="zacute" unicode="&#x17a;" horiz-adv-x="1091" 
d="M987 211v-211h-901v152l522 634h-483v213h862v-153l-522 -635h522zM567 1430h277l-221 -300h-240z" />
    <glyph glyph-name="Zdotaccent" unicode="&#x17b;" horiz-adv-x="1396" 
d="M1280 252v-252h-1184v172l758 911h-719v254h1145v-174l-758 -911h758zM547 1634q0 56 42.5 97t104.5 41q64 0 108 -41t44 -97q0 -57 -44 -96t-108 -39q-63 0 -105 39t-42 96z" />
    <glyph glyph-name="zdotaccent" unicode="&#x17c;" horiz-adv-x="1091" 
d="M987 211v-211h-901v152l522 634h-483v213h862v-153l-522 -635h522zM397 1280q0 56 43 96.5t105 40.5q64 0 107.5 -40.5t43.5 -96.5q0 -57 -43.5 -96t-107.5 -39q-63 0 -105.5 39t-42.5 96z" />
    <glyph glyph-name="Zcaron" unicode="&#x17d;" horiz-adv-x="1396" 
d="M1280 252v-252h-1184v172l758 911h-719v254h1145v-174l-758 -911h758zM559 1772l137 -154l135 154h216l-216 -285h-270l-217 285h215z" />
    <glyph glyph-name="zcaron" unicode="&#x17e;" horiz-adv-x="1091" 
d="M987 211v-211h-901v152l522 634h-483v213h862v-153l-522 -635h522zM195 1421h215l137 -157l135 157h215l-215 -288h-270z" />
    <glyph glyph-name="Schwa" unicode="&#x18f;" horiz-adv-x="1597" 
d="M768 -41q-102 0 -196.5 23t-181 75t-151 127.5t-102.5 188.5t-39 250q0 51 4 94h1088q-16 175 -128.5 291t-293.5 116q-119 0 -243.5 -49t-205.5 -121l-190 189q114 103 285.5 169t357.5 66q165 0 303.5 -57t229.5 -154t141.5 -225.5t50.5 -271.5q0 -149 -55.5 -280.5
t-151.5 -226t-231.5 -149.5t-290.5 -55zM774 207q141 0 243 76.5t142 208.5h-749q5 -72 38 -128t85 -89.5t113 -50.5t128 -17z" />
    <glyph glyph-name="florin" unicode="&#x192;" horiz-adv-x="1017" 
d="M104 705h234l55 243q15 68 55.5 119.5t94.5 79.5t110.5 41.5t114.5 13.5q151 0 205 -28l-62 -199q-65 14 -141 14q-43 0 -74 -17t-37 -44l-51 -223h252v-168h-289l-118 -535q-20 -91 -70 -160t-116.5 -108t-136.5 -57.5t-142 -18.5l-21 197q42 10 69 18.5t61.5 26
t56 46.5t30.5 68l117 523h-197v168z" />
    <glyph glyph-name="Aringacute" unicode="&#x1fa;" horiz-adv-x="1542" 
d="M25 0l620 1337h252l621 -1337h-322l-123 283h-618l-121 -283h-309zM758 987l-203 -473h418l-203 473h-12zM645 1640q0 -45 33.5 -72.5t85.5 -27.5t85.5 27.5t33.5 72.5q0 48 -34 80.5t-85 32.5t-85 -32.5t-34 -80.5zM764 1419q-132 0 -205.5 63.5t-73.5 157.5
q0 95 74 162.5t205 67.5q129 0 203.5 -67.5t74.5 -162.5q0 -94 -74 -157.5t-204 -63.5zM592 1964l205 283h293l-254 -283h-244z" />
    <glyph glyph-name="aringacute" unicode="&#x1fb;" horiz-adv-x="1224" 
d="M231 723l-84 203q84 42 209.5 74t257.5 32q90 0 169 -16.5t146.5 -50.5t106.5 -94.5t39 -141.5v-534q0 -107 29 -195h-270q-13 40 -25 115q-68 -67 -143 -103.5t-193 -36.5q-179 0 -287 95.5t-108 244.5q0 144 117.5 238t320.5 94q181 0 287 -82v101q0 75 -58 113
t-153 38q-87 0 -191.5 -30t-169.5 -64zM532 176q152 0 271 111v96q-35 30 -97.5 51t-134.5 21q-114 0 -167.5 -39t-53.5 -101q0 -64 48.5 -101.5t133.5 -37.5zM487 1331q0 -44 34 -72t85 -28t85 28t34 72q0 49 -34 82t-85 33t-85 -33t-34 -82zM328 1331q0 97 73 163.5
t205 66.5q129 0 204 -67t75 -163q0 -92 -74.5 -155.5t-204.5 -63.5q-132 0 -205 63t-73 156zM434 1630l205 283h293l-254 -283h-244z" />
    <glyph glyph-name="AEacute" unicode="&#x1fc;" horiz-adv-x="2193" 
d="M948 0v283h-485l-193 -283h-317l917 1337h1190v-254h-819v-260h492v-252h-492v-319h866v-252h-1159zM938 987l-322 -473h332v473h-10zM1085 1487l205 282h293l-254 -282h-244z" />
    <glyph glyph-name="aeacute" unicode="&#x1fd;" horiz-adv-x="1918" 
d="M1667 291l129 -174q-87 -66 -210.5 -107t-256.5 -41q-132 0 -236.5 48.5t-174.5 134.5q-187 -181 -445 -181q-178 0 -286.5 97.5t-108.5 246.5q0 144 117.5 238t320.5 94q187 0 291 -82v101q0 75 -59.5 113t-155.5 38q-87 0 -191.5 -30t-169.5 -64l-84 203
q84 42 209.5 74t257.5 32q271 0 359 -141l8 -10q62 70 154.5 110.5t191.5 40.5q98 0 186 -29.5t161 -88.5t116 -161t43 -235q0 -37 -4 -86h-760q18 -106 93.5 -175t189.5 -69q170 0 315 103zM532 176q176 0 295 137q-11 33 -18 68q-98 74 -238 74q-114 0 -167.5 -39
t-53.5 -101q0 -64 48.5 -101.5t133.5 -37.5zM1331 823q-104 0 -168.5 -57t-89.5 -152h483q0 99 -68.5 154t-156.5 55zM979 1430h276l-221 -300h-239z" />
    <glyph glyph-name="Oslashacute" unicode="&#x1fe;" horiz-adv-x="1710" 
d="M96 672q0 144 59 274t159.5 225t241 151t296.5 56q167 0 322 -65l114 164l176 -119l-108 -156q122 -98 191 -236t69 -294q0 -146 -60 -278.5t-162.5 -227.5t-244 -151t-297.5 -56q-162 0 -320 64l-112 -162l-176 119l106 153q-120 100 -187 239.5t-67 299.5zM1309 672
q0 171 -115 299l-508 -729q79 -31 166 -31q191 0 324 135.5t133 325.5zM403 672q0 -175 111 -305l506 725q-85 32 -168 32q-188 0 -318.5 -132.5t-130.5 -319.5zM676 1487l205 282h293l-254 -282h-244z" />
    <glyph glyph-name="oslashacute" unicode="&#x1ff;" horiz-adv-x="1269" 
d="M655 1430h277l-221 -300h-240zM307 -125l-149 105l94 133q-162 156 -162 391q0 226 152 377t393 151q123 0 229 -45l99 139l147 -104l-92 -131q78 -73 121 -173t43 -214q0 -148 -68 -269.5t-194 -193.5t-285 -72q-123 0 -232 45zM635 180q127 0 202.5 94.5t75.5 229.5
q0 95 -43 176l-335 -481q46 -19 100 -19zM360 504q0 -101 41 -178l332 475q-43 18 -98 18q-126 0 -200.5 -90.5t-74.5 -224.5z" />
    <glyph glyph-name="uni0218" unicode="&#x218;" horiz-adv-x="1495" 
d="M1325 1198l-168 -205q-76 56 -198 100t-271 44q-108 0 -180 -41.5t-72 -122.5q0 -41 23.5 -67.5t83 -41t96 -19.5t126.5 -12q14 -1 21 -2q70 -5 112.5 -8.5t116.5 -15.5t121 -29t104.5 -48t90.5 -71.5t56.5 -102.5t23.5 -138q0 -120 -47.5 -210.5t-131.5 -143.5t-190 -79
t-233 -26q-411 0 -735 264l166 201q53 -43 102 -75t123 -70t163.5 -59t184.5 -21q133 0 219 50t86 140q0 38 -16.5 66t-44 46t-72.5 31t-92 19.5t-113 11.5q-59 4 -99.5 7t-98.5 10.5t-98 16.5t-89.5 24.5t-83 35.5t-68 48.5t-54.5 64t-33 82.5t-13 102q0 78 23 143.5
t64.5 111t94 79t116 53t126.5 28.5t129 9q190 0 357.5 -54.5t271.5 -125.5zM700 -137l213 53q78 -84 78 -188q0 -111 -93.5 -179.5t-250.5 -68.5q-82 0 -188 28l22 154q100 -14 117 -14q147 0 147 100q0 59 -45 115z" />
    <glyph glyph-name="uni0219" unicode="&#x219;" horiz-adv-x="1140" 
d="M1006 930l-97 -195q-86 40 -184.5 65t-175.5 25q-78 0 -122 -24.5t-44 -71.5q0 -20 8 -35.5t25 -25.5t33 -16t42.5 -9.5t43 -5t45.5 -2.5q50 -2 84.5 -5t89 -11.5t92.5 -21t81.5 -36.5t70.5 -56t45 -80t18 -108q0 -115 -63.5 -196t-169 -118.5t-242.5 -37.5
q-268 0 -508 152l96 194q89 -55 199 -95t217 -40q94 0 146 32t52 85q0 23 -9 40.5t-27 28.5t-35.5 18.5t-45.5 12t-46 6.5t-47 4q-62 3 -95.5 6t-90.5 11t-89.5 20t-73.5 34t-63 51.5t-37.5 74t-15.5 100.5q0 74 25 132.5t66 96t97.5 62t115 35t122.5 10.5q122 0 256 -34
t211 -72zM432 -125l215 41q50 -50 68 -84q26 -47 26 -104q0 -111 -87.5 -179.5t-243.5 -68.5q-60 0 -111 16v156q29 -6 84 -6q115 0 115 98q0 27 -12 54t-21.5 39t-32.5 38z" />
    <glyph glyph-name="uni021A" unicode="&#x21a;" horiz-adv-x="1368" 
d="M53 1083v254h1262v-254h-484v-1083h-292v1083h-486zM637 -137l213 53q78 -84 78 -188q0 -111 -93.5 -179.5t-250.5 -68.5q-83 0 -189 28l23 154q100 -14 117 -14q147 0 147 100q0 59 -45 115z" />
    <glyph glyph-name="uni021B" unicode="&#x21b;" horiz-adv-x="825" 
d="M45 797v202h174v283h273v-283h245v-202h-245v-518q0 -89 108 -89q40 0 127 15l21 -205q-26 -20 -93.5 -29.5t-124.5 -9.5q-59 0 -111.5 15.5t-98.5 48.5t-73.5 93t-27.5 140v539h-174zM350 -125l215 41q50 -50 68 -84q26 -47 26 -104q0 -111 -87.5 -179.5t-243.5 -68.5
q-60 0 -111 16v156q29 -6 84 -6q115 0 115 98q0 27 -12 54t-21.5 39t-32.5 38z" />
    <glyph glyph-name="dotlessj" unicode="&#x237;" horiz-adv-x="587" 
d="M43 -467l-74 203q33 8 54 14t49.5 19.5t45 30.5t28.5 45t12 65v1089h272v-1089q0 -80 -24 -146t-63 -108t-90.5 -70.5t-104 -40.5t-105.5 -12z" />
    <glyph glyph-name="schwa" unicode="&#x259;" horiz-adv-x="1208" 
d="M254 709l-129 174q86 66 209.5 107.5t257.5 41.5q122 0 222.5 -42t166 -113.5t101.5 -165.5t36 -199q0 -151 -67.5 -275t-188.5 -196t-270 -72q-98 0 -186 29.5t-161 89t-116 162.5t-43 237q0 35 4 80h760q-18 108 -93.5 176t-189.5 68q-178 0 -313 -102zM590 176
q101 0 164 58t88 153h-480q1 -67 36.5 -116.5t86 -72t105.5 -22.5z" />
    <glyph glyph-name="circumflex" unicode="&#x2c6;" 
d="M156 1133l217 288h270l215 -288h-215l-135 155l-137 -155h-215z" />
    <glyph glyph-name="caron" unicode="&#x2c7;" 
d="M156 1421h215l137 -157l135 157h215l-215 -288h-270z" />
    <glyph glyph-name="breve" unicode="&#x2d8;" 
d="M178 1419h191q0 -143 139 -143q137 0 137 143h191q0 -44 -8 -83.5t-30.5 -81.5t-58 -72.5t-95 -50t-136.5 -19.5t-137 19.5t-95.5 50t-58 72.5t-31 82t-8.5 83z" />
    <glyph glyph-name="dotaccent" unicode="&#x2d9;" 
d="M358 1280q0 56 43 96.5t105 40.5q64 0 107.5 -40.5t43.5 -96.5q0 -57 -43.5 -96t-107.5 -39q-63 0 -105.5 39t-42.5 96z" />
    <glyph glyph-name="ring" unicode="&#x2da;" 
d="M383 1331q0 -44 34 -72t85 -28t85 28t34 72q0 49 -34 82t-85 33t-85 -33t-34 -82zM223 1331q0 96 73.5 163t205.5 67q129 0 203.5 -67t74.5 -163q0 -92 -74 -155.5t-204 -63.5q-132 0 -205.5 63t-73.5 156z" />
    <glyph glyph-name="ogonek" unicode="&#x2db;" 
d="M520 70l125 -70q-211 -93 -211 -197q0 -44 33 -68t92 -24q25 0 121 17l22 -164q-106 -29 -192 -29q-134 0 -213.5 59.5t-79.5 155.5q0 49 23.5 96t56.5 80.5t78.5 64.5t77.5 47.5t67 31.5z" />
    <glyph glyph-name="tilde" unicode="&#x2dc;" 
d="M276 1120l-163 88q62 110 123 156.5t137 46.5q75 0 147 -51q27 -19 39 -26.5t32 -16t36 -8.5q24 0 47 16t35.5 32t33.5 46l152 -82q-113 -205 -260 -205q-71 0 -141 47q-6 4 -19.5 14t-19 14t-17 10.5t-18.5 9.5t-16.5 5.5t-18.5 2.5q-14 0 -26.5 -5t-25 -18t-19 -21.5
t-20.5 -29t-18 -25.5z" />
    <glyph glyph-name="hungarumlaut" unicode="&#x2dd;" 
d="M670 1421h229l-145 -293h-170zM295 1421h229l-145 -293h-170z" />
    <glyph glyph-name="Delta" unicode="&#x394;" horiz-adv-x="1488" 
d="M94 209l524 1128h254l521 -1128v-209h-1299v209zM731 987l-323 -754h661l-326 754h-12z" />
    <glyph glyph-name="Delta" unicode="&#x2206;" horiz-adv-x="1488" 
d="M94 209l524 1128h254l521 -1128v-209h-1299v209zM731 987l-323 -754h661l-326 754h-12z" />
    <glyph glyph-name="Omega" unicode="&#x3a9;" horiz-adv-x="1785" 
d="M141 0v233h318q-162 74 -255 206.5t-93 291.5q0 131 61 250.5t164.5 206.5t248.5 138.5t306 51.5q215 0 396 -87t285.5 -236t104.5 -324q0 -155 -97 -289.5t-259 -208.5h317v-233h-630v215q162 43 262 177t100 308q0 177 -139 300.5t-340 123.5q-199 0 -335 -123
t-136 -301q0 -173 97.5 -306t256.5 -179v-215h-633z" />
    <glyph glyph-name="Omega" unicode="&#x2126;" horiz-adv-x="1785" 
d="M141 0v233h318q-162 74 -255 206.5t-93 291.5q0 131 61 250.5t164.5 206.5t248.5 138.5t306 51.5q215 0 396 -87t285.5 -236t104.5 -324q0 -155 -97 -289.5t-259 -208.5h317v-233h-630v215q162 43 262 177t100 308q0 177 -139 300.5t-340 123.5q-199 0 -335 -123
t-136 -301q0 -173 97.5 -306t256.5 -179v-215h-633z" />
    <glyph glyph-name="pi" unicode="&#x3c0;" horiz-adv-x="1398" 
d="M68 776v213h1267v-213h-202l-64 -610q-8 -76 -2 -166h-272q-6 88 2 166l63 610h-295l-84 -776h-270l84 776h-227z" />
    <glyph glyph-name="Wgrave" unicode="&#x1e80;" horiz-adv-x="2045" 
d="M59 1337h320l256 -878h12l275 878h215l272 -878h12l258 878h308l-428 -1337h-279l-252 795h-12l-250 -795h-279zM995 1769l205 -282h-246l-252 282h293z" />
    <glyph glyph-name="wgrave" unicode="&#x1e81;" horiz-adv-x="1622" 
d="M692 999h248l180 -639h13l155 639h281l-318 -999h-260l-174 612h-12l-176 -612h-258l-318 999h287l160 -639h12zM514 1430h274l185 -300h-238z" />
    <glyph glyph-name="Wacute" unicode="&#x1e82;" horiz-adv-x="2045" 
d="M59 1337h320l256 -878h12l275 878h215l272 -878h12l258 878h308l-428 -1337h-279l-252 795h-12l-250 -795h-279zM844 1487l205 282h292l-254 -282h-243z" />
    <glyph glyph-name="wacute" unicode="&#x1e83;" horiz-adv-x="1622" 
d="M692 999h248l180 -639h13l155 639h281l-318 -999h-260l-174 612h-12l-176 -612h-258l-318 999h287l160 -639h12zM831 1430h277l-221 -300h-240z" />
    <glyph glyph-name="Wdieresis" unicode="&#x1e84;" horiz-adv-x="2045" 
d="M59 1337h320l256 -878h12l275 878h215l272 -878h12l258 878h308l-428 -1337h-279l-252 795h-12l-250 -795h-279zM641 1634q0 56 42.5 97t104.5 41q64 0 108 -41t44 -97q0 -57 -44 -96t-108 -39q-63 0 -105 39t-42 96zM1100 1634q0 56 43 97t106 41t107.5 -41t44.5 -97
q0 -57 -44.5 -96t-107.5 -39q-64 0 -106.5 39t-42.5 96z" />
    <glyph glyph-name="wdieresis" unicode="&#x1e85;" horiz-adv-x="1622" 
d="M692 999h248l180 -639h13l155 639h281l-318 -999h-260l-174 612h-12l-176 -612h-258l-318 999h287l160 -639h12zM430 1280q0 56 43 96.5t105 40.5q64 0 107.5 -40.5t43.5 -96.5q0 -57 -43.5 -96t-107.5 -39q-63 0 -105.5 39t-42.5 96zM889 1280q0 56 42.5 96.5
t106.5 40.5q63 0 107.5 -40.5t44.5 -96.5q0 -57 -44.5 -96t-107.5 -39q-64 0 -106.5 39t-42.5 96z" />
    <glyph glyph-name="Ygrave" unicode="&#x1ef2;" horiz-adv-x="1372" 
d="M1020 1337h344l-530 -727v-610h-295v610l-533 727h365l325 -465zM659 1769l205 -282h-246l-251 282h292z" />
    <glyph glyph-name="ygrave" unicode="&#x1ef3;" horiz-adv-x="1140" 
d="M575 403h13l264 596h281l-674 -1423h-285l260 516l-405 907h305zM281 1430h274l184 -300h-237z" />
    <glyph glyph-name="endash" unicode="&#x2013;" horiz-adv-x="1288" 
d="M129 426v233h1030v-233h-1030z" />
    <glyph glyph-name="emdash" unicode="&#x2014;" horiz-adv-x="2217" 
d="M129 426v233h1960v-233h-1960z" />
    <glyph glyph-name="quoteleft" unicode="&#x2018;" horiz-adv-x="622" 
d="M471 1399l61 -144q-84 -21 -164.5 -78t-80.5 -122v-17q44 11 59 11q65 0 110.5 -42.5t45.5 -103.5q0 -67 -54 -113.5t-131 -46.5q-91 0 -157 67t-66 169q0 71 24.5 133.5t61.5 106.5t89.5 80.5t100.5 59t101 40.5z" />
    <glyph glyph-name="quoteright" unicode="&#x2019;" horiz-adv-x="618" 
d="M162 723l-64 141q84 21 165 78.5t81 122.5v16q-40 -10 -57 -10q-66 0 -111 42.5t-45 105.5q0 67 53.5 113t130.5 46q90 0 156 -67t66 -170q0 -71 -24.5 -133t-61.5 -106t-89 -80.5t-100 -59t-100 -39.5z" />
    <glyph glyph-name="quotesinglbase" unicode="&#x201a;" horiz-adv-x="632" 
d="M145 -350l-61 141q84 21 165 78.5t81 122.5v16q-40 -10 -60 -10q-65 0 -110 42t-45 105q0 67 53.5 113.5t130.5 46.5q92 0 157.5 -67t65.5 -170q0 -71 -24.5 -133t-62 -106t-89.5 -80.5t-100 -59t-101 -39.5z" />
    <glyph glyph-name="quotedblleft" unicode="&#x201c;" horiz-adv-x="1187" 
d="M471 1399l61 -144q-84 -21 -164.5 -78t-80.5 -122v-17q44 11 59 11q65 0 110.5 -42.5t45.5 -103.5q0 -67 -54 -113.5t-131 -46.5q-91 0 -157 67t-66 169q0 71 24.5 133.5t61.5 106.5t89.5 80.5t100.5 59t101 40.5zM1036 1399l62 -144q-84 -21 -165 -78t-81 -122v-17
q44 11 59 11q65 0 110.5 -42.5t45.5 -103.5q0 -67 -53.5 -113.5t-130.5 -46.5q-92 0 -158 67t-66 169q0 71 24.5 133.5t61.5 106.5t89.5 80.5t100.5 59t101 40.5z" />
    <glyph glyph-name="quotedblright" unicode="&#x201d;" horiz-adv-x="1183" 
d="M727 723l-63 141q84 21 164.5 78.5t80.5 122.5v16q-40 -10 -57 -10q-66 0 -111 42.5t-45 105.5q0 67 54 113t131 46q90 0 155.5 -67t65.5 -170q0 -71 -24.5 -133t-61.5 -106t-89 -80.5t-100 -59t-100 -39.5zM162 723l-64 141q84 21 165 78.5t81 122.5v16q-40 -10 -57 -10
q-66 0 -111 42.5t-45 105.5q0 67 53.5 113t130.5 46q90 0 156 -67t66 -170q0 -71 -24.5 -133t-61.5 -106t-89 -80.5t-100 -59t-100 -39.5z" />
    <glyph glyph-name="quotedblbase" unicode="&#x201e;" horiz-adv-x="1198" 
d="M711 -350l-62 141q84 21 165 78.5t81 122.5v16q-40 -10 -59 -10q-65 0 -110.5 42.5t-45.5 104.5q0 67 53.5 113.5t130.5 46.5q92 0 157.5 -67t65.5 -170q0 -71 -24 -133t-61.5 -106t-89.5 -80.5t-100 -59t-101 -39.5zM145 -350l-61 141q84 21 165 78.5t81 122.5v16
q-40 -10 -60 -10q-65 0 -110 42t-45 105q0 67 53.5 113.5t130.5 46.5q92 0 157.5 -67t65.5 -170q0 -71 -24.5 -133t-62 -106t-89.5 -80.5t-100 -59t-101 -39.5z" />
    <glyph glyph-name="dagger" unicode="&#x2020;" horiz-adv-x="1038" 
d="M401 1434h232v-330h309v-193h-309v-749h-232v749h-305v193h305v330z" />
    <glyph glyph-name="daggerdbl" unicode="&#x2021;" horiz-adv-x="1067" 
d="M647 502v-340h-231v340h-305v194h305v215h-305v193h305v330h231v-330h309v-193h-309v-215h309v-194h-309z" />
    <glyph glyph-name="bullet" unicode="&#x2022;" horiz-adv-x="927" 
d="M463 266q-146 0 -249 97t-103 235q0 139 103 236.5t249 97.5q145 0 248.5 -97.5t103.5 -236.5q0 -138 -103.5 -235t-248.5 -97z" />
    <glyph glyph-name="ellipsis" unicode="&#x2026;" horiz-adv-x="2048" 
d="M168 141q0 72 54.5 123t135.5 51q79 0 135 -51.5t56 -122.5q0 -72 -55.5 -122t-135.5 -50q-81 0 -135.5 50t-54.5 122zM831 141q0 71 55 122.5t136 51.5q79 0 134.5 -51.5t55.5 -122.5q0 -72 -55 -122t-135 -50q-81 0 -136 50t-55 122zM1495 141q0 71 55 122.5t136 51.5
q79 0 134.5 -51.5t55.5 -122.5q0 -72 -55 -122t-135 -50q-81 0 -136 50t-55 122z" />
    <glyph glyph-name="perthousand" unicode="&#x2030;" horiz-adv-x="3051" 
d="M100 909q0 149 120 255t292 106q170 0 294 -106.5t124 -254.5q0 -150 -123.5 -257t-294.5 -107q-173 0 -292.5 106.5t-119.5 257.5zM1559 1239l-738 -1239h-231l737 1239h232zM344 909q0 -67 49.5 -115.5t118.5 -48.5q72 0 123 48t51 116q0 66 -51 113t-123 47
q-69 0 -118.5 -47t-49.5 -113zM1219 332q0 149 120 255.5t291 106.5q170 0 294 -107t124 -255q0 -150 -123.5 -256.5t-294.5 -106.5q-172 0 -291.5 106t-119.5 257zM1460 332q0 -66 50 -114t120 -48q72 0 123 48t51 114t-51 114t-123 48q-70 0 -120 -48t-50 -114zM2128 332
q0 148 120.5 255t291.5 107q172 0 295.5 -107t123.5 -255q0 -150 -123.5 -256.5t-295.5 -106.5t-292 106t-120 257zM2372 332q0 -66 49.5 -114t118.5 -48q72 0 125 48t53 114t-53 114t-125 48q-69 0 -118.5 -48t-49.5 -114z" />
    <glyph glyph-name="guilsinglleft" unicode="&#x2039;" horiz-adv-x="735" 
d="M301 831h307l-258 -309v-16l258 -305h-307l-207 256v116z" />
    <glyph glyph-name="guilsinglright" unicode="&#x203a;" horiz-adv-x="735" 
d="M127 831h305l209 -258v-116l-209 -256h-305l256 305v16z" />
    <glyph glyph-name="fraction" unicode="&#x2044;" horiz-adv-x="442" 
d="M487 1337h234l-760 -1337h-235z" />
    <glyph glyph-name="zero.superior" unicode="&#x2070;" horiz-adv-x="1183" 
d="M70 895q0 97 41.5 185t111.5 151t166 100t201 37q106 0 203 -37t168 -100t113 -151t42 -185t-42 -185t-113 -151.5t-168 -101t-203 -37.5q-214 0 -367 139t-153 336zM309 895q0 -111 82.5 -192.5t198.5 -81.5t200 81.5t84 192.5q0 110 -83.5 190t-200.5 80
q-116 0 -198.5 -79.5t-82.5 -190.5z" />
    <glyph glyph-name="four.superior" unicode="&#x2074;" horiz-adv-x="1167" 
d="M1104 807v-178h-168v-178h-242v178h-651v137l678 571h215v-530h168zM381 811v-4h313v250h-16q-28 -23 -134.5 -111t-162.5 -135z" />
    <glyph glyph-name="five.superior" unicode="&#x2075;" horiz-adv-x="1083" 
d="M918 1337v-192h-556v-184q62 45 125 67.5t148 22.5q73 0 141.5 -18t125 -52.5t90.5 -92.5t34 -130q0 -88 -42.5 -155t-113.5 -106t-155.5 -58t-177.5 -19q-256 0 -490 117l105 172q189 -97 385 -97q101 0 169 37.5t68 108.5q0 54 -51 81t-125 27q-150 0 -311 -92l-142 96
v467h773z" />
    <glyph glyph-name="six.superior" unicode="&#x2076;" horiz-adv-x="1097" 
d="M997 1284l-112 -160q-121 52 -258 52q-132 0 -225.5 -71.5t-102.5 -195.5q162 125 352 125q181 0 283 -85t102 -201q0 -138 -124.5 -233t-315.5 -95q-81 0 -157.5 18.5t-143.5 56.5t-117 91.5t-79 129t-29 163.5q0 112 45.5 205.5t122.5 154.5t176.5 95t208.5 34
q184 0 374 -84zM616 858q-141 0 -294 -86q33 -76 107 -118t167 -42q86 0 143.5 41.5t57.5 96.5q0 42 -45 75t-136 33z" />
    <glyph glyph-name="seven.superior" unicode="&#x2077;" horiz-adv-x="993" 
d="M57 1135v202h881v-182l-500 -704h-305l512 684h-588z" />
    <glyph glyph-name="eight.superior" unicode="&#x2078;" horiz-adv-x="1105" 
d="M553 416q-127 0 -236 34t-179 103.5t-70 159.5q0 83 54 142t140 87q-143 50 -143 174q0 80 70 140t167 87t199 27q73 0 147 -16t139 -46.5t105.5 -82t40.5 -115.5q0 -127 -143 -168q87 -28 139.5 -86.5t52.5 -142.5q0 -90 -69.5 -159.5t-178.5 -103.5t-235 -34zM553 610
q92 0 159.5 31.5t67.5 85.5t-70.5 85.5t-156.5 31.5t-157.5 -31.5t-71.5 -85.5t68.5 -85.5t160.5 -31.5zM553 1012q86 0 132 22.5t46 63.5q0 44 -56 70t-122 26q-67 0 -122.5 -26t-55.5 -70q0 -41 46 -63.5t132 -22.5z" />
    <glyph glyph-name="nine.superior" unicode="&#x2079;" horiz-adv-x="1097" 
d="M100 502l113 162q121 -54 258 -54q130 0 223.5 70.5t102.5 193.5q-163 -122 -351 -122q-181 0 -283 85.5t-102 200.5q0 140 124 235t315 95q103 0 197 -30t168 -86t118.5 -145t44.5 -198q0 -112 -45.5 -206t-122.5 -155t-176.5 -94.5t-208.5 -33.5q-171 0 -375 82z
M481 930q135 0 295 84q-33 76 -108 119t-166 43q-86 0 -143.5 -41.5t-57.5 -96.5q0 -43 44.5 -75.5t135.5 -32.5z" />
    <glyph glyph-name="parenleft.superior" unicode="&#x207d;" horiz-adv-x="622" 
d="M592 344l-113 -135q-199 101 -309.5 262.5t-110.5 359.5t111 361t309 264l113 -135q-133 -77 -212 -206.5t-79 -283.5t79 -282t212 -205z" />
    <glyph glyph-name="parenright.superior" unicode="&#x207e;" horiz-adv-x="622" 
d="M29 1321l112 135q198 -101 309 -264t111 -361t-110.5 -359.5t-309.5 -262.5l-112 135q133 77 211.5 205t78.5 282q0 155 -79 284t-211 206z" />
    <glyph glyph-name="n.superior" unicode="&#x207f;" horiz-adv-x="972" 
d="M354 451h-223v514q0 111 -20 213h202q8 -37 15 -93q101 117 247 117q117 0 199 -75t82 -189v-487h-221v481q0 37 -33.5 63.5t-85.5 26.5q-84 0 -162 -90v-481z" />
    <glyph glyph-name="zero.inferior" unicode="&#x2080;" horiz-adv-x="1173" 
d="M63 100q0 130 70.5 239t190 171.5t260.5 62.5q106 0 203 -37t168 -100t113 -151t42 -185t-42 -185t-113 -151.5t-168 -101t-203 -37.5q-140 0 -260 63t-190.5 172.5t-70.5 239.5zM303 100q0 -111 82.5 -192.5t198.5 -81.5t200 81.5t84 192.5t-83.5 191t-200.5 80
q-116 0 -198.5 -80t-82.5 -191z" />
    <glyph glyph-name="one.inferior" unicode="&#x2081;" horiz-adv-x="671" 
d="M59 236l-51 188l287 119h217v-887h-244v663z" />
    <glyph glyph-name="two.inferior" unicode="&#x2082;" horiz-adv-x="987" 
d="M207 244l-133 153q61 45 96.5 68t93.5 52.5t119.5 42.5t134.5 13q75 0 143 -15.5t124.5 -46.5t90 -84.5t33.5 -121.5q0 -33 -8 -62.5t-19.5 -52.5t-33.5 -45t-40 -37t-49.5 -31.5t-52.5 -26t-57.5 -22.5t-55.5 -19t-56 -17q-110 -35 -160.5 -67t-50.5 -79v-4h565v-186
h-807v149q0 79 32.5 143t93 109t133 76t165.5 55q160 44 160 117q0 28 -22 45.5t-52 24t-68 6.5q-93 0 -165.5 -35t-153.5 -102z" />
    <glyph glyph-name="three.inferior" unicode="&#x2083;" horiz-adv-x="1093" 
d="M451 31v176h165q48 0 74.5 22t26.5 56q0 49 -46.5 72.5t-107.5 23.5q-154 0 -317 -137l-135 145q227 184 456 184q65 0 130 -14.5t125.5 -43.5t98 -81t37.5 -119q0 -50 -28 -92.5t-68 -66.5q70 -26 117 -78.5t47 -136.5q0 -147 -140.5 -231.5t-353.5 -84.5
q-291 0 -497 189l133 151q168 -147 364 -147q109 0 180.5 35.5t71.5 97.5q0 80 -135 80h-198z" />
    <glyph glyph-name="four.inferior" unicode="&#x2084;" horiz-adv-x="1159" 
d="M1104 12v-178h-168v-178h-242v178h-651v137l678 572h215v-531h168zM381 16v-4h313v250h-16q-28 -23 -134.5 -111t-162.5 -135z" />
    <glyph glyph-name="five.inferior" unicode="&#x2085;" horiz-adv-x="1077" 
d="M913 543v-193h-553v-184q62 45 125 67.5t148 22.5q58 0 113.5 -11t105.5 -34.5t87.5 -57.5t60 -83t22.5 -107q0 -88 -42 -155t-113.5 -106t-155 -58t-176.5 -19q-256 0 -490 117l105 172q182 -96 385 -96q101 0 169 37t68 108q0 54 -51.5 81.5t-126.5 27.5
q-148 0 -309 -92l-142 96v467h770z" />
    <glyph glyph-name="six.inferior" unicode="&#x2086;" horiz-adv-x="1091" 
d="M993 489l-114 -159q-118 51 -256 51q-133 0 -227 -71t-103 -195q167 125 352 125q181 0 284 -85.5t103 -201.5q0 -138 -124.5 -233t-315.5 -95q-81 0 -157.5 18.5t-143.5 56.5t-117 91.5t-79 129t-29 163.5q0 148 78.5 261.5t202 170.5t269.5 57q182 0 377 -84zM612 63
q-143 0 -297 -83q33 -77 107.5 -119.5t167.5 -42.5q88 0 145.5 41t57.5 96q0 42 -45 75t-136 33z" />
    <glyph glyph-name="seven.inferior" unicode="&#x2087;" horiz-adv-x="980" 
d="M57 340v203h881v-183l-498 -704h-305l512 684h-590z" />
    <glyph glyph-name="eight.inferior" unicode="&#x2088;" horiz-adv-x="1103" 
d="M553 -379q-127 0 -236 34t-179 103.5t-70 159.5q0 84 53.5 142.5t140.5 86.5q-145 51 -145 175q0 61 40.5 111t105.5 80t140.5 46t151.5 16q73 0 147 -16t138 -46.5t104.5 -82t40.5 -115.5q0 -126 -141 -168q85 -28 138.5 -87t53.5 -142q0 -90 -70 -159.5t-178.5 -103.5
t-234.5 -34zM553 -184q93 0 160 31t67 85t-71 85.5t-156 31.5q-86 0 -157.5 -31.5t-71.5 -85.5t68 -85t161 -31zM553 217q86 0 131 22.5t45 63.5q0 44 -55.5 70t-120.5 26q-67 0 -122.5 -26t-55.5 -70q0 -41 46 -63.5t132 -22.5z" />
    <glyph glyph-name="nine.inferior" unicode="&#x2089;" horiz-adv-x="1091" 
d="M98 -293l115 162q116 -53 256 -53q131 0 225 71.5t103 194.5q-162 -125 -353 -125q-92 0 -167 25t-121.5 66t-71.5 91.5t-25 104.5q0 139 124.5 234t316.5 95q81 0 157.5 -18.5t143.5 -56.5t117 -91.5t79 -128.5t29 -163q0 -112 -45.5 -206t-122.5 -155.5t-176 -95
t-207 -33.5q-173 0 -377 82zM479 135q137 0 297 84q-35 77 -109 119.5t-165 42.5q-87 0 -145 -41.5t-58 -95.5q0 -43 44.5 -76t135.5 -33z" />
    <glyph glyph-name="colonmonetary" unicode="&#x20a1;" horiz-adv-x="1521" 
d="M1059 1370h141l-53 -235q145 -55 262 -148l-174 -168q-63 48 -139 84l-154 -694q166 43 313 180l175 -168q-109 -97 -247 -165.5t-294 -86.5l-51 -233h-142l52 229q-96 7 -166 25l-56 -254h-141l66 299q-167 76 -262 222t-95 325q0 159 76 293.5t217 220.5t322 100
l39 174h141l-39 -172q85 -6 164 -24zM635 223q70 -27 162 -30l168 757q-93 21 -164 21zM385 580q0 -174 125 -281l143 649q-123 -41 -195.5 -141.5t-72.5 -226.5z" />
    <glyph glyph-name="franc" unicode="&#x20a3;" horiz-adv-x="1449" 
d="M102 195v159h207v809h1043v-225h-756v-188h467v-224h-467v-172h340v-159h-340v-195h-287v195h-207z" />
    <glyph glyph-name="lira" unicode="&#x20a4;" horiz-adv-x="1460" 
d="M119 647v150h266v55q0 70 27 129t72.5 99t106.5 68t128.5 41t138.5 13q98 0 232.5 -36.5t252.5 -96.5l-120 -197q-90 43 -189 71t-166 28q-78 0 -137 -40t-59 -114v-20h440v-150h-440v-125h440v-147h-444q-10 -68 -51.5 -104t-122.5 -50h849v-221h-1224v221h80
q95 0 135 31t49 123h-264v147h266v125h-266z" />
    <glyph glyph-name="peseta" unicode="&#x20a7;" horiz-adv-x="3201" 
d="M455 0h-287v1163h692q254 0 381 -133l27 -31h198v283h275v-283h246v-202h-246v-518q0 -89 106 -89q37 0 129 15l21 -205q-27 -20 -94.5 -29.5t-122.5 -9.5q-59 0 -112 15.5t-99.5 48.5t-74.5 93t-28 140v539h-127v-9q0 -141 -102 -243q-129 -129 -381 -129h-401v-416z
M3045 930l-94 -195q-88 40 -186.5 65t-175.5 25q-76 0 -120 -25t-44 -71q0 -24 13 -41.5t30 -26.5t48 -15t51 -7.5t54 -3.5q49 -2 83.5 -5t89 -11.5t92.5 -21t81.5 -36.5t70.5 -56t45 -80t18 -108q0 -115 -63.5 -196t-168.5 -118.5t-241 -37.5q-268 0 -508 152l94 194
q224 -135 418 -135q94 0 145 31.5t51 85.5q0 27 -14.5 47t-33.5 30.5t-52 18t-54.5 10t-56.5 4.5q-86 5 -133 9.5t-120 22.5t-111.5 47t-68.5 84.5t-30 133.5q0 74 25 132.5t66 96t97 62t114.5 35t121.5 10.5q122 0 256 -34t211 -72zM870 928h-415v-277h411q101 0 148 47
q41 41 41 90t-35 89q-49 51 -150 51z" />
    <glyph glyph-name="Euro" unicode="&#x20ac;" horiz-adv-x="1599" 
d="M106 647v150h207q71 179 242.5 291t394.5 112q143 0 282 -44t238 -118l-153 -184q-70 52 -163 81.5t-183 29.5q-106 0 -193 -45t-143 -123h465v-150h-527q-6 -35 -6 -67q0 -40 4 -58h529v-147h-471q54 -82 144.5 -130t203.5 -48q98 0 196.5 38t169.5 99l154 -182
q-237 -191 -543 -191q-227 0 -401.5 115t-241.5 299h-205v147h170q-2 18 -2 60q0 8 5 65h-173z" />
    <glyph glyph-name="peso" unicode="&#x20b1;" horiz-adv-x="1652" 
d="M76 653v148h174v362h645q262 0 399 -143q91 -98 111 -219h184v-148h-180q-19 -138 -129 -243q-69 -67 -160.5 -100.5t-224.5 -33.5h-358v-276h-287v653h-174zM1063 557q44 44 57 96h-583v-149h366q57 0 93 12t67 41zM905 938h-368v-137h581q-12 37 -45 76
q-30 33 -69.5 47t-98.5 14z" />
    <glyph glyph-name="Rupee" unicode="&#x20b9;" horiz-adv-x="1632" 
d="M219 653v148h817q-14 37 -45 76q-30 33 -69.5 47t-98.5 14h-604v225h1288v-149h-319q107 -81 135 -213h184v-148h-180q-20 -137 -129 -243q-65 -52 -145 -78t-203 -29l-145 8l544 -311h-456l-574 354v150h602q56 0 92.5 11.5t67.5 41.5q44 44 57 96h-819z" />
    <glyph glyph-name="litre" unicode="&#x2113;" horiz-adv-x="1167" 
d="M664 -31q-68 0 -125.5 12.5t-111 41.5t-87 85.5t-39.5 135.5v28l-149 -79l-60 188l207 111v393q0 100 21.5 176t56.5 121.5t85.5 74t101.5 38.5t112 10q170 0 270.5 -93.5t100.5 -242.5t-125.5 -291t-352.5 -262v-131q0 -58 36 -77.5t95 -19.5q94 0 242 74l43 -203
q-104 -53 -174 -71.5t-147 -18.5zM569 655q107 63 162 143t55 154q0 66 -28.5 105t-79.5 39q-23 0 -40.5 -7.5t-34 -28.5t-25.5 -65t-9 -110v-230z" />
    <glyph glyph-name="soundrecordingcopyright" unicode="&#x2117;" horiz-adv-x="2109" 
d="M1053 -346q-195 0 -372.5 70.5t-306.5 190t-205.5 286t-76.5 350.5t76.5 350.5t205.5 286t306.5 190t372.5 70.5q193 0 369.5 -70.5t305.5 -190t205 -286t76 -350.5t-76 -350.5t-205 -286t-305.5 -190t-369.5 -70.5zM1051 -162q206 0 379 95.5t273.5 260t100.5 359.5
q0 143 -59.5 274t-160 227t-240 153t-293.5 57q-202 0 -376 -96.5t-276 -260.5t-102 -354q0 -145 60.5 -277.5t161.5 -228.5t240.5 -152.5t291.5 -56.5zM1206 375h-266v-232h-262v852h477q45 0 88 -5t91.5 -17t88.5 -35t73.5 -55t52 -81.5t18.5 -111.5q0 -79 -31.5 -141
t-84 -99t-115 -56t-130.5 -19zM940 793v-215h244q49 0 85 25.5t36 84.5q0 52 -36.5 78.5t-84.5 26.5h-244z" />
    <glyph glyph-name="servicemark" unicode="&#x2120;" horiz-adv-x="1792" 
d="M1649 668h-179v354h-6l-174 -299h-18l-176 299h-6v-354h-168v669h174l190 -333h2l193 333h168v-669zM725 1288l-84 -123q-31 21 -91 38.5t-138 17.5q-99 0 -99 -58q0 -33 31 -43.5t117 -18.5q5 -1 8 -1q36 -4 60 -7t57 -11t55.5 -18t46.5 -27t38.5 -38.5t24 -53.5
t9.5 -71q0 -62 -24 -107.5t-67 -72t-96 -39t-118 -12.5q-201 0 -346 117l75 117q43 -35 114.5 -64t156.5 -29q61 0 96 18.5t35 53.5q0 37 -29 54.5t-98 23.5q-45 4 -75.5 8t-71.5 12.5t-68 23t-52.5 35.5t-38 54t-12.5 76q0 50 16.5 89.5t43.5 63.5t63.5 40t73.5 22t78 6
q94 0 178 -23.5t131 -52.5z" />
    <glyph glyph-name="trademark" unicode="&#x2122;" horiz-adv-x="1744" 
d="M1589 668h-178v354h-6l-174 -299h-19l-176 299h-6v-354h-168v669h174l191 -333h2l192 333h168v-669zM100 1194v143h617v-143h-219v-526h-179v526h-219z" />
    <glyph glyph-name="estimated" unicode="&#x212e;" horiz-adv-x="1667" 
d="M463 897v-168q0 -4 4.5 -8t7.5 -4h723q16 0 16 12v168q0 19 -12 43q-57 87 -149.5 133.5t-210.5 46.5q-101 0 -210 -52t-155 -128q-14 -22 -14 -43zM1518 319q-127 -180 -303 -268t-373 -88q-137 0 -269 48t-235 131.5t-165.5 205.5t-61.5 260q0 114 41 216.5t112 178.5
t164 132.5t199 85t215 28.5q145 0 276.5 -46.5t232 -131t159.5 -212t59 -279.5h-1094q-3 0 -7.5 -5.5t-4.5 -11.5v-225q0 -39 14 -57q158 -189 365 -189q120 0 226 59t189 168h261z" />
    <glyph glyph-name="onethird" unicode="&#x2153;" horiz-adv-x="2207" 
d="M59 1030l-51 189l287 118h217v-886h-244v663zM1159 1337h234l-760 -1337h-236zM1565 375v176h166q48 0 74 22t26 56q0 49 -46.5 72.5t-107.5 23.5q-154 0 -317 -137l-135 145q228 185 456 185q65 0 130.5 -14.5t125.5 -44t98 -81.5t38 -119q0 -50 -28.5 -92t-68.5 -67
q70 -26 117 -78.5t47 -136.5q0 -99 -66.5 -171.5t-177 -108.5t-249.5 -36q-292 0 -498 189l133 151q168 -147 365 -147q109 0 180 35.5t71 97.5q0 80 -135 80h-198z" />
    <glyph glyph-name="twothirds" unicode="&#x2154;" horiz-adv-x="2523" 
d="M207 1038l-133 154q61 45 96.5 68t93.5 52.5t119.5 42.5t134.5 13q75 0 143 -15.5t124.5 -46.5t90 -84.5t33.5 -121.5q0 -42 -13 -78.5t-31.5 -63t-52 -51.5t-60 -40t-72 -32.5t-71 -26t-72.5 -22.5q-111 -35 -161 -66.5t-50 -78.5v-4h565v-186h-807v149q0 79 32.5 143
t93 109t133 76t165.5 55q160 44 160 117q0 28 -22 45.5t-52 24t-68 6.5q-92 0 -164.5 -35.5t-154.5 -102.5zM1475 1337h233l-760 -1337h-235zM1880 375v176h166q48 0 74 22t26 56q0 49 -46.5 72.5t-106.5 23.5q-155 0 -318 -137l-135 145q228 185 457 185q65 0 130 -14.5
t125.5 -44t98 -81.5t37.5 -119q0 -50 -28 -92.5t-68 -66.5q70 -26 117 -78.5t47 -136.5q0 -147 -140.5 -231.5t-353.5 -84.5q-292 0 -498 189l133 151q168 -147 365 -147q109 0 180.5 35.5t71.5 97.5q0 80 -135 80h-199z" />
    <glyph glyph-name="oneeighth" unicode="&#x215b;" horiz-adv-x="2217" 
d="M59 1030l-51 189l287 118h217v-886h-244v663zM1159 1337h234l-760 -1337h-236zM1667 -35q-127 0 -236 34t-179 103.5t-70 159.5q0 84 53.5 143t140.5 87q-145 51 -145 174q0 61 40.5 111t105.5 80t141 46.5t151 16.5q73 0 147 -16.5t138 -47t104.5 -82t40.5 -115.5
q0 -125 -141 -167q85 -28 138.5 -87.5t53.5 -142.5q0 -90 -70 -159.5t-178.5 -103.5t-234.5 -34zM1667 160q93 0 160 31t67 85t-71 85.5t-156 31.5q-86 0 -157.5 -31.5t-71.5 -85.5t68 -85t161 -31zM1667 561q86 0 131 22.5t45 63.5q0 44 -55.5 70t-120.5 26
q-67 0 -122.5 -26t-55.5 -70q0 -41 46 -63.5t132 -22.5z" />
    <glyph glyph-name="threeeighths" unicode="&#x215c;" horiz-adv-x="2639" 
d="M451 825v176h165q48 0 74.5 22t26.5 56q0 49 -47 73t-107 24q-153 0 -317 -138l-135 146q227 184 456 184q65 0 130 -14.5t125.5 -43.5t98 -81t37.5 -119q0 -50 -28.5 -93t-67.5 -67q70 -26 117 -78.5t47 -136.5q0 -99 -67 -171.5t-177.5 -108t-249.5 -35.5
q-292 0 -497 188l133 152q169 -148 364 -148q109 0 180.5 35.5t71.5 97.5q0 80 -135 80h-198zM1581 1337h234l-760 -1337h-236zM2089 -35q-127 0 -236 34t-179 103.5t-70 159.5q0 84 53.5 143t140.5 87q-145 51 -145 174q0 61 40.5 111t105.5 80t141 46.5t151 16.5
q73 0 147 -16.5t138 -47t104.5 -82t40.5 -115.5q0 -125 -141 -167q85 -28 138.5 -87.5t53.5 -142.5q0 -90 -70 -159.5t-178.5 -103.5t-234.5 -34zM2089 160q93 0 160 31t67 85t-71 85.5t-156 31.5q-86 0 -157.5 -31.5t-71.5 -85.5t68 -85t161 -31zM2089 561q86 0 131 22.5
t45 63.5q0 44 -55.5 70t-120.5 26q-67 0 -122.5 -26t-55.5 -70q0 -41 46 -63.5t132 -22.5z" />
    <glyph glyph-name="fiveeighths" unicode="&#x215d;" horiz-adv-x="2623" 
d="M913 1337v-192h-553v-184q62 45 125 67.5t148 22.5q58 0 113.5 -11t105.5 -34.5t87.5 -57.5t60 -83t22.5 -107q0 -88 -42 -155t-113.5 -106t-155 -58t-176.5 -19q-256 0 -490 117l105 172q184 -97 385 -97q101 0 169 37.5t68 108.5q0 54 -51.5 81t-126.5 27
q-148 0 -309 -92l-142 96v467h770zM1565 1337h233l-760 -1337h-235zM2073 -35q-127 0 -236.5 34t-179.5 103.5t-70 159.5q0 84 54 143t141 87q-146 51 -146 174q0 61 41 111t106 80t141 46.5t151 16.5q73 0 147 -16.5t138 -47t104.5 -82t40.5 -115.5q0 -125 -142 -167
q85 -28 139 -87.5t54 -142.5q0 -90 -70 -159.5t-178.5 -103.5t-234.5 -34zM2073 160q93 0 160 31t67 85t-71 85.5t-156 31.5q-86 0 -158 -31.5t-72 -85.5t68.5 -85t161.5 -31zM2073 561q86 0 131 22.5t45 63.5q0 44 -55.5 70t-120.5 26q-67 0 -123 -26t-56 -70
q0 -41 46.5 -63.5t132.5 -22.5z" />
    <glyph glyph-name="seveneighths" unicode="&#x215e;" horiz-adv-x="2435" 
d="M57 1135v202h881v-182l-500 -704h-305l512 684h-588zM1376 1337h234l-760 -1337h-236zM1884 -35q-127 0 -236 34t-179 103.5t-70 159.5q0 84 53.5 143t140.5 87q-145 51 -145 174q0 61 40.5 111t105.5 80t141 46.5t151 16.5q73 0 147 -16.5t138 -47t104.5 -82
t40.5 -115.5q0 -125 -141 -167q85 -28 138.5 -87.5t53.5 -142.5q0 -90 -70 -159.5t-178.5 -103.5t-234.5 -34zM1884 160q93 0 160 31t67 85t-71 85.5t-156 31.5q-86 0 -157.5 -31.5t-71.5 -85.5t68 -85t161 -31zM1884 561q86 0 131 22.5t45 63.5q0 44 -55.5 70t-120.5 26
q-67 0 -122.5 -26t-55.5 -70q0 -41 46 -63.5t132 -22.5z" />
    <glyph glyph-name="arrowleft" unicode="&#x2190;" horiz-adv-x="1683" 
d="M1167 649l330 4v-258l-330 6l-624 7l-94 2l-3 -11l115 -80l350 -350l-168 -176l-696 694v74l696 694l168 -174l-350 -350l-115 -80l5 -10l92 2z" />
    <glyph glyph-name="arrowup" unicode="&#x2191;" horiz-adv-x="1685" 
d="M963 117l8 -326h-260l6 326l6 626l4 95l-12 4l-80 -117l-354 -354l-177 168l699 700h74l700 -700l-176 -168l-357 354l-79 117l-9 -4l2 -95z" />
    <glyph glyph-name="arrowright" unicode="&#x2192;" horiz-adv-x="1683" 
d="M186 653l328 -4l625 -6l94 -4l2 12l-115 80l-350 350l168 174l696 -694v-74l-696 -694l-168 176l350 350l115 80l-2 11l-94 -2l-625 -7l-328 -6v258z" />
    <glyph glyph-name="arrowdown" unicode="&#x2193;" horiz-adv-x="1685" 
d="M971 1255l-6 -325l-2 -578l-9 -143l11 -4l82 117l354 354l176 -168l-700 -701h-74l-699 701l177 168l356 -354l78 -117l10 4l-6 143l-2 578l-6 325h260z" />
    <glyph glyph-name="arrowupleft" unicode="&#x2196;" horiz-adv-x="1683" 
d="M1272 238l233 -226l-184 -184l-242 252l-510 518l-65 72l-12 -6l30 -142v-522h-241v1004l51 51h1001v-244h-520l-143 31l-6 -13l71 -63z" />
    <glyph glyph-name="arrowupright" unicode="&#x2197;" horiz-adv-x="1683" 
d="M178 12l236 226l534 528l72 63l-6 13l-144 -31h-520v244h1002l53 -51v-1004h-244v522l31 142l-10 6l-68 -72l-510 -518l-242 -252z" />
    <glyph glyph-name="arrowdownright" unicode="&#x2198;" horiz-adv-x="1683" 
d="M412 817l-234 225l184 185l242 -252l510 -518l68 -72l10 6l-31 141v523h244v-1004l-53 -51h-1002v244h520l144 -31l6 12l-72 64z" />
    <glyph glyph-name="arrowdownleft" unicode="&#x2199;" horiz-adv-x="1683" 
d="M1505 1042l-235 -225l-498 -495l-108 -97l6 -12l143 31h520v-244h-1001l-51 51v1004h241v-523l-30 -141l12 -6l98 111l477 479l242 252z" />
    <glyph glyph-name="partialdiff" unicode="&#x2202;" horiz-adv-x="1327" 
d="M590 930q106 0 198.5 -43t151.5 -107v29q0 31 -13.5 67t-50.5 79t-92.5 77t-149 57t-210.5 23v227q137 0 250 -22t193 -59.5t141 -91.5t98.5 -113.5t61 -131t32 -137.5t8.5 -139q0 -140 -31 -255.5t-84 -194t-126 -132t-154.5 -78t-171.5 -24.5q-102 0 -197 30.5t-174 89
t-126.5 154t-47.5 214.5q0 93 30 173t79.5 135.5t113.5 95.5t133 58.5t138 18.5zM631 170q122 0 212 93.5t103 273.5q-53 78 -139 131t-180 53q-103 0 -181.5 -73t-78.5 -199q0 -132 78 -205.5t186 -73.5z" />
    <glyph glyph-name="product" unicode="&#x220f;" horiz-adv-x="1652" 
d="M98 1087v250h1458v-250h-196v-1306h-291v1306h-489v-1306h-289v1306h-193z" />
    <glyph glyph-name="summation" unicode="&#x2211;" horiz-adv-x="1474" 
d="M1364 1337v-250h-782l536 -452v-148l-536 -458h782v-248h-1270v174l711 600v12l-711 596v174h1270z" />
    <glyph glyph-name="minus" unicode="&#x2212;" horiz-adv-x="1542" 
d="M154 426v233h1189v-233h-1189z" />
    <glyph glyph-name="radical" unicode="&#x221a;" horiz-adv-x="1380" 
d="M47 999h416l217 -573l407 1118h275l-590 -1544h-188l-316 786h-221v213z" />
    <glyph glyph-name="infinity" unicode="&#x221e;" horiz-adv-x="2091" 
d="M555 950h23q184 0 362 -149l104 -90l107 90q180 149 358 149h25q123 0 226 -55.5t159.5 -144.5t56.5 -189v-37q0 -100 -56.5 -188t-159.5 -142.5t-226 -54.5h-25q-173 0 -358 148l-107 86l-106 -88q-183 -146 -360 -146h-23q-186 0 -313 115.5t-127 269.5v37
q0 100 56 189t158.5 144.5t225.5 55.5zM1333 641l-119 -96l119 -99q99 -81 176 -81h25q76 0 129 48t53 111v37q0 66 -52.5 114t-129.5 48h-25q-32 0 -80 -21t-96 -61zM373 561v-37q0 -63 52.5 -111t129.5 -48h23q83 0 178 81l112 99l-112 96q-103 82 -178 82h-23
q-78 0 -130 -48t-52 -114z" />
    <glyph glyph-name="integral" unicode="&#x222b;" horiz-adv-x="905" 
d="M813 1481v-232h-137q-39 0 -61.5 -28.5t-22.5 -67.5v-1262q0 -115 -93 -194.5t-266 -79.5h-133v231h140q38 0 60 28.5t22 68.5v1259q0 73 28.5 134.5t92.5 102t153 40.5h217z" />
    <glyph glyph-name="approxequal" unicode="&#x2248;" horiz-adv-x="1542" 
d="M154 131v242q81 57 156.5 85.5t162.5 28.5q79 0 139.5 -19.5t124.5 -55.5q139 -80 256 -80q80 0 172.5 33.5t167.5 87.5v-246q-163 -117 -340 -117q-135 0 -262 76q-47 26 -77.5 40t-80.5 27t-102 13q-160 0 -317 -115zM154 629v241q160 113 319 113q79 0 139 -20
t125 -56q139 -80 256 -80q80 0 172.5 34t167.5 89v-245q-161 -119 -340 -119q-61 0 -120 16t-80.5 27t-61.5 33q-46 25 -77.5 39.5t-81 27t-101.5 12.5q-160 0 -317 -112z" />
    <glyph glyph-name="notequal" unicode="&#x2260;" horiz-adv-x="1542" 
d="M154 672v235h661l125 197h277l-125 -197h251v-235h-399l-149 -238h548v-235h-696l-123 -197h-278l123 197h-215v235h364l150 238h-514z" />
    <glyph glyph-name="lessequal" unicode="&#x2264;" horiz-adv-x="1542" 
d="M154 0v233h1189v-233h-1189zM1343 1253v-262l-788 -207v-24l788 -205v-262l-1189 360v238z" />
    <glyph glyph-name="greaterequal" unicode="&#x2265;" horiz-adv-x="1542" 
d="M1343 233v-233h-1189v233h1189zM154 991v262l1189 -362v-238l-1189 -360v262l788 205v24z" />
    <glyph glyph-name="squarecrossed" unicode="&#x22a0;" horiz-adv-x="1724" 
d="M195 1337h1335v-1337h-1335v1337zM485 1130l58 -55l295 -297l22 -24l21 24l299 297l55 55l-4 5l-121 -9h-498l-123 9zM395 1049l-4 -5l8 -114v-516l-8 -121l4 -4l51 57l302 301l24 21l-24 22l-302 303zM1331 1044l-4 5l-49 -56l-301 -303l-25 -22l25 -21l301 -301l49 -57
l4 4l-8 121v516zM543 260l-58 -55l4 -4l123 8h498l123 -8l4 4l-57 55l-299 299l-21 25l-22 -25z" />
    <glyph glyph-name="blacksquare" unicode="&#x25a0;" horiz-adv-x="1456" 
d="M147 1161h1162v-1161h-1162v1161z" />
    <glyph glyph-name="whitesquare" unicode="&#x25a1;" horiz-adv-x="1724" 
d="M195 1337h1335v-1337h-1335v1337zM416 1126v-917h893v917h-893z" />
    <glyph glyph-name="blacksmallsquare" unicode="&#x25aa;" horiz-adv-x="964" 
d="M162 920h643v-644h-643v644z" />
    <glyph glyph-name="blackuppointingtriangle" unicode="&#x25b2;" horiz-adv-x="1345" 
d="M659 1206h19l575 -1188v-18h-1171v18z" />
    <glyph glyph-name="blackrightpointingtriangle" unicode="&#x25b6;" horiz-adv-x="1536" 
d="M186 1114h19l1188 -579v-19l-1188 -577h-19v1175z" />
    <glyph glyph-name="blackdownpointingtriangle" unicode="&#x25bc;" horiz-adv-x="1345" 
d="M82 1001h1171v-20l-575 -1186h-19l-577 1186v20z" />
    <glyph glyph-name="blackleftpointingtriangle" unicode="&#x25c0;" horiz-adv-x="1536" 
d="M143 535l1186 579h19v-1175h-19l-1186 577v19z" />
    <glyph glyph-name="lozenge" unicode="&#x25ca;" horiz-adv-x="1363" 
d="M602 1337h160l512 -596v-143l-512 -598h-160l-512 598v143zM682 1034l-311 -362v-4l311 -365h2l309 363v6l-309 362h-2z" />
    <glyph glyph-name="whitecircle" unicode="&#x25cb;" horiz-adv-x="1703" 
d="M92 662q0 154 60.5 294t162.5 241.5t242 161.5t293 60q155 0 295.5 -60t242.5 -161.5t162 -241.5t60 -294t-60 -294.5t-162 -242.5t-242.5 -162.5t-295.5 -60.5q-153 0 -293 60.5t-242 162.5t-162.5 242.5t-60.5 294.5zM324 662q0 -149 70 -275t191 -199t265 -73
q146 0 268 73t192 199t70 275t-70 274t-192 197.5t-268 72.5q-144 0 -265 -72.5t-191 -197.5t-70 -274z" />
    <glyph glyph-name="blackcircle" unicode="&#x25cf;" horiz-adv-x="1431" 
d="M100 582q0 125 49 239t131.5 196.5t196 131.5t238.5 49q167 0 309 -82.5t224.5 -224.5t82.5 -309q0 -125 -49 -238.5t-131.5 -196t-196.5 -131.5t-239 -49q-124 0 -238 49t-196.5 131.5t-131.5 196.5t-49 238z" />
    <glyph glyph-name="blackmediumsquare" unicode="&#x25fc;" horiz-adv-x="1114" 
d="M147 1001h820v-821h-820v821z" />
    <glyph glyph-name="blackmediumcircle" unicode="&#x26ab;" horiz-adv-x="1116" 
d="M559 1042q188 0 320.5 -129t132.5 -313q0 -90 -36 -171t-96.5 -139.5t-144.5 -93t-176 -34.5q-190 0 -322.5 127.5t-132.5 310.5q0 185 132.5 313.5t322.5 128.5z" />
    <glyph glyph-name="circlecrossed" unicode="&#x2a02;" horiz-adv-x="1703" 
d="M850 106q198 0 344 127l-324 324l-20 23l-21 -23l-319 -324q146 -127 340 -127zM850 1214q-182 0 -330 -116l309 -312l21 -26l20 26l312 312q-145 116 -332 116zM92 662q0 154 60.5 294t162.5 241.5t242 161.5t293 60q155 0 295.5 -60t242.5 -161.5t162 -241.5t60 -294
t-60 -294.5t-162 -242.5t-242.5 -162.5t-295.5 -60.5q-153 0 -293 60.5t-242 162.5t-162.5 242.5t-60.5 294.5zM963 651l319 -319q107 145 107 330q0 183 -115 337l-311 -307l-23 -20zM737 692l-311 307q-111 -153 -111 -337q0 -185 105 -328l317 317l25 21z" />
    <glyph glyph-name="blacklargesquare" unicode="&#x2b1b;" horiz-adv-x="1724" 
d="M195 1337h1335v-1337h-1335v1337z" />
    <glyph glyph-name="blacklargecircle" unicode="&#x2b24;" horiz-adv-x="1703" 
d="M92 662q0 154 60.5 294t162.5 241.5t242 161.5t293 60q155 0 295.5 -60t242.5 -161.5t162 -241.5t60 -294t-60 -294.5t-162 -242.5t-242.5 -162.5t-295.5 -60.5q-153 0 -293 60.5t-242 162.5t-162.5 242.5t-60.5 294.5z" />
    <glyph glyph-name="commaaccent" unicode="&#xf6c3;" 
d="M408 -125l215 41q50 -50 68 -84q26 -47 26 -104q0 -111 -88 -179.5t-244 -68.5q-60 0 -111 16v156q29 -6 84 -6q115 0 115 98q0 27 -11.5 53.5t-21.5 39.5t-32 38z" />
    <glyph glyph-name="rupiah" unicode="&#xf6dd;" horiz-adv-x="2703" 
d="M176 0v1163h688q250 0 381 -131q103 -108 103 -241q0 -110 -67.5 -196.5t-180.5 -131.5l289 -463h-328l-248 416h-350v-416h-287zM463 651h428q78 0 127 43q43 40 43 94q0 45 -35 89q-49 51 -152 51h-411v-277zM1577 -424v1141q0 165 -23 282h258q7 -47 11 -125
q54 65 135 111.5t176 46.5q99 0 187.5 -38t154.5 -105.5t104.5 -168.5t38.5 -220q0 -115 -39 -215t-104.5 -168t-154.5 -107t-187 -39q-162 0 -285 129v-524h-272zM1851 309q118 -108 242 -108q98 0 164.5 83.5t66.5 215.5q0 136 -66.5 218.5t-164.5 82.5q-135 0 -242 -113
v-379z" />
    <glyph glyph-name="sweetfonts.com" unicode="&#xf8ff;" horiz-adv-x="2048" 
d="M702 868q0 134 94 228t228 94t228 -94t94 -228q0 -133 -94 -227t-228 -94t-228 94t-94 227zM1446 877l485 280q6 5 11.5 2t5.5 -10v-561q0 -7 -5.5 -10t-11.5 2l-485 280q-4 3 -4 8.5t4 8.5zM100 588v561q0 7 5.5 10t11.5 -2l485 -280q6 -3 6 -8.5t-6 -8.5l-485 -280
q-6 -5 -11.5 -2t-5.5 10zM1798 0v238h-117v41h283v-41h-117v-238h-49zM1350 0v279h239v-41h-190v-66h127v-41h-127v-90h203v-41h-252zM967 0v279h239v-41h-190v-66h127v-41h-127v-90h203v-41h-252zM549 0l-96 279h51l61 -203h4l70 203h31l67 -203h4l66 203h47l-100 -279h-33
l-68 199h-4l-67 -199h-33zM76 45l24 31q67 -43 125 -43q101 0 101 49q0 17 -14 26.5t-31 11.5t-45 3h-7q-67 2 -104 18t-37 58q0 34 31.5 59t91.5 25q74 0 141 -37l-24 -33q-52 31 -117 31q-38 0 -58 -12.5t-20 -30.5q0 -19 24 -25t72 -8q69 -2 105.5 -19t36.5 -65
q0 -43 -41.5 -66.5t-104.5 -23.5q-85 0 -149 51z" />
    <glyph glyph-name="one.alt" horiz-adv-x="665" 
d="M193 0v1163h280v-1163h-280z" />
    <glyph glyph-name="dollar.superior" horiz-adv-x="1077" 
d="M383 254l23 182q-193 37 -349 148l111 153q144 -92 276 -121l25 199q-62 6 -108 14.5t-97.5 27.5t-84 46t-54 72t-21.5 104q0 79 35 137.5t94.5 90.5t127.5 46.5t145 14.5h26l17 123h164l-19 -143q181 -37 289 -101l-111 -157q-85 50 -217 77l-20 -161q61 -5 110 -14.5
t100 -29.5t85 -49t56 -76.5t22 -109.5q0 -106 -58 -176.5t-151 -100.5t-217 -30h-17l-20 -166h-162zM782 702q0 47 -41.5 69.5t-134.5 31.5l-26 -201h10q192 0 192 100zM332 1096q0 -68 164 -80l20 168h-16q-168 0 -168 -88z" />
    <glyph glyph-name="cent.superior" horiz-adv-x="923" 
d="M307 254l41 195q-127 38 -207 135t-80 229q0 170 120.5 274.5t299.5 104.5h29l22 104h164l-28 -133q103 -31 186 -94l-139 -145q-48 33 -99 55l-77 -363q88 12 184 91l139 -136q-44 -46 -136 -92.5t-218 -50.5l-37 -174h-164zM305 813q0 -56 26 -100.5t70 -69.5l80 358
q-77 -6 -126.5 -56.5t-49.5 -131.5z" />
    <glyph glyph-name="Euro.superior" horiz-adv-x="1173" 
d="M72 940v121h155q54 136 181.5 220.5t293.5 84.5q106 0 209 -32t176 -87l-124 -153q-104 75 -240 75q-143 0 -223 -108h311v-121h-362q-5 -40 -5 -47q0 -29 2 -41h365v-121h-317q38 -54 98 -84.5t135 -30.5q68 0 137.5 27.5t120.5 71.5l127 -152q-179 -143 -403 -143
q-171 0 -300.5 85.5t-183.5 225.5h-153v121h127q-2 14 -2 43q0 31 2 45h-127z" />
    <glyph glyph-name="sterling.superior" horiz-adv-x="1058" 
d="M76 854v139h190v107q0 87 54 150t133 90.5t170 27.5q73 0 174.5 -27t191.5 -71l-102 -168q-65 32 -136 53t-118 21q-49 0 -87 -27.5t-38 -79.5v-76h307v-139h-307v-61q0 -72 -31 -108.5t-104 -49.5h614v-184h-911v184h59q74 0 102.5 32t28.5 126v61h-190z" />
    <glyph glyph-name="yen.superior" horiz-adv-x="1167" 
d="M74 940v121h227l-209 276h297l201 -282l201 282h280l-209 -276h232v-121h-324l-65 -88h389v-121h-392v-280h-241v280h-387v121h385l-68 88h-317z" />
    <glyph glyph-name="numbersign.superior" horiz-adv-x="1329" 
d="M874 1413h152l-45 -246h287v-174h-318l-41 -231h271v-174h-301l-52 -289h-153l51 289h-231l-52 -289h-151l51 289h-281v174h314l41 231h-266v174h296l46 246h151l-45 -246h231zM567 993l-41 -231h232l41 231h-232z" />
    <glyph glyph-name="percent.superior" horiz-adv-x="1583" 
d="M61 1143q0 114 90.5 195t219.5 81q128 0 220.5 -81t92.5 -195q0 -115 -92.5 -197t-220.5 -82q-129 0 -219.5 81.5t-90.5 197.5zM1163 1395l-549 -944h-196l551 944h194zM264 1143q0 -44 32 -77.5t75 -33.5q45 0 77.5 33t32.5 78q0 46 -32 77t-78 31q-43 0 -75 -31.5
t-32 -76.5zM897 705q0 113 90 193.5t219 80.5t222.5 -81t93.5 -193q0 -115 -93.5 -197t-222.5 -82t-219 81.5t-90 197.5zM1100 705q0 -46 31.5 -78.5t74.5 -32.5q46 0 78.5 32.5t32.5 78.5q0 44 -32.5 76t-78.5 32q-43 0 -74.5 -32t-31.5 -76z" />
    <glyph glyph-name="period.superior" horiz-adv-x="481" 
d="M86 561q0 56 44.5 95.5t109.5 39.5q64 0 109.5 -39.5t45.5 -95.5q0 -57 -45 -96t-110 -39q-66 0 -110 39t-44 96z" />
    <glyph glyph-name="comma.superior" horiz-adv-x="503" 
d="M121 166l-60 125q63 17 124.5 62.5t62.5 99.5q-20 -4 -35 -4q-54 0 -90.5 33.5t-36.5 84.5q0 54 45 91.5t109 37.5q74 0 128 -55.5t54 -142.5q0 -70 -28 -128t-76 -97.5t-95.5 -64t-101.5 -42.5z" />
    <glyph glyph-name="hyphen.superior" horiz-adv-x="616" 
d="M96 719v207h424v-207h-424z" />
    <glyph glyph-name="zero.tos" horiz-adv-x="1390" 
d="M82 582q0 127 49 242.5t131.5 198t195.5 131t236 48.5t236.5 -48.5t196.5 -131t132.5 -198t49.5 -242.5q0 -169 -83.5 -312t-225 -226t-306.5 -83t-305.5 83t-223.5 226t-83 312zM360 582q0 -155 98.5 -268t235.5 -113q136 0 236 113.5t100 267.5q0 156 -99.5 267.5
t-236.5 111.5q-138 0 -236 -111t-98 -268z" />
    <glyph glyph-name="one.tos" horiz-adv-x="1390" 
d="M233 0v227h418v672l-370 -133l-66 229l465 168h252v-936h303v-227h-1002z" />
    <glyph glyph-name="two.tos" horiz-adv-x="1390" 
d="M135 0v186q0 84 31 155t82.5 122.5t128 95t157 73t179.5 54.5q266 61 266 168q0 42 -37.5 69t-89 37.5t-115.5 10.5q-132 0 -231 -45t-215 -133l-156 184q76 55 126.5 86.5t126 68t160 53.5t181.5 17q81 0 156.5 -12t144.5 -39t119.5 -66.5t80.5 -98.5t30 -130
q0 -73 -35 -134.5t-76.5 -98.5t-124.5 -74t-126.5 -51t-136.5 -41q-13 -4 -20 -6q-160 -45 -240.5 -95t-80.5 -123v-12h815v-221h-1100z" />
    <glyph glyph-name="three.tos" horiz-adv-x="1390" 
d="M584 502v213h188q68 0 111 32t43 84q0 48 -34 81t-79.5 46t-95.5 13q-102 0 -207.5 -51.5t-196.5 -131.5l-159 173q282 241 567 241q64 0 129 -11t130 -37t115 -63.5t81.5 -95.5t31.5 -129q0 -68 -41.5 -125.5t-95.5 -89.5q42 -15 78 -36t70.5 -54t54.5 -82t20 -108
q0 -127 -83 -222t-221.5 -142.5t-311.5 -47.5q-362 0 -623 246l156 184q213 -199 467 -199q144 0 240 52.5t96 142.5q0 35 -19 59.5t-50.5 36t-62 16.5t-63.5 5h-235z" />
    <glyph glyph-name="four.tos" horiz-adv-x="1390" 
d="M1311 453v-211h-203v-242h-281v242h-782v168l811 753h252v-710h203zM436 461v-8h391v374h-16q-206 -202 -375 -366z" />
    <glyph glyph-name="five.tos" horiz-adv-x="1390" 
d="M1167 1163v-231h-725v-273q88 58 168 87.5t191 29.5q96 0 184 -23.5t160.5 -69t116 -120.5t43.5 -170q0 -90 -36 -164t-96 -123.5t-140.5 -83t-168 -48.5t-180.5 -15q-107 0 -205.5 17t-180.5 49t-127 54t-105 56l127 195q232 -140 491 -140q87 0 160 21t121.5 68
t48.5 112q0 81 -73.5 122.5t-180.5 41.5q-113 0 -208.5 -30t-197.5 -83l-164 117v604h977z" />
    <glyph glyph-name="six.tos" horiz-adv-x="1390" 
d="M1239 1098l-125 -195q-150 70 -328 70q-170 0 -292.5 -101.5t-131.5 -275.5q212 168 455 168q116 0 210 -32.5t152 -86t88.5 -119t30.5 -135.5q0 -184 -153.5 -307t-392.5 -123q-101 0 -195.5 24t-178 74t-146 120t-98.5 168.5t-36 213.5q0 147 56.5 269.5t152 203
t218.5 124.5t257 44q221 0 457 -104zM778 551q-180 0 -393 -121q40 -113 141 -176.5t226 -63.5q116 0 192 60.5t76 140.5q0 63 -60 111.5t-182 48.5z" />
    <glyph glyph-name="seven.tos" horiz-adv-x="1390" 
d="M106 922v241h1188v-221l-698 -942h-358l720 922h-852z" />
    <glyph glyph-name="eight.tos" horiz-adv-x="1390" 
d="M696 -43q-115 0 -222 26.5t-190.5 74t-133.5 121.5t-50 163q0 113 70 190.5t180 110.5q-186 64 -186 234q0 79 49.5 143t128.5 103t171.5 60t184.5 21q90 0 180.5 -20.5t170 -60t129 -105.5t49.5 -148q0 -173 -187 -227q110 -33 180 -110.5t70 -190.5q0 -89 -50.5 -163
t-134 -121.5t-189.5 -74t-220 -26.5zM696 186q120 0 208.5 47.5t88.5 126.5q0 53 -47.5 92.5t-113 56.5t-136.5 17t-137 -17t-114 -56.5t-48 -92.5q0 -79 90.5 -126.5t208.5 -47.5zM696 729q112 0 172 32t60 91q0 45 -37.5 78.5t-89 48t-105.5 14.5q-55 0 -106.5 -14.5
t-89 -48t-37.5 -78.5q0 -59 60 -91t173 -32z" />
    <glyph glyph-name="nine.tos" horiz-adv-x="1390" 
d="M147 66l123 192q153 -68 328 -68q111 0 204.5 43t155 129.5t68.5 202.5q-216 -168 -457 -168q-116 0 -210.5 32.5t-153.5 86.5t-90 120t-31 136q0 182 155 306t394 124q102 0 197.5 -24.5t179 -74t146 -120t98.5 -168.5t36 -213q0 -147 -57 -269.5t-152.5 -203
t-219 -124.5t-257.5 -44q-224 0 -457 105zM608 610q186 0 396 121q-40 114 -141.5 177t-227.5 63q-116 0 -194.5 -60.5t-78.5 -138.5q0 -64 61 -113t185 -49z" />
    <glyph glyph-name="dollar.tos" horiz-adv-x="1390" 
d="M500 -264l26 246q-248 47 -452 208l155 185q165 -130 338 -174l35 291q-55 6 -98.5 12.5t-94 18.5t-88 28.5t-74.5 42t-60 58t-37.5 77.5t-14.5 100q0 102 44.5 177.5t120 116.5t160.5 60t181 19h35l20 168h193l-25 -190q222 -44 377 -140l-158 -188q-100 69 -256 106
l-28 -237q53 -5 96.5 -11.5t94.5 -19t90.5 -30t78 -45t63.5 -62.5t40.5 -84.5t15.5 -108.5q0 -104 -42 -182t-117.5 -124.5t-171 -69.5t-210.5 -23h-20l-25 -225h-192zM1001 332q0 69 -57 100.5t-174 44.5l-35 -297h6q120 0 190 40.5t70 111.5zM416 848q0 -29 18 -50.5
t51 -34t67 -19.5t79 -11l28 248h-22q-104 0 -162.5 -34.5t-58.5 -98.5z" />
    <glyph glyph-name="cent.tos" horiz-adv-x="1390" 
d="M471 -264l61 258q-186 47 -302.5 174t-116.5 301q0 146 81 259.5t217.5 174t303.5 60.5q33 0 51 -2l35 147h194l-43 -174q163 -42 291 -131l-168 -174q-79 54 -184 84l-127 -518q172 6 323 122l168 -161q-23 -23 -64 -50.5t-107 -60.5t-160 -54.5t-195 -21.5h-10
l-55 -233h-193zM403 469q0 -84 52 -149.5t139 -98.5l125 514q-138 -5 -227 -76.5t-89 -189.5z" />
    <glyph glyph-name="Euro.tos" horiz-adv-x="1390" 
d="M82 647v150h182q63 179 215.5 291t351.5 112q123 0 245.5 -44t209.5 -118l-147 -184q-59 52 -135.5 81.5t-145.5 29.5q-90 0 -162 -45t-118 -123h378v-150h-430q-4 -46 -4 -67q0 -40 2 -58h432v-147h-385q46 -82 122.5 -130t170.5 -48q80 0 161.5 38t139.5 99l148 -182
q-205 -191 -475 -191q-207 0 -361.5 114.5t-216.5 299.5h-178v147h149q-2 18 -2 60t2 65h-149z" />
    <glyph glyph-name="sterling.tos" horiz-adv-x="1390" 
d="M102 537v168h252v147q0 87 39.5 156t105 110.5t145.5 62.5t167 21q95 0 225.5 -37t243.5 -96l-119 -197q-88 44 -181.5 71.5t-156.5 27.5q-73 0 -127.5 -40t-54.5 -114v-112h416v-168h-416v-103q0 -99 -38.5 -147.5t-131.5 -65.5h809v-221h-1178v221h76q102 0 139 42
t37 171v103h-252z" />
    <glyph glyph-name="yen.tos" horiz-adv-x="1390" 
d="M94 647v150h271l-250 366h350l237 -391l234 391h334l-252 -366h278v-150h-381l-79 -119v-6h460v-147h-460v-375h-287v375h-455v147h455v6l-82 119h-373z" />
    <glyph glyph-name="florin.tos" horiz-adv-x="1390" 
d="M319 705h234l55 243q15 68 55.5 119.5t94.5 79.5t110.5 41.5t114.5 13.5q151 0 205 -28l-62 -199q-65 14 -141 14q-43 0 -74 -17t-37 -44l-51 -223h252v-168h-289l-118 -535q-20 -91 -70 -160t-116.5 -108t-136.5 -57.5t-142 -18.5l-21 197q42 10 69 18.5t61.5 26
t56 46.5t30.5 68l117 523h-197v168z" />
    <glyph glyph-name="colonmonetary.tos" horiz-adv-x="1390" 
d="M973 1370h135l-49 -240q131 -51 237 -143l-172 -168q-40 36 -112 78l-140 -684q144 47 269 176l174 -168q-221 -213 -492 -252l-47 -233h-135l45 229q-59 2 -143 21l-51 -250h-136l60 295q-156 76 -244 223t-88 328q0 159 69.5 294.5t200 222t297.5 99.5l35 172h137
l-35 -174q68 -6 144 -25zM590 223q65 -27 143 -30l154 755q-69 20 -146 23zM375 580q0 -159 96 -269l129 633q-103 -41 -164 -140.5t-61 -223.5z" />
    <glyph glyph-name="franc.tos" horiz-adv-x="1390" 
d="M98 195v159h199v809h1006v-225h-721v-188h446v-224h-446v-172h325v-159h-325v-195h-285v195h-199z" />
    <glyph glyph-name="lira.tos" horiz-adv-x="1390" 
d="M104 647v150h246v55q0 87 40 156t107 110.5t148 62.5t170 21q96 0 228.5 -36.5t248.5 -96.5l-123 -197q-87 43 -183 71t-161 28q-75 0 -131.5 -40t-56.5 -114v-20h420v-150h-420v-125h420v-147h-424q-10 -69 -50 -104.5t-120 -49.5h829v-221h-1188v221h68q92 0 130.5 31
t45.5 123h-244v147h246v125h-246z" />
    <glyph glyph-name="peso.tos" horiz-adv-x="1390" 
d="M51 653v148h156v362h502q260 0 397 -143q89 -93 113 -219h145v-148h-143q-20 -141 -127 -243q-69 -67 -160.5 -100.5t-224.5 -33.5h-215v-276h-287v653h-156zM874 557q46 46 58 96h-438v-149h223q57 0 91.5 12t65.5 41zM719 938h-225v-137h436q-12 37 -45 76
q-30 33 -68.5 47t-97.5 14z" />
    <glyph glyph-name="Rupee.tos" horiz-adv-x="1390" 
d="M57 653v148h817q-14 37 -45 76q-30 33 -69 47t-98 14h-605v225h1289v-149h-320q107 -81 135 -213h185v-148h-181q-20 -137 -129 -243q-65 -52 -145 -78t-203 -29l-145 8l544 -311h-456l-574 354v150h602q56 0 92.5 11.5t67.5 41.5q46 46 58 96h-820z" />
    <glyph glyph-name="section.tos" horiz-adv-x="1390" 
d="M1186 203q-44 -44 -88 -68q11 -20 20 -43q19 -46 19 -102q0 -68 -27.5 -124t-72 -92.5t-104 -61.5t-121 -35.5t-124.5 -10.5q-104 0 -217.5 28t-204.5 77l113 182q167 -78 313 -78q27 0 52.5 4t51.5 13.5t42 28.5t16 46t-16 43t-53.5 27.5t-71 16t-105.5 12.5
q-300 37 -428 163q-88 85 -88 201q0 128 103 234q37 39 92 71l-19 35q-20 55 -20 111q0 85 41 149.5t108.5 101t144 54.5t158.5 18q105 0 221 -27t209 -75l-112 -184q-172 77 -322 77q-164 0 -164 -90q0 -27 17 -41q7 -7 17 -12.5t25 -10t26.5 -7.5t35 -6.5t36 -5.5
t43.5 -5.5t44 -5.5q308 -38 436 -172q80 -83 80 -197q0 -141 -106 -239zM737 575q-5 1 -61.5 7t-79.5 9.5t-66 12.5t-75 21q-20 -17 -37 -41q-49 -55 -49 -119q0 -49 34 -88q56 -59 246 -78q193 -19 283 -51q19 16 35 35q51 57 51 125q0 51 -35 86q-60 62 -246 81z" />
    <glyph glyph-name="numbersign.tos" horiz-adv-x="1390" 
d="M909 1264h170l-49 -334h301v-205h-330l-47 -326h283v-209h-313l-56 -389h-170l56 389h-236l-55 -389h-170l55 389h-293v209h324l47 326h-279v205h308l49 334h172l-49 -334h233zM596 725l-47 -326h235l47 326h-235z" />
    <glyph glyph-name="percent.tos" horiz-adv-x="1390" 
d="M31 909q0 149 81 255t199 106q115 0 198 -106.5t83 -254.5q0 -150 -82.5 -257t-198.5 -107q-118 0 -199 106t-81 258zM1038 1239l-499 -1239h-191l500 1239h190zM223 909q0 -70 26 -120t62 -50q37 0 62.5 49.5t25.5 120.5q0 69 -25.5 117.5t-62.5 48.5q-36 0 -62 -49
t-26 -117zM793 332q0 149 81 255.5t197 106.5q119 0 207 -107.5t88 -254.5q0 -150 -88 -256.5t-207 -106.5q-117 0 -197.5 106t-80.5 257zM985 332q0 -69 25.5 -118.5t60.5 -49.5q37 0 63.5 49.5t26.5 118.5t-26.5 118.5t-63.5 49.5q-35 0 -60.5 -49.5t-25.5 -118.5z" />
    <glyph glyph-name="zero.pl" horiz-adv-x="1640" 
d="M98 629q0 137 57.5 261t155 213t230 141t276.5 52q195 0 361.5 -88t265 -242t98.5 -337q0 -136 -58 -260.5t-156 -214t-231.5 -142.5t-279.5 -53q-193 0 -358.5 89.5t-263 244t-97.5 336.5zM389 629q0 -172 125.5 -297t302.5 -125q117 0 217 58t158.5 155t58.5 209
q0 172 -128 295t-306 123t-303 -123t-125 -295z" />
    <glyph glyph-name="one.pl" horiz-adv-x="911" 
d="M92 856l-61 231l403 168h262v-1255h-290v985z" />
    <glyph glyph-name="one.pl.alt" horiz-adv-x="720" 
d="M215 0v1255h291v-1255h-291z" />
    <glyph glyph-name="two.pl" horiz-adv-x="1376" 
d="M281 866l-160 191q80 59 129.5 91.5t127.5 72t162.5 57.5t182.5 18q81 0 157 -13t146 -42t121.5 -71t82 -105t30.5 -139q0 -56 -17 -105.5t-42.5 -86t-69 -69.5t-81 -54.5t-94.5 -44.5t-95 -35.5t-96 -30.5l-9 -3t-8 -2.5t-9 -2.5q-163 -48 -244 -105t-81 -145v-13h821
v-229h-1112v195q0 112 45.5 202.5t130 154t183 106.5t225.5 75q120 36 168 62q94 53 94 129q0 47 -37 78.5t-87.5 43t-113.5 11.5q-132 0 -234 -48.5t-216 -142.5z" />
    <glyph glyph-name="three.pl" horiz-adv-x="1521" 
d="M645 549v219h234q66 0 111.5 36t45.5 95q0 55 -41 92.5t-95 51.5t-114 14q-116 0 -234.5 -55t-221.5 -140l-164 176q309 258 625 258q70 0 141.5 -11.5t143.5 -39.5t127 -68t89.5 -102.5t34.5 -138.5q0 -77 -43.5 -139.5t-101.5 -94.5q44 -16 83 -38.5t76.5 -58.5
t59.5 -89t22 -117q0 -137 -91.5 -238.5t-244 -151.5t-344.5 -50q-205 0 -373.5 63.5t-314.5 198.5l162 189q237 -213 526 -213q110 0 197.5 24.5t140 74t52.5 116.5q0 41 -21.5 69.5t-57 42.5t-68.5 19.5t-68 5.5h-273z" />
    <glyph glyph-name="four.pl" horiz-adv-x="1599" 
d="M1518 483v-219h-240v-264h-289v264h-934v176l961 815h262v-772h240zM465 492v-9h524v426h-22z" />
    <glyph glyph-name="five.pl" horiz-adv-x="1490" 
d="M1262 1255v-239h-797v-293q90 63 179.5 94t213.5 31q104 0 200 -25.5t175 -74t126.5 -129.5t47.5 -183q0 -100 -39 -181.5t-103.5 -135.5t-152 -91t-182 -53t-195.5 -16q-118 0 -226.5 20.5t-196 57.5t-141.5 66t-112 67l142 199q250 -172 536 -172q99 0 179.5 23.5
t135 79t54.5 134.5q0 92 -84 139.5t-205 47.5q-125 0 -229 -35.5t-213 -98.5l-172 121v647h1059z" />
    <glyph glyph-name="six.pl" horiz-adv-x="1523" 
d="M1370 1167l-141 -196q-169 88 -367 88q-94 0 -179.5 -28t-152 -80t-108 -132t-45.5 -178q245 184 516 184q129 0 234 -35t169.5 -93t99 -129.5t34.5 -147.5q0 -194 -172 -327.5t-435 -133.5q-141 0 -269 42t-229.5 121t-162 204.5t-60.5 279.5q0 158 62.5 290
t167.5 218.5t240.5 134t283.5 47.5q86 0 167 -12.5t150 -36t109 -40t88 -40.5zM852 606q-217 0 -453 -137q45 -129 161 -200.5t263 -71.5q136 0 227 68t91 157q0 72 -72 128t-217 56z" />
    <glyph glyph-name="seven.pl" horiz-adv-x="1355" 
d="M78 1006v249h1206v-227l-706 -1028h-367l725 1006h-858z" />
    <glyph glyph-name="eight.pl" horiz-adv-x="1529" 
d="M764 -45q-128 0 -246.5 28.5t-212 80t-149.5 131t-56 174.5q0 122 83.5 206.5t213.5 120.5q-221 63 -221 250q0 85 55 155t142.5 112t189 64.5t203.5 22.5q79 0 160 -13.5t158.5 -42.5t137 -70.5t96 -102t36.5 -131.5q0 -189 -221 -244q130 -36 213.5 -120.5t83.5 -206.5
q0 -95 -56.5 -174.5t-150.5 -131t-213 -80t-246 -28.5zM764 193q91 0 170.5 22t132.5 67t53 105q0 61 -57 105.5t-135.5 63.5t-163.5 19t-163 -19t-134.5 -63.5t-56.5 -105.5q0 -60 53 -105t132 -67t169 -22zM764 782q135 0 207.5 37t72.5 105q0 50 -45 87t-107 53.5
t-128 16.5t-128 -16.5t-106.5 -53.5t-44.5 -87q0 -68 73 -105t206 -37z" />
    <glyph glyph-name="nine.pl" horiz-adv-x="1517" 
d="M150 86l141 199q160 -88 366 -88q94 0 179 28t151.5 79.5t108.5 131.5t47 178q-240 -184 -516 -184q-129 0 -234 35t-169.5 93.5t-99 129t-34.5 146.5q0 128 76.5 233.5t215.5 167t312 61.5q141 0 269 -42t229.5 -121t162 -204.5t60.5 -279.5q0 -158 -62.5 -290
t-167 -218.5t-240 -134t-283.5 -47.5q-86 0 -167 12.5t-150.5 36t-107.5 39t-87 39.5zM666 649q213 0 452 135q-44 130 -160 201.5t-262 71.5q-136 0 -226.5 -67t-90.5 -156q0 -73 71.5 -129t215.5 -56z" />
    <glyph glyph-name="dollar.pl" horiz-adv-x="1423" 
d="M528 -287l29 264q-271 45 -506 230l158 190q192 -151 383 -194l33 334q-62 6 -110 13t-103 20t-95.5 30.5t-80 45t-64.5 62t-40 82.5t-15 107q0 88 32.5 158t85 114.5t124.5 73.5t146.5 41t156.5 12q5 0 15.5 -1t16.5 -1l19 187h194l-22 -205q125 -23 235 -66t185 -90
l-160 -192q-47 34 -126 67.5t-171 53.5l-29 -273q59 -6 106.5 -12.5t104.5 -20.5t100 -32.5t86 -48t70.5 -67t44.5 -91t17 -117.5q0 -111 -46 -195t-127 -134t-184.5 -74.5t-226.5 -24.5h-19l-22 -246h-195zM1067 358q0 56 -35 90.5t-90.5 49.5t-146.5 24l-33 -338h8
q135 0 216 45t81 129zM399 918q0 -113 250 -130l29 281h-23q-120 0 -188 -38.5t-68 -112.5z" />
    <glyph glyph-name="cent.pl" horiz-adv-x="1220" 
d="M395 -287l60 283q-174 51 -283 186.5t-109 321.5q0 156 77 277.5t205.5 186t285.5 64.5q29 0 43 -2l37 164h194l-43 -195q147 -45 266 -137l-167 -180q-75 58 -156 88l-121 -571q136 8 289 135l168 -168q-23 -25 -61.5 -53.5t-101 -64t-151.5 -58.5t-184 -23l-53 -254
h-195zM356 504q0 -91 43 -160.5t115 -107.5l123 565q-122 -5 -201.5 -86t-79.5 -211z" />
    <glyph glyph-name="Euro.pl" horiz-adv-x="1607" 
d="M94 702v154h215q72 195 248 316.5t406 121.5q148 0 290.5 -47.5t245.5 -128.5l-153 -190q-74 58 -171 90.5t-192 32.5q-113 0 -206 -52.5t-148 -142.5h489v-154h-549q-6 -38 -6 -75q0 -26 4 -66h551v-153h-495q55 -94 151 -149.5t215 -55.5q104 0 206 41t177 110
l156 -188q-245 -207 -561 -207q-234 0 -412.5 124.5t-249.5 324.5h-211v153h176q-2 23 -2 68q0 48 4 73h-178z" />
    <glyph glyph-name="sterling.pl" horiz-adv-x="1495" 
d="M117 582v176h274v162q0 94 42 168t112.5 118t155.5 67t178 23q101 0 240 -39.5t261 -103.5l-125 -205q-94 48 -195 78.5t-171 30.5q-82 0 -144.5 -44.5t-62.5 -127.5v-127h459v-176h-459v-121q0 -108 -41.5 -161.5t-140.5 -72.5h878v-227h-1261v227h82q111 0 151.5 46.5
t40.5 187.5v121h-274z" />
    <glyph glyph-name="yen.pl" horiz-adv-x="1640" 
d="M125 702v154h334l-301 399h356l313 -432l312 432h338l-301 -399h340v-154h-455l-98 -131v-10h553v-153h-553v-408h-289v408h-549v153h549v10l-101 131h-448z" />
    <glyph glyph-name="florin.pl" horiz-adv-x="919" 
d="M82 582v176h240l57 262q13 60 43 108.5t68.5 79t86.5 51t94.5 29t94.5 8.5q156 0 209 -32l-62 -205q-83 18 -145 18q-48 0 -81 -21t-40 -57l-51 -241h260v-176h-299l-123 -580q-21 -98 -72 -172.5t-118.5 -116.5t-139 -62t-145.5 -20l-20 205q40 8 70.5 18.5t64.5 30
t57 52t33 77.5l121 568h-203z" />
    <glyph glyph-name="colonmonetary.pl" horiz-adv-x="1482" 
d="M1053 1481h143l-55 -256q153 -59 270 -160l-176 -172q-63 52 -145 92l-164 -772q176 46 331 197l177 -170q-112 -107 -255 -181t-305 -92l-53 -254h-143l53 250q-91 6 -174 27l-57 -277h-144l70 326q-172 85 -270.5 241.5t-98.5 346.5q0 171 78.5 316.5t223.5 239
t331 109.5l41 189h143l-40 -187q83 -6 174 -28zM608 233q73 -33 172 -36l178 837q-89 25 -174 25zM352 627q0 -189 131 -314l154 721q-130 -42 -207.5 -154.5t-77.5 -252.5z" />
    <glyph glyph-name="franc.pl" horiz-adv-x="1419" 
d="M78 219v164h213v872h1071v-233h-782v-215h483v-232h-483v-192h352v-164h-352v-219h-289v219h-213z" />
    <glyph glyph-name="lira.pl" horiz-adv-x="1507" 
d="M131 702v154h275v64q0 94 42 168t112 118t155 67t178 23q101 0 240.5 -39.5t261.5 -103.5l-125 -205q-93 48 -195 78.5t-172 30.5q-83 0 -145 -44.5t-62 -127.5v-29h459v-154h-459v-141h459v-153h-461q-9 -81 -51.5 -123.5t-128.5 -57.5h879v-227h-1262v227h82
q100 0 142 37t48 144h-272v153h275v141h-275z" />
    <glyph glyph-name="peso.pl" horiz-adv-x="1714" 
d="M86 713v153h180v389h668q266 0 405 -147q95 -106 115 -242h193v-153h-189q-20 -157 -133 -267q-69 -68 -161.5 -101.5t-229.5 -33.5h-379v-311h-289v713h-180zM1108 604q43 46 57 109h-610v-168h377q114 0 176 59zM934 1022h-379v-156h608q-10 46 -49 92q-61 64 -180 64z
" />
    <glyph glyph-name="peseta.pl" horiz-adv-x="3258" 
d="M2042 205l20 -205q-27 -20 -94 -29.5t-121 -9.5q-60 0 -113.5 15.5t-100 48.5t-74 93t-27.5 140v539h-127q-18 -121 -109 -209q-131 -131 -385 -131h-428v-457h-288v1255h716q258 0 392 -137q55 -62 79 -119h150v283h274v-283h246v-202h-246v-518q0 -89 109 -89
q35 0 127 15zM3111 930l-94 -195q-88 40 -187 65t-176 25q-76 0 -120 -25t-44 -71q0 -20 8 -35.5t25 -25.5t33 -16t42.5 -9.5t43 -5t45.5 -2.5q49 -2 83.5 -5t88.5 -11.5t92 -21t81.5 -36.5t70.5 -56t45 -80t18 -108q0 -115 -63.5 -196t-168.5 -118.5t-241 -37.5
q-268 0 -508 152l94 194q224 -135 418 -135q94 0 145.5 31.5t51.5 85.5q0 27 -14.5 47t-33.5 30.5t-52 18t-54.5 10t-56.5 4.5q-86 5 -133 9.5t-120 22.5t-111.5 47t-68.5 84.5t-30 133.5q0 74 25 132.5t66 96t97 62t114.5 35t121.5 10.5q122 0 256 -34t211 -72zM911 1016
h-428v-320h428q110 0 162 49q49 46 49 109q0 64 -45 109q-31 31 -70 42t-96 11z" />
    <glyph glyph-name="rupiah.pl" horiz-adv-x="2760" 
d="M485 0h-288v1255h737q239 0 373 -137q106 -106 106 -256q0 -116 -70 -208.5t-190 -143.5l301 -510h-328l-262 469h-379v-469zM934 1016h-449v-309h469q67 0 118.5 46.5t51.5 108.5q0 57 -41 101q-50 53 -149 53zM1614 999h256q10 -65 10 -125q135 158 318 158
q97 0 184 -38t153 -105t105 -168t39 -219q0 -116 -39 -216t-104.5 -168.5t-153.5 -107.5t-184 -39q-165 0 -289 129v-524h-273v1141q0 170 -22 282zM2150 201q100 0 167 83.5t67 215.5q0 136 -67.5 218.5t-168.5 82.5q-76 0 -137.5 -35.5t-101.5 -77.5v-379
q118 -108 241 -108z" />
    <glyph glyph-name="Rupee.pl" horiz-adv-x="1662" 
d="M205 713v153h846q-10 45 -50 92q-61 64 -180 64h-616v233h1329v-153h-334q114 -97 141 -236h193v-153h-188q-20 -156 -134 -267q-128 -106 -352 -106l-141 8l581 -348h-452l-643 391v154h614q114 0 176 59q44 47 58 109h-848z" />
    <glyph glyph-name="section.pl" horiz-adv-x="1394" 
d="M1337 475q0 -149 -112 -258q-45 -45 -105 -76q15 -21 27 -45q20 -55 20 -110q0 -73 -29 -132.5t-76.5 -98t-111 -64.5t-128.5 -37.5t-132 -11.5q-114 0 -234.5 29.5t-215.5 82.5l114 189q179 -86 338 -86q45 0 84 7.5t72 32.5t33 64q0 30 -19 49q-14 14 -35.5 23.5
t-64.5 17.5t-65 10.5t-89 10.5q-327 42 -463 176q-94 91 -94 219q0 141 109 250q44 44 108 80q-11 13 -22 39q-25 55 -25 120q0 90 43.5 158.5t115 107.5t152.5 58.5t168 19.5q115 0 238.5 -30.5t222.5 -83.5l-114 -189q-179 86 -351 86q-31 0 -60 -4t-59.5 -14.5t-48.5 -32
t-18 -51.5q0 -31 18 -49q9 -8 20 -14t28 -11.5t30 -8.5t38.5 -7t40 -6t47.5 -6.5t48 -6.5q56 -6 111.5 -17.5t123.5 -31.5t129.5 -55t104.5 -80q88 -88 88 -213zM743 631q-6 1 -54 6t-67 7.5t-57.5 8.5t-68.5 13.5t-58 17.5q-32 -22 -51 -47q-55 -61 -55 -135
q-3 -60 41 -101q65 -65 274 -88q7 -1 38 -4.5t44.5 -5t42.5 -5t47.5 -7t43.5 -8.5t47 -11.5t42 -13.5q33 24 45 41q62 65 62 139q0 60 -41 101q-67 69 -275 92z" />
    <glyph glyph-name="numbersign.pl" horiz-adv-x="1798" 
d="M1200 1364h186l-63 -365h408v-213h-447l-63 -362h389v-211h-426l-74 -428h-186l73 428h-346l-73 -428h-187l74 428h-402v211h439l63 362h-381v213h420l64 365h186l-63 -365h346zM752 786l-64 -362h346l64 362h-346z" />
    <glyph glyph-name="percent.pl" horiz-adv-x="2129" 
d="M1329 1337h234l-760 -1337h-236zM61 981q0 160 123.5 274.5t300.5 114.5q175 0 302.5 -115.5t127.5 -273.5q0 -162 -127 -277.5t-303 -115.5q-178 0 -301 115t-123 278zM307 981q0 -75 52.5 -129.5t125.5 -54.5q76 0 130.5 54.5t54.5 129.5t-54.5 128.5t-130.5 53.5
q-73 0 -125.5 -53.5t-52.5 -128.5zM1214 358q0 160 123.5 275t300.5 115q175 0 302.5 -116t127.5 -274q0 -161 -127.5 -276t-302.5 -115q-178 0 -301 114.5t-123 276.5zM1460 358q0 -75 52.5 -129.5t125.5 -54.5q75 0 130 54.5t55 129.5t-55 129t-130 54q-73 0 -125.5 -54
t-52.5 -129z" />
    <glyph glyph-name="perthousand.pl" horiz-adv-x="3059" 
d="M1329 1337h234l-760 -1337h-236zM61 981q0 160 123.5 274.5t300.5 114.5q175 0 302.5 -115.5t127.5 -273.5q0 -162 -127 -277.5t-303 -115.5q-178 0 -301 115t-123 278zM307 981q0 -75 52.5 -129.5t125.5 -54.5q76 0 130.5 54.5t54.5 129.5t-54.5 128.5t-130.5 53.5
q-73 0 -125.5 -53.5t-52.5 -128.5zM1214 358q0 160 123.5 275t300.5 115q175 0 302.5 -116t127.5 -274q0 -161 -127.5 -276t-302.5 -115q-178 0 -301 114.5t-123 276.5zM1460 358q0 -75 52.5 -129.5t125.5 -54.5q75 0 130 54.5t55 129.5t-55 129t-130 54q-73 0 -125.5 -54
t-52.5 -129zM2152 358q0 159 124 274.5t300 115.5q116 0 216 -53t158.5 -143t58.5 -194q0 -161 -128 -276t-305 -115t-300.5 114.5t-123.5 276.5zM2398 358q0 -75 52.5 -129.5t125.5 -54.5q76 0 131.5 54.5t55.5 129.5t-55 129t-132 54q-73 0 -125.5 -54t-52.5 -129z" />
    <glyph glyph-name="zero.tl" horiz-adv-x="1538" 
d="M88 629q0 137 54.5 261t146 213t217 141t262.5 52t262.5 -52t218 -141t147 -213t54.5 -261q0 -182 -92.5 -336.5t-249.5 -244t-340 -89.5t-339.5 89.5t-248.5 244t-92 336.5zM377 629q0 -171 114.5 -296.5t276.5 -125.5q159 0 276 125.5t117 296.5t-116.5 294.5
t-276.5 123.5q-162 0 -276.5 -123t-114.5 -295z" />
    <glyph glyph-name="one.tl" horiz-adv-x="1538" 
d="M256 0v229h463v756l-438 -141l-64 231l528 180h265v-1026h368v-229h-1122z" />
    <glyph glyph-name="two.tl" horiz-adv-x="1538" 
d="M311 866l-161 191q84 58 139 91.5t139.5 72.5t177 57t199.5 18q114 0 216.5 -21.5t187.5 -64.5t135.5 -116.5t50.5 -167.5q0 -56 -18 -104.5t-48.5 -85.5t-74.5 -69t-90.5 -55t-103 -44t-105.5 -35.5t-104 -30.5q-24 -7 -36 -10q-187 -50 -283 -106.5t-96 -143.5v-13h934
v-229h-1227v195q0 91 34.5 168t92.5 133t142.5 102.5t174 77.5t197.5 57q139 35 191 56q131 55 131 135q0 47 -45.5 78.5t-108 43t-139.5 11.5q-149 0 -263.5 -49t-238.5 -142z" />
    <glyph glyph-name="three.tl" horiz-adv-x="1538" 
d="M651 549v219h238q66 0 112 36t46 95q0 55 -41 92.5t-95.5 51.5t-115.5 14q-119 0 -238.5 -55t-222.5 -140l-164 176q309 258 629 258q71 0 142.5 -11.5t143.5 -39.5t127.5 -68t90 -102.5t34.5 -138.5q0 -77 -43 -140t-102 -94q45 -16 84 -38.5t78 -58.5t61.5 -89
t22.5 -117q0 -137 -93 -238.5t-247 -151.5t-348 -50q-206 0 -375.5 63.5t-317.5 198.5l162 189q114 -101 242.5 -157t288.5 -56q112 0 201 24.5t142.5 74t53.5 116.5q0 41 -22 69.5t-58 42.5t-70 19.5t-69 5.5h-277z" />
    <glyph glyph-name="four.tl" horiz-adv-x="1538" 
d="M1458 483v-219h-227v-264h-291v264h-889v176l918 815h262v-772h227zM457 492v-9h483v426h-20z" />
    <glyph glyph-name="five.tl" horiz-adv-x="1538" 
d="M1298 1255v-239h-825v-293q95 63 188 94t222 31q108 0 206.5 -25t180 -74t130 -130t48.5 -183q0 -100 -39.5 -181.5t-106 -135.5t-156 -91t-186 -53t-200.5 -16q-367 0 -694 211l143 199q43 -29 92.5 -55.5t119.5 -54.5t158.5 -45t180.5 -17q104 0 189.5 23.5t142.5 79
t57 134.5q0 92 -89 139.5t-218 47.5t-236.5 -35.5t-222.5 -98.5l-172 121v647h1087z" />
    <glyph glyph-name="six.tl" horiz-adv-x="1538" 
d="M1380 1167l-141 -196q-169 88 -371 88q-127 0 -234.5 -47.5t-178 -145t-76.5 -227.5q242 186 520 186q131 0 236.5 -35t170.5 -93t99.5 -129.5t34.5 -147.5q0 -194 -172.5 -327.5t-436.5 -133.5q-112 0 -217.5 26t-198 79.5t-161 129t-108.5 182t-40 230.5q0 158 63 290
t168.5 218.5t241.5 134t285 47.5q86 0 168 -12.5t151 -36t109 -40t88 -40.5zM860 606q-216 0 -459 -139q46 -128 163.5 -199t264.5 -71q138 0 230 68t92 157q0 72 -72.5 128t-218.5 56z" />
    <glyph glyph-name="seven.tl" horiz-adv-x="1538" 
d="M98 1006v249h1344v-227l-805 -1028h-371l828 1006h-996z" />
    <glyph glyph-name="eight.tl" horiz-adv-x="1538" 
d="M768 -45q-129 0 -248 28.5t-213 80t-150.5 131t-56.5 174.5q0 122 85 206.5t216 120.5q-107 30 -166 93t-59 157q0 85 55.5 155t144 112t190.5 64.5t204 22.5q80 0 161 -13.5t158.5 -42.5t137.5 -70.5t96.5 -102t36.5 -131.5q0 -190 -223 -244q131 -36 216 -120.5
t85 -206.5q0 -95 -57 -174.5t-151.5 -131t-214 -80t-247.5 -28.5zM768 193q92 0 172.5 22t134 67t53.5 105q0 61 -57.5 105.5t-137 63.5t-165.5 19t-165 -19t-136 -63.5t-57 -105.5q0 -60 53.5 -105t133.5 -67t171 -22zM768 782q136 0 209.5 37t73.5 105q0 50 -45 87
t-108 53.5t-130 16.5q-66 0 -129 -16.5t-108.5 -53.5t-45.5 -87q0 -68 74 -105t209 -37z" />
    <glyph glyph-name="nine.tl" horiz-adv-x="1538" 
d="M152 86l143 199q163 -88 371 -88q198 0 340 113t151 306q-246 -186 -522 -186q-131 0 -237 35t-171 93.5t-100 129t-35 146.5q0 128 77.5 233.5t217.5 167t315 61.5q113 0 219 -26t199 -79.5t162.5 -129t109.5 -182t40 -230.5q0 -127 -41 -238t-113 -193t-168 -141
t-208.5 -88.5t-231.5 -29.5q-112 0 -226.5 25.5t-167.5 47t-124 54.5zM674 649q216 0 459 135q-45 130 -162 201.5t-266 71.5q-139 0 -231.5 -67t-92.5 -156q0 -73 73 -129t220 -56z" />
    <glyph glyph-name="dollar.tl" horiz-adv-x="1538" 
d="M586 -287l24 262q-289 44 -549 232l160 190q206 -154 424 -196l31 338q-65 6 -113.5 12.5t-108.5 19.5t-103 30t-86.5 44t-70.5 61.5t-44 83.5t-17 109q0 88 34.5 157.5t91 113.5t134 73t157.5 41t167 12h18l19 185h196l-18 -203q137 -23 259 -67t200 -91l-160 -192
q-131 84 -334 123l-27 -275q78 -7 140 -17t131 -28.5t119.5 -47.5t93 -69.5t64.5 -99t22 -131.5q0 -109 -49 -192t-136 -132.5t-197.5 -74.5t-242.5 -25h-10l-23 -246h-196zM1159 362q0 78 -75 111.5t-236 48.5l-31 -338h8q150 0 242 45t92 133zM416 922q0 -35 21 -60
t62.5 -39.5t87 -22t111.5 -12.5l25 281h-12q-135 0 -215 -38.5t-80 -108.5z" />
    <glyph glyph-name="cent.tl" horiz-adv-x="1538" 
d="M502 -287l73 283q-207 51 -336.5 186.5t-129.5 321.5q0 156 91.5 277.5t245.5 186t342 64.5q38 0 56 -2l43 164h205l-52 -188q190 -42 338 -144l-172 -180q-108 68 -233 98l-152 -581q221 3 396 135l174 -168q-26 -25 -70.5 -53.5t-118 -64t-179 -58.5t-220.5 -23h-31
l-67 -254h-203zM403 504q0 -97 66 -171.5t174 -109.5l152 578q-168 -2 -280 -83.5t-112 -213.5z" />
    <glyph glyph-name="Euro.tl" horiz-adv-x="1538" 
d="M88 702v154h205q68 194 237 316t390 122q143 0 279 -47.5t233 -128.5l-152 -190q-70 58 -159.5 90.5t-176.5 32.5q-108 0 -195 -52.5t-141 -142.5h459v-154h-512q-6 -38 -6 -75q0 -26 4 -66h514v-153h-463q52 -95 142.5 -150t203.5 -55q97 0 193 41t166 110l151 -188
q-231 -207 -534 -207q-227 0 -398 124.5t-239 324.5h-201v153h168q-2 23 -2 68q0 23 4 73h-170z" />
    <glyph glyph-name="sterling.tl" horiz-adv-x="1538" 
d="M121 582v176h282v162q0 94 43.5 168t115.5 118t159.5 67t181.5 23q104 0 247.5 -39.5t266.5 -103.5l-125 -205q-97 48 -202 78.5t-177 30.5q-87 0 -153 -44.5t-66 -127.5v-127h477v-176h-477v-121q0 -109 -42 -162t-142 -72h905v-227h-1294v227h84q115 0 156.5 46
t41.5 188v121h-282z" />
    <glyph glyph-name="yen.tl" horiz-adv-x="1538" 
d="M113 702v154h309l-283 399h357l280 -432l279 432h338l-281 -399h313v-154h-421l-93 -131v-10h514v-153h-514v-408h-288v408h-510v153h510v10l-93 131h-417z" />
    <glyph glyph-name="florin.tl" horiz-adv-x="1538" 
d="M389 582v176h240l57 262q13 60 43 108.5t68.5 79t86.5 51t94.5 29t94.5 8.5q156 0 209 -32l-61 -205q-83 18 -146 18q-48 0 -81 -21t-40 -57l-51 -241h260v-176h-299l-123 -580q-21 -98 -72 -172.5t-118.5 -116.5t-139 -62t-145.5 -20l-20 205q40 8 70.5 18.5t64.5 30
t57 52t33 77.5l121 568h-203z" />
    <glyph glyph-name="colonmonetary.tl" horiz-adv-x="1538" 
d="M1090 1481h145l-55 -256q156 -59 276 -160l-178 -172q-68 56 -152 94l-170 -776q187 46 347 199l176 -170q-115 -107 -262 -181t-314 -92l-55 -254h-143l53 250q-99 6 -180 29l-60 -279h-143l69 326q-177 83 -277.5 240t-100.5 348q0 171 81 317t231.5 239.5t340.5 108.5
l41 189h145l-41 -187q88 -6 178 -28zM631 231q82 -31 178 -34l182 837q-92 25 -178 25zM360 627q0 -94 37.5 -177t106.5 -141l160 727q-138 -43 -221 -155.5t-83 -253.5z" />
    <glyph glyph-name="franc.tl" horiz-adv-x="1538" 
d="M86 219v164h231v872h1149v-233h-860v-215h531v-232h-531v-192h383v-164h-383v-219h-289v219h-231z" />
    <glyph glyph-name="lira.tl" horiz-adv-x="1538" 
d="M135 702v154h283v64q0 76 28 139t75.5 106t111.5 73t134 44t144 14q101 0 242 -39.5t264 -103.5l-125 -205q-95 48 -197.5 78.5t-172.5 30.5q-85 0 -149 -44.5t-64 -127.5v-29h469v-154h-469v-141h469v-153h-471q-9 -81 -52 -123.5t-129 -57.5h889v-227h-1280v227h88
q102 0 144.5 37t48.5 144h-281v153h283v141h-283z" />
    <glyph glyph-name="peso.tl" horiz-adv-x="1538" 
d="M57 713v153h174v389h578q266 0 405 -147q95 -106 115 -242h172v-153h-168q-20 -157 -133 -267q-69 -68 -161.5 -101.5t-229.5 -33.5h-289v-311h-289v713h-174zM983 604q43 46 57 109h-520v-168h287q114 0 176 59zM809 1022h-289v-156h518q-10 46 -49 92q-61 64 -180 64z
" />
    <glyph glyph-name="Rupee.tl" horiz-adv-x="1538" 
d="M117 713v153h846q-10 45 -50 92q-61 64 -180 64h-616v233h1329v-153h-334q114 -97 141 -236h193v-153h-189q-20 -157 -133 -267q-128 -106 -352 -106l-141 8l581 -348h-452l-643 391v154h614q114 0 176 59q44 47 58 109h-848z" />
    <glyph glyph-name="section.tl" horiz-adv-x="1538" 
d="M1331 217q-52 -46 -119 -76q22 -30 29 -45q25 -52 25 -110q0 -73 -31 -132.5t-81.5 -98t-117.5 -64.5t-136 -37.5t-140 -11.5q-122 0 -250 29.5t-229 82.5l116 189q190 -86 365 -86q51 0 96 7.5t83 32.5t38 64q0 28 -21 49q-42 36 -255 59q-17 2 -25 3q-354 41 -500 176
q-100 90 -100 219q0 142 115 250q41 39 122 80q-12 14 -26 39q-25 55 -25 120q0 90 46 158.5t121.5 107.5t161.5 58.5t177 19.5q124 0 254.5 -30t235.5 -84l-117 -189q-191 86 -377 86q-35 0 -68 -4t-68 -14.5t-56 -32t-21 -51.5q0 -32 20 -49q9 -8 22 -14t31.5 -11t34 -9
t42.5 -7.5t44.5 -6t52 -6.5t52.5 -6q353 -36 504 -184q96 -89 96 -213q0 -147 -121 -258zM817 631q-10 1 -58.5 5.5t-71.5 7.5t-64 9t-73.5 13.5t-62.5 17.5q-36 -20 -63 -47q-66 -63 -66 -135q0 -61 50 -101q45 -41 122.5 -59.5t180.5 -28.5q4 0 42.5 -4t49.5 -5.5t45 -5.5
t52 -7t46.5 -8t51 -11.5t44.5 -13.5q43 26 60 41q67 64 67 139q3 61 -47 101q-75 69 -305 92z" />
    <glyph glyph-name="numbersign.tl" horiz-adv-x="1538" 
d="M1020 1364h178l-55 -365h346v-213h-379l-55 -362h329v-211h-362l-64 -428h-176l64 428h-285l-63 -428h-179l66 428h-342v211h375l55 362h-326v213h359l55 365h176l-55 -365h283zM649 786l-55 -362h285l53 362h-283z" />
    <glyph glyph-name="percent.tl" horiz-adv-x="1538" 
d="M8 981q0 159 93.5 274t226.5 115q131 0 226 -115.5t95 -273.5q0 -162 -95 -277.5t-226 -115.5q-133 0 -226.5 115t-93.5 278zM1151 1337l-573 -1337h-193l573 1337h193zM211 981q0 -74 35.5 -129t81.5 -55q51 0 86 54t35 130q0 75 -35 128.5t-86 53.5q-46 0 -81.5 -54
t-35.5 -128zM887 358q0 159 93 274.5t224 115.5q133 0 228.5 -115.5t95.5 -274.5q0 -161 -95 -276t-229 -115q-132 0 -224.5 114.5t-92.5 276.5zM1090 358q0 -75 34 -129.5t80 -54.5q51 0 87 54.5t36 129.5t-36 129t-87 54q-46 0 -80 -54t-34 -129z" />
    <glyph glyph-name="zero.numerator" horiz-adv-x="1171" 
d="M63 895q0 130 70.5 239t190 171.5t260.5 62.5q106 0 203 -37t168 -100t113 -151t42 -185t-42 -185t-113 -151.5t-168 -101t-203 -37.5q-140 0 -260 63t-190.5 172.5t-70.5 239.5zM303 895q0 -111 82.5 -192.5t198.5 -81.5t200 81.5t84 192.5q0 110 -83.5 190t-200.5 80
q-116 0 -198.5 -79.5t-82.5 -190.5z" />
    <glyph glyph-name="one.numerator" horiz-adv-x="671" 
d="M59 1030l-51 189l287 118h217v-886h-244v663z" />
    <glyph glyph-name="two.numerator" horiz-adv-x="987" 
d="M207 1038l-133 154q61 45 96.5 68t93.5 52.5t119.5 42.5t134.5 13q75 0 143 -15.5t124.5 -46.5t90 -84.5t33.5 -121.5q0 -42 -13 -78.5t-31.5 -63t-52 -51.5t-60 -40t-72 -32.5t-71 -26t-72.5 -22.5q-111 -35 -161 -66.5t-50 -78.5v-4h565v-186h-807v149q0 79 32.5 143
t93 109t133 76t165.5 55q160 44 160 117q0 28 -22 45.5t-52 24t-68 6.5q-92 0 -164.5 -35.5t-154.5 -102.5z" />
    <glyph glyph-name="three.numerator" horiz-adv-x="1093" 
d="M451 825v176h165q48 0 74.5 22t26.5 56q0 49 -47 73t-107 24q-153 0 -317 -138l-135 146q227 184 456 184q65 0 130 -14.5t125.5 -43.5t98 -81t37.5 -119q0 -50 -28.5 -93t-67.5 -67q70 -26 117 -78.5t47 -136.5q0 -99 -67 -171.5t-177.5 -108t-249.5 -35.5
q-292 0 -497 188l133 152q169 -148 364 -148q109 0 180.5 35.5t71.5 97.5q0 80 -135 80h-198z" />
    <glyph glyph-name="four.numerator" horiz-adv-x="1159" 
d="M1104 807v-178h-168v-178h-242v178h-651v137l678 571h215v-530h168zM381 811v-4h313v250h-16q-28 -23 -134.5 -111t-162.5 -135z" />
    <glyph glyph-name="five.numerator" horiz-adv-x="1077" 
d="M913 1337v-192h-553v-184q62 45 125 67.5t148 22.5q58 0 113.5 -11t105.5 -34.5t87.5 -57.5t60 -83t22.5 -107q0 -88 -42 -155t-113.5 -106t-155 -58t-176.5 -19q-256 0 -490 117l105 172q184 -97 385 -97q101 0 169 37.5t68 108.5q0 54 -51.5 81t-126.5 27
q-148 0 -309 -92l-142 96v467h770z" />
    <glyph glyph-name="six.numerator" horiz-adv-x="1089" 
d="M993 1284l-114 -160q-121 52 -256 52q-133 0 -227 -71.5t-103 -195.5q167 125 352 125q93 0 168 -24.5t122 -65t72 -91t25 -105.5q0 -138 -124.5 -233t-315.5 -95q-81 0 -157.5 18.5t-143.5 56.5t-117 91.5t-79 129t-29 163.5q0 148 78.5 261.5t202 170.5t269.5 57
q182 0 377 -84zM612 858q-144 0 -297 -86q33 -76 107.5 -118t167.5 -42q88 0 145.5 41.5t57.5 96.5q0 42 -45 75t-136 33z" />
    <glyph glyph-name="seven.numerator" horiz-adv-x="980" 
d="M57 1135v202h881v-182l-500 -704h-305l512 684h-588z" />
    <glyph glyph-name="eight.numerator" horiz-adv-x="1103" 
d="M553 416q-127 0 -236 34t-179 103.5t-70 159.5q0 84 53.5 142.5t140.5 86.5q-145 51 -145 174q0 61 40.5 111t105.5 80t141 46.5t151 16.5q73 0 147 -16t138 -46.5t104.5 -82t40.5 -115.5q0 -126 -141 -168q85 -28 138.5 -87t53.5 -142q0 -90 -70 -159.5t-178.5 -103.5
t-234.5 -34zM553 610q92 0 159.5 31.5t67.5 85.5t-71 85.5t-156 31.5q-86 0 -157.5 -31.5t-71.5 -85.5t68.5 -85.5t160.5 -31.5zM553 1012q86 0 131 22.5t45 63.5q0 44 -55.5 70t-120.5 26q-67 0 -122.5 -26t-55.5 -70q0 -41 46 -63.5t132 -22.5z" />
    <glyph glyph-name="nine.numerator" horiz-adv-x="1091" 
d="M98 502l113 162q121 -54 258 -54q130 0 223.5 70.5t102.5 193.5q-163 -122 -351 -122q-181 0 -283 85.5t-102 200.5q0 140 124 235t315 95q103 0 197 -30t168 -86t118.5 -145t44.5 -198q0 -112 -45.5 -206t-122.5 -155t-176.5 -94.5t-208.5 -33.5q-171 0 -375 82z
M479 930q135 0 295 84q-33 76 -108 119t-166 43q-86 0 -143.5 -41.5t-57.5 -96.5q0 -43 44.5 -75.5t135.5 -32.5z" />
    <glyph glyph-name="zero.denominator" horiz-adv-x="1173" 
d="M63 444q0 130 70.5 239t190 172t260.5 63q142 0 263 -63t192 -172.5t71 -238.5q0 -97 -42 -185t-113 -151.5t-168 -101t-203 -37.5q-140 0 -260 63t-190.5 172.5t-70.5 239.5zM303 444q0 -111 82.5 -192.5t198.5 -81.5t200 81.5t84 192.5t-83.5 191t-200.5 80
q-116 0 -198.5 -80t-82.5 -191z" />
    <glyph glyph-name="one.denominator" horiz-adv-x="671" 
d="M59 580l-51 188l287 119h217v-887h-244v664z" />
    <glyph glyph-name="two.denominator" horiz-adv-x="987" 
d="M207 588l-133 153q62 45 97 68t93 53t119.5 43t134.5 13q75 0 143 -16t124.5 -47t90 -84.5t33.5 -121.5q0 -33 -8 -62.5t-19.5 -52.5t-33.5 -45t-40 -37t-49.5 -31.5t-52.5 -26t-57.5 -22.5t-55.5 -19t-56 -17q-110 -35 -160.5 -67t-50.5 -79v-4h565v-186h-807v150
q0 79 32.5 143t93 109t133 75.5t165.5 54.5q160 44 160 117q0 28 -22 45.5t-52 24t-68 6.5q-93 0 -165.5 -35t-153.5 -102z" />
    <glyph glyph-name="three.denominator" horiz-adv-x="1093" 
d="M451 375v176h165q48 0 74.5 22t26.5 56q0 49 -46.5 72.5t-107.5 23.5q-154 0 -317 -137l-135 145q228 185 456 185q65 0 130 -14.5t125.5 -44t98 -81.5t37.5 -119q0 -50 -28 -92.5t-68 -66.5q70 -26 117 -78.5t47 -136.5q0 -147 -140.5 -231.5t-353.5 -84.5
q-291 0 -497 189l133 151q168 -147 364 -147q109 0 180.5 35.5t71.5 97.5q0 80 -135 80h-198z" />
    <glyph glyph-name="four.denominator" horiz-adv-x="1159" 
d="M1104 356v-178h-168v-178h-242v178h-651v137l678 572h215v-531h168zM381 360v-4h313v250h-16q-28 -23 -134.5 -111t-162.5 -135z" />
    <glyph glyph-name="five.denominator" horiz-adv-x="1077" 
d="M913 887v-193h-553v-184q62 45 125 67.5t148 22.5q58 0 113.5 -11t105.5 -34.5t87.5 -57.5t60 -83t22.5 -107q0 -88 -42 -155t-113.5 -106t-155 -58t-176.5 -19q-256 0 -490 117l105 172q182 -96 385 -96q101 0 169 37t68 108q0 54 -51.5 81.5t-126.5 27.5
q-148 0 -309 -92l-142 96v467h770z" />
    <glyph glyph-name="six.denominator" horiz-adv-x="1091" 
d="M993 834l-114 -160q-118 51 -256 51q-133 0 -227 -71t-103 -195q167 125 352 125q181 0 284 -85.5t103 -201.5q0 -138 -124.5 -233t-315.5 -95q-81 0 -157.5 18.5t-143.5 56.5t-117 91.5t-79 129t-29 163.5q0 112 45.5 205.5t122 155t175.5 95.5t207 34q182 0 377 -84z
M612 408q-144 0 -297 -86q33 -76 107.5 -118t167.5 -42q88 0 145.5 41t57.5 96q0 42 -45 75.5t-136 33.5z" />
    <glyph glyph-name="seven.denominator" horiz-adv-x="980" 
d="M57 684v203h881v-182l-498 -705h-305l512 684h-590z" />
    <glyph glyph-name="eight.denominator" horiz-adv-x="1103" 
d="M553 -35q-127 0 -236 34t-179 103.5t-70 159.5q0 84 53.5 143t140.5 87q-145 51 -145 174q0 61 40.5 111t105.5 80t141 46.5t151 16.5q73 0 147 -16.5t138 -47t104.5 -82t40.5 -115.5q0 -125 -141 -167q85 -28 138.5 -87.5t53.5 -142.5q0 -90 -70 -159.5t-178.5 -103.5
t-234.5 -34zM553 160q93 0 160 31t67 85t-71 85.5t-156 31.5q-86 0 -157.5 -31.5t-71.5 -85.5t68 -85t161 -31zM553 561q86 0 131 22.5t45 63.5q0 44 -55.5 70t-120.5 26q-67 0 -122.5 -26t-55.5 -70q0 -41 46 -63.5t132 -22.5z" />
    <glyph glyph-name="nine.denominator" horiz-adv-x="1091" 
d="M98 51l115 162q116 -53 256 -53q132 0 225.5 71t102.5 195q-162 -125 -353 -125q-92 0 -167 25t-121.5 66t-71.5 91.5t-25 104.5q0 140 125 235t316 95q81 0 157.5 -18.5t143.5 -56.5t117 -92t79 -129t29 -163q0 -112 -45.5 -206t-122.5 -155.5t-176 -95t-207 -33.5
q-173 0 -377 82zM479 479q137 0 297 84q-35 77 -109 119.5t-165 42.5q-87 0 -145 -41.5t-58 -95.5q0 -43 44.5 -76t135.5 -33z" />
    <glyph glyph-name="acute.cap" 
d="M330 1487l205 282h292l-254 -282h-243z" />
    <glyph glyph-name="grave.cap" 
d="M481 1769l205 -282h-246l-252 282h293z" />
    <glyph glyph-name="circumflex.cap" 
d="M156 1487l217 285h270l215 -285h-215l-135 151l-137 -151h-215z" />
    <glyph glyph-name="dieresis.cap" 
d="M127 1634q0 56 42.5 97t104.5 41q64 0 108 -41t44 -97q0 -57 -44 -96t-108 -39q-63 0 -105 39t-42 96zM586 1634q0 56 43 97t106 41t107.5 -41t44.5 -97q0 -57 -44.5 -96t-107.5 -39q-64 0 -106.5 39t-42.5 96z" />
    <glyph glyph-name="tilde.cap" 
d="M276 1477l-163 88q62 108 123.5 154t136.5 46t147 -51q4 -3 21.5 -14.5t24 -15t19 -10t22.5 -9t20 -2.5q18 0 34 7t33 25.5t24 27.5t25 34l152 -82q-113 -205 -260 -205q-70 0 -141 48q-5 3 -17 12t-16.5 12t-14.5 9.5t-16 9t-14 6t-15.5 5t-15.5 1.5q-12 0 -23.5 -4.5
t-19.5 -10t-18.5 -18t-16 -19t-16.5 -23t-15 -21.5z" />
    <glyph glyph-name="ring.cap" 
d="M383 1640q0 -45 33.5 -72.5t85.5 -27.5t85.5 27.5t33.5 72.5q0 48 -34 80.5t-85 32.5t-85 -32.5t-34 -80.5zM502 1419q-132 0 -205.5 63.5t-73.5 157.5q0 95 74 162.5t205 67.5q129 0 203.5 -67.5t74.5 -162.5q0 -94 -74 -157.5t-204 -63.5z" />
    <glyph glyph-name="cedilla.cap" 
d="M475 49h184l-55 -115q31 -5 59.5 -13t58.5 -23t52.5 -35t36.5 -49t14 -64q0 -95 -98.5 -155t-253.5 -60q-107 0 -283 43l39 146q15 -2 69.5 -11.5t87.5 -13.5t65 -4q63 0 99 17.5t36 49.5q0 19 -13.5 33.5t-33.5 21.5t-39 10t-35 3q-29 0 -47 -6l-27 59z" />
    <glyph glyph-name="breve.cap" 
d="M178 1769h191q0 -139 139 -139q137 0 137 139h191q0 -43 -8 -82t-30.5 -80.5t-58 -71.5t-95 -49.5t-136.5 -19.5t-137 19.5t-95.5 49.5t-58 71t-31 80.5t-8.5 82.5z" />
    <glyph glyph-name="caron.cap" 
d="M371 1772l137 -154l135 154h215l-215 -285h-270l-217 285h215z" />
    <glyph glyph-name="dotaccent.cap" 
d="M358 1634q0 56 43 97t105 41q64 0 107.5 -41t43.5 -97q0 -57 -43.5 -96t-107.5 -39q-63 0 -105.5 39t-42.5 96z" />
    <glyph glyph-name="hungarumlaut.cap" 
d="M670 1776h229l-145 -293h-170zM295 1776h229l-145 -293h-170z" />
    <glyph glyph-name="macron.cap" 
d="M231 1716h551v-190h-551v190z" />
    <glyph glyph-name="ogonek.cap" 
d="M520 70l125 -70q-211 -93 -211 -197q0 -44 33 -68t92 -24q25 0 121 17l22 -164q-106 -29 -192 -29q-134 0 -213.5 59.5t-79.5 155.5q0 49 23.5 96t56.5 80.5t78.5 64.5t77.5 47.5t67 31.5z" />
    <glyph glyph-name="commaaccent.cap" 
d="M461 -137l213 53q78 -84 78 -188q0 -111 -93.5 -179.5t-250.5 -68.5q-83 0 -189 28l23 154q100 -14 116 -14q71 0 109.5 25.5t38.5 74.5q0 59 -45 115z" />
    <glyph glyph-name="caron.cap.alt" 
d="M545 950h-139v484h241q0 -151 -23.5 -263.5t-78.5 -220.5z" />
    <glyph glyph-name="ampersand.cap" horiz-adv-x="1562" 
d="M1153 1270l-123 -223q-51 33 -129.5 60.5t-138.5 27.5q-65 0 -100 -33t-35 -80q0 -24 11 -53t24.5 -51.5t38 -52.5t38 -44.5t38 -39.5t26.5 -27l254 -281q106 118 217 305l217 -108q-129 -213 -277 -371l273 -299h-363l-110 121q-108 -80 -225 -117t-222 -37
q-65 0 -129 13t-130 45t-115.5 79.5t-81 124t-31.5 170.5q0 85 25 154t71.5 118t100.5 82.5t124 61.5q-65 100 -65 203q0 108 59.5 192t156 127t210.5 43q171 0 391 -110zM604 575l-74 78q-161 -84 -161 -233q0 -56 22.5 -99t58.5 -66.5t75.5 -35.5t80.5 -12q116 0 250 88z
" />
    <glyph glyph-name="zero.cap" horiz-adv-x="1636" 
d="M96 670q0 194 97.5 357.5t263 258t358.5 94.5q195 0 361.5 -94.5t265 -258t98.5 -357.5q0 -145 -58 -277.5t-156 -227.5t-231.5 -151.5t-279.5 -56.5q-144 0 -277 56.5t-229.5 151.5t-154.5 227.5t-58 277.5zM387 670q0 -189 125.5 -326t302.5 -137q117 0 217 63
t158.5 170t58.5 230q0 189 -128 324.5t-306 135.5q-117 0 -215.5 -62t-155.5 -168t-57 -230z" />
    <glyph glyph-name="one.cap" horiz-adv-x="903" 
d="M86 926l-61 231l401 180h264v-1337h-291v1067z" />
    <glyph glyph-name="one.cap.alt" horiz-adv-x="890" 
d="M592 0h-293v1337h293v-1337z" />
    <glyph glyph-name="two.cap" horiz-adv-x="1363" 
d="M115 0v201q0 97 31 179t83 141.5t129 109t158.5 83t181.5 60.5q29 9 42 13t46.5 16t52 22t45.5 28t42 36t26 43t11 53q0 79 -70.5 116.5t-169.5 37.5q-132 0 -233 -51t-216 -150l-159 190q63 49 100.5 77t101 66.5t117.5 58.5t128 35t153 15q82 0 158 -14t145.5 -44.5
t120.5 -75.5t81.5 -111t30.5 -146q0 -61 -16.5 -113.5t-45 -92.5t-68 -73.5t-84.5 -59t-94.5 -46t-98.5 -37.5t-96 -32q-11 -3 -17 -5q-163 -52 -243 -116t-80 -170v-15h819v-229h-1112z" />
    <glyph glyph-name="three.cap" horiz-adv-x="1511" 
d="M639 592v221h233q66 0 112 41.5t46 108.5q0 61 -41 102.5t-95 57.5t-114 16q-116 0 -234.5 -59t-221.5 -152l-164 178q309 274 624 274q70 0 141.5 -12.5t143.5 -41.5t127.5 -72t90 -109t34.5 -146q0 -85 -43.5 -153t-101.5 -101q44 -15 83 -38.5t76.5 -60.5t59.5 -94.5
t22 -127.5q0 -146 -91.5 -253.5t-244 -160.5t-344.5 -53q-204 0 -372.5 67.5t-315.5 211.5l162 190q236 -229 526 -229q168 0 278.5 64t110.5 175q0 46 -21.5 78.5t-56.5 48.5t-68.5 22.5t-68.5 6.5h-272z" />
    <glyph glyph-name="four.cap" horiz-adv-x="1591" 
d="M1513 508v-221h-237v-287h-291v287h-932v180l959 870h264v-829h237zM461 516v-8h524v479h-22q-21 -20 -213 -199t-289 -272z" />
    <glyph glyph-name="five.cap" horiz-adv-x="1486" 
d="M735 -43q-118 0 -226.5 22t-196 61.5t-141.5 71t-112 72.5l142 201q251 -188 536 -188q99 0 179.5 26t135 87.5t54.5 150.5q0 105 -83.5 158t-205.5 53q-126 0 -231 -37.5t-211 -104.5l-172 123v684h1059v-241h-797v-324q90 66 179.5 98.5t213.5 32.5q104 0 200 -27
t175 -79t126.5 -138.5t47.5 -195.5q0 -106 -39 -192.5t-103.5 -144t-152 -96.5t-182 -56t-195.5 -17z" />
    <glyph glyph-name="six.cap" horiz-adv-x="1511" 
d="M1366 1239l-141 -199q-166 99 -367 99q-196 0 -334.5 -121t-150.5 -330q249 191 516 191q129 0 234 -38t169 -100t98.5 -137t34.5 -155q0 -136 -77 -248.5t-216.5 -178t-312.5 -65.5q-112 0 -217 27.5t-196.5 84.5t-160 137.5t-108 193.5t-39.5 245q0 168 62.5 309
t167.5 233t240.5 142.5t283.5 50.5q81 0 157.5 -12.5t143.5 -36.5t106 -41t89 -42l10 -5zM848 657q-218 0 -457 -147q40 -149 157.5 -231t270.5 -82q136 0 227 76t91 176q0 82 -72 145t-217 63z" />
    <glyph glyph-name="seven.cap" horiz-adv-x="1327" 
d="M61 1085v252h1205v-231l-705 -1106h-368l725 1085h-857z" />
    <glyph glyph-name="eight.cap" horiz-adv-x="1521" 
d="M760 -47q-128 0 -246.5 30t-212 84t-149.5 138.5t-56 185.5q0 133 83.5 223.5t213.5 126.5q-221 66 -221 269q0 90 55 164t142.5 118.5t189 68t203.5 23.5q101 0 201.5 -23.5t188.5 -68t143 -119.5t55 -167q0 -207 -222 -265q129 -36 213 -127t84 -223
q0 -101 -56.5 -185.5t-150.5 -138.5t-212.5 -84t-245.5 -30zM760 193q90 0 170 24.5t133 75t53 117.5q0 68 -57 117.5t-135.5 71.5t-163.5 22t-163 -22t-134.5 -71.5t-56.5 -117.5q0 -66 53 -117t132.5 -75.5t168.5 -24.5zM760 829q135 0 207.5 41t72.5 117q0 57 -45 98.5
t-106.5 59.5t-128.5 18t-128.5 -18t-106 -59.5t-44.5 -98.5q0 -76 72.5 -117t206.5 -41z" />
    </font>
</defs>
</svg>
