<?xml version="1.0" standalone="no"?>
<!DOCTYPE svg PUBLIC "-//W3C//DTD SVG 1.1//EN" "http://www.w3.org/Graphics/SVG/1.1/DTD/svg11.dtd" >
<svg xmlns="http://www.w3.org/2000/svg" xmlns:xlink="http://www.w3.org/1999/xlink" version="1.1">
<metadata>
Created by FontForge 20170731 at Thu Oct 12 19:38:00 2000
 By Aleksey,,,
Copyright 1981-1983, 1989,1993, 1998 Heidelberger Druckmaschinen AG. All rights reserved. The  digitally encoded machine readable outline data for producing the Typefaces licensed are the property of Heidelberger Druckmaschinen AG and/or its subsidiaries, represented by Linotype Library GmbH, Dupont Strasse 1, 61352 Bad Homburg Germany. Portions (c) 1996-1998 Microsoft Corporation. All Rights Reserved. 
</metadata>
<defs>
<font id="PalatinoLinotype-Italic" horiz-adv-x="1024" >
  <font-face 
    font-family="Palatino Linotype"
    font-weight="400"
    font-style="italic"
    font-stretch="normal"
    units-per-em="2048"
    panose-1="2 4 5 2 5 3 5 10 3 4"
    ascent="1638"
    descent="-410"
    x-height="955"
    cap-height="1413"
    bbox="-331 -596 2557 2155"
    underline-thickness="120"
    underline-position="-388"
    slope="-10"
    unicode-range="U+0020-FFFC"
  />
<missing-glyph horiz-adv-x="1670" 
d="M1672 818l-4 -72q-64 -24 -207 -81q-74 -29 -239 -99q-81 -44 -270 -135q-52 -33 -153 -90q-7 -3 99 -113l-126 -121l99 -5l-31 -81h-36l18 50l-82 9l-54 -27l-45 -72l-31 13l49 68l45 36l-90 4l-49 -54l-32 9l86 86l103 -9l109 81l-77 117q-34 -16 -59 -9q22 -34 43 -67
l-185 -72l54 -16l-74 -54l-25 5l43 40l-27 14l-79 -21l-16 -38l-27 -4l27 58l54 16l-65 25l-25 -39l-22 9l42 54l111 -29l160 63l-27 70q-36 26 -115 85q-29 23 -72 76q-40 48 -76 73q-79 52 -171 76q-81 21 -230 9l27 36l257 77q104 32 288 90l36 -14q10 -18 36 -58
q25 -33 63.5 -55.5t76.5 -43.5q25 -16 72 -41q196 -14 306 5q26 4 220 67q108 35 297 99zM894 483l-27 11l-54 -38l-65 45l-38 72l-34 -13l54 -90l94 -45zM529 701q0 41 -43 41t-43 -41q0 -40 43 -40t43 40zM505 692q0 -18 -17 -18t-17 18t17 18t17 -18z" />
    <glyph glyph-name="IJ" unicode="IJ" horiz-adv-x="1364" 
d="M525 43l-5 -43l-9 -8q-4 0 -64 2q-157 6 -199 6q-103 0 -222 -8l-7 8l3 43l10 8q89 5 107 10q10 3 15 7t10 11q12 19 22 53q11 42 52 265l65 355l59 346q27 170 27 207q0 27 -22.5 35.5t-138.5 13.5l-7 8l5 43l9 8q5 0 74 -2q158 -6 206 -6q95 0 205 8l7 -8l-3 -43l-9 -8
q-105 -6 -120 -12q-8 -4 -15 -12t-15 -37q-25 -94 -81 -403l-81 -470q-47 -286 -47 -324q0 -17 10 -25.5t48 -12.5t105 -7zM487 1477zM252 -109zM902 1354l-6 8l5 43l9 8q26 0 89 -2l206 -6q90 0 205 8l7 -8l-3 -43l-9 -8q-118 -5 -132 -17.5t-51 -207.5t-64 -371l-105 -680
q-42 -270 -141 -387t-203 -117q-34 0 -77 19l-4 44l8 9q25 -10 50 -10q85 0 128.5 97.5t104.5 500.5l139 904q21 137 21 167q0 22 -26.5 34.5t-150.5 14.5z" />
    <glyph glyph-name="ij" unicode="ij" horiz-adv-x="1101" 
d="M347 1303q0 53 33.5 93.5t81.5 40.5q34 0 55 -21t21 -60q0 -54 -31 -96.5t-78 -42.5q-35 0 -58.5 24t-23.5 62zM86 745l-10 23l3 13q136 98 209.5 137.5t115.5 39.5q41 0 41 -59q0 -27 -10.5 -76.5t-50.5 -199.5q-109 -404 -109 -478q0 -40 28 -40q43 0 156 85l10 -3
l11 -26l-2 -12q-70 -54 -144 -104t-105.5 -63.5t-52.5 -13.5q-30 0 -47 26t-17 61q0 45 12.5 96.5t30.5 114.5q65 232 92.5 362t27.5 159q0 34 -23 34q-15 0 -29 -7.5t-126 -72.5zM192 -109zM883 1303q0 53 33.5 93.5t81.5 40.5q35 0 55.5 -21.5t20.5 -58.5q0 -56 -31 -98
t-79 -42q-34 0 -57.5 23.5t-23.5 62.5zM390 -557l16 97l17 10q43 -24 55.5 -27.5t25.5 -3.5q52 0 76.5 62.5t80.5 349.5q7 39 59.5 285.5t76.5 381.5l27 158q3 22 3 32q0 35 -30 35q-35 0 -160 -81l-11 4l-11 23l4 14q148 104 217.5 141t113.5 37q45 0 45 -60
q0 -50 -54 -286l-102 -451q-49 -215 -98.5 -374t-104 -238.5t-95 -102.5t-79.5 -23q-25 0 -72 17z" />
    <glyph glyph-name="uniFB00" unicode="ff" horiz-adv-x="1115" 
d="M806 870q50 265 68 315t156.5 169.5t242.5 119.5q64 0 131 -27q-39 -104 -56 -166l-23 -7q-47 75 -144 75q-47 0 -83 -24.5t-59 -79.5t-83 -375h115q68 0 99 7l9 -11q-7 -20 -31 -95l-9 -7q-46 2 -92 2q-33 0 -110 -2l-133 -607q-38 -172 -66.5 -267t-80 -190
t-115.5 -156t-120 -90t-108 -29q-32 0 -71 19q33 98 47 164l25 6q42 -56 104 -56q96 0 150 122t138 611l81 473h-397l-145 -669q-79 -365 -218 -517.5t-259 -152.5q-34 0 -71 19q33 98 47 164l25 6q42 -56 103 -56q99 0 154.5 125.5t152.5 708.5l62 372l-80 1q-51 0 -75 -2
l-8 8l7 31l8 8q67 22 166 62l47 230q17 82 46 122t125.5 119.5t149 105t99.5 25.5q66 0 132 -27q-39 -104 -57 -166l-22 -7q-49 75 -144 75q-52 0 -105.5 -43.5t-121.5 -435.5h397z" />
    <glyph glyph-name="uniFB01" unicode="fi" horiz-adv-x="1081" 
d="M403 870h200q87 0 177 44q100 48 129 48q52 0 52 -56q0 -44 -87 -368q-86 -320 -86 -393q0 -40 28 -40q43 0 156 85l10 -3l11 -26l-3 -12q-231 -181 -301 -181q-64 0 -64 87q0 58 43 211q117 416 117 516q0 45 -46 45q-25 0 -86 -36q-32 -19 -57 -27q-101 2 -210 0
q-12 -48 -35 -159l-70 -332q-50 -240 -87.5 -371.5t-108.5 -245.5t-161.5 -172.5t-159.5 -58.5q-34 0 -71 19q32 94 47 164l25 6q42 -56 103 -56q98 0 152.5 126.5t135.5 602.5l81 477q-147 0 -155 -1l-8 8l7 30l6 6q58 17 165 62l48 235q19 92 73 149.5t166 139t169 81.5
q42 0 87 -19q-28 -132 -35 -177l-24 -8q-31 76 -116 76q-70 0 -106 -52.5t-69 -217.5zM1059 1358q0 -58 -32.5 -99.5t-84.5 -41.5q-82 0 -82 88q0 52 34.5 92.5t85.5 40.5q79 0 79 -80z" />
    <glyph glyph-name="uniFB02" unicode="fl" horiz-adv-x="1116" 
d="M1038 1474l30 -17l-84 -390l-176 -884q-3 -15 -3 -36q0 -45 32 -45q28 0 143 83l29 21l10 -3l11 -26l-3 -12q-241 -195 -325 -195q-62 0 -62 84q0 89 103 511q139 613 139 726q0 29 -19.5 45t-95.5 16q-8 -53 -9 -75l-23 -7q-23 75 -112 75q-54 0 -103.5 -46.5
t-114.5 -429.5q209 0 221 8l8 -7q-12 -35 -31 -97l-9 -7q-99 0 -208 -2l-130 -608q-65 -304 -136.5 -442.5t-175.5 -213.5t-180 -75q-33 0 -71 19q32 94 47 164l25 6q42 -56 103 -56q103 0 158.5 140t130.5 590l80 476q-147 0 -155 -1l-8 8l6 27l7 9q68 24 164 60l42 191
q27 124 51.5 163.5t115.5 110.5l83 64q101 78 173 78q38 0 76 -17q-11 -34 -16 -56q128 2 262 73z" />
    <glyph glyph-name="uniFB03" unicode="ffi" horiz-adv-x="1632" 
d="M788 764h-397l-170 -771q-87 -319 -218 -443.5t-234 -124.5q-34 0 -71 19q33 98 47 164l25 6q42 -56 103 -56q99 0 154.5 125.5t152.5 708.5l62 372l-80 1q-51 0 -75 -2l-8 8l7 31l8 8q69 21 163 61l50 231q18 84 46.5 123t125.5 118.5t149 105t99 25.5q66 0 132 -27
q-39 -104 -57 -166l-22 -7q-49 75 -144 75q-52 0 -105.5 -43t-120.5 -433h396q37 215 55 274t83.5 127.5t167.5 134t146 65.5q40 0 87 -19q-29 -138 -34 -177l-24 -8q-31 76 -117 76q-55 0 -103 -50t-112 -424h218q69 0 157 42q100 48 129 48q52 0 52 -56q0 -43 -87 -368
q-86 -321 -86 -393q0 -40 28 -40q41 0 156 85l10 -3l11 -26l-2 -12q-233 -181 -302 -181q-64 0 -64 87q0 59 43 212q117 415 117 515q0 45 -45 45q-24 0 -87 -37q-27 -16 -57 -26q-56 1 -84 1h-126l-156 -716q-75 -336 -214 -480t-252 -144q-32 0 -71 19q33 98 47 164l25 6
q42 -56 103 -56q97 0 151 122.5t138 611.5zM1609 1358q0 -58 -32.5 -99.5t-84.5 -41.5q-82 0 -82 88q0 52 34 92.5t86 40.5q79 0 79 -80z" />
    <glyph glyph-name="uniFB04" unicode="ffl" horiz-adv-x="1666" 
d="M788 764h-397l-145 -669q-79 -365 -218 -517.5t-259 -152.5q-34 0 -71 19q33 98 47 164l25 6q42 -56 103 -56q99 0 154.5 125.5t152.5 708.5l62 372l-80 1q-51 0 -75 -2l-8 8l7 31l8 8q69 23 166 61l47 231q17 82 46 122t125.5 119.5t149 105t99.5 25.5q66 0 132 -27
q-39 -104 -57 -166l-22 -7q-49 75 -144 75q-55 0 -107 -45t-120 -431h397q45 266 76 325t128 134l79 61q105 81 176 81q39 0 77 -17q-12 -35 -15 -56q128 3 261 73l30 -17l-249 -1213q-14 -68 -14 -97q0 -45 33 -45t172 104l10 -3l10 -26l-2 -12q-111 -95 -197.5 -145
t-128.5 -50q-62 0 -62 84q0 47 40 227l135 607q34 151 50.5 252.5t16.5 150.5q0 35 -23.5 48t-91.5 13q-7 -44 -9 -75l-23 -7q-22 75 -112 75q-55 0 -103.5 -47t-114.5 -428h112q78 0 109 7l4 -6q-13 -35 -32 -100l-9 -7q-47 2 -92 2q-33 0 -111 -2l-145 -669
q-78 -362 -216.5 -516t-260.5 -154q-32 0 -71 19q33 98 47 164l25 6q42 -56 103 -56q91 0 147.5 114.5t145.5 638.5z" />
    <glyph glyph-name="S_S. RQD" unicode="SS" horiz-adv-x="2134" 
d="M107 46q35 132 49 292l10 9h42l7 -8l4 -192q74 -59 141.5 -75.5t127.5 -16.5q179 0 268 102.5t89 233.5q0 67 -27 114t-71.5 70t-164.5 50q-138 31 -204 65t-102 101.5t-36 164.5q0 142 79 251.5t200 168t270 58.5q146 0 250 -62l4 -12q-24 -98 -45 -261l-8 -8h-44l-8 8
v147q-78 92 -232 92q-91 0 -164.5 -38.5t-114.5 -112t-41 -160.5q0 -77 30.5 -128.5t84 -75.5t182.5 -54q106 -24 150.5 -40t86 -52.5t63.5 -88t22 -120.5q0 -144 -87.5 -259t-210 -183.5t-292.5 -68.5q-163 0 -304 77zM1114 46q35 132 49 292l10 9h42l7 -8l4 -192
q74 -59 141.5 -75.5t127.5 -16.5q179 0 268 102.5t89 233.5q0 67 -27 114t-71.5 70t-164.5 50q-138 31 -204 65t-102 101.5t-36 164.5q0 142 79 251.5t200 168t270 58.5q146 0 250 -62l4 -12q-24 -98 -45 -261l-8 -8h-44l-8 8v147q-78 92 -232 92q-91 0 -164.5 -38.5
t-114.5 -112t-41 -160.5q0 -77 30.5 -128.5t84 -75.5t182.5 -54q106 -24 150.5 -40t86 -52.5t63.5 -88t22 -120.5q0 -144 -87.5 -259t-210 -183.5t-292.5 -68.5q-163 0 -304 77z" />
    <glyph glyph-name="c_h. RQD" unicode="ch" horiz-adv-x="1820" 
d="M726 216l11 -28l-3 -12q-121 -101 -222.5 -155.5t-194.5 -54.5q-123 0 -186 76.5t-63 226.5q0 92 22 195.5t59 180.5t77.5 122t121.5 96q109 68 169 89t115 21q98 0 169 -49l3 -13q-29 -119 -44 -241l-8 -8h-31l-8 8v67q1 20 1 34q0 33 -12 51t-56 33t-99 15
q-105 0 -167.5 -54.5t-112 -218t-49.5 -288.5t49 -181.5t126 -56.5q63 0 132 29t191 119zM1258 1471l25 -19q-42 -178 -194 -903l7 -4q185 243 330.5 328.5t222.5 85.5q25 0 40 -17.5t15 -42.5q0 -36 -31 -160q-40 -156 -86.5 -358t-46.5 -242q0 -17 8.5 -24.5t16.5 -7.5
q22 0 63.5 27t105.5 74l10 -3l12 -26l-2 -11q-83 -68 -186.5 -133.5t-136.5 -65.5q-22 0 -35.5 23t-13.5 61q0 26 3 41.5t34 149.5l57 248q59 242 59 295q0 36 -40 36q-27 0 -55 -13q-61 -30 -151 -108q-70 -62 -131 -149t-95 -175q-26 -70 -48 -174l-37 -198
q-122 -25 -139 -33l-13 14q151 573 228 1054l33 204q8 37 8 63q0 21 -13.5 31t-57.5 10l-84 1l-8 8l4 25l7 9q188 30 315 79z" />
    <glyph glyph-name="c_k. RQD" unicode="ck" horiz-adv-x="1705" 
d="M726 216l11 -28l-3 -12q-121 -101 -222.5 -155.5t-194.5 -54.5q-123 0 -186 76.5t-63 226.5q0 92 22 195.5t59 180.5t77.5 122t121.5 96q109 68 169 89t115 21q98 0 169 -49l3 -13q-29 -119 -44 -241l-8 -8h-31l-8 8v67q1 20 1 34q0 33 -12 51t-56 33t-99 15
q-105 0 -167.5 -54.5t-112 -218t-49.5 -288.5t49 -181.5t126 -56.5q63 0 132 29t191 119zM1284 1471l25 -19q-35 -144 -93 -421l-58 -276q-36 -171 -66 -289q78 112 198.5 248t217.5 198.5t167 62.5q28 0 69 -16l-34 -140q-44 14 -84 14q-54 0 -107 -22t-109.5 -67.5
t-123.5 -113.5q34 -107 91.5 -251t87.5 -202t47 -69t29 -11q28 0 103 46l31 19l11 -3l10 -24l-3 -12q-141 -104 -185.5 -129t-65.5 -25q-10 0 -21.5 6.5t-32.5 37t-59 119.5t-59 145.5t-85 237.5q-61 -75 -78 -100.5t-28.5 -53t-25.5 -82.5t-26 -127l-24 -142l-136 -36
l-17 13l49 190q31 121 91.5 414.5t86.5 446.5l37 209q7 39 7 61q0 21 -13.5 31t-57.5 10l-84 1l-8 8l3 25l8 9q186 29 315 79z" />
    <glyph glyph-name="f_t. RQD" unicode="ft" horiz-adv-x="1198" 
d="M391 764l-109 -506l-47 -202q-36 -160 -77.5 -261.5t-100 -180.5t-138.5 -134t-150 -55q-34 0 -71 19q33 98 47 164l25 6q42 -56 103 -56q99 0 154.5 125.5t152.5 708.5l62 372l-80 1q-51 0 -75 -2l-8 8l7 31l8 8q69 24 168 63l45 229q16 80 44 120t125.5 120t150.5 106
t100 26q66 0 132 -27q-39 -104 -57 -166l-22 -7q-49 75 -144 75q-52 0 -105.5 -43t-120.5 -433h397q20 109 52 357q103 44 157 72l24 -18q-43 -165 -92 -412q194 0 213 3l13 -10l-31 -100h2h1h-4l-9 -1h-34l-25 -1h-27h-27q-47 0 -94 1q-107 -524 -107 -609q0 -46 38 -46
q43 0 160 90l35 27l12 -4l11 -23l-3 -12q-264 -220 -348 -220q-64 0 -64 104q0 62 36 220.5t92 472.5h-397z" />
    <glyph glyph-name="f_f_t. RQD" unicode="fft" horiz-adv-x="1749" 
d="M1357 869q19 104 53 361q102 44 157 72l24 -18q-42 -159 -92 -416q42 -2 72 -2q103 0 143 9l9 -8l-29 -107q-44 0 -217 4q-107 -524 -107 -609q0 -46 38 -46q39 0 159 90l36 27l11 -4l11 -23l-2 -12q-264 -220 -348 -220q-64 0 -64 104q0 57 39.5 236t87.5 457h-401
l-133 -607q-38 -172 -66.5 -267t-80 -190t-115.5 -156t-120 -90t-108 -29q-32 0 -71 19q33 98 47 164l25 6q42 -56 104 -56q96 0 150 122t138 611l81 473h-397l-109 -506l-47 -202q-36 -160 -77.5 -261.5t-100 -180.5t-138.5 -134t-150 -55q-34 0 -71 19q33 98 47 164l25 6
q42 -56 103 -56q99 0 154.5 125.5t152.5 708.5l62 372l-80 1q-51 0 -75 -2l-8 8l7 31l8 8q68 22 168 65l45 227q16 80 44 120t125.5 120t150.5 106t100 26q66 0 132 -27q-39 -104 -57 -166l-22 -7q-49 75 -144 75q-55 0 -107 -45t-122 -435h397l65 303q14 53 156 177.5
t248 124.5q64 0 131 -27q-39 -104 -56 -166l-23 -7q-47 75 -144 75q-72 0 -117 -59t-109 -421h402z" />
    <glyph glyph-name="f_b. RQD" unicode="fb" horiz-adv-x="1544" 
d="M772 1352q-7 -40 -9 -74l-23 -7q-22 75 -112 75q-51 0 -92.5 -33t-64.5 -134.5t-59 -308.5h112q81 0 104 6l6 -6q-24 -73 -31 -98l-9 -7h-203l-118 -547q-65 -303 -127.5 -449t-171 -244.5t-205.5 -98.5q-32 0 -71 19q33 98 47 164l25 6q42 -56 103 -56q91 0 147.5 114.5
t145.5 638.5l77 453h-160l-8 8l8 29l6 6q29 10 172 62q44 236 64.5 303.5t139.5 159.5l79 61q67 52 98.5 66.5t77.5 14.5q39 0 77 -17q-8 -23 -15 -53q127 20 250 67l26 -19q-17 -69 -70 -319l-102 -480q136 181 253 249.5t205 68.5q61 0 89 -47t28 -170q0 -213 -90.5 -395
t-236.5 -286.5t-267 -104.5q-76 0 -140 43t-64 127q0 48 35 228l70 360q7 35 42 233l39 217q20 111 20 132q0 43 -68 43h-29zM1234 849q-117 0 -228.5 -119.5t-152.5 -274.5t-41 -247q0 -154 148 -154q162 0 259 232t97 396q0 113 -23.5 140t-58.5 27z" />
    <glyph glyph-name="f_f_b. RQD" unicode="ffb" horiz-adv-x="2103" 
d="M1317 1351q-7 -42 -9 -73l-23 -7q-22 75 -112 75q-113 0 -150 -142t-68 -341h112q92 0 100 3l6 -8q-10 -29 -25 -86l-9 -7h-203l-111 -514q-69 -320 -129.5 -470t-172 -252.5t-209.5 -102.5q-32 0 -71 19q33 98 47 164l25 6q42 -56 103 -56q91 0 147.5 114.5t145.5 638.5
l77 453h-397l-111 -514q-69 -320 -129.5 -469.5t-173 -252.5t-208.5 -103q-34 0 -71 19q33 98 47 164l25 6q42 -56 103 -56q98 0 154.5 130.5t152.5 703.5l62 372h-155l-8 8l7 24l8 8q73 27 168 66l45 232q16 80 45 120.5t126 120t149.5 105.5t99.5 26q66 0 132 -27
q-39 -104 -57 -166l-22 -7q-49 75 -144 75q-53 0 -90.5 -29t-57.5 -90t-78 -368h397q46 281 72 334.5t131 135.5l79 61q67 52 98.5 66.5t77.5 14.5q39 0 77 -17q-10 -28 -16 -57q148 27 263 71l26 -19q-17 -69 -70 -319l-102 -480q240 318 460 318q58 0 87.5 -48t29.5 -169
q0 -212 -90 -393.5t-236 -287t-270 -105.5q-86 0 -145 46.5t-59 123.5q0 48 35 228l70 360q7 35 42 233l39 217q21 118 21 134q0 20 -12.5 28.5t-59.5 10.5zM1792 849q-117 0 -228.5 -119.5t-152.5 -274.5t-41 -247q0 -154 148 -154q97 0 172.5 87.5t129.5 258.5t54 282
q0 113 -23.5 140t-58.5 27z" />
    <glyph glyph-name="f_h. RQD" unicode="fh" horiz-adv-x="1619" 
d="M1551 180l-2 -11q-249 -199 -323 -199q-49 0 -49 84q0 30 37 191l57 248q59 257 59 295q0 36 -40 36q-91 0 -259.5 -174t-220.5 -447l-37 -198q-122 -25 -139 -33l-13 14q149 565 228 1054l33 204q8 49 8 63q0 40 -71 41l-48 1q-6 -39 -8 -73l-23 -7q-23 75 -112 75
q-56 0 -104.5 -47t-115.5 -430l110 1q84 1 104 6l6 -6q-18 -52 -31 -98l-9 -7h-197l-130 -608q-64 -300 -136 -440t-176 -215.5t-180 -75.5q-33 0 -71 19q32 94 47 164l25 6q42 -56 103 -56q99 0 155 133t134 597l80 476l-155 -1l-8 8l8 22l7 9q119 43 170 77l34 179
q21 113 48.5 159t118.5 115l83 64q101 78 173 78q38 0 76 -17q-9 -29 -16 -57q163 29 272 71l25 -19q-42 -178 -194 -903l7 -2q138 182 287.5 298t265.5 116q55 0 55 -60q0 -38 -31 -160q-133 -525 -133 -600q0 -32 25 -32q31 0 169 101l10 -3z" />
    <glyph glyph-name="f_f_h. RQD" unicode="ffh" horiz-adv-x="2150" 
d="M2082 180l-2 -11q-249 -199 -323 -199q-49 0 -49 84q0 30 37 191l57 248q59 257 59 295q0 36 -40 36q-83 0 -254.5 -167t-225.5 -452l-37 -198q-122 -25 -139 -33l-13 14q149 565 228 1054l33 204q8 49 8 63q0 41 -71 41h-33q-7 -43 -9 -72l-23 -7q-22 75 -112 75
q-40 0 -71 -19t-51.5 -56t-41.5 -142l-54 -266h112q60 0 101 5l5 -11l-25 -85l-9 -7h-203l-110 -508q-67 -309 -120 -459.5t-173 -261t-219 -110.5q-32 0 -71 19q33 98 47 164l25 6q42 -56 103 -56q91 0 147.5 114.5t145.5 638.5l77 453h-397l-110 -508
q-50 -233 -88.5 -364.5t-108.5 -239t-157.5 -167.5t-157.5 -60q-34 0 -71 19q33 98 47 164l25 6q42 -56 103 -56q102 0 157 132.5t150 701.5l62 372l-155 -1l-8 8l6 21l8 8l162 64l52 238q19 86 48.5 125.5t125.5 118t147.5 103.5t98.5 25q66 0 132 -27q-39 -104 -57 -166
l-22 -7q-49 75 -144 75q-66 0 -114.5 -53.5t-112.5 -433.5h397q30 168 46.5 243.5t40.5 115.5t117 111l79 61q105 81 176 81q39 0 77 -17q-7 -22 -15 -56q144 26 257 70l25 -19q-42 -178 -194 -903l7 -4q142 186 290 300t263 114q55 0 55 -60q0 -38 -31 -160
q-133 -525 -133 -600q0 -32 25 -32q31 0 169 101l10 -3z" />
    <glyph glyph-name="f_k. RQD" unicode="fk" horiz-adv-x="1500" 
d="M261 156q-51 -239 -100.5 -362t-122 -208.5t-146.5 -123t-123 -37.5q-33 0 -71 19q32 94 47 164l25 6q42 -56 103 -56q102 0 157 137.5t132 592.5l80 476l-155 -1l-8 8l6 22l7 9q49 15 169 70l37 186q23 114 47 156.5t120 117.5l83 64q101 78 173 78q38 0 76 -17
q-8 -26 -16 -58q147 26 266 72l25 -19q-33 -138 -93 -421l-58 -276q-34 -163 -66 -289q183 261 334 385t249 124q28 0 63 -14l5 -12l-30 -119l-10 -8q-37 11 -77 11q-144 0 -340 -203q59 -185 114 -313.5t85 -174t56 -45.5q28 0 103 46l31 19l11 -3l10 -24l-3 -12
q-209 -154 -251 -154q-38 0 -89.5 107.5t-167.5 438.5q-92 -108 -115 -176.5t-43 -186.5l-24 -142l-136 -36l-17 13l49 190q83 322 178 861l37 209q7 40 7 61q0 41 -71 41h-42q-7 -39 -8 -72l-23 -7q-23 75 -112 75q-85 0 -127 -81.5t-92 -395.5h114q81 0 104 6l6 -6
q-22 -67 -30 -96l-9 -7h-203z" />
    <glyph glyph-name="f_f_k. RQD" unicode="ffk" horiz-adv-x="2038" 
d="M1285 1271q-22 75 -112 75q-45 0 -78 -23.5t-50.5 -62.5t-43.5 -164l-47 -230h114q87 0 104 6l6 -6q-25 -75 -30 -94l-9 -7h-204l-67 -316q-96 -450 -150 -618t-177.5 -286.5t-226.5 -118.5q-32 0 -71 19q33 98 47 164l25 6q42 -56 103 -56q105 0 159.5 144t133.5 609
l77 453h-397l-111 -514q-68 -315 -122 -461.5t-173.5 -255t-215.5 -108.5q-34 0 -71 19q33 98 47 164l25 6q42 -56 103 -56q98 0 154 127.5t153 706.5l62 372l-155 -1l-8 8l2 23l8 8q156 58 174 69l44 231q14 77 42.5 117.5t126 121t151 107t100.5 26.5q66 0 132 -27
q-39 -104 -57 -166l-22 -7q-49 75 -144 75q-56 0 -94 -33.5t-59 -102t-74 -349.5h397q21 134 45.5 233t49.5 135t109 100l79 61q70 54 101 67.5t75 13.5q39 0 77 -17q-7 -20 -15 -57q139 25 259 71l25 -19q-38 -161 -93 -421l-58 -276q-36 -170 -66 -289q371 509 583 509
q28 0 65 -15l4 -7l-32 -129l-5 -3q-50 12 -81 12q-82 0 -161.5 -51t-178.5 -152q60 -186 114.5 -314t84 -173.5t56.5 -45.5q28 0 103 46l31 19l11 -3l10 -24l-3 -12q-209 -154 -251 -154q-61 0 -172 309l-85 237q-85 -105 -109 -160t-49 -203l-24 -142l-136 -36l-17 13
l49 190q80 310 178 861l37 209q7 40 7 61q0 42 -71 42h-35q-7 -42 -9 -73z" />
    <glyph glyph-name="f_j. RQD" unicode="fj" horiz-adv-x="1078" 
d="M365 -558l16 97l17 10q56 -31 81 -31q32 0 56 25.5t55 151.5l133 647q81 393 81 453q0 40 -39 40q-34 0 -160 -72h-214l-105 -491q-51 -243 -87.5 -372t-107.5 -243.5t-162 -173.5t-160 -59q-34 0 -71 19q32 94 47 164l25 6q42 -56 103 -56q98 0 152.5 126.5t135.5 602.5
l81 477l-155 -1l-8 8l6 21l7 9q122 44 169 70l44 233q19 100 82.5 159.5t160.5 135t165 75.5q41 0 86 -19q-28 -132 -35 -177l-23 -8q-31 76 -116 76t-120 -74.5t-96 -407.5h265q91 40 151 70.5t92 30.5q53 0 53 -64q0 -47 -54 -286l-102 -451q-167 -738 -377 -738
q-25 0 -72 17zM951 1216q-36 0 -59 24.5t-23 61.5q0 51 32.5 92.5t82.5 41.5q34 0 54.5 -26.5t20.5 -59.5q0 -53 -31 -93.5t-77 -40.5z" />
    <glyph glyph-name="t_t. RQD" unicode="tt" horiz-adv-x="1238" 
d="M1212 890l-23 -91h-216q-110 -560 -110 -619q0 -46 38 -46q44 0 160 90l35 27l12 -4l11 -23l-3 -12q-137 -119 -226.5 -169.5t-121.5 -50.5q-64 0 -64 104q0 55 30.5 194.5t99.5 506.5l-420 -7q-111 -575 -111 -634q0 -46 38 -46q43 0 160 90l35 27l12 -4l11 -23l-3 -12
q-262 -220 -348 -220q-64 0 -64 104q0 57 33 206.5t101 509.5l-163 -4l-7 8l3 17l8 8q123 43 172 69q19 88 52 345q107 45 157 72l24 -18l-39 -153q-7 -26 -53 -252l415 7q11 20 56 368q107 45 157 72l24 -18l-39 -153q-31 -121 -54 -269q194 0 215 8z" />
    <glyph glyph-name=".notdef" horiz-adv-x="1670" 
d="M1672 818l-4 -72q-64 -24 -207 -81q-74 -29 -239 -99q-81 -44 -270 -135q-52 -33 -153 -90q-7 -3 99 -113l-126 -121l99 -5l-31 -81h-36l18 50l-82 9l-54 -27l-45 -72l-31 13l49 68l45 36l-90 4l-49 -54l-32 9l86 86l103 -9l109 81l-77 117q-34 -16 -59 -9q22 -34 43 -67
l-185 -72l54 -16l-74 -54l-25 5l43 40l-27 14l-79 -21l-16 -38l-27 -4l27 58l54 16l-65 25l-25 -39l-22 9l42 54l111 -29l160 63l-27 70q-36 26 -115 85q-29 23 -72 76q-40 48 -76 73q-79 52 -171 76q-81 21 -230 9l27 36l257 77q104 32 288 90l36 -14q10 -18 36 -58
q25 -33 63.5 -55.5t76.5 -43.5q25 -16 72 -41q196 -14 306 5q26 4 220 67q108 35 297 99zM894 483l-27 11l-54 -38l-65 45l-38 72l-34 -13l54 -90l94 -45zM529 701q0 41 -43 41t-43 -41q0 -40 43 -40t43 40zM505 692q0 -18 -17 -18t-17 18t17 18t17 -18z" />
    <glyph glyph-name="glyph1" horiz-adv-x="0" 
 />
    <glyph glyph-name="glyph2" horiz-adv-x="1536" 
 />
    <glyph glyph-name="space" unicode=" " horiz-adv-x="512" 
 />
    <glyph glyph-name="space" unicode="&#xa0;" horiz-adv-x="512" 
 />
    <glyph glyph-name="exclam" unicode="!" horiz-adv-x="682" 
d="M286 376l-13 10q28 167 64.5 446t61.5 547q91 19 173 50l22 -18q-143 -543 -247 -1001zM157 90q0 55 35 95t84 40q46 0 69.5 -26.5t23.5 -70.5q-3 -64 -28.5 -104.5t-91.5 -41.5q-43 0 -67.5 30t-24.5 78z" />
    <glyph glyph-name="quotedbl" unicode="&#x22;" 
d="M345 1042h-61l125 374q18 53 42 69t50 16q39 0 63.5 -26t24.5 -56q0 -35 -29 -75zM690 1042h-62l126 374q17 53 41.5 69t50.5 16q40 0 64 -26.5t24 -55.5q0 -34 -29 -75z" />
    <glyph glyph-name="quotedbl" unicode="&#x2ba;" 
d="M345 1042h-61l125 374q18 53 42 69t50 16q39 0 63.5 -26t24.5 -56q0 -35 -29 -75zM690 1042h-62l126 374q17 53 41.5 69t50.5 16q40 0 64 -26.5t24 -55.5q0 -34 -29 -75z" />
    <glyph glyph-name="numbersign" unicode="#" horiz-adv-x="980" 
d="M172 0l68 381h-147l24 134h148l76 422h-148l24 134h148l60 334h74l-60 -334h227l60 334h75l-60 -334h147l-24 -134h-147l-76 -422h147l-24 -134h-147l-69 -381h-74l68 381h-227l-69 -381h-74zM339 515h227l76 422h-227z" />
    <glyph glyph-name="dollar" unicode="$" 
d="M331 -240l-7 9q23 98 40 195q-198 5 -318 85l-3 13q29 61 46 274l10 8l34 -1l9 -9q0 -104 6 -169q83 -99 230 -109l89 554q-190 44 -248 113.5t-58 176.5q0 147 107 276.5t316 174.5l17 127l9 9l58 -1l7 -8q-11 -64 -19 -122l24 1q144 0 252 -72l3 -11q-26 -79 -52 -235
l-8 -8l-34 1l-7 9l1 142q-84 79 -194 82l-84 -521q201 -36 271 -105t70 -186q0 -176 -133.5 -318.5t-332.5 -166.5q-17 -100 -29 -200l-9 -8h-63zM571 1266q-128 0 -200.5 -92.5t-72.5 -215.5q0 -150 192 -202zM446 54q125 0 212.5 97.5t87.5 230.5q0 79 -35 133.5
t-178 83.5z" />
    <glyph glyph-name="percent" unicode="%" horiz-adv-x="1821" 
d="M1372 1466l-881 -1525l-11 -8h-75l-5 8l879 1526l11 8h77zM100 1043q0 92 42.5 181.5t134.5 148.5t200 59q127 0 210 -83t83 -205q0 -103 -52 -197.5t-143.5 -145t-178.5 -50.5q-85 0 -156 44.5t-105.5 113t-34.5 134.5zM247 1006q0 -111 45 -159t103 -48
q99 0 164.5 125.5t65.5 269.5q0 85 -36.5 137.5t-103.5 52.5q-47 0 -90.5 -26.5t-79.5 -88t-52 -136t-16 -127.5zM1015 261q0 95 45 185.5t136.5 147t195.5 56.5q124 0 208.5 -81t84.5 -210q0 -100 -52 -194.5t-143 -145t-178 -50.5t-158.5 45t-105 113.5t-33.5 133.5z
M1163 223q0 -109 44 -158t104 -49q43 0 80.5 26t71.5 77.5t55.5 135t21.5 157.5q0 85 -36.5 137.5t-103.5 52.5q-50 0 -94 -28.5t-77.5 -89t-49.5 -131.5t-16 -130z" />
    <glyph glyph-name="ampersand" unicode="&#x26;" horiz-adv-x="1593" 
d="M1462 1063q46 -16 73 -56.5t27 -97.5q0 -50 -20 -97.5t-51.5 -77.5t-85 -51t-101 -29.5t-155.5 -21.5q79 -21 112 -68t33 -104q0 -112 -91.5 -221t-254.5 -189.5t-353 -80.5q-221 0 -357 103.5t-136 283.5q0 104 43.5 186t129.5 138.5t252 112.5q-72 32 -101.5 63.5
t-43 70t-13.5 75.5q0 143 162 274t322 131q115 0 190 -49l4 -12l-47 -222l-10 -8l-29 -1l-9 8l-2 116q-69 63 -179 63q-109 0 -184 -66t-75 -172q0 -101 71 -157t176 -56q9 0 26 1l7 -10l-36 -92q-49 2 -79 2q-113 0 -204.5 -39.5t-146.5 -127.5t-55 -187q0 -140 109.5 -237
t294.5 -97q145 0 251 49.5t165 131t59 166.5q0 83 -49 130.5t-126 47.5q-47 0 -81.5 -19t-48 -44t-24.5 -72l-7 -27l-10 -7l-30 4l-7 8l15 196q34 46 116 70.5t250 46.5q129 17 200 35.5t108 60t37 92.5q0 64 -68 94v13l26 21z" />
    <glyph glyph-name="quotesingle" unicode="'" horiz-adv-x="682" 
d="M347 1042h-61l125 374q18 53 42 69t50 16q39 0 63.5 -26t24.5 -56q0 -35 -29 -75z" />
    <glyph glyph-name="quotesingle" unicode="&#x2b9;" horiz-adv-x="682" 
d="M347 1042h-61l125 374q18 53 42 69t50 16q39 0 63.5 -26t24.5 -56q0 -35 -29 -75z" />
    <glyph glyph-name="parenleft" unicode="(" horiz-adv-x="682" 
d="M363 -209q-98 134 -174 323t-76 412q0 291 149.5 535t364.5 425h12l32 -34v-11q-220 -235 -316.5 -472.5t-96.5 -544.5q0 -127 18 -231t48 -189.5t81 -183.5l-3 -11l-28 -20z" />
    <glyph glyph-name="parenright" unicode=")" horiz-adv-x="682" 
d="M331 1484q107 -150 178.5 -334t71.5 -400q0 -289 -148 -533.5t-367 -427.5h-11l-32 34v11q213 226 313 465t100 552q0 163 -32 302.5t-115 301.5l2 11l28 20z" />
    <glyph glyph-name="asterisk" unicode="*" horiz-adv-x="797" 
d="M214 849q-14 41 -52 115l8 14q26 12 109.5 46.5t149.5 66.5q-44 23 -136 67.5t-126 58.5l-8 20q1 1 32 56l34 58l21 -1q100 -111 211 -213q17 94 26 158.5t19 128.5l18 11q65 -21 126 -35l3 -18q-120 -214 -144 -265q28 3 284 48l12 -7q2 -37 16 -119l-15 -11
q-194 29 -294 36q34 -72 68 -129q62 -106 64 -114l-4 -12q-102 -49 -120 -62l-15 11q-22 162 -45 287q-75 -65 -158 -143l-61 -56z" />
    <glyph glyph-name="plus" unicode="+" 
d="M994 581h-429v-429h-106v429h-429v102h429v429h106v-429h429v-102z" />
    <glyph glyph-name="comma" unicode="," horiz-adv-x="512" 
d="M-31 -299l-16 19q46 51 101.5 168.5t90.5 293.5q126 31 186 59l20 -27q-43 -102 -142 -258t-171 -229z" />
    <glyph glyph-name="hyphen" unicode="-" horiz-adv-x="682" 
d="M38 445l42 118h544l-42 -118h-544z" />
    <glyph glyph-name="hyphen" unicode="&#x2011;" horiz-adv-x="682" 
d="M38 445l42 118h544l-42 -118h-544z" />
    <glyph glyph-name="hyphen" unicode="&#x2010;" horiz-adv-x="682" 
d="M38 445l42 118h544l-42 -118h-544z" />
    <glyph glyph-name="hyphen" unicode="&#xad;" horiz-adv-x="682" 
d="M38 445l42 118h544l-42 -118h-544z" />
    <glyph glyph-name="period" unicode="." horiz-adv-x="512" 
d="M106 90q0 55 35 95t84 40q46 0 69.5 -26.5t23.5 -70.5q0 -58 -33 -102t-87 -44q-43 0 -67.5 30t-24.5 78z" />
    <glyph glyph-name="slash" unicode="/" horiz-adv-x="607" 
d="M7 -17l502 1467l11 7h88l5 -8l-502 -1466l-11 -9h-87z" />
    <glyph glyph-name="zero" unicode="0" 
d="M84 453q0 230 68.5 469.5t198 360.5t284.5 121q102 0 181 -53t122.5 -152t43.5 -273q0 -257 -74 -487.5t-198.5 -350.5t-280.5 -120t-250.5 121.5t-94.5 363.5zM236 349q0 -87 19.5 -163t69 -116.5t118.5 -40.5q82 0 146.5 62t120.5 209.5t86.5 364t30.5 375.5
q0 104 -22.5 167.5t-71.5 100t-109 36.5q-102 0 -185 -98.5t-143 -396.5t-60 -500z" />
    <glyph glyph-name="one" unicode="1" 
d="M139 -8l-8 8l5 43l9 9q25 3 72 7q64 3 99 12q50 13 67.5 52.5t35.5 140.5l167 1006q-157 -59 -381 -166l-13 9l21 120q112 20 331 93q81 27 207 85l29 -24q-45 -196 -97 -495l-57 -326q-28 -159 -42 -263q-20 -153 -20 -166q0 -44 33 -59t144 -22q56 -3 80 -6l6 -8
l-3 -42l-9 -8q-180 8 -359 8q-224 0 -317 -8z" />
    <glyph glyph-name="two" unicode="2" 
d="M12 -8l-7 8l2 31q431 448 560 649.5t129 363.5q0 55 -25 110t-81.5 83.5t-118.5 28.5q-175 0 -289 -207l-11 -4l-29 12l-4 12l119 230q120 87 270 87q147 0 244 -84.5t97 -233.5q0 -97 -37.5 -188t-117 -192t-277.5 -304l-144 -149q-84 -92 -95 -102l4 -13h400
q147 0 244 18l13 -14l-33 -134l-9 -8q-224 11 -390 11l-259 -6q-116 -2 -155 -5z" />
    <glyph glyph-name="three" unicode="3" 
d="M6 56l54 278l10 8l33 -5l6 -10q-7 -52 -7 -87q0 -95 69.5 -150.5t174.5 -55.5q109 0 189.5 60.5t119 162.5t38.5 201q0 76 -33 137.5t-98 92.5t-142 31q-60 0 -162 -25l-8 8l34 95q79 -5 97 -5q75 0 149.5 37.5t117 108t42.5 149.5q0 81 -51 134t-145 53
q-87 0 -139.5 -34.5t-123.5 -126.5l-11 -2l-25 17l-2 12l116 194q104 62 238 62q141 0 222 -74t81 -192q0 -95 -56.5 -177.5t-231.5 -170.5v-5q133 -19 219 -94.5t86 -220.5q0 -130 -69.5 -243.5t-204.5 -184.5t-289 -71q-161 0 -298 93z" />
    <glyph glyph-name="four" unicode="4" 
d="M203 -8l-8 8l5 44l9 8q169 9 208 17q27 6 41 31t36 136l30 152l-386 -1q-39 1 -131 -2l-8 9l4 48q119 183 367 516q227 303 325 420q123 28 137 33l16 -10l-27 -136q-15 -75 -34 -183l-103 -582q208 0 258 7l9 -13l-31 -105l-10 -8q-47 4 -142 4q-65 0 -103 1l-22 -137
q-14 -87 -14 -125q0 -51 57 -59q22 -4 101 -9q38 -2 77 -7l6 -8l-4 -41l-9 -8q-121 8 -326 8q-102 0 -328 -8zM544 500l132 742l-8 1q-119 -162 -305 -412q-89 -128 -222 -318l7 -9q79 -6 213 -5z" />
    <glyph glyph-name="five" unicode="5" 
d="M10 68q20 77 56 270l10 7l35 -6l5 -8q-6 -28 -6 -60q0 -123 73.5 -179t178.5 -56q106 0 186 62t120.5 178t40.5 220q0 55 -17 107t-47.5 85.5t-80.5 53.5t-104 20q-48 0 -94 -15t-76 -36.5t-77 -67.5l-44 21q60 257 131 695l16 13q227 -16 388 -16q129 0 261 8l13 -18
l-72 -117q-113 -10 -262 -10q-150 0 -282 8l-102 -468q119 94 276 94q98 0 180.5 -40t124 -115.5t41.5 -176.5q0 -110 -46.5 -221t-120 -177.5t-172 -113t-219.5 -46.5q-188 0 -314 105z" />
    <glyph glyph-name="six" unicode="6" 
d="M901 1261l-16 -2q-61 36 -125 36q-175 0 -304.5 -167.5t-202.5 -512.5q83 106 169 159t187 53q81 0 146.5 -35t101 -105.5t35.5 -166.5q0 -97 -31 -189.5t-76 -151.5t-125 -113.5t-136 -78.5t-123 -24q-144 0 -232 104t-88 306q0 186 63.5 386t191 352.5t252 218.5
t243.5 66q48 0 103 -19zM236 333q0 -139 64.5 -207t157.5 -68q86 0 151 58t97 157t32 190q0 118 -60 185t-151 67q-81 0 -153.5 -52t-105 -138t-32.5 -192z" />
    <glyph glyph-name="seven" unicode="7" 
d="M99 -8l-12 22q48 78 110.5 171.5t301.5 462.5l278 434q39 65 81 138h-480q-69 0 -214 -11l-12 10q20 85 28 151l7 8q69 -7 273 -11t321 -4q87 0 210 4l9 -8l1 -63q-123 -174 -370 -590.5t-363 -704.5l-11 -8q-30 5 -73 5t-85 -6z" />
    <glyph glyph-name="eight" unicode="8" 
d="M421 700q-106 54 -154 120.5t-48 156.5q0 160 143 289t308 129q122 0 192.5 -70.5t70.5 -177.5q0 -105 -61.5 -194.5t-242.5 -201.5q129 -62 177.5 -132.5t48.5 -175.5q0 -95 -33.5 -184.5t-104 -154.5t-162.5 -101.5t-186 -36.5q-87 0 -159.5 30.5t-114.5 102t-42 157.5
q0 125 84.5 235t283.5 209zM571 781q63 39 112.5 86.5t81 114.5t31.5 129q0 92 -55 145.5t-142 53.5q-63 0 -121 -33t-92 -92.5t-34 -135.5q0 -94 53 -153.5t166 -114.5zM478 668q-125 -54 -201.5 -157t-76.5 -223q0 -109 63.5 -173.5t161.5 -64.5q126 0 202 98t76 230
q0 94 -47 157.5t-178 132.5z" />
    <glyph glyph-name="nine" unicode="9" 
d="M107 5q-14 60 -41 140q-17 50 -20 61l5 10l28 10l10 -5q52 -94 107 -124.5t124 -30.5q170 0 278 180t162 496q-65 -87 -147.5 -143t-185.5 -56q-88 0 -160.5 41t-108 120t-35.5 174q0 86 29 174.5t87 155.5t161 128.5t212 61.5q100 0 172.5 -51.5t109 -142t36.5 -237.5
q0 -158 -28.5 -292.5t-96.5 -277.5t-160.5 -238.5t-188 -143.5t-189.5 -48q-91 0 -160 38zM279 937q0 -80 24.5 -147t77.5 -101.5t119 -34.5q110 0 192.5 90t82.5 268q0 142 -63 218t-162 76q-116 0 -193.5 -105t-77.5 -264z" />
    <glyph glyph-name="colon" unicode=":" horiz-adv-x="512" 
d="M210 834q0 54 33.5 94.5t87.5 40.5q42 0 66.5 -25t24.5 -72q0 -56 -32.5 -101t-87.5 -45q-41 0 -66.5 29.5t-25.5 78.5zM92 90q0 55 35 95t84 40q46 0 69.5 -26.5t23.5 -70.5q0 -58 -33 -102t-87 -44q-43 0 -67.5 30t-24.5 78z" />
    <glyph glyph-name="semicolon" unicode=";" horiz-adv-x="512" 
d="M187 834q0 60 36.5 97.5t84.5 37.5q43 0 67 -26t24 -70q0 -58 -33 -102.5t-87 -44.5q-45 0 -68.5 31.5t-23.5 76.5zM-51 -299l-16 19q46 51 101.5 168.5t90.5 293.5q126 31 186 59l20 -27q-43 -102 -142 -258t-171 -229z" />
    <glyph glyph-name="less" unicode="&#x3c;" 
d="M994 122l-964 465v90l964 465v-115l-828 -395l828 -395v-115z" />
    <glyph glyph-name="equal" unicode="=" 
d="M994 733h-964v102h964v-102zM994 429h-964v102h964v-102z" />
    <glyph glyph-name="greater" unicode="&#x3e;" 
d="M994 587l-964 -465v115l828 395l-828 395v115l964 -465v-90z" />
    <glyph glyph-name="question" unicode="?" 
d="M446 383q-87 42 -87 130q0 64 38 126t143 176q74 80 111 126.5t57.5 98t20.5 92.5q0 72 -53 123t-132 51q-43 0 -90 -14t-80 -54.5t-65 -92.5l-11 -5l-28 8l-5 11q50 111 79 190q108 77 231 77q69 0 134.5 -23.5t105.5 -58t60.5 -85t20.5 -104.5q0 -48 -16.5 -98.5
t-49.5 -98.5t-77 -92t-149 -140q-109 -102 -140 -143t-31 -86q0 -60 56 -92l-2 -10zM263 90q0 55 35 95t84 40q46 0 69.5 -26.5t23.5 -70.5q0 -58 -33 -102t-87 -44q-43 0 -67.5 30t-24.5 78z" />
    <glyph glyph-name="at" unicode="@" horiz-adv-x="1399" 
d="M1144 183l8 -8q-12 -23 -15 -48q-205 -169 -486 -169q-264 0 -433.5 167t-169.5 426q0 294 212.5 495.5t520.5 201.5q247 0 408.5 -134.5t161.5 -355.5q0 -107 -35 -196t-91 -161t-122.5 -109t-134.5 -37q-60 0 -103.5 33t-43.5 96q0 13 2 33l-11 2q-45 -76 -100 -114.5
t-132 -38.5q-104 0 -155 69t-51 188q0 174 106.5 323.5t273.5 149.5q43 0 73 -11t48.5 -30t34.5 -50l13 70l106 23l11 -11q-26 -97 -71.5 -307.5t-45.5 -268.5q0 -49 22.5 -73.5t61.5 -24.5q64 0 123 55t98.5 157.5t39.5 230.5q0 227 -140 335.5t-341 108.5
q-163 0 -310.5 -83.5t-230.5 -234t-83 -332.5q0 -152 60.5 -275.5t178 -192.5t279.5 -69q138 0 261 49t202 121zM511 524q0 -107 29.5 -152t84.5 -45q34 0 61.5 15t55.5 48.5t58 99t53.5 167t23.5 158.5q0 59 -28.5 96.5t-83.5 37.5q-104 0 -179 -144t-75 -281z" />
    <glyph glyph-name="A" unicode="A" horiz-adv-x="1479" 
d="M-14 -8l-7 8l7 44l9 7l58 9q25 4 34 9t19 17t45 64t92 143l22 32l692 1095h94l168 -1208q14 -101 25 -122t33 -26t114 -13l6 -8l-8 -43l-9 -8q-140 8 -241 8q-68 0 -239 -8l-7 8l7 43l9 8q124 5 141.5 15t17.5 43q0 8 -14 154l-39 296h-499l-141 -234q-20 -33 -63.5 -112
t-50 -95.5t-6.5 -26.5q0 -17 19.5 -25.5t146.5 -13.5l6 -8l-7 -44l-9 -8q-116 8 -218 8q-84 0 -207 -8zM566 637h440l-76 581zM1008 1477zM684 -109z" />
    <glyph glyph-name="B" unicode="B" horiz-adv-x="1251" 
d="M81 -7l-8 7l5 43l8 8q56 10 65 15t19.5 19t23.5 64t66 335l61 342l36 219q33 223 33 254q0 26 -10.5 35.5t-41.5 13t-109 6.5l-7 9l5 42l10 8q91 -8 269 -8l252 4q209 0 298.5 -69.5t89.5 -197.5q0 -71 -27.5 -134t-84 -118.5t-114.5 -86.5t-142 -62q135 -20 196.5 -45
t101.5 -87.5t40 -148.5q0 -77 -33 -153t-93 -134.5t-148.5 -107t-144.5 -60.5t-158 -12q-68 0 -199 4q-87 3 -129 3q-66 0 -130 -7zM463 767q68 -4 108 -4q98 0 162.5 19.5t120.5 65.5t89 116t33 150q0 114 -71.5 168t-194.5 54q-68 0 -145 -13q-60 -279 -102 -556zM356 94
q95 -25 225 -25q117 0 192 41.5t118 130.5t43 192q0 83 -32 141.5t-101 87.5t-216 29q-68 0 -136 -7l-28 -164l-41 -250q-19 -115 -24 -176z" />
    <glyph glyph-name="C" unicode="C" horiz-adv-x="1366" 
d="M1230 208l10 -29l-30 -73q-207 -148 -480 -148q-200 0 -338.5 75.5t-205 213t-66.5 325.5q0 157 42.5 292t120 235t185 177t217 118t253.5 41q226 0 413 -78l4 -11q-30 -87 -50 -281l-8 -8h-42l-8 8q0 132 -3 156q-125 108 -360 108q-94 0 -182.5 -23t-157 -75.5
t-122 -142.5t-87.5 -209.5t-34 -266.5q0 -272 133.5 -409t360.5 -137q222 0 435 142z" />
    <glyph glyph-name="D" unicode="D" horiz-adv-x="1593" 
d="M81 -7l-8 7l5 43l8 8q56 10 65 15t19.5 19t23.5 64t66 335l61 342l36 219q33 223 33 254q0 26 -10.5 35.5t-41.5 13t-109 6.5l-7 9l5 42l10 8q96 -7 252 -7l381 6q182 0 289 -25t190 -86t129.5 -169t46.5 -253q0 -136 -39.5 -264.5t-117 -241.5t-178.5 -193.5
t-182.5 -117t-177.5 -54t-224 -17.5q-88 0 -198 5q-93 4 -181 4q-83 0 -146 -7zM365 112q182 -32 351 -32q151 0 259 58t190.5 165.5t128.5 260t46 294.5q0 99 -27 188.5t-98 161.5t-182 95.5t-249 23.5q-108 0 -217 -11l-73 -398l-85 -496q-36 -210 -44 -310z" />
    <glyph glyph-name="E" unicode="E" horiz-adv-x="1251" 
d="M79 -8l-7 8l3 43l10 8q69 8 81 14q7 4 12 11q15 20 28 73q12 47 76 396l80 455q43 260 43 306q0 19 -9 28t-44 13t-108 7l-6 8l5 43l9 8q97 -8 208 -8q526 0 696 8l8 -8q-3 -23 -18 -124l-19 -174l-8 -8h-35l-8 8q-10 152 -13.5 168.5t-18 26.5t-98 17.5t-170.5 7.5
q-119 0 -194 -9q-40 -173 -103 -550q100 -3 178 -3q136 0 333 13l7 -10l-38 -95q-233 11 -357 11q-48 0 -138 -2l-61 -365q-27 -158 -34 -223q138 -12 268 -12q127 0 215.5 7t107.5 15.5t30.5 29t31.5 97.5q14 54 25 87l9 8h42l7 -8q-14 -44 -29.5 -156.5t-18.5 -160.5
l-13 -9l-696 8q-174 0 -269 -8zM727 1477zM632 -109z" />
    <glyph glyph-name="F" unicode="F" horiz-adv-x="1138" 
d="M29 -8l-7 8l3 43l10 8q120 2 136.5 31t69.5 315l65 355l59 346q27 158 27 207q0 17 -18 32t-143 17l-7 8l5 43l9 8q26 0 74 -2l195 -6l609 8l10 -9q-25 -139 -33 -299l-8 -8h-38l-8 8q0 148 -22.5 184t-306.5 36q-74 0 -147 -6q-23 -92 -53 -271l-59 -351l226 -3
q100 0 293 19l10 -11l-42 -102q-270 11 -329 11q-87 0 -173 -5q-73 -421 -73 -479q-6 -43 19.5 -54.5t171.5 -23.5l8 -8l-5 -41l-9 -8q-206 8 -297 8q-99 0 -222 -8z" />
    <glyph glyph-name="G" unicode="G" horiz-adv-x="1479" 
d="M1263 87l-9 -15q-34 -3 -124 -34q-137 -46 -211.5 -62.5t-171.5 -16.5q-210 0 -351.5 73t-208.5 207t-67 305q0 191 65 363.5t195 292.5t274.5 177.5t318.5 57.5q212 0 408 -79l4 -11q-36 -108 -58 -284l-8 -8h-42l-8 8q0 73 -7 171q-53 45 -154 72t-206 27
q-172 0 -307.5 -81t-214 -263t-78.5 -395q0 -120 29 -224.5t103.5 -181t169.5 -105t207 -28.5q165 0 279 65l37 196q15 85 15 114q0 26 -16 39.5t-79 17.5l-136 11l-8 8l6 44l10 8l35 -1q176 -6 229 -6q112 0 239 3l7 -8l-4 -39l-8 -9q-62 -11 -78.5 -18t-23 -18t-17.5 -61
l-12 -57q-8 -39 -19 -114t-11 -108q0 -15 7 -33z" />
    <glyph glyph-name="H" unicode="H" horiz-adv-x="1593" 
d="M465 784l476 -4q158 0 279 4q80 442 80 521q0 17 -18 32t-143 17l-6 8l4 43l10 8l279 -8q95 0 205 8l8 -8l-4 -43l-9 -8q-81 -4 -107 -8t-35 -29t-47 -208.5t-66 -353.5l-67 -400q-37 -221 -37 -260q0 -18 20.5 -28.5t142.5 -15.5l6 -8l-5 -43l-9 -8l-262 8
q-105 0 -223 -8l-7 8l4 43l9 8q51 1 124 18q18 15 32.5 73.5t52.5 268.5l52 286l-396 4q-37 0 -267 -5l-92 -2q-93 -535 -93 -598q0 -18 20.5 -29t142.5 -16l6 -8l-5 -43l-9 -8l-263 8q-104 0 -222 -8l-7 8l3 43l10 8q86 5 109.5 10.5t38.5 51t58 283.5l65 357l59 347
q27 159 27 204q0 20 -18 33t-143 17l-7 8l5 43l9 8l280 -8q94 0 205 8l7 -8l-3 -43l-9 -8q-98 -3 -120.5 -13.5t-34.5 -68.5l-36 -174q-9 -45 -59 -314z" />
    <glyph glyph-name="I" unicode="I" horiz-adv-x="682" 
d="M525 43l-5 -43l-9 -8q-4 0 -64 2q-157 6 -199 6q-103 0 -222 -8l-7 8l3 43l10 8q89 5 107 10q10 3 15 7t10 11q12 19 22 53q11 42 52 265l65 355l59 346q27 170 27 207q0 27 -22.5 35.5t-138.5 13.5l-7 8l5 43l9 8q5 0 74 -2q158 -6 206 -6q95 0 205 8l7 -8l-3 -43l-9 -8
q-105 -6 -120 -12q-8 -4 -15 -12t-15 -37q-25 -94 -81 -403l-81 -470q-47 -286 -47 -324q0 -17 10 -25.5t48 -12.5t105 -7zM487 1477zM252 -109z" />
    <glyph glyph-name="J" unicode="J" horiz-adv-x="682" 
d="M206 1354l-6 8l5 43l9 8q26 0 89 -2l206 -6q90 0 205 8l7 -8l-3 -43l-9 -8q-118 -5 -132 -17.5t-51 -207.5t-64 -371l-105 -680q-42 -270 -141 -387t-203 -117q-34 0 -77 19l-4 44l8 9q25 -10 50 -10q85 0 128.5 97.5t104.5 500.5l139 904q21 137 21 167q0 22 -26.5 34.5
t-150.5 14.5z" />
    <glyph glyph-name="K" unicode="K" horiz-adv-x="1366" 
d="M253 1405l9 8l280 -8q95 0 205 8l7 -8l-3 -43l-9 -8q-102 -6 -119.5 -12t-31.5 -50.5t-54 -263.5l-57 -313q152 113 353 318l240 245q37 39 44 57t8 70l8 8q68 -7 132 -7q47 0 121 7l8 -8l-4 -43l-8 -8q-61 -1 -89.5 -15t-97.5 -79l-548 -516l446 -548
q76 -93 106.5 -114.5t113.5 -29.5l6 -8l-4 -44l-9 -8q-73 8 -133 8q-38 0 -133 -8q-237 341 -564 698q-93 -531 -93 -594q0 -18 20.5 -29t142.5 -16l6 -8l-5 -43l-9 -8l-263 8q-103 0 -222 -8l-7 8l3 43l10 8q120 2 136.5 31t69.5 315l65 355l59 346q27 158 27 207
q0 17 -18 32t-143 17l-7 8z" />
    <glyph glyph-name="L" unicode="L" horiz-adv-x="1139" 
d="M56 -7l-8 7l5 43l8 8q56 10 65 15t19.5 19t23.5 64t66 335l61 342l36 219q33 223 33 254q0 26 -10.5 35.5t-41.5 13t-109 6.5l-7 9l5 42l10 8q122 -8 298 -8q132 0 207 8l8 -8l-5 -43l-8 -9q-122 -10 -134.5 -14t-20 -11.5t-12.5 -23.5q-15 -41 -59 -282l-120 -705
q-24 -152 -27 -228q112 -12 208 -12q127 0 202 3.5t119 11.5t54.5 15.5t18.5 20.5t25 70l37 129l9 8h43l8 -9q-38 -235 -47 -325l-9 -8l-353 4l-461 3q-69 0 -137 -7z" />
    <glyph glyph-name="M" unicode="M" horiz-adv-x="1933" 
d="M-24 -8l-8 8l4 43l9 8q86 9 103 18q11 5 18 14q19 25 49 117q64 195 127 419l125 449q46 168 46 201q0 40 -36.5 61t-153.5 24l-8 8l4 43l9 8q102 -5 183 -5q79 0 151 5l306 -1180l471 814q88 153 197 366q120 -8 170 -8q57 0 164 8l7 -8l-4 -43l-9 -8l-64 -8
q-51 -5 -65 -13.5t-21 -24t-13.5 -67t-20 -187t-20.5 -234.5l-29 -402q-15 -211 -15 -271q0 -59 29 -74.5t146 -21.5l9 -9l-5 -42l-9 -8q-96 10 -253 10q-136 0 -270 -10l-7 8l3 43l9 8q136 1 161 27t36 177l66 930q-51 -74 -282 -470t-348 -617l-74 -136h-46l-304 1168
q-265 -916 -265 -1016q0 -26 12.5 -38.5t39 -16.5t117.5 -8l7 -8l-3 -43l-9 -8l-36 2q-135 6 -205 6q-63 0 -195 -8z" />
    <glyph glyph-name="N" unicode="N" horiz-adv-x="1593" 
d="M21 -8l-8 8l4 44l9 8q88 4 111 17.5t46.5 91t103.5 521.5l96 566q-42 67 -82.5 85t-138.5 21l-6 8l3 43l9 8q73 -7 179 -7q72 0 142 7q10 -21 64 -119l73 -131l560 -950l155 923l16 121q4 30 4 38q0 28 -18.5 38.5t-92.5 16.5l-49 4l-8 8l4 43l8 8q69 -3 214 -3
q150 0 211 3l7 -8l-3 -43l-8 -8q-123 -7 -135.5 -28.5t-61.5 -267.5l-72 -365l-66 -381q-27 -156 -49 -339h-102q-10 21 -53 100l-63 112l-569 966l-99 -541l-39 -255q-29 -190 -29 -231q0 -42 24 -56t110 -15q14 0 36 -2l7 -7l-4 -43l-9 -9q-107 8 -218 8q-86 0 -213 -8z
" />
    <glyph glyph-name="O" unicode="O" horiz-adv-x="1593" 
d="M120 542q0 142 40.5 297t147.5 297.5t268 223t371 80.5q178 0 307 -59.5t203.5 -184.5t74.5 -318q0 -260 -124 -486t-315 -329.5t-408 -103.5q-117 0 -223 34.5t-186 113t-118 191.5t-38 244zM299 553q0 -159 46.5 -271.5t152 -173.5t255.5 -61q188 0 318 95.5
t205.5 304.5t75.5 416q0 115 -26 202.5t-87 157t-150.5 103.5t-196.5 34q-176 0 -306 -87.5t-208.5 -288.5t-78.5 -431zM917 1477zM682 -109z" />
    <glyph glyph-name="P" unicode="P" horiz-adv-x="1251" 
d="M40 -8l-7 8l3 43l10 8q89 5 107 10q10 3 15 7t10 11q12 19 22 53q11 42 52 265l65 355l59 346q27 170 27 207q0 27 -22.5 35.5t-138.5 13.5l-7 8l5 43l9 8q78 -8 239 -8q95 0 191 3q128 4 169 4q208 0 285.5 -88.5t77.5 -213.5q0 -115 -56.5 -236.5t-169.5 -203
t-254 -81.5q-96 0 -181 48v47l11 8q66 -33 140 -33q89 0 165.5 51t120.5 145t44 202q0 149 -77.5 214t-216.5 65q-65 0 -155 -18q-4 -27 -32 -166q-18 -92 -45 -252l-43 -234q-15 -73 -38 -216l-34 -210q-11 -68 -12.5 -86.5t-1.5 -28.5q0 -40 26.5 -53.5t157.5 -20.5l7 -8
l-6 -43l-9 -8q-107 8 -265 8q-125 0 -247 -8z" />
    <glyph glyph-name="Q" unicode="Q" horiz-adv-x="1593" 
d="M1412 -122h33l9 -9q-9 -125 -69.5 -202t-157.5 -77q-46 0 -95 13.5t-107.5 40t-180.5 91.5q-192 101 -249.5 125t-105.5 24q-54 0 -89 -22t-56.5 -70t-21.5 -114v-13l-9 -9l-34 20l-6 10q-1 18 -1 27q0 104 65 181.5t181 77.5q11 0 36 -1q-212 37 -323 187t-111 384
q0 236 96.5 444.5t285 331t445.5 122.5q178 0 307 -59.5t203.5 -184.5t74.5 -318q0 -260 -124 -486t-315 -329.5t-406 -103.5q-45 0 -91 5q39 -9 114 -43q203 -91 351.5 -148t211.5 -57q37 0 59.5 14.5t41 45t29.5 93.5zM299 553q0 -159 46.5 -271.5t152 -173.5t255.5 -61
q188 0 318 95.5t205.5 304.5t75.5 416q0 115 -26 202.5t-87 157t-150.5 103.5t-196.5 34q-176 0 -306 -87.5t-208.5 -288.5t-78.5 -431z" />
    <glyph glyph-name="R" unicode="R" horiz-adv-x="1366" 
d="M582 1318l-120 -652l-72 -426q-14 -86 -14 -115q0 -54 71 -67q3 -1 113 -7l7 -8l-6 -43l-9 -8q-107 8 -265 8q-125 0 -247 -8l-7 8l3 43l10 8q120 2 136.5 31t69.5 315l65 355l59 346q27 158 27 207q0 17 -18 32t-143 17l-7 8l5 43l9 8q78 -8 239 -8l332 7
q196 0 284.5 -75.5t88.5 -196.5q0 -147 -109 -261t-315 -159q16 -23 54 -85q65 -107 207 -316.5t180.5 -238.5t89.5 -29l6 -8l-3 -43l-8 -8q-84 6 -123 6q-5 0 -136 -6q-3 3 -81 134l-63 106q-30 51 -86 135l-199 300l-58 79l10 24l83 -4q173 0 273.5 104.5t100.5 236.5
q0 229 -279 229q-68 0 -155 -18z" />
    <glyph glyph-name="S" unicode="S" horiz-adv-x="1138" 
d="M107 46q35 132 49 292l10 9h42l7 -8l4 -192q74 -59 141.5 -75.5t127.5 -16.5q179 0 268 102.5t89 233.5q0 67 -27 114t-71.5 70t-164.5 50q-138 31 -204 65t-102 101.5t-36 164.5q0 142 79 251.5t200 168t270 58.5q146 0 250 -62l4 -12q-24 -98 -45 -261l-8 -8h-44l-8 8
v147q-78 92 -232 92q-91 0 -164.5 -38.5t-114.5 -112t-41 -160.5q0 -77 30.5 -128.5t84 -75.5t182.5 -54q106 -24 150.5 -40t86 -52.5t63.5 -88t22 -120.5q0 -144 -87.5 -259t-210 -183.5t-292.5 -68.5q-163 0 -304 77z" />
    <glyph glyph-name="T" unicode="T" horiz-adv-x="1252" 
d="M276 -8l-7 8l4 44l8 7q120 9 141.5 17.5t29 18.5t16.5 41.5t51 241.5t86 477.5t66 469.5q-330 0 -372.5 -16t-84.5 -216l-9 -8h-40l-8 8q31 254 33 318l10 10l73 -5q16 -1 68 -2l418 -8l503 9q9 0 68 6l9 -10q-26 -98 -52 -317l-10 -9h-40l-8 9q1 17 3 122
q-1 66 -17 87.5t-373 21.5q-10 -43 -43 -230l-66 -371q-12 -67 -50.5 -312t-38.5 -294q0 -27 20 -40t167 -18l8 -9l-4 -43l-9 -8q-168 8 -271 8q-150 0 -279 -8z" />
    <glyph glyph-name="U" unicode="U" horiz-adv-x="1593" 
d="M1448 41l-7 -41l-9 -8q-91 8 -204 8q-77 0 -143 -8l-7 8l50 247q-92 -109 -235.5 -196t-314.5 -87q-110 0 -198 42t-129 115t-41 159q0 58 14.5 154t48.5 284q90 491 90 573q0 33 -17.5 43.5t-45.5 14t-98 6.5l-8 8l4 42l9 8q112 -5 170 -5q80 0 185 5l-45 -219
q-20 -99 -50 -268l-52 -290q-22 -122 -31 -187t-11 -92t-2 -50q0 -115 86 -172t200 -57q109 0 239.5 68t251.5 214l113 693q33 202 33 246q0 32 -23 41t-146 15l-8 8l4 42l9 8q119 -7 271 -7q109 0 227 7l7 -8l-4 -42l-9 -8q-100 -5 -116 -12q-10 -4 -18.5 -14t-18.5 -49
q-26 -93 -78 -383l-79 -469q-47 -296 -47 -326q0 -23 9.5 -31.5t51 -13.5t114.5 -7zM877 1477zM642 -109z" />
    <glyph glyph-name="V" unicode="V" horiz-adv-x="1347" 
d="M462 -16q-8 80 -45 344l-114 784q-27 183 -38.5 212t-146.5 30l-7 8l4 43l8 8q101 -7 224 -7q117 0 265 7l7 -8l-3 -44l-8 -7l-67 -1q-52 -1 -72 -11t-20 -47q0 -78 17 -247.5t125 -841.5q342 557 491 819.5t149 290.5q0 32 -80 38h-101l-7 8l4 43l9 8q75 -7 222 -7
q138 0 208 7l7 -8l-4 -43l-7 -8q-70 -6 -92.5 -26t-131.5 -196l-358 -579q-55 -89 -339 -569h-99z" />
    <glyph glyph-name="W" unicode="W" horiz-adv-x="1933" 
d="M1123 1424q25 -116 64 -262l242 -898q29 65 102 250l120 303q175 442 175 492q0 16 -18.5 29.5t-136.5 15.5l-7 8l5 42l9 9q95 -7 225 -7q105 0 169 7l7 -8l-4 -43l-9 -8q-75 -2 -93.5 -20.5t-74.5 -153.5l-162 -386l-163 -402q-105 -259 -149 -408h-100l-25 127
q-9 46 -37 155l-224 845q-37 -68 -223 -428l-208 -403q-95 -184 -133 -296h-101q-3 156 -41 508l-61 568q-19 180 -31 226t-28.5 53.5t-98.5 14.5l-8 8l4 43l9 8q83 -5 226 -5q146 0 227 5l8 -9l-4 -42l-9 -8q-101 -2 -124.5 -15.5t-23.5 -78.5q0 -91 62 -685l31 -297
l291 567q196 381 282 579h39z" />
    <glyph glyph-name="X" unicode="X" horiz-adv-x="1478" 
d="M39 -8l-8 8l3 43l10 8q68 4 88 9.5t34.5 17t65 66.5t134.5 155l333 400l-237 444l-52 96q-28 52 -41 68.5t-28.5 25.5t-37.5 12.5t-114 8.5l-6 8l3 43l9 8q73 -5 247 -5q194 0 277 5l7 -8l-3 -43l-9 -8l-82 -2q-39 -2 -53 -13t-14 -29q0 -15 13.5 -44.5t62.5 -125.5
l160 -316l231 291q99 125 120.5 155.5t21.5 45.5q0 16 -15.5 24.5t-139.5 13.5l-7 8l3 43l9 8q112 -4 244 -4q108 0 205 4l8 -8l-3 -43l-9 -8q-61 -3 -81 -8.5t-41.5 -20t-77.5 -75.5t-117 -133l-138 -162l-170 -206l259 -471l58 -107q32 -57 46 -75t27 -25.5t26.5 -9.5
t114.5 -10l7 -8l-3 -43l-10 -8l-55 2q-149 6 -213 6q-74 0 -260 -8l-8 8l4 43l9 8q103 3 132 11t29 33q0 9 -3.5 20.5t-42.5 91.5t-55 109l-166 308l-187 -230q-69 -84 -126 -161.5t-68 -99t-11 -30.5q0 -13 7 -22.5t19.5 -13t59.5 -7.5l89 -9l7 -8l-4 -43l-9 -8
q-169 8 -291 8q-110 0 -187 -8z" />
    <glyph glyph-name="Y" unicode="Y" horiz-adv-x="1366" 
d="M366 -8l-7 8l4 43l9 8q116 7 131 10t23 9.5t18.5 31t33.5 135.5t32 181.5t9 95.5q0 87 -84.5 342t-149 341t-141.5 86q-33 0 -80 -19l-11 7l-4 32l6 12q85 54 153 112q54 -2 94 -21t82 -68.5t89.5 -154.5t95.5 -268t75 -281q117 273 311 516t357 261l-11 -144
q-62 -10 -122.5 -43t-134 -108t-167.5 -216.5t-143.5 -256.5t-68.5 -228q-48 -283 -48 -311t15 -35t81 -12l79 -6l7 -8l-4 -43l-9 -8q-129 7 -264 7q-132 0 -256 -7zM837 1477zM612 -109z" />
    <glyph glyph-name="Z" unicode="Z" horiz-adv-x="1366" 
d="M78 -8l-8 8l4 43l159 197l861 1086h-360q-284 0 -371 -28q-18 -52 -52 -203l-9 -8h-38l-8 8q21 136 23 309l12 9q620 -9 693 -9q222 0 338 9l8 -8l-3 -38l-67 -79l-907 -1142l-48 -62q416 -4 435 -4q181 0 261.5 7.5t134.5 23.5q16 24 69 218l11 8h45l6 -8
q-35 -193 -48 -329l-10 -8l-518 5q-166 3 -279 3q-182 0 -334 -8z" />
    <glyph glyph-name="bracketleft" unicode="[" horiz-adv-x="682" 
d="M46 -217l-9 11q19 65 40 185l95 567q25 142 92 612q29 197 35 310l13 10q95 -5 145 -5q49 0 200 3l8 -8l-3 -41l-8 -9q-165 -11 -180 -17q-7 -3 -13 -10.5t-12 -29.5q-25 -104 -86 -492l-93 -592q-52 -346 -52 -376q0 -20 15.5 -32.5t73.5 -17.5l123 -9l8 -9l-7 -42
l-9 -8q-97 7 -200 7q-94 0 -176 -7z" />
    <glyph glyph-name="backslash" unicode="\" horiz-adv-x="1241" 
d="M929 -17l-5 -9h-87l-12 9l-502 1466l6 8h87l11 -7z" />
    <glyph glyph-name="bracketright" unicode="]" horiz-adv-x="682" 
d="M17 -205l7 42l9 8q151 8 170 14q9 3 15 8.5t12 17.5q7 16 38 191q15 83 70 432l70 452l41 260q17 105 17 129q0 39 -28.5 51.5t-183.5 18.5l-8 9l6 41l10 8q119 -4 184 -4q25 0 187 5l12 -11q-32 -141 -99 -538.5t-122 -782.5q-24 -170 -38 -351l-15 -11q-68 6 -150 6
q-77 0 -196 -4z" />
    <glyph glyph-name="asciicircum" unicode="^" 
d="M999 671h-116l-335 635l-335 -635h-116l394 749h114z" />
    <glyph glyph-name="underscore" unicode="_" 
d="M0 -327v119h1024v-119h-1024z" />
    <glyph glyph-name="grave" unicode="`" horiz-adv-x="682" 
d="M610 1123l-4 -11l-21 -17l-13 4q-154 142 -333 330l15 21l145 2q31 -60 211 -329z" />
    <glyph glyph-name="a" unicode="a" horiz-adv-x="909" 
d="M840 196l7 -27l-4 -12q-210 -181 -286 -181q-50 0 -50 64q0 31 6.5 78.5t19.5 104.5l25 107l15 59l-6 3q-149 -212 -278.5 -318t-181.5 -106q-70 0 -70 171q0 107 32.5 243t79.5 252t75.5 152.5t95 83.5t124.5 72t129 25q87 0 185 -36l64 38l22 -18q-3 -15 -42 -150
l-46 -170l-25 -99q-27 -106 -50 -221.5t-23 -157.5q0 -40 27 -40q17 0 45 15t101 71zM671 833q-76 35 -164 35q-73 0 -130 -27q-21 -16 -43 -56.5t-62 -151t-65 -236t-25 -199.5q0 -55 9.5 -71t28.5 -16q36 0 141 97t177.5 225t119.5 342zM577 1029zM392 -109z" />
    <glyph glyph-name="b" unicode="b" horiz-adv-x="948" 
d="M433 1471l26 -19l-70 -319l-102 -480q132 175 251.5 246.5t208.5 71.5q43 0 68 -22t37 -72.5t12 -122.5q0 -144 -48 -281t-103.5 -219t-123 -141t-154.5 -102t-167 -43q-85 0 -144.5 47.5t-59.5 122.5q0 47 35 228l70 360q20 109 42 233l39 217q17 94 18.5 107.5
t1.5 24.5q0 23 -15.5 32t-55.5 9l-84 1l-7 8l3 25l8 9q186 30 314 79zM210 207q0 -63 35 -108.5t117 -45.5q112 0 185.5 101t122 260t48.5 267q0 109 -19.5 138t-62.5 29q-66 0 -139.5 -45t-146 -145t-106.5 -246.5t-34 -204.5z" />
    <glyph glyph-name="c" unicode="c" horiz-adv-x="833" 
d="M726 216l11 -28l-3 -12q-121 -101 -222.5 -155.5t-194.5 -54.5q-123 0 -186 76.5t-63 226.5q0 92 22 195.5t59 180.5t77.5 122t121.5 96q109 68 169 89t115 21q98 0 169 -49l3 -13q-29 -119 -44 -241l-8 -8h-31l-8 8v67q1 20 1 34q0 33 -12 51t-56 33t-99 15
q-105 0 -167.5 -54.5t-112 -218t-49.5 -288.5t49 -181.5t126 -56.5q63 0 132 29t191 119z" />
    <glyph glyph-name="d" unicode="d" 
d="M968 1471l25 -19q-47 -198 -107 -485l-118 -564q-28 -144 -35 -204q-2 -19 -2 -39q0 -48 28 -48q38 0 159 96l11 -3l10 -23l-3 -13q-93 -81 -183 -138.5t-128 -57.5q-21 0 -34.5 22.5t-13.5 67.5q0 37 14.5 111.5t53.5 237.5l-5 1q-108 -182 -257.5 -311t-233.5 -129
q-30 0 -51 21t-34 77t-13 118q0 85 28 217t71 228.5t85.5 145.5t113.5 97t122.5 69t105.5 21q58 0 168 -25l52 303q8 38 8 64q0 22 -15.5 31t-55.5 9l-84 1l-8 8l3 25l8 9q187 30 315 79zM726 827q-94 49 -194 49q-62 0 -100.5 -13.5t-58 -33.5t-51 -86.5t-61.5 -163
t-46.5 -190t-16.5 -180.5q0 -54 11 -75t34 -21q38 0 108 44q106 68 190 182t126 243q19 59 59 245z" />
    <glyph glyph-name="e" unicode="e" horiz-adv-x="797" 
d="M674 214l11 -25l-2 -13q-246 -208 -417 -208q-56 0 -114 30.5t-86.5 87.5t-28.5 146q0 125 41.5 266.5t83 209t124.5 127t157.5 96t144.5 36.5q76 0 124 -40t48 -111q0 -81 -46 -149.5t-168 -129.5t-292 -100l-47 -11q-20 -96 -20 -160q0 -90 40 -143t112 -53
q135 0 324 148zM214 475q105 19 199.5 59.5t145 108t50.5 137.5q0 54 -27 80t-65 26q-42 0 -98.5 -24t-100 -88t-104.5 -299zM487 1029zM302 -109z" />
    <glyph glyph-name="f" unicode="f" horiz-adv-x="569" 
d="M625 893l9 -13q-23 -63 -33 -109l-9 -7q-47 2 -93 2l-108 -2l-130 -608q-65 -286 -114.5 -395.5t-127.5 -192.5t-156 -120q-47 -23 -94 -23q-33 0 -71 19q32 94 47 164l25 6q42 -56 103 -56q38 0 73 21t66 76.5t71.5 233.5t78.5 399l80 476q-57 1 -80 1q-58 0 -75 -2
l-8 8l7 30l7 9q119 43 170 77l40 195q19 90 35 120t62.5 74.5t124 103.5t119 76.5t83.5 17.5q64 0 132 -27q-42 -111 -57 -166l-22 -7q-22 33 -61 53.5t-83 20.5q-54 0 -92.5 -29.5t-61 -104t-72.5 -341.5q127 2 158.5 7t56.5 13z" />
    <glyph glyph-name="g" unicode="g" 
d="M358 29q-45 47 -45 70q0 24 30.5 63.5t106.5 105.5q-29 -2 -47 -2q-119 0 -189 62.5t-70 186.5q0 87 34 173.5t92.5 141t141 94.5t179.5 40q172 0 239 -112q116 2 173 13l4 -5l-16 -100q-27 2 -52 2q-35 0 -80 -4q4 -32 4 -58q0 -142 -92.5 -256.5t-249.5 -157.5
q-56 -53 -56 -90q0 -38 29.5 -71.5t178.5 -156.5q86 -70 112.5 -123t26.5 -101q0 -129 -142 -221t-356 -92q-174 0 -265.5 66t-91.5 177q0 65 36 129t134 126t231 100zM289 553q0 -103 48.5 -161.5t140.5 -58.5q120 0 178 109t58 247q0 68 -20 114t-61.5 72t-101.5 26
q-116 0 -179 -103t-63 -245zM390 -7q-85 -21 -161 -69t-108.5 -105t-32.5 -119q0 -100 78.5 -156.5t203.5 -56.5q86 0 156.5 24t110.5 70.5t40 101.5q0 35 -17 71t-43 60.5t-87 70.5z" />
    <glyph glyph-name="h" unicode="h" 
d="M458 1471l25 -19q-42 -178 -194 -903l7 -4q185 243 330.5 328.5t222.5 85.5q25 0 40 -17.5t15 -42.5q0 -36 -31 -160q-40 -156 -86.5 -358t-46.5 -242q0 -17 8.5 -24.5t16.5 -7.5q22 0 63.5 27t105.5 74l10 -3l12 -26l-2 -11q-83 -68 -186.5 -133.5t-136.5 -65.5
q-22 0 -35.5 23t-13.5 61q0 26 3 41.5t34 149.5l57 248q59 242 59 295q0 36 -40 36q-27 0 -55 -13q-61 -30 -151 -108q-70 -62 -131 -149t-95 -175q-26 -70 -48 -174l-37 -198q-122 -25 -139 -33l-13 14q151 573 228 1054l33 204q8 37 8 63q0 21 -13.5 31t-57.5 10l-84 1
l-8 8l4 25l7 9q188 30 315 79z" />
    <glyph glyph-name="i" unicode="i" horiz-adv-x="569" 
d="M347 1303q0 53 33.5 93.5t81.5 40.5q34 0 55 -21t21 -60q0 -54 -31 -96.5t-78 -42.5q-35 0 -58.5 24t-23.5 62zM86 745l-10 23l3 13q136 98 209.5 137.5t115.5 39.5q41 0 41 -59q0 -27 -10.5 -76.5t-50.5 -199.5q-109 -404 -109 -478q0 -40 28 -40q43 0 156 85l10 -3
l11 -26l-2 -12q-70 -54 -144 -104t-105.5 -63.5t-52.5 -13.5q-30 0 -47 26t-17 61q0 45 12.5 96.5t30.5 114.5q65 232 92.5 362t27.5 159q0 34 -23 34q-15 0 -29 -7.5t-126 -72.5zM192 -109z" />
    <glyph glyph-name="j" unicode="j" horiz-adv-x="569" 
d="M357 1303q0 53 33.5 93.5t81.5 40.5q35 0 55.5 -21.5t20.5 -58.5q0 -56 -31 -98t-79 -42q-34 0 -57.5 23.5t-23.5 62.5zM-136 -557l16 97l17 10q43 -24 55.5 -27.5t25.5 -3.5q52 0 76.5 62.5t80.5 349.5q7 39 59.5 285.5t76.5 381.5l27 158q3 22 3 32q0 35 -30 35
q-35 0 -160 -81l-11 4l-11 23l4 14q148 104 217.5 141t113.5 37q45 0 45 -60q0 -50 -54 -286l-102 -451q-49 -215 -98.5 -374t-104 -238.5t-95 -102.5t-79.5 -23q-25 0 -72 17z" />
    <glyph glyph-name="k" unicode="k" horiz-adv-x="909" 
d="M456 1471l25 -19q-35 -144 -93 -421l-58 -276q-36 -171 -66 -289q78 112 198.5 248t217.5 198.5t167 62.5q28 0 69 -16l-34 -140q-44 14 -84 14q-54 0 -107 -22t-109.5 -67.5t-123.5 -113.5q34 -107 91.5 -251t87.5 -202t47 -69t29 -11q28 0 103 46l31 19l11 -3l10 -24
l-3 -12q-141 -104 -185.5 -129t-65.5 -25q-10 0 -21.5 6.5t-32.5 37t-59 119.5t-59 145.5t-85 237.5q-61 -75 -78 -100.5t-28.5 -53t-25.5 -82.5t-26 -127l-24 -142l-136 -36l-17 13l49 190q31 121 91.5 414.5t86.5 446.5l37 209q7 39 7 61q0 21 -13.5 31t-57.5 10l-84 1
l-8 8l3 25l8 9q186 29 315 79z" />
    <glyph glyph-name="l" unicode="l" horiz-adv-x="569" 
d="M481 1471l26 -19q-39 -163 -163 -762q-89 -428 -101 -511q-2 -18 -2 -32q0 -21 10 -33t22 -12q33 0 143 83l29 21l10 -3l11 -26l-3 -12q-242 -195 -326 -195q-30 0 -45.5 22.5t-15.5 61.5q0 42 13 106.5t88 403.5q71 323 99 482l35 200q7 40 7 62q0 23 -15.5 32t-54.5 9
l-84 1l-8 8l3 25l8 9q188 30 314 79z" />
    <glyph glyph-name="m" unicode="m" horiz-adv-x="1593" 
d="M107 -20l-15 17l58 208q30 110 57.5 240.5t39 215t11.5 114.5q0 52 -29 52q-14 0 -41.5 -14t-103.5 -63l-12 4l-10 22l3 15q237 173 314 173q44 0 44 -50q0 -19 -5.5 -55.5t-62.5 -303.5q138 196 284 301.5t238 105.5q49 0 49 -45q0 -42 -10 -99t-59 -266
q143 199 305.5 305t252.5 106q49 0 49 -50q0 -68 -99 -435q-76 -279 -76 -338q0 -41 29 -41q16 0 43.5 13t115.5 76l10 -4l11 -25l-3 -13q-45 -36 -123.5 -89.5t-118.5 -71t-66 -17.5q-29 0 -46 21.5t-17 55.5q0 29 4.5 52.5t28.5 110.5q36 128 83.5 330t47.5 259
q0 18 -10 26.5t-22 8.5q-26 0 -85.5 -32t-137.5 -109t-127.5 -155t-83.5 -195t-72 -336q-46 -7 -139 -28l-15 12q79 284 122 501.5t43 295.5q0 43 -29 43t-86 -31.5t-139.5 -120.5t-133 -194t-82.5 -253t-46 -223q-78 -12 -138 -27z" />
    <glyph glyph-name="n" unicode="n" horiz-adv-x="1139" 
d="M118 -25l-13 17q65 199 115.5 459t50.5 330q0 39 -27 39q-37 0 -154 -79l-12 3l-9 22l3 15q40 30 95.5 68t109.5 67.5t74.5 36t36.5 6.5q28 0 38.5 -19.5t10.5 -40.5q0 -45 -33 -178q-10 -37 -54 -219l7 -2q74 121 182 232t223 169t169 58q30 0 45 -18.5t15 -47.5
q0 -69 -69 -336q-93 -356 -93 -419q0 -37 27 -37q33 0 168 96l11 -3l11 -26l-3 -12q-62 -50 -142 -102.5t-116 -68.5t-60 -16q-31 0 -45.5 21.5t-14.5 53.5q0 35 16 109.5t67 273.5q73 281 73 345q0 53 -38 53q-27 0 -63 -17q-64 -30 -138 -97.5t-135.5 -158t-96 -180
t-60.5 -202.5q-4 -14 -31 -163q-69 -11 -141 -32z" />
    <glyph glyph-name="o" unicode="o" horiz-adv-x="909" 
d="M39 279q0 191 65 348t198.5 249.5t260.5 92.5q116 0 195 -70.5t79 -241.5q0 -168 -74.5 -340t-204.5 -260t-255 -88q-83 0 -145 38.5t-90.5 105t-28.5 166.5zM199 293q0 -86 17 -136.5t60 -81t106 -30.5q66 0 116 35t95 130t65.5 212.5t20.5 216.5q0 91 -21 146t-62 83
t-99 28q-154 0 -226 -184.5t-72 -418.5zM517 1029zM332 -109z" />
    <glyph glyph-name="p" unicode="p" 
d="M2 -569l-12 12l30 137q29 131 88 450l76 419q16 100 26 184l13 118q4 34 4 46q0 34 -27 34q-13 0 -41.5 -14.5t-127.5 -78.5l-13 4l-9 22l3 15q97 79 191.5 133t141.5 54q46 0 46 -47q0 -55 -55 -330q113 187 252 281.5t238 94.5q45 0 67.5 -24.5t37.5 -81t15 -123.5
q0 -92 -32.5 -210.5t-75.5 -203t-100 -144t-136.5 -108t-137.5 -74.5t-95 -26q-27 0 -51 5.5t-82 23.5l-84 -535q-109 -15 -150 -33zM256 112q85 -48 171 -48q74 0 129 34t114.5 153t90.5 242.5t31 216.5q0 82 -16 111t-54 29q-50 0 -112 -31t-133.5 -110.5t-123.5 -191.5
q-34 -74 -60 -192z" />
    <glyph glyph-name="q" unicode="q" horiz-adv-x="948" 
d="M447 -575l-18 25q19 16 25.5 26.5t16 42.5t46.5 227l57 294q18 100 61 361q-95 -153 -250 -289.5t-235 -136.5q-43 0 -66 51t-23 128q0 100 26.5 229.5t62 222.5t76.5 147q29 39 117.5 104t139.5 84t103 19q117 0 208 -46l66 48l29 -15q-59 -237 -131.5 -611.5
t-137.5 -869.5q-102 -21 -173 -41zM721 810q-89 50 -181 50q-62 0 -101.5 -12.5t-61 -33.5t-53.5 -89t-61.5 -175.5t-41.5 -203t-12 -146.5q0 -48 14 -68.5t33 -20.5q17 0 60 21t113.5 85t129.5 141t84 137.5t47.5 161t30.5 153.5z" />
    <glyph glyph-name="r" unicode="r" horiz-adv-x="797" 
d="M119 -30l-18 14q70 229 117 478.5t47 320.5q0 45 -24 45q-30 0 -166 -90l-12 3l-10 22l3 15q89 71 187.5 130t144.5 59q40 0 40 -50q0 -58 -73 -387q93 163 182 275.5t128.5 138t78.5 25.5q18 0 36 -8l4 -11q-15 -55 -34 -213l-28 -6q-29 40 -67 40q-28 0 -67.5 -23
t-97.5 -93t-100.5 -158.5t-68.5 -193.5t-66 -298q-101 -23 -136 -35z" />
    <glyph glyph-name="s" unicode="s" horiz-adv-x="797" 
d="M24 23q35 158 41 254l8 8h34l8 -8v-161q90 -77 197 -77q48 0 93 16t75 43.5t48 73t18 92.5q0 32 -12.5 62t-42 48.5t-118.5 34.5q-90 16 -127 26.5t-72 36.5t-55.5 68t-20.5 91q0 67 31.5 121.5t93.5 102.5t128.5 80t146.5 32q118 0 199 -48l4 -11q-17 -58 -22 -105
l-12 -112l-8 -8h-31l-9 8q0 59 -3 115q-70 77 -189 77q-94 0 -151 -54.5t-57 -130.5q0 -62 38 -98t144 -52q95 -14 135 -24t74 -33.5t53.5 -61t19.5 -84.5q0 -56 -21.5 -109.5t-61 -98.5t-112.5 -93.5t-129 -66.5t-119 -18q-101 0 -212 53z" />
    <glyph glyph-name="t" unicode="t" horiz-adv-x="682" 
d="M548 222l11 -23l-3 -12q-39 -34 -135.5 -103.5t-139 -93t-73.5 -23.5q-29 0 -46.5 27t-17.5 77q0 59 34 211q39 176 100 501l-163 -4l-7 8l3 17l8 8q107 38 172 73q19 88 52 345q107 45 157 72l24 -18l-39 -153q-7 -29 -53 -258q45 -3 73 -3q99 0 140 14l10 -8l-23 -98
q-37 0 -218 5q-111 -533 -111 -628q0 -46 38 -46q19 0 50.5 16.5t109.5 73.5l35 27z" />
    <glyph glyph-name="u" unicode="u" horiz-adv-x="1139" 
d="M91 751l-10 23l3 14q30 23 130 84.5t139 78.5t60 17t33 -16t12 -37q0 -23 -29 -140q-128 -525 -128 -619q0 -44 30 -44q38 0 121.5 66t180 189t140.5 247t78 317q12 2 137 32l15 -15q-1 -6 -24 -83q-40 -129 -80 -297t-58 -268.5t-18 -142.5q0 -47 32 -47q17 0 42 15.5
t113 81.5l11 -4l11 -23l-2 -13q-176 -139 -230.5 -169.5t-83.5 -30.5q-24 0 -37.5 21.5t-13.5 49.5q0 62 84 411l-6 3l-74 -106q-38 -54 -89 -112.5t-119.5 -119.5t-124.5 -96t-81 -43.5t-39 -8.5q-29 0 -50.5 28.5t-21.5 84.5q0 77 39 235q99 397 99 482q0 32 -26 32
q-30 0 -153 -80zM617 1029zM432 -109z" />
    <glyph glyph-name="v" unicode="v" 
d="M41 707l81 230q43 15 85 15q35 0 127 -9q81 -8 119 -8q60 0 109 17l18 -28q-274 -337 -274 -638q0 -97 41 -157t117 -60q99 0 186 98t140.5 253.5t53.5 268.5q0 132 -89 132q-24 0 -48 -12l-11 1l-13 21v12q36 28 76 72l31 34q17 9 39 9q68 0 105.5 -52t37.5 -135
q0 -169 -101.5 -370t-240.5 -319.5t-245 -118.5q-91 0 -158.5 71t-67.5 192q0 140 63.5 279t241.5 336q-22 -8 -145 -8l-43 2q-66 0 -125 -11q-17 -25 -67 -119l-10 -6h-27z" />
    <glyph glyph-name="w" unicode="w" horiz-adv-x="1479" 
d="M40 699l-6 8l81 230q43 15 85 15q35 0 127 -9q81 -8 119 -8q60 0 109 17l18 -28q-273 -335 -273 -641q0 -210 115 -210q84 0 199.5 183.5t193.5 660.5q75 11 151 40l14 -12q-148 -478 -148 -690q0 -79 34 -129.5t95 -50.5q134 0 238.5 203t104.5 399q0 147 -100 147
q-25 0 -52 -13l-11 2l-16 18v11q60 56 105 107q29 10 57 10q145 0 145 -201q0 -162 -93.5 -355t-226 -315.5t-242.5 -122.5q-80 0 -125 57t-45 143q0 89 20 188l-67 -121q-68 -123 -152.5 -195t-158.5 -72q-83 0 -133 73.5t-50 191.5q0 136 62.5 274.5t242.5 336.5
q-22 -8 -145 -8l-43 2q-66 0 -125 -11q-17 -25 -67 -119l-10 -6h-27z" />
    <glyph glyph-name="x" unicode="x" 
d="M8 -6q24 128 25 170l6 8l26 4l10 -6l20 -51q25 -17 48 -17q63 0 128 73.5t174 253.5q-5 33 -24 145.5t-42 170.5t-43.5 74t-47.5 16q-34 0 -59.5 -15.5t-63.5 -54.5l-21 -21l-10 -2l-24 14l-2 11l115 163q51 36 118 36q83 0 134 -66t74 -303l107 162q16 27 71 92t98 91
t85 26q32 0 62 -17q-23 -118 -29 -167l-7 -8l-16 -4l-10 5q-13 22 -25.5 30.5t-34.5 8.5q-52 0 -104.5 -45.5t-182.5 -233.5q46 -291 79.5 -364.5t83.5 -73.5q29 0 59.5 17.5t89.5 69.5l12 -1l14 -21l-1 -12q-64 -63 -120.5 -107t-85 -60t-64.5 -16q-49 0 -79 39t-51 119
t-41 233q-85 -143 -157 -239t-117.5 -125t-94.5 -29q-50 0 -82 27z" />
    <glyph glyph-name="y" unicode="y" 
d="M-12 -378l99 67l21 -7q-2 -16 -2 -28q0 -72 42 -108.5t90 -36.5q38 0 77.5 19.5t77 64.5t84.5 151t85.5 228.5t74.5 255.5l34 125q-68 -104 -125 -167t-112 -120t-91 -79t-64 -22q-42 0 -66 51.5t-24 127.5q0 39 14 160q24 219 24 380q0 83 -8.5 108.5t-29.5 25.5
q-23 0 -58 -23t-88 -64l-13 4l-11 24l3 15q223 188 294 188q30 0 47.5 -26t17.5 -98q0 -68 -10 -178q-31 -340 -31 -454q0 -40 8.5 -61t30.5 -21q15 0 39.5 12t78.5 65t108 133.5t96.5 177.5t66.5 185t58 229q68 10 151 38l22 -20q-50 -100 -184 -557
q-68 -235 -113.5 -370.5t-107.5 -247t-144 -193.5t-154.5 -115.5t-138.5 -33.5q-71 0 -122.5 44.5t-51.5 116.5q0 15 5 34zM577 1029zM832 -109z" />
    <glyph glyph-name="z" unicode="z" horiz-adv-x="909" 
d="M18 -14l-15 41l2 11l704 791q-74 -43 -172 -43q-55 0 -201 21q-74 11 -101 11q-20 0 -42 -12q-38 -60 -55 -109l-9 -8h-29l-6 8l63 238q37 20 98 20q77 0 198 -32q101 -26 150.5 -34.5t93.5 -8.5t68.5 14.5t65.5 59.5l18 -16l-14 -64l-678 -759q96 45 171 45
q50 0 160 -26q95 -23 146 -23q47 0 86 20l50 136l11 8h31l5 -7l-34 -162l-24 -118q-53 -21 -113 -21q-44 0 -69.5 4t-102.5 24q-107 27 -167.5 37.5t-115.5 10.5q-100 0 -162 -59z" />
    <glyph glyph-name="braceleft" unicode="{" horiz-adv-x="682" 
d="M96 629l7 39q82 3 127 57t62 155l59 351q34 200 168 249q56 20 123 20q20 0 74 1l-4 -35q-27 -2 -63 -4q-48 -2 -78 -47q-46 -49 -65 -157l-63 -352q-20 -114 -63 -169q-49 -64 -153 -89q136 -38 136 -155q0 -51 -12 -119l-59 -332q-7 -39 -7 -80q0 -44 27 -83
q30 -43 71 -43q20 0 41 -1l-5 -34h-87q-68 0 -118 30q-72 42 -72 144q0 56 12 124l56 318q8 45 8 86q0 73 -42 106q-25 20 -80 20z" />
    <glyph glyph-name="bar" unicode="|" 
d="M454 0v1501h115v-1501h-115z" />
    <glyph glyph-name="braceright" unicode="}" horiz-adv-x="682" 
d="M586 674l-7 -39q-82 -3 -126.5 -57t-61.5 -155l-59 -351q-34 -200 -168 -248q-56 -21 -124 -21q-20 0 -77 -2l7 36q25 3 67 7q36 3 74 44q46 49 66 157l63 352q20 114 62 169q50 64 154 89q-136 38 -136 155q0 51 12 119l59 332q7 39 7 80q0 44 -27 83q-30 43 -71 43
q-20 0 -41 1l5 34h87q67 0 118 -30q72 -42 72 -144q0 -56 -12 -124l-56 -318q-8 -45 -8 -86q0 -73 42 -106q25 -20 79 -20z" />
    <glyph glyph-name="asciitilde" unicode="~" 
d="M971 709q-102 -193 -243 -193q-69 0 -211 63t-192 63q-44 0 -86 -26t-111 -137l-57 66q78 126 133.5 164.5t115.5 38.5q70 0 212 -63t192 -63q108 0 191 149z" />
    <glyph glyph-name="exclamdown" unicode="&#xa1;" horiz-adv-x="682" 
d="M510 861q0 -53 -33.5 -94t-87.5 -41q-42 0 -66 25.5t-24 71.5q0 56 32 101t87 45q45 0 68.5 -31t23.5 -77zM382 575l13 -10q-20 -107 -62.5 -426.5t-64.5 -566.5q-111 -25 -173 -50l-22 18q143 544 248 1001z" />
    <glyph glyph-name="cent" unicode="&#xa2;" 
d="M417 -34q-140 0 -200 80t-60 223q0 90 22.5 198t61.5 184.5t76 117.5t123.5 96t166.5 87l29 151l9 8h48l7 -8l-26 -134q25 4 47 4q98 0 169 -49l3 -13q-29 -119 -44 -241l-8 -8h-31l-8 8v67q1 20 1 34q0 34 -12.5 51.5t-51.5 31t-84 16.5l-154 -798q109 3 304 147l10 -3
l11 -28l-3 -12q-203 -170 -340 -202l-34 -171l-9 -8h-47l-8 9zM438 76l152 792q-90 -11 -141.5 -72t-96.5 -212t-45 -275q0 -198 131 -233z" />
    <glyph glyph-name="sterling" unicode="&#xa3;" 
d="M18 -34l10 105q50 27 111 46q38 67 55.5 118.5t31 156.5t13.5 192q0 18 -1 54q-106 -2 -164 -5l-8 7l13 67l9 8q40 -3 67 -3q36 0 89 2q2 142 14 228t36.5 135.5t81.5 104t144.5 114.5t152 81.5t137.5 21.5q107 0 167 -51l3 -9q-31 -145 -42 -238l-8 -8h-33l-8 8v122
q-25 35 -71 58t-100 23q-82 0 -156 -52t-115.5 -171t-46.5 -370q65 1 131 1q93 3 187 5l8 -8l-14 -66l-10 -8q-63 5 -182 5q-53 0 -128 -2q-15 -118 -33 -193t-57.5 -160t-91.5 -158h105q140 0 301 -9q84 -5 116 -5q81 0 122 13q13 23 36 81.5t27 74.5l11 7l33 -3l6 -9
q-26 -107 -56 -270q-64 -33 -129 -33q-67 0 -263 36q-270 51 -344 53q-73 -71 -124 -97h-33z" />
    <glyph glyph-name="currency" unicode="&#xa4;" 
d="M30 858l76 77l182 -197q100 83 224 83q64 0 114.5 -19t109.5 -64l181 196l76 -76l-199 -184q62 -92 62 -197t-62 -197l199 -184l-76 -76l-181 196q-100 -83 -224 -83q-52 0 -106 15.5t-118 67.5l-182 -196l-76 76l199 184q-61 90 -61 197q0 106 61 197zM252 477
q0 -107 76 -183.5t184 -76.5q106 0 182.5 76.5t76.5 183.5t-75.5 183.5t-183.5 76.5q-109 0 -184.5 -77t-75.5 -183z" />
    <glyph glyph-name="yen" unicode="&#xa5;" 
d="M600 489h284l7 -8l-5 -50l-9 -8h-288l-41 -247q-8 -48 -8 -81q0 -18 18.5 -28.5t125.5 -15.5l5 -8l-4 -43l-8 -8l-232 8q-49 0 -211 -8l-6 8l3 43l8 8q98 1 125.5 19.5t76.5 352.5h-265l-8 8l5 49l9 9h270l20 125l-9 26h-267l-7 8l4 49l9 8h239l-170 507q-22 66 -42 96
t-37 34t-100 12l-5 9l5 40l8 10q62 -6 211 -6q159 0 237 6l5 -10l-4 -39l-8 -10l-55 -1q-75 -1 -75 -53q0 -37 56 -217l119 -383l214 353q93 153 112.5 191t19.5 66q0 24 -20 31t-110 13l-6 9l5 40l8 10q107 -4 208 -4q97 0 176 4l6 -10l-5 -40l-8 -9q-49 -3 -72.5 -10.5
t-130 -165t-207.5 -319.5l-96 -154h224l8 -8l-6 -49l-9 -8h-257l-21 -33z" />
    <glyph glyph-name="brokenbar" unicode="&#xa6;" 
d="M454 1501h115v-593h-115v593zM454 0v593h115v-593h-115z" />
    <glyph glyph-name="section" unicode="&#xa7;" 
d="M32 -341q25 86 48 193l19 85l9 6l33 -3l7 -8l-10 -166q38 -56 104.5 -88t149.5 -32q129 0 205.5 82t76.5 186q0 58 -26 102t-77.5 79t-166.5 97q-113 61 -173.5 104t-92 99.5t-31.5 128.5q0 100 56 175t163 142q-85 77 -85 175q0 137 134 278t311 141q150 0 259 -80
q-27 -74 -62 -255l-8 -8l-34 2l-9 9l9 150q-79 89 -213 89q-125 0 -197.5 -70.5t-72.5 -170.5q0 -50 23 -90t70 -75t135 -84q201 -112 262.5 -173t61.5 -163q0 -97 -58 -179.5t-158 -139.5q59 -45 81 -93t22 -107q0 -154 -145 -299t-324 -145q-92 0 -170 29.5t-126 76.5z
M650 227q62 42 98 100.5t36 119.5q0 50 -26 94t-78 81t-146 88q-80 44 -170 101q-63 -57 -81 -77.5t-34.5 -61t-16.5 -81.5q0 -47 22.5 -91.5t70.5 -82t148 -93.5z" />
    <glyph glyph-name="dieresis" unicode="&#xa8;" horiz-adv-x="682" 
d="M290 1163q-80 0 -80 89q0 50 32 90.5t80 40.5q78 0 78 -80q0 -56 -31.5 -98t-78.5 -42zM669 1163q-80 0 -80 89q0 50 32 90.5t80 40.5q78 0 78 -80q0 -56 -31.5 -98t-78.5 -42z" />
    <glyph glyph-name="copyright" unicode="&#xa9;" horiz-adv-x="1530" 
d="M22 705q0 187 95 362.5t272.5 278t375.5 102.5q197 0 370 -99.5t272.5 -273t99.5 -370.5t-99.5 -370.5t-272.5 -273t-370 -99.5q-200 0 -375 102t-271.5 275.5t-96.5 365.5zM113 705q0 -170 84 -324.5t238 -244.5t330 -90q172 0 324 87.5t240 242t88 329.5
q0 176 -88 330.5t-240 242.5t-324 88q-174 0 -330 -91t-239 -247.5t-83 -322.5zM1058 501l41 -18q-46 -89 -94.5 -129.5t-110 -58t-123.5 -17.5q-84 0 -156 27t-129 83t-88.5 136.5t-31.5 174.5q0 185 114.5 305t309.5 120q150 0 289 -53v-219h-53q-10 129 -69 174t-151 45
q-135 0 -218 -98t-83 -248q0 -104 37.5 -190.5t103 -139.5t164.5 -53q72 0 133 31.5t115 127.5z" />
    <glyph glyph-name="ordfeminine" unicode="&#xaa;" horiz-adv-x="682" 
d="M661 937l5 -23l-3 -5q-131 -110 -171 -110q-34 0 -34 50q0 39 18 112l21 85l-3 5q-109 -148 -179.5 -201t-101.5 -53q-50 0 -50 108q0 97 40.5 217.5t77 164t102 80.5t115.5 37q46 0 112 -23l40 23l15 -14q-6 -25 -26 -103l-40 -165q-43 -189 -43 -216q0 -22 14 -22
q17 0 84 54zM551 1315q-43 22 -85 22q-49 0 -76 -8t-75 -154.5t-48 -234.5q0 -49 15 -49q30 0 115.5 86.5t144.5 304.5zM154 709h513l-12 -55h-514z" />
    <glyph glyph-name="guillemotleft" unicode="&#xab;" 
d="M115 464v28l146 126q56 49 116 105l123 115h12l28 -21l1 -13l-269 -331l189 -343l-2 -11l-26 -23l-11 1l-147 185q-10 12 -160 182zM470 464v28l145 126q57 49 122 110l117 110h12l28 -21l1 -13l-269 -331l189 -343l-2 -11l-25 -23l-11 1l-147 184z" />
    <glyph glyph-name="logicalnot" unicode="&#xac;" 
d="M994 285h-106v432h-858v102h964v-534z" />
    <glyph glyph-name="registered" unicode="&#xae;" horiz-adv-x="1530" 
d="M22 705q0 187 95 362.5t272.5 278t375.5 102.5q197 0 370 -99.5t272.5 -273t99.5 -370.5t-99.5 -370.5t-272.5 -273t-370 -99.5q-200 0 -375 102t-271.5 275.5t-96.5 365.5zM113 705q0 -170 84 -324.5t238 -244.5t330 -90q172 0 324 87.5t240 242t88 329.5
q0 176 -88 330.5t-240 242.5t-324 88q-174 0 -330 -91t-239 -247.5t-83 -322.5zM423 327v31q59 1 72.5 4.5t20 18t6.5 64.5v573q0 51 -4 61t-14 18t-54 8h-27v31h335q95 0 167 -21t102 -72t30 -107q0 -78 -56.5 -138t-171.5 -77q48 -11 84.5 -48t95.5 -168q42 -96 66 -121
t78 -26v-31h-80q-53 0 -82 12t-53 53t-74 165q-28 71 -48 96.5t-42.5 36t-83.5 10.5h-56v-255q0 -51 6 -64.5t20 -17.5t73 -5v-31h-310zM634 741h56q134 0 192.5 45t58.5 135q0 177 -192 177h-59q-25 0 -37 -7t-15.5 -19t-3.5 -49v-282z" />
    <glyph glyph-name="macron" unicode="&#xaf;" horiz-adv-x="682" 
d="M757 1287l-23 -94h-544l25 94h542z" />
    <glyph glyph-name="macron" unicode="&#x2c9;" horiz-adv-x="682" 
d="M757 1287l-23 -94h-544l25 94h542z" />
    <glyph glyph-name="degree" unicode="&#xb0;" horiz-adv-x="819" 
d="M533 1409q79 0 151 -40t114 -112t42 -156q0 -126 -90.5 -216.5t-216.5 -90.5q-128 0 -218 91t-90 216q0 83 42 155.5t114 112.5t152 40zM533 1328q-93 0 -160 -66t-67 -161q0 -93 66.5 -159.5t160.5 -66.5t160 66.5t66 159.5q0 95 -67 161t-159 66z" />
    <glyph glyph-name="plusminus" unicode="&#xb1;" 
d="M994 611h-429v-374h-106v374h-429v102h429v374h106v-374h429v-102zM994 0h-964v102h964v-102z" />
    <glyph glyph-name="uni00B2" unicode="&#xb2;" horiz-adv-x="655" 
d="M89 546l-9 10l2 24q250 251 335 373.5t85 221.5q0 55 -35 89t-95 34q-104 0 -171 -121l-12 -4l-24 9l-4 14l74 140q77 54 171 54q91 0 153.5 -51t62.5 -144q0 -59 -23.5 -114t-72.5 -115t-170 -180q-71 -71 -112 -114l-28 -29h235q90 0 152 11l13 -14q-15 -56 -21 -85
l-10 -9q-139 7 -237 7l-160 -4q-72 -1 -99 -3z" />
    <glyph glyph-name="uni00B3" unicode="&#xb3;" horiz-adv-x="655" 
d="M70 588l35 172l10 8l27 -4l7 -11q-4 -34 -4 -53q0 -50 38 -82t103 -32q64 0 111 34.5t70 93t23 114.5q0 71 -43 109t-116 38q-36 0 -101 -15l-12 11l25 66q56 -3 64 -3q73 0 127 47.5t54 117.5q0 46 -29 75t-83 29q-46 0 -79 -18t-77 -77l-13 -1l-20 12l-3 14l74 118
q66 39 150 39q89 0 141 -46t52 -118q0 -58 -34 -107.5t-130 -96.5q174 -39 174 -191q0 -128 -104 -214.5t-247 -86.5q-105 0 -190 58z" />
    <glyph glyph-name="acute" unicode="&#xb4;" horiz-adv-x="682" 
d="M742 1428l-346 -329l-13 -1l-22 19l-2 9q35 45 121 166l107 159l141 3z" />
    <glyph glyph-name="mu" unicode="&#xb5;" horiz-adv-x="1250" 
d="M1131 187l16 -5l11 -15l-3 -17q-209 -181 -312 -181q-31 0 -48.5 19t-17.5 53q0 40 32 165l-18 7q-72 -91 -165.5 -164t-188.5 -73q-50 0 -90 20.5t-63 75.5l-15 1q-48 -238 -48 -355q0 -149 61 -253l-17 -23q-64 -25 -143 -28q-29 77 -29 141q0 61 17 152.5t78 364.5
q133 593 133 791q0 29 -4 65q72 10 162 29q0 -48 -4.5 -88.5t-26.5 -146.5q-70 -334 -70 -442q0 -94 38 -144t106 -50q46 0 102 26t107.5 79t76 108t50 176.5t42.5 246t18 189.5l22 23q58 8 137 33l16 -18q-43 -117 -95 -414.5t-52 -376.5q0 -32 9.5 -40.5t26.5 -8.5
q24 0 53.5 13.5t95.5 64.5z" />
    <glyph glyph-name="mu" unicode="&#x3bc;" horiz-adv-x="1250" 
d="M1131 187l16 -5l11 -15l-3 -17q-209 -181 -312 -181q-31 0 -48.5 19t-17.5 53q0 40 32 165l-18 7q-72 -91 -165.5 -164t-188.5 -73q-50 0 -90 20.5t-63 75.5l-15 1q-48 -238 -48 -355q0 -149 61 -253l-17 -23q-64 -25 -143 -28q-29 77 -29 141q0 61 17 152.5t78 364.5
q133 593 133 791q0 29 -4 65q72 10 162 29q0 -48 -4.5 -88.5t-26.5 -146.5q-70 -334 -70 -442q0 -94 38 -144t106 -50q46 0 102 26t107.5 79t76 108t50 176.5t42.5 246t18 189.5l22 23q58 8 137 33l16 -18q-43 -117 -95 -414.5t-52 -376.5q0 -32 9.5 -40.5t26.5 -8.5
q24 0 53.5 13.5t95.5 64.5z" />
    <glyph glyph-name="paragraph" unicode="&#xb6;" 
d="M125 -457l10 59q22 1 37 1q53 0 72.5 4t35 18.5t28 52t20.5 88.5l129 750q-193 29 -312.5 184.5t-119.5 362.5q0 113 45 197t138 121.5t258 37.5l310 -5q254 0 340 3q55 2 96 2l-11 -60q-89 0 -126.5 -9.5t-52.5 -48.5t-23 -88l-252 -1460q-9 -53 -9 -75q0 -31 15 -48
t40 -22t90 -5q8 0 50 -1l-11 -59q-237 5 -403 5q-162 0 -394 -5zM598 1338q-75 10 -116 10q-108 0 -168.5 -75.5t-60.5 -256.5q0 -183 56.5 -288.5t160.5 -134.5zM443 -387h139l300 1733h-138z" />
    <glyph glyph-name="periodcentered" unicode="&#xb7;" horiz-adv-x="512" 
d="M149 597q0 54 34 94.5t87 40.5q43 0 67 -26t24 -71q0 -56 -32.5 -101t-87.5 -45q-43 0 -67.5 30.5t-24.5 77.5z" />
    <glyph glyph-name="periodcentered" unicode="&#x2219;" horiz-adv-x="512" 
d="M149 597q0 54 34 94.5t87 40.5q43 0 67 -26t24 -71q0 -56 -32.5 -101t-87.5 -45q-43 0 -67.5 30.5t-24.5 77.5z" />
    <glyph glyph-name="cedilla" unicode="&#xb8;" horiz-adv-x="682" 
d="M287 0l-64 -106q25 6 59 6q64 0 116 -34.5t52 -101.5q0 -72 -71.5 -122.5t-164.5 -50.5q-88 0 -185 41l-2 10l18 30l10 2q84 -21 121 -21q59 0 96.5 29t37.5 75q0 85 -109 85q-26 0 -52 -7l-15 11l100 154h53z" />
    <glyph glyph-name="uni00B9" unicode="&#xb9;" horiz-adv-x="655" 
d="M130 546l-10 10l4 32l9 8q94 9 108 12.5t22 10t13 16.5q10 23 34 158l49 270l38 233q-54 -17 -225 -95l-15 11l15 81q35 5 137.5 34t197.5 73l25 -20q-25 -105 -78.5 -401t-53.5 -339q0 -21 17 -29t83 -12q33 -2 52 -4l8 -9l-2 -31l-10 -9q-98 5 -222 5q-142 0 -196 -5z
" />
    <glyph glyph-name="ordmasculine" unicode="&#xba;" horiz-adv-x="682" 
d="M483 1404q175 0 175 -192q0 -176 -101.5 -295t-232.5 -119q-168 0 -168 191q0 205 106.5 310t220.5 105zM365 841q56 0 92.5 35.5t63 134t26.5 193.5q0 155 -100 155q-53 0 -87 -29.5t-63 -123t-29 -209.5q0 -88 31 -122t66 -34zM129 709h513l-12 -55h-514z" />
    <glyph glyph-name="guillemotright" unicode="&#xbb;" 
d="M895 470v-28l-158 -137q-55 -48 -227 -209h-12l-28 21v13l269 331l-190 343l2 11l25 23l12 -1l106 -133q36 -46 78 -94zM541 470v-28l-159 -138q-56 -48 -226 -208h-12l-28 21l-1 13l269 331l-189 343l2 11l25 23l11 -1l146 -183q26 -31 162 -184z" />
    <glyph glyph-name="onequarter" unicode="&#xbc;" horiz-adv-x="1652" 
d="M151 546l-10 10l4 32l9 8q94 9 108 12.5t22 10t13 16.5q10 23 34 158l49 270l38 233q-54 -17 -225 -95l-15 11l15 81q35 5 137.5 34t197.5 73l25 -20q-25 -105 -78.5 -401t-53.5 -339q0 -21 17 -29t83 -12q33 -2 52 -4l8 -9l-2 -31l-10 -9q-98 5 -222 5q-142 0 -196 -5z
M345 -29l907 1420l11 7h81l5 -8l-907 -1420l-11 -8h-80zM989 -4l-9 10l3 33l10 8q131 5 142 15t27 88l17 80h-211h-15q-12 -1 -40 -1q-34 0 -43 -1l-10 10l3 34q84 125 227 308.5t199 247.5q80 18 88 22l17 -11l-38 -193l-61 -335q120 0 151 5l11 -14l-21 -69l-10 -7
q-31 2 -89 2q-30 0 -56 1l-13 -75q-8 -51 -8 -72q0 -19 12 -23.5t77 -9.5q32 -2 50 -4l8 -10l-3 -30l-10 -9q-77 5 -169 5q-86 0 -236 -5zM1194 311l75 411q-204 -265 -304 -409q42 -2 124 -2h105z" />
    <glyph glyph-name="onehalf" unicode="&#xbd;" horiz-adv-x="1652" 
d="M151 546l-10 10l4 32l9 8q94 9 108 12.5t22 10t13 16.5q10 23 34 158l49 270l38 233q-54 -17 -225 -95l-15 11l15 81q35 5 137.5 34t197.5 73l25 -20q-25 -105 -78.5 -401t-53.5 -339q0 -21 17 -29t83 -12q33 -2 52 -4l8 -9l-2 -31l-10 -9q-98 5 -222 5q-142 0 -196 -5z
M345 -29l907 1420l11 7h81l5 -8l-907 -1420l-11 -8h-80zM1059 -4l-9 10l2 24q250 251 335 373.5t85 221.5q0 55 -35 89t-95 34q-104 0 -171 -121l-12 -4l-24 9l-4 14l74 140q77 54 171 54q91 0 153.5 -51t62.5 -144q0 -59 -23.5 -114t-72.5 -115t-170 -180
q-71 -71 -112 -114l-28 -29h235q90 0 152 11l13 -14q-15 -56 -21 -85l-10 -9q-139 7 -237 7l-160 -4q-72 -1 -99 -3z" />
    <glyph glyph-name="threequarters" unicode="&#xbe;" horiz-adv-x="1652" 
d="M91 588l35 172l10 8l27 -4l7 -11q-4 -34 -4 -53q0 -50 38 -82t103 -32q64 0 111 34.5t70 93t23 114.5q0 71 -43 109t-116 38q-36 0 -101 -15l-12 11l25 66q56 -3 64 -3q73 0 127 47.5t54 117.5q0 46 -29 75t-83 29q-46 0 -79 -18t-77 -77l-13 -1l-20 12l-3 14l74 118
q66 39 150 39q89 0 141 -46t52 -118q0 -58 -34 -107.5t-130 -96.5q174 -39 174 -191q0 -128 -104 -214.5t-247 -86.5q-105 0 -190 58zM345 -29l907 1420l11 7h81l5 -8l-907 -1420l-11 -8h-80zM989 -4l-9 10l3 33l10 8q131 5 142 15t27 88l17 80h-211h-15q-12 -1 -40 -1
q-34 0 -43 -1l-10 10l3 34q84 125 227 308.5t199 247.5q80 18 88 22l17 -11l-38 -193l-61 -335q120 0 151 5l11 -14l-21 -69l-10 -7q-31 2 -89 2q-30 0 -56 1l-13 -75q-8 -51 -8 -72q0 -19 12 -23.5t77 -9.5q32 -2 50 -4l8 -10l-3 -30l-10 -9q-77 5 -169 5q-86 0 -236 -5z
M1194 311l75 411q-204 -265 -304 -409q42 -2 124 -2h105z" />
    <glyph glyph-name="questiondown" unicode="&#xbf;" 
d="M786 860q0 -57 -35.5 -95.5t-87.5 -38.5q-42 0 -65.5 26t-23.5 70q0 58 32.5 102t86.5 44q45 0 69 -30.5t24 -77.5zM602 567q87 -42 87 -130q0 -54 -30 -113.5t-151 -188.5q-70 -76 -108.5 -124t-59 -100t-20.5 -95q0 -68 52 -120t133 -52q47 0 93 15t77.5 53.5
t64.5 92.5l10 4l29 -8l4 -10q-49 -110 -78 -190q-109 -77 -231 -77q-69 0 -134 23t-105.5 58t-61 85.5t-20.5 103.5q0 49 16.5 99t49 98.5t77 92t148.5 140.5q109 102 140 143t31 86q0 31 -13.5 52.5t-41.5 39.5l2 10z" />
    <glyph glyph-name="Agrave" unicode="&#xc0;" horiz-adv-x="1479" 
d="M-14 -8l-7 8l7 44l9 7l58 9q25 4 34 9t19 17t45 64t92 143l22 32l692 1095h94l168 -1208q14 -101 25 -122t33 -26t114 -13l6 -8l-8 -43l-9 -8q-140 8 -241 8q-68 0 -239 -8l-7 8l7 43l9 8q124 5 141.5 15t17.5 43q0 8 -14 154l-39 296h-499l-141 -234q-20 -33 -63.5 -112
t-50 -95.5t-6.5 -26.5q0 -17 19.5 -25.5t146.5 -13.5l6 -8l-7 -44l-9 -8q-116 8 -218 8q-84 0 -207 -8zM566 637h440l-76 581zM1008 1477zM684 -109zM1136 1574l-34 -23l-8 2l-396 288l10 28l174 -18l253 -266z" />
    <glyph glyph-name="Aacute" unicode="&#xc1;" horiz-adv-x="1479" 
d="M-14 -8l-7 8l7 44l9 7l58 9q25 4 34 9t19 17t45 64t92 143l22 32l692 1095h94l168 -1208q14 -101 25 -122t33 -26t114 -13l6 -8l-8 -43l-9 -8q-140 8 -241 8q-68 0 -239 -8l-7 8l7 43l9 8q124 5 141.5 15t17.5 43q0 8 -14 154l-39 296h-499l-141 -234q-20 -33 -63.5 -112
t-50 -95.5t-6.5 -26.5q0 -17 19.5 -25.5t146.5 -13.5l6 -8l-7 -44l-9 -8q-116 8 -218 8q-84 0 -207 -8zM566 637h440l-76 581zM1008 1477zM684 -109zM1342 1845q-125 -85 -407 -299l-13 2l-23 19l1 13l255 271l178 18z" />
    <glyph glyph-name="Acircumflex" unicode="&#xc2;" horiz-adv-x="1479" 
d="M-14 -8l-7 8l7 44l9 7l58 9q25 4 34 9t19 17t45 64t92 143l22 32l692 1095h94l168 -1208q14 -101 25 -122t33 -26t114 -13l6 -8l-8 -43l-9 -8q-140 8 -241 8q-68 0 -239 -8l-7 8l7 43l9 8q124 5 141.5 15t17.5 43q0 8 -14 154l-39 296h-499l-141 -234q-20 -33 -63.5 -112
t-50 -95.5t-6.5 -26.5q0 -17 19.5 -25.5t146.5 -13.5l6 -8l-7 -44l-9 -8q-116 8 -218 8q-84 0 -207 -8zM566 637h440l-76 581zM1008 1477zM684 -109zM1304 1533h-54l-187 236l-292 -236h-57l-5 10l319 326h106l178 -326zM1074 1805zM1353 1579z" />
    <glyph glyph-name="Atilde" unicode="&#xc3;" horiz-adv-x="1479" 
d="M-14 -8l-7 8l7 44l9 7l58 9q25 4 34 9t19 17t45 64t92 143l22 32l692 1095h94l168 -1208q14 -101 25 -122t33 -26t114 -13l6 -8l-8 -43l-9 -8q-140 8 -241 8q-68 0 -239 -8l-7 8l7 43l9 8q124 5 141.5 15t17.5 43q0 8 -14 154l-39 296h-499l-141 -234q-20 -33 -63.5 -112
t-50 -95.5t-6.5 -26.5q0 -17 19.5 -25.5t146.5 -13.5l6 -8l-7 -44l-9 -8q-116 8 -218 8q-84 0 -207 -8zM566 637h440l-76 581zM1008 1477zM684 -109zM1406 1805q-15 -77 -68.5 -140t-115.5 -63q-49 0 -133 28l-105 41q-69 27 -115 27q-72 0 -111 -105h-40l-8 6
q11 84 69.5 149.5t134.5 65.5q47 0 191 -61q92 -35 135 -35q90 0 122 92h38z" />
    <glyph glyph-name="Adieresis" unicode="&#xc4;" horiz-adv-x="1479" 
d="M-14 -8l-7 8l7 44l9 7l58 9q25 4 34 9t19 17t45 64t92 143l22 32l692 1095h94l168 -1208q14 -101 25 -122t33 -26t114 -13l6 -8l-8 -43l-9 -8q-140 8 -241 8q-68 0 -239 -8l-7 8l7 43l9 8q124 5 141.5 15t17.5 43q0 8 -14 154l-39 296h-499l-141 -234q-20 -33 -63.5 -112
t-50 -95.5t-6.5 -26.5q0 -17 19.5 -25.5t146.5 -13.5l6 -8l-7 -44l-9 -8q-116 8 -218 8q-84 0 -207 -8zM566 637h440l-76 581zM1008 1477zM684 -109zM1246 1607q-94 0 -94 100q0 48 35 85t83 37q96 0 96 -91q0 -53 -33.5 -92t-86.5 -39zM858 1607q-95 0 -95 100
q0 49 35 85.5t84 36.5q95 0 95 -91q0 -53 -33.5 -92t-85.5 -39z" />
    <glyph glyph-name="Aring" unicode="&#xc5;" horiz-adv-x="1479" 
d="M-14 -8l-7 8l7 44l9 7l58 9q25 4 34 9t19 17t45 64t92 143l22 32l692 1095h94l168 -1208q14 -101 25 -122t33 -26t114 -13l6 -8l-8 -43l-9 -8q-140 8 -241 8q-68 0 -239 -8l-7 8l7 43l9 8q124 5 141.5 15t17.5 43q0 8 -14 154l-39 296h-499l-141 -234q-20 -33 -63.5 -112
t-50 -95.5t-6.5 -26.5q0 -17 19.5 -25.5t146.5 -13.5l6 -8l-7 -44l-9 -8q-116 8 -218 8q-84 0 -207 -8zM566 637h440l-76 581zM1008 1477zM684 -109zM1029 1521q-70 0 -119 49t-49 119q0 91 71 160.5t162 69.5q75 0 122.5 -47t47.5 -122q0 -92 -71.5 -160.5t-163.5 -68.5z
M1087 1876q-66 0 -109 -61t-43 -124q0 -53 28.5 -89.5t73.5 -36.5q64 0 108.5 57.5t44.5 127.5q0 55 -28.5 90.5t-74.5 35.5z" />
    <glyph glyph-name="AE" unicode="&#xc6;" horiz-adv-x="1927" 
d="M1829 1413l8 -8q-2 -23 -17 -124l-20 -174l-8 -8h-35l-8 8l-9 137q-2 27 -7.5 42t-28 22t-104.5 13t-141 6h-58q-39 0 -113 -9q-45 -199 -102 -550q103 -3 155 -3q134 0 333 13l7 -10l-38 -95q-234 11 -357 11q-23 0 -116 -2l-61 -364q-27 -162 -34 -224q142 -12 239 -12
q123 0 213 6.5t109 15t31 29t32 98.5q14 53 25 87l9 8h42l7 -8q-14 -43 -30 -156t-18 -161l-13 -9l-664 7q-38 0 -272 -7l-7 8l4 43l9 8q73 8 84.5 16t25 42t40.5 181l52 281h-448q-29 -46 -77 -127l-98 -165q-51 -84 -65.5 -114t-17.5 -41t-3 -20q0 -29 30.5 -39.5
t138.5 -13.5l7 -8l-4 -43l-8 -8q-131 7 -238 7q-40 0 -204 -7l-8 8l3 35l7 7q71 15 83.5 23t38.5 45l293 436l306 451q162 240 182 285q7 15 7 23q0 15 -12.5 24t-72.5 16l-123 12l-7 8l3 38l9 8q200 -6 570 -6q383 0 544 8zM1118 1331l-48 1q-41 -48 -95.5 -123
t-160.5 -233l-217 -326q109 -6 215 -6q118 0 147 1q42 1 48 1q59 319 111 685z" />
    <glyph glyph-name="Ccedilla" unicode="&#xc7;" horiz-adv-x="1366" 
d="M1355 1346q-30 -87 -50 -281l-8 -8h-42l-8 8q0 132 -3 156q-125 108 -360 108q-184 0 -305.5 -75t-199.5 -251t-78 -391q0 -259 128 -402.5t366 -143.5q222 0 435 142l10 -29l-30 -73q-209 -149 -485 -149l-54 -97q23 5 49 5q66 0 116.5 -34t50.5 -102q0 -79 -65.5 -127
t-171.5 -48q-92 0 -183 39l-3 12l16 24l11 4q50 -21 114 -21q55 0 97 27.5t42 78.5q0 32 -27.5 53.5t-66.5 21.5q-37 0 -71 -10l-15 16l104 161q-263 15 -405.5 175.5t-142.5 436.5q0 399 258 631t560 232q226 0 413 -78z" />
    <glyph glyph-name="Egrave" unicode="&#xc8;" horiz-adv-x="1251" 
d="M79 -8l-7 8l3 43l10 8q69 8 81 14q7 4 12 11q15 20 28 73q12 47 76 396l80 455q43 260 43 306q0 19 -9 28t-44 13t-108 7l-6 8l5 43l9 8q97 -8 208 -8q526 0 696 8l8 -8q-3 -23 -18 -124l-19 -174l-8 -8h-35l-8 8q-10 152 -13.5 168.5t-18 26.5t-98 17.5t-170.5 7.5
q-119 0 -194 -9q-40 -173 -103 -550q100 -3 178 -3q136 0 333 13l7 -10l-38 -95q-233 11 -357 11q-48 0 -138 -2l-61 -365q-27 -158 -34 -223q138 -12 268 -12q127 0 215.5 7t107.5 15.5t30.5 29t31.5 97.5q14 54 25 87l9 8h42l7 -8q-14 -44 -29.5 -156.5t-18.5 -160.5
l-13 -9l-696 8q-174 0 -269 -8zM727 1477zM632 -109zM918 1574l-34 -23l-8 2l-396 288l10 28l174 -18l253 -266z" />
    <glyph glyph-name="Eacute" unicode="&#xc9;" horiz-adv-x="1251" 
d="M79 -8l-7 8l3 43l10 8q69 8 81 14q7 4 12 11q15 20 28 73q12 47 76 396l80 455q43 260 43 306q0 19 -9 28t-44 13t-108 7l-6 8l5 43l9 8q97 -8 208 -8q526 0 696 8l8 -8q-3 -23 -18 -124l-19 -174l-8 -8h-35l-8 8q-10 152 -13.5 168.5t-18 26.5t-98 17.5t-170.5 7.5
q-119 0 -194 -9q-40 -173 -103 -550q100 -3 178 -3q136 0 333 13l7 -10l-38 -95q-233 11 -357 11q-48 0 -138 -2l-61 -365q-27 -158 -34 -223q138 -12 268 -12q127 0 215.5 7t107.5 15.5t30.5 29t31.5 97.5q14 54 25 87l9 8h42l7 -8q-14 -44 -29.5 -156.5t-18.5 -160.5
l-13 -9l-696 8q-174 0 -269 -8zM727 1477zM632 -109zM1082 1845q-125 -85 -407 -299l-13 2l-23 19l1 13l255 271l178 18z" />
    <glyph glyph-name="Ecircumflex" unicode="&#xca;" horiz-adv-x="1251" 
d="M79 -8l-7 8l3 43l10 8q69 8 81 14q7 4 12 11q15 20 28 73q12 47 76 396l80 455q43 260 43 306q0 19 -9 28t-44 13t-108 7l-6 8l5 43l9 8q97 -8 208 -8q526 0 696 8l8 -8q-3 -23 -18 -124l-19 -174l-8 -8h-35l-8 8q-10 152 -13.5 168.5t-18 26.5t-98 17.5t-170.5 7.5
q-119 0 -194 -9q-40 -173 -103 -550q100 -3 178 -3q136 0 333 13l7 -10l-38 -95q-233 11 -357 11q-48 0 -138 -2l-61 -365q-27 -158 -34 -223q138 -12 268 -12q127 0 215.5 7t107.5 15.5t30.5 29t31.5 97.5q14 54 25 87l9 8h42l7 -8q-14 -44 -29.5 -156.5t-18.5 -160.5
l-13 -9l-696 8q-174 0 -269 -8zM727 1477zM632 -109zM1086 1533h-54l-187 236l-292 -236h-57l-5 10l319 326h106l178 -326zM856 1805zM1135 1579z" />
    <glyph glyph-name="Edieresis" unicode="&#xcb;" horiz-adv-x="1251" 
d="M79 -8l-7 8l3 43l10 8q69 8 81 14q7 4 12 11q15 20 28 73q12 47 76 396l80 455q43 260 43 306q0 19 -9 28t-44 13t-108 7l-6 8l5 43l9 8q97 -8 208 -8q526 0 696 8l8 -8q-3 -23 -18 -124l-19 -174l-8 -8h-35l-8 8q-10 152 -13.5 168.5t-18 26.5t-98 17.5t-170.5 7.5
q-119 0 -194 -9q-40 -173 -103 -550q100 -3 178 -3q136 0 333 13l7 -10l-38 -95q-233 11 -357 11q-48 0 -138 -2l-61 -365q-27 -158 -34 -223q138 -12 268 -12q127 0 215.5 7t107.5 15.5t30.5 29t31.5 97.5q14 54 25 87l9 8h42l7 -8q-14 -44 -29.5 -156.5t-18.5 -160.5
l-13 -9l-696 8q-174 0 -269 -8zM727 1477zM632 -109zM1027 1607q-94 0 -94 100q0 48 35 85t83 37q96 0 96 -91q0 -53 -33.5 -92t-86.5 -39zM639 1607q-95 0 -95 100q0 49 35 85.5t84 36.5q95 0 95 -91q0 -53 -33.5 -92t-85.5 -39z" />
    <glyph glyph-name="Igrave" unicode="&#xcc;" horiz-adv-x="682" 
d="M525 43l-5 -43l-9 -8q-4 0 -64 2q-157 6 -199 6q-103 0 -222 -8l-7 8l3 43l10 8q89 5 107 10q10 3 15 7t10 11q12 19 22 53q11 42 52 265l65 355l59 346q27 170 27 207q0 27 -22.5 35.5t-138.5 13.5l-7 8l5 43l9 8q5 0 74 -2q158 -6 206 -6q95 0 205 8l7 -8l-3 -43l-9 -8
q-105 -6 -120 -12q-8 -4 -15 -12t-15 -37q-25 -94 -81 -403l-81 -470q-47 -286 -47 -324q0 -17 10 -25.5t48 -12.5t105 -7zM487 1477zM252 -109zM698 1574l-34 -23l-8 2l-396 288l10 28l174 -18l253 -266z" />
    <glyph glyph-name="Iacute" unicode="&#xcd;" horiz-adv-x="682" 
d="M525 43l-5 -43l-9 -8q-4 0 -64 2q-157 6 -199 6q-103 0 -222 -8l-7 8l3 43l10 8q89 5 107 10q10 3 15 7t10 11q12 19 22 53q11 42 52 265l65 355l59 346q27 170 27 207q0 27 -22.5 35.5t-138.5 13.5l-7 8l5 43l9 8q5 0 74 -2q158 -6 206 -6q95 0 205 8l7 -8l-3 -43l-9 -8
q-105 -6 -120 -12q-8 -4 -15 -12t-15 -37q-25 -94 -81 -403l-81 -470q-47 -286 -47 -324q0 -17 10 -25.5t48 -12.5t105 -7zM487 1477zM252 -109zM842 1845q-125 -85 -407 -299l-13 2l-23 19l1 13l255 271l178 18z" />
    <glyph glyph-name="Icircumflex" unicode="&#xce;" horiz-adv-x="682" 
d="M525 43l-5 -43l-9 -8q-4 0 -64 2q-157 6 -199 6q-103 0 -222 -8l-7 8l3 43l10 8q89 5 107 10q10 3 15 7t10 11q12 19 22 53q11 42 52 265l65 355l59 346q27 170 27 207q0 27 -22.5 35.5t-138.5 13.5l-7 8l5 43l9 8q5 0 74 -2q158 -6 206 -6q95 0 205 8l7 -8l-3 -43l-9 -8
q-105 -6 -120 -12q-8 -4 -15 -12t-15 -37q-25 -94 -81 -403l-81 -470q-47 -286 -47 -324q0 -17 10 -25.5t48 -12.5t105 -7zM487 1477zM252 -109zM792 1533h-54l-187 236l-292 -236h-57l-5 10l319 326h106l178 -326zM562 1805zM841 1579z" />
    <glyph glyph-name="Idieresis" unicode="&#xcf;" horiz-adv-x="682" 
d="M525 43l-5 -43l-9 -8q-4 0 -64 2q-157 6 -199 6q-103 0 -222 -8l-7 8l3 43l10 8q89 5 107 10q10 3 15 7t10 11q12 19 22 53q11 42 52 265l65 355l59 346q27 170 27 207q0 27 -22.5 35.5t-138.5 13.5l-7 8l5 43l9 8q5 0 74 -2q158 -6 206 -6q95 0 205 8l7 -8l-3 -43l-9 -8
q-105 -6 -120 -12q-8 -4 -15 -12t-15 -37q-25 -94 -81 -403l-81 -470q-47 -286 -47 -324q0 -17 10 -25.5t48 -12.5t105 -7zM487 1477zM252 -109zM710 1607q-94 0 -94 100q0 48 35 85t83 37q96 0 96 -91q0 -53 -33.5 -92t-86.5 -39zM322 1607q-95 0 -95 100q0 49 35 85.5
t84 36.5q95 0 95 -91q0 -53 -33.5 -92t-85.5 -39z" />
    <glyph glyph-name="Eth" unicode="&#xd0;" horiz-adv-x="1593" 
d="M301 713h-183l-8 8l8 50l8 8h187q33 187 55 342t22 178q0 26 -10.5 35.5t-41.5 13t-109 6.5l-7 9l5 42l10 8q96 -7 252 -7l381 6q145 0 268 -18.5t216.5 -95.5t132 -185.5t38.5 -233.5q0 -188 -74 -357.5t-207 -294.5t-274.5 -180.5t-363.5 -55.5q-88 0 -198 5
q-93 4 -181 4q-89 0 -146 -7l-8 7l5 43l8 8q56 10 66.5 15.5t22 24.5t33 124t46.5 237zM458 713q-72 -415 -81 -484.5t-12 -116.5q182 -32 351 -32q151 0 259 58t190.5 165.5t128.5 260t46 294.5q0 99 -27 188.5t-98 161.5t-182 95.5t-249 23.5q-108 0 -217 -11l-42 -231
l-56 -306h343l7 -8l-8 -50l-9 -8h-344z" />
    <glyph glyph-name="Ntilde" unicode="&#xd1;" horiz-adv-x="1593" 
d="M21 -8l-8 8l4 44l9 8q88 4 111 17.5t46.5 91t103.5 521.5l96 566q-42 67 -82.5 85t-138.5 21l-6 8l3 43l9 8q73 -7 179 -7q72 0 142 7q10 -21 64 -119l73 -131l560 -950l155 923l16 121q4 30 4 38q0 28 -18.5 38.5t-92.5 16.5l-49 4l-8 8l4 43l8 8q69 -3 214 -3
q150 0 211 3l7 -8l-3 -43l-8 -8q-123 -7 -135.5 -28.5t-61.5 -267.5l-72 -365l-66 -381q-27 -156 -49 -339h-102q-10 21 -53 100l-63 112l-569 966l-99 -541l-39 -255q-29 -190 -29 -231q0 -42 24 -56t110 -15q14 0 36 -2l7 -7l-4 -43l-9 -9q-107 8 -218 8q-86 0 -213 -8z
M1311 1805q-15 -77 -68.5 -140t-115.5 -63q-49 0 -133 28l-105 41q-69 27 -115 27q-72 0 -111 -105h-40l-8 6q11 84 69.5 149.5t134.5 65.5q47 0 191 -61q92 -35 135 -35q90 0 122 92h38z" />
    <glyph glyph-name="Ograve" unicode="&#xd2;" horiz-adv-x="1593" 
d="M120 542q0 142 40.5 297t147.5 297.5t268 223t371 80.5q178 0 307 -59.5t203.5 -184.5t74.5 -318q0 -260 -124 -486t-315 -329.5t-408 -103.5q-117 0 -223 34.5t-186 113t-118 191.5t-38 244zM299 553q0 -159 46.5 -271.5t152 -173.5t255.5 -61q188 0 318 95.5
t205.5 304.5t75.5 416q0 115 -26 202.5t-87 157t-150.5 103.5t-196.5 34q-176 0 -306 -87.5t-208.5 -288.5t-78.5 -431zM917 1477zM682 -109zM1098 1574l-34 -23l-8 2l-396 288l10 28l174 -18l253 -266z" />
    <glyph glyph-name="Oacute" unicode="&#xd3;" horiz-adv-x="1593" 
d="M120 542q0 142 40.5 297t147.5 297.5t268 223t371 80.5q178 0 307 -59.5t203.5 -184.5t74.5 -318q0 -260 -124 -486t-315 -329.5t-408 -103.5q-117 0 -223 34.5t-186 113t-118 191.5t-38 244zM299 553q0 -159 46.5 -271.5t152 -173.5t255.5 -61q188 0 318 95.5
t205.5 304.5t75.5 416q0 115 -26 202.5t-87 157t-150.5 103.5t-196.5 34q-176 0 -306 -87.5t-208.5 -288.5t-78.5 -431zM917 1477zM682 -109zM1232 1845q-125 -85 -407 -299l-13 2l-23 19l1 13l255 271l178 18z" />
    <glyph glyph-name="Ocircumflex" unicode="&#xd4;" horiz-adv-x="1593" 
d="M120 542q0 142 40.5 297t147.5 297.5t268 223t371 80.5q178 0 307 -59.5t203.5 -184.5t74.5 -318q0 -260 -124 -486t-315 -329.5t-408 -103.5q-117 0 -223 34.5t-186 113t-118 191.5t-38 244zM299 553q0 -159 46.5 -271.5t152 -173.5t255.5 -61q188 0 318 95.5
t205.5 304.5t75.5 416q0 115 -26 202.5t-87 157t-150.5 103.5t-196.5 34q-176 0 -306 -87.5t-208.5 -288.5t-78.5 -431zM917 1477zM682 -109zM1222 1533h-54l-187 236l-292 -236h-57l-5 10l319 326h106l178 -326zM992 1805zM1271 1579z" />
    <glyph glyph-name="Otilde" unicode="&#xd5;" horiz-adv-x="1593" 
d="M120 542q0 142 40.5 297t147.5 297.5t268 223t371 80.5q178 0 307 -59.5t203.5 -184.5t74.5 -318q0 -260 -124 -486t-315 -329.5t-408 -103.5q-117 0 -223 34.5t-186 113t-118 191.5t-38 244zM299 553q0 -159 46.5 -271.5t152 -173.5t255.5 -61q188 0 318 95.5
t205.5 304.5t75.5 416q0 115 -26 202.5t-87 157t-150.5 103.5t-196.5 34q-176 0 -306 -87.5t-208.5 -288.5t-78.5 -431zM917 1477zM682 -109zM1311 1805q-15 -77 -68.5 -140t-115.5 -63q-49 0 -133 28l-105 41q-69 27 -115 27q-72 0 -111 -105h-40l-8 6q11 84 69.5 149.5
t134.5 65.5q47 0 191 -61q92 -35 135 -35q90 0 122 92h38z" />
    <glyph glyph-name="Odieresis" unicode="&#xd6;" horiz-adv-x="1593" 
d="M120 542q0 142 40.5 297t147.5 297.5t268 223t371 80.5q178 0 307 -59.5t203.5 -184.5t74.5 -318q0 -260 -124 -486t-315 -329.5t-408 -103.5q-117 0 -223 34.5t-186 113t-118 191.5t-38 244zM299 553q0 -159 46.5 -271.5t152 -173.5t255.5 -61q188 0 318 95.5
t205.5 304.5t75.5 416q0 115 -26 202.5t-87 157t-150.5 103.5t-196.5 34q-176 0 -306 -87.5t-208.5 -288.5t-78.5 -431zM917 1477zM682 -109zM1138 1607q-94 0 -94 100q0 48 35 85t83 37q96 0 96 -91q0 -53 -33.5 -92t-86.5 -39zM750 1607q-95 0 -95 100q0 49 35 85.5
t84 36.5q95 0 95 -91q0 -53 -33.5 -92t-85.5 -39z" />
    <glyph glyph-name="multiply" unicode="&#xd7;" 
d="M887 331l-74 -74l-302 303l-301 -303l-75 74l301 301l-299 299l74 74l300 -301l302 302l74 -73l-301 -301z" />
    <glyph glyph-name="Oslash" unicode="&#xd8;" horiz-adv-x="1593" 
d="M126 -77l-41 38v12l151 161q-116 154 -116 414q0 264 121.5 480t299.5 312.5t397 96.5q86 0 162.5 -13.5t130 -37t121.5 -70.5l144 151h12l45 -40v-13l-144 -153q70 -94 95 -185t25 -199q0 -279 -135.5 -506t-325.5 -320.5t-384 -93.5q-229 0 -395 123l-149 -157h-14z
M1249 1206q-128 152 -361 152q-171 0 -300.5 -84t-209.5 -285.5t-80 -419.5q0 -189 58 -308zM397 194q119 -149 352 -149q124 0 234.5 48t191 158.5t127 274t46.5 330.5q0 168 -54 283z" />
    <glyph glyph-name="Ugrave" unicode="&#xd9;" horiz-adv-x="1593" 
d="M1448 41l-7 -41l-9 -8q-91 8 -204 8q-77 0 -143 -8l-7 8l50 247q-92 -109 -235.5 -196t-314.5 -87q-110 0 -198 42t-129 115t-41 159q0 58 14.5 154t48.5 284q90 491 90 573q0 33 -17.5 43.5t-45.5 14t-98 6.5l-8 8l4 42l9 8q112 -5 170 -5q80 0 185 5l-45 -219
q-20 -99 -50 -268l-52 -290q-22 -122 -31 -187t-11 -92t-2 -50q0 -115 86 -172t200 -57q109 0 239.5 68t251.5 214l113 693q33 202 33 246q0 32 -23 41t-146 15l-8 8l4 42l9 8q119 -7 271 -7q109 0 227 7l7 -8l-4 -42l-9 -8q-100 -5 -116 -12q-10 -4 -18.5 -14t-18.5 -49
q-26 -93 -78 -383l-79 -469q-47 -296 -47 -326q0 -23 9.5 -31.5t51 -13.5t114.5 -7zM877 1477zM642 -109zM1076 1574l-34 -23l-8 2l-396 288l10 28l174 -18l253 -266z" />
    <glyph glyph-name="Uacute" unicode="&#xda;" horiz-adv-x="1593" 
d="M1448 41l-7 -41l-9 -8q-91 8 -204 8q-77 0 -143 -8l-7 8l50 247q-92 -109 -235.5 -196t-314.5 -87q-110 0 -198 42t-129 115t-41 159q0 58 14.5 154t48.5 284q90 491 90 573q0 33 -17.5 43.5t-45.5 14t-98 6.5l-8 8l4 42l9 8q112 -5 170 -5q80 0 185 5l-45 -219
q-20 -99 -50 -268l-52 -290q-22 -122 -31 -187t-11 -92t-2 -50q0 -115 86 -172t200 -57q109 0 239.5 68t251.5 214l113 693q33 202 33 246q0 32 -23 41t-146 15l-8 8l4 42l9 8q119 -7 271 -7q109 0 227 7l7 -8l-4 -42l-9 -8q-100 -5 -116 -12q-10 -4 -18.5 -14t-18.5 -49
q-26 -93 -78 -383l-79 -469q-47 -296 -47 -326q0 -23 9.5 -31.5t51 -13.5t114.5 -7zM877 1477zM642 -109zM1252 1845q-125 -85 -407 -299l-13 2l-23 19l1 13l255 271l178 18z" />
    <glyph glyph-name="Ucircumflex" unicode="&#xdb;" horiz-adv-x="1593" 
d="M1448 41l-7 -41l-9 -8q-91 8 -204 8q-77 0 -143 -8l-7 8l50 247q-92 -109 -235.5 -196t-314.5 -87q-110 0 -198 42t-129 115t-41 159q0 58 14.5 154t48.5 284q90 491 90 573q0 33 -17.5 43.5t-45.5 14t-98 6.5l-8 8l4 42l9 8q112 -5 170 -5q80 0 185 5l-45 -219
q-20 -99 -50 -268l-52 -290q-22 -122 -31 -187t-11 -92t-2 -50q0 -115 86 -172t200 -57q109 0 239.5 68t251.5 214l113 693q33 202 33 246q0 32 -23 41t-146 15l-8 8l4 42l9 8q119 -7 271 -7q109 0 227 7l7 -8l-4 -42l-9 -8q-100 -5 -116 -12q-10 -4 -18.5 -14t-18.5 -49
q-26 -93 -78 -383l-79 -469q-47 -296 -47 -326q0 -23 9.5 -31.5t51 -13.5t114.5 -7zM877 1477zM642 -109zM1182 1533h-54l-187 236l-292 -236h-57l-5 10l319 326h106l178 -326zM952 1805zM1231 1579z" />
    <glyph glyph-name="Udieresis" unicode="&#xdc;" horiz-adv-x="1593" 
d="M1448 41l-7 -41l-9 -8q-91 8 -204 8q-77 0 -143 -8l-7 8l50 247q-92 -109 -235.5 -196t-314.5 -87q-110 0 -198 42t-129 115t-41 159q0 58 14.5 154t48.5 284q90 491 90 573q0 33 -17.5 43.5t-45.5 14t-98 6.5l-8 8l4 42l9 8q112 -5 170 -5q80 0 185 5l-45 -219
q-20 -99 -50 -268l-52 -290q-22 -122 -31 -187t-11 -92t-2 -50q0 -115 86 -172t200 -57q109 0 239.5 68t251.5 214l113 693q33 202 33 246q0 32 -23 41t-146 15l-8 8l4 42l9 8q119 -7 271 -7q109 0 227 7l7 -8l-4 -42l-9 -8q-100 -5 -116 -12q-10 -4 -18.5 -14t-18.5 -49
q-26 -93 -78 -383l-79 -469q-47 -296 -47 -326q0 -23 9.5 -31.5t51 -13.5t114.5 -7zM877 1477zM642 -109zM1153 1607q-94 0 -94 100q0 48 35 85t83 37q96 0 96 -91q0 -53 -33.5 -92t-86.5 -39zM765 1607q-95 0 -95 100q0 49 35 85.5t84 36.5q95 0 95 -91q0 -53 -33.5 -92
t-85.5 -39z" />
    <glyph glyph-name="Yacute" unicode="&#xdd;" horiz-adv-x="1366" 
d="M366 -8l-7 8l4 43l9 8q116 7 131 10t23 9.5t18.5 31t33.5 135.5t32 181.5t9 95.5q0 87 -84.5 342t-149 341t-141.5 86q-33 0 -80 -19l-11 7l-4 32l6 12q85 54 153 112q54 -2 94 -21t82 -68.5t89.5 -154.5t95.5 -268t75 -281q117 273 311 516t357 261l-11 -144
q-62 -10 -122.5 -43t-134 -108t-167.5 -216.5t-143.5 -256.5t-68.5 -228q-48 -283 -48 -311t15 -35t81 -12l79 -6l7 -8l-4 -43l-9 -8q-129 7 -264 7q-132 0 -256 -7zM837 1477zM612 -109zM1162 1845q-125 -85 -407 -299l-13 2l-23 19l1 13l255 271l178 18z" />
    <glyph glyph-name="Thorn" unicode="&#xde;" horiz-adv-x="1251" 
d="M571 1111q24 -1 36 -1q21 0 58 1q96 3 153 3q193 0 285 -83.5t92 -241.5q0 -194 -139.5 -335t-330.5 -141q-107 0 -191 42l-8 65q76 -36 159 -36q150 0 239.5 88.5t89.5 259.5q0 159 -78 233.5t-219 74.5q-66 0 -163 -16q-45 -234 -99.5 -559t-54.5 -369q0 -18 11.5 -27
t63.5 -13t121 -5l10 -8l-8 -43l-9 -8q-25 0 -98 2q-189 6 -198 6q-65 0 -238 -8l-7 8l3 43l10 8q102 3 124 11q10 3 16 8.5t12 17.5q20 41 41 155l74 401l70 402q35 218 35 260q0 19 -9.5 28t-44.5 13t-107 7l-7 8l5 43l9 8q5 0 75 -2q157 -6 205 -6q90 0 205 8l7 -8l-3 -43
l-9 -8q-101 -5 -117.5 -11t-25 -27t-45.5 -205z" />
    <glyph glyph-name="germandbls" unicode="&#xdf;" 
d="M76 773l6 32l9 9q120 43 169 76q5 18 24 124q22 130 56.5 183.5t128.5 120.5t185.5 112t154.5 45q70 0 133 -57t63 -152q0 -71 -31.5 -142.5t-139.5 -198.5q-47 -55 -72 -97.5t-25 -82.5q0 -36 17 -76.5t54 -100.5q63 -104 85.5 -156.5t22.5 -96.5q0 -108 -123 -230.5
t-238 -122.5q-65 0 -153 43q31 112 41 209l9 8h23l8 -9v-106q64 -56 133 -56q48 0 88.5 24.5t61 67.5t20.5 84q0 33 -11.5 69t-19.5 54.5t-83 156.5q-62 112 -62 152q0 31 24 75t99 147t108.5 171.5t33.5 137.5q0 82 -46.5 134.5t-121.5 52.5q-59 0 -113 -31t-85.5 -82
t-47.5 -117t-49 -238l-84 -417l-82 -373q-62 -286 -119 -390t-124 -173.5t-126.5 -98.5t-114.5 -29q-32 0 -71 15q33 93 49 165l23 6q11 -25 38.5 -42.5t62.5 -17.5q43 0 82 24.5t70.5 96.5t69.5 245t77 411l75 434l-84 1q-35 0 -71 -1z" />
    <glyph glyph-name="agrave" unicode="&#xe0;" horiz-adv-x="909" 
d="M840 196l7 -27l-4 -12q-210 -181 -286 -181q-50 0 -50 64q0 31 6.5 78.5t19.5 104.5l25 107l15 59l-6 3q-149 -212 -278.5 -318t-181.5 -106q-70 0 -70 171q0 107 32.5 243t79.5 252t75.5 152.5t95 83.5t124.5 72t129 25q87 0 185 -36l64 38l22 -18q-3 -15 -42 -150
l-46 -170l-25 -99q-27 -106 -50 -221.5t-23 -157.5q0 -40 27 -40q17 0 45 15t101 71zM671 833q-76 35 -164 35q-73 0 -130 -27q-21 -16 -43 -56.5t-62 -151t-65 -236t-25 -199.5q0 -55 9.5 -71t28.5 -16q36 0 141 97t177.5 225t119.5 342zM577 1029zM392 -109zM690 1123
l-4 -11l-21 -17l-13 4q-154 142 -333 330l15 21l145 2q31 -60 211 -329z" />
    <glyph glyph-name="aacute" unicode="&#xe1;" horiz-adv-x="909" 
d="M840 196l7 -27l-4 -12q-210 -181 -286 -181q-50 0 -50 64q0 31 6.5 78.5t19.5 104.5l25 107l15 59l-6 3q-149 -212 -278.5 -318t-181.5 -106q-70 0 -70 171q0 107 32.5 243t79.5 252t75.5 152.5t95 83.5t124.5 72t129 25q87 0 185 -36l64 38l22 -18q-3 -15 -42 -150
l-46 -170l-25 -99q-27 -106 -50 -221.5t-23 -157.5q0 -40 27 -40q17 0 45 15t101 71zM671 833q-76 35 -164 35q-73 0 -130 -27q-21 -16 -43 -56.5t-62 -151t-65 -236t-25 -199.5q0 -55 9.5 -71t28.5 -16q36 0 141 97t177.5 225t119.5 342zM577 1029zM392 -109zM862 1428
l-346 -329l-13 -1l-22 19l-2 9q35 45 121 166l107 159l141 3z" />
    <glyph glyph-name="acircumflex" unicode="&#xe2;" horiz-adv-x="909" 
d="M840 196l7 -27l-4 -12q-210 -181 -286 -181q-50 0 -50 64q0 31 6.5 78.5t19.5 104.5l25 107l15 59l-6 3q-149 -212 -278.5 -318t-181.5 -106q-70 0 -70 171q0 107 32.5 243t79.5 252t75.5 152.5t95 83.5t124.5 72t129 25q87 0 185 -36l64 38l22 -18q-3 -15 -42 -150
l-46 -170l-25 -99q-27 -106 -50 -221.5t-23 -157.5q0 -40 27 -40q17 0 45 15t101 71zM671 833q-76 35 -164 35q-73 0 -130 -27q-21 -16 -43 -56.5t-62 -151t-65 -236t-25 -199.5q0 -55 9.5 -71t28.5 -16q36 0 141 97t177.5 225t119.5 342zM577 1029zM392 -109zM909 1098
l-3 -8l-62 -1l-108 151l-73 96l-120 -104q-39 -34 -159 -142h-89l-3 10l191 196l143 156h102q76 -160 181 -354zM665 1381zM990 1092z" />
    <glyph glyph-name="atilde" unicode="&#xe3;" horiz-adv-x="909" 
d="M840 196l7 -27l-4 -12q-210 -181 -286 -181q-50 0 -50 64q0 31 6.5 78.5t19.5 104.5l25 107l15 59l-6 3q-149 -212 -278.5 -318t-181.5 -106q-70 0 -70 171q0 107 32.5 243t79.5 252t75.5 152.5t95 83.5t124.5 72t129 25q87 0 185 -36l64 38l22 -18q-3 -15 -42 -150
l-46 -170l-25 -99q-27 -106 -50 -221.5t-23 -157.5q0 -40 27 -40q17 0 45 15t101 71zM671 833q-76 35 -164 35q-73 0 -130 -27q-21 -16 -43 -56.5t-62 -151t-65 -236t-25 -199.5q0 -55 9.5 -71t28.5 -16q36 0 141 97t177.5 225t119.5 342zM577 1029zM392 -109zM981 1364
q-44 -201 -176 -201q-38 0 -122 30l-103 36q-69 24 -105 24q-70 0 -102 -100h-42l-7 8q49 205 192 205q48 0 112 -24l96 -37q78 -30 110 -30q72 0 103 96h36z" />
    <glyph glyph-name="adieresis" unicode="&#xe4;" horiz-adv-x="909" 
d="M840 196l7 -27l-4 -12q-210 -181 -286 -181q-50 0 -50 64q0 31 6.5 78.5t19.5 104.5l25 107l15 59l-6 3q-149 -212 -278.5 -318t-181.5 -106q-70 0 -70 171q0 107 32.5 243t79.5 252t75.5 152.5t95 83.5t124.5 72t129 25q87 0 185 -36l64 38l22 -18q-3 -15 -42 -150
l-46 -170l-25 -99q-27 -106 -50 -221.5t-23 -157.5q0 -40 27 -40q17 0 45 15t101 71zM671 833q-76 35 -164 35q-73 0 -130 -27q-21 -16 -43 -56.5t-62 -151t-65 -236t-25 -199.5q0 -55 9.5 -71t28.5 -16q36 0 141 97t177.5 225t119.5 342zM577 1029zM392 -109zM415 1163
q-80 0 -80 89q0 50 32 90.5t80 40.5q78 0 78 -80q0 -56 -31.5 -98t-78.5 -42zM794 1163q-80 0 -80 89q0 50 32 90.5t80 40.5q78 0 78 -80q0 -56 -31.5 -98t-78.5 -42z" />
    <glyph glyph-name="aring" unicode="&#xe5;" horiz-adv-x="909" 
d="M840 196l7 -27l-4 -12q-210 -181 -286 -181q-50 0 -50 64q0 31 6.5 78.5t19.5 104.5l25 107l15 59l-6 3q-149 -212 -278.5 -318t-181.5 -106q-70 0 -70 171q0 107 32.5 243t79.5 252t75.5 152.5t95 83.5t124.5 72t129 25q87 0 185 -36l64 38l22 -18q-3 -15 -42 -150
l-46 -170l-25 -99q-27 -106 -50 -221.5t-23 -157.5q0 -40 27 -40q17 0 45 15t101 71zM671 833q-76 35 -164 35q-73 0 -130 -27q-21 -16 -43 -56.5t-62 -151t-65 -236t-25 -199.5q0 -55 9.5 -71t28.5 -16q36 0 141 97t177.5 225t119.5 342zM577 1029zM392 -109zM597 1084
q-77 0 -122 44.5t-45 113.5q0 87 65.5 152.5t156.5 65.5q81 0 127.5 -45.5t46.5 -119.5q0 -86 -69.5 -148.5t-159.5 -62.5zM644 1414q-52 0 -90.5 -51t-38.5 -119q0 -114 92 -114q55 0 94.5 51.5t39.5 116.5q0 46 -26.5 81t-70.5 35z" />
    <glyph glyph-name="ae" unicode="&#xe6;" horiz-adv-x="1307" 
d="M1193 214l12 -26l-3 -13q-248 -203 -410 -203q-84 0 -139.5 34t-93.5 150q-188 -188 -349 -188q-194 0 -194 204q0 102 40 172t114 105.5t155 45.5t270 10q10 79 10 136q0 109 -63.5 168t-173.5 59q-57 0 -109 -19l-46 -134l-11 -5l-19 2l-7 9l-14 135q155 110 286 110
q215 0 282 -188q217 190 376 190q171 0 171 -160q0 -150 -159 -241t-395 -106q-24 -138 -24 -202q0 -88 43 -138t120 -50q132 0 321 146zM730 509q174 7 282.5 82.5t108.5 191.5q0 103 -94 103q-127 0 -204 -114t-93 -263zM589 456l-55 1q-195 0 -282 -64t-87 -193
q0 -131 136 -131q113 0 185 83t103 304z" />
    <glyph glyph-name="ccedilla" unicode="&#xe7;" horiz-adv-x="833" 
d="M804 911q-29 -119 -44 -241l-8 -8h-31l-8 8q0 17 1 51v50q0 99 -167 99q-102 0 -166 -54t-113.5 -219t-49.5 -288q0 -238 175 -238q122 0 323 148l10 -3l11 -28l-3 -12q-215 -181 -364 -207l-65 -110q26 6 59 6q71 0 119.5 -37t48.5 -99q0 -72 -71.5 -122.5t-164.5 -50.5
q-88 0 -185 41l-2 10l18 30l10 2q85 -21 122 -21q58 0 95.5 29t37.5 75q0 85 -108 85q-26 0 -53 -7l-15 11l100 155q-248 0 -248 303q0 183 67 345.5t229 260.5t268 98q98 0 169 -49z" />
    <glyph glyph-name="egrave" unicode="&#xe8;" horiz-adv-x="797" 
d="M674 214l11 -25l-2 -13q-246 -208 -417 -208q-56 0 -114 30.5t-86.5 87.5t-28.5 146q0 125 41.5 266.5t83 209t124.5 127t157.5 96t144.5 36.5q76 0 124 -40t48 -111q0 -81 -46 -149.5t-168 -129.5t-292 -100l-47 -11q-20 -96 -20 -160q0 -90 40 -143t112 -53
q135 0 324 148zM214 475q105 19 199.5 59.5t145 108t50.5 137.5q0 54 -27 80t-65 26q-42 0 -98.5 -24t-100 -88t-104.5 -299zM487 1029zM302 -109zM650 1123l-4 -11l-21 -17l-13 4q-154 142 -333 330l15 21l145 2q31 -60 211 -329z" />
    <glyph glyph-name="eacute" unicode="&#xe9;" horiz-adv-x="797" 
d="M674 214l11 -25l-2 -13q-246 -208 -417 -208q-56 0 -114 30.5t-86.5 87.5t-28.5 146q0 125 41.5 266.5t83 209t124.5 127t157.5 96t144.5 36.5q76 0 124 -40t48 -111q0 -81 -46 -149.5t-168 -129.5t-292 -100l-47 -11q-20 -96 -20 -160q0 -90 40 -143t112 -53
q135 0 324 148zM214 475q105 19 199.5 59.5t145 108t50.5 137.5q0 54 -27 80t-65 26q-42 0 -98.5 -24t-100 -88t-104.5 -299zM487 1029zM302 -109zM812 1428l-346 -329l-13 -1l-22 19l-2 9q35 45 121 166l107 159l141 3z" />
    <glyph glyph-name="ecircumflex" unicode="&#xea;" horiz-adv-x="797" 
d="M674 214l11 -25l-2 -13q-246 -208 -417 -208q-56 0 -114 30.5t-86.5 87.5t-28.5 146q0 125 41.5 266.5t83 209t124.5 127t157.5 96t144.5 36.5q76 0 124 -40t48 -111q0 -81 -46 -149.5t-168 -129.5t-292 -100l-47 -11q-20 -96 -20 -160q0 -90 40 -143t112 -53
q135 0 324 148zM214 475q105 19 199.5 59.5t145 108t50.5 137.5q0 54 -27 80t-65 26q-42 0 -98.5 -24t-100 -88t-104.5 -299zM487 1029zM302 -109zM829 1098l-3 -8l-62 -1l-108 151l-73 96l-120 -104q-39 -34 -159 -142h-89l-3 10l191 196l143 156h102q76 -160 181 -354z
M585 1381zM910 1092z" />
    <glyph glyph-name="edieresis" unicode="&#xeb;" horiz-adv-x="797" 
d="M674 214l11 -25l-2 -13q-246 -208 -417 -208q-56 0 -114 30.5t-86.5 87.5t-28.5 146q0 125 41.5 266.5t83 209t124.5 127t157.5 96t144.5 36.5q76 0 124 -40t48 -111q0 -81 -46 -149.5t-168 -129.5t-292 -100l-47 -11q-20 -96 -20 -160q0 -90 40 -143t112 -53
q135 0 324 148zM214 475q105 19 199.5 59.5t145 108t50.5 137.5q0 54 -27 80t-65 26q-42 0 -98.5 -24t-100 -88t-104.5 -299zM487 1029zM302 -109zM290 1163q-80 0 -80 89q0 50 32 90.5t80 40.5q78 0 78 -80q0 -56 -31.5 -98t-78.5 -42zM669 1163q-80 0 -80 89q0 50 32 90.5
t80 40.5q78 0 78 -80q0 -56 -31.5 -98t-78.5 -42z" />
    <glyph glyph-name="igrave" unicode="&#xec;" horiz-adv-x="569" 
d="M86 745l-10 23l3 13q136 98 209.5 137.5t115.5 39.5q41 0 41 -59q0 -27 -10.5 -76.5t-50.5 -199.5q-109 -404 -109 -478q0 -40 28 -40q43 0 156 85l10 -3l11 -26l-2 -12q-70 -54 -144 -104t-105.5 -63.5t-52.5 -13.5q-30 0 -47 26t-17 61q0 45 12.5 96.5t30.5 114.5
q65 232 92.5 362t27.5 159q0 34 -23 34q-15 0 -29 -7.5t-126 -72.5zM357 1029zM500 1123l-4 -11l-21 -17l-13 4q-154 142 -333 330l15 21l145 2q31 -60 211 -329z" />
    <glyph glyph-name="iacute" unicode="&#xed;" horiz-adv-x="569" 
d="M86 745l-10 23l3 13q136 98 209.5 137.5t115.5 39.5q41 0 41 -59q0 -27 -10.5 -76.5t-50.5 -199.5q-109 -404 -109 -478q0 -40 28 -40q43 0 156 85l10 -3l11 -26l-2 -12q-70 -54 -144 -104t-105.5 -63.5t-52.5 -13.5q-30 0 -47 26t-17 61q0 45 12.5 96.5t30.5 114.5
q65 232 92.5 362t27.5 159q0 34 -23 34q-15 0 -29 -7.5t-126 -72.5zM357 1029zM624 1428l-346 -329l-13 -1l-22 19l-2 9q35 45 121 166l107 159l141 3z" />
    <glyph glyph-name="icircumflex" unicode="&#xee;" horiz-adv-x="569" 
d="M86 745l-10 23l3 13q136 98 209.5 137.5t115.5 39.5q41 0 41 -59q0 -27 -10.5 -76.5t-50.5 -199.5q-109 -404 -109 -478q0 -40 28 -40q43 0 156 85l10 -3l11 -26l-2 -12q-70 -54 -144 -104t-105.5 -63.5t-52.5 -13.5q-30 0 -47 26t-17 61q0 45 12.5 96.5t30.5 114.5
q65 232 92.5 362t27.5 159q0 34 -23 34q-15 0 -29 -7.5t-126 -72.5zM357 1029zM654 1098l-3 -8l-62 -1l-108 151l-73 96l-120 -104q-39 -34 -159 -142h-89l-3 10l191 196l143 156h102q76 -160 181 -354zM410 1381zM735 1092z" />
    <glyph glyph-name="idieresis" unicode="&#xef;" horiz-adv-x="569" 
d="M86 745l-10 23l3 13q136 98 209.5 137.5t115.5 39.5q41 0 41 -59q0 -27 -10.5 -76.5t-50.5 -199.5q-109 -404 -109 -478q0 -40 28 -40q43 0 156 85l10 -3l11 -26l-2 -12q-70 -54 -144 -104t-105.5 -63.5t-52.5 -13.5q-30 0 -47 26t-17 61q0 45 12.5 96.5t30.5 114.5
q65 232 92.5 362t27.5 159q0 34 -23 34q-15 0 -29 -7.5t-126 -72.5zM357 1029zM200 1163q-80 0 -80 89q0 50 32 90.5t80 40.5q78 0 78 -80q0 -56 -31.5 -98t-78.5 -42zM579 1163q-80 0 -80 89q0 50 32 90.5t80 40.5q78 0 78 -80q0 -56 -31.5 -98t-78.5 -42z" />
    <glyph glyph-name="eth" unicode="&#xf0;" horiz-adv-x="909" 
d="M624 1185l-269 -130l-11 4l-18 43l3 12l257 130q-81 107 -213 177l70 59q84 -45 132 -85t107 -110l266 130l12 -4l19 -43l-3 -11l-259 -126q52 -90 88 -227.5t36 -263.5q0 -203 -67 -381.5t-184 -283t-283 -104.5q-271 0 -271 332q0 178 74.5 346t191 250t239.5 82
q93 0 154 -49q-5 58 -17 110.5t-54 142.5zM193 307q0 -65 17 -125.5t62 -96.5t108 -36q95 0 165 85t108.5 230.5t38.5 294.5q0 134 -50.5 188.5t-130.5 54.5q-108 0 -178 -80.5t-105 -220t-35 -294.5z" />
    <glyph glyph-name="ntilde" unicode="&#xf1;" horiz-adv-x="1139" 
d="M118 -25l-13 17q65 199 115.5 459t50.5 330q0 39 -27 39q-37 0 -154 -79l-12 3l-9 22l3 15q40 30 95.5 68t109.5 67.5t74.5 36t36.5 6.5q28 0 38.5 -19.5t10.5 -40.5q0 -45 -33 -178q-10 -37 -54 -219l7 -2q74 121 182 232t223 169t169 58q30 0 45 -18.5t15 -47.5
q0 -69 -69 -336q-93 -356 -93 -419q0 -37 27 -37q33 0 168 96l11 -3l11 -26l-3 -12q-62 -50 -142 -102.5t-116 -68.5t-60 -16q-31 0 -45.5 21.5t-14.5 53.5q0 35 16 109.5t67 273.5q73 281 73 345q0 53 -38 53q-27 0 -63 -17q-64 -30 -138 -97.5t-135.5 -158t-96 -180
t-60.5 -202.5q-4 -14 -31 -163q-69 -11 -141 -32zM1059 1364q-44 -201 -176 -201q-38 0 -122 30l-103 36q-69 24 -105 24q-70 0 -102 -100h-42l-7 8q49 205 192 205q48 0 112 -24l96 -37q78 -30 110 -30q72 0 103 96h36z" />
    <glyph glyph-name="ograve" unicode="&#xf2;" horiz-adv-x="909" 
d="M39 279q0 191 65 348t198.5 249.5t260.5 92.5q116 0 195 -70.5t79 -241.5q0 -168 -74.5 -340t-204.5 -260t-255 -88q-83 0 -145 38.5t-90.5 105t-28.5 166.5zM199 293q0 -86 17 -136.5t60 -81t106 -30.5q66 0 116 35t95 130t65.5 212.5t20.5 216.5q0 91 -21 146t-62 83
t-99 28q-154 0 -226 -184.5t-72 -418.5zM517 1029zM332 -109zM690 1123l-4 -11l-21 -17l-13 4q-154 142 -333 330l15 21l145 2q31 -60 211 -329z" />
    <glyph glyph-name="oacute" unicode="&#xf3;" horiz-adv-x="909" 
d="M39 279q0 191 65 348t198.5 249.5t260.5 92.5q116 0 195 -70.5t79 -241.5q0 -168 -74.5 -340t-204.5 -260t-255 -88q-83 0 -145 38.5t-90.5 105t-28.5 166.5zM199 293q0 -86 17 -136.5t60 -81t106 -30.5q66 0 116 35t95 130t65.5 212.5t20.5 216.5q0 91 -21 146t-62 83
t-99 28q-154 0 -226 -184.5t-72 -418.5zM517 1029zM332 -109zM842 1428l-346 -329l-13 -1l-22 19l-2 9q35 45 121 166l107 159l141 3z" />
    <glyph glyph-name="ocircumflex" unicode="&#xf4;" horiz-adv-x="909" 
d="M39 279q0 191 65 348t198.5 249.5t260.5 92.5q116 0 195 -70.5t79 -241.5q0 -168 -74.5 -340t-204.5 -260t-255 -88q-83 0 -145 38.5t-90.5 105t-28.5 166.5zM199 293q0 -86 17 -136.5t60 -81t106 -30.5q66 0 116 35t95 130t65.5 212.5t20.5 216.5q0 91 -21 146t-62 83
t-99 28q-154 0 -226 -184.5t-72 -418.5zM517 1029zM332 -109zM859 1098l-3 -8l-62 -1l-108 151l-73 96l-120 -104q-39 -34 -159 -142h-89l-3 10l191 196l143 156h102q76 -160 181 -354zM615 1381zM940 1092z" />
    <glyph glyph-name="otilde" unicode="&#xf5;" horiz-adv-x="909" 
d="M39 279q0 191 65 348t198.5 249.5t260.5 92.5q116 0 195 -70.5t79 -241.5q0 -168 -74.5 -340t-204.5 -260t-255 -88q-83 0 -145 38.5t-90.5 105t-28.5 166.5zM199 293q0 -86 17 -136.5t60 -81t106 -30.5q66 0 116 35t95 130t65.5 212.5t20.5 216.5q0 91 -21 146t-62 83
t-99 28q-154 0 -226 -184.5t-72 -418.5zM517 1029zM332 -109zM906 1364q-44 -201 -176 -201q-38 0 -122 30l-103 36q-69 24 -105 24q-70 0 -102 -100h-42l-7 8q49 205 192 205q48 0 112 -24l96 -37q78 -30 110 -30q72 0 103 96h36z" />
    <glyph glyph-name="odieresis" unicode="&#xf6;" horiz-adv-x="909" 
d="M39 279q0 191 65 348t198.5 249.5t260.5 92.5q116 0 195 -70.5t79 -241.5q0 -168 -74.5 -340t-204.5 -260t-255 -88q-83 0 -145 38.5t-90.5 105t-28.5 166.5zM199 293q0 -86 17 -136.5t60 -81t106 -30.5q66 0 116 35t95 130t65.5 212.5t20.5 216.5q0 91 -21 146t-62 83
t-99 28q-154 0 -226 -184.5t-72 -418.5zM517 1029zM332 -109zM360 1163q-80 0 -80 89q0 50 32 90.5t80 40.5q78 0 78 -80q0 -56 -31.5 -98t-78.5 -42zM739 1163q-80 0 -80 89q0 50 32 90.5t80 40.5q78 0 78 -80q0 -56 -31.5 -98t-78.5 -42z" />
    <glyph glyph-name="divide" unicode="&#xf7;" 
d="M512 836q-38 0 -66 28t-28 66t28 65.5t66 27.5t66 -27.5t28 -65.5t-28 -66t-66 -28zM994 581h-964v102h964v-102zM512 239q-38 0 -66 28t-28 66t28 65.5t66 27.5t66 -27.5t28 -65.5t-28 -66t-66 -28z" />
    <glyph glyph-name="oslash" unicode="&#xf8;" horiz-adv-x="909" 
d="M-27 -14l101 116q-33 69 -33 177q0 175 59 333.5t194.5 257t268.5 98.5q128 0 207 -79l78 86h13l35 -32l-1 -12l-88 -101q33 -85 33 -169q0 -143 -64 -319t-199 -274.5t-272 -98.5q-126 0 -191 74l-90 -102h-13l-38 32v13zM664 771q-40 124 -176 124q-57 0 -97 -24
t-75 -76.5t-63.5 -139t-42 -176t-13.5 -161.5q0 -38 4 -71zM215 158q46 -115 165 -115q64 0 107 26t86.5 101t75.5 194.5t32 262.5q0 19 -1 56z" />
    <glyph glyph-name="ugrave" unicode="&#xf9;" horiz-adv-x="1139" 
d="M91 751l-10 23l3 14q30 23 130 84.5t139 78.5t60 17t33 -16t12 -37q0 -23 -29 -140q-128 -525 -128 -619q0 -44 30 -44q38 0 121.5 66t180 189t140.5 247t78 317q12 2 137 32l15 -15q-1 -6 -24 -83q-40 -129 -80 -297t-58 -268.5t-18 -142.5q0 -47 32 -47q17 0 42 15.5
t113 81.5l11 -4l11 -23l-2 -13q-176 -139 -230.5 -169.5t-83.5 -30.5q-24 0 -37.5 21.5t-13.5 49.5q0 62 84 411l-6 3l-74 -106q-38 -54 -89 -112.5t-119.5 -119.5t-124.5 -96t-81 -43.5t-39 -8.5q-29 0 -50.5 28.5t-21.5 84.5q0 77 39 235q99 397 99 482q0 32 -26 32
q-30 0 -153 -80zM617 1029zM432 -109zM800 1123l-4 -11l-21 -17l-13 4q-154 142 -333 330l15 21l145 2q31 -60 211 -329z" />
    <glyph glyph-name="uacute" unicode="&#xfa;" horiz-adv-x="1139" 
d="M91 751l-10 23l3 14q30 23 130 84.5t139 78.5t60 17t33 -16t12 -37q0 -23 -29 -140q-128 -525 -128 -619q0 -44 30 -44q38 0 121.5 66t180 189t140.5 247t78 317q12 2 137 32l15 -15q-1 -6 -24 -83q-40 -129 -80 -297t-58 -268.5t-18 -142.5q0 -47 32 -47q17 0 42 15.5
t113 81.5l11 -4l11 -23l-2 -13q-176 -139 -230.5 -169.5t-83.5 -30.5q-24 0 -37.5 21.5t-13.5 49.5q0 62 84 411l-6 3l-74 -106q-38 -54 -89 -112.5t-119.5 -119.5t-124.5 -96t-81 -43.5t-39 -8.5q-29 0 -50.5 28.5t-21.5 84.5q0 77 39 235q99 397 99 482q0 32 -26 32
q-30 0 -153 -80zM617 1029zM432 -109zM972 1428l-346 -329l-13 -1l-22 19l-2 9q35 45 121 166l107 159l141 3z" />
    <glyph glyph-name="ucircumflex" unicode="&#xfb;" horiz-adv-x="1139" 
d="M91 751l-10 23l3 14q30 23 130 84.5t139 78.5t60 17t33 -16t12 -37q0 -23 -29 -140q-128 -525 -128 -619q0 -44 30 -44q38 0 121.5 66t180 189t140.5 247t78 317q12 2 137 32l15 -15q-1 -6 -24 -83q-40 -129 -80 -297t-58 -268.5t-18 -142.5q0 -47 32 -47q17 0 42 15.5
t113 81.5l11 -4l11 -23l-2 -13q-176 -139 -230.5 -169.5t-83.5 -30.5q-24 0 -37.5 21.5t-13.5 49.5q0 62 84 411l-6 3l-74 -106q-38 -54 -89 -112.5t-119.5 -119.5t-124.5 -96t-81 -43.5t-39 -8.5q-29 0 -50.5 28.5t-21.5 84.5q0 77 39 235q99 397 99 482q0 32 -26 32
q-30 0 -153 -80zM617 1029zM432 -109zM969 1098l-3 -8l-62 -1l-108 151l-73 96l-120 -104q-39 -34 -159 -142h-89l-3 10l191 196l143 156h102q76 -160 181 -354zM725 1381zM1050 1092z" />
    <glyph glyph-name="udieresis" unicode="&#xfc;" horiz-adv-x="1139" 
d="M91 751l-10 23l3 14q30 23 130 84.5t139 78.5t60 17t33 -16t12 -37q0 -23 -29 -140q-128 -525 -128 -619q0 -44 30 -44q38 0 121.5 66t180 189t140.5 247t78 317q12 2 137 32l15 -15q-1 -6 -24 -83q-40 -129 -80 -297t-58 -268.5t-18 -142.5q0 -47 32 -47q17 0 42 15.5
t113 81.5l11 -4l11 -23l-2 -13q-176 -139 -230.5 -169.5t-83.5 -30.5q-24 0 -37.5 21.5t-13.5 49.5q0 62 84 411l-6 3l-74 -106q-38 -54 -89 -112.5t-119.5 -119.5t-124.5 -96t-81 -43.5t-39 -8.5q-29 0 -50.5 28.5t-21.5 84.5q0 77 39 235q99 397 99 482q0 32 -26 32
q-30 0 -153 -80zM617 1029zM432 -109zM490 1163q-80 0 -80 89q0 50 32 90.5t80 40.5q78 0 78 -80q0 -56 -31.5 -98t-78.5 -42zM869 1163q-80 0 -80 89q0 50 32 90.5t80 40.5q78 0 78 -80q0 -56 -31.5 -98t-78.5 -42z" />
    <glyph glyph-name="yacute" unicode="&#xfd;" 
d="M-12 -378l99 67l21 -7q-2 -16 -2 -28q0 -72 42 -108.5t90 -36.5q38 0 77.5 19.5t77 64.5t84.5 151t85.5 228.5t74.5 255.5l34 125q-68 -104 -125 -167t-112 -120t-91 -79t-64 -22q-42 0 -66 51.5t-24 127.5q0 39 14 160q24 219 24 380q0 83 -8.5 108.5t-29.5 25.5
q-23 0 -58 -23t-88 -64l-13 4l-11 24l3 15q223 188 294 188q30 0 47.5 -26t17.5 -98q0 -68 -10 -178q-31 -340 -31 -454q0 -40 8.5 -61t30.5 -21q15 0 39.5 12t78.5 65t108 133.5t96.5 177.5t66.5 185t58 229q68 10 151 38l22 -20q-50 -100 -184 -557
q-68 -235 -113.5 -370.5t-107.5 -247t-144 -193.5t-154.5 -115.5t-138.5 -33.5q-71 0 -122.5 44.5t-51.5 116.5q0 15 5 34zM577 1029zM832 -109zM942 1428l-346 -329l-13 -1l-22 19l-2 9q35 45 121 166l107 159l141 3z" />
    <glyph glyph-name="thorn" unicode="&#xfe;" 
d="M495 1471l26 -19q-16 -62 -61 -282l-124 -581q113 187 252 281.5t238 94.5q45 0 67.5 -24.5t37.5 -81t15 -123.5q0 -92 -32.5 -210.5t-75.5 -203t-100 -144t-136.5 -108t-137.5 -74.5t-95 -26q-27 0 -51 5.5t-82 23.5l-84 -535q-109 -15 -150 -33l-12 12l108 568l76 434
l104 538l49 272q3 18 4 31t1 22q0 21 -13 31t-57 10l-84 1l-8 8l3 25l8 9q185 29 314 79zM256 112q85 -48 171 -48q74 0 129 34t114.5 153t90.5 242.5t31 216.5q0 82 -16 111t-54 29q-50 0 -112 -31t-133.5 -110.5t-123.5 -191.5q-34 -74 -60 -192z" />
    <glyph glyph-name="ydieresis" unicode="&#xff;" 
d="M-12 -378l99 67l21 -7q-2 -16 -2 -28q0 -72 42 -108.5t90 -36.5q38 0 77.5 19.5t77 64.5t84.5 151t85.5 228.5t74.5 255.5l34 125q-68 -104 -125 -167t-112 -120t-91 -79t-64 -22q-42 0 -66 51.5t-24 127.5q0 39 14 160q24 219 24 380q0 83 -8.5 108.5t-29.5 25.5
q-23 0 -58 -23t-88 -64l-13 4l-11 24l3 15q223 188 294 188q30 0 47.5 -26t17.5 -98q0 -68 -10 -178q-31 -340 -31 -454q0 -40 8.5 -61t30.5 -21q15 0 39.5 12t78.5 65t108 133.5t96.5 177.5t66.5 185t58 229q68 10 151 38l22 -20q-50 -100 -184 -557
q-68 -235 -113.5 -370.5t-107.5 -247t-144 -193.5t-154.5 -115.5t-138.5 -33.5q-71 0 -122.5 44.5t-51.5 116.5q0 15 5 34zM577 1029zM832 -109zM429 1163q-80 0 -80 89q0 50 32 90.5t80 40.5q78 0 78 -80q0 -56 -31.5 -98t-78.5 -42zM808 1163q-80 0 -80 89q0 50 32 90.5
t80 40.5q78 0 78 -80q0 -56 -31.5 -98t-78.5 -42z" />
    <glyph glyph-name="Amacron" unicode="&#x100;" horiz-adv-x="1479" 
d="M-14 -8l-7 8l7 44l9 7l58 9q25 4 34 9t19 17t45 64t92 143l22 32l692 1095h94l168 -1208q14 -101 25 -122t33 -26t114 -13l6 -8l-8 -43l-9 -8q-140 8 -241 8q-68 0 -239 -8l-7 8l7 43l9 8q124 5 141.5 15t17.5 43q0 8 -14 154l-39 296h-499l-141 -234q-20 -33 -63.5 -112
t-50 -95.5t-6.5 -26.5q0 -17 19.5 -25.5t146.5 -13.5l6 -8l-7 -44l-9 -8q-116 8 -218 8q-84 0 -207 -8zM566 637h440l-76 581zM1008 1477zM684 -109zM1367 1750l-17 -90h-618l17 90h618z" />
    <glyph glyph-name="amacron" unicode="&#x101;" horiz-adv-x="909" 
d="M840 196l7 -27l-4 -12q-210 -181 -286 -181q-50 0 -50 64q0 31 6.5 78.5t19.5 104.5l25 107l15 59l-6 3q-149 -212 -278.5 -318t-181.5 -106q-70 0 -70 171q0 107 32.5 243t79.5 252t75.5 152.5t95 83.5t124.5 72t129 25q87 0 185 -36l64 38l22 -18q-3 -15 -42 -150
l-46 -170l-25 -99q-27 -106 -50 -221.5t-23 -157.5q0 -40 27 -40q17 0 45 15t101 71zM671 833q-76 35 -164 35q-73 0 -130 -27q-21 -16 -43 -56.5t-62 -151t-65 -236t-25 -199.5q0 -55 9.5 -71t28.5 -16q36 0 141 97t177.5 225t119.5 342zM577 1029zM392 -109zM907 1287
l-23 -94h-544l25 94h542z" />
    <glyph glyph-name="Abreve" unicode="&#x102;" horiz-adv-x="1479" 
d="M-14 -8l-7 8l7 44l9 7l58 9q25 4 34 9t19 17t45 64t92 143l22 32l692 1095h94l168 -1208q14 -101 25 -122t33 -26t114 -13l6 -8l-8 -43l-9 -8q-140 8 -241 8q-68 0 -239 -8l-7 8l7 43l9 8q124 5 141.5 15t17.5 43q0 8 -14 154l-39 296h-499l-141 -234q-20 -33 -63.5 -112
t-50 -95.5t-6.5 -26.5q0 -17 19.5 -25.5t146.5 -13.5l6 -8l-7 -44l-9 -8q-116 8 -218 8q-84 0 -207 -8zM566 637h440l-76 581zM1008 1477zM684 -109zM774 1852h57q16 -202 224 -202q183 0 268 202h59q-84 -325 -340 -325q-125 0 -197.5 72.5t-72.5 199.5q0 19 2 53z
M1075 1797z" />
    <glyph glyph-name="abreve" unicode="&#x103;" horiz-adv-x="909" 
d="M840 196l7 -27l-4 -12q-210 -181 -286 -181q-50 0 -50 64q0 31 6.5 78.5t19.5 104.5l25 107l15 59l-6 3q-149 -212 -278.5 -318t-181.5 -106q-70 0 -70 171q0 107 32.5 243t79.5 252t75.5 152.5t95 83.5t124.5 72t129 25q87 0 185 -36l64 38l22 -18q-3 -15 -42 -150
l-46 -170l-25 -99q-27 -106 -50 -221.5t-23 -157.5q0 -40 27 -40q17 0 45 15t101 71zM671 833q-76 35 -164 35q-73 0 -130 -27q-21 -16 -43 -56.5t-62 -151t-65 -236t-25 -199.5q0 -55 9.5 -71t28.5 -16q36 0 141 97t177.5 225t119.5 342zM577 1029zM392 -109zM919 1428
q-61 -315 -325 -315q-109 0 -178 73t-69 195q0 12 4 47l36 -1q0 -90 63.5 -145.5t160.5 -55.5q182 0 268 201zM629 1364z" />
    <glyph glyph-name="Aogonek" unicode="&#x104;" horiz-adv-x="1479" 
d="M1397 43l-8 -43l-9 -8l-149 7q-111 -115 -111 -215q0 -95 83 -95q69 0 121 73l8 2l21 -11l2 -7q-103 -176 -209 -176q-68 0 -111 38.5t-43 95.5q0 108 181 295q-93 0 -224 -6l-33 -1l-7 8l7 43l9 8q99 1 121 12.5t22 45.5q0 48 -14 154l-39 296h-499l-141 -234
q-120 -199 -120 -234q0 -19 26 -27.5t121 -11.5l6 -8l-7 -44l-9 -8q-185 8 -199 8q-84 0 -207 -8l-7 8l7 44l9 7l58 9q42 7 61 35l151 230l692 1095h94l168 -1208q12 -87 20 -110t24 -32t128 -19zM1006 637l-76 581l-364 -581h440z" />
    <glyph glyph-name="aogonek" unicode="&#x105;" horiz-adv-x="909" 
d="M847 169l-4 -12q-170 -147 -246 -176q-87 -97 -87 -167q0 -80 61 -80q62 0 108 46l7 2l15 -10l2 -7q-84 -124 -193 -124q-47 0 -75 32.5t-28 75.5q0 42 23.5 91.5t118.5 144.5q-42 19 -42 55q0 73 26 183l40 166l-6 3q-117 -164 -251.5 -294t-208.5 -130q-70 0 -70 171
q0 178 72 386.5t119.5 265.5t150 116.5t194.5 59.5q87 0 185 -36l64 38l22 -18q-9 -30 -42 -150l-71 -269q-73 -277 -73 -379q0 -40 27 -40q34 0 146 86l9 -3zM671 833q-76 35 -164 35q-73 0 -130 -27q-49 -38 -122 -255.5t-73 -387.5q0 -87 38 -87q44 0 138.5 93t170 211
t129.5 360z" />
    <glyph glyph-name="Cacute" unicode="&#x106;" horiz-adv-x="1366" 
d="M1230 208l10 -29l-30 -73q-207 -148 -480 -148q-200 0 -338.5 75.5t-205 213t-66.5 325.5q0 157 42.5 292t120 235t185 177t217 118t253.5 41q226 0 413 -78l4 -11q-30 -87 -50 -281l-8 -8h-42l-8 8q0 132 -3 156q-125 108 -360 108q-94 0 -182.5 -23t-157 -75.5
t-122 -142.5t-87.5 -209.5t-34 -266.5q0 -272 133.5 -409t360.5 -137q222 0 435 142zM1241 1845q-125 -85 -407 -299l-13 2l-23 19l1 13l255 271l178 18z" />
    <glyph glyph-name="cacute" unicode="&#x107;" horiz-adv-x="833" 
d="M726 216l11 -28l-3 -12q-121 -101 -222.5 -155.5t-194.5 -54.5q-123 0 -186 76.5t-63 226.5q0 92 22 195.5t59 180.5t77.5 122t121.5 96q109 68 169 89t115 21q98 0 169 -49l3 -13q-29 -119 -44 -241l-8 -8h-31l-8 8v67q1 20 1 34q0 33 -12 51t-56 33t-99 15
q-105 0 -167.5 -54.5t-112 -218t-49.5 -288.5t49 -181.5t126 -56.5q63 0 132 29t191 119zM842 1428l-346 -329l-13 -1l-22 19l-2 9q35 45 121 166l107 159l141 3z" />
    <glyph glyph-name="Ccircumflex" unicode="&#x108;" horiz-adv-x="1366" 
d="M1230 208l10 -29l-30 -73q-207 -148 -480 -148q-200 0 -338.5 75.5t-205 213t-66.5 325.5q0 157 42.5 292t120 235t185 177t217 118t253.5 41q226 0 413 -78l4 -11q-30 -87 -50 -281l-8 -8h-42l-8 8q0 132 -3 156q-125 108 -360 108q-94 0 -182.5 -23t-157 -75.5
t-122 -142.5t-87.5 -209.5t-34 -266.5q0 -272 133.5 -409t360.5 -137q222 0 435 142zM1202 1533h-54l-187 236l-292 -236h-57l-5 10l319 326h106l178 -326zM972 1805zM1251 1579z" />
    <glyph glyph-name="ccircumflex" unicode="&#x109;" horiz-adv-x="833" 
d="M726 216l11 -28l-3 -12q-121 -101 -222.5 -155.5t-194.5 -54.5q-123 0 -186 76.5t-63 226.5q0 92 22 195.5t59 180.5t77.5 122t121.5 96q109 68 169 89t115 21q98 0 169 -49l3 -13q-29 -119 -44 -241l-8 -8h-31l-8 8v67q1 20 1 34q0 33 -12 51t-56 33t-99 15
q-105 0 -167.5 -54.5t-112 -218t-49.5 -288.5t49 -181.5t126 -56.5q63 0 132 29t191 119zM859 1098l-3 -8l-62 -1l-108 151l-73 96l-120 -104q-39 -34 -159 -142h-89l-3 10l191 196l143 156h102q76 -160 181 -354zM615 1381zM940 1092z" />
    <glyph glyph-name="Cdotaccent" unicode="&#x10a;" horiz-adv-x="1366" 
d="M1230 208l10 -29l-30 -73q-207 -148 -480 -148q-200 0 -338.5 75.5t-205 213t-66.5 325.5q0 157 42.5 292t120 235t185 177t217 118t253.5 41q226 0 413 -78l4 -11q-30 -87 -50 -281l-8 -8h-42l-8 8q0 132 -3 156q-125 108 -360 108q-94 0 -182.5 -23t-157 -75.5
t-122 -142.5t-87.5 -209.5t-34 -266.5q0 -272 133.5 -409t360.5 -137q222 0 435 142zM857 1607q-94 0 -94 100q0 48 35 85t83 37q96 0 96 -91q0 -54 -34 -92.5t-86 -38.5z" />
    <glyph glyph-name="cdotaccent" unicode="&#x10b;" horiz-adv-x="833" 
d="M726 216l11 -28l-3 -12q-121 -101 -222.5 -155.5t-194.5 -54.5q-123 0 -186 76.5t-63 226.5q0 92 22 195.5t59 180.5t77.5 122t121.5 96q109 68 169 89t115 21q98 0 169 -49l3 -13q-29 -119 -44 -241l-8 -8h-31l-8 8v67q1 20 1 34q0 33 -12 51t-56 33t-99 15
q-105 0 -167.5 -54.5t-112 -218t-49.5 -288.5t49 -181.5t126 -56.5q63 0 132 29t191 119zM579 1163q-81 0 -81 89q0 52 30.5 91.5t82.5 39.5q78 0 78 -80q0 -56 -31.5 -98t-78.5 -42z" />
    <glyph glyph-name="Ccaron" unicode="&#x10c;" horiz-adv-x="1366" 
d="M1230 208l10 -29l-30 -73q-207 -148 -480 -148q-200 0 -338.5 75.5t-205 213t-66.5 325.5q0 157 42.5 292t120 235t185 177t217 118t253.5 41q226 0 413 -78l4 -11q-30 -87 -50 -281l-8 -8h-42l-8 8q0 132 -3 156q-125 108 -360 108q-94 0 -182.5 -23t-157 -75.5
t-122 -142.5t-87.5 -209.5t-34 -266.5q0 -272 133.5 -409t360.5 -137q222 0 435 142zM1245 1869l8 -10l-324 -326h-105l-176 328l10 8h40l197 -236l302 236h48z" />
    <glyph glyph-name="ccaron" unicode="&#x10d;" horiz-adv-x="833" 
d="M726 216l11 -28l-3 -12q-121 -101 -222.5 -155.5t-194.5 -54.5q-123 0 -186 76.5t-63 226.5q0 92 22 195.5t59 180.5t77.5 122t121.5 96q109 68 169 89t115 21q98 0 169 -49l3 -13q-29 -119 -44 -241l-8 -8h-31l-8 8v67q1 20 1 34q0 33 -12 51t-56 33t-99 15
q-105 0 -167.5 -54.5t-112 -218t-49.5 -288.5t49 -181.5t126 -56.5q63 0 132 29t191 119zM884 1446l-191 -209q-39 -42 -129 -147h-72q-33 54 -200 358l6 6h62l172 -246q121 101 270 246h80z" />
    <glyph glyph-name="Dcaron" unicode="&#x10e;" horiz-adv-x="1593" 
d="M81 -7l-8 7l5 43l8 8q56 10 65 15t19.5 19t23.5 64t66 335l61 342l36 219q33 223 33 254q0 26 -10.5 35.5t-41.5 13t-109 6.5l-7 9l5 42l10 8q96 -7 252 -7l381 6q182 0 289 -25t190 -86t129.5 -169t46.5 -253q0 -136 -39.5 -264.5t-117 -241.5t-178.5 -193.5
t-182.5 -117t-177.5 -54t-224 -17.5q-88 0 -198 5q-93 4 -181 4q-83 0 -146 -7zM365 112q182 -32 351 -32q151 0 259 58t190.5 165.5t128.5 260t46 294.5q0 99 -27 188.5t-98 161.5t-182 95.5t-249 23.5q-108 0 -217 -11l-73 -398l-85 -496q-36 -210 -44 -310zM1235 1869
l8 -10l-324 -326h-105l-176 328l10 8h40l197 -236l302 236h48z" />
    <glyph glyph-name="dcaron" unicode="&#x10f;" horiz-adv-x="1297" 
d="M968 1471l25 -19q-47 -198 -107 -485l-118 -564q-28 -144 -35 -204q-2 -19 -2 -39q0 -48 28 -48q38 0 159 96l11 -3l10 -23l-3 -13q-93 -81 -183 -138.5t-128 -57.5q-21 0 -34.5 22.5t-13.5 67.5q0 37 14.5 111.5t53.5 237.5l-5 1q-108 -182 -257.5 -311t-233.5 -129
q-30 0 -51 21t-34 77t-13 118q0 85 28 217t71 228.5t85.5 145.5t113.5 97t122.5 69t105.5 21q58 0 168 -25l52 303q8 38 8 64q0 22 -15.5 31t-55.5 9l-84 1l-8 8l3 25l8 9q187 30 315 79zM726 827q-94 49 -194 49q-62 0 -100.5 -13.5t-58 -33.5t-51 -86.5t-61.5 -163
t-46.5 -190t-16.5 -180.5q0 -54 11 -75t34 -21q38 0 108 44q106 68 190 182t126 243q19 59 59 245zM1114 1051v22q106 22 158 70t52 90q0 27 -43 27q-97 0 -97 87q0 48 34.5 89t95.5 41q113 0 113 -132q0 -103 -85 -192t-228 -102z" />
    <glyph glyph-name="Dcroat" unicode="&#x110;" horiz-adv-x="1593" 
d="M301 713h-183l-8 8l8 50l8 8h187q33 187 55 342t22 178q0 26 -10.5 35.5t-41.5 13t-109 6.5l-7 9l5 42l10 8q96 -7 252 -7l381 6q145 0 268 -18.5t216.5 -95.5t132 -185.5t38.5 -233.5q0 -188 -74 -357.5t-207 -294.5t-274.5 -180.5t-363.5 -55.5q-88 0 -198 5
q-93 4 -181 4q-89 0 -146 -7l-8 7l5 43l8 8q56 10 66.5 15.5t22 24.5t33 124t46.5 237zM458 713q-72 -415 -81 -484.5t-12 -116.5q182 -32 351 -32q151 0 259 58t190.5 165.5t128.5 260t46 294.5q0 99 -27 188.5t-98 161.5t-182 95.5t-249 23.5q-108 0 -217 -11l-42 -231
l-56 -306h343l7 -8l-8 -50l-9 -8h-344z" />
    <glyph glyph-name="dcroat" unicode="&#x111;" 
d="M788 1192q17 91 17 117q0 23 -16 31.5t-55 8.5l-84 1l-8 8l3 25l8 9q187 30 315 79l25 -19l-59 -260h158l7 -8l-8 -52l-9 -8h-163l-134 -641q-54 -254 -54 -323q0 -48 28 -48q38 0 159 96l11 -3l10 -23l-3 -13q-93 -81 -183 -138.5t-128 -57.5q-21 0 -34.5 22.5
t-13.5 67.5q0 37 14.5 111.5t53.5 237.5l-5 1q-108 -182 -257.5 -311t-233.5 -129q-30 0 -51 21t-34 77t-13 118q0 85 28 217t71 228.5t85.5 145.5t113.5 97t122.5 69t105.5 21q58 0 168 -25l32 182h-294l-6 8l12 52l8 8h291zM726 827q-94 49 -194 49q-62 0 -100.5 -13.5
t-58 -33.5t-51 -86.5t-61.5 -163t-46.5 -190t-16.5 -180.5q0 -54 11 -75t34 -21t58 16t93 58.5t118.5 115t100.5 150.5t59.5 146t45.5 192z" />
    <glyph glyph-name="Emacron" unicode="&#x112;" horiz-adv-x="1251" 
d="M79 -8l-7 8l3 43l10 8q69 8 81 14q7 4 12 11q15 20 28 73q12 47 76 396l80 455q43 260 43 306q0 19 -9 28t-44 13t-108 7l-6 8l5 43l9 8q97 -8 208 -8q526 0 696 8l8 -8q-3 -23 -18 -124l-19 -174l-8 -8h-35l-8 8q-10 152 -13.5 168.5t-18 26.5t-98 17.5t-170.5 7.5
q-119 0 -194 -9q-40 -173 -103 -550q100 -3 178 -3q136 0 333 13l7 -10l-38 -95q-233 11 -357 11q-48 0 -138 -2l-61 -365q-27 -158 -34 -223q138 -12 268 -12q127 0 215.5 7t107.5 15.5t30.5 29t31.5 97.5q14 54 25 87l9 8h42l7 -8q-14 -44 -29.5 -156.5t-18.5 -160.5
l-13 -9l-696 8q-174 0 -269 -8zM727 1477zM632 -109zM1125 1750l-17 -90h-618l17 90h618z" />
    <glyph glyph-name="emacron" unicode="&#x113;" horiz-adv-x="797" 
d="M674 214l11 -25l-2 -13q-246 -208 -417 -208q-56 0 -114 30.5t-86.5 87.5t-28.5 146q0 125 41.5 266.5t83 209t124.5 127t157.5 96t144.5 36.5q76 0 124 -40t48 -111q0 -81 -46 -149.5t-168 -129.5t-292 -100l-47 -11q-20 -96 -20 -160q0 -90 40 -143t112 -53
q135 0 324 148zM214 475q105 19 199.5 59.5t145 108t50.5 137.5q0 54 -27 80t-65 26q-42 0 -98.5 -24t-100 -88t-104.5 -299zM487 1029zM302 -109zM857 1287l-23 -94h-544l25 94h542z" />
    <glyph glyph-name="Ebreve" unicode="&#x114;" horiz-adv-x="1251" 
d="M79 -8l-7 8l3 43l10 8q69 8 81 14q7 4 12 11q15 20 28 73q12 47 76 396l80 455q43 260 43 306q0 19 -9 28t-44 13t-108 7l-6 8l5 43l9 8q97 -8 208 -8q526 0 696 8l8 -8q-3 -23 -18 -124l-19 -174l-8 -8h-35l-8 8q-10 152 -13.5 168.5t-18 26.5t-98 17.5t-170.5 7.5
q-119 0 -194 -9q-40 -173 -103 -550q100 -3 178 -3q136 0 333 13l7 -10l-38 -95q-233 11 -357 11q-48 0 -138 -2l-61 -365q-27 -158 -34 -223q138 -12 268 -12q127 0 215.5 7t107.5 15.5t30.5 29t31.5 97.5q14 54 25 87l9 8h42l7 -8q-14 -44 -29.5 -156.5t-18.5 -160.5
l-13 -9l-696 8q-174 0 -269 -8zM727 1477zM632 -109zM544 1852h57q16 -202 224 -202q183 0 268 202h59q-84 -325 -340 -325q-125 0 -197.5 72.5t-72.5 199.5q0 19 2 53zM845 1797z" />
    <glyph glyph-name="ebreve" unicode="&#x115;" horiz-adv-x="797" 
d="M674 214l11 -25l-2 -13q-246 -208 -417 -208q-56 0 -114 30.5t-86.5 87.5t-28.5 146q0 125 41.5 266.5t83 209t124.5 127t157.5 96t144.5 36.5q76 0 124 -40t48 -111q0 -81 -46 -149.5t-168 -129.5t-292 -100l-47 -11q-20 -96 -20 -160q0 -90 40 -143t112 -53
q135 0 324 148zM214 475q105 19 199.5 59.5t145 108t50.5 137.5q0 54 -27 80t-65 26q-42 0 -98.5 -24t-100 -88t-104.5 -299zM487 1029zM302 -109zM824 1428q-61 -315 -325 -315q-109 0 -178 73t-69 195q0 12 4 47l36 -1q0 -90 63.5 -145.5t160.5 -55.5q182 0 268 201z
M534 1364z" />
    <glyph glyph-name="Edotaccent" unicode="&#x116;" horiz-adv-x="1251" 
d="M79 -8l-7 8l3 43l10 8q69 8 81 14q7 4 12 11q15 20 28 73q12 47 76 396l80 455q43 260 43 306q0 19 -9 28t-44 13t-108 7l-6 8l5 43l9 8q97 -8 208 -8q526 0 696 8l8 -8q-3 -23 -18 -124l-19 -174l-8 -8h-35l-8 8q-10 152 -13.5 168.5t-18 26.5t-98 17.5t-170.5 7.5
q-119 0 -194 -9q-40 -173 -103 -550q100 -3 178 -3q136 0 333 13l7 -10l-38 -95q-233 11 -357 11q-48 0 -138 -2l-61 -365q-27 -158 -34 -223q138 -12 268 -12q127 0 215.5 7t107.5 15.5t30.5 29t31.5 97.5q14 54 25 87l9 8h42l7 -8q-14 -44 -29.5 -156.5t-18.5 -160.5
l-13 -9l-696 8q-174 0 -269 -8zM727 1477zM632 -109zM797 1607q-94 0 -94 100q0 48 35 85t83 37q96 0 96 -91q0 -54 -34 -92.5t-86 -38.5z" />
    <glyph glyph-name="edotaccent" unicode="&#x117;" horiz-adv-x="797" 
d="M674 214l11 -25l-2 -13q-246 -208 -417 -208q-56 0 -114 30.5t-86.5 87.5t-28.5 146q0 125 41.5 266.5t83 209t124.5 127t157.5 96t144.5 36.5q76 0 124 -40t48 -111q0 -81 -46 -149.5t-168 -129.5t-292 -100l-47 -11q-20 -96 -20 -160q0 -90 40 -143t112 -53
q135 0 324 148zM214 475q105 19 199.5 59.5t145 108t50.5 137.5q0 54 -27 80t-65 26q-42 0 -98.5 -24t-100 -88t-104.5 -299zM487 1029zM302 -109zM519 1163q-81 0 -81 89q0 52 30.5 91.5t82.5 39.5q78 0 78 -80q0 -56 -31.5 -98t-78.5 -42z" />
    <glyph glyph-name="Eogonek" unicode="&#x118;" horiz-adv-x="1251" 
d="M1164 1405q-5 -28 -18 -124l-19 -174l-8 -8h-35l-8 8q-3 159 -24.5 189.5t-275.5 30.5q-119 0 -194 -9q-40 -173 -103 -550q100 -3 178 -3q136 0 333 13l7 -10l-38 -95q-233 11 -357 11q-48 0 -138 -2l-61 -365q-28 -166 -34 -223q138 -12 268 -12q307 0 334.5 30
t50.5 119q14 54 25 87l9 8h42l7 -8q-35 -110 -48 -317l-13 -9l-92 2q-104 -112 -104 -210q0 -95 83 -95q69 0 121 73l8 2l21 -11l2 -7q-103 -176 -209 -176q-67 0 -110.5 38t-43.5 99q0 131 172 287l-544 6q-188 0 -269 -8l-7 8l3 43l10 8q58 6 77.5 12t37 60.5t82.5 421.5
l80 455q43 245 43 306q0 19 -18 31.5t-143 16.5l-6 8l5 43l9 8q97 -8 208 -8q526 0 696 8z" />
    <glyph glyph-name="eogonek" unicode="&#x119;" horiz-adv-x="797" 
d="M207 426q-20 -96 -20 -160q0 -196 152 -196q135 0 324 148l11 -4l11 -25l-2 -13q-219 -185 -379 -206q-74 -122 -74 -156q0 -80 61 -80q62 0 108 46l7 2l15 -10l2 -7q-84 -124 -193 -124q-47 0 -75 32.5t-28 75.5q0 91 126 219q-216 17 -216 264q0 131 56.5 323.5
t220 302t274.5 109.5q76 0 124 -40.5t48 -110.5q0 -262 -506 -379zM214 475q211 39 303 123.5t92 181.5q0 106 -92 106q-88 0 -161 -65.5t-142 -345.5z" />
    <glyph glyph-name="Ecaron" unicode="&#x11a;" horiz-adv-x="1251" 
d="M79 -8l-7 8l3 43l10 8q69 8 81 14q7 4 12 11q15 20 28 73q12 47 76 396l80 455q43 260 43 306q0 19 -9 28t-44 13t-108 7l-6 8l5 43l9 8q97 -8 208 -8q526 0 696 8l8 -8q-3 -23 -18 -124l-19 -174l-8 -8h-35l-8 8q-10 152 -13.5 168.5t-18 26.5t-98 17.5t-170.5 7.5
q-119 0 -194 -9q-40 -173 -103 -550q100 -3 178 -3q136 0 333 13l7 -10l-38 -95q-233 11 -357 11q-48 0 -138 -2l-61 -365q-27 -158 -34 -223q138 -12 268 -12q127 0 215.5 7t107.5 15.5t30.5 29t31.5 97.5q14 54 25 87l9 8h42l7 -8q-14 -44 -29.5 -156.5t-18.5 -160.5
l-13 -9l-696 8q-174 0 -269 -8zM727 1477zM632 -109zM1169 1869l8 -10l-324 -326h-105l-176 328l10 8h40l197 -236l302 236h48z" />
    <glyph glyph-name="ecaron" unicode="&#x11b;" horiz-adv-x="797" 
d="M674 214l11 -25l-2 -13q-246 -208 -417 -208q-56 0 -114 30.5t-86.5 87.5t-28.5 146q0 125 41.5 266.5t83 209t124.5 127t157.5 96t144.5 36.5q76 0 124 -40t48 -111q0 -81 -46 -149.5t-168 -129.5t-292 -100l-47 -11q-20 -96 -20 -160q0 -90 40 -143t112 -53
q135 0 324 148zM214 475q105 19 199.5 59.5t145 108t50.5 137.5q0 54 -27 80t-65 26q-42 0 -98.5 -24t-100 -88t-104.5 -299zM487 1029zM302 -109zM855 1446l-191 -209q-39 -42 -129 -147h-72q-33 54 -200 358l6 6h62l172 -246q121 101 270 246h80z" />
    <glyph glyph-name="Gcircumflex" unicode="&#x11c;" horiz-adv-x="1479" 
d="M1263 87l-9 -15q-34 -3 -124 -34q-137 -46 -211.5 -62.5t-171.5 -16.5q-210 0 -351.5 73t-208.5 207t-67 305q0 191 65 363.5t195 292.5t274.5 177.5t318.5 57.5q212 0 408 -79l4 -11q-36 -108 -58 -284l-8 -8h-42l-8 8q0 73 -7 171q-53 45 -154 72t-206 27
q-172 0 -307.5 -81t-214 -263t-78.5 -395q0 -120 29 -224.5t103.5 -181t169.5 -105t207 -28.5q165 0 279 65l37 196q15 85 15 114q0 26 -16 39.5t-79 17.5l-136 11l-8 8l6 44l10 8l35 -1q176 -6 229 -6q112 0 239 3l7 -8l-4 -39l-8 -9q-62 -11 -78.5 -18t-23 -18t-17.5 -61
l-12 -57q-8 -39 -19 -114t-11 -108q0 -15 7 -33zM1212 1533h-54l-187 236l-292 -236h-57l-5 10l319 326h106l178 -326zM982 1805zM1261 1579z" />
    <glyph glyph-name="gcircumflex" unicode="&#x11d;" 
d="M358 29q-45 47 -45 70q0 24 30.5 63.5t106.5 105.5q-29 -2 -47 -2q-119 0 -189 62.5t-70 186.5q0 87 34 173.5t92.5 141t141 94.5t179.5 40q172 0 239 -112q116 2 173 13l4 -5l-16 -100q-27 2 -52 2q-35 0 -80 -4q4 -32 4 -58q0 -142 -92.5 -256.5t-249.5 -157.5
q-56 -53 -56 -90q0 -38 29.5 -71.5t178.5 -156.5q86 -70 112.5 -123t26.5 -101q0 -129 -142 -221t-356 -92q-174 0 -265.5 66t-91.5 177q0 65 36 129t134 126t231 100zM289 553q0 -103 48.5 -161.5t140.5 -58.5q120 0 178 109t58 247q0 68 -20 114t-61.5 72t-101.5 26
q-116 0 -179 -103t-63 -245zM390 -7q-85 -21 -161 -69t-108.5 -105t-32.5 -119q0 -100 78.5 -156.5t203.5 -56.5q86 0 156.5 24t110.5 70.5t40 101.5q0 35 -17 71t-43 60.5t-87 70.5zM909 1098l-3 -8l-62 -1l-108 151l-73 96l-120 -104q-39 -34 -159 -142h-89l-3 10l191 196
l143 156h102q76 -160 181 -354zM665 1381zM990 1092z" />
    <glyph glyph-name="Gbreve" unicode="&#x11e;" horiz-adv-x="1479" 
d="M1263 87l-9 -15q-34 -3 -124 -34q-137 -46 -211.5 -62.5t-171.5 -16.5q-210 0 -351.5 73t-208.5 207t-67 305q0 191 65 363.5t195 292.5t274.5 177.5t318.5 57.5q212 0 408 -79l4 -11q-36 -108 -58 -284l-8 -8h-42l-8 8q0 73 -7 171q-53 45 -154 72t-206 27
q-172 0 -307.5 -81t-214 -263t-78.5 -395q0 -120 29 -224.5t103.5 -181t169.5 -105t207 -28.5q165 0 279 65l37 196q15 85 15 114q0 26 -16 39.5t-79 17.5l-136 11l-8 8l6 44l10 8l35 -1q176 -6 229 -6q112 0 239 3l7 -8l-4 -39l-8 -9q-62 -11 -78.5 -18t-23 -18t-17.5 -61
l-12 -57q-8 -39 -19 -114t-11 -108q0 -15 7 -33zM651 1852h57q16 -202 224 -202q183 0 268 202h59q-84 -325 -340 -325q-125 0 -197.5 72.5t-72.5 199.5q0 19 2 53zM952 1797z" />
    <glyph glyph-name="gbreve" unicode="&#x11f;" 
d="M358 29q-45 47 -45 70q0 24 30.5 63.5t106.5 105.5q-29 -2 -47 -2q-119 0 -189 62.5t-70 186.5q0 87 34 173.5t92.5 141t141 94.5t179.5 40q172 0 239 -112q116 2 173 13l4 -5l-16 -100q-27 2 -52 2q-35 0 -80 -4q4 -32 4 -58q0 -142 -92.5 -256.5t-249.5 -157.5
q-56 -53 -56 -90q0 -38 29.5 -71.5t178.5 -156.5q86 -70 112.5 -123t26.5 -101q0 -129 -142 -221t-356 -92q-174 0 -265.5 66t-91.5 177q0 65 36 129t134 126t231 100zM289 553q0 -103 48.5 -161.5t140.5 -58.5q120 0 178 109t58 247q0 68 -20 114t-61.5 72t-101.5 26
q-116 0 -179 -103t-63 -245zM390 -7q-85 -21 -161 -69t-108.5 -105t-32.5 -119q0 -100 78.5 -156.5t203.5 -56.5q86 0 156.5 24t110.5 70.5t40 101.5q0 35 -17 71t-43 60.5t-87 70.5zM884 1428q-61 -315 -325 -315q-109 0 -178 73t-69 195q0 12 4 47l36 -1
q0 -90 63.5 -145.5t160.5 -55.5q182 0 268 201zM594 1364z" />
    <glyph glyph-name="Gdotaccent" unicode="&#x120;" horiz-adv-x="1479" 
d="M1263 87l-9 -15q-34 -3 -124 -34q-137 -46 -211.5 -62.5t-171.5 -16.5q-210 0 -351.5 73t-208.5 207t-67 305q0 191 65 363.5t195 292.5t274.5 177.5t318.5 57.5q212 0 408 -79l4 -11q-36 -108 -58 -284l-8 -8h-42l-8 8q0 73 -7 171q-53 45 -154 72t-206 27
q-172 0 -307.5 -81t-214 -263t-78.5 -395q0 -120 29 -224.5t103.5 -181t169.5 -105t207 -28.5q165 0 279 65l37 196q15 85 15 114q0 26 -16 39.5t-79 17.5l-136 11l-8 8l6 44l10 8l35 -1q176 -6 229 -6q112 0 239 3l7 -8l-4 -39l-8 -9q-62 -11 -78.5 -18t-23 -18t-17.5 -61
l-12 -57q-8 -39 -19 -114t-11 -108q0 -15 7 -33zM904 1607q-94 0 -94 100q0 48 35 85t83 37q96 0 96 -91q0 -54 -34 -92.5t-86 -38.5z" />
    <glyph glyph-name="gdotaccent" unicode="&#x121;" 
d="M358 29q-45 47 -45 70q0 24 30.5 63.5t106.5 105.5q-29 -2 -47 -2q-119 0 -189 62.5t-70 186.5q0 87 34 173.5t92.5 141t141 94.5t179.5 40q172 0 239 -112q116 2 173 13l4 -5l-16 -100q-27 2 -52 2q-35 0 -80 -4q4 -32 4 -58q0 -142 -92.5 -256.5t-249.5 -157.5
q-56 -53 -56 -90q0 -38 29.5 -71.5t178.5 -156.5q86 -70 112.5 -123t26.5 -101q0 -129 -142 -221t-356 -92q-174 0 -265.5 66t-91.5 177q0 65 36 129t134 126t231 100zM289 553q0 -103 48.5 -161.5t140.5 -58.5q120 0 178 109t58 247q0 68 -20 114t-61.5 72t-101.5 26
q-116 0 -179 -103t-63 -245zM390 -7q-85 -21 -161 -69t-108.5 -105t-32.5 -119q0 -100 78.5 -156.5t203.5 -56.5q86 0 156.5 24t110.5 70.5t40 101.5q0 35 -17 71t-43 60.5t-87 70.5zM569 1163q-81 0 -81 89q0 52 30.5 91.5t82.5 39.5q78 0 78 -80q0 -56 -31.5 -98
t-78.5 -42z" />
    <glyph glyph-name="uni0122" unicode="&#x122;" horiz-adv-x="1479" 
d="M1263 87l-9 -15q-34 -3 -124 -34q-137 -46 -211.5 -62.5t-171.5 -16.5q-210 0 -351.5 73t-208.5 207t-67 305q0 191 65 363.5t195 292.5t274.5 177.5t318.5 57.5q212 0 408 -79l4 -11q-36 -108 -58 -284l-8 -8h-42l-8 8q0 73 -7 171q-53 45 -154 72t-206 27
q-172 0 -307.5 -81t-214 -263t-78.5 -395q0 -120 29 -224.5t103.5 -181t169.5 -105t207 -28.5q165 0 279 65l37 196q15 85 15 114q0 26 -16 39.5t-79 17.5l-136 11l-8 8l6 44l10 8l35 -1q176 -6 229 -6q112 0 239 3l7 -8l-4 -39l-8 -9q-62 -11 -78.5 -18t-23 -18t-17.5 -61
l-12 -57q-8 -39 -19 -114t-11 -108q0 -15 7 -33zM534 -576l-1 23q113 24 167 73.5t54 95.5q0 28 -45 28q-102 0 -102 91q0 52 36.5 95t100.5 43q119 0 119 -140q0 -107 -89 -200.5t-240 -108.5z" />
    <glyph glyph-name="uni0123" unicode="&#x123;" 
d="M358 29q-45 47 -45 70q0 24 30.5 63.5t106.5 105.5q-29 -2 -47 -2q-119 0 -189 62.5t-70 186.5q0 87 34 173.5t92.5 141t141 94.5t179.5 40q172 0 239 -112q116 2 173 13l4 -5l-16 -100q-27 2 -52 2q-35 0 -80 -4q4 -32 4 -58q0 -142 -92.5 -256.5t-249.5 -157.5
q-56 -53 -56 -90q0 -38 29.5 -71.5t178.5 -156.5q86 -70 112.5 -123t26.5 -101q0 -129 -142 -221t-356 -92q-174 0 -265.5 66t-91.5 177q0 65 36 129t134 126t231 100zM289 553q0 -103 48.5 -161.5t140.5 -58.5q120 0 178 109t58 247q0 68 -20 114t-61.5 72t-101.5 26
q-116 0 -179 -103t-63 -245zM390 -7q-85 -21 -161 -69t-108.5 -105t-32.5 -119q0 -100 78.5 -156.5t203.5 -56.5q86 0 156.5 24t110.5 70.5t40 101.5q0 35 -17 71t-43 60.5t-87 70.5zM785 1551l2 -23q-102 -21 -153 -68.5t-51 -87.5q0 -24 42 -24q38 0 62.5 -27t24.5 -66
q0 -65 -39 -103t-94 -38q-110 0 -110 134q0 108 78.5 196.5t237.5 106.5z" />
    <glyph glyph-name="Hcircumflex" unicode="&#x124;" horiz-adv-x="1593" 
d="M465 784l476 -4q158 0 279 4q80 442 80 521q0 17 -18 32t-143 17l-6 8l4 43l10 8l279 -8q95 0 205 8l8 -8l-4 -43l-9 -8q-81 -4 -107 -8t-35 -29t-47 -208.5t-66 -353.5l-67 -400q-37 -221 -37 -260q0 -18 20.5 -28.5t142.5 -15.5l6 -8l-5 -43l-9 -8l-262 8
q-105 0 -223 -8l-7 8l4 43l9 8q51 1 124 18q18 15 32.5 73.5t52.5 268.5l52 286l-396 4q-37 0 -267 -5l-92 -2q-93 -535 -93 -598q0 -18 20.5 -29t142.5 -16l6 -8l-5 -43l-9 -8l-263 8q-104 0 -222 -8l-7 8l3 43l10 8q86 5 109.5 10.5t38.5 51t58 283.5l65 357l59 347
q27 159 27 204q0 20 -18 33t-143 17l-7 8l5 43l9 8l280 -8q94 0 205 8l7 -8l-3 -43l-9 -8q-98 -3 -120.5 -13.5t-34.5 -68.5l-36 -174q-9 -45 -59 -314zM1264 1533h-54l-187 236l-292 -236h-57l-5 10l319 326h106l178 -326zM1034 1805zM1313 1579z" />
    <glyph glyph-name="hcircumflex" unicode="&#x125;" 
d="M458 1471l25 -19q-42 -178 -194 -903l7 -4q185 243 330.5 328.5t222.5 85.5q25 0 40 -17.5t15 -42.5q0 -36 -31 -160q-40 -156 -86.5 -358t-46.5 -242q0 -17 8.5 -24.5t16.5 -7.5q22 0 63.5 27t105.5 74l10 -3l12 -26l-2 -11q-83 -68 -186.5 -133.5t-136.5 -65.5
q-22 0 -35.5 23t-13.5 61q0 26 3 41.5t34 149.5l57 248q59 242 59 295q0 36 -40 36q-27 0 -55 -13q-61 -30 -151 -108q-70 -62 -131 -149t-95 -175q-26 -70 -48 -174l-37 -198q-122 -25 -139 -33l-13 14q151 573 228 1054l33 204q8 37 8 63q0 21 -13.5 31t-57.5 10l-84 1
l-8 8l4 25l7 9q188 30 315 79zM759 1548l-3 -8l-62 -1l-108 151l-73 96l-120 -104q-39 -34 -159 -142h-89l-3 10l191 196l143 156h102q76 -160 181 -354zM515 1831zM840 1542z" />
    <glyph glyph-name="Hbar" unicode="&#x126;" horiz-adv-x="1593" 
d="M520 1079h750q30 183 30 226q0 27 -22.5 35.5t-138.5 13.5l-6 8l4 43l10 8q5 0 74 -2q157 -6 205 -6q95 0 205 8l8 -8l-4 -43l-9 -8q-80 -4 -101 -7t-33 -16t-21 -59q-20 -96 -40 -193h168l-12 -77h-171q-49 -260 -99 -561.5t-50 -345.5q0 -16 10 -24.5t48 -12.5t105 -7
l6 -8l-5 -43l-9 -8q-3 0 -63 2q-157 6 -199 6q-105 0 -223 -8l-7 8l4 43l9 8q82 4 99 8t24.5 10t19 30t24.5 87.5t42 224.5l52 286q-52 0 -120 2t-276 2q-108 0 -267 -5l-92 -2q-93 -535 -93 -598q0 -17 10 -25.5t48 -12.5t105 -7l6 -8l-5 -43l-9 -8q-4 0 -64 2
q-157 6 -199 6q-104 0 -222 -8l-7 8l3 43l10 8q87 5 102.5 9t23.5 11.5t21.5 41.5t46.5 215l59 325q27 145 61 349h-177l12 77h177q31 182 31 226q0 27 -22.5 35.5t-138.5 13.5l-7 8l5 43l9 8q5 0 74 -2q158 -6 206 -6q94 0 205 8l7 -8l-3 -43l-9 -8q-81 -4 -102 -7
t-32.5 -16t-20.5 -59zM505 1002l-40 -218l476 -4q149 0 223 2q48 2 56 2q17 93 37 218h-752z" />
    <glyph glyph-name="hbar" unicode="&#x127;" 
d="M411 1124l-122 -575l7 -4q185 243 330.5 328.5t222.5 85.5q25 0 40 -17.5t15 -42.5q0 -36 -31 -160q-40 -156 -86.5 -358t-46.5 -242q0 -17 8.5 -24.5t16.5 -7.5q22 0 63.5 27t105.5 74l10 -3l12 -26l-2 -11q-83 -68 -186.5 -133.5t-136.5 -65.5q-22 0 -35.5 23t-13.5 61
q0 26 3 41.5t34 149.5l57 248q59 242 59 295q0 36 -40 36q-27 0 -55 -13q-61 -30 -151 -108q-70 -62 -131 -149t-95 -175q-26 -70 -48 -174l-37 -198q-122 -25 -139 -33l-13 14q146 539 241 1137h-158l-6 8l12 52l8 8h156q16 97 16 113q0 26 -15 35t-56 9l-84 1l-8 8l4 25
l7 9q188 30 315 79l25 -19q-27 -104 -58 -260h198l8 -8l-9 -52l-8 -8h-203z" />
    <glyph glyph-name="Itilde" unicode="&#x128;" horiz-adv-x="682" 
d="M525 43l-5 -43l-9 -8q-4 0 -64 2q-157 6 -199 6q-103 0 -222 -8l-7 8l3 43l10 8q89 5 107 10q10 3 15 7t10 11q12 19 22 53q11 42 52 265l65 355l59 346q27 170 27 207q0 27 -22.5 35.5t-138.5 13.5l-7 8l5 43l9 8q5 0 74 -2q158 -6 206 -6q95 0 205 8l7 -8l-3 -43l-9 -8
q-105 -6 -120 -12q-8 -4 -15 -12t-15 -37q-25 -94 -81 -403l-81 -470q-47 -286 -47 -324q0 -17 10 -25.5t48 -12.5t105 -7zM487 1477zM252 -109zM888 1805q-15 -77 -68.5 -140t-115.5 -63q-49 0 -133 28l-105 41q-69 27 -115 27q-72 0 -111 -105h-40l-8 6q11 84 69.5 149.5
t134.5 65.5q47 0 191 -61q92 -35 135 -35q90 0 122 92h38z" />
    <glyph glyph-name="itilde" unicode="&#x129;" horiz-adv-x="569" 
d="M86 745l-10 23l3 13q136 98 209.5 137.5t115.5 39.5q41 0 41 -59q0 -27 -10.5 -76.5t-50.5 -199.5q-109 -404 -109 -478q0 -40 28 -40q43 0 156 85l10 -3l11 -26l-2 -12q-70 -54 -144 -104t-105.5 -63.5t-52.5 -13.5q-30 0 -47 26t-17 61q0 45 12.5 96.5t30.5 114.5
q65 232 92.5 362t27.5 159q0 34 -23 34q-15 0 -29 -7.5t-126 -72.5zM357 1029zM713 1364q-44 -201 -176 -201q-38 0 -122 30l-103 36q-69 24 -105 24q-70 0 -102 -100h-42l-7 8q49 205 192 205q48 0 112 -24l96 -37q78 -30 110 -30q72 0 103 96h36z" />
    <glyph glyph-name="Imacron" unicode="&#x12a;" horiz-adv-x="682" 
d="M525 43l-5 -43l-9 -8q-4 0 -64 2q-157 6 -199 6q-103 0 -222 -8l-7 8l3 43l10 8q89 5 107 10q10 3 15 7t10 11q12 19 22 53q11 42 52 265l65 355l59 346q27 170 27 207q0 27 -22.5 35.5t-138.5 13.5l-7 8l5 43l9 8q5 0 74 -2q158 -6 206 -6q95 0 205 8l7 -8l-3 -43l-9 -8
q-105 -6 -120 -12q-8 -4 -15 -12t-15 -37q-25 -94 -81 -403l-81 -470q-47 -286 -47 -324q0 -17 10 -25.5t48 -12.5t105 -7zM487 1477zM252 -109zM825 1750l-17 -90h-618l17 90h618z" />
    <glyph glyph-name="imacron" unicode="&#x12b;" horiz-adv-x="569" 
d="M86 745l-10 23l3 13q136 98 209.5 137.5t115.5 39.5q41 0 41 -59q0 -27 -10.5 -76.5t-50.5 -199.5q-109 -404 -109 -478q0 -40 28 -40q43 0 156 85l10 -3l11 -26l-2 -12q-70 -54 -144 -104t-105.5 -63.5t-52.5 -13.5q-30 0 -47 26t-17 61q0 45 12.5 96.5t30.5 114.5
q65 232 92.5 362t27.5 159q0 34 -23 34q-15 0 -29 -7.5t-126 -72.5zM357 1029zM657 1287l-23 -94h-544l25 94h542z" />
    <glyph glyph-name="Ibreve" unicode="&#x12c;" horiz-adv-x="682" 
d="M525 43l-5 -43l-9 -8q-4 0 -64 2q-157 6 -199 6q-103 0 -222 -8l-7 8l3 43l10 8q89 5 107 10q10 3 15 7t10 11q12 19 22 53q11 42 52 265l65 355l59 346q27 170 27 207q0 27 -22.5 35.5t-138.5 13.5l-7 8l5 43l9 8q5 0 74 -2q158 -6 206 -6q95 0 205 8l7 -8l-3 -43l-9 -8
q-105 -6 -120 -12q-8 -4 -15 -12t-15 -37q-25 -94 -81 -403l-81 -470q-47 -286 -47 -324q0 -17 10 -25.5t48 -12.5t105 -7zM487 1477zM252 -109zM261 1852h57q16 -202 224 -202q183 0 268 202h59q-84 -325 -340 -325q-125 0 -197.5 72.5t-72.5 199.5q0 19 2 53zM562 1797z
" />
    <glyph glyph-name="ibreve" unicode="&#x12d;" horiz-adv-x="569" 
d="M86 745l-10 23l3 13q136 98 209.5 137.5t115.5 39.5q41 0 41 -59q0 -27 -10.5 -76.5t-50.5 -199.5q-109 -404 -109 -478q0 -40 28 -40q43 0 156 85l10 -3l11 -26l-2 -12q-70 -54 -144 -104t-105.5 -63.5t-52.5 -13.5q-30 0 -47 26t-17 61q0 45 12.5 96.5t30.5 114.5
q65 232 92.5 362t27.5 159q0 34 -23 34q-15 0 -29 -7.5t-126 -72.5zM357 1029zM694 1428q-61 -315 -325 -315q-109 0 -178 73t-69 195q0 12 4 47l36 -1q0 -90 63.5 -145.5t160.5 -55.5q182 0 268 201zM404 1364z" />
    <glyph glyph-name="Iogonek" unicode="&#x12e;" horiz-adv-x="682" 
d="M311 -1q-103 -150 -103 -205q0 -95 83 -95q69 0 121 73l8 2l21 -11l2 -7q-103 -176 -209 -176q-66 0 -110 38t-44 96q0 109 172 286h-4q-103 0 -222 -8l-7 8l3 43l10 8q120 2 136.5 31t69.5 315l65 355l59 346q27 158 27 207q0 17 -18 32t-143 17l-7 8l5 43l9 8l280 -8
q95 0 205 8l7 -8l-3 -43l-9 -8q-109 -5 -126 -13.5t-45 -138t-60 -312.5l-81 -470q-47 -273 -47 -324q0 -18 20.5 -29t142.5 -16l6 -8l-5 -43l-9 -8q-20 0 -64 2z" />
    <glyph glyph-name="iogonek" unicode="&#x12f;" horiz-adv-x="569" 
d="M462 1437q76 0 76 -81q0 -55 -31 -97t-78 -42q-82 0 -82 86q0 51 32.5 92.5t82.5 41.5zM214 -27q-84 -109 -84 -159q0 -80 61 -80q62 0 108 46l7 2l15 -10l2 -7q-84 -124 -193 -124q-47 0 -75 32.5t-28 75.5q0 91 129 223q-44 16 -44 83q0 58 43 211q120 427 120 521
q0 34 -23 34q-17 0 -155 -80l-11 4l-10 23l3 13q246 177 325 177q41 0 41 -59q0 -49 -61 -276q-109 -405 -109 -478q0 -40 28 -40q43 0 156 85l10 -3l11 -26l-2 -12q-138 -107 -249 -168z" />
    <glyph glyph-name="Idotaccent" unicode="&#x130;" horiz-adv-x="682" 
d="M525 43l-5 -43l-9 -8q-4 0 -64 2q-157 6 -199 6q-103 0 -222 -8l-7 8l3 43l10 8q89 5 107 10q10 3 15 7t10 11q12 19 22 53q11 42 52 265l65 355l59 346q27 170 27 207q0 27 -22.5 35.5t-138.5 13.5l-7 8l5 43l9 8q5 0 74 -2q158 -6 206 -6q95 0 205 8l7 -8l-3 -43l-9 -8
q-105 -6 -120 -12q-8 -4 -15 -12t-15 -37q-25 -94 -81 -403l-81 -470q-47 -286 -47 -324q0 -17 10 -25.5t48 -12.5t105 -7zM487 1477zM252 -109zM528 1607q-94 0 -94 100q0 48 35 85t83 37q96 0 96 -91q0 -54 -34 -92.5t-86 -38.5z" />
    <glyph glyph-name="dotlessi" unicode="&#x131;" horiz-adv-x="569" 
d="M86 745l-10 23l3 13q136 98 209.5 137.5t115.5 39.5q41 0 41 -59q0 -27 -10.5 -76.5t-50.5 -199.5q-109 -404 -109 -478q0 -40 28 -40q43 0 156 85l10 -3l11 -26l-2 -12q-70 -54 -144 -104t-105.5 -63.5t-52.5 -13.5q-30 0 -47 26t-17 61q0 45 12.5 96.5t30.5 114.5
q65 232 92.5 362t27.5 159q0 34 -23 34q-15 0 -29 -7.5t-126 -72.5zM357 1029z" />
    <glyph glyph-name="Jcircumflex" unicode="&#x134;" horiz-adv-x="682" 
d="M206 1354l-6 8l5 43l9 8q26 0 89 -2l206 -6q90 0 205 8l7 -8l-3 -43l-9 -8q-118 -5 -132 -17.5t-51 -207.5t-64 -371l-105 -680q-42 -270 -141 -387t-203 -117q-34 0 -77 19l-4 44l8 9q25 -10 50 -10q85 0 128.5 97.5t104.5 500.5l139 904q21 137 21 167q0 22 -26.5 34.5
t-150.5 14.5zM777 1533h-54l-187 236l-292 -236h-57l-5 10l319 326h106l178 -326zM547 1805zM826 1579z" />
    <glyph glyph-name="jcircumflex" unicode="&#x135;" horiz-adv-x="569" 
d="M695 1098l-4 -8l-62 -1l-108 151l-73 96l-120 -104q-39 -34 -159 -142h-89l-3 10l191 196l143 156h102q78 -164 182 -354zM-136 -557l16 97l17 10q56 -31 81 -31q24 0 45 21.5t42 70.5t43 169.5t67 344.5l96 473l27 158q3 18 3 32q0 35 -30 35q-35 0 -160 -81l-11 4
l-11 23l4 14q253 178 331 178q45 0 45 -60q0 -47 -54 -286l-102 -451q-104 -460 -193.5 -599t-183.5 -139q-25 0 -72 17z" />
    <glyph glyph-name="uni0136" unicode="&#x136;" horiz-adv-x="1366" 
d="M253 1405l9 8l280 -8q95 0 205 8l7 -8l-3 -43l-9 -8q-102 -6 -119.5 -12t-31.5 -50.5t-54 -263.5l-57 -313q152 113 353 318l240 245q37 39 44 57t8 70l8 8q68 -7 132 -7q47 0 121 7l8 -8l-4 -43l-8 -8q-61 -1 -89.5 -15t-97.5 -79l-548 -516l446 -548
q76 -93 106.5 -114.5t113.5 -29.5l6 -8l-4 -44l-9 -8q-73 8 -133 8q-38 0 -133 -8q-237 341 -564 698q-93 -531 -93 -594q0 -18 20.5 -29t142.5 -16l6 -8l-5 -43l-9 -8l-263 8q-103 0 -222 -8l-7 8l3 43l10 8q120 2 136.5 31t69.5 315l65 355l59 346q27 158 27 207
q0 17 -18 32t-143 17l-7 8zM509 -576l-1 23q113 24 167 73.5t54 95.5q0 28 -45 28q-102 0 -102 91q0 52 36.5 95t100.5 43q119 0 119 -140q0 -107 -89 -200.5t-240 -108.5z" />
    <glyph glyph-name="uni0137" unicode="&#x137;" horiz-adv-x="909" 
d="M456 1471l25 -19q-35 -144 -93 -421l-58 -276q-36 -171 -66 -289q78 112 198.5 248t217.5 198.5t167 62.5q28 0 69 -16l-34 -140q-44 14 -84 14q-54 0 -107 -22t-109.5 -67.5t-123.5 -113.5q34 -107 91.5 -251t87.5 -202t47 -69t29 -11q28 0 103 46l31 19l11 -3l10 -24
l-3 -12q-141 -104 -185.5 -129t-65.5 -25q-10 0 -21.5 6.5t-32.5 37t-59 119.5t-59 145.5t-85 237.5q-61 -75 -78 -100.5t-28.5 -53t-25.5 -82.5t-26 -127l-24 -142l-136 -36l-17 13l49 190q31 121 91.5 414.5t86.5 446.5l37 209q7 39 7 61q0 21 -13.5 31t-57.5 10l-84 1
l-8 8l3 25l8 9q186 29 315 79zM164 -555v22q106 22 158 70t52 90q0 27 -43 27q-97 0 -97 87q0 48 34.5 89t95.5 41q113 0 113 -132q0 -103 -85 -192t-228 -102z" />
    <glyph glyph-name="kgreenlandic" unicode="&#x138;" horiz-adv-x="909" 
d="M348 969l25 -19q-32 -153 -109 -484q78 112 198.5 248t217.5 198.5t167 62.5q28 0 69 -16l-34 -140q-44 14 -84 14q-105 0 -216 -89q-57 -46 -124 -114q88 -277 179 -453q41 -80 76 -80q28 0 103 46l31 19l11 -3l10 -24l-3 -12q-209 -154 -251 -154q-24 0 -54 44
q-42 61 -118 265q-21 56 -85 237q-52 -64 -59 -73q-32 -43 -47 -80q-28 -65 -52 -210l-24 -142l-136 -36l-17 13l49 190q9 34 49 242q44 230 58 326q7 48 7 61q0 21 -13 31q-18 13 -64 12l-78 -1l-8 8l3 25l8 9q186 29 315 79z" />
    <glyph glyph-name="Lacute" unicode="&#x139;" horiz-adv-x="1139" 
d="M56 -7l-8 7l5 43l8 8q56 10 65 15t19.5 19t23.5 64t66 335l61 342l36 219q33 223 33 254q0 26 -10.5 35.5t-41.5 13t-109 6.5l-7 9l5 42l10 8q122 -8 298 -8q132 0 207 8l8 -8l-5 -43l-8 -9q-122 -10 -134.5 -14t-20 -11.5t-12.5 -23.5q-15 -41 -59 -282l-120 -705
q-24 -152 -27 -228q112 -12 208 -12q127 0 202 3.5t119 11.5t54.5 15.5t18.5 20.5t25 70l37 129l9 8h43l8 -9q-38 -235 -47 -325l-9 -8l-353 4l-461 3q-69 0 -137 -7zM847 1845q-125 -85 -407 -299l-13 2l-23 19l1 13l255 271l178 18z" />
    <glyph glyph-name="lacute" unicode="&#x13a;" horiz-adv-x="569" 
d="M481 1471l26 -19q-39 -163 -163 -762q-89 -428 -101 -511q-2 -18 -2 -32q0 -21 10 -33t22 -12q33 0 143 83l29 21l10 -3l11 -26l-3 -12q-242 -195 -326 -195q-30 0 -45.5 22.5t-15.5 61.5q0 42 13 106.5t88 403.5q71 323 99 482l35 200q7 40 7 62q0 23 -15.5 32t-54.5 9
l-84 1l-8 8l3 25l8 9q188 30 314 79zM652 1906l-346 -329l-13 -1l-22 19l-2 9q35 45 121 166l107 159l141 3z" />
    <glyph glyph-name="uni013B" unicode="&#x13b;" horiz-adv-x="1139" 
d="M56 -7l-8 7l5 43l8 8q56 10 65 15t19.5 19t23.5 64t66 335l61 342l36 219q33 223 33 254q0 26 -10.5 35.5t-41.5 13t-109 6.5l-7 9l5 42l10 8q122 -8 298 -8q132 0 207 8l8 -8l-5 -43l-8 -9q-122 -10 -134.5 -14t-20 -11.5t-12.5 -23.5q-15 -41 -59 -282l-120 -705
q-24 -152 -27 -228q112 -12 208 -12q127 0 202 3.5t119 11.5t54.5 15.5t18.5 20.5t25 70l37 129l9 8h43l8 -9q-38 -235 -47 -325l-9 -8l-353 4l-461 3q-69 0 -137 -7zM379 -576l-1 23q113 24 167 73.5t54 95.5q0 28 -45 28q-102 0 -102 91q0 52 36.5 95t100.5 43
q119 0 119 -140q0 -107 -89 -200.5t-240 -108.5z" />
    <glyph glyph-name="uni013C" unicode="&#x13c;" horiz-adv-x="569" 
d="M481 1471l26 -19q-39 -163 -163 -762q-89 -428 -101 -511q-2 -18 -2 -32q0 -21 10 -33t22 -12q33 0 143 83l29 21l10 -3l11 -26l-3 -12q-242 -195 -326 -195q-30 0 -45.5 22.5t-15.5 61.5q0 42 13 106.5t88 403.5q71 323 99 482l35 200q7 40 7 62q0 23 -15.5 32t-54.5 9
l-84 1l-8 8l3 25l8 9q188 30 314 79zM-36 -555v22q106 22 158 70t52 90q0 27 -43 27q-97 0 -97 87q0 48 34.5 89t95.5 41q113 0 113 -132q0 -103 -85 -192t-228 -102z" />
    <glyph glyph-name="Lcaron" unicode="&#x13d;" horiz-adv-x="1139" 
d="M56 -7l-8 7l5 43l8 8q56 10 65 15t19.5 19t23.5 64t66 335l61 342l36 219q33 223 33 254q0 26 -10.5 35.5t-41.5 13t-109 6.5l-7 9l5 42l10 8q122 -8 298 -8q132 0 207 8l8 -8l-5 -43l-8 -9q-122 -10 -134.5 -14t-20 -11.5t-12.5 -23.5q-15 -41 -59 -282l-120 -705
q-24 -152 -27 -228q112 -12 208 -12q127 0 202 3.5t119 11.5t54.5 15.5t18.5 20.5t25 70l37 129l9 8h43l8 -9q-38 -235 -47 -325l-9 -8l-353 4l-461 3q-69 0 -137 -7zM781 964l-1 23q113 24 167 73.5t54 95.5q0 28 -45 28q-102 0 -102 91q0 52 36.5 95t100.5 43
q119 0 119 -140q0 -107 -89 -200.5t-240 -108.5z" />
    <glyph glyph-name="lcaron" unicode="&#x13e;" horiz-adv-x="790" 
d="M481 1471l26 -19q-39 -163 -163 -762q-89 -428 -101 -511q-2 -18 -2 -32q0 -21 10 -33t22 -12q33 0 143 83l29 21l10 -3l11 -26l-3 -12q-242 -195 -326 -195q-30 0 -45.5 22.5t-15.5 61.5q0 42 13 106.5t88 403.5q71 323 99 482l35 200q7 40 7 62q0 23 -15.5 32t-54.5 9
l-84 1l-8 8l3 25l8 9q188 30 314 79zM544 1051v22q106 22 158 70t52 90q0 27 -43 27q-97 0 -97 87q0 48 34.5 89t95.5 41q113 0 113 -132q0 -103 -85 -192t-228 -102z" />
    <glyph glyph-name="Ldot" unicode="&#x13f;" horiz-adv-x="1139" 
d="M56 -7l-8 7l5 43l8 8q56 10 65 15t19.5 19t23.5 64t66 335l61 342l36 219q33 223 33 254q0 26 -10.5 35.5t-41.5 13t-109 6.5l-7 9l5 42l10 8q122 -8 298 -8q132 0 207 8l8 -8l-5 -43l-8 -9q-122 -10 -134.5 -14t-20 -11.5t-12.5 -23.5q-15 -41 -59 -282l-120 -705
q-24 -152 -27 -228q112 -12 208 -12q127 0 202 3.5t119 11.5t54.5 15.5t18.5 20.5t25 70l37 129l9 8h43l8 -9q-38 -235 -47 -325l-9 -8l-353 4l-461 3q-69 0 -137 -7zM827 695q-94 0 -94 100q0 48 35 85t83 37q96 0 96 -91q0 -54 -34 -92.5t-86 -38.5z" />
    <glyph glyph-name="ldot" unicode="&#x140;" horiz-adv-x="645" 
d="M481 1471l26 -19q-39 -163 -163 -762q-89 -428 -101 -511q-2 -18 -2 -32q0 -21 10 -33t22 -12q33 0 143 83l29 21l10 -3l11 -26l-3 -12q-242 -195 -326 -195q-30 0 -45.5 22.5t-15.5 61.5q0 42 13 106.5t88 403.5q71 323 99 482l35 200q7 40 7 62q0 23 -15.5 32t-54.5 9
l-84 1l-8 8l3 25l8 9q188 30 314 79zM569 702q-81 0 -81 89q0 52 30.5 91.5t82.5 39.5q78 0 78 -80q0 -56 -31.5 -98t-78.5 -42z" />
    <glyph glyph-name="Lslash" unicode="&#x141;" horiz-adv-x="1139" 
d="M273 695q45 247 68.5 412t23.5 192q0 26 -10.5 35.5t-41.5 13t-109 6.5l-7 9l6 42l9 8q123 -8 298 -8q133 0 208 8l8 -8l-5 -43l-8 -9l-94 -7q-37 -3 -51 -10t-22 -28.5t-37.5 -171t-63.5 -349.5l363 193l12 -3l18 -43l-3 -12l-403 -214l-49 -288l-29 -187
q-13 -86 -15 -144q113 -12 208 -12q130 0 206.5 4t118 12t52 15t18.5 21t25 72l36 126l10 8h42l8 -9q-36 -222 -46 -325l-9 -8l-353 4l-462 3q-74 0 -137 -7l-8 7l5 43l9 8q55 10 65 15.5t21.5 23t28.5 96.5t41 207l41 223l-181 -96l-12 3l-18 42l3 12z" />
    <glyph glyph-name="lslash" unicode="&#x142;" horiz-adv-x="569" 
d="M223 780q95 473 95 529q0 23 -15.5 31.5t-54.5 8.5l-84 1l-8 8l3 25l8 9q186 30 314 79l26 -19q-16 -69 -123 -572l210 131l13 -3l18 -44l-3 -12l-256 -159q-125 -594 -125 -646q0 -21 10 -33t22 -12q34 0 172 104l10 -3l11 -26l-3 -12q-242 -195 -325 -195
q-31 0 -46.5 22.5t-15.5 61.5q0 31 4 58.5t46 217.5l79 364l-185 -116l-12 3l-18 45l3 11z" />
    <glyph glyph-name="Nacute" unicode="&#x143;" horiz-adv-x="1593" 
d="M21 -8l-8 8l4 44l9 8q88 4 111 17.5t46.5 91t103.5 521.5l96 566q-42 67 -82.5 85t-138.5 21l-6 8l3 43l9 8q73 -7 179 -7q72 0 142 7q10 -21 64 -119l73 -131l560 -950l155 923l16 121q4 30 4 38q0 28 -18.5 38.5t-92.5 16.5l-49 4l-8 8l4 43l8 8q69 -3 214 -3
q150 0 211 3l7 -8l-3 -43l-8 -8q-123 -7 -135.5 -28.5t-61.5 -267.5l-72 -365l-66 -381q-27 -156 -49 -339h-102q-10 21 -53 100l-63 112l-569 966l-99 -541l-39 -255q-29 -190 -29 -231q0 -42 24 -56t110 -15q14 0 36 -2l7 -7l-4 -43l-9 -9q-107 8 -218 8q-86 0 -213 -8z
M1272 1845q-125 -85 -407 -299l-13 2l-23 19l1 13l255 271l178 18z" />
    <glyph glyph-name="nacute" unicode="&#x144;" horiz-adv-x="1139" 
d="M118 -25l-13 17q65 199 115.5 459t50.5 330q0 39 -27 39q-37 0 -154 -79l-12 3l-9 22l3 15q40 30 95.5 68t109.5 67.5t74.5 36t36.5 6.5q28 0 38.5 -19.5t10.5 -40.5q0 -45 -33 -178q-10 -37 -54 -219l7 -2q74 121 182 232t223 169t169 58q30 0 45 -18.5t15 -47.5
q0 -69 -69 -336q-93 -356 -93 -419q0 -37 27 -37q33 0 168 96l11 -3l11 -26l-3 -12q-62 -50 -142 -102.5t-116 -68.5t-60 -16q-31 0 -45.5 21.5t-14.5 53.5q0 35 16 109.5t67 273.5q73 281 73 345q0 53 -38 53q-27 0 -63 -17q-64 -30 -138 -97.5t-135.5 -158t-96 -180
t-60.5 -202.5q-4 -14 -31 -163q-69 -11 -141 -32zM942 1428l-346 -329l-13 -1l-22 19l-2 9q35 45 121 166l107 159l141 3z" />
    <glyph glyph-name="uni0145" unicode="&#x145;" horiz-adv-x="1593" 
d="M21 -8l-8 8l4 44l9 8q88 4 111 17.5t46.5 91t103.5 521.5l96 566q-42 67 -82.5 85t-138.5 21l-6 8l3 43l9 8q73 -7 179 -7q72 0 142 7q10 -21 64 -119l73 -131l560 -950l155 923l16 121q4 30 4 38q0 28 -18.5 38.5t-92.5 16.5l-49 4l-8 8l4 43l8 8q69 -3 214 -3
q150 0 211 3l7 -8l-3 -43l-8 -8q-123 -7 -135.5 -28.5t-61.5 -267.5l-72 -365l-66 -381q-27 -156 -49 -339h-102q-10 21 -53 100l-63 112l-569 966l-99 -541l-39 -255q-29 -190 -29 -231q0 -42 24 -56t110 -15q14 0 36 -2l7 -7l-4 -43l-9 -9q-107 8 -218 8q-86 0 -213 -8z
M529 -576l-1 23q113 24 167 73.5t54 95.5q0 28 -45 28q-102 0 -102 91q0 52 36.5 95t100.5 43q119 0 119 -140q0 -107 -89 -200.5t-240 -108.5z" />
    <glyph glyph-name="uni0146" unicode="&#x146;" horiz-adv-x="1139" 
d="M118 -25l-13 17q65 199 115.5 459t50.5 330q0 39 -27 39q-37 0 -154 -79l-12 3l-9 22l3 15q40 30 95.5 68t109.5 67.5t74.5 36t36.5 6.5q28 0 38.5 -19.5t10.5 -40.5q0 -45 -33 -178q-10 -37 -54 -219l7 -2q74 121 182 232t223 169t169 58q30 0 45 -18.5t15 -47.5
q0 -69 -69 -336q-93 -356 -93 -419q0 -37 27 -37q33 0 168 96l11 -3l11 -26l-3 -12q-62 -50 -142 -102.5t-116 -68.5t-60 -16q-31 0 -45.5 21.5t-14.5 53.5q0 35 16 109.5t67 273.5q73 281 73 345q0 53 -38 53q-27 0 -63 -17q-64 -30 -138 -97.5t-135.5 -158t-96 -180
t-60.5 -202.5q-4 -14 -31 -163q-69 -11 -141 -32zM264 -555v22q106 22 158 70t52 90q0 27 -43 27q-97 0 -97 87q0 48 34.5 89t95.5 41q113 0 113 -132q0 -103 -85 -192t-228 -102z" />
    <glyph glyph-name="Ncaron" unicode="&#x147;" horiz-adv-x="1593" 
d="M21 -8l-8 8l4 44l9 8q88 4 111 17.5t46.5 91t103.5 521.5l96 566q-42 67 -82.5 85t-138.5 21l-6 8l3 43l9 8q73 -7 179 -7q72 0 142 7q10 -21 64 -119l73 -131l560 -950l155 923l16 121q4 30 4 38q0 28 -18.5 38.5t-92.5 16.5l-49 4l-8 8l4 43l8 8q69 -3 214 -3
q150 0 211 3l7 -8l-3 -43l-8 -8q-123 -7 -135.5 -28.5t-61.5 -267.5l-72 -365l-66 -381q-27 -156 -49 -339h-102q-10 21 -53 100l-63 112l-569 966l-99 -541l-39 -255q-29 -190 -29 -231q0 -42 24 -56t110 -15q14 0 36 -2l7 -7l-4 -43l-9 -9q-107 8 -218 8q-86 0 -213 -8z
M1275 1869l8 -10l-324 -326h-105l-176 328l10 8h40l197 -236l302 236h48z" />
    <glyph glyph-name="ncaron" unicode="&#x148;" horiz-adv-x="1139" 
d="M118 -25l-13 17q65 199 115.5 459t50.5 330q0 39 -27 39q-37 0 -154 -79l-12 3l-9 22l3 15q40 30 95.5 68t109.5 67.5t74.5 36t36.5 6.5q28 0 38.5 -19.5t10.5 -40.5q0 -45 -33 -178q-10 -37 -54 -219l7 -2q74 121 182 232t223 169t169 58q30 0 45 -18.5t15 -47.5
q0 -69 -69 -336q-93 -356 -93 -419q0 -37 27 -37q33 0 168 96l11 -3l11 -26l-3 -12q-62 -50 -142 -102.5t-116 -68.5t-60 -16q-31 0 -45.5 21.5t-14.5 53.5q0 35 16 109.5t67 273.5q73 281 73 345q0 53 -38 53q-27 0 -63 -17q-64 -30 -138 -97.5t-135.5 -158t-96 -180
t-60.5 -202.5q-4 -14 -31 -163q-69 -11 -141 -32zM1013 1446l-191 -209q-39 -42 -129 -147h-72q-33 54 -200 358l6 6h62l172 -246q121 101 270 246h80z" />
    <glyph glyph-name="napostrophe" unicode="&#x149;" horiz-adv-x="1198" 
d="M177 -25l-13 17q65 199 115.5 459t50.5 330q0 39 -27 39q-37 0 -154 -79l-12 3l-9 22l3 15q40 30 95.5 68t109.5 67.5t74.5 36t36.5 6.5q28 0 38.5 -19.5t10.5 -40.5q0 -45 -33 -178q-10 -37 -54 -219l7 -2q74 121 182 232t223 169t169 58q30 0 45 -18.5t15 -47.5
q0 -69 -69 -336q-93 -356 -93 -419q0 -37 27 -37q33 0 168 96l11 -3l11 -26l-3 -12q-62 -50 -142 -102.5t-116 -68.5t-60 -16q-31 0 -45.5 21.5t-14.5 53.5q0 35 16 109.5t67 273.5q73 281 73 345q0 53 -38 53q-27 0 -63 -17q-64 -30 -138 -97.5t-135.5 -158t-96 -180
t-60.5 -202.5q-4 -14 -31 -163q-69 -11 -141 -32zM0 966v22q106 22 158 70t52 90q0 27 -43 27q-97 0 -97 87q0 48 34.5 89t95.5 41q113 0 113 -132q0 -103 -85 -192t-228 -102z" />
    <glyph glyph-name="Eng" unicode="&#x14a;" horiz-adv-x="1593" 
d="M1637 1405l-3 -43l-8 -8q-123 -7 -135.5 -28.5t-61.5 -267.5l-72 -365l-72 -389l-84 -433q-42 -216 -94.5 -274t-124.5 -58q-51 0 -109 28l-4 15q34 82 45 102h14q40 -26 85 -26q95 0 129 173l28 142h-30q-10 21 -53 100l-63 112l-569 966l-99 -541l-39 -255
q-29 -190 -29 -231t24.5 -55.5t109.5 -15.5q14 0 36 -2l7 -7l-4 -43l-9 -9q-107 8 -218 8q-86 0 -213 -8l-8 8l4 44l9 8q82 3 98.5 9t30.5 24.5t39 123t97.5 501.5t91.5 538q-42 67 -82.5 85t-138.5 21l-6 8l3 43l9 8q73 -7 179 -7q72 0 142 7q10 -21 64 -119l73 -131
l552 -945l163 918l16 121q4 30 4 38q0 32 -18.5 40.5t-92.5 14.5l-49 4l-8 8l4 43l8 8q69 -3 214 -3q150 0 211 3z" />
    <glyph glyph-name="eng" unicode="&#x14b;" horiz-adv-x="1097" 
d="M458 -557l17 97l16 10q43 -24 56 -27.5t26 -3.5q25 0 45.5 15.5t37.5 65.5t71 324q18 87 81 432q51 275 51 372q0 78 -43 112t-106 34q-53 0 -112 -29.5t-111 -91t-78.5 -137.5t-47.5 -219.5t-48 -359.5l-12 -18q-43 -12 -135 -51l-16 20q33 138 85.5 452t52.5 342
q0 40 -34 40q-22 0 -46.5 -12.5t-109.5 -63.5l-13 4l-11 21l5 13q101 69 208 127t144 58q32 0 32 -34q0 -32 -38 -178l13 -4q92 119 188.5 167.5t182.5 48.5q88 0 146.5 -45t58.5 -143q0 -49 -20 -152l-61 -332q-49 -268 -69 -350q-36 -151 -88 -265t-113 -186
q-33 -38 -66.5 -54t-66.5 -16q-24 0 -72 17z" />
    <glyph glyph-name="Omacron" unicode="&#x14c;" horiz-adv-x="1593" 
d="M120 542q0 142 40.5 297t147.5 297.5t268 223t371 80.5q178 0 307 -59.5t203.5 -184.5t74.5 -318q0 -260 -124 -486t-315 -329.5t-408 -103.5q-117 0 -223 34.5t-186 113t-118 191.5t-38 244zM299 553q0 -159 46.5 -271.5t152 -173.5t255.5 -61q188 0 318 95.5
t205.5 304.5t75.5 416q0 115 -26 202.5t-87 157t-150.5 103.5t-196.5 34q-176 0 -306 -87.5t-208.5 -288.5t-78.5 -431zM917 1477zM682 -109zM1275 1750l-17 -90h-618l17 90h618z" />
    <glyph glyph-name="omacron" unicode="&#x14d;" horiz-adv-x="909" 
d="M39 279q0 191 65 348t198.5 249.5t260.5 92.5q116 0 195 -70.5t79 -241.5q0 -168 -74.5 -340t-204.5 -260t-255 -88q-83 0 -145 38.5t-90.5 105t-28.5 166.5zM199 293q0 -86 17 -136.5t60 -81t106 -30.5q66 0 116 35t95 130t65.5 212.5t20.5 216.5q0 91 -21 146t-62 83
t-99 28q-154 0 -226 -184.5t-72 -418.5zM517 1029zM332 -109zM897 1287l-23 -94h-544l25 94h542z" />
    <glyph glyph-name="Obreve" unicode="&#x14e;" horiz-adv-x="1593" 
d="M120 542q0 142 40.5 297t147.5 297.5t268 223t371 80.5q178 0 307 -59.5t203.5 -184.5t74.5 -318q0 -260 -124 -486t-315 -329.5t-408 -103.5q-117 0 -223 34.5t-186 113t-118 191.5t-38 244zM299 553q0 -159 46.5 -271.5t152 -173.5t255.5 -61q188 0 318 95.5
t205.5 304.5t75.5 416q0 115 -26 202.5t-87 157t-150.5 103.5t-196.5 34q-176 0 -306 -87.5t-208.5 -288.5t-78.5 -431zM917 1477zM682 -109zM669 1852h57q16 -202 224 -202q183 0 268 202h59q-84 -325 -340 -325q-125 0 -197.5 72.5t-72.5 199.5q0 19 2 53zM970 1797z" />
    <glyph glyph-name="obreve" unicode="&#x14f;" horiz-adv-x="909" 
d="M39 279q0 191 65 348t198.5 249.5t260.5 92.5q116 0 195 -70.5t79 -241.5q0 -168 -74.5 -340t-204.5 -260t-255 -88q-83 0 -145 38.5t-90.5 105t-28.5 166.5zM199 293q0 -86 17 -136.5t60 -81t106 -30.5q66 0 116 35t95 130t65.5 212.5t20.5 216.5q0 91 -21 146t-62 83
t-99 28q-154 0 -226 -184.5t-72 -418.5zM517 1029zM332 -109zM864 1428q-61 -315 -325 -315q-109 0 -178 73t-69 195q0 12 4 47l36 -1q0 -90 63.5 -145.5t160.5 -55.5q182 0 268 201zM574 1364z" />
    <glyph glyph-name="Ohungarumlaut" unicode="&#x150;" horiz-adv-x="1593" 
d="M120 542q0 142 40.5 297t147.5 297.5t268 223t371 80.5q178 0 307 -59.5t203.5 -184.5t74.5 -318q0 -260 -124 -486t-315 -329.5t-408 -103.5q-117 0 -223 34.5t-186 113t-118 191.5t-38 244zM299 553q0 -159 46.5 -271.5t152 -173.5t255.5 -61q188 0 318 95.5
t205.5 304.5t75.5 416q0 115 -26 202.5t-87 157t-150.5 103.5t-196.5 34q-176 0 -306 -87.5t-208.5 -288.5t-78.5 -431zM917 1477zM682 -109zM1462 1835l-408 -287h-10l-21 18l-2 14q103 116 251 271l177 16zM1102 1835l-407 -285l-11 -2l-25 20l-2 12l255 271l176 16z" />
    <glyph glyph-name="ohungarumlaut" unicode="&#x151;" horiz-adv-x="909" 
d="M39 279q0 191 65 348t198.5 249.5t260.5 92.5q116 0 195 -70.5t79 -241.5q0 -168 -74.5 -340t-204.5 -260t-255 -88q-83 0 -145 38.5t-90.5 105t-28.5 166.5zM199 293q0 -86 17 -136.5t60 -81t106 -30.5q66 0 116 35t95 130t65.5 212.5t20.5 216.5q0 91 -21 146t-62 83
t-99 28q-154 0 -226 -184.5t-72 -418.5zM517 1029zM332 -109zM730 1427q-59 -49 -350 -325l-13 -2l-18 11l-2 15q35 45 121 166l107 158l141 3zM1030 1427q-24 -17 -348 -325l-13 -2l-20 11l-2 15q35 45 121 166l107 158l141 3z" />
    <glyph glyph-name="OE" unicode="&#x152;" horiz-adv-x="2105" 
d="M2025 1413l8 -8q-2 -23 -17 -124l-9 -77l-11 -97l-8 -8h-35l-8 8q-10 158 -14 172.5t-20 24t-101.5 16.5t-154.5 7h-58q-39 0 -113 -9q-41 -181 -102 -550q102 -3 154 -3q136 0 334 13l7 -10l-38 -95q-234 11 -357 11q-23 0 -116 -2l-61 -363q-27 -164 -34 -225
q141 -12 239 -12q124 0 213.5 6.5t109 15t31 28.5t31.5 99q14 54 25 87l9 8h42l7 -8q-14 -43 -30 -156.5t-18 -160.5l-13 -9l-298 5q-122 3 -186 3q-105 0 -329 -8l-11 9q8 35 23 93q14 56 20 90q-137 -126 -259.5 -170.5t-233.5 -44.5q-103 0 -199 36.5t-164.5 110.5
t-102 186.5t-33.5 236.5q0 165 52.5 333.5t176.5 307t269.5 198.5t301.5 60q135 0 230.5 -44.5t143.5 -129.5q15 76 21 142l9 7q10 0 153 -5q106 -3 141 -3l215 3q107 2 168 5zM1245 912q9 59 9 103q0 63 -17 123.5t-68 116t-116 80.5t-162 25q-132 0 -241.5 -62.5
t-185.5 -181.5t-110 -271.5t-34 -297.5q0 -242 110.5 -360t286.5 -118q170 0 301 109.5t172 378.5z" />
    <glyph glyph-name="oe" unicode="&#x153;" horiz-adv-x="1370" 
d="M1249 210l11 -25l-3 -14q-234 -201 -402 -201q-71 0 -133.5 35t-89.5 136q-142 -170 -326 -170q-126 0 -196 85.5t-70 246.5q0 164 58 314t190 251t270 101q68 0 122.5 -22.5t84 -57.5t51.5 -88q96 76 184.5 123t170.5 47q62 0 111 -38.5t49 -118.5q0 -52 -19 -99
t-59.5 -87t-105 -76t-135 -61.5t-159.5 -49.5l-69 -19q-19 -114 -19 -176q0 -79 42.5 -127.5t114.5 -48.5q125 0 316 144zM197 303q0 -258 185 -258q67 0 120.5 38.5t91.5 127t61 234t23 229.5q0 70 -20 117t-64 77t-103 30q-149 0 -221.5 -192.5t-72.5 -402.5zM792 474
q224 49 306.5 133t82.5 177q0 47 -22 75t-67 28q-75 0 -148 -57t-104.5 -159t-47.5 -197z" />
    <glyph glyph-name="Racute" unicode="&#x154;" horiz-adv-x="1366" 
d="M582 1318l-120 -652l-72 -426q-14 -86 -14 -115q0 -54 71 -67q3 -1 113 -7l7 -8l-6 -43l-9 -8q-107 8 -265 8q-125 0 -247 -8l-7 8l3 43l10 8q120 2 136.5 31t69.5 315l65 355l59 346q27 158 27 207q0 17 -18 32t-143 17l-7 8l5 43l9 8q78 -8 239 -8l332 7
q196 0 284.5 -75.5t88.5 -196.5q0 -147 -109 -261t-315 -159q16 -23 54 -85q65 -107 207 -316.5t180.5 -238.5t89.5 -29l6 -8l-3 -43l-8 -8q-84 6 -123 6q-5 0 -136 -6q-3 3 -81 134l-63 106q-30 51 -86 135l-199 300l-58 79l10 24l83 -4q173 0 273.5 104.5t100.5 236.5
q0 229 -279 229q-68 0 -155 -18zM1072 1845q-125 -85 -407 -299l-13 2l-23 19l1 13l255 271l178 18z" />
    <glyph glyph-name="racute" unicode="&#x155;" horiz-adv-x="797" 
d="M119 -30l-18 14q70 229 117 478.5t47 320.5q0 45 -24 45q-30 0 -166 -90l-12 3l-10 22l3 15q89 71 187.5 130t144.5 59q40 0 40 -50q0 -58 -73 -387q93 163 182 275.5t128.5 138t78.5 25.5q18 0 36 -8l4 -11q-15 -55 -34 -213l-28 -6q-29 40 -67 40q-28 0 -67.5 -23
t-97.5 -93t-100.5 -158.5t-68.5 -193.5t-66 -298q-101 -23 -136 -35zM822 1428l-346 -329l-13 -1l-22 19l-2 9q35 45 121 166l107 159l141 3z" />
    <glyph glyph-name="uni0156" unicode="&#x156;" horiz-adv-x="1366" 
d="M582 1318l-120 -652l-72 -426q-14 -86 -14 -115q0 -54 71 -67q3 -1 113 -7l7 -8l-6 -43l-9 -8q-107 8 -265 8q-125 0 -247 -8l-7 8l3 43l10 8q120 2 136.5 31t69.5 315l65 355l59 346q27 158 27 207q0 17 -18 32t-143 17l-7 8l5 43l9 8q78 -8 239 -8l332 7
q196 0 284.5 -75.5t88.5 -196.5q0 -147 -109 -261t-315 -159q16 -23 54 -85q65 -107 207 -316.5t180.5 -238.5t89.5 -29l6 -8l-3 -43l-8 -8q-84 6 -123 6q-5 0 -136 -6q-3 3 -81 134l-63 106q-30 51 -86 135l-199 300l-58 79l10 24l83 -4q173 0 273.5 104.5t100.5 236.5
q0 229 -279 229q-68 0 -155 -18zM467 -576l-1 23q113 24 167 73.5t54 95.5q0 28 -45 28q-102 0 -102 91q0 52 36.5 95t100.5 43q119 0 119 -140q0 -107 -89 -200.5t-240 -108.5z" />
    <glyph glyph-name="uni0157" unicode="&#x157;" horiz-adv-x="797" 
d="M119 -30l-18 14q70 229 117 478.5t47 320.5q0 45 -24 45q-30 0 -166 -90l-12 3l-10 22l3 15q89 71 187.5 130t144.5 59q40 0 40 -50q0 -58 -73 -387q93 163 182 275.5t128.5 138t78.5 25.5q18 0 36 -8l4 -11q-15 -55 -34 -213l-28 -6q-29 40 -67 40q-28 0 -67.5 -23
t-97.5 -93t-100.5 -158.5t-68.5 -193.5t-66 -298q-101 -23 -136 -35zM-46 -555v22q106 22 158 70t52 90q0 27 -43 27q-97 0 -97 87q0 48 34.5 89t95.5 41q113 0 113 -132q0 -103 -85 -192t-228 -102z" />
    <glyph glyph-name="Rcaron" unicode="&#x158;" horiz-adv-x="1366" 
d="M582 1318l-120 -652l-72 -426q-14 -86 -14 -115q0 -54 71 -67q3 -1 113 -7l7 -8l-6 -43l-9 -8q-107 8 -265 8q-125 0 -247 -8l-7 8l3 43l10 8q120 2 136.5 31t69.5 315l65 355l59 346q27 158 27 207q0 17 -18 32t-143 17l-7 8l5 43l9 8q78 -8 239 -8l332 7
q196 0 284.5 -75.5t88.5 -196.5q0 -147 -109 -261t-315 -159q16 -23 54 -85q65 -107 207 -316.5t180.5 -238.5t89.5 -29l6 -8l-3 -43l-8 -8q-84 6 -123 6q-5 0 -136 -6q-3 3 -81 134l-63 106q-30 51 -86 135l-199 300l-58 79l10 24l83 -4q173 0 273.5 104.5t100.5 236.5
q0 229 -279 229q-68 0 -155 -18zM1105 1869l8 -10l-324 -326h-105l-176 328l10 8h40l197 -236l302 236h48z" />
    <glyph glyph-name="rcaron" unicode="&#x159;" horiz-adv-x="797" 
d="M119 -30l-18 14q70 229 117 478.5t47 320.5q0 45 -24 45q-30 0 -166 -90l-12 3l-10 22l3 15q89 71 187.5 130t144.5 59q40 0 40 -50q0 -58 -73 -387q93 163 182 275.5t128.5 138t78.5 25.5q18 0 36 -8l4 -11q-15 -55 -34 -213l-28 -6q-29 40 -67 40q-28 0 -67.5 -23
t-97.5 -93t-100.5 -158.5t-68.5 -193.5t-66 -298q-101 -23 -136 -35zM860 1446l-191 -209q-39 -42 -129 -147h-72q-33 54 -200 358l6 6h62l172 -246q121 101 270 246h80z" />
    <glyph glyph-name="Sacute" unicode="&#x15a;" horiz-adv-x="1138" 
d="M107 46q35 132 49 292l10 9h42l7 -8l4 -192q74 -59 141.5 -75.5t127.5 -16.5q179 0 268 102.5t89 233.5q0 67 -27 114t-71.5 70t-164.5 50q-138 31 -204 65t-102 101.5t-36 164.5q0 142 79 251.5t200 168t270 58.5q146 0 250 -62l4 -12q-24 -98 -45 -261l-8 -8h-44l-8 8
v147q-78 92 -232 92q-91 0 -164.5 -38.5t-114.5 -112t-41 -160.5q0 -77 30.5 -128.5t84 -75.5t182.5 -54q106 -24 150.5 -40t86 -52.5t63.5 -88t22 -120.5q0 -144 -87.5 -259t-210 -183.5t-292.5 -68.5q-163 0 -304 77zM1072 1845q-125 -85 -407 -299l-13 2l-23 19l1 13
l255 271l178 18z" />
    <glyph glyph-name="sacute" unicode="&#x15b;" horiz-adv-x="797" 
d="M24 23q35 158 41 254l8 8h34l8 -8v-161q90 -77 197 -77q48 0 93 16t75 43.5t48 73t18 92.5q0 32 -12.5 62t-42 48.5t-118.5 34.5q-90 16 -127 26.5t-72 36.5t-55.5 68t-20.5 91q0 67 31.5 121.5t93.5 102.5t128.5 80t146.5 32q118 0 199 -48l4 -11q-17 -58 -22 -105
l-12 -112l-8 -8h-31l-9 8q0 59 -3 115q-70 77 -189 77q-94 0 -151 -54.5t-57 -130.5q0 -62 38 -98t144 -52q95 -14 135 -24t74 -33.5t53.5 -61t19.5 -84.5q0 -56 -21.5 -109.5t-61 -98.5t-112.5 -93.5t-129 -66.5t-119 -18q-101 0 -212 53zM752 1428l-346 -329l-13 -1
l-22 19l-2 9q35 45 121 166l107 159l141 3z" />
    <glyph glyph-name="Scircumflex" unicode="&#x15c;" horiz-adv-x="1138" 
d="M107 46q35 132 49 292l10 9h42l7 -8l4 -192q74 -59 141.5 -75.5t127.5 -16.5q179 0 268 102.5t89 233.5q0 67 -27 114t-71.5 70t-164.5 50q-138 31 -204 65t-102 101.5t-36 164.5q0 142 79 251.5t200 168t270 58.5q146 0 250 -62l4 -12q-24 -98 -45 -261l-8 -8h-44l-8 8
v147q-78 92 -232 92q-91 0 -164.5 -38.5t-114.5 -112t-41 -160.5q0 -77 30.5 -128.5t84 -75.5t182.5 -54q106 -24 150.5 -40t86 -52.5t63.5 -88t22 -120.5q0 -144 -87.5 -259t-210 -183.5t-292.5 -68.5q-163 0 -304 77zM1037 1533h-54l-187 236l-292 -236h-57l-5 10l319 326
h106l178 -326zM807 1805zM1086 1579z" />
    <glyph glyph-name="scircumflex" unicode="&#x15d;" horiz-adv-x="797" 
d="M24 23q35 158 41 254l8 8h34l8 -8v-161q90 -77 197 -77q48 0 93 16t75 43.5t48 73t18 92.5q0 32 -12.5 62t-42 48.5t-118.5 34.5q-90 16 -127 26.5t-72 36.5t-55.5 68t-20.5 91q0 67 31.5 121.5t93.5 102.5t128.5 80t146.5 32q118 0 199 -48l4 -11q-17 -58 -22 -105
l-12 -112l-8 -8h-31l-9 8q0 59 -3 115q-70 77 -189 77q-94 0 -151 -54.5t-57 -130.5q0 -62 38 -98t144 -52q95 -14 135 -24t74 -33.5t53.5 -61t19.5 -84.5q0 -56 -21.5 -109.5t-61 -98.5t-112.5 -93.5t-129 -66.5t-119 -18q-101 0 -212 53zM779 1098l-3 -8l-62 -1l-108 151
l-73 96l-120 -104q-39 -34 -159 -142h-89l-3 10l191 196l143 156h102q76 -160 181 -354zM535 1381zM860 1092z" />
    <glyph glyph-name="Scedilla" unicode="&#x15e;" horiz-adv-x="1138" 
d="M446 -42l-52 -93q23 5 49 5q73 0 120 -37t47 -99q0 -79 -65.5 -127t-171.5 -48q-92 0 -183 39l-3 12l16 24l11 4q50 -21 114 -21q60 0 99.5 29.5t39.5 76.5q0 32 -27.5 53.5t-66.5 21.5q-37 0 -71 -10l-15 16l99 154q-147 6 -275 76l-4 12q35 132 49 292l10 9h42l7 -8
l4 -192q115 -92 269 -92q139 0 248 82.5t109 253.5q0 71 -27.5 118t-78 69.5t-157.5 46.5q-156 35 -218.5 73t-93 102t-30.5 156q0 198 156 338t393 140q146 0 250 -62l4 -12q-24 -98 -45 -261l-8 -8h-44l-8 8v147q-78 92 -232 92q-155 0 -237.5 -92.5t-82.5 -218.5
q0 -69 24 -118.5t75.5 -78t197.5 -61.5q131 -30 187 -57t95.5 -89t39.5 -155q0 -192 -167 -348t-392 -162z" />
    <glyph glyph-name="scedilla" unicode="&#x15f;" horiz-adv-x="797" 
d="M269 -40l-54 -91q26 6 59 6q65 0 116.5 -34.5t51.5 -101.5q0 -72 -71.5 -122.5t-164.5 -50.5q-88 0 -185 41l-2 10l18 30l10 2q85 -21 122 -21q58 0 95.5 29t37.5 75q0 85 -108 85q-26 0 -53 -7l-15 11l90 139q-90 5 -188 52l-4 11q35 158 41 254l8 8h34l8 -8v-161
q90 -77 197 -77q103 0 168.5 60t65.5 165q0 66 -35 96.5t-136 49.5q-114 21 -158 35t-81.5 67t-37.5 119q0 133 138.5 234.5t261.5 101.5q118 0 199 -48l4 -11q-17 -58 -22 -105l-12 -112l-8 -8h-31l-9 8q0 59 -3 115q-70 77 -189 77q-88 0 -148 -51.5t-60 -133.5
q0 -123 182 -150q109 -16 162 -33.5t86.5 -61t33.5 -108.5q0 -145 -134 -260t-280 -125z" />
    <glyph glyph-name="Scaron" unicode="&#x160;" horiz-adv-x="1138" 
d="M107 46q35 132 49 292l10 9h42l7 -8l4 -192q74 -59 141.5 -75.5t127.5 -16.5q179 0 268 102.5t89 233.5q0 67 -27 114t-71.5 70t-164.5 50q-138 31 -204 65t-102 101.5t-36 164.5q0 142 79 251.5t200 168t270 58.5q146 0 250 -62l4 -12q-24 -98 -45 -261l-8 -8h-44l-8 8
v147q-78 92 -232 92q-91 0 -164.5 -38.5t-114.5 -112t-41 -160.5q0 -77 30.5 -128.5t84 -75.5t182.5 -54q106 -24 150.5 -40t86 -52.5t63.5 -88t22 -120.5q0 -144 -87.5 -259t-210 -183.5t-292.5 -68.5q-163 0 -304 77zM1085 1869l8 -10l-324 -326h-105l-176 328l10 8h40
l197 -236l302 236h48z" />
    <glyph glyph-name="scaron" unicode="&#x161;" horiz-adv-x="797" 
d="M24 23q35 158 41 254l8 8h34l8 -8v-161q90 -77 197 -77q48 0 93 16t75 43.5t48 73t18 92.5q0 32 -12.5 62t-42 48.5t-118.5 34.5q-90 16 -127 26.5t-72 36.5t-55.5 68t-20.5 91q0 67 31.5 121.5t93.5 102.5t128.5 80t146.5 32q118 0 199 -48l4 -11q-17 -58 -22 -105
l-12 -112l-8 -8h-31l-9 8q0 59 -3 115q-70 77 -189 77q-94 0 -151 -54.5t-57 -130.5q0 -62 38 -98t144 -52q95 -14 135 -24t74 -33.5t53.5 -61t19.5 -84.5q0 -56 -21.5 -109.5t-61 -98.5t-112.5 -93.5t-129 -66.5t-119 -18q-101 0 -212 53zM810 1446l-191 -209
q-39 -42 -129 -147h-72q-33 54 -200 358l6 6h62l172 -246q121 101 270 246h80z" />
    <glyph glyph-name="uni0162" unicode="&#x162;" horiz-adv-x="1252" 
d="M276 -8l-7 8l4 44l8 7q120 9 141.5 17.5t29 18.5t16.5 41.5t51 241.5t86 477.5t66 469.5q-330 0 -372.5 -16t-84.5 -216l-9 -8h-40l-8 8q31 254 33 318l10 10l73 -5q16 -1 68 -2l418 -8l503 9q9 0 68 6l9 -10q-26 -98 -52 -317l-10 -9h-40l-8 9q1 17 3 122
q-1 66 -17 87.5t-373 21.5q-10 -43 -43 -230l-66 -371q-12 -67 -50.5 -312t-38.5 -294q0 -27 20 -40t167 -18l8 -9l-4 -43l-9 -8q-168 8 -271 8q-150 0 -279 -8zM319 -576l-1 23q113 24 167 73.5t54 95.5q0 28 -45 28q-102 0 -102 91q0 52 36.5 95t100.5 43q119 0 119 -140
q0 -107 -89 -200.5t-240 -108.5z" />
    <glyph glyph-name="uni0162" unicode="&#x21a;" horiz-adv-x="1252" 
d="M276 -8l-7 8l4 44l8 7q120 9 141.5 17.5t29 18.5t16.5 41.5t51 241.5t86 477.5t66 469.5q-330 0 -372.5 -16t-84.5 -216l-9 -8h-40l-8 8q31 254 33 318l10 10l73 -5q16 -1 68 -2l418 -8l503 9q9 0 68 6l9 -10q-26 -98 -52 -317l-10 -9h-40l-8 9q1 17 3 122
q-1 66 -17 87.5t-373 21.5q-10 -43 -43 -230l-66 -371q-12 -67 -50.5 -312t-38.5 -294q0 -27 20 -40t167 -18l8 -9l-4 -43l-9 -8q-168 8 -271 8q-150 0 -279 -8zM319 -576l-1 23q113 24 167 73.5t54 95.5q0 28 -45 28q-102 0 -102 91q0 52 36.5 95t100.5 43q119 0 119 -140
q0 -107 -89 -200.5t-240 -108.5z" />
    <glyph glyph-name="uni0163" unicode="&#x163;" horiz-adv-x="682" 
d="M548 222l11 -23l-3 -12q-39 -34 -135.5 -103.5t-139 -93t-73.5 -23.5q-29 0 -46.5 27t-17.5 77q0 59 34 211q39 176 100 501l-163 -4l-7 8l3 17l8 8q107 38 172 73q19 88 52 345q107 45 157 72l24 -18l-39 -153q-7 -29 -53 -258q45 -3 73 -3q99 0 140 14l10 -8l-23 -98
q-37 0 -218 5q-111 -533 -111 -628q0 -46 38 -46q19 0 50.5 16.5t109.5 73.5l35 27zM4 -555v22q106 22 158 70t52 90q0 27 -43 27q-97 0 -97 87q0 48 34.5 89t95.5 41q113 0 113 -132q0 -103 -85 -192t-228 -102z" />
    <glyph glyph-name="uni0163" unicode="&#x21b;" horiz-adv-x="682" 
d="M548 222l11 -23l-3 -12q-39 -34 -135.5 -103.5t-139 -93t-73.5 -23.5q-29 0 -46.5 27t-17.5 77q0 59 34 211q39 176 100 501l-163 -4l-7 8l3 17l8 8q107 38 172 73q19 88 52 345q107 45 157 72l24 -18l-39 -153q-7 -29 -53 -258q45 -3 73 -3q99 0 140 14l10 -8l-23 -98
q-37 0 -218 5q-111 -533 -111 -628q0 -46 38 -46q19 0 50.5 16.5t109.5 73.5l35 27zM4 -555v22q106 22 158 70t52 90q0 27 -43 27q-97 0 -97 87q0 48 34.5 89t95.5 41q113 0 113 -132q0 -103 -85 -192t-228 -102z" />
    <glyph glyph-name="Tcaron" unicode="&#x164;" horiz-adv-x="1252" 
d="M276 -8l-7 8l4 44l8 7q120 9 141.5 17.5t29 18.5t16.5 41.5t51 241.5t86 477.5t66 469.5q-330 0 -372.5 -16t-84.5 -216l-9 -8h-40l-8 8q31 254 33 318l10 10l73 -5q16 -1 68 -2l418 -8l503 9q9 0 68 6l9 -10q-26 -98 -52 -317l-10 -9h-40l-8 9q1 17 3 122
q-1 66 -17 87.5t-373 21.5q-10 -43 -43 -230l-66 -371q-12 -67 -50.5 -312t-38.5 -294q0 -27 20 -40t167 -18l8 -9l-4 -43l-9 -8q-168 8 -271 8q-150 0 -279 -8zM1145 1869l8 -10l-324 -326h-105l-176 328l10 8h40l197 -236l302 236h48z" />
    <glyph glyph-name="tcaron" unicode="&#x165;" horiz-adv-x="861" 
d="M548 222l11 -23l-3 -12q-39 -34 -135.5 -103.5t-139 -93t-73.5 -23.5q-29 0 -46.5 27t-17.5 77q0 59 34 211q39 176 100 501l-163 -4l-7 8l3 17l8 8q107 38 172 73q19 88 52 345q107 45 157 72l24 -18l-39 -153q-7 -29 -53 -258q45 -3 73 -3q99 0 140 14l10 -8l-23 -98
q-37 0 -218 5q-111 -533 -111 -628q0 -46 38 -46q19 0 50.5 16.5t109.5 73.5l35 27zM618 1051v22q106 22 158 70t52 90q0 27 -43 27q-97 0 -97 87q0 48 34.5 89t95.5 41q113 0 113 -132q0 -103 -85 -192t-228 -102z" />
    <glyph glyph-name="Tbar" unicode="&#x166;" horiz-adv-x="1252" 
d="M1178 979l-12 -77h-400q-56 -312 -89 -529t-33 -262q0 -30 12 -37.5t31.5 -11.5t143.5 -10l8 -9l-4 -43l-9 -8q-168 8 -271 8q-150 0 -279 -8l-7 8l4 44l8 7q125 10 145 18.5t30 23t38 154.5t58 314l59 341h-382l12 77h382q35 211 48 338q-44 0 -193 -3.5t-170 -9.5
t-29 -16t-22 -44t-43 -159l-9 -8h-40l-8 8q31 254 33 318l10 10l73 -5q9 -1 68 -2l233 -5q174 -3 185 -3q3 0 167 3l242 4l94 2q16 1 68 6l9 -10q-26 -98 -52 -317l-10 -9h-40l-8 9q1 24 1 28q0 148 -3 161t-15 21t-125.5 14.5t-244.5 6.5q-10 -42 -26 -134l-36 -204h398z
" />
    <glyph glyph-name="tbar" unicode="&#x167;" horiz-adv-x="682" 
d="M375 589q-72 -371 -72 -434q0 -46 38 -46q20 0 53.5 18t105.5 72l36 27l11 -4l12 -23l-3 -12q-39 -33 -134 -102t-139 -93.5t-75 -24.5q-29 0 -46.5 27t-17.5 77q0 60 34 211q28 124 63 308l-161 -5l-7 8l3 18l8 8q107 38 177 74q4 19 10 51l7 39l-163 -4l-7 8l3 17l8 8
q104 37 172 73q21 98 52 345q110 46 157 72l24 -18q-59 -223 -92 -411q45 -3 73 -3q98 0 140 14l10 -8l-23 -98q-37 0 -218 5l-21 -104q40 -2 76 -2q100 0 141 14l10 -8l-23 -98q-23 0 -131 3z" />
    <glyph glyph-name="Utilde" unicode="&#x168;" horiz-adv-x="1593" 
d="M1448 41l-7 -41l-9 -8q-91 8 -204 8q-77 0 -143 -8l-7 8l50 247q-92 -109 -235.5 -196t-314.5 -87q-110 0 -198 42t-129 115t-41 159q0 58 14.5 154t48.5 284q90 491 90 573q0 33 -17.5 43.5t-45.5 14t-98 6.5l-8 8l4 42l9 8q112 -5 170 -5q80 0 185 5l-45 -219
q-20 -99 -50 -268l-52 -290q-22 -122 -31 -187t-11 -92t-2 -50q0 -115 86 -172t200 -57q109 0 239.5 68t251.5 214l113 693q33 202 33 246q0 32 -23 41t-146 15l-8 8l4 42l9 8q119 -7 271 -7q109 0 227 7l7 -8l-4 -42l-9 -8q-100 -5 -116 -12q-10 -4 -18.5 -14t-18.5 -49
q-26 -93 -78 -383l-79 -469q-47 -296 -47 -326q0 -23 9.5 -31.5t51 -13.5t114.5 -7zM877 1477zM642 -109zM1293 1805q-15 -77 -68.5 -140t-115.5 -63q-49 0 -133 28l-105 41q-69 27 -115 27q-72 0 -111 -105h-40l-8 6q11 84 69.5 149.5t134.5 65.5q47 0 191 -61
q92 -35 135 -35q90 0 122 92h38z" />
    <glyph glyph-name="utilde" unicode="&#x169;" horiz-adv-x="1139" 
d="M91 751l-10 23l3 14q30 23 130 84.5t139 78.5t60 17t33 -16t12 -37q0 -23 -29 -140q-128 -525 -128 -619q0 -44 30 -44q38 0 121.5 66t180 189t140.5 247t78 317q12 2 137 32l15 -15q-1 -6 -24 -83q-40 -129 -80 -297t-58 -268.5t-18 -142.5q0 -47 32 -47q17 0 42 15.5
t113 81.5l11 -4l11 -23l-2 -13q-176 -139 -230.5 -169.5t-83.5 -30.5q-24 0 -37.5 21.5t-13.5 49.5q0 62 84 411l-6 3l-74 -106q-38 -54 -89 -112.5t-119.5 -119.5t-124.5 -96t-81 -43.5t-39 -8.5q-29 0 -50.5 28.5t-21.5 84.5q0 77 39 235q99 397 99 482q0 32 -26 32
q-30 0 -153 -80zM617 1029zM432 -109zM1036 1364q-44 -201 -176 -201q-38 0 -122 30l-103 36q-69 24 -105 24q-70 0 -102 -100h-42l-7 8q49 205 192 205q48 0 112 -24l96 -37q78 -30 110 -30q72 0 103 96h36z" />
    <glyph glyph-name="Umacron" unicode="&#x16a;" horiz-adv-x="1593" 
d="M1448 41l-7 -41l-9 -8q-91 8 -204 8q-77 0 -143 -8l-7 8l50 247q-92 -109 -235.5 -196t-314.5 -87q-110 0 -198 42t-129 115t-41 159q0 58 14.5 154t48.5 284q90 491 90 573q0 33 -17.5 43.5t-45.5 14t-98 6.5l-8 8l4 42l9 8q112 -5 170 -5q80 0 185 5l-45 -219
q-20 -99 -50 -268l-52 -290q-22 -122 -31 -187t-11 -92t-2 -50q0 -115 86 -172t200 -57q109 0 239.5 68t251.5 214l113 693q33 202 33 246q0 32 -23 41t-146 15l-8 8l4 42l9 8q119 -7 271 -7q109 0 227 7l7 -8l-4 -42l-9 -8q-100 -5 -116 -12q-10 -4 -18.5 -14t-18.5 -49
q-26 -93 -78 -383l-79 -469q-47 -296 -47 -326q0 -23 9.5 -31.5t51 -13.5t114.5 -7zM877 1477zM642 -109zM1250 1750l-17 -90h-618l17 90h618z" />
    <glyph glyph-name="umacron" unicode="&#x16b;" horiz-adv-x="1139" 
d="M91 751l-10 23l3 14q30 23 130 84.5t139 78.5t60 17t33 -16t12 -37q0 -23 -29 -140q-128 -525 -128 -619q0 -44 30 -44q38 0 121.5 66t180 189t140.5 247t78 317q12 2 137 32l15 -15q-1 -6 -24 -83q-40 -129 -80 -297t-58 -268.5t-18 -142.5q0 -47 32 -47q17 0 42 15.5
t113 81.5l11 -4l11 -23l-2 -13q-176 -139 -230.5 -169.5t-83.5 -30.5q-24 0 -37.5 21.5t-13.5 49.5q0 62 84 411l-6 3l-74 -106q-38 -54 -89 -112.5t-119.5 -119.5t-124.5 -96t-81 -43.5t-39 -8.5q-29 0 -50.5 28.5t-21.5 84.5q0 77 39 235q99 397 99 482q0 32 -26 32
q-30 0 -153 -80zM617 1029zM432 -109zM987 1287l-23 -94h-544l25 94h542z" />
    <glyph glyph-name="Ubreve" unicode="&#x16c;" horiz-adv-x="1593" 
d="M1448 41l-7 -41l-9 -8q-91 8 -204 8q-77 0 -143 -8l-7 8l50 247q-92 -109 -235.5 -196t-314.5 -87q-110 0 -198 42t-129 115t-41 159q0 58 14.5 154t48.5 284q90 491 90 573q0 33 -17.5 43.5t-45.5 14t-98 6.5l-8 8l4 42l9 8q112 -5 170 -5q80 0 185 5l-45 -219
q-20 -99 -50 -268l-52 -290q-22 -122 -31 -187t-11 -92t-2 -50q0 -115 86 -172t200 -57q109 0 239.5 68t251.5 214l113 693q33 202 33 246q0 32 -23 41t-146 15l-8 8l4 42l9 8q119 -7 271 -7q109 0 227 7l7 -8l-4 -42l-9 -8q-100 -5 -116 -12q-10 -4 -18.5 -14t-18.5 -49
q-26 -93 -78 -383l-79 -469q-47 -296 -47 -326q0 -23 9.5 -31.5t51 -13.5t114.5 -7zM877 1477zM642 -109zM644 1852h57q16 -202 224 -202q183 0 268 202h59q-84 -325 -340 -325q-125 0 -197.5 72.5t-72.5 199.5q0 19 2 53zM945 1797z" />
    <glyph glyph-name="ubreve" unicode="&#x16d;" horiz-adv-x="1139" 
d="M91 751l-10 23l3 14q30 23 130 84.5t139 78.5t60 17t33 -16t12 -37q0 -23 -29 -140q-128 -525 -128 -619q0 -44 30 -44q38 0 121.5 66t180 189t140.5 247t78 317q12 2 137 32l15 -15q-1 -6 -24 -83q-40 -129 -80 -297t-58 -268.5t-18 -142.5q0 -47 32 -47q17 0 42 15.5
t113 81.5l11 -4l11 -23l-2 -13q-176 -139 -230.5 -169.5t-83.5 -30.5q-24 0 -37.5 21.5t-13.5 49.5q0 62 84 411l-6 3l-74 -106q-38 -54 -89 -112.5t-119.5 -119.5t-124.5 -96t-81 -43.5t-39 -8.5q-29 0 -50.5 28.5t-21.5 84.5q0 77 39 235q99 397 99 482q0 32 -26 32
q-30 0 -153 -80zM617 1029zM432 -109zM994 1428q-61 -315 -325 -315q-109 0 -178 73t-69 195q0 12 4 47l36 -1q0 -90 63.5 -145.5t160.5 -55.5q182 0 268 201zM704 1364z" />
    <glyph glyph-name="Uring" unicode="&#x16e;" horiz-adv-x="1593" 
d="M1448 41l-7 -41l-9 -8q-91 8 -204 8q-77 0 -143 -8l-7 8l50 247q-92 -109 -235.5 -196t-314.5 -87q-110 0 -198 42t-129 115t-41 159q0 58 14.5 154t48.5 284q90 491 90 573q0 33 -17.5 43.5t-45.5 14t-98 6.5l-8 8l4 42l9 8q112 -5 170 -5q80 0 185 5l-45 -219
q-20 -99 -50 -268l-52 -290q-22 -122 -31 -187t-11 -92t-2 -50q0 -115 86 -172t200 -57q109 0 239.5 68t251.5 214l113 693q33 202 33 246q0 32 -23 41t-146 15l-8 8l4 42l9 8q119 -7 271 -7q109 0 227 7l7 -8l-4 -42l-9 -8q-100 -5 -116 -12q-10 -4 -18.5 -14t-18.5 -49
q-26 -93 -78 -383l-79 -469q-47 -296 -47 -326q0 -23 9.5 -31.5t51 -13.5t114.5 -7zM877 1477zM642 -109zM893 1521q-70 0 -119 49t-49 119q0 91 71 160.5t162 69.5q75 0 122.5 -47t47.5 -122q0 -92 -71.5 -160.5t-163.5 -68.5zM951 1876q-66 0 -109 -61t-43 -124
q0 -53 28.5 -89.5t73.5 -36.5q64 0 108.5 57.5t44.5 127.5q0 55 -28.5 90.5t-74.5 35.5z" />
    <glyph glyph-name="uring" unicode="&#x16f;" horiz-adv-x="1139" 
d="M91 751l-10 23l3 14q30 23 130 84.5t139 78.5t60 17t33 -16t12 -37q0 -23 -29 -140q-128 -525 -128 -619q0 -44 30 -44q38 0 121.5 66t180 189t140.5 247t78 317q12 2 137 32l15 -15q-1 -6 -24 -83q-40 -129 -80 -297t-58 -268.5t-18 -142.5q0 -47 32 -47q17 0 42 15.5
t113 81.5l11 -4l11 -23l-2 -13q-176 -139 -230.5 -169.5t-83.5 -30.5q-24 0 -37.5 21.5t-13.5 49.5q0 62 84 411l-6 3l-74 -106q-38 -54 -89 -112.5t-119.5 -119.5t-124.5 -96t-81 -43.5t-39 -8.5q-29 0 -50.5 28.5t-21.5 84.5q0 77 39 235q99 397 99 482q0 32 -26 32
q-30 0 -153 -80zM617 1029zM432 -109zM677 1084q-77 0 -122 44.5t-45 113.5q0 87 65.5 152.5t156.5 65.5q81 0 127.5 -45.5t46.5 -119.5q0 -86 -69.5 -148.5t-159.5 -62.5zM724 1414q-52 0 -90.5 -51t-38.5 -119q0 -114 92 -114q55 0 94.5 51.5t39.5 116.5q0 46 -26.5 81
t-70.5 35z" />
    <glyph glyph-name="Uhungarumlaut" unicode="&#x170;" horiz-adv-x="1593" 
d="M1448 41l-7 -41l-9 -8q-91 8 -204 8q-77 0 -143 -8l-7 8l50 247q-92 -109 -235.5 -196t-314.5 -87q-110 0 -198 42t-129 115t-41 159q0 58 14.5 154t48.5 284q90 491 90 573q0 33 -17.5 43.5t-45.5 14t-98 6.5l-8 8l4 42l9 8q112 -5 170 -5q80 0 185 5l-45 -219
q-20 -99 -50 -268l-52 -290q-22 -122 -31 -187t-11 -92t-2 -50q0 -115 86 -172t200 -57q109 0 239.5 68t251.5 214l113 693q33 202 33 246q0 32 -23 41t-146 15l-8 8l4 42l9 8q119 -7 271 -7q109 0 227 7l7 -8l-4 -42l-9 -8q-100 -5 -116 -12q-10 -4 -18.5 -14t-18.5 -49
q-26 -93 -78 -383l-79 -469q-47 -296 -47 -326q0 -23 9.5 -31.5t51 -13.5t114.5 -7zM877 1477zM642 -109zM1443 1835l-408 -287h-10l-21 18l-2 14q103 116 251 271l177 16zM1083 1835l-407 -285l-11 -2l-25 20l-2 12l255 271l176 16z" />
    <glyph glyph-name="uhungarumlaut" unicode="&#x171;" horiz-adv-x="1139" 
d="M91 751l-10 23l3 14q30 23 130 84.5t139 78.5t60 17t33 -16t12 -37q0 -23 -29 -140q-128 -525 -128 -619q0 -44 30 -44q38 0 121.5 66t180 189t140.5 247t78 317q12 2 137 32l15 -15q-1 -6 -24 -83q-40 -129 -80 -297t-58 -268.5t-18 -142.5q0 -47 32 -47q17 0 42 15.5
t113 81.5l11 -4l11 -23l-2 -13q-176 -139 -230.5 -169.5t-83.5 -30.5q-24 0 -37.5 21.5t-13.5 49.5q0 62 84 411l-6 3l-74 -106q-38 -54 -89 -112.5t-119.5 -119.5t-124.5 -96t-81 -43.5t-39 -8.5q-29 0 -50.5 28.5t-21.5 84.5q0 77 39 235q99 397 99 482q0 32 -26 32
q-30 0 -153 -80zM617 1029zM432 -109zM850 1427q-59 -49 -350 -325l-13 -2l-18 11l-2 15q35 45 121 166l107 158l141 3zM1150 1427q-24 -17 -348 -325l-13 -2l-20 11l-2 15q35 45 121 166l107 158l141 3z" />
    <glyph glyph-name="Uogonek" unicode="&#x172;" horiz-adv-x="1593" 
d="M1635 1405l-4 -42l-9 -8q-113 -6 -128 -21t-39 -107t-64 -330l-79 -469q-47 -279 -47 -326q0 -32 30.5 -40.5t144.5 -11.5l8 -9l-7 -41l-9 -8q-78 7 -173 8q-101 -143 -101 -206q0 -95 83 -95q69 0 121 73l8 2l21 -11l2 -7q-103 -176 -209 -176q-68 0 -111 38.5t-43 95.5
q0 109 172 286q-62 -1 -117 -8l-7 8l50 247q-239 -283 -550 -283q-186 0 -277 92t-91 224q0 93 63 438q90 493 90 573q0 25 -19.5 43t-141.5 21l-8 8l4 42l9 8q112 -5 170 -5q80 0 185 5l-45 -219q-14 -66 -50 -268l-52 -290q-44 -245 -44 -329q0 -108 80 -168.5t206 -60.5
q257 0 491 282l113 693q33 202 33 246q0 43 -68 53q-51 1 -101 3l-8 8l4 42l9 8q119 -7 271 -7q109 0 227 7z" />
    <glyph glyph-name="uogonek" unicode="&#x173;" horiz-adv-x="1139" 
d="M1032 180l-2 -13q-229 -181 -282 -194q-85 -127 -85 -162q0 -81 61 -81q62 0 109 47l7 2l15 -10l2 -7q-85 -125 -193 -125q-50 0 -77 34.5t-27 73.5q0 92 134 228q-29 17 -29 65q0 62 84 411l-6 3l-74 -106q-102 -147 -244 -263.5t-209 -116.5q-72 0 -72 113q0 78 39 235
q99 398 99 482q0 32 -26 32q-30 0 -153 -80l-12 3l-10 23l3 14q96 74 195 127t134 53q45 0 45 -53q0 -21 -29 -140q-128 -523 -128 -619q0 -44 30 -44q77 0 269 214.5t251 604.5q12 2 137 32l15 -15q-2 -10 -24 -83q-69 -225 -112.5 -434t-43.5 -274q0 -47 32 -47
q26 0 155 97l11 -4z" />
    <glyph glyph-name="Wcircumflex" unicode="&#x174;" horiz-adv-x="1933" 
d="M1123 1424q25 -116 64 -262l242 -898q29 65 102 250l120 303q175 442 175 492q0 16 -18.5 29.5t-136.5 15.5l-7 8l5 42l9 9q95 -7 225 -7q105 0 169 7l7 -8l-4 -43l-9 -8q-75 -2 -93.5 -20.5t-74.5 -153.5l-162 -386l-163 -402q-105 -259 -149 -408h-100l-25 127
q-9 46 -37 155l-224 845q-37 -68 -223 -428l-208 -403q-95 -184 -133 -296h-101q-3 156 -41 508l-61 568q-19 180 -31 226t-28.5 53.5t-98.5 14.5l-8 8l4 43l9 8q83 -5 226 -5q146 0 227 5l8 -9l-4 -42l-9 -8q-101 -2 -124.5 -15.5t-23.5 -78.5q0 -91 62 -685l31 -297
l291 567q196 381 282 579h39zM1402 1533h-54l-187 236l-292 -236h-57l-5 10l319 326h106l178 -326zM1172 1805zM1451 1579z" />
    <glyph glyph-name="wcircumflex" unicode="&#x175;" horiz-adv-x="1479" 
d="M40 699l-6 8l81 230q43 15 85 15q35 0 127 -9q81 -8 119 -8q60 0 109 17l18 -28q-273 -335 -273 -641q0 -210 115 -210q84 0 199.5 183.5t193.5 660.5q75 11 151 40l14 -12q-148 -478 -148 -690q0 -79 34 -129.5t95 -50.5q134 0 238.5 203t104.5 399q0 147 -100 147
q-25 0 -52 -13l-11 2l-16 18v11q60 56 105 107q29 10 57 10q145 0 145 -201q0 -162 -93.5 -355t-226 -315.5t-242.5 -122.5q-80 0 -125 57t-45 143q0 89 20 188l-67 -121q-68 -123 -152.5 -195t-158.5 -72q-83 0 -133 73.5t-50 191.5q0 136 62.5 274.5t242.5 336.5
q-22 -8 -145 -8l-43 2q-66 0 -125 -11q-17 -25 -67 -119l-10 -6h-27zM1189 1098l-3 -8l-62 -1l-108 151l-73 96l-120 -104q-39 -34 -159 -142h-89l-3 10l191 196l143 156h102q76 -160 181 -354zM945 1381zM1270 1092z" />
    <glyph glyph-name="Ycircumflex" unicode="&#x176;" horiz-adv-x="1366" 
d="M366 -8l-7 8l4 43l9 8q116 7 131 10t23 9.5t18.5 31t33.5 135.5t32 181.5t9 95.5q0 87 -84.5 342t-149 341t-141.5 86q-33 0 -80 -19l-11 7l-4 32l6 12q85 54 153 112q54 -2 94 -21t82 -68.5t89.5 -154.5t95.5 -268t75 -281q117 273 311 516t357 261l-11 -144
q-62 -10 -122.5 -43t-134 -108t-167.5 -216.5t-143.5 -256.5t-68.5 -228q-48 -283 -48 -311t15 -35t81 -12l79 -6l7 -8l-4 -43l-9 -8q-129 7 -264 7q-132 0 -256 -7zM837 1477zM612 -109zM1157 1533h-54l-187 236l-292 -236h-57l-5 10l319 326h106l178 -326zM927 1805z
M1206 1579z" />
    <glyph glyph-name="ycircumflex" unicode="&#x177;" 
d="M-12 -378l99 67l21 -7q-2 -16 -2 -28q0 -72 42 -108.5t90 -36.5q38 0 77.5 19.5t77 64.5t84.5 151t85.5 228.5t74.5 255.5l34 125q-68 -104 -125 -167t-112 -120t-91 -79t-64 -22q-42 0 -66 51.5t-24 127.5q0 39 14 160q24 219 24 380q0 83 -8.5 108.5t-29.5 25.5
q-23 0 -58 -23t-88 -64l-13 4l-11 24l3 15q223 188 294 188q30 0 47.5 -26t17.5 -98q0 -68 -10 -178q-31 -340 -31 -454q0 -40 8.5 -61t30.5 -21q15 0 39.5 12t78.5 65t108 133.5t96.5 177.5t66.5 185t58 229q68 10 151 38l22 -20q-50 -100 -184 -557
q-68 -235 -113.5 -370.5t-107.5 -247t-144 -193.5t-154.5 -115.5t-138.5 -33.5q-71 0 -122.5 44.5t-51.5 116.5q0 15 5 34zM577 1029zM832 -109zM928 1098l-3 -8l-62 -1l-108 151l-73 96l-120 -104q-39 -34 -159 -142h-89l-3 10l191 196l143 156h102q76 -160 181 -354z
M684 1381zM1009 1092z" />
    <glyph glyph-name="Ydieresis" unicode="&#x178;" horiz-adv-x="1366" 
d="M366 -8l-7 8l4 43l9 8q116 7 131 10t23 9.5t18.5 31t33.5 135.5t32 181.5t9 95.5q0 87 -84.5 342t-149 341t-141.5 86q-33 0 -80 -19l-11 7l-4 32l6 12q85 54 153 112q54 -2 94 -21t82 -68.5t89.5 -154.5t95.5 -268t75 -281q117 273 311 516t357 261l-11 -144
q-62 -10 -122.5 -43t-134 -108t-167.5 -216.5t-143.5 -256.5t-68.5 -228q-48 -283 -48 -311t15 -35t81 -12l79 -6l7 -8l-4 -43l-9 -8q-129 7 -264 7q-132 0 -256 -7zM837 1477zM612 -109zM1083 1607q-94 0 -94 100q0 48 35 85t83 37q96 0 96 -91q0 -53 -33.5 -92t-86.5 -39z
M695 1607q-95 0 -95 100q0 49 35 85.5t84 36.5q95 0 95 -91q0 -53 -33.5 -92t-85.5 -39z" />
    <glyph glyph-name="Zacute" unicode="&#x179;" horiz-adv-x="1366" 
d="M78 -8l-8 8l4 43l159 197l861 1086h-360q-284 0 -371 -28q-18 -52 -52 -203l-9 -8h-38l-8 8q21 136 23 309l12 9q620 -9 693 -9q222 0 338 9l8 -8l-3 -38l-67 -79l-907 -1142l-48 -62q416 -4 435 -4q181 0 261.5 7.5t134.5 23.5q16 24 69 218l11 8h45l6 -8
q-35 -193 -48 -329l-10 -8l-518 5q-166 3 -279 3q-182 0 -334 -8zM1152 1845q-125 -85 -407 -299l-13 2l-23 19l1 13l255 271l178 18z" />
    <glyph glyph-name="zacute" unicode="&#x17a;" horiz-adv-x="909" 
d="M18 -14l-15 41l2 11l704 791q-74 -43 -172 -43q-55 0 -201 21q-74 11 -101 11q-20 0 -42 -12q-38 -60 -55 -109l-9 -8h-29l-6 8l63 238q37 20 98 20q77 0 198 -32q101 -26 150.5 -34.5t93.5 -8.5t68.5 14.5t65.5 59.5l18 -16l-14 -64l-678 -759q96 45 171 45
q50 0 160 -26q95 -23 146 -23q47 0 86 20l50 136l11 8h31l5 -7l-34 -162l-24 -118q-53 -21 -113 -21q-44 0 -69.5 4t-102.5 24q-107 27 -167.5 37.5t-115.5 10.5q-100 0 -162 -59zM832 1428l-346 -329l-13 -1l-22 19l-2 9q35 45 121 166l107 159l141 3z" />
    <glyph glyph-name="Zdotaccent" unicode="&#x17b;" horiz-adv-x="1366" 
d="M78 -8l-8 8l4 43l159 197l861 1086h-360q-284 0 -371 -28q-18 -52 -52 -203l-9 -8h-38l-8 8q21 136 23 309l12 9q620 -9 693 -9q222 0 338 9l8 -8l-3 -38l-67 -79l-907 -1142l-48 -62q416 -4 435 -4q181 0 261.5 7.5t134.5 23.5q16 24 69 218l11 8h45l6 -8
q-35 -193 -48 -329l-10 -8l-518 5q-166 3 -279 3q-182 0 -334 -8zM817 1607q-94 0 -94 100q0 48 35 85t83 37q96 0 96 -91q0 -54 -34 -92.5t-86 -38.5z" />
    <glyph glyph-name="zdotaccent" unicode="&#x17c;" horiz-adv-x="909" 
d="M18 -14l-15 41l2 11l704 791q-74 -43 -172 -43q-55 0 -201 21q-74 11 -101 11q-20 0 -42 -12q-38 -60 -55 -109l-9 -8h-29l-6 8l63 238q37 20 98 20q77 0 198 -32q101 -26 150.5 -34.5t93.5 -8.5t68.5 14.5t65.5 59.5l18 -16l-14 -64l-678 -759q96 45 171 45
q50 0 160 -26q95 -23 146 -23q47 0 86 20l50 136l11 8h31l5 -7l-34 -162l-24 -118q-53 -21 -113 -21q-44 0 -69.5 4t-102.5 24q-107 27 -167.5 37.5t-115.5 10.5q-100 0 -162 -59zM544 1163q-81 0 -81 89q0 52 30.5 91.5t82.5 39.5q78 0 78 -80q0 -56 -31.5 -98t-78.5 -42z
" />
    <glyph glyph-name="Zcaron" unicode="&#x17d;" horiz-adv-x="1366" 
d="M78 -8l-8 8l4 43l159 197l861 1086h-360q-284 0 -371 -28q-18 -52 -52 -203l-9 -8h-38l-8 8q21 136 23 309l12 9q620 -9 693 -9q222 0 338 9l8 -8l-3 -38l-67 -79l-907 -1142l-48 -62q416 -4 435 -4q181 0 261.5 7.5t134.5 23.5q16 24 69 218l11 8h45l6 -8
q-35 -193 -48 -329l-10 -8l-518 5q-166 3 -279 3q-182 0 -334 -8zM1185 1869l8 -10l-324 -326h-105l-176 328l10 8h40l197 -236l302 236h48z" />
    <glyph glyph-name="zcaron" unicode="&#x17e;" horiz-adv-x="909" 
d="M18 -14l-15 41l2 11l704 791q-74 -43 -172 -43q-55 0 -201 21q-74 11 -101 11q-20 0 -42 -12q-38 -60 -55 -109l-9 -8h-29l-6 8l63 238q37 20 98 20q77 0 198 -32q101 -26 150.5 -34.5t93.5 -8.5t68.5 14.5t65.5 59.5l18 -16l-14 -64l-678 -759q96 45 171 45
q50 0 160 -26q95 -23 146 -23q47 0 86 20l50 136l11 8h31l5 -7l-34 -162l-24 -118q-53 -21 -113 -21q-44 0 -69.5 4t-102.5 24q-107 27 -167.5 37.5t-115.5 10.5q-100 0 -162 -59zM875 1446l-191 -209q-39 -42 -129 -147h-72q-33 54 -200 358l6 6h62l172 -246
q121 101 270 246h80z" />
    <glyph glyph-name="longs" unicode="&#x17f;" horiz-adv-x="569" 
d="M242 764q-57 1 -80 1q-58 0 -75 -2l-8 8l7 30l7 9q119 43 170 77l40 195q19 90 35 120t62.5 74.5t124 103.5t119 76.5t83.5 17.5q64 0 132 -27q-42 -111 -57 -166l-22 -7q-22 33 -61 53.5t-83 20.5q-34 0 -60 -10.5t-46.5 -32.5t-37 -61t-36.5 -135l-33 -160
q-13 -64 -42 -212l-79 -389q-42 -206 -86.5 -376.5t-94.5 -262.5t-121.5 -162t-128 -96t-102.5 -26q-34 0 -71 19q32 94 47 164l25 6q42 -56 103 -56q38 0 73 21t66 76.5t71.5 233.5t78.5 399z" />
    <glyph glyph-name="uni018F" unicode="&#x18f;" horiz-adv-x="1630" 
d="M155 776q86 -2 240 -2l932 7q3 54 3 85q0 260 -126 384t-309 124q-144 0 -297 -75.5t-244 -250.5l-21 -41l-10 -7l-30 10l-4 12l39 199q271 222 604 222q287 0 432.5 -154.5t145.5 -410.5q0 -381 -226 -650t-581 -269q-261 0 -418.5 151t-157.5 432q0 107 28 234z
M1318 696l-326 3h-153l-524 -3q-8 -79 -8 -143q0 -245 120 -377.5t335 -132.5q208 0 358.5 164t197.5 489z" />
    <glyph glyph-name="uni018F" unicode="&#x4d8;" horiz-adv-x="1630" 
d="M155 776q86 -2 240 -2l932 7q3 54 3 85q0 260 -126 384t-309 124q-144 0 -297 -75.5t-244 -250.5l-21 -41l-10 -7l-30 10l-4 12l39 199q271 222 604 222q287 0 432.5 -154.5t145.5 -410.5q0 -381 -226 -650t-581 -269q-261 0 -418.5 151t-157.5 432q0 107 28 234z
M1318 696l-326 3h-153l-524 -3q-8 -79 -8 -143q0 -245 120 -377.5t335 -132.5q208 0 358.5 164t197.5 489z" />
    <glyph glyph-name="florin" unicode="&#x192;" 
d="M462 747l23 118q32 157 51 211t74 110t121 105t141.5 78.5t144.5 29.5q44 0 101 -14l5 -13q-39 -91 -50 -151l-18 -9q-67 80 -156 80q-53 0 -112.5 -41t-94.5 -170t-58 -240l-19 -94h90q92 0 156 2l8 -7l-19 -69l-8 -4q-73 1 -147 2h-95l-60 -291q-54 -263 -86.5 -391.5
t-72.5 -215t-95.5 -158t-114 -116t-107 -62.5t-82.5 -18q-39 0 -70 10l-6 11q25 78 39 153l23 2q13 -24 45.5 -40.5t57.5 -16.5q34 0 76.5 29t76 92.5t59.5 164.5t86 422l80 427h-77q-74 0 -122 -7l-8 7l17 69l8 7q107 -2 115 -2h80z" />
    <glyph glyph-name="Ohorn" unicode="&#x1a0;" horiz-adv-x="1593" 
d="M1505 1086q27 -92 27 -208q0 -258 -123 -484.5t-315 -330.5t-409 -104q-263 0 -414 153t-151 430q0 376 222 637t605 261q430 0 547 -322q128 64 128 159q0 98 -117 123l-9 16l32 64l24 4q150 -38 150 -177q0 -136 -197 -221zM892 1360q-299 0 -446 -241t-147 -566
q0 -257 119 -381.5t335 -124.5q203 0 336 112.5t198 316.5t65 387q0 239 -120 368t-340 129zM917 1477zM682 -109z" />
    <glyph glyph-name="ohorn" unicode="&#x1a1;" horiz-adv-x="1010" 
d="M837 639q-16 -303 -176.5 -486.5t-357.5 -183.5q-130 0 -197 80.5t-67 229.5q0 342 170.5 516t353.5 174q113 0 191 -66.5t85 -225.5q105 60 105 145q0 90 -112 110l-9 17l32 60l21 5q143 -47 143 -168q0 -124 -182 -207zM497 896q-138 0 -218 -167.5t-80 -435.5
q0 -248 183 -248q138 0 217.5 179t79.5 415q0 257 -182 257zM517 1029zM332 -109z" />
    <glyph glyph-name="Uhorn" unicode="&#x1af;" horiz-adv-x="1643" 
d="M1440 50l8 -9l-7 -41l-9 -8q-91 8 -204 8q-77 0 -143 -8l-7 8l50 247q-111 -131 -255.5 -207t-294.5 -76q-186 0 -277 92t-91 224q0 93 63 438q90 493 90 573q0 25 -19.5 43t-141.5 21l-8 8l4 42l9 8q112 -5 170 -5q80 0 185 5l-45 -219q-14 -66 -50 -268l-52 -290
q-44 -245 -44 -329q0 -106 80 -167.5t206 -61.5q257 0 491 282l113 693q33 202 33 246q0 31 -19.5 40t-149.5 16l-8 8l4 42l9 8q119 -7 271 -7q162 0 234.5 7.5t109 41t36.5 96.5q0 65 -78 114l-3 18l54 46h14q97 -83 97 -168q0 -65 -41.5 -113t-92.5 -65t-191 -28
q-48 -5 -65 -47t-84 -411l-79 -469q-47 -279 -47 -326q0 -27 20.5 -37.5t154.5 -14.5zM877 1477zM642 -109z" />
    <glyph glyph-name="uhorn" unicode="&#x1b0;" horiz-adv-x="1230" 
d="M914 615q-33 -110 -62 -257t-29 -201q0 -47 32 -47q26 0 155 97l11 -4l11 -23l-2 -13q-253 -200 -314 -200q-51 0 -51 71q0 62 84 411l-6 3l-74 -106q-103 -148 -245 -264t-208 -116q-72 0 -72 113q0 78 39 235q99 398 99 482q0 32 -26 32q-30 0 -153 -80l-12 3l-10 23
l3 14q259 180 329 180q45 0 45 -53q0 -21 -29 -140q-128 -523 -128 -619q0 -44 30 -44q44 0 139 80t210 240.5t171 498.5q12 2 137 32l15 -15q-73 -252 -79 -287q94 14 166.5 65t72.5 114q0 66 -84 84l-1 14l32 71l13 4q50 0 92 -44.5t42 -102.5q0 -91 -91 -160t-252 -91z
M617 1029zM432 -109z" />
    <glyph glyph-name="uni01B7" unicode="&#x1b7;" horiz-adv-x="1266" 
d="M538 763l434 455q-61 -7 -114 -7q-77 0 -253 48q-55 14 -127 14q-50 0 -110 -130l-9 -3l-33 6l-1 7q50 101 102 275l13 7q49 10 99 10q22 0 211 -45q190 -44 252 -44q111 0 183 37l24 -30l-540 -543l7 -6q34 2 61 2q61 0 143 -35.5t137 -117.5t55 -178
q0 -188 -176 -355.5t-411 -167.5q-227 0 -390 139q7 27 7 196q0 69 -2 92l43 17l9 -3q27 -206 138 -291t205 -85q158 0 263.5 111t105.5 283q0 149 -75 220t-171 71q-18 0 -62 -3l-6 4l-13 41z" />
    <glyph glyph-name="uni01F4" unicode="&#x1f4;" horiz-adv-x="1479" 
d="M1263 87l-9 -15q-34 -3 -124 -34q-137 -46 -211.5 -62.5t-171.5 -16.5q-210 0 -351.5 73t-208.5 207t-67 305q0 191 65 363.5t195 292.5t274.5 177.5t318.5 57.5q212 0 408 -79l4 -11q-36 -108 -58 -284l-8 -8h-42l-8 8q0 73 -7 171q-53 45 -154 72t-206 27
q-172 0 -307.5 -81t-214 -263t-78.5 -395q0 -120 29 -224.5t103.5 -181t169.5 -105t207 -28.5q165 0 279 65l37 196q15 85 15 114q0 26 -16 39.5t-79 17.5l-136 11l-8 8l6 44l10 8l35 -1q176 -6 229 -6q112 0 239 3l7 -8l-4 -39l-8 -9q-62 -11 -78.5 -18t-23 -18t-17.5 -61
l-12 -57q-8 -39 -19 -114t-11 -108q0 -15 7 -33zM1242 1845q-125 -85 -407 -299l-13 2l-23 19l1 13l255 271l178 18z" />
    <glyph glyph-name="uni01F5" unicode="&#x1f5;" 
d="M358 29q-45 47 -45 70q0 24 30.5 63.5t106.5 105.5q-29 -2 -47 -2q-119 0 -189 62.5t-70 186.5q0 87 34 173.5t92.5 141t141 94.5t179.5 40q172 0 239 -112q116 2 173 13l4 -5l-16 -100q-27 2 -52 2q-35 0 -80 -4q4 -32 4 -58q0 -142 -92.5 -256.5t-249.5 -157.5
q-56 -53 -56 -90q0 -38 29.5 -71.5t178.5 -156.5q86 -70 112.5 -123t26.5 -101q0 -129 -142 -221t-356 -92q-174 0 -265.5 66t-91.5 177q0 65 36 129t134 126t231 100zM289 553q0 -103 48.5 -161.5t140.5 -58.5q120 0 178 109t58 247q0 68 -20 114t-61.5 72t-101.5 26
q-116 0 -179 -103t-63 -245zM390 -7q-85 -21 -161 -69t-108.5 -105t-32.5 -119q0 -100 78.5 -156.5t203.5 -56.5q86 0 156.5 24t110.5 70.5t40 101.5q0 35 -17 71t-43 60.5t-87 70.5zM862 1428l-346 -329l-13 -1l-22 19l-2 9q35 45 121 166l107 159l141 3z" />
    <glyph glyph-name="Aringacute" unicode="&#x1fa;" horiz-adv-x="1479" 
d="M-14 -8l-7 8l7 44l9 7l58 9q25 4 34 9t19 17t45 64t92 143l22 32l692 1095h94l168 -1208q14 -101 25 -122t33 -26t114 -13l6 -8l-8 -43l-9 -8q-140 8 -241 8q-68 0 -239 -8l-7 8l7 43l9 8q124 5 141.5 15t17.5 43q0 8 -14 154l-39 296h-499l-141 -234q-20 -33 -63.5 -112
t-50 -95.5t-6.5 -26.5q0 -17 19.5 -25.5t146.5 -13.5l6 -8l-7 -44l-9 -8q-116 8 -218 8q-84 0 -207 -8zM566 637h440l-76 581zM1008 1477zM684 -109zM1017 1414q-77 0 -122 44.5t-45 113.5q0 87 65.5 152.5t156.5 65.5q81 0 127.5 -45.5t46.5 -119.5q0 -86 -69.5 -148.5
t-159.5 -62.5zM1064 1744q-52 0 -90.5 -51t-38.5 -119q0 -114 92 -114q55 0 94.5 51.5t39.5 116.5q0 46 -26.5 81t-70.5 35zM1307 2126q-125 -85 -407 -299l-13 2l-23 19l1 13l255 271l178 18z" />
    </font>
</defs>
</svg>
