<?xml version="1.0" standalone="no"?>
<!DOCTYPE svg PUBLIC "-//W3C//DTD SVG 1.1//EN" "http://www.w3.org/Graphics/SVG/1.1/DTD/svg11.dtd" >
<svg xmlns="http://www.w3.org/2000/svg" xmlns:xlink="http://www.w3.org/1999/xlink" version="1.1">
<metadata>
Created by FontForge 20170731 at Fri Nov 11 12:40:45 2022
 By Aleksey,,,
(C)2002 House Industries/Brand Design Co. Inc.
</metadata>
<defs>
<font id="NeutraText-LightAlt" horiz-adv-x="368" >
  <font-face 
    font-family="Neutra Text Light Alt"
    font-weight="300"
    font-stretch="normal"
    units-per-em="2048"
    panose-1="2 0 0 0 0 0 0 0 0 0"
    ascent="1638"
    descent="-410"
    x-height="836"
    cap-height="1393"
    bbox="-102 -467 2243 1946"
    underline-thickness="40"
    underline-position="-312"
    unicode-range="U+000D-FB02"
  />
<missing-glyph horiz-adv-x="1024" 
 />
    <glyph glyph-name="fi" unicode="fi" horiz-adv-x="952" 
d="M739 1128q-27 0 -47 19t-20 49q0 29 20 48.5t47 19.5t47.5 -19.5t20.5 -48.5q0 -30 -20.5 -49t-47.5 -19zM207 0v768h-133v68h133v430q0 122 55 180.5t141 58.5q70 0 112 -25t75 -73l-60 -45q-19 26 -31 39t-36 23t-57 10q-57 0 -88 -38t-31 -132v-428h493v-836h-80v768
h-413v-768h-80z" />
    <glyph glyph-name="fl" unicode="fl" horiz-adv-x="964" 
d="M207 0v768h-133v68h133v430q0 122 55 180.5t141 58.5q70 0 112 -25t75 -73l-60 -45q-19 26 -31 39t-36 23t-57 10q-57 0 -88 -38t-31 -132v-428h223v-68h-223v-768h-80zM700 0v1479h80v-1479h-80z" />
    <glyph glyph-name="ff" unicode="ff" horiz-adv-x="1077" 
d="M207 0v768h-133v68h133v389q0 122 55 180.5t141 58.5q70 0 112 -25t75 -73l-60 -45q-19 26 -31 39t-36 23t-57 10q-57 0 -88 -38t-31 -132v-387h413v430q0 122 55.5 180.5t141.5 58.5q70 0 111.5 -25t74.5 -73l-59 -45q-28 38 -52.5 55t-72.5 17q-57 0 -88 -38t-31 -132
v-428h224v-68h-224v-768h-80v768h-413v-768h-80z" />
    <glyph glyph-name="ffi" unicode="ffi" horiz-adv-x="1445" 
d="M1233 1128q-27 0 -47.5 19t-20.5 49q0 29 20.5 48.5t47.5 19.5t47 -19.5t20 -48.5q0 -30 -20 -49t-47 -19zM207 0v768h-133v68h133v389q0 122 55 180.5t141 58.5q70 0 112 -25t75 -73l-60 -45q-19 26 -31 39t-36 23t-57 10q-57 0 -88 -38t-31 -132v-387h413v430
q0 122 55.5 180.5t141.5 58.5q70 0 111.5 -25t74.5 -73l-59 -45q-28 38 -52.5 55t-72.5 17q-57 0 -88 -38t-31 -132v-428h494v-836h-80v768h-414v-768h-80v768h-413v-768h-80z" />
    <glyph glyph-name="ffl" unicode="ffl" horiz-adv-x="1458" 
d="M207 0v766h-133v70h133v389q0 122 55 180.5t141 58.5q70 0 112 -25t75 -73l-60 -45q-19 26 -31 39t-36 23t-57 10q-57 0 -88 -38t-31 -132v-387h413v430q0 122 55.5 180.5t141.5 58.5q70 0 111.5 -25t74.5 -73l-59 -45q-28 38 -52.5 55t-72.5 17q-57 0 -88 -38t-31 -132
v-428h224v-70h-224v-766h-80v766h-413v-766h-80zM1194 0v1479h80v-1479h-80z" />
    <glyph glyph-name=".notdef" horiz-adv-x="1024" 
 />
    <glyph glyph-name=".notdef" horiz-adv-x="1024" 
 />
    <glyph glyph-name=".null" horiz-adv-x="0" 
 />
    <glyph glyph-name="nonmarkingreturn" horiz-adv-x="682" 
 />
    <glyph glyph-name="CR" unicode="&#xd;" horiz-adv-x="499" 
 />
    <glyph glyph-name="space" unicode=" " horiz-adv-x="499" 
 />
    <glyph glyph-name="exclam" unicode="!" horiz-adv-x="458" 
d="M199 348l-15 1045h90l-14 -1045h-61zM229 -14q-30 0 -53.5 22.5t-23.5 54.5q0 33 23.5 56.5t53.5 23.5q31 0 54.5 -23.5t23.5 -56.5q0 -32 -23.5 -54.5t-54.5 -22.5z" />
    <glyph glyph-name="quotedbl" unicode="&#x22;" horiz-adv-x="460" 
d="M301 997l-10 396h84l-10 -396h-64zM96 997l-10 396h84l-10 -396h-64z" />
    <glyph glyph-name="numbersign" unicode="#" horiz-adv-x="882" 
d="M147 537l58 227h-148v70h164l64 253h-164v70h180l59 236h74l-59 -236h227l60 236h73l-59 -236h149v-70h-166l-63 -253h164v-70h-182l-56 -227h-76l58 227h-228l-55 -227h-74zM295 834h227l64 253h-228z" />
    <glyph glyph-name="dollar" unicode="$" horiz-adv-x="1079" 
d="M489 -14q-288 20 -413 276l71 35q56 -108 133.5 -169t208.5 -71v668l-30 14q-157 72 -230 155.5t-73 215.5q0 134 97 215t236 84v174h76v-178q186 -25 293 -195l-65 -43q-89 143 -228 164v-555l56 -24q176 -81 254.5 -176.5t78.5 -239.5q0 -156 -104 -251t-285 -101v-222
h-76v224zM489 1337q-116 -2 -184.5 -61.5t-68.5 -163.5q0 -106 56 -170.5t197 -130.5v526zM565 55q146 6 227.5 81t81.5 200q0 120 -66 196.5t-220 147.5l-23 10v-635z" />
    <glyph glyph-name="percent" unicode="%" horiz-adv-x="1529" 
d="M395 754q-132 0 -229.5 94t-97.5 233q0 140 97.5 234t229.5 94t230 -94.5t98 -233.5t-98 -233t-230 -94zM283 0l878 1393h86l-878 -1393h-86zM1135 -16q-132 0 -230 94t-98 233t98 233.5t230 94.5t228.5 -94t96.5 -234t-96.5 -233.5t-228.5 -93.5zM395 825
q103 0 175.5 72t72.5 184t-72.5 184t-175.5 72q-105 0 -176.5 -72t-71.5 -184t71.5 -184t176.5 -72zM1135 55q103 0 175 72t72 184q0 113 -71.5 184.5t-175.5 71.5q-105 0 -177.5 -71.5t-72.5 -184.5q0 -112 72.5 -184t177.5 -72z" />
    <glyph glyph-name="ampersand" unicode="&#x26;" horiz-adv-x="1300" 
d="M588 805l352 -424q68 164 68 379h77q0 -254 -90 -445l262 -315h-104l-201 242q-80 -125 -199 -191.5t-264 -66.5q-177 0 -286 99t-109 267q0 37 5 70t17 63.5t23.5 56t33.5 51.5t38 44.5t46.5 42t48.5 37.5t54 36.5t54 33.5t57 34l-45 55q-111 135 -111 269
q0 115 74 190.5t193 75.5q115 0 189.5 -77t74.5 -189q0 -100 -68.5 -181.5t-189.5 -156.5zM541 862q106 65 164.5 130.5t58.5 150.5t-51 137.5t-131 52.5q-84 0 -134.5 -51t-50.5 -139q0 -108 88 -213zM901 303l-383 461q-67 -38 -105 -62t-89 -65t-78 -78.5t-46.5 -92
t-19.5 -116.5q0 -134 84.5 -212.5t224.5 -78.5q131 0 237 63t175 181z" />
    <glyph glyph-name="quotesingle" unicode="'" horiz-adv-x="256" 
d="M96 997l-10 396h84l-10 -396h-64z" />
    <glyph glyph-name="parenleft" unicode="(" horiz-adv-x="534" 
d="M422 -279q-338 358 -338 875q0 516 338 874l53 -47q-307 -350 -307 -827t307 -827z" />
    <glyph glyph-name="parenright" unicode=")" horiz-adv-x="534" 
d="M113 -279l-54 48q306 349 306 827t-306 827l54 47q338 -362 338 -874q0 -513 -338 -875z" />
    <glyph glyph-name="asterisk" unicode="*" horiz-adv-x="776" 
d="M350 782l17 269l-217 -140l-37 66l243 113l-243 112l37 66l217 -140l-17 265h76l-16 -265l217 140l37 -66l-244 -112l242 -113l-35 -66l-217 140l16 -269h-76z" />
    <glyph glyph-name="plus" unicode="+" horiz-adv-x="808" 
d="M365 317v312h-285v73h285v312h77v-312h287v-73h-287v-312h-77z" />
    <glyph glyph-name="comma" unicode="," 
d="M82 -227l80 219q-26 6 -43 27t-17 49q0 33 25.5 57.5t56.5 24.5q33 0 57.5 -24.5t24.5 -57.5q0 -23 -8 -39l-125 -256h-51z" />
    <glyph glyph-name="hyphen" unicode="-" horiz-adv-x="569" 
d="M104 426v74h359v-74h-359z" />
    <glyph glyph-name="hyphen" unicode="&#xad;" horiz-adv-x="569" 
d="M104 426v74h359v-74h-359z" />
    <glyph glyph-name="period" unicode="." 
d="M184 -14q-31 0 -56.5 24.5t-25.5 57.5q0 34 25 58t57 24q33 0 57.5 -23.5t24.5 -58.5q0 -33 -24.5 -57.5t-57.5 -24.5z" />
    <glyph glyph-name="slash" unicode="/" horiz-adv-x="901" 
d="M59 -262l637 1741h84l-637 -1741h-84z" />
    <glyph glyph-name="zero" unicode="0" horiz-adv-x="1495" 
d="M748 -16q-184 0 -330.5 89t-230 251.5t-83.5 371.5t83.5 372t230 252t330.5 89q183 0 329.5 -89t230 -252.5t83.5 -371.5t-83.5 -371t-230 -252t-329.5 -89zM748 59q167 0 294 83t194 227.5t67 326.5t-67 326.5t-194 227.5t-294 83q-168 0 -295.5 -83t-195 -227.5
t-67.5 -326.5t67.5 -326.5t195 -227.5t295.5 -83z" />
    <glyph glyph-name="one" unicode="1" horiz-adv-x="608" 
d="M295 0v1319h-215v74h299v-1393h-84z" />
    <glyph glyph-name="two" unicode="2" horiz-adv-x="1062" 
d="M76 0v8l571 610q100 107 153.5 206t53.5 214q0 133 -79 214t-216 81q-130 0 -222 -76.5t-120 -222.5l-78 15q26 159 138 259.5t282 100.5t274.5 -102.5t104.5 -268.5q0 -126 -65 -240t-177 -235l-372 -397q-20 -22 -47 -47t-45 -39l-17 -14q76 8 133 8h604v-74h-876z" />
    <glyph glyph-name="three" unicode="3" horiz-adv-x="1105" 
d="M520 -16q-158 0 -281 72t-184 186l68 39q59 -104 159 -163t236 -59q191 0 301.5 111.5t110.5 286.5q0 172 -111 278.5t-301 106.5q-87 0 -158 -27l-6 10l385 428q14 16 34 35t33 30l13 11q-64 -10 -117 -10h-536v74h788v-9l-362 -403q-17 -19 -37 -37.5t-31 -27.5l-12 -9
q113 4 207.5 -29t159 -94t100 -145.5t35.5 -181.5q0 -205 -137 -339t-357 -134z" />
    <glyph glyph-name="four" unicode="4" horiz-adv-x="1155" 
d="M846 0v285h-797v8l873 1134h8v-1069h143v-73h-143v-285h-84zM172 350q88 8 145 8h529v727l6 152q-45 -78 -86 -131l-494 -645q-16 -21 -41 -48.5t-42 -44.5z" />
    <glyph glyph-name="five" unicode="5" horiz-adv-x="1091" 
d="M516 -16q-150 0 -271.5 63.5t-187.5 177.5l70 43q57 -95 159 -152t230 -57q178 0 287.5 114.5t109.5 291.5q0 175 -107 291t-284 116q-190 0 -325 -129l-9 7v643h723v-74h-647v-442q110 69 262 69q208 0 340.5 -137t132.5 -344q0 -214 -135.5 -347.5t-347.5 -133.5z" />
    <glyph glyph-name="six" unicode="6" horiz-adv-x="1134" 
d="M567 -16q-201 0 -332 132.5t-131 325.5q0 158 107 308l457 643h92l-342 -478l-84 -104q120 92 244 92q195 0 323.5 -134t128.5 -327t-131 -325.5t-332 -132.5zM567 59q169 0 274 111.5t105 271.5q0 105 -44.5 192.5t-132.5 141t-202 53.5q-169 0 -274 -111.5t-105 -275.5
q0 -160 105 -271.5t274 -111.5z" />
    <glyph glyph-name="seven" unicode="7" horiz-adv-x="1101" 
d="M240 0l673 1319h-835v74h956v-9l-706 -1384h-88z" />
    <glyph glyph-name="eight" unicode="8" horiz-adv-x="1138" 
d="M569 -16q-210 0 -348.5 117.5t-138.5 299.5q0 147 91.5 246.5t246.5 132.5q-104 35 -164.5 112.5t-60.5 188.5q0 140 106 234t268 94q164 0 271.5 -94t107.5 -234q0 -111 -61.5 -189.5t-165.5 -111.5q154 -35 245 -134t91 -245q0 -183 -137.5 -300t-350.5 -117zM569 813
q135 0 216 74t81 192q0 111 -81.5 184.5t-215.5 73.5q-132 0 -212.5 -73.5t-80.5 -184.5q0 -118 79.5 -192t213.5 -74zM569 59q181 0 291.5 95.5t110.5 246.5q0 152 -110 247t-292 95q-179 0 -290 -95.5t-111 -246.5t111 -246.5t290 -95.5z" />
    <glyph glyph-name="nine" unicode="9" horiz-adv-x="1134" 
d="M410 0l325 479l68 86q-119 -92 -248 -92q-131 0 -237.5 63.5t-165 170.5t-58.5 235q0 196 133.5 331.5t337.5 135.5q206 0 339.5 -135t133.5 -332q0 -83 -27.5 -157t-82.5 -156l-426 -629h-92zM565 547q174 0 281.5 114t107.5 281q0 164 -106 277.5t-283 113.5
q-116 0 -205.5 -54t-135.5 -142.5t-46 -194.5q0 -107 44.5 -196t134 -144t208.5 -55z" />
    <glyph glyph-name="colon" unicode=":" horiz-adv-x="389" 
d="M195 438q-31 0 -56.5 24.5t-25.5 57.5q0 34 25 59t57 25q33 0 57 -24.5t24 -59.5q0 -34 -24 -58t-57 -24zM195 -14q-31 0 -56.5 24.5t-25.5 57.5q0 34 25 59t57 25q33 0 57 -24.5t24 -59.5q0 -34 -24 -58t-57 -24z" />
    <glyph glyph-name="semicolon" unicode=";" horiz-adv-x="389" 
d="M195 438q-31 0 -56.5 24.5t-25.5 57.5q0 34 25 59t57 25q33 0 57 -24.5t24 -59.5q0 -34 -24 -58t-57 -24zM92 -227l80 219q-26 6 -42.5 27t-16.5 49q0 33 25.5 57.5t56.5 24.5q33 0 57 -24t24 -58q0 -23 -8 -39l-125 -256h-51z" />
    <glyph glyph-name="semicolon" unicode="&#x37e;" horiz-adv-x="389" 
d="M195 438q-31 0 -56.5 24.5t-25.5 57.5q0 34 25 59t57 25q33 0 57 -24.5t24 -59.5q0 -34 -24 -58t-57 -24zM92 -227l80 219q-26 6 -42.5 27t-16.5 49q0 33 25.5 57.5t56.5 24.5q33 0 57 -24t24 -58q0 -23 -8 -39l-125 -256h-51z" />
    <glyph glyph-name="less" unicode="&#x3c;" horiz-adv-x="794" 
d="M682 332l-596 321v21l596 315v-82l-465 -245l465 -248v-82z" />
    <glyph glyph-name="equal" unicode="=" horiz-adv-x="808" 
d="M92 745v74h625v-74h-625zM92 473v74h625v-74h-625z" />
    <glyph glyph-name="greater" unicode="&#x3e;" horiz-adv-x="794" 
d="M113 332v82l465 245l-465 248v82l596 -321v-21z" />
    <glyph glyph-name="question" unicode="?" horiz-adv-x="919" 
d="M356 340v379h56q139 0 227 89t88 220q0 146 -81.5 225.5t-215.5 79.5q-113 0 -186.5 -48.5t-124.5 -158.5l-70 35q47 120 147.5 184t233.5 64q168 0 274.5 -101.5t106.5 -279.5q0 -160 -108 -266.5t-269 -112.5v-309h-78zM393 -14q-30 0 -54 23t-24 54q0 33 24 56.5
t54 23.5q31 0 54.5 -23.5t23.5 -56.5q0 -32 -23.5 -54.5t-54.5 -22.5z" />
    <glyph glyph-name="at" unicode="@" horiz-adv-x="1777" 
d="M891 -422q-160 0 -303.5 59.5t-248.5 163.5t-166.5 254.5t-61.5 323.5q0 167 62 316.5t166.5 255.5t248.5 167.5t303 61.5q163 0 307.5 -59.5t247 -160.5t162 -240t59.5 -294q0 -221 -81.5 -329.5t-207.5 -108.5q-94 0 -151 54t-64 153q-90 -211 -303 -211
q-153 0 -255.5 109.5t-102.5 273.5q0 167 103 279t255 112q102 0 178.5 -54.5t118.5 -146.5l-4 182h80v-481q0 -100 33.5 -151.5t111.5 -51.5q94 0 152.5 91.5t58.5 279.5q0 136 -49 259.5t-137 218t-221 150.5t-291 56q-152 0 -283.5 -58.5t-222.5 -157.5t-143 -233
t-52 -282q0 -203 87.5 -369.5t248.5 -264t365 -97.5q194 0 342 92l37 -62q-160 -100 -379 -100zM866 53q122 0 205.5 92t83.5 222q0 133 -83.5 227t-205.5 94q-123 0 -202.5 -93.5t-79.5 -227.5q0 -131 79.5 -222.5t202.5 -91.5z" />
    <glyph glyph-name="A" unicode="A" horiz-adv-x="1333" 
d="M90 0l563 1409h25l565 -1409h-86l-106 270h-770l-107 -270h-84zM309 344h711l-313 795q-9 22 -19 53.5t-16 52.5l-6 21q-21 -78 -41 -127z" />
    <glyph glyph-name="B" unicode="B" horiz-adv-x="1245" 
d="M211 0v1393h442q186 0 279.5 -93t93.5 -241q0 -108 -42.5 -182.5t-129.5 -104.5q131 -31 210 -132t79 -241q0 -86 -25.5 -157t-76 -126t-134 -85.5t-192.5 -30.5h-504zM295 799h387q260 0 260 260q0 119 -70 189.5t-227 70.5h-350v-520zM295 74h410q95 0 164.5 24.5
t110.5 69.5t60 102.5t19 128.5q0 148 -89 237t-268 89h-407v-651z" />
    <glyph glyph-name="C" unicode="C" horiz-adv-x="1497" 
d="M829 -16q-196 0 -358 88.5t-258 252.5t-96 371q0 156 56 290t152.5 226t227 144.5t276.5 52.5q182 0 323.5 -68t229.5 -196l-63 -47q-78 112 -203 173.5t-287 61.5q-177 0 -320 -82.5t-224.5 -228.5t-81.5 -326t81.5 -326t224.5 -228.5t320 -82.5q161 0 291.5 64.5
t214.5 183.5l64 -45q-92 -134 -240.5 -206t-329.5 -72z" />
    <glyph glyph-name="D" unicode="D" horiz-adv-x="1386" 
d="M211 0v1393h297q358 0 560 -187t202 -510t-201 -509.5t-561 -186.5h-297zM295 76h203q169 0 300.5 45.5t215 128t126 195.5t42.5 251t-42.5 251t-126 196t-215 128.5t-300.5 45.5h-203v-1241z" />
    <glyph glyph-name="E" unicode="E" horiz-adv-x="1173" 
d="M211 0v1393h813v-74h-729v-746h653v-73h-653v-426h758v-74h-842z" />
    <glyph glyph-name="F" unicode="F" horiz-adv-x="1138" 
d="M211 0v1393h811v-74h-727v-746h659v-75h-659v-498h-84z" />
    <glyph glyph-name="G" unicode="G" horiz-adv-x="1542" 
d="M805 -16q-146 0 -277 53t-228 145t-153.5 226t-56.5 288t56.5 288t152.5 226.5t227 145.5t277 53q182 0 330.5 -70t234.5 -206l-63 -48q-79 123 -207.5 185.5t-294.5 62.5q-132 0 -248.5 -48.5t-199.5 -132.5t-131 -202.5t-48 -253.5t48.5 -253.5t131.5 -202.5
t200 -132.5t249 -48.5t240.5 39t180 106t114 151.5t55.5 181.5h-566v75h658q-14 -284 -199 -456t-483 -172z" />
    <glyph glyph-name="H" unicode="H" horiz-adv-x="1400" 
d="M211 0v1393h84v-820h811v820h84v-1393h-84v498h-811v-498h-84z" />
    <glyph glyph-name="I" unicode="I" horiz-adv-x="522" 
d="M219 0v1393h84v-1393h-84z" />
    <glyph glyph-name="J" unicode="J" horiz-adv-x="974" 
d="M414 -16q-220 0 -328 184l68 45q90 -154 258 -154q121 0 192.5 73.5t71.5 215.5v1045h84v-1049q0 -173 -96 -266.5t-250 -93.5z" />
    <glyph glyph-name="K" unicode="K" horiz-adv-x="1202" 
d="M287 492q72 122 84 139l602 762h94l-541 -693l594 -700h-104l-543 641l-178 -219v0v0v0v0v-1v0v0v-1v0v0v-1v0v-1v0v-1v0v-1v0v-1v-1v-1v0v-1v-1v-1v-1v-1v-1v-1v-1v-1v-1v-1v-1v-1v-1v-1v-1v-1v-1v-1v-1v-1v-1v-1v-1v-1v-1v-1v-1v-1v-1v-1v-1v-1v-1v-1v-1v-1v-1v-1v-1
v-1v-1v-1v-1v-1v-1v-1v-1v-1v-1v-1v-1v-1v-1v-1v-1v-1v-1v-1v-1v-1v-1v-1v-1v-1v-1v-1v-1v-1v-1v-1v-1v-1v-1v-2v-1v-1v-1v-1v-1v-1v-1v-1v-2v-1v-1v-1v-1v-1v-2v-1v-1v-1v-1v-1v-2v-1v-1v-1v-1v-2v-1v-1v-1v-2v-1v-1v-1v-2v-1v-1v-1v-2v-1v-1v-1v-2v-1v-1v-2v-1v-1v-2v-1
v-1v-2v-1v-1v-2v-1v-1v-2v-1v-1v-2v-1v-1v-2v-1v-1v-2v-1v-2v-1v-1v-2v-1v-2v-1v-2v-1v-1v-2v-1v-2v-1v-2v-1v-1v-2v-1v-2v-1v-2v-1v-2v-1v-2v-1v-2v-1v-2v-1v-2v-1v-2v-1v-2v-1v-2v-1v-2v-1v-2v-1v-2v-2v-1v-2v-1v-2v-1v-2v-1v-2v-2v-1v-2v-1v-2v-2v-1v-2v-1v-2v-2v-1v-2
v-1v-2v-2v-1v-2v-2v-1v-2v-2v-1v-2v-2v-1v-2v-2v-1v-2v-2v-1v-2v-2v-1v-2v-2v-1v-2v-2v-2v-1v-2v-2v-1v-2v-2v-2v-1v-2v-2v-2v-1v-2v-2v-2v-1v-2v-2v-2v-1v-2v-2v-2v-2v-1v-2v-2v-2v-2v-1v-2v-2v-2v-2v-1v-2v-2v-2v-2v-2v-1v-2v-2v-2v-2v-2v-2v-1v-2v-2v-2v-2v-2v-2v-1v-9
h-84v1393h84v-744q0 -33 -8 -157z" />
    <glyph glyph-name="L" unicode="L" horiz-adv-x="1048" 
d="M211 0v1393h84v-1319h670v-74h-754z" />
    <glyph glyph-name="M" unicode="M" horiz-adv-x="1695" 
d="M131 0l172 1411h16l474 -903q14 -24 27.5 -55.5t20.5 -50.5l7 -19q24 70 55 125l475 903h15l172 -1411h-84l-127 1042q-4 32 -6.5 77.5t-3.5 75.5l-1 30q-30 -90 -67 -164l-424 -807h-14l-420 809q-16 30 -33 71t-26 67l-9 26q-2 -111 -10 -183l-127 -1044h-82z" />
    <glyph glyph-name="N" unicode="N" horiz-adv-x="1472" 
d="M1237 -16l-891 1155l-63 92q6 -64 6 -105v-1126h-78v1409h25l890 -1155l64 -92q-6 63 -6 104v1127h78v-1409h-25z" />
    <glyph glyph-name="O" unicode="O" horiz-adv-x="1658" 
d="M829 -16q-196 0 -358 88.5t-258 252.5t-96 371q0 156 56 290t152.5 226t227 144.5t276.5 52.5t277 -52.5t227 -144.5t152.5 -226t56.5 -290t-56.5 -290t-152.5 -226t-227 -144t-277 -52zM829 59q132 0 248.5 48.5t199.5 132.5t131 202.5t48 253.5t-48 253.5t-131 202.5
t-199.5 132.5t-248.5 48.5q-177 0 -320 -82.5t-224.5 -228.5t-81.5 -326t81.5 -326t224.5 -228.5t320 -82.5z" />
    <glyph glyph-name="P" unicode="P" horiz-adv-x="1179" 
d="M211 0v1393h285q273 0 412 -141t139 -378q0 -112 -33.5 -204.5t-100 -163t-173 -109.5t-244.5 -39h-201v-358h-84zM295 432h192q127 0 221 34t148 95.5t79.5 139t25.5 173.5q0 97 -25.5 175t-79.5 140t-148 96t-221 34h-192v-887z" />
    <glyph glyph-name="Q" unicode="Q" horiz-adv-x="1658" 
d="M868 -16v-320h-77v320q-140 7 -263.5 62t-214.5 146.5t-143.5 222.5t-52.5 281q0 156 56 290t152.5 226t227 144.5t276.5 52.5t277 -52.5t227 -144.5t152.5 -226t56.5 -290q0 -150 -52.5 -281t-143.5 -222.5t-214.5 -146.5t-263.5 -62zM791 59v316h77v-316
q254 14 421 194t167 443q0 135 -48 253.5t-131 202.5t-199.5 132.5t-248.5 48.5q-177 0 -320 -82.5t-224.5 -228.5t-81.5 -326q0 -263 167 -443t421 -194z" />
    <glyph glyph-name="R" unicode="R" horiz-adv-x="1204" 
d="M748 424l309 -424h-101l-290 397q-76 -18 -174 -18h-197v-379h-84v1393h281q138 0 245.5 -39.5t174 -109t101 -160.5t34.5 -199q0 -159 -75.5 -281t-223.5 -180zM295 453h188q127 0 222 34.5t149.5 96t80.5 136.5t26 165t-26 165t-80.5 137t-149.5 97t-222 35h-188v-866z
" />
    <glyph glyph-name="S" unicode="S" horiz-adv-x="1079" 
d="M543 -16q-331 0 -467 278l71 35q27 -51 59 -90t78 -75t111.5 -55.5t145.5 -19.5q141 0 236 77.5t95 205.5q0 118 -66.5 194t-217.5 146l-129 59q-153 71 -222 151.5t-69 207.5q0 141 98.5 226t243.5 85q228 0 356 -201l-65 -43q-49 79 -117 124.5t-174 45.5
q-122 0 -191 -64t-69 -171q0 -101 54.5 -163t187.5 -124l129 -59q173 -78 253 -175t80 -239q0 -161 -114.5 -258.5t-296.5 -97.5z" />
    <glyph glyph-name="T" unicode="T" horiz-adv-x="1103" 
d="M510 0v1319h-442v74h968v-74h-442v-1319h-84z" />
    <glyph glyph-name="U" unicode="U" horiz-adv-x="1333" 
d="M666 -16q-208 0 -338.5 125.5t-130.5 353.5v930h84v-924q0 -197 104.5 -304.5t280.5 -107.5q175 0 281 108t106 304v924h84v-930q0 -227 -132 -353t-339 -126z" />
    <glyph glyph-name="V" unicode="V" horiz-adv-x="1333" 
d="M655 -16l-565 1409h90l451 -1137q8 -20 17.5 -52t15.5 -54l6 -21q21 82 39 127l450 1137h84l-563 -1409h-25z" />
    <glyph glyph-name="W" unicode="W" horiz-adv-x="1945" 
d="M520 -16l-436 1409h90l340 -1121l23 -102q12 63 26 102l400 1137h24l399 -1137q6 -17 12.5 -42.5t9.5 -42.5l3 -17q13 63 25 102l340 1121h86l-437 -1409h-22l-406 1155q-6 19 -11.5 45t-7.5 42l-3 17q-11 -61 -25 -104l-407 -1155h-23z" />
    <glyph glyph-name="X" unicode="X" horiz-adv-x="1275" 
d="M104 0l488 754l-412 639h96l340 -527l23 -51q17 35 27 51l340 527h90l-412 -637l490 -756h-97l-415 645l-25 51q-15 -35 -25 -51l-417 -645h-91z" />
    <glyph glyph-name="Y" unicode="Y" horiz-adv-x="1316" 
d="M616 0v434l-526 959h94l445 -807q8 -15 16.5 -36t12.5 -34l4 -14q18 51 36 84l443 807h88l-527 -961v-432h-86z" />
    <glyph glyph-name="Z" unicode="Z" horiz-adv-x="1187" 
d="M92 0v20l846 1299h-737v74h862v-21l-844 -1298h866v-74h-993z" />
    <glyph glyph-name="bracketleft" unicode="[" horiz-adv-x="593" 
d="M170 -262v1741h344v-72h-262v-1597h262v-72h-344z" />
    <glyph glyph-name="backslash" unicode="\" horiz-adv-x="901" 
d="M758 -262l-637 1741h84l637 -1741h-84z" />
    <glyph glyph-name="bracketright" unicode="]" horiz-adv-x="593" 
d="M80 -262v72h262v1597h-262v72h346v-1741h-346z" />
    <glyph glyph-name="asciicircum" unicode="^" horiz-adv-x="833" 
d="M154 965l254 444h18l254 -444h-70l-192 309l-195 -309h-69z" />
    <glyph glyph-name="underscore" unicode="_" horiz-adv-x="499" 
d="M-4 -262v69h508v-69h-508z" />
    <glyph glyph-name="grave" unicode="`" horiz-adv-x="1024" 
d="M483 1018l-180 399h94l154 -399h-68z" />
    <glyph glyph-name="a" unicode="a" horiz-adv-x="1124" 
d="M516 -16q-176 0 -293 125.5t-117 310.5t117 309.5t293 124.5q123 0 215.5 -61.5t140.5 -163.5l-2 207h80v-836h-80l2 207q-48 -99 -142.5 -161t-213.5 -62zM528 55q153 0 249.5 102.5t96.5 258.5q0 157 -96.5 261.5t-249.5 104.5t-245.5 -102t-92.5 -260t92.5 -261.5
t245.5 -103.5z" />
    <glyph glyph-name="b" unicode="b" horiz-adv-x="1128" 
d="M608 -16q-119 0 -216 63t-142 162l4 -209h-80v1479h80v-842q48 98 139.5 157.5t214.5 59.5q179 0 296.5 -124.5t117.5 -309.5q0 -186 -117.5 -311t-296.5 -125zM598 55q153 0 246.5 103.5t93.5 261.5t-93.5 260t-246.5 102q-156 0 -253 -102.5t-97 -259.5
q0 -158 97 -261.5t253 -103.5z" />
    <glyph glyph-name="c" unicode="c" horiz-adv-x="950" 
d="M530 -16q-179 0 -301.5 126.5t-122.5 307.5t122.5 308.5t301.5 127.5q203 0 318 -141l-57 -47q-92 116 -261 116q-152 0 -246 -103.5t-94 -260.5q0 -156 94.5 -259.5t245.5 -103.5q180 0 277 125l57 -47q-121 -149 -334 -149z" />
    <glyph glyph-name="d" unicode="d" horiz-adv-x="1128" 
d="M520 -16q-179 0 -296.5 125t-117.5 311q0 185 117.5 309.5t296.5 124.5q123 0 214.5 -59.5t139.5 -157.5v842h80v-1479h-80l5 209q-45 -99 -142.5 -162t-216.5 -63zM530 55q156 0 253.5 104t97.5 261t-97.5 259.5t-253.5 102.5q-153 0 -246.5 -102t-93.5 -260
t93.5 -261.5t246.5 -103.5z" />
    <glyph glyph-name="e" unicode="e" horiz-adv-x="1036" 
d="M188 401q5 -155 100.5 -250.5t254.5 -95.5q188 0 293 131l53 -47q-125 -155 -346 -155q-194 0 -315.5 125t-121.5 309q0 181 121.5 308.5t298.5 127.5q187 0 300 -129.5t110 -323.5h-748zM190 467h664q-10 137 -94.5 227t-233.5 90q-140 0 -230.5 -88.5t-105.5 -228.5z
" />
    <glyph glyph-name="f" unicode="f" horiz-adv-x="583" 
d="M207 0v768h-133v68h133v430q0 122 54.5 180.5t139.5 58.5q124 0 185 -102l-62 -41q-25 37 -50.5 54.5t-70.5 17.5q-116 0 -116 -170v-428h223v-68h-223v-768h-80z" />
    <glyph glyph-name="g" unicode="g" horiz-adv-x="1128" 
d="M549 -457q-144 0 -250.5 67t-163.5 177l66 37q116 -209 346 -209q161 0 244 85t83 269v234q-46 -96 -141 -157.5t-213 -61.5q-179 0 -296.5 125t-117.5 311q0 185 117.5 309.5t296.5 124.5q123 0 216.5 -61t142.5 -162l-5 205h80v-875q0 -209 -106.5 -313.5
t-298.5 -104.5zM530 55q156 0 253.5 104t97.5 261t-97.5 259.5t-253.5 102.5q-153 0 -246.5 -102t-93.5 -260t93.5 -261.5t246.5 -103.5z" />
    <glyph glyph-name="h" unicode="h" horiz-adv-x="1042" 
d="M172 0v1479h80v-822q42 91 125.5 144t191.5 53q141 0 226.5 -89t85.5 -243v-522h-80v508q0 131 -61 201.5t-181 70.5q-137 0 -222 -84.5t-85 -228.5v-467h-80z" />
    <glyph glyph-name="i" unicode="i" horiz-adv-x="425" 
d="M213 1128q-27 0 -47.5 19t-20.5 49q0 29 20.5 48.5t47.5 19.5t47.5 -19.5t20.5 -48.5q0 -30 -20.5 -49t-47.5 -19zM174 0v836h80v-836h-80z" />
    <glyph glyph-name="j" unicode="j" horiz-adv-x="425" 
d="M213 1128q-27 0 -47.5 19t-20.5 49q0 29 20.5 48.5t47.5 19.5t47.5 -19.5t20.5 -48.5q0 -30 -20.5 -49t-47.5 -19zM68 -455q-107 0 -170 74l49 51q51 -55 116 -55q111 0 111 158v1063h80v-1065q0 -110 -52.5 -168t-133.5 -58z" />
    <glyph glyph-name="k" unicode="k" horiz-adv-x="919" 
d="M252 260v-260h-80v1479h80v-1041q0 -30 -6 -90l463 488h94l-336 -355l395 -481h-98l-352 428z" />
    <glyph glyph-name="l" unicode="l" horiz-adv-x="448" 
d="M184 0v1479h80v-1479h-80z" />
    <glyph glyph-name="m" unicode="m" horiz-adv-x="1519" 
d="M172 0v836h80l-2 -170q39 89 110 138.5t164 49.5q103 0 170 -52t90 -138q45 92 122.5 141t170.5 49q128 0 203.5 -79.5t75.5 -215.5v-559h-80v545q0 235 -207 235q-116 0 -190 -81t-74 -220v-479h-80v545q0 235 -209 235q-116 0 -190 -81t-74 -220v-479h-80z" />
    <glyph glyph-name="n" unicode="n" horiz-adv-x="1042" 
d="M172 0v836h80l-2 -187q42 96 126 150.5t193 54.5q141 0 226.5 -89t85.5 -243v-522h-80v508q0 131 -61 201.5t-181 70.5q-137 0 -222 -84.5t-85 -228.5v-467h-80z" />
    <glyph glyph-name="o" unicode="o" horiz-adv-x="1081" 
d="M543 -16q-182 0 -309.5 127.5t-127.5 308.5q0 180 127 307t310 127q182 0 307 -126.5t125 -307.5t-125 -308.5t-307 -127.5zM543 55q155 0 252.5 104t97.5 261t-97.5 259.5t-252.5 102.5q-156 0 -255.5 -103t-99.5 -259q0 -157 100 -261t255 -104z" />
    <glyph glyph-name="p" unicode="p" horiz-adv-x="1128" 
d="M174 -434v1270h80l-4 -205q48 101 141.5 162t216.5 61q179 0 296.5 -124.5t117.5 -309.5q0 -186 -117.5 -311t-296.5 -125q-118 0 -213 61.5t-141 157.5v-637h-80zM598 55q153 0 246.5 103.5t93.5 261.5t-93.5 260t-246.5 102q-156 0 -253 -102.5t-97 -259.5
q0 -158 97 -261.5t253 -103.5z" />
    <glyph glyph-name="q" unicode="q" horiz-adv-x="1128" 
d="M874 -434v637q-46 -96 -141 -157.5t-213 -61.5q-179 0 -296.5 125t-117.5 311q0 185 117.5 309.5t296.5 124.5q123 0 216.5 -61t142.5 -162l-5 205h80v-1270h-80zM530 55q156 0 253.5 104t97.5 261t-97.5 259.5t-253.5 102.5q-153 0 -246.5 -102t-93.5 -260t93.5 -261.5
t246.5 -103.5z" />
    <glyph glyph-name="r" unicode="r" horiz-adv-x="696" 
d="M172 0v836h80l-2 -168q35 89 99 136.5t145 47.5q94 0 151 -43l-39 -66q-49 35 -123 35q-96 0 -163.5 -79.5t-67.5 -223.5v-475h-80z" />
    <glyph glyph-name="s" unicode="s" horiz-adv-x="829" 
d="M432 -16q-125 0 -211.5 59t-124.5 150l70 30q77 -168 266 -168q95 0 152 44t57 116q0 79 -50 115t-181 76q-62 18 -101.5 34.5t-79 43.5t-58.5 67t-19 94q0 91 71.5 150t177.5 59q180 0 267 -158l-62 -37q-71 125 -205 125q-79 0 -126.5 -37.5t-47.5 -97.5
q0 -70 43.5 -104t171.5 -72q66 -19 109.5 -37.5t85.5 -48t63 -72t21 -98.5q0 -103 -76.5 -168t-212.5 -65z" />
    <glyph glyph-name="t" unicode="t" horiz-adv-x="641" 
d="M397 -16q-86 0 -139 58t-53 179v547h-131v68h131v436h80v-436h241v-68h-241v-545q0 -168 112 -168q35 0 61.5 10t39 20.5t32.5 31.5l52 -49q-35 -40 -77.5 -62t-107.5 -22z" />
    <glyph glyph-name="u" unicode="u" horiz-adv-x="1028" 
d="M514 -16q-161 0 -255.5 100.5t-94.5 282.5v469h80v-463q0 -316 270 -316t270 316v463h80v-469q0 -182 -94.5 -282.5t-255.5 -100.5z" />
    <glyph glyph-name="v" unicode="v" horiz-adv-x="917" 
d="M451 -16l-385 852h86l276 -627q8 -18 17 -45t15 -44l5 -18q17 66 35 107l270 627h82l-377 -852h-24z" />
    <glyph glyph-name="w" unicode="w" horiz-adv-x="1392" 
d="M389 -16l-323 852h86l221 -603l30 -102q15 59 33 102l250 611h19l253 -608q8 -19 17 -45t13 -42l5 -16q13 60 29 103l221 600h82l-324 -852h-20l-254 622q-7 17 -15 41t-12 39l-4 16q-12 -57 -28 -96l-258 -622h-21z" />
    <glyph glyph-name="x" unicode="x" horiz-adv-x="921" 
d="M78 0l336 446l-289 390h96l201 -273q9 -12 19 -28.5t16 -27.5l6 -11q17 40 37 67l205 273h88l-287 -383l338 -453h-96l-248 338l-41 68q-23 -43 -41 -68l-252 -338h-88z" />
    <glyph glyph-name="y" unicode="y" horiz-adv-x="919" 
d="M225 -434l211 495l-370 775h86l292 -619q8 -18 16 -42.5t12 -40.5l5 -15q13 57 31 98l264 619h82l-547 -1270h-82z" />
    <glyph glyph-name="z" unicode="z" horiz-adv-x="831" 
d="M74 0v20l561 746h-504v70h627v-23l-561 -743h561v-70h-684z" />
    <glyph glyph-name="braceleft" unicode="{" horiz-adv-x="706" 
d="M537 -262q-52 0 -92.5 12.5t-77.5 43t-57.5 91t-20.5 148.5v323q0 82 -30 114t-91 32h-117v71h117q61 0 91 32t30 114v465q0 88 20.5 148.5t57.5 91t77.5 43t92.5 12.5h90v-72h-88q-82 0 -125 -49t-43 -174v-471q0 -145 -107 -174q107 -25 107 -177v-329q0 -125 43 -174
t125 -49h88v-72h-90z" />
    <glyph glyph-name="bar" unicode="|" horiz-adv-x="446" 
d="M184 -262v1741h78v-1741h-78z" />
    <glyph glyph-name="braceright" unicode="}" horiz-adv-x="704" 
d="M80 -262v72h88q82 0 124 48.5t42 174.5v329q0 150 108 175q-108 25 -108 178v469q0 126 -42 174.5t-124 48.5h-88v72h90q40 0 73 -7t66.5 -27t56 -51.5t36.5 -85t14 -124.5v-463q0 -82 31 -115t92 -33h114v-71h-114q-61 0 -92 -32t-31 -112v-325q0 -71 -14 -124.5
t-36.5 -85t-56 -51.5t-66.5 -27t-73 -7h-90z" />
    <glyph glyph-name="asciitilde" unicode="~" horiz-adv-x="790" 
d="M190 477l-69 6q4 94 44.5 146.5t108.5 52.5q41 0 71.5 -18t74.5 -60q42 -40 58.5 -50.5t41.5 -10.5q35 0 54.5 32t25.5 101l70 -6q-5 -95 -43.5 -146t-108.5 -51q-40 0 -70 18.5t-75 61.5q-40 38 -57.5 48.5t-43.5 10.5q-70 0 -82 -135z" />
    <glyph glyph-name="nbspace" unicode="&#xa0;" horiz-adv-x="372" 
 />
    <glyph glyph-name="exclamdown" unicode="&#xa1;" horiz-adv-x="458" 
d="M229 1407q30 0 54 -23t24 -55q0 -33 -24 -56.5t-54 -23.5q-31 0 -54 23.5t-23 56.5q0 32 23 55t54 23zM260 1044l14 -1044h-90l15 1044h61z" />
    <glyph glyph-name="cent" unicode="&#xa2;" horiz-adv-x="950" 
d="M483 -14q-163 19 -270 142t-107 290q0 168 107.5 291.5t269.5 140.5v221h70v-217q188 -9 295 -141l-57 -47q-85 108 -238 116v-727q165 8 254 125l57 -47q-113 -140 -311 -149v-222h-70v224zM483 778q-132 -15 -212.5 -115.5t-80.5 -244.5q0 -142 80.5 -243t212.5 -118
v721z" />
    <glyph glyph-name="sterling" unicode="&#xa3;" horiz-adv-x="1193" 
d="M365 569h-207v70h178q-44 108 -67 191.5t-23 177.5q0 172 115 286.5t298 114.5q279 0 394 -246l-72 -35q-49 103 -125 154t-197 51q-148 0 -237.5 -91.5t-89.5 -233.5q0 -65 14.5 -135.5t28.5 -113.5t43 -120h395v-70h-369q66 -181 66 -313q0 -25 -2 -37q99 -80 139 -104
q94 -56 191 -56q77 0 122.5 26.5t90.5 86.5l63 -45q-55 -74 -117.5 -108.5t-158.5 -34.5q-52 0 -100.5 13t-96.5 41t-77 48.5t-77 58.5q-31 -72 -94 -116.5t-139 -44.5q-82 0 -141.5 46.5t-59.5 127.5q0 82 57 128t142 46q91 0 182 -60q-5 128 -69 297zM428 190
q-100 72 -174 72q-56 0 -91.5 -27t-35.5 -75q0 -51 36 -79t93 -28q64 0 109.5 36t62.5 101z" />
    <glyph glyph-name="currency" unicode="&#xa4;" horiz-adv-x="1511" 
d="M270 762h-192v69h201q38 257 207 417.5t405 160.5q322 0 477 -250l-61 -41q-73 110 -168 162.5t-248 52.5q-207 0 -348.5 -138.5t-177.5 -363.5h700v-69h-709q-2 -20 -2 -66q0 -73 13 -153h698v-70h-682q55 -190 191 -302t325 -112q91 0 166 22.5t129 63.5t90 82t70 95
l65 -39q-35 -62 -76.5 -111t-103 -94t-148 -69.5t-192.5 -24.5q-218 0 -380.5 133.5t-221.5 355.5h-219v70h203q-13 80 -13 153q0 46 2 66z" />
    <glyph glyph-name="yen" unicode="&#xa5;" horiz-adv-x="1212" 
d="M565 0v287h-436v67h436v68l-76 151h-360v68h326l-379 752h90l405 -807q9 -18 18 -43t14 -41l5 -15q17 58 37 99l406 807h86l-379 -752h327v-68h-360l-76 -149v-70h436v-67h-436v-287h-84z" />
    <glyph glyph-name="brokenbar" unicode="&#xa6;" 
d="M184 403q-31 0 -56.5 24.5t-25.5 57.5q0 34 25 58t57 24q33 0 57.5 -23.5t24.5 -58.5q0 -33 -24.5 -57.5t-57.5 -24.5z" />
    <glyph glyph-name="section" unicode="&#xa7;" horiz-adv-x="1112" 
d="M543 -369q-128 0 -232 62.5t-159 159.5l69 41q103 -187 322 -187q140 0 208 65.5t68 178.5q0 93 -59.5 153t-175.5 111l-213 94q-154 67 -222.5 145.5t-68.5 196.5q0 82 44.5 148t125.5 108q-45 73 -45 174q0 144 103.5 236t256.5 92q127 0 221 -61t138 -156l-68 -37
q-41 80 -115 129t-176 49q-125 0 -199.5 -69.5t-74.5 -182.5q0 -109 54 -168t171 -110l221 -98q158 -70 226.5 -149t68.5 -187q0 -82 -49.5 -145t-136.5 -97q59 -78 59 -178q0 -140 -91.5 -229t-270.5 -89zM799 178q69 24 110 75t41 116q0 85 -55.5 144t-189.5 118l-222 98
q-128 56 -196 129q-59 -32 -92 -86.5t-33 -116.5q0 -95 54.5 -154t186.5 -118l213 -94q117 -50 183 -111z" />
    <glyph glyph-name="dieresis" unicode="&#xa8;" horiz-adv-x="1024" 
d="M668 1067q-27 0 -46.5 19.5t-19.5 46.5t19.5 46t46.5 19t46 -19t19 -46t-19.5 -46.5t-45.5 -19.5zM356 1067q-26 0 -45.5 19.5t-19.5 46.5t19 46t46 19t46.5 -19t19.5 -46t-19.5 -46.5t-46.5 -19.5z" />
    <glyph glyph-name="copyright" unicode="&#xa9;" horiz-adv-x="1609" 
d="M805 -16q-191 0 -354.5 91t-262 255.5t-98.5 365.5q0 151 58 284.5t155 227t228 147.5t274 54t274 -54t228 -147.5t155 -227t58 -284.5q0 -201 -98.5 -365.5t-262 -255.5t-354.5 -91zM805 47q132 0 250.5 49t205.5 134.5t138 206.5t51 259q0 184 -86.5 333.5t-234.5 233
t-324 83.5t-324 -83.5t-234.5 -233t-86.5 -333.5q0 -138 51 -259t138 -206.5t205.5 -134.5t250.5 -49zM817 254q-184 0 -313 125t-129 313t129 314.5t313 126.5q108 0 196.5 -43.5t141.5 -120.5l-61 -47q-43 62 -115.5 98.5t-159.5 36.5q-152 0 -255 -104t-103 -261
t103 -259.5t255 -102.5q89 0 163 37.5t120 103.5l63 -43q-55 -83 -147 -128.5t-201 -45.5z" />
    <glyph glyph-name="ordfeminine" unicode="&#xaa;" horiz-adv-x="798" 
d="M604 1104v10q0 129 -48 178t-142 49q-139 0 -228 -118l-51 39q41 67 114.5 107t164.5 40q124 0 196 -69t72 -218v-436h-78v96q-36 -52 -99.5 -82t-144.5 -30q-122 0 -197 57t-75 164q0 104 80 158.5t199 54.5h237zM604 1038h-227q-209 0 -209 -147q0 -154 205 -154
q96 0 163.5 47.5t67.5 137.5v116z" />
    <glyph glyph-name="guillemotleft" unicode="&#xab;" horiz-adv-x="710" 
d="M535 82l-191 315v17l191 315h92l-195 -323l195 -324h-92zM274 82l-190 315v17l190 315h93l-195 -323l195 -324h-93z" />
    <glyph glyph-name="logicalnot" unicode="&#xac;" 
d="M184 403q-31 0 -56.5 24.5t-25.5 57.5q0 34 25 58t57 24q33 0 57.5 -23.5t24.5 -58.5q0 -33 -24.5 -57.5t-57.5 -24.5z" />
    <glyph glyph-name="registered" unicode="&#xae;" horiz-adv-x="1062" 
d="M528 553q-120 0 -221 56.5t-161 157t-60 222.5q0 123 60 224t161 157.5t221 56.5q122 0 225 -56.5t163.5 -157.5t60.5 -224q0 -122 -60.5 -222.5t-163.5 -157t-225 -56.5zM528 612q165 0 272 105.5t107 271.5q0 168 -107 273.5t-272 105.5q-162 0 -266 -105.5
t-104 -273.5q0 -167 104 -272t266 -105zM618 887l107 -146h-80l-92 127q-28 -4 -45 -4h-64v-123h-67v504h131q108 0 162.5 -54.5t54.5 -139.5q0 -55 -27.5 -98t-79.5 -66zM444 920h60q82 0 116.5 34t34.5 97q0 139 -151 139h-60v-270z" />
    <glyph glyph-name="macron" unicode="&#xaf;" horiz-adv-x="1024" 
d="M313 1044v70h398v-70h-398z" />
    <glyph glyph-name="macron" unicode="&#x2c9;" horiz-adv-x="1024" 
d="M313 1044v70h398v-70h-398z" />
    <glyph glyph-name="degree" unicode="&#xb0;" horiz-adv-x="745" 
d="M375 895q-109 0 -185.5 74.5t-76.5 181.5q0 108 76.5 183t185.5 75t183.5 -74.5t74.5 -183.5q0 -107 -74.5 -181.5t-183.5 -74.5zM375 963q82 0 133 52.5t51 135.5t-51 136.5t-133 53.5q-84 0 -135.5 -53.5t-51.5 -136.5t51.5 -135.5t135.5 -52.5z" />
    <glyph glyph-name="twosuperior" unicode="&#xb2;" 
d="M184 403q-31 0 -56.5 24.5t-25.5 57.5q0 34 25 58t57 24q33 0 57.5 -23.5t24.5 -58.5q0 -33 -24.5 -57.5t-57.5 -24.5z" />
    <glyph glyph-name="threesuperior" unicode="&#xb3;" 
d="M184 403q-31 0 -56.5 24.5t-25.5 57.5q0 34 25 58t57 24q33 0 57.5 -23.5t24.5 -58.5q0 -33 -24.5 -57.5t-57.5 -24.5z" />
    <glyph glyph-name="acute" unicode="&#xb4;" horiz-adv-x="1024" 
d="M473 1018l154 399h94l-180 -399h-68z" />
    <glyph glyph-name="mu" unicode="&#xb5;" 
d="M184 403q-31 0 -56.5 24.5t-25.5 57.5q0 34 25 58t57 24q33 0 57.5 -23.5t24.5 -58.5q0 -33 -24.5 -57.5t-57.5 -24.5z" />
    <glyph glyph-name="mu" unicode="&#x3bc;" 
d="M184 403q-31 0 -56.5 24.5t-25.5 57.5q0 34 25 58t57 24q33 0 57.5 -23.5t24.5 -58.5q0 -33 -24.5 -57.5t-57.5 -24.5z" />
    <glyph glyph-name="paragraph" unicode="&#xb6;" horiz-adv-x="1200" 
d="M647 0v680h-164q-161 0 -260.5 102.5t-99.5 253.5t99.5 254t260.5 103h506v-1393h-82v1319h-176v-1319h-84zM483 754h164v565h-164q-129 0 -200.5 -79t-71.5 -204t71.5 -203.5t200.5 -78.5z" />
    <glyph glyph-name="periodcentered" unicode="&#xb7;" 
d="M184 403q-31 0 -56.5 24.5t-25.5 57.5q0 34 25 58t57 24q33 0 57.5 -23.5t24.5 -58.5q0 -33 -24.5 -57.5t-57.5 -24.5z" />
    <glyph glyph-name="periodcentered" unicode="&#x2219;" 
d="M184 403q-31 0 -56.5 24.5t-25.5 57.5q0 34 25 58t57 24q33 0 57.5 -23.5t24.5 -58.5q0 -33 -24.5 -57.5t-57.5 -24.5z" />
    <glyph glyph-name="cedilla" unicode="&#xb8;" horiz-adv-x="1024" 
d="M522 -467q-69 0 -118.5 33.5t-73.5 85.5l61 37q20 -42 49 -65t80 -23q45 0 76 28t31 78q0 48 -32 80.5t-95 32.5h-31v180h74v-121q67 -8 115.5 -55.5t48.5 -118.5q0 -80 -54.5 -126t-130.5 -46z" />
    <glyph glyph-name="onesuperior" unicode="&#xb9;" 
d="M184 403q-31 0 -56.5 24.5t-25.5 57.5q0 34 25 58t57 24q33 0 57.5 -23.5t24.5 -58.5q0 -33 -24.5 -57.5t-57.5 -24.5z" />
    <glyph glyph-name="ordmasculine" unicode="&#xba;" horiz-adv-x="905" 
d="M453 672q-152 0 -258.5 105.5t-106.5 262.5q0 156 106.5 262.5t258.5 106.5t258 -106.5t106 -262.5q0 -157 -106 -262.5t-258 -105.5zM453 739q125 0 204.5 85t79.5 216t-79.5 216t-204.5 85t-205 -85t-80 -216t80 -216t205 -85z" />
    <glyph glyph-name="guillemotright" unicode="&#xbb;" horiz-adv-x="710" 
d="M344 82l195 324l-195 323h92l191 -315v-17l-191 -315h-92zM84 82l195 324l-195 323h92l191 -315v-17l-191 -315h-92z" />
    <glyph glyph-name="onequarter" unicode="&#xbc;" 
d="M184 403q-31 0 -56.5 24.5t-25.5 57.5q0 34 25 58t57 24q33 0 57.5 -23.5t24.5 -58.5q0 -33 -24.5 -57.5t-57.5 -24.5z" />
    <glyph glyph-name="onehalf" unicode="&#xbd;" 
d="M184 403q-31 0 -56.5 24.5t-25.5 57.5q0 34 25 58t57 24q33 0 57.5 -23.5t24.5 -58.5q0 -33 -24.5 -57.5t-57.5 -24.5z" />
    <glyph glyph-name="threequarters" unicode="&#xbe;" 
d="M184 403q-31 0 -56.5 24.5t-25.5 57.5q0 34 25 58t57 24q33 0 57.5 -23.5t24.5 -58.5q0 -33 -24.5 -57.5t-57.5 -24.5z" />
    <glyph glyph-name="questiondown" unicode="&#xbf;" horiz-adv-x="919" 
d="M526 1407q30 0 54 -23t24 -55q0 -33 -24 -56.5t-54 -23.5q-31 0 -54 23.5t-23 56.5q0 32 23 55t54 23zM563 1053v-379h-55q-139 0 -227 -89t-88 -220q0 -146 81 -226t215 -80q113 0 187 48.5t125 158.5l69 -35q-46 -119 -147 -183t-234 -64q-168 0 -274 101.5t-106 279.5
q0 160 107.5 266t268.5 112v310h78z" />
    <glyph glyph-name="Agrave" unicode="&#xc0;" horiz-adv-x="1333" 
d="M631 1546l-180 400h94l153 -400h-67zM90 0l563 1409h25l565 -1409h-86l-106 270h-770l-107 -270h-84zM309 344h711l-313 795q-9 22 -19 53.5t-16 52.5l-6 21q-21 -78 -41 -127z" />
    <glyph glyph-name="Aacute" unicode="&#xc1;" horiz-adv-x="1333" 
d="M635 1546l153 400h95l-181 -400h-67zM90 0l563 1409h25l565 -1409h-86l-106 270h-770l-107 -270h-84zM309 344h711l-313 795q-9 22 -19 53.5t-16 52.5l-6 21q-21 -78 -41 -127z" />
    <glyph glyph-name="Acircumflex" unicode="&#xc2;" horiz-adv-x="1333" 
d="M424 1540l231 373h19l231 -373h-71l-168 244l-170 -244h-72zM90 0l563 1409h25l565 -1409h-86l-106 270h-770l-107 -270h-84zM309 344h711l-313 795q-9 22 -19 53.5t-16 52.5l-6 21q-21 -78 -41 -127z" />
    <glyph glyph-name="Atilde" unicode="&#xc3;" horiz-adv-x="1333" 
d="M461 1530l-70 6q4 94 45 146.5t109 52.5q41 0 71 -18t74 -60q42 -40 59 -51t42 -11q35 0 54 32.5t25 101.5l70 -7q-5 -95 -43.5 -145.5t-108.5 -50.5q-40 0 -70 18.5t-75 61.5q-40 39 -57 49t-43 10q-70 0 -82 -135zM90 0l563 1409h25l565 -1409h-86l-106 270h-770
l-107 -270h-84zM309 344h711l-313 795q-9 22 -19 53.5t-16 52.5l-6 21q-21 -78 -41 -127z" />
    <glyph glyph-name="Adieresis" unicode="&#xc4;" horiz-adv-x="1333" 
d="M821 1595q-27 0 -46 19.5t-19 46.5t19 46t46 19t46.5 -19t19.5 -46t-19.5 -46.5t-46.5 -19.5zM510 1595q-27 0 -46.5 19.5t-19.5 46.5t19.5 46t46.5 19t46 -19t19 -46t-19.5 -46.5t-45.5 -19.5zM90 0l563 1409h25l565 -1409h-86l-106 270h-770l-107 -270h-84zM309 344
h711l-313 795q-9 22 -19 53.5t-16 52.5l-6 21q-21 -78 -41 -127z" />
    <glyph glyph-name="Aring" unicode="&#xc5;" horiz-adv-x="1333" 
d="M666 1491q-80 0 -136.5 55t-56.5 133t56.5 133.5t136.5 55.5q79 0 135.5 -55.5t56.5 -133.5t-56 -133t-136 -55zM90 0l563 1409h25l565 -1409h-86l-106 270h-770l-107 -270h-84zM666 1554q53 0 85.5 34t32.5 91t-32.5 91t-85.5 34t-86 -34t-33 -91t33 -91t86 -34z
M309 344h711l-313 795q-9 22 -19 53.5t-16 52.5l-6 21q-21 -78 -41 -127z" />
    <glyph glyph-name="AE" unicode="&#xc6;" horiz-adv-x="1916" 
d="M66 0l917 1393h784v-74h-729v-746h654v-73h-654v-426h758v-74h-842v270h-618l-178 -270h-92zM385 344h569v741q0 31 3 71.5t5 65.5l3 25q-41 -82 -82 -143z" />
    <glyph glyph-name="Ccedilla" unicode="&#xc7;" horiz-adv-x="1497" 
d="M739 -12q-131 15 -245 73.5t-197.5 149t-131.5 216t-48 269.5q0 156 56 290t152.5 226t227 144.5t276.5 52.5q182 0 323.5 -68t229.5 -196l-63 -47q-78 112 -203 173.5t-287 61.5q-177 0 -320 -82.5t-224.5 -228.5t-81.5 -326t81.5 -326t224.5 -228.5t320 -82.5
q161 0 291.5 64.5t214.5 183.5l64 -45q-92 -134 -240.5 -206t-329.5 -72h-16v-105q67 -8 115.5 -55.5t48.5 -118.5q0 -81 -54 -126.5t-130 -45.5q-69 0 -119 34t-74 85l62 37q20 -42 49 -65t80 -23q45 0 75.5 28t30.5 78q0 48 -32 80.5t-95 32.5h-31v168z" />
    <glyph glyph-name="Egrave" unicode="&#xc8;" horiz-adv-x="1173" 
d="M598 1546l-180 400h94l154 -400h-68zM211 0v1393h813v-74h-729v-746h653v-73h-653v-426h758v-74h-842z" />
    <glyph glyph-name="Eacute" unicode="&#xc9;" horiz-adv-x="1173" 
d="M573 1546l154 400h94l-180 -400h-68zM211 0v1393h813v-74h-729v-746h653v-73h-653v-426h758v-74h-842z" />
    <glyph glyph-name="Ecircumflex" unicode="&#xca;" horiz-adv-x="1173" 
d="M387 1540l231 373h19l231 -373h-71l-168 244l-170 -244h-72zM211 0v1393h813v-74h-729v-746h653v-73h-653v-426h758v-74h-842z" />
    <glyph glyph-name="Edieresis" unicode="&#xcb;" horiz-adv-x="1173" 
d="M782 1595q-26 0 -45.5 19.5t-19.5 46.5t19 46t46 19t46.5 -19t19.5 -46t-19.5 -46.5t-46.5 -19.5zM471 1595q-27 0 -46 19.5t-19 46.5t19 46t46 19t46.5 -19t19.5 -46t-19.5 -46.5t-46.5 -19.5zM211 0v1393h813v-74h-729v-746h653v-73h-653v-426h758v-74h-842z" />
    <glyph glyph-name="Igrave" unicode="&#xcc;" horiz-adv-x="522" 
d="M223 1546l-180 400h94l154 -400h-68zM219 0v1393h84v-1393h-84z" />
    <glyph glyph-name="Iacute" unicode="&#xcd;" horiz-adv-x="522" 
d="M229 1546l154 400h94l-180 -400h-68zM219 0v1393h84v-1393h-84z" />
    <glyph glyph-name="Icircumflex" unicode="&#xce;" horiz-adv-x="522" 
d="M18 1540l232 373h18l232 -373h-72l-168 244l-170 -244h-72zM219 0v1393h84v-1393h-84z" />
    <glyph glyph-name="Idieresis" unicode="&#xcf;" horiz-adv-x="522" 
d="M416 1595q-27 0 -46.5 19.5t-19.5 46.5t19.5 46t46.5 19t46 -19t19 -46t-19.5 -46.5t-45.5 -19.5zM104 1595q-26 0 -45.5 19.5t-19.5 46.5t19 46t46 19t46.5 -19t19.5 -46t-19.5 -46.5t-46.5 -19.5zM219 0v1393h84v-1393h-84z" />
    <glyph glyph-name="Eth" unicode="&#xd0;" horiz-adv-x="1386" 
d="M211 0v500h-180v73h180v820h321q171 0 310 -51t233 -143t144.5 -220.5t50.5 -282.5t-50.5 -282.5t-144 -220t-232.5 -142.5t-311 -51h-321zM295 76h227q162 0 288.5 45.5t207 128t122.5 195.5t42 251t-42 251t-122.5 196t-207 128.5t-288.5 45.5h-227v-744h405v-73h-405
v-424z" />
    <glyph glyph-name="Ntilde" unicode="&#xd1;" horiz-adv-x="1472" 
d="M530 1530l-69 6q4 94 44.5 146.5t108.5 52.5q41 0 71.5 -18t74.5 -60q42 -41 58.5 -51.5t41.5 -10.5q68 0 80 134l70 -7q-5 -95 -43.5 -145.5t-108.5 -50.5q-40 0 -70 18.5t-75 61.5q-40 38 -57.5 48.5t-43.5 10.5q-70 0 -82 -135zM1237 -16l-891 1155l-63 92
q6 -64 6 -105v-1126h-78v1409h25l890 -1155l64 -92q-6 63 -6 104v1127h78v-1409h-25z" />
    <glyph glyph-name="Ograve" unicode="&#xd2;" horiz-adv-x="1658" 
d="M801 1546l-180 400h94l153 -400h-67zM829 -16q-196 0 -358 88.5t-258 252.5t-96 371q0 156 56 290t152.5 226t227 144.5t276.5 52.5t277 -52.5t227 -144.5t152.5 -226t56.5 -290t-56.5 -290t-152.5 -226t-227 -144t-277 -52zM829 59q132 0 248.5 48.5t199.5 132.5
t131 202.5t48 253.5t-48 253.5t-131 202.5t-199.5 132.5t-248.5 48.5q-177 0 -320 -82.5t-224.5 -228.5t-81.5 -326t81.5 -326t224.5 -228.5t320 -82.5z" />
    <glyph glyph-name="Oacute" unicode="&#xd3;" horiz-adv-x="1658" 
d="M791 1546l153 400h94l-180 -400h-67zM829 -16q-196 0 -358 88.5t-258 252.5t-96 371q0 156 56 290t152.5 226t227 144.5t276.5 52.5t277 -52.5t227 -144.5t152.5 -226t56.5 -290t-56.5 -290t-152.5 -226t-227 -144t-277 -52zM829 59q132 0 248.5 48.5t199.5 132.5
t131 202.5t48 253.5t-48 253.5t-131 202.5t-199.5 132.5t-248.5 48.5q-177 0 -320 -82.5t-224.5 -228.5t-81.5 -326t81.5 -326t224.5 -228.5t320 -82.5z" />
    <glyph glyph-name="Ocircumflex" unicode="&#xd4;" horiz-adv-x="1658" 
d="M588 1540l231 373h19l231 -373h-72l-168 244l-170 -244h-71zM829 -16q-196 0 -358 88.5t-258 252.5t-96 371q0 156 56 290t152.5 226t227 144.5t276.5 52.5t277 -52.5t227 -144.5t152.5 -226t56.5 -290t-56.5 -290t-152.5 -226t-227 -144t-277 -52zM829 59
q132 0 248.5 48.5t199.5 132.5t131 202.5t48 253.5t-48 253.5t-131 202.5t-199.5 132.5t-248.5 48.5q-177 0 -320 -82.5t-224.5 -228.5t-81.5 -326t81.5 -326t224.5 -228.5t320 -82.5z" />
    <glyph glyph-name="Otilde" unicode="&#xd5;" horiz-adv-x="1658" 
d="M625 1530l-70 6q4 94 45 146.5t109 52.5q41 0 71 -18t74 -60q42 -41 58.5 -51.5t41.5 -10.5q68 0 80 134l70 -7q-5 -95 -43.5 -145.5t-108.5 -50.5q-40 0 -70 18.5t-75 61.5q-40 39 -57 49t-43 10q-70 0 -82 -135zM829 -16q-196 0 -358 88.5t-258 252.5t-96 371
q0 156 56 290t152.5 226t227 144.5t276.5 52.5t277 -52.5t227 -144.5t152.5 -226t56.5 -290t-56.5 -290t-152.5 -226t-227 -144t-277 -52zM829 59q132 0 248.5 48.5t199.5 132.5t131 202.5t48 253.5t-48 253.5t-131 202.5t-199.5 132.5t-248.5 48.5q-177 0 -320 -82.5
t-224.5 -228.5t-81.5 -326t81.5 -326t224.5 -228.5t320 -82.5z" />
    <glyph glyph-name="Odieresis" unicode="&#xd6;" horiz-adv-x="1658" 
d="M985 1595q-27 0 -46 19.5t-19 46.5t19 46t46 19t46.5 -19t19.5 -46t-19.5 -46.5t-46.5 -19.5zM674 1595q-27 0 -46.5 19.5t-19.5 46.5t19.5 46t46.5 19t46 -19t19 -46t-19.5 -46.5t-45.5 -19.5zM829 -16q-196 0 -358 88.5t-258 252.5t-96 371q0 156 56 290t152.5 226
t227 144.5t276.5 52.5t277 -52.5t227 -144.5t152.5 -226t56.5 -290t-56.5 -290t-152.5 -226t-227 -144t-277 -52zM829 59q132 0 248.5 48.5t199.5 132.5t131 202.5t48 253.5t-48 253.5t-131 202.5t-199.5 132.5t-248.5 48.5q-177 0 -320 -82.5t-224.5 -228.5t-81.5 -326
t81.5 -326t224.5 -228.5t320 -82.5z" />
    <glyph glyph-name="multiply" unicode="&#xd7;" 
d="M184 403q-31 0 -56.5 24.5t-25.5 57.5q0 34 25 58t57 24q33 0 57.5 -23.5t24.5 -58.5q0 -33 -24.5 -57.5t-57.5 -24.5z" />
    <glyph glyph-name="Oslash" unicode="&#xd8;" horiz-adv-x="1658" 
d="M172 -20l-51 49l180 182q-184 200 -184 485q0 151 56.5 284.5t152 227t226.5 147.5t277 54q278 0 478 -178l178 180l51 -49l-178 -180q184 -200 184 -486q0 -151 -56.5 -284.5t-152.5 -226.5t-227 -147t-277 -54q-137 0 -259.5 46.5t-217.5 131.5zM356 268l895 908
q-175 157 -422 157q-177 0 -320 -82.5t-224.5 -228.5t-81.5 -326q0 -251 153 -428zM829 59q132 0 248.5 48.5t199.5 132.5t131 202.5t48 253.5q0 251 -153 428l-897 -907q179 -158 423 -158z" />
    <glyph glyph-name="Ugrave" unicode="&#xd9;" horiz-adv-x="1333" 
d="M637 1546l-180 400h94l154 -400h-68zM666 -16q-208 0 -338.5 125.5t-130.5 353.5v930h84v-924q0 -197 104.5 -304.5t280.5 -107.5q175 0 281 108t106 304v924h84v-930q0 -227 -132 -353t-339 -126z" />
    <glyph glyph-name="Uacute" unicode="&#xda;" horiz-adv-x="1333" 
d="M627 1546l153 400h94l-180 -400h-67zM666 -16q-208 0 -338.5 125.5t-130.5 353.5v930h84v-924q0 -197 104.5 -304.5t280.5 -107.5q175 0 281 108t106 304v924h84v-930q0 -227 -132 -353t-339 -126z" />
    <glyph glyph-name="Ucircumflex" unicode="&#xdb;" horiz-adv-x="1333" 
d="M424 1540l231 373h19l231 -373h-71l-168 244l-170 -244h-72zM666 -16q-208 0 -338.5 125.5t-130.5 353.5v930h84v-924q0 -197 104.5 -304.5t280.5 -107.5q175 0 281 108t106 304v924h84v-930q0 -227 -132 -353t-339 -126z" />
    <glyph glyph-name="Udieresis" unicode="&#xdc;" horiz-adv-x="1333" 
d="M821 1595q-27 0 -46 19.5t-19 46.5t19 46t46 19t46.5 -19t19.5 -46t-19.5 -46.5t-46.5 -19.5zM510 1595q-27 0 -46.5 19.5t-19.5 46.5t19.5 46t46.5 19t46 -19t19 -46t-19.5 -46.5t-45.5 -19.5zM666 -16q-208 0 -338.5 125.5t-130.5 353.5v930h84v-924
q0 -197 104.5 -304.5t280.5 -107.5q175 0 281 108t106 304v924h84v-930q0 -227 -132 -353t-339 -126z" />
    <glyph glyph-name="Yacute" unicode="&#xdd;" horiz-adv-x="1316" 
d="M618 1546l154 400h94l-180 -400h-68zM616 0v434l-526 959h94l445 -807q8 -15 16.5 -36t12.5 -34l4 -14q18 51 36 84l443 807h88l-527 -961v-432h-86z" />
    <glyph glyph-name="Thorn" unicode="&#xde;" horiz-adv-x="1179" 
d="M211 0v1393h84v-168h217q134 0 238 -40t168 -111t96.5 -164t32.5 -203t-32.5 -203t-96.5 -163.5t-168 -110.5t-238 -40h-217v-190h-84zM295 264h209q124 0 214.5 34t142.5 96t76 139.5t24 173.5q0 97 -24 174.5t-76 139.5t-142.5 96t-214.5 34h-209v-887z" />
    <glyph glyph-name="germandbls" unicode="&#xdf;" horiz-adv-x="1034" 
d="M696 -16q-114 0 -198 58t-117 151l70 24q30 -80 95 -121t148 -41q84 0 135.5 43.5t51.5 112.5q0 83 -49 124.5t-156 74.5q-52 16 -88.5 32.5t-71.5 42t-52.5 62.5t-17.5 86q0 40 12 79.5t44 110.5l110 248q45 101 45 178q0 92 -50 138.5t-140 46.5q-98 0 -156.5 -68.5
t-58.5 -224.5v-1141h-80v1147q0 93 24 164t65.5 112.5t93 61.5t112.5 20q115 0 190.5 -67t75.5 -187q0 -54 -12.5 -97t-42.5 -112l-107 -239q-51 -118 -51 -164q0 -64 40 -97.5t149 -66.5q252 -74 252 -262q0 -100 -69 -164.5t-196 -64.5z" />
    <glyph glyph-name="agrave" unicode="&#xe0;" horiz-adv-x="1124" 
d="M471 1018l-180 399h94l154 -399h-68zM516 -16q-176 0 -293 125.5t-117 310.5t117 309.5t293 124.5q123 0 215.5 -61.5t140.5 -163.5l-2 207h80v-836h-80l2 207q-48 -99 -142.5 -161t-213.5 -62zM528 55q153 0 249.5 102.5t96.5 258.5q0 157 -96.5 261.5t-249.5 104.5
t-245.5 -102t-92.5 -260t92.5 -261.5t245.5 -103.5z" />
    <glyph glyph-name="aacute" unicode="&#xe1;" horiz-adv-x="1124" 
d="M475 1018l154 399h94l-180 -399h-68zM516 -16q-176 0 -293 125.5t-117 310.5t117 309.5t293 124.5q123 0 215.5 -61.5t140.5 -163.5l-2 207h80v-836h-80l2 207q-48 -99 -142.5 -161t-213.5 -62zM528 55q153 0 249.5 102.5t96.5 258.5q0 157 -96.5 261.5t-249.5 104.5
t-245.5 -102t-92.5 -260t92.5 -261.5t245.5 -103.5z" />
    <glyph glyph-name="acircumflex" unicode="&#xe2;" horiz-adv-x="1124" 
d="M293 1012l231 372h19l231 -372h-72l-167 243l-170 -243h-72zM516 -16q-176 0 -293 125.5t-117 310.5t117 309.5t293 124.5q123 0 215.5 -61.5t140.5 -163.5l-2 207h80v-836h-80l2 207q-48 -99 -142.5 -161t-213.5 -62zM528 55q153 0 249.5 102.5t96.5 258.5
q0 157 -96.5 261.5t-249.5 104.5t-245.5 -102t-92.5 -260t92.5 -261.5t245.5 -103.5z" />
    <glyph glyph-name="atilde" unicode="&#xe3;" horiz-adv-x="1124" 
d="M322 1001l-70 7q4 93 45 145.5t109 52.5q41 0 71 -18t74 -60q42 -40 58.5 -50.5t41.5 -10.5q35 0 54.5 32t25.5 101l70 -6q-5 -95 -43.5 -146t-108.5 -51q-40 0 -70 18.5t-75 61.5q-41 39 -58 49.5t-43 10.5q-69 0 -81 -136zM516 -16q-176 0 -293 125.5t-117 310.5
t117 309.5t293 124.5q123 0 215.5 -61.5t140.5 -163.5l-2 207h80v-836h-80l2 207q-48 -99 -142.5 -161t-213.5 -62zM528 55q153 0 249.5 102.5t96.5 258.5q0 157 -96.5 261.5t-249.5 104.5t-245.5 -102t-92.5 -260t92.5 -261.5t245.5 -103.5z" />
    <glyph glyph-name="adieresis" unicode="&#xe4;" horiz-adv-x="1124" 
d="M676 1067q-27 0 -46.5 19.5t-19.5 46.5t19.5 46t46.5 19t46 -19t19 -46t-19.5 -46.5t-45.5 -19.5zM365 1067q-27 0 -46.5 19.5t-19.5 46.5t19.5 46t46.5 19t46 -19t19 -46t-19 -46.5t-46 -19.5zM516 -16q-176 0 -293 125.5t-117 310.5t117 309.5t293 124.5
q123 0 215.5 -61.5t140.5 -163.5l-2 207h80v-836h-80l2 207q-48 -99 -142.5 -161t-213.5 -62zM528 55q153 0 249.5 102.5t96.5 258.5q0 157 -96.5 261.5t-249.5 104.5t-245.5 -102t-92.5 -260t92.5 -261.5t245.5 -103.5z" />
    <glyph glyph-name="aring" unicode="&#xe5;" horiz-adv-x="1124" 
d="M522 999q-79 0 -135.5 55.5t-56.5 133.5t56 133t136 55t136.5 -55t56.5 -133t-56.5 -133.5t-136.5 -55.5zM516 -16q-176 0 -293 125.5t-117 310.5t117 309.5t293 124.5q123 0 215.5 -61.5t140.5 -163.5l-2 207h80v-836h-80l2 207q-48 -99 -142.5 -161t-213.5 -62z
M522 1063q53 0 86 34t33 91t-33 91t-86 34t-86 -34t-33 -91t33 -91t86 -34zM528 55q153 0 249.5 102.5t96.5 258.5q0 157 -96.5 261.5t-249.5 104.5t-245.5 -102t-92.5 -260t92.5 -261.5t245.5 -103.5z" />
    <glyph glyph-name="ae" unicode="&#xe6;" horiz-adv-x="1630" 
d="M705 475v49q0 260 -224 260q-178 0 -272 -143l-57 41q53 82 138.5 127t192.5 45q112 0 186.5 -59t92.5 -174q51 106 145.5 169.5t212.5 63.5q124 0 219 -60t144 -160.5t47 -223.5h-748q5 -152 100.5 -253.5t254.5 -101.5q188 0 293 131l53 -47q-125 -155 -346 -155
q-130 0 -227 62.5t-148 168.5q-16 -75 -72 -129t-126 -78t-144 -24q-141 0 -228.5 65.5t-87.5 186.5q0 78 45.5 134t113 80.5t147.5 24.5h295zM786 475h662q-10 132 -94.5 220.5t-233.5 88.5q-136 0 -227.5 -88.5t-106.5 -220.5zM705 410h-285q-104 0 -170 -42t-66 -130
q0 -94 60.5 -138.5t183.5 -44.5q110 0 193.5 59t83.5 152v144z" />
    <glyph glyph-name="ccedilla" unicode="&#xe7;" horiz-adv-x="950" 
d="M453 -10q-151 29 -249 149t-98 279q0 181 122.5 308.5t301.5 127.5q203 0 318 -141l-57 -47q-92 116 -261 116q-152 0 -246 -103.5t-94 -260.5q0 -156 94.5 -259.5t245.5 -103.5q180 0 277 125l57 -47q-121 -149 -334 -149h-4v-105q67 -8 115.5 -55.5t48.5 -118.5
q0 -81 -54 -126.5t-130 -45.5q-69 0 -119 34t-74 85l62 37q20 -42 49 -65t80 -23q45 0 75.5 28t30.5 78q0 48 -32 80.5t-95 32.5h-30v170z" />
    <glyph glyph-name="egrave" unicode="&#xe8;" horiz-adv-x="1036" 
d="M489 1018l-180 399h94l154 -399h-68zM188 401q5 -155 100.5 -250.5t254.5 -95.5q188 0 293 131l53 -47q-125 -155 -346 -155q-194 0 -315.5 125t-121.5 309q0 181 121.5 308.5t298.5 127.5q187 0 300 -129.5t110 -323.5h-748zM190 467h664q-10 137 -94.5 227t-233.5 90
q-140 0 -230.5 -88.5t-105.5 -228.5z" />
    <glyph glyph-name="eacute" unicode="&#xe9;" horiz-adv-x="1036" 
d="M479 1018l154 399h94l-180 -399h-68zM188 401q5 -155 100.5 -250.5t254.5 -95.5q188 0 293 131l53 -47q-125 -155 -346 -155q-194 0 -315.5 125t-121.5 309q0 181 121.5 308.5t298.5 127.5q187 0 300 -129.5t110 -323.5h-748zM190 467h664q-10 137 -94.5 227t-233.5 90
q-140 0 -230.5 -88.5t-105.5 -228.5z" />
    <glyph glyph-name="ecircumflex" unicode="&#xea;" horiz-adv-x="1036" 
d="M276 1012l232 372h18l232 -372h-72l-168 243l-170 -243h-72zM188 401q5 -155 100.5 -250.5t254.5 -95.5q188 0 293 131l53 -47q-125 -155 -346 -155q-194 0 -315.5 125t-121.5 309q0 181 121.5 308.5t298.5 127.5q187 0 300 -129.5t110 -323.5h-748zM190 467h664
q-10 137 -94.5 227t-233.5 90q-140 0 -230.5 -88.5t-105.5 -228.5z" />
    <glyph glyph-name="edieresis" unicode="&#xeb;" horiz-adv-x="1036" 
d="M674 1067q-27 0 -46.5 19.5t-19.5 46.5t19.5 46t46.5 19t46 -19t19 -46t-19.5 -46.5t-45.5 -19.5zM362 1067q-26 0 -45.5 19.5t-19.5 46.5t19 46t46 19t46.5 -19t19.5 -46t-19.5 -46.5t-46.5 -19.5zM188 401q5 -155 100.5 -250.5t254.5 -95.5q188 0 293 131l53 -47
q-125 -155 -346 -155q-194 0 -315.5 125t-121.5 309q0 181 121.5 308.5t298.5 127.5q187 0 300 -129.5t110 -323.5h-748zM190 467h664q-10 137 -94.5 227t-233.5 90q-140 0 -230.5 -88.5t-105.5 -228.5z" />
    <glyph glyph-name="igrave" unicode="&#xec;" horiz-adv-x="425" 
d="M180 1018l-180 399h94l154 -399h-68zM174 0v836h80v-836h-80z" />
    <glyph glyph-name="iacute" unicode="&#xed;" horiz-adv-x="425" 
d="M178 1018l154 399h94l-180 -399h-68zM174 0v836h80v-836h-80z" />
    <glyph glyph-name="icircumflex" unicode="&#xee;" horiz-adv-x="425" 
d="M-29 1012l232 372h18l232 -372h-72l-168 243l-170 -243h-72zM174 0v836h80v-836h-80z" />
    <glyph glyph-name="idieresis" unicode="&#xef;" horiz-adv-x="425" 
d="M369 1067q-27 0 -46.5 19.5t-19.5 46.5t19.5 46t46.5 19t46 -19t19 -46t-19 -46.5t-46 -19.5zM57 1067q-27 0 -46 19.5t-19 46.5t19 46t46 19t46.5 -19t19.5 -46t-19.5 -46.5t-46.5 -19.5zM174 0v836h80v-836h-80z" />
    <glyph glyph-name="eth" unicode="&#xf0;" horiz-adv-x="1081" 
d="M578 1225l-150 -146l-47 47l151 150q-91 104 -186 186l49 49q99 -79 191 -182l149 148l49 -50l-153 -151q151 -183 247.5 -399t96.5 -445q0 -119 -56.5 -222t-156.5 -164.5t-219 -61.5q-182 0 -309.5 127.5t-127.5 308.5q0 180 127 307t310 127q204 0 321 -172
q-65 271 -286 543zM543 55q155 0 252.5 107t97.5 270q0 151 -97.5 250.5t-252.5 99.5q-156 0 -255.5 -103t-99.5 -259q0 -157 100 -261t255 -104z" />
    <glyph glyph-name="ntilde" unicode="&#xf1;" horiz-adv-x="1042" 
d="M307 1001l-69 7q4 94 44.5 146t108.5 52q41 0 71.5 -18t74.5 -60q42 -40 58.5 -50.5t41.5 -10.5q35 0 54.5 32t25.5 101l69 -6q-5 -95 -43 -146t-108 -51q-41 0 -71 18.5t-75 61.5q-41 39 -57.5 49.5t-42.5 10.5q-70 0 -82 -136zM172 0v836h80l-2 -187q42 96 126 150.5
t193 54.5q141 0 226.5 -89t85.5 -243v-522h-80v508q0 131 -61 201.5t-181 70.5q-137 0 -222 -84.5t-85 -228.5v-467h-80z" />
    <glyph glyph-name="ograve" unicode="&#xf2;" horiz-adv-x="1081" 
d="M512 1018l-180 399h94l154 -399h-68zM543 -16q-182 0 -309.5 127.5t-127.5 308.5q0 180 127 307t310 127q182 0 307 -126.5t125 -307.5t-125 -308.5t-307 -127.5zM543 55q155 0 252.5 104t97.5 261t-97.5 259.5t-252.5 102.5q-156 0 -255.5 -103t-99.5 -259
q0 -157 100 -261t255 -104z" />
    <glyph glyph-name="oacute" unicode="&#xf3;" horiz-adv-x="1081" 
d="M502 1018l153 399h95l-181 -399h-67zM543 -16q-182 0 -309.5 127.5t-127.5 308.5q0 180 127 307t310 127q182 0 307 -126.5t125 -307.5t-125 -308.5t-307 -127.5zM543 55q155 0 252.5 104t97.5 261t-97.5 259.5t-252.5 102.5q-156 0 -255.5 -103t-99.5 -259
q0 -157 100 -261t255 -104z" />
    <glyph glyph-name="ocircumflex" unicode="&#xf4;" horiz-adv-x="1081" 
d="M299 1012l231 372h19l231 -372h-71l-168 243l-170 -243h-72zM543 -16q-182 0 -309.5 127.5t-127.5 308.5q0 180 127 307t310 127q182 0 307 -126.5t125 -307.5t-125 -308.5t-307 -127.5zM543 55q155 0 252.5 104t97.5 261t-97.5 259.5t-252.5 102.5q-156 0 -255.5 -103
t-99.5 -259q0 -157 100 -261t255 -104z" />
    <glyph glyph-name="otilde" unicode="&#xf5;" horiz-adv-x="1081" 
d="M336 1001l-70 7q4 93 45 145.5t109 52.5q41 0 71 -18t74 -60q41 -40 58.5 -50.5t42.5 -10.5q35 0 54 32t25 101l70 -6q-5 -95 -43 -146t-108 -51q-41 0 -71 18.5t-75 61.5q-41 39 -57.5 49.5t-42.5 10.5q-70 0 -82 -136zM543 -16q-182 0 -309.5 127.5t-127.5 308.5
q0 180 127 307t310 127q182 0 307 -126.5t125 -307.5t-125 -308.5t-307 -127.5zM543 55q155 0 252.5 104t97.5 261t-97.5 259.5t-252.5 102.5q-156 0 -255.5 -103t-99.5 -259q0 -157 100 -261t255 -104z" />
    <glyph glyph-name="odieresis" unicode="&#xf6;" horiz-adv-x="1081" 
d="M696 1067q-26 0 -45.5 19.5t-19.5 46.5t19 46t46 19t46.5 -19t19.5 -46t-19.5 -46.5t-46.5 -19.5zM385 1067q-27 0 -46.5 19.5t-19.5 46.5t19.5 46t46.5 19t46.5 -19t19.5 -46t-19.5 -46.5t-46.5 -19.5zM543 -16q-182 0 -309.5 127.5t-127.5 308.5q0 180 127 307t310 127
q182 0 307 -126.5t125 -307.5t-125 -308.5t-307 -127.5zM543 55q155 0 252.5 104t97.5 261t-97.5 259.5t-252.5 102.5q-156 0 -255.5 -103t-99.5 -259q0 -157 100 -261t255 -104z" />
    <glyph glyph-name="divide" unicode="&#xf7;" 
d="M184 403q-31 0 -56.5 24.5t-25.5 57.5q0 34 25 58t57 24q33 0 57.5 -23.5t24.5 -58.5q0 -33 -24.5 -57.5t-57.5 -24.5z" />
    <glyph glyph-name="oslash" unicode="&#xf8;" horiz-adv-x="1081" 
d="M877 698q98 -122 98 -278q0 -181 -125 -308.5t-307 -127.5q-165 0 -289 108l-121 -117l-47 48l121 116q-101 126 -101 281q0 180 127 307t310 127q166 0 288 -109l117 115l45 -49zM260 190l518 504q-94 88 -235 88q-156 0 -255.5 -103t-99.5 -259q0 -129 72 -230z
M823 645l-518 -504q99 -86 238 -86q155 0 252.5 104t97.5 261q0 133 -70 225z" />
    <glyph glyph-name="ugrave" unicode="&#xf9;" horiz-adv-x="1028" 
d="M487 1018l-180 399h94l154 -399h-68zM514 -16q-161 0 -255.5 100.5t-94.5 282.5v469h80v-463q0 -316 270 -316t270 316v463h80v-469q0 -182 -94.5 -282.5t-255.5 -100.5z" />
    <glyph glyph-name="uacute" unicode="&#xfa;" horiz-adv-x="1028" 
d="M477 1018l154 399h94l-180 -399h-68zM514 -16q-161 0 -255.5 100.5t-94.5 282.5v469h80v-463q0 -316 270 -316t270 316v463h80v-469q0 -182 -94.5 -282.5t-255.5 -100.5z" />
    <glyph glyph-name="ucircumflex" unicode="&#xfb;" horiz-adv-x="1028" 
d="M274 1012l232 372h18l232 -372h-72l-168 243l-170 -243h-72zM514 -16q-161 0 -255.5 100.5t-94.5 282.5v469h80v-463q0 -316 270 -316t270 316v463h80v-469q0 -182 -94.5 -282.5t-255.5 -100.5z" />
    <glyph glyph-name="udieresis" unicode="&#xfc;" horiz-adv-x="1028" 
d="M672 1067q-27 0 -46.5 19.5t-19.5 46.5t19.5 46t46.5 19t46 -19t19 -46t-19.5 -46.5t-45.5 -19.5zM360 1067q-26 0 -45.5 19.5t-19.5 46.5t19 46t46 19t46.5 -19t19.5 -46t-19.5 -46.5t-46.5 -19.5zM514 -16q-161 0 -255.5 100.5t-94.5 282.5v469h80v-463
q0 -316 270 -316t270 316v463h80v-469q0 -182 -94.5 -282.5t-255.5 -100.5z" />
    <glyph glyph-name="yacute" unicode="&#xfd;" horiz-adv-x="919" 
d="M420 1018l153 399h95l-181 -399h-67zM225 -434l211 495l-370 775h86l292 -619q8 -18 16 -42.5t12 -40.5l5 -15q13 57 31 98l264 619h82l-547 -1270h-82z" />
    <glyph glyph-name="thorn" unicode="&#xfe;" horiz-adv-x="1128" 
d="M174 -434v1913h80v-842q48 98 139.5 157.5t214.5 59.5q179 0 296.5 -124.5t117.5 -309.5q0 -186 -117.5 -311t-296.5 -125q-118 0 -213 61.5t-141 157.5v-637h-80zM598 55q153 0 246.5 103.5t93.5 261.5t-93.5 260t-246.5 102q-156 0 -253 -102.5t-97 -259.5
q0 -158 97 -261.5t253 -103.5z" />
    <glyph glyph-name="ydieresis" unicode="&#xff;" horiz-adv-x="919" 
d="M614 1067q-26 0 -45.5 19.5t-19.5 46.5t19 46t46 19t46.5 -19t19.5 -46t-19.5 -46.5t-46.5 -19.5zM303 1067q-27 0 -46 19.5t-19 46.5t19 46t46 19t46.5 -19t19.5 -46t-19.5 -46.5t-46.5 -19.5zM225 -434l211 495l-370 775h86l292 -619q8 -18 16 -42.5t12 -40.5l5 -15
q13 57 31 98l264 619h82l-547 -1270h-82z" />
    <glyph glyph-name="dotlessi" unicode="&#x131;" horiz-adv-x="425" 
d="M174 0v836h80v-836h-80z" />
    <glyph glyph-name="Lslash" unicode="&#x141;" horiz-adv-x="1048" 
d="M211 0v428l-156 -63v79l156 64v885h84v-852l426 174v-78l-426 -176v-387h670v-74h-754z" />
    <glyph glyph-name="lslash" unicode="&#x142;" horiz-adv-x="530" 
d="M225 0v547l-190 -117v82l190 119v848h80v-799l197 123v-84l-197 -123v-596h-80z" />
    <glyph glyph-name="OE" unicode="&#x152;" horiz-adv-x="2013" 
d="M852 0q-343 0 -539 191t-196 505q0 315 195.5 506t539.5 191h1012v-74h-729v-746h653v-73h-653v-426h757v-74h-1040zM862 76h189v1241h-189q-162 0 -288 -45.5t-207 -128.5t-122.5 -196t-41.5 -251t41.5 -251t122.5 -195.5t207 -128t288 -45.5z" />
    <glyph glyph-name="oe" unicode="&#x153;" horiz-adv-x="1816" 
d="M969 401q5 -155 100 -250.5t254 -95.5q188 0 293 131l53 -47q-125 -155 -346 -155q-148 0 -250 75t-143 201q-44 -124 -147 -200t-240 -76q-182 0 -309.5 127.5t-127.5 308.5q0 180 127 307t310 127q138 0 241.5 -76.5t145.5 -202.5q42 125 143 202t234 77
q187 0 299.5 -129t109.5 -324h-747zM971 467h663q-10 138 -94 227.5t-233 89.5q-140 0 -230.5 -88.5t-105.5 -228.5zM543 55q155 0 252.5 104t97.5 261t-97.5 259.5t-252.5 102.5q-156 0 -255.5 -103t-99.5 -259q0 -157 100 -261t255 -104z" />
    <glyph glyph-name="Scaron" unicode="&#x160;" horiz-adv-x="1079" 
d="M500 1534l-232 373h72l168 -244l170 244h72l-232 -373h-18zM543 -16q-331 0 -467 278l71 35q27 -51 59 -90t78 -75t111.5 -55.5t145.5 -19.5q141 0 236 77.5t95 205.5q0 118 -66.5 194t-217.5 146l-129 59q-153 71 -222 151.5t-69 207.5q0 141 98.5 226t243.5 85
q228 0 356 -201l-65 -43q-49 79 -117 124.5t-174 45.5q-122 0 -191 -64t-69 -171q0 -101 54.5 -163t187.5 -124l129 -59q173 -78 253 -175t80 -239q0 -161 -114.5 -258.5t-296.5 -97.5z" />
    <glyph glyph-name="scaron" unicode="&#x161;" horiz-adv-x="829" 
d="M393 1006l-231 372h71l168 -243l170 243h72l-231 -372h-19zM432 -16q-125 0 -211.5 59t-124.5 150l70 30q77 -168 266 -168q95 0 152 44t57 116q0 79 -50 115t-181 76q-62 18 -101.5 34.5t-79 43.5t-58.5 67t-19 94q0 91 71.5 150t177.5 59q180 0 267 -158l-62 -37
q-71 125 -205 125q-79 0 -126.5 -37.5t-47.5 -97.5q0 -70 43.5 -104t171.5 -72q66 -19 109.5 -37.5t85.5 -48t63 -72t21 -98.5q0 -103 -76.5 -168t-212.5 -65z" />
    <glyph glyph-name="Ydieresis" unicode="&#x178;" horiz-adv-x="1316" 
d="M813 1595q-27 0 -46 19.5t-19 46.5t19 46t46 19t46.5 -19t19.5 -46t-19.5 -46.5t-46.5 -19.5zM502 1595q-27 0 -46.5 19.5t-19.5 46.5t19.5 46t46.5 19t46 -19t19 -46t-19.5 -46.5t-45.5 -19.5zM616 0v434l-526 959h94l445 -807q8 -15 16.5 -36t12.5 -34l4 -14
q18 51 36 84l443 807h88l-527 -961v-432h-86z" />
    <glyph glyph-name="Zcaron" unicode="&#x17d;" horiz-adv-x="1187" 
d="M614 1534l-231 373h72l168 -244l170 244h71l-231 -373h-19zM92 0v20l846 1299h-737v74h862v-21l-844 -1298h866v-74h-993z" />
    <glyph glyph-name="zcaron" unicode="&#x17e;" horiz-adv-x="862" 
d="M449 1006l-232 372h72l168 -243l170 243h71l-231 -372h-18zM74 0v20l561 746h-504v70h627v-23l-561 -743h561v-70h-684z" />
    <glyph glyph-name="florin" unicode="&#x192;" horiz-adv-x="710" 
d="M131 -434l113 997h-148v68h156l59 536q27 242 213 242q121 0 181 -104l-58 -41q-22 36 -48 54.5t-73 18.5q-60 0 -93 -36.5t-44 -135.5l-59 -534h200v-68h-208l-113 -997h-78z" />
    <glyph glyph-name="circumflex" unicode="&#x2c6;" horiz-adv-x="1024" 
d="M270 1012l232 372h18l232 -372h-72l-168 243l-170 -243h-72z" />
    <glyph glyph-name="caron" unicode="&#x2c7;" horiz-adv-x="1024" 
d="M504 1006l-232 372h72l168 -243l170 243h72l-232 -372h-18z" />
    <glyph glyph-name="breve" unicode="&#x2d8;" horiz-adv-x="1024" 
d="M512 991q-100 0 -161 59t-79 156l72 15q20 -75 57.5 -116.5t110.5 -41.5t110.5 41.5t57.5 116.5l72 -15q-18 -97 -79 -156t-161 -59z" />
    <glyph glyph-name="dotaccent" unicode="&#x2d9;" horiz-adv-x="1024" 
d="M512 1065q-27 0 -47.5 19t-20.5 49q0 28 20.5 47.5t47.5 19.5t47.5 -19.5t20.5 -47.5q0 -30 -20.5 -49t-47.5 -19z" />
    <glyph glyph-name="ring" unicode="&#x2da;" horiz-adv-x="1024" 
d="M512 999q-80 0 -136.5 55.5t-56.5 133.5t56.5 133t136.5 55t136.5 -55t56.5 -133t-56.5 -133.5t-136.5 -55.5zM512 1063q53 0 86 34t33 91t-33 91t-86 34t-86 -34t-33 -91t33 -91t86 -34z" />
    <glyph glyph-name="ogonek" unicode="&#x2db;" horiz-adv-x="1024" 
d="M481 -467q-73 0 -124.5 44t-51.5 124q0 98 86 213l62 86h77l-67 -104q-55 -87 -66 -119q-12 -34 -12 -72q0 -49 29 -75.5t71 -26.5q69 0 119 84l62 -37q-56 -117 -185 -117z" />
    <glyph glyph-name="tilde" unicode="&#x2dc;" horiz-adv-x="1024" 
d="M307 1001l-69 7q4 94 44.5 146t108.5 52q41 0 71.5 -18t74.5 -60q42 -40 58.5 -50.5t41.5 -10.5q35 0 54.5 32t25.5 101l69 -6q-5 -95 -43 -146t-108 -51q-41 0 -71 18.5t-75 61.5q-41 39 -57.5 49.5t-42.5 10.5q-70 0 -82 -136z" />
    <glyph glyph-name="hungarumlaut" unicode="&#x2dd;" horiz-adv-x="1024" 
d="M590 1018l153 399h95l-181 -399h-67zM350 1018l154 399h94l-180 -399h-68z" />
    <glyph glyph-name="Delta" unicode="&#x394;" 
d="M184 403q-31 0 -56.5 24.5t-25.5 57.5q0 34 25 58t57 24q33 0 57.5 -23.5t24.5 -58.5q0 -33 -24.5 -57.5t-57.5 -24.5z" />
    <glyph glyph-name="Delta" unicode="&#x2206;" 
d="M184 403q-31 0 -56.5 24.5t-25.5 57.5q0 34 25 58t57 24q33 0 57.5 -23.5t24.5 -58.5q0 -33 -24.5 -57.5t-57.5 -24.5z" />
    <glyph glyph-name="Omega" unicode="&#x3a9;" 
d="M184 403q-31 0 -56.5 24.5t-25.5 57.5q0 34 25 58t57 24q33 0 57.5 -23.5t24.5 -58.5q0 -33 -24.5 -57.5t-57.5 -24.5z" />
    <glyph glyph-name="Omega" unicode="&#x2126;" 
d="M184 403q-31 0 -56.5 24.5t-25.5 57.5q0 34 25 58t57 24q33 0 57.5 -23.5t24.5 -58.5q0 -33 -24.5 -57.5t-57.5 -24.5z" />
    <glyph glyph-name="pi" unicode="&#x3c0;" 
d="M184 403q-31 0 -56.5 24.5t-25.5 57.5q0 34 25 58t57 24q33 0 57.5 -23.5t24.5 -58.5q0 -33 -24.5 -57.5t-57.5 -24.5z" />
    <glyph glyph-name="endash" unicode="&#x2013;" horiz-adv-x="796" 
d="M78 330v69h639v-69h-639z" />
    <glyph glyph-name="emdash" unicode="&#x2014;" horiz-adv-x="1243" 
d="M78 330v69h1087v-69h-1087z" />
    <glyph glyph-name="quoteleft" unicode="&#x2018;" horiz-adv-x="364" 
d="M182 1032q-31 0 -55.5 24.5t-24.5 57.5q0 13 11 39l108 240h51l-65 -205q22 -5 38.5 -26t16.5 -48q0 -33 -24.5 -57.5t-55.5 -24.5z" />
    <glyph glyph-name="quoteright" unicode="&#x2019;" horiz-adv-x="364" 
d="M92 1047l66 204q-22 5 -39 26t-17 48q0 33 24.5 57.5t55.5 24.5t55.5 -24.5t24.5 -57.5q0 -16 -10 -39l-109 -239h-51z" />
    <glyph glyph-name="quotesinglbase" unicode="&#x201a;" horiz-adv-x="364" 
d="M92 -211l66 205q-22 5 -39 26t-17 48q0 33 24.5 57.5t55.5 24.5t55.5 -24.5t24.5 -57.5q0 -16 -10 -39l-109 -240h-51z" />
    <glyph glyph-name="quotedblleft" unicode="&#x201c;" horiz-adv-x="632" 
d="M451 1032q-31 0 -55.5 24.5t-24.5 57.5q0 16 10 39l108 240h52l-66 -205q22 -5 38.5 -26t16.5 -48q0 -33 -24 -57.5t-55 -24.5zM182 1032q-31 0 -55.5 24.5t-24.5 57.5q0 13 11 39l108 240h51l-65 -205q22 -5 38.5 -26t16.5 -48q0 -33 -24.5 -57.5t-55.5 -24.5z" />
    <glyph glyph-name="quotedblright" unicode="&#x201d;" horiz-adv-x="632" 
d="M360 1047l66 204q-22 5 -38.5 26t-16.5 48q0 33 24.5 57.5t55.5 24.5t55 -24.5t24 -57.5q0 -16 -10 -39l-108 -239h-52zM92 1047l66 204q-22 5 -39 26t-17 48q0 33 24.5 57.5t55.5 24.5t55.5 -24.5t24.5 -57.5q0 -16 -10 -39l-109 -239h-51z" />
    <glyph glyph-name="quotedblbase" unicode="&#x201e;" horiz-adv-x="632" 
d="M360 -211l66 205q-22 5 -38.5 26t-16.5 48q0 33 24.5 57.5t55.5 24.5t55 -24.5t24 -57.5q0 -16 -10 -39l-108 -240h-52zM92 -211l66 205q-22 5 -39 26t-17 48q0 33 24.5 57.5t55.5 24.5t55.5 -24.5t24.5 -57.5q0 -16 -10 -39l-109 -240h-51z" />
    <glyph glyph-name="dagger" unicode="&#x2020;" horiz-adv-x="665" 
d="M295 612v492h-197v67h197v222h76v-222h196v-67h-196v-492h-76z" />
    <glyph glyph-name="daggerdbl" unicode="&#x2021;" horiz-adv-x="665" 
d="M295 612v222h-197v67h197v203h-197v67h197v222h76v-222h196v-67h-196v-203h196v-67h-196v-222h-76z" />
    <glyph glyph-name="bullet" unicode="&#x2022;" horiz-adv-x="571" 
d="M287 342q-74 0 -128.5 53t-54.5 127q0 76 54.5 128t128.5 52q73 0 126.5 -52.5t53.5 -127.5q0 -74 -53.5 -127t-126.5 -53z" />
    <glyph glyph-name="ellipsis" unicode="&#x2026;" horiz-adv-x="1142" 
d="M958 -14q-31 0 -56 24.5t-25 57.5q0 34 24.5 58t56.5 24q33 0 57.5 -23.5t24.5 -58.5q0 -33 -24.5 -57.5t-57.5 -24.5zM571 -14q-31 0 -56.5 24.5t-25.5 57.5q0 34 25 58t57 24q33 0 57.5 -23.5t24.5 -58.5q0 -33 -24.5 -57.5t-57.5 -24.5zM184 -14q-31 0 -56.5 24.5
t-25.5 57.5q0 34 25 58t57 24q33 0 57.5 -23.5t24.5 -58.5q0 -33 -24.5 -57.5t-57.5 -24.5z" />
    <glyph glyph-name="perthousand" unicode="&#x2030;" horiz-adv-x="2310" 
d="M395 754q-132 0 -229.5 94t-97.5 233q0 140 97.5 234t229.5 94t230 -94.5t98 -233.5t-98 -233t-230 -94zM283 0l878 1393h86l-878 -1393h-86zM1917 -16q-132 0 -230 94t-98 233t98 233.5t230 94.5t229 -94t97 -234t-97 -233.5t-229 -93.5zM1135 -16q-132 0 -230 94
t-98 233t98 233.5t230 94.5t228.5 -94t96.5 -234t-96.5 -233.5t-228.5 -93.5zM395 825q103 0 175.5 72t72.5 184t-72.5 184t-175.5 72q-105 0 -176.5 -72t-71.5 -184t71.5 -184t176.5 -72zM1917 55q103 0 175.5 72t72.5 184q0 113 -72 184.5t-176 71.5q-105 0 -177.5 -71.5
t-72.5 -184.5q0 -112 72.5 -184t177.5 -72zM1135 55q103 0 175 72t72 184q0 113 -71.5 184.5t-175.5 71.5q-105 0 -177.5 -71.5t-72.5 -184.5q0 -112 72.5 -184t177.5 -72z" />
    <glyph glyph-name="guilsinglleft" unicode="&#x2039;" horiz-adv-x="450" 
d="M274 82l-190 315v17l190 315h93l-195 -323l195 -324h-93z" />
    <glyph glyph-name="guilsinglright" unicode="&#x203a;" horiz-adv-x="450" 
d="M84 82l195 324l-195 323h92l191 -315v-17l-191 -315h-92z" />
    <glyph glyph-name="fraction" unicode="&#x2044;" horiz-adv-x="841" 
d="M-61 0l878 1393h86l-878 -1393h-86z" />
    <glyph glyph-name="fraction" unicode="&#x2215;" horiz-adv-x="841" 
d="M-61 0l878 1393h86l-878 -1393h-86z" />
    <glyph glyph-name="Euro" unicode="&#x20ac;" horiz-adv-x="1511" 
d="M270 762h-192v69h201q38 257 207 417.5t405 160.5q322 0 477 -250l-61 -41q-73 110 -168 162.5t-248 52.5q-207 0 -348.5 -138.5t-177.5 -363.5h700v-69h-709q-2 -20 -2 -66q0 -73 13 -153h698v-70h-682q55 -190 191 -302t325 -112q91 0 166 22.5t129 63.5t90 82t70 95
l65 -39q-35 -62 -76.5 -111t-103 -94t-148 -69.5t-192.5 -24.5q-218 0 -380.5 133.5t-221.5 355.5h-219v70h203q-13 80 -13 153q0 46 2 66z" />
    <glyph glyph-name="trademark" unicode="&#x2122;" horiz-adv-x="1499" 
d="M715 791v612h16l291 -342l291 342h16v-612h-76v444l-221 -266h-20l-221 266v-444h-76zM303 791v534h-192v68h458v-68h-190v-534h-76z" />
    <glyph glyph-name="partialdiff" unicode="&#x2202;" 
d="M184 403q-31 0 -56.5 24.5t-25.5 57.5q0 34 25 58t57 24q33 0 57.5 -23.5t24.5 -58.5q0 -33 -24.5 -57.5t-57.5 -24.5z" />
    <glyph glyph-name="product" unicode="&#x220f;" 
d="M184 403q-31 0 -56.5 24.5t-25.5 57.5q0 34 25 58t57 24q33 0 57.5 -23.5t24.5 -58.5q0 -33 -24.5 -57.5t-57.5 -24.5z" />
    <glyph glyph-name="summation" unicode="&#x2211;" horiz-adv-x="1658" 
d="M846 -10q24 -14 53 -35q43 -30 68 -45t67.5 -36t86 -30.5t93.5 -9.5q134 0 224 94l59 -55q-108 -117 -283 -117q-55 0 -107.5 12.5t-102 37.5t-79.5 43.5t-75 50.5q-64 44 -105 69t-107.5 48.5t-129.5 23.5q-164 0 -264 -156l-58 45q96 145 250 170q-148 93 -233.5 247.5
t-85.5 348.5q0 156 56 290t152.5 226t227 144.5t276.5 52.5t277 -52.5t227 -144.5t152.5 -226t56.5 -290q0 -203 -93.5 -364t-252 -249.5t-350.5 -92.5zM829 61q132 0 248.5 48t199.5 132t131 202t48 253t-48 253.5t-131 202.5t-199.5 132.5t-248.5 48.5q-177 0 -320 -82.5
t-224.5 -228.5t-81.5 -326t81.5 -325.5t224.5 -227.5t320 -82z" />
    <glyph glyph-name="minus" unicode="&#x2212;" 
d="M184 403q-31 0 -56.5 24.5t-25.5 57.5q0 34 25 58t57 24q33 0 57.5 -23.5t24.5 -58.5q0 -33 -24.5 -57.5t-57.5 -24.5z" />
    <glyph glyph-name="radical" unicode="&#x221a;" 
d="M184 403q-31 0 -56.5 24.5t-25.5 57.5q0 34 25 58t57 24q33 0 57.5 -23.5t24.5 -58.5q0 -33 -24.5 -57.5t-57.5 -24.5z" />
    <glyph glyph-name="integral" unicode="&#x222b;" 
d="M184 403q-31 0 -56.5 24.5t-25.5 57.5q0 34 25 58t57 24q33 0 57.5 -23.5t24.5 -58.5q0 -33 -24.5 -57.5t-57.5 -24.5z" />
    <glyph glyph-name="approxequal" unicode="&#x2248;" 
d="M184 403q-31 0 -56.5 24.5t-25.5 57.5q0 34 25 58t57 24q33 0 57.5 -23.5t24.5 -58.5q0 -33 -24.5 -57.5t-57.5 -24.5z" />
    <glyph glyph-name="lessequal" unicode="&#x2264;" 
d="M184 403q-31 0 -56.5 24.5t-25.5 57.5q0 34 25 58t57 24q33 0 57.5 -23.5t24.5 -58.5q0 -33 -24.5 -57.5t-57.5 -24.5z" />
    <glyph glyph-name="greaterequal" unicode="&#x2265;" 
d="M184 403q-31 0 -56.5 24.5t-25.5 57.5q0 34 25 58t57 24q33 0 57.5 -23.5t24.5 -58.5q0 -33 -24.5 -57.5t-57.5 -24.5z" />
    <glyph glyph-name="lozenge" unicode="&#x25ca;" 
d="M184 403q-31 0 -56.5 24.5t-25.5 57.5q0 34 25 58t57 24q33 0 57.5 -23.5t24.5 -58.5q0 -33 -24.5 -57.5t-57.5 -24.5z" />
    <glyph glyph-name="plusminus" horiz-adv-x="1458" 
d="M207 0v766h-133v70h133v389q0 122 55 180.5t141 58.5q70 0 112 -25t75 -73l-60 -45q-19 26 -31 39t-36 23t-57 10q-57 0 -88 -38t-31 -132v-387h413v430q0 122 55.5 180.5t141.5 58.5q70 0 111.5 -25t74.5 -73l-59 -45q-28 38 -52.5 55t-72.5 17q-57 0 -88 -38t-31 -132
v-428h224v-70h-224v-766h-80v766h-413v-766h-80zM1194 0v1479h80v-1479h-80z" />
    <glyph glyph-name="apple" 
d="M184 403q-31 0 -56.5 24.5t-25.5 57.5q0 34 25 58t57 24q33 0 57.5 -23.5t24.5 -58.5q0 -33 -24.5 -57.5t-57.5 -24.5z" />
    <glyph glyph-name="infinity" horiz-adv-x="1445" 
d="M1233 1128q-27 0 -47.5 19t-20.5 49q0 29 20.5 48.5t47.5 19.5t47 -19.5t20 -48.5q0 -30 -20 -49t-47 -19zM207 0v768h-133v68h133v389q0 122 55 180.5t141 58.5q70 0 112 -25t75 -73l-60 -45q-19 26 -31 39t-36 23t-57 10q-57 0 -88 -38t-31 -132v-387h413v430
q0 122 55.5 180.5t141.5 58.5q70 0 111.5 -25t74.5 -73l-59 -45q-28 38 -52.5 55t-72.5 17q-57 0 -88 -38t-31 -132v-428h494v-836h-80v768h-414v-768h-80v768h-413v-768h-80z" />
    <glyph glyph-name="notequal" horiz-adv-x="1077" 
d="M207 0v768h-133v68h133v389q0 122 55 180.5t141 58.5q70 0 112 -25t75 -73l-60 -45q-19 26 -31 39t-36 23t-57 10q-57 0 -88 -38t-31 -132v-387h413v430q0 122 55.5 180.5t141.5 58.5q70 0 111.5 -25t74.5 -73l-59 -45q-28 38 -52.5 55t-72.5 17q-57 0 -88 -38t-31 -132
v-428h224v-68h-224v-768h-80v768h-413v-768h-80z" />
    </font>
</defs>
</svg>
