<?xml version="1.0" standalone="no"?>
<!DOCTYPE svg PUBLIC "-//W3C//DTD SVG 1.1//EN" "http://www.w3.org/Graphics/SVG/1.1/DTD/svg11.dtd" >
<svg xmlns="http://www.w3.org/2000/svg" xmlns:xlink="http://www.w3.org/1999/xlink" version="1.1">
<metadata>
Created by FontForge 20170731 at Fri Nov 11 12:40:44 2022
 By Aleksey,,,
(C)2002 House Industries/Brand Design Co. Inc.
</metadata>
<defs>
<font id="NeutraText-DemiAlt" horiz-adv-x="450" >
  <font-face 
    font-family="Neutra Text Light Alt"
    font-weight="500"
    font-stretch="normal"
    units-per-em="2048"
    panose-1="2 0 0 0 0 0 0 0 0 0"
    ascent="1638"
    descent="-410"
    x-height="860"
    cap-height="1393"
    bbox="-133 -483 2572 1954"
    underline-thickness="40"
    underline-position="-312"
    unicode-range="U+000D-FB02"
  />
<missing-glyph horiz-adv-x="1024" 
 />
    <glyph glyph-name="fi" unicode="fi" horiz-adv-x="1110" 
d="M868 1057q-57 0 -97 38.5t-40 98.5q0 58 40.5 96.5t96.5 38.5q57 0 97.5 -38.5t40.5 -96.5q0 -60 -40.5 -98.5t-97.5 -38.5zM209 0v686h-141v174h141v340q0 153 71 229t205 76q136 0 222 -86l-115 -139q-39 39 -88 39q-88 0 -88 -117v-342h557v-860h-209v686h-348v-686
h-207z" />
    <glyph glyph-name="fl" unicode="fl" horiz-adv-x="1114" 
d="M209 0v686h-141v174h141v340q0 152 69.5 228.5t198.5 76.5q127 0 213 -86l-115 -137q-16 20 -32.5 28.5t-44.5 8.5q-82 0 -82 -117v-342h213v-174h-213v-686h-207zM764 0v1479h209v-1479h-209z" />
    <glyph glyph-name="ff" unicode="ff" horiz-adv-x="1269" 
d="M209 0v686h-141v174h141v299q0 153 70 229t200 76q142 0 223 -90l-110 -133q-37 37 -88 37q-88 0 -88 -117v-301h348v340q0 153 71 229t205 76q158 0 244 -106l-123 -131q-44 51 -100 51q-90 0 -90 -117v-342h231v-174h-231v-686h-207v686h-348v-686h-207z" />
    <glyph glyph-name="ffi" unicode="ffi" horiz-adv-x="1665" 
d="M1425 1057q-57 0 -98 38.5t-41 98.5q0 57 41 96t98 39q55 0 95.5 -39t40.5 -96q0 -60 -40 -98.5t-96 -38.5zM209 0v686h-141v174h141v299q0 153 70 229t200 76q142 0 223 -90l-110 -133q-37 37 -88 37q-88 0 -88 -117v-301h348v340q0 153 71 229t205 76q136 0 222 -86
l-115 -139q-39 39 -88 39q-88 0 -88 -117v-342h557v-860h-209v686h-348v-686h-207v686h-348v-686h-207z" />
    <glyph glyph-name="ffl" unicode="ffl" horiz-adv-x="1669" 
d="M209 0v686h-141v174h141v299q0 153 70 229t200 76q142 0 223 -90l-110 -133q-37 37 -88 37q-88 0 -88 -117v-301h348v340q0 152 69.5 228.5t198.5 76.5q127 0 213 -86l-115 -137q-16 20 -32.5 28.5t-44.5 8.5q-82 0 -82 -117v-342h213v-174h-213v-686h-207v686h-348v-686
h-207zM1319 0v1479h209v-1479h-209z" />
    <glyph glyph-name=".notdef" horiz-adv-x="1024" 
 />
    <glyph glyph-name=".notdef" horiz-adv-x="1024" 
 />
    <glyph glyph-name=".null" horiz-adv-x="0" 
 />
    <glyph glyph-name="nonmarkingreturn" horiz-adv-x="682" 
 />
    <glyph glyph-name="CR" unicode="&#xd;" horiz-adv-x="468" 
 />
    <glyph glyph-name="space" unicode=" " horiz-adv-x="468" 
 />
    <glyph glyph-name="exclam" unicode="!" horiz-adv-x="536" 
d="M186 430l-34 963h233l-35 -963h-164zM268 -12q-57 0 -98 39.5t-41 99.5t41 99.5t98 39.5q58 0 99 -39.5t41 -99.5t-41 -99.5t-99 -39.5z" />
    <glyph glyph-name="quotedbl" unicode="&#x22;" horiz-adv-x="704" 
d="M428 926l-25 467h224l-25 -467h-174zM102 926l-24 467h221l-23 -467h-174z" />
    <glyph glyph-name="numbersign" unicode="#" horiz-adv-x="1009" 
d="M133 459l53 213h-123v159h162l47 191h-129v160h168l56 211h163l-53 -211h180l54 211h166l-54 -211h123v-160h-162l-47 -191h127v-159h-168l-53 -213h-166l53 213h-180l-51 -213h-166zM391 831h180l47 191h-178z" />
    <glyph glyph-name="dollar" unicode="$" horiz-adv-x="1110" 
d="M496 -16q-302 22 -451 282l178 103q53 -90 113.5 -139.5t159.5 -59.5v463l-9 4q-184 70 -275 167.5t-91 254.5q0 146 105 242.5t270 105.5v176h116v-178q224 -29 336 -213l-170 -117q-63 113 -166 139v-403q100 -37 171.5 -76.5t126 -92t81.5 -120t27 -151.5
q0 -176 -110 -274.5t-296 -112.5v-222h-116v222zM496 1223q-77 -7 -120.5 -50.5t-43.5 -107.5q0 -76 36.5 -120t127.5 -85v363zM612 172q89 14 141 65.5t52 127.5q0 78 -48 127.5t-145 91.5v-412z" />
    <glyph glyph-name="percent" unicode="%" horiz-adv-x="1796" 
d="M426 692q-148 0 -256.5 103.5t-108.5 255.5q0 153 108.5 255.5t256.5 102.5q149 0 258 -102.5t109 -255.5q0 -152 -109.5 -255.5t-257.5 -103.5zM356 0l875 1393h209l-875 -1393h-209zM1368 -18q-148 0 -256 103t-108 255q0 153 108 255.5t256 102.5q97 0 181 -45.5
t135 -128t51 -184.5q0 -152 -109 -255t-258 -103zM426 858q76 0 128 55t52 138q0 85 -52 138.5t-128 53.5q-77 0 -127.5 -53.5t-50.5 -138.5q0 -83 50.5 -138t127.5 -55zM1368 147q76 0 128 55t52 138q0 85 -52 138.5t-128 53.5t-127 -53.5t-51 -138.5q0 -83 51.5 -138
t126.5 -55z" />
    <glyph glyph-name="ampersand" unicode="&#x26;" horiz-adv-x="1378" 
d="M707 772l266 -328q55 132 55 304h195q0 -265 -119 -463l231 -285h-256l-106 131q-172 -149 -404 -149q-227 0 -358 109t-131 286q0 79 22 142t68.5 114t104.5 91t145 85q-117 143 -117 293q0 131 91 219t241 88q148 0 238 -84t90 -219q0 -197 -256 -334zM602 899
q87 48 128.5 97.5t41.5 109.5q0 61 -37 97t-96 36q-61 0 -99 -37t-38 -98q0 -50 19.5 -90.5t58.5 -87.5zM854 276l-332 408q-115 -60 -167 -128t-52 -165q0 -106 68 -163.5t198 -57.5q167 0 285 106z" />
    <glyph glyph-name="quotesingle" unicode="'" horiz-adv-x="376" 
d="M102 926l-24 467h221l-23 -467h-174z" />
    <glyph glyph-name="parenleft" unicode="(" horiz-adv-x="645" 
d="M465 -281q-371 371 -371 877t371 877l127 -105q-133 -156 -206 -341.5t-73 -430.5t73 -430.5t206 -341.5z" />
    <glyph glyph-name="parenright" unicode=")" horiz-adv-x="645" 
d="M180 -281l-127 105q133 156 206 341.5t73 430.5t-73 430.5t-206 341.5l127 105q371 -375 371 -877t-371 -877z" />
    <glyph glyph-name="asterisk" unicode="*" horiz-adv-x="837" 
d="M326 754l45 241l-185 -157l-90 155l236 80l-236 82l90 156l185 -158l-45 240h184l-45 -240l186 158l90 -156l-239 -82l239 -80l-90 -155l-186 157l45 -241h-184z" />
    <glyph glyph-name="plus" unicode="+" horiz-adv-x="882" 
d="M348 281v282h-268v182h268v281h187v-281h268v-182h-268v-282h-187z" />
    <glyph glyph-name="comma" unicode="," horiz-adv-x="460" 
d="M98 -233l78 237q-39 15 -62.5 48.5t-23.5 78.5q0 58 41.5 97.5t99.5 39.5q57 0 98.5 -40t41.5 -99q0 -54 -43 -127l-121 -235h-109z" />
    <glyph glyph-name="hyphen" unicode="-" horiz-adv-x="602" 
d="M84 391v187h432v-187h-432z" />
    <glyph glyph-name="hyphen" unicode="&#xad;" horiz-adv-x="602" 
d="M84 391v187h432v-187h-432z" />
    <glyph glyph-name="period" unicode="." horiz-adv-x="456" 
d="M229 -12q-58 0 -99.5 40.5t-41.5 100.5t41.5 99.5t99.5 39.5q57 0 98.5 -39.5t41.5 -99.5t-41.5 -100.5t-98.5 -40.5z" />
    <glyph glyph-name="slash" unicode="/" horiz-adv-x="851" 
d="M0 -262l594 1741h205l-594 -1741h-205z" />
    <glyph glyph-name="zero" unicode="0" horiz-adv-x="1513" 
d="M758 -18q-138 0 -260.5 53t-212.5 145.5t-142.5 226.5t-52.5 289t52.5 289t142 227t212.5 146t261 53q137 0 259.5 -53t212 -146t141.5 -227t52 -289t-52 -289t-141.5 -226.5t-212 -145.5t-259.5 -53zM758 178q198 0 319 144t121 374t-121 374t-319 144
q-200 0 -322.5 -144t-122.5 -374t122.5 -374t322.5 -144z" />
    <glyph glyph-name="one" unicode="1" horiz-adv-x="700" 
d="M307 0v1200h-237v193h454v-1393h-217z" />
    <glyph glyph-name="two" unicode="2" horiz-adv-x="1120" 
d="M37 0v18l573 603q104 109 150.5 194.5t46.5 173.5q0 98 -58 159.5t-167 61.5q-104 0 -177 -67.5t-104 -190.5l-215 49q38 183 168 295.5t328 112.5q203 0 324.5 -116.5t121.5 -301.5q0 -120 -60.5 -235t-181.5 -242l-233 -246q-18 -19 -43.5 -40.5t-41.5 -33.5l-17 -12
q67 8 120 8h455v-190h-989z" />
    <glyph glyph-name="three" unicode="3" horiz-adv-x="1142" 
d="M549 -18q-180 0 -320.5 84.5t-203.5 218.5l184 96q48 -91 129.5 -147t200.5 -56q139 0 222 81.5t83 209.5q0 132 -84 213.5t-236 81.5q-99 0 -186 -33l-12 19l299 383q14 17 32 36.5t29 30.5l12 10q-61 -8 -112 -8h-439v191h891v-19l-284 -368q-20 -26 -42 -49t-34 -33
l-12 -9q176 -22 287.5 -144.5t111.5 -309.5q0 -146 -68 -256t-184.5 -166.5t-263.5 -56.5z" />
    <glyph glyph-name="four" unicode="4" horiz-adv-x="1267" 
d="M801 0v231h-733v144l931 1048h19v-1013h170v-179h-170v-231h-217zM326 399q67 11 135 11h340v419q0 27 2.5 63t4.5 58l3 23q-41 -64 -90 -123l-293 -350q-18 -22 -43.5 -47t-42.5 -39z" />
    <glyph glyph-name="five" unicode="5" horiz-adv-x="1155" 
d="M555 -18q-177 0 -313.5 78.5t-204.5 207.5l184 99q108 -189 334 -189q135 0 216 82t81 211q0 133 -87.5 213t-234.5 80q-111 0 -190 -33.5t-150 -93.5l-18 8v748h791v-191h-603v-301q83 45 209 45q226 0 367 -132t141 -339q0 -227 -144 -360t-378 -133z" />
    <glyph glyph-name="six" unicode="6" horiz-adv-x="1191" 
d="M596 -18q-146 0 -264 64t-183 173t-65 240q0 169 127 356l397 578h244l-254 -365q-20 -30 -52 -66.5t-54 -57.5l-23 -21q83 49 178 49q196 0 328.5 -132.5t132.5 -332.5q0 -100 -37.5 -189t-103.5 -154.5t-162.5 -103.5t-208.5 -38zM596 176q132 0 211.5 84.5t79.5 206.5
q0 123 -78.5 209t-212.5 86q-131 0 -211 -85.5t-80 -209.5q0 -121 80 -206t211 -85z" />
    <glyph glyph-name="seven" unicode="7" horiz-adv-x="1146" 
d="M201 0l587 1200h-727v193h1043v-19l-674 -1374h-229z" />
    <glyph glyph-name="eight" unicode="8" horiz-adv-x="1191" 
d="M598 -18q-233 0 -377.5 125.5t-144.5 322.5q0 136 80 232t213 139q-78 39 -125 108t-47 164q0 145 116.5 240.5t284.5 95.5t284.5 -95.5t116.5 -240.5q0 -95 -47 -164t-127 -108q132 -43 211.5 -139.5t79.5 -231.5q0 -197 -142.5 -322.5t-375.5 -125.5zM598 887
q84 0 135 47t51 121q0 73 -51 119.5t-135 46.5t-135 -46.5t-51 -119.5q0 -74 51 -121t135 -47zM598 174q134 0 216.5 74t82.5 190q0 115 -82.5 188.5t-216.5 73.5q-135 0 -217 -73.5t-82 -188.5q0 -117 82 -190.5t217 -73.5z" />
    <glyph glyph-name="nine" unicode="9" horiz-adv-x="1191" 
d="M356 0l250 371q20 30 47 63t43 50l17 18q-74 -47 -172 -47q-197 0 -329 133t-132 336q0 100 38 189t104.5 155t163 104.5t208.5 38.5q224 0 370 -139t146 -340q0 -169 -129 -359l-387 -573h-238zM594 625q133 0 214 86.5t81 212.5q0 122 -81 207.5t-214 85.5
q-135 0 -215 -85.5t-80 -207.5q0 -125 79 -212t216 -87z" />
    <glyph glyph-name="colon" unicode=":" horiz-adv-x="477" 
d="M240 451q-58 0 -100 41t-42 102q0 60 42 100.5t100 40.5q57 0 98 -40.5t41 -100.5t-41.5 -101.5t-97.5 -41.5zM240 -12q-58 0 -100 40.5t-42 100.5t42 100.5t100 40.5q57 0 98 -40.5t41 -100.5t-41 -100.5t-98 -40.5z" />
    <glyph glyph-name="semicolon" unicode=";" horiz-adv-x="481" 
d="M242 451q-58 0 -100 41t-42 102q0 60 42 100.5t100 40.5q57 0 98 -40.5t41 -100.5t-41.5 -101.5t-97.5 -41.5zM109 -233l77 237q-39 15 -62.5 48.5t-23.5 78.5q0 58 42 97.5t100 39.5q57 0 98 -40t41 -99q0 -54 -43 -127l-121 -235h-108z" />
    <glyph glyph-name="semicolon" unicode="&#x37e;" horiz-adv-x="481" 
d="M242 451q-58 0 -100 41t-42 102q0 60 42 100.5t100 40.5q57 0 98 -40.5t41 -100.5t-41.5 -101.5t-97.5 -41.5zM109 -233l77 237q-39 15 -62.5 48.5t-23.5 78.5q0 58 42 97.5t100 39.5q57 0 98 -40t41 -99q0 -54 -43 -127l-121 -235h-108z" />
    <glyph glyph-name="less" unicode="&#x3c;" horiz-adv-x="806" 
d="M719 279l-658 362v21l658 356v-184l-359 -185l359 -186v-184z" />
    <glyph glyph-name="equal" unicode="=" horiz-adv-x="874" 
d="M80 698v179h715v-179h-715zM80 369v180h715v-180h-715z" />
    <glyph glyph-name="greater" unicode="&#x3e;" horiz-adv-x="808" 
d="M88 279v184l358 184l-358 187v184l660 -363v-20z" />
    <glyph glyph-name="question" unicode="?" horiz-adv-x="1005" 
d="M358 426v344h80q125 0 192.5 67.5t67.5 168.5q0 95 -60 157t-157 62q-91 0 -149 -39.5t-101 -120.5l-168 96q53 122 160 186t258 64q195 0 312.5 -116t117.5 -289q0 -163 -96 -269t-262 -125v-186h-195zM453 -12q-57 0 -98.5 39.5t-41.5 99.5t41.5 99.5t98.5 39.5
t98 -39.5t41 -99.5t-41 -99.5t-98 -39.5z" />
    <glyph glyph-name="at" unicode="@" horiz-adv-x="1853" 
d="M946 -424q-242 0 -435.5 99t-307 287t-113.5 433q0 178 69 334t185 263.5t270.5 169t323.5 61.5q239 0 427.5 -97t293 -270t104.5 -393q0 -232 -93 -352.5t-255 -120.5q-210 0 -260 174q-86 -182 -287 -182q-152 0 -255 113t-103 286q0 174 102.5 289.5t253.5 115.5
q169 0 248 -151l-4 131h201v-469q0 -79 25 -116.5t85 -37.5q162 0 162 318q0 283 -173 442.5t-472 159.5q-191 0 -340.5 -85.5t-232 -237.5t-82.5 -345q0 -295 177 -476t484 -181q179 0 332 67l67 -145q-178 -84 -397 -84zM922 152q82 0 137 66.5t55 162.5q0 98 -55 165.5
t-137 67.5q-89 0 -144 -66t-55 -167q0 -100 55 -164.5t144 -64.5z" />
    <glyph glyph-name="A" unicode="A" horiz-adv-x="1349" 
d="M59 0l596 1407h25l610 -1407h-225l-80 197h-637l-80 -197h-209zM422 379h485l-174 434q-16 36 -33 88t-26 85l-10 34q-33 -125 -68 -207z" />
    <glyph glyph-name="B" unicode="B" horiz-adv-x="1247" 
d="M168 0v1393h506q187 0 290 -99.5t103 -251.5q0 -99 -48.5 -168t-139.5 -100q138 -32 211 -125t73 -229q0 -186 -119 -303t-333 -117h-543zM385 850h279q94 0 142 47.5t48 128.5t-48.5 128.5t-146.5 47.5h-274v-352zM385 190h313q122 0 185 65t63 173t-66.5 173t-191.5 65
h-303v-476z" />
    <glyph glyph-name="C" unicode="C" horiz-adv-x="1474" 
d="M819 -18q-147 0 -278.5 53.5t-227.5 147t-152.5 227t-56.5 286.5t56.5 286.5t152.5 226.5t227.5 146.5t278.5 53.5q373 0 557 -276l-166 -119q-61 94 -160 147t-231 53q-216 0 -354.5 -147t-138.5 -371t139 -372t354 -148q264 0 412 219l166 -116q-93 -141 -240 -219
t-338 -78z" />
    <glyph glyph-name="D" unicode="D" horiz-adv-x="1396" 
d="M168 0v1393h383q221 0 389.5 -86.5t261 -245t92.5 -365.5q0 -314 -203.5 -505t-539.5 -191h-383zM385 190h152q133 0 235.5 37t167 105t97 159.5t32.5 204.5t-32.5 204.5t-97 159.5t-167 105t-235.5 37h-152v-1012z" />
    <glyph glyph-name="E" unicode="E" horiz-adv-x="1202" 
d="M168 0v1393h885v-191h-668v-540h592v-187h-592v-285h696v-190h-913z" />
    <glyph glyph-name="F" unicode="F" horiz-adv-x="1136" 
d="M168 0v1393h866v-191h-649v-559h590v-192h-590v-451h-217z" />
    <glyph glyph-name="G" unicode="G" horiz-adv-x="1579" 
d="M817 -18q-204 0 -368.5 91.5t-258.5 255t-94 367.5q0 152 56.5 285.5t153 227t228.5 147t279 53.5q384 0 565 -285l-168 -120q-134 210 -397 210q-217 0 -356.5 -147t-139.5 -371t140.5 -373t357.5 -149q190 0 310.5 96t146.5 240h-424v188h653q6 -327 -175.5 -521.5
t-508.5 -194.5z" />
    <glyph glyph-name="H" unicode="H" horiz-adv-x="1439" 
d="M168 0v1393h217v-750h670v750h217v-1393h-217v451h-670v-451h-217z" />
    <glyph glyph-name="I" unicode="I" horiz-adv-x="565" 
d="M176 0v1393h215v-1393h-215z" />
    <glyph glyph-name="J" unicode="J" horiz-adv-x="1001" 
d="M442 -18q-146 0 -243.5 64.5t-151.5 170.5l176 109q41 -73 89.5 -111.5t119.5 -38.5q93 0 143 50.5t50 166.5v1000h217v-1004q0 -200 -109 -303.5t-291 -103.5z" />
    <glyph glyph-name="K" unicode="K" horiz-adv-x="1284" 
d="M369 614q68 138 106 189l451 590h245l-493 -652l549 -741h-262l-430 582l-150 -183v-399h-217v1393h217v-574q0 -91 -16 -205z" />
    <glyph glyph-name="L" unicode="L" horiz-adv-x="1114" 
d="M168 0v1393h217v-1203h643v-190h-860z" />
    <glyph glyph-name="M" unicode="M" horiz-adv-x="1716" 
d="M137 0l133 1409h25l481 -743q18 -26 39 -62t33 -59l12 -23q45 85 84 144l477 743h25l133 -1409h-215l-68 686l-12 225q-57 -120 -106 -194l-314 -502h-20l-312 500q-22 33 -50 81.5t-45 80.5l-17 32q-4 -139 -10 -223l-70 -686h-203z" />
    <glyph glyph-name="N" unicode="N" horiz-adv-x="1447" 
d="M1253 -14l-768 827q-24 26 -57 65t-54 65l-20 26q15 -115 15 -201v-768h-201v1407h29l768 -825q24 -25 56 -64t53 -66l20 -26q-15 123 -15 201v766h201v-1407h-27z" />
    <glyph glyph-name="O" unicode="O" horiz-adv-x="1644" 
d="M823 -18q-198 0 -362 91t-260.5 255t-96.5 368q0 153 56.5 286.5t153 227.5t229 147.5t280.5 53.5q147 0 279 -53.5t228.5 -147t153 -227.5t56.5 -287q0 -204 -96 -368t-260 -255t-361 -91zM823 176q217 0 356.5 148t139.5 372t-139.5 372.5t-356.5 148.5t-357 -148.5
t-140 -372.5t140 -372t357 -148z" />
    <glyph glyph-name="P" unicode="P" horiz-adv-x="1212" 
d="M168 0v1393h350q285 0 441.5 -142.5t156.5 -388.5q0 -245 -157 -387.5t-441 -142.5h-133v-332h-217zM385 522h125q385 0 385 340t-385 340h-125v-680z" />
    <glyph glyph-name="Q" unicode="Q" horiz-adv-x="1644" 
d="M928 -10v-314h-209v314q-130 18 -243.5 77.5t-195.5 150.5t-129 215t-47 263q0 204 96.5 368t260.5 254.5t362 90.5q147 0 279 -53.5t228.5 -146.5t153 -226.5t56.5 -286.5q0 -139 -47 -263t-128.5 -215t-194 -150.5t-242.5 -77.5zM719 176v268h209v-268
q176 34 283.5 175t107.5 345q0 224 -139.5 371t-356.5 147t-357 -147t-140 -371q0 -204 107.5 -345t285.5 -175z" />
    <glyph glyph-name="R" unicode="R" horiz-adv-x="1239" 
d="M838 430l295 -430h-250l-250 367q-88 -9 -117 -9h-131v-358h-217v1393h348q286 0 443 -139.5t157 -381.5q0 -320 -278 -442zM385 545h123q201 0 294 83.5t93 243.5q0 330 -387 330h-123v-657z" />
    <glyph glyph-name="S" unicode="S" horiz-adv-x="1091" 
d="M545 -18q-187 0 -312.5 79.5t-189.5 208.5l178 99q57 -94 129.5 -144.5t190.5 -50.5q106 0 173.5 52.5t67.5 138.5q0 85 -53.5 135t-179.5 106l-92 41q-166 73 -246 164.5t-80 243.5q0 156 109 255t282 99q138 0 234 -53.5t159 -165.5l-170 -105q-41 71 -92 103.5
t-131 32.5q-82 0 -131 -45t-49 -117q0 -75 45 -120t156 -93l90 -41q190 -83 277 -180.5t87 -257.5q0 -179 -125.5 -282t-326.5 -103z" />
    <glyph glyph-name="T" unicode="T" horiz-adv-x="1173" 
d="M479 0v1202h-413v191h1042v-191h-414v-1202h-215z" />
    <glyph glyph-name="U" unicode="U" horiz-adv-x="1380" 
d="M690 -18q-115 0 -211 32t-167.5 94t-111.5 159.5t-40 221.5v904h217v-891q0 -326 313 -326q316 0 316 326v891h215v-904q0 -124 -40.5 -221.5t-112.5 -159.5t-168 -94t-210 -32z" />
    <glyph glyph-name="V" unicode="V" horiz-adv-x="1349" 
d="M670 -14l-611 1407h232l313 -748q18 -41 39 -103t33 -104l12 -41q39 154 82 248l309 748h211l-594 -1407h-26z" />
    <glyph glyph-name="W" unicode="W" horiz-adv-x="1955" 
d="M545 -14l-486 1407h228l245 -742q12 -35 25.5 -84.5t20.5 -81.5l8 -32q34 118 67 198l320 756h26l322 -756q15 -35 31 -84.5t25 -81.5l9 -32q29 120 56 198l246 742h210l-481 -1407h-26l-347 829q-13 30 -27 72.5t-22 70.5l-8 27q-32 -102 -61 -170l-355 -829h-26z" />
    <glyph glyph-name="X" unicode="X" horiz-adv-x="1325" 
d="M72 0l467 762l-392 631h240l211 -340q15 -24 32 -59.5t26 -59.5l10 -23q30 87 63 142l207 340h233l-385 -631l471 -762h-239l-289 467q-15 24 -32.5 59.5t-27.5 59.5l-10 24q-30 -86 -65 -143l-287 -467h-233z" />
    <glyph glyph-name="Y" unicode="Y" horiz-adv-x="1368" 
d="M588 0v440l-529 953h240l315 -574q19 -35 40 -85t32 -83l12 -33q43 123 84 201l305 574h224l-506 -940v-453h-217z" />
    <glyph glyph-name="Z" unicode="Z" horiz-adv-x="1200" 
d="M68 0v23l704 1179h-592v191h930v-23l-700 -1180h686v-190h-1028z" />
    <glyph glyph-name="bracketleft" unicode="[" horiz-adv-x="655" 
d="M139 -262v1741h449v-176h-240v-1389h240v-176h-449z" />
    <glyph glyph-name="backslash" unicode="\" horiz-adv-x="851" 
d="M647 -262l-594 1741h205l594 -1741h-205z" />
    <glyph glyph-name="bracketright" unicode="]" horiz-adv-x="657" 
d="M68 -262v176h241v1389h-241v176h450v-1741h-450z" />
    <glyph glyph-name="asciicircum" unicode="^" horiz-adv-x="874" 
d="M125 932l303 475h21l301 -475h-168l-144 203l-145 -203h-168z" />
    <glyph glyph-name="underscore" unicode="_" horiz-adv-x="550" 
d="M-4 -262v184h559v-184h-559z" />
    <glyph glyph-name="grave" unicode="`" horiz-adv-x="1024" 
d="M432 1022l-201 389h238l123 -389h-160z" />
    <glyph glyph-name="a" unicode="a" horiz-adv-x="1118" 
d="M485 -18q-166 0 -280.5 128.5t-114.5 321.5t114 320t283 127q105 0 179 -47t116 -130l-2 158h207v-860h-207l2 160q-38 -80 -116 -129t-181 -49zM541 164q113 0 178 73t65 193q0 119 -65 191.5t-178 72.5q-109 0 -172.5 -72t-63.5 -190q0 -121 63.5 -194.5t172.5 -73.5z
" />
    <glyph glyph-name="b" unicode="b" horiz-adv-x="1128" 
d="M635 -18q-104 0 -182 47t-119 127l6 -156h-209v1479h209v-768q98 168 299 168q169 0 284 -127t115 -320t-117 -321.5t-286 -128.5zM582 164q112 0 177.5 73t65.5 195q0 118 -65.5 190t-177.5 72q-113 0 -181.5 -72t-68.5 -190q0 -122 68 -195t182 -73z" />
    <glyph glyph-name="c" unicode="c" horiz-adv-x="964" 
d="M547 -18q-197 0 -328 127.5t-131 320.5q0 192 131.5 320.5t327.5 128.5q117 0 200 -41.5t148 -122.5l-147 -119q-32 46 -84.5 73t-116.5 27q-113 0 -179.5 -74t-66.5 -192t66.5 -192t179.5 -74q126 0 211 96l141 -123q-67 -77 -150 -116t-202 -39z" />
    <glyph glyph-name="d" unicode="d" horiz-adv-x="1128" 
d="M494 -18q-169 0 -286.5 128.5t-117.5 321.5q0 192 116 319.5t283 127.5q201 0 299 -168v768h209v-1479h-209l7 156q-41 -80 -119 -127t-182 -47zM547 164q114 0 182 73t68 195q0 118 -68.5 190t-181.5 72q-112 0 -178 -72t-66 -190q0 -122 66 -195t178 -73z" />
    <glyph glyph-name="e" unicode="e" horiz-adv-x="1079" 
d="M299 360q19 -96 87.5 -150t184.5 -54q148 0 244 92l121 -127q-139 -139 -363 -139q-218 0 -351.5 126t-133.5 322q0 191 132.5 320t326.5 129q216 0 335.5 -144.5t108.5 -374.5h-692zM299 504h483q-14 93 -72 148t-161 55q-100 0 -165.5 -53t-84.5 -150z" />
    <glyph glyph-name="f" unicode="f" horiz-adv-x="712" 
d="M209 0v686h-141v174h141v340q0 153 71 229t205 76q158 0 244 -106l-123 -131q-44 51 -100 51q-90 0 -90 -117v-342h231v-174h-231v-686h-207z" />
    <glyph glyph-name="g" unicode="g" horiz-adv-x="1128" 
d="M551 -455q-158 0 -272.5 61.5t-176.5 164.5l150 110q55 -79 123.5 -120.5t165.5 -41.5q120 0 185 69t65 210v149q-40 -75 -116.5 -120t-180.5 -45q-169 0 -286.5 128.5t-117.5 321.5q0 192 116 319.5t283 127.5q109 0 186.5 -48t121.5 -131l-6 160h206v-872
q0 -115 -34 -201.5t-95 -138.5t-140.5 -77.5t-176.5 -25.5zM547 164q114 0 182 73t68 195q0 118 -68.5 190t-181.5 72q-112 0 -178 -72t-66 -190q0 -122 66 -195t178 -73z" />
    <glyph glyph-name="h" unicode="h" horiz-adv-x="1069" 
d="M131 0v1479h207v-770q42 80 116.5 125t170.5 45q145 0 233 -98.5t88 -270.5v-510h-207v494q0 194 -178 194q-102 0 -162.5 -59t-60.5 -162v-467h-207z" />
    <glyph glyph-name="i" unicode="i" horiz-adv-x="483" 
d="M242 1057q-57 0 -97.5 38.5t-40.5 98.5q0 58 40.5 96.5t97.5 38.5q56 0 96.5 -38.5t40.5 -96.5q0 -60 -40 -98.5t-97 -38.5zM137 0v860h209v-860h-209z" />
    <glyph glyph-name="j" unicode="j" horiz-adv-x="481" 
d="M242 1057q-57 0 -97.5 38.5t-40.5 98.5q0 58 40.5 96.5t97.5 38.5q56 0 96.5 -38.5t40.5 -96.5q0 -60 -40 -98.5t-97 -38.5zM78 -455q-68 0 -123 27.5t-88 67.5l104 131q42 -39 86 -39q41 0 60.5 20t19.5 72v1036h209v-1030q0 -137 -70.5 -211t-197.5 -74z" />
    <glyph glyph-name="k" unicode="k" horiz-adv-x="978" 
d="M338 254v-254h-207v1479h207v-854q0 -39 -10 -152l344 387h235l-317 -358l360 -502h-243l-261 367z" />
    <glyph glyph-name="l" unicode="l" horiz-adv-x="485" 
d="M139 0v1479h207v-1479h-207z" />
    <glyph glyph-name="m" unicode="m" horiz-adv-x="1583" 
d="M131 0v860h207l-4 -147q87 166 256 166q181 0 252 -164q52 78 127.5 121t167.5 43q152 0 237.5 -95t85.5 -260v-524h-207v504q0 93 -37 138.5t-124 45.5q-92 0 -142.5 -55.5t-50.5 -161.5v-471h-207v504q0 93 -37 138.5t-123 45.5q-93 0 -143.5 -55.5t-50.5 -161.5v-471
h-207z" />
    <glyph glyph-name="n" unicode="n" horiz-adv-x="1069" 
d="M131 0v860h207l-4 -160q40 84 117 131.5t174 47.5q145 0 233 -98.5t88 -270.5v-510h-207v494q0 194 -178 194q-102 0 -162.5 -59t-60.5 -162v-467h-207z" />
    <glyph glyph-name="o" unicode="o" horiz-adv-x="1103" 
d="M553 -18q-196 0 -330.5 128.5t-134.5 319.5t134.5 320t330.5 129q197 0 330 -128.5t133 -320.5t-133 -320t-330 -128zM553 160q114 0 182 75t68 195t-68 194t-182 74q-115 0 -183.5 -74t-68.5 -194t69 -195t183 -75z" />
    <glyph glyph-name="p" unicode="p" horiz-adv-x="1128" 
d="M131 -434v1294h209l-6 -160q43 83 121 131t184 48q168 0 283.5 -127t115.5 -320t-117 -321.5t-286 -128.5q-104 0 -180.5 45t-114.5 120v-581h-209zM582 164q112 0 177.5 73t65.5 195q0 118 -65.5 190t-177.5 72q-113 0 -181.5 -72t-68.5 -190q0 -122 68 -195t182 -73z
" />
    <glyph glyph-name="q" unicode="q" horiz-adv-x="1128" 
d="M791 -434v581q-40 -75 -116.5 -120t-180.5 -45q-169 0 -286.5 128.5t-117.5 321.5q0 192 116 319.5t283 127.5q109 0 186.5 -48t121.5 -131l-6 160h206v-1294h-206zM547 164q114 0 182 73t68 195q0 118 -68.5 190t-181.5 72q-112 0 -178 -72t-66 -190q0 -122 66 -195
t178 -73z" />
    <glyph glyph-name="r" unicode="r" horiz-adv-x="763" 
d="M131 0v860h207l-2 -162q76 179 250 179q81 0 141 -37l-70 -187q-60 29 -112 29q-207 0 -207 -264v-418h-207z" />
    <glyph glyph-name="s" unicode="s" horiz-adv-x="849" 
d="M438 -18q-138 0 -238 51t-147 127l142 98q77 -111 231 -111q152 0 152 93q0 43 -34 62.5t-130 45.5q-29 8 -45 12q-43 12 -76 25t-68 34.5t-58 48.5t-37.5 67.5t-14.5 89.5q0 124 86 189t221 65q181 0 299 -129l-121 -119q-73 84 -178 84q-58 0 -89.5 -21t-31.5 -59
q0 -46 37 -65.5t151 -49.5q48 -12 82 -24t75 -34t66 -48.5t42.5 -68.5t17.5 -95q0 -120 -80.5 -194t-253.5 -74z" />
    <glyph glyph-name="t" unicode="t" horiz-adv-x="733" 
d="M469 -20q-272 0 -272 311v395h-129v174h129v449h206v-449h230v-174h-230v-399q0 -70 22 -98.5t64 -28.5q51 0 103 41l98 -140q-85 -81 -221 -81z" />
    <glyph glyph-name="u" unicode="u" horiz-adv-x="1044" 
d="M514 -20q-188 0 -289.5 106.5t-101.5 296.5v477h207v-471q0 -113 46 -170t146 -57q101 0 147 57t46 170v471h207v-477q0 -189 -108 -296t-300 -107z" />
    <glyph glyph-name="v" unicode="v" horiz-adv-x="972" 
d="M475 -18l-440 878h229l174 -381q15 -32 30 -78.5t22 -76.5l8 -31q24 114 55 186l174 381h211l-436 -878h-27z" />
    <glyph glyph-name="w" unicode="w" horiz-adv-x="1402" 
d="M410 -20l-375 880h229l137 -352q11 -29 24 -69.5t21 -66.5l7 -26q26 99 59 162l184 369h21l190 -385q14 -27 29.5 -67.5t23.5 -67.5l9 -27q26 99 51 162l141 368h207l-377 -880h-22l-213 417q-13 24 -25 60.5t-18 60.5l-6 25q-25 -91 -54 -146l-221 -417h-22z" />
    <glyph glyph-name="x" unicode="x" horiz-adv-x="1007" 
d="M49 0l336 453l-293 407h246l117 -166q13 -18 26 -44.5t20 -43.5l7 -18q20 63 51 106l123 166h227l-286 -391l335 -469h-245l-154 215q-15 20 -30.5 50t-24.5 49l-8 20q-29 -74 -62 -119l-158 -215h-227z" />
    <glyph glyph-name="y" unicode="y" horiz-adv-x="974" 
d="M164 -434l223 512l-352 782h229l180 -430q13 -29 25.5 -73.5t18.5 -74.5l6 -30q18 112 47 178l184 430h215l-563 -1294h-213z" />
    <glyph glyph-name="z" unicode="z" horiz-adv-x="878" 
d="M57 0v23l443 669h-394v168h711v-22l-444 -670h422v-168h-738z" />
    <glyph glyph-name="braceleft" unicode="{" horiz-adv-x="798" 
d="M586 -262q-297 0 -297 295v295q0 75 -28.5 106t-90.5 31h-117v178h117q62 0 90.5 31.5t28.5 107.5v402q0 295 297 295h145v-176h-129q-55 0 -79.5 -28.5t-24.5 -96.5v-422q0 -95 -42 -141.5t-118 -59.5q76 -15 118 -61.5t42 -141.5v-313q0 -68 24.5 -96.5t79.5 -28.5h129
v-176h-145z" />
    <glyph glyph-name="bar" unicode="|" horiz-adv-x="526" 
d="M164 -262v1741h198v-1741h-198z" />
    <glyph glyph-name="braceright" unicode="}" horiz-adv-x="798" 
d="M68 -262v176h129q55 0 78.5 28.5t23.5 96.5v313q0 96 42.5 142t119.5 59q-76 15 -119 62t-43 143v420q0 68 -23.5 96.5t-78.5 28.5h-129v176h145q295 0 295 -295v-402q0 -75 29.5 -107t91.5 -32h116v-178h-116q-62 0 -91.5 -31.5t-29.5 -105.5v-295q0 -295 -295 -295
h-145z" />
    <glyph glyph-name="asciitilde" unicode="~" horiz-adv-x="819" 
d="M231 440l-145 15q6 122 61 189t140 67q65 0 135 -56q31 -23 42.5 -31t27 -15t30.5 -7q57 0 66 107l145 -15q-6 -124 -60 -190t-141 -66q-65 0 -135 56q-6 5 -18.5 14.5t-16.5 12.5t-13 9t-13 8t-11 5t-13 3.5t-13 0.5q-59 0 -68 -107z" />
    <glyph glyph-name="nbspace" unicode="&#xa0;" horiz-adv-x="372" 
 />
    <glyph glyph-name="exclamdown" unicode="&#xa1;" horiz-adv-x="548" 
d="M274 1114q-59 0 -102 42t-43 104t42.5 103.5t102.5 41.5t103 -41.5t43 -103.5t-43 -104t-103 -42zM158 0l35 954h163l35 -954h-233z" />
    <glyph glyph-name="cent" unicode="&#xa2;" horiz-adv-x="972" 
d="M485 -14q-174 22 -285.5 144.5t-111.5 299.5q0 176 111.5 300t285.5 144v222h113v-219q183 -14 303 -162l-145 -117q-54 81 -158 98v-534q91 12 168 96l137 -121q-121 -140 -305 -153v-222h-113v224zM485 694q-87 -20 -137.5 -91t-50.5 -173t50.5 -174t137.5 -92v530z
" />
    <glyph glyph-name="sterling" unicode="&#xa3;" horiz-adv-x="1273" 
d="M383 563h-211v162h135q-65 144 -65 270q0 182 125 298t329 116q303 0 430 -258l-174 -92q-41 81 -101.5 123.5t-154.5 42.5q-107 0 -171 -60.5t-64 -169.5q0 -111 67 -270h410v-162h-344q43 -120 43 -227q0 -30 -8 -84q126 -88 241 -88q68 0 114 26t89 80l135 -123
q-74 -91 -147 -128t-191 -37q-93 0 -167 32.5t-146 89.5q-101 -122 -274 -122q-102 0 -171 59t-69 154q0 94 68.5 153.5t171.5 59.5q81 0 157 -37q-8 85 -57 192zM424 217q-66 53 -131 53q-44 0 -69 -19.5t-25 -53.5t25.5 -55t68.5 -21q95 0 131 96z" />
    <glyph glyph-name="currency" unicode="&#xa4;" horiz-adv-x="1581" 
d="M244 745h-158v162h184q62 227 239 364.5t411 137.5q182 0 309 -65t217 -197l-162 -115q-62 92 -147.5 138.5t-216.5 46.5q-150 0 -262.5 -82.5t-163.5 -227.5h606v-162h-637q-2 -16 -2 -49q0 -48 6 -94h633v-162h-588q58 -125 167 -196.5t249 -71.5q76 0 139 18t110 52
t80 70.5t64 84.5l168 -112q-178 -303 -561 -303q-223 0 -397.5 125.5t-245.5 332.5h-199v162h162q-6 47 -6 94q0 33 2 49z" />
    <glyph glyph-name="yen" unicode="&#xa5;" horiz-adv-x="1325" 
d="M420 709l-354 684h235l285 -582q18 -37 39 -91.5t33 -89.5l12 -36q39 135 80 217l288 582h222l-355 -684h287v-162h-369l-53 -103v-53h422v-162h-422v-229h-217v229h-422v162h422v64l-47 92h-375v162h289z" />
    <glyph glyph-name="brokenbar" unicode="&#xa6;" 
d="M227 371q-58 0 -99.5 40.5t-41.5 102.5q0 60 41.5 99.5t99.5 39.5q57 0 98.5 -39.5t41.5 -99.5q0 -62 -41.5 -102.5t-98.5 -40.5z" />
    <glyph glyph-name="section" unicode="&#xa7;" horiz-adv-x="1155" 
d="M555 -369q-150 0 -265.5 64t-180.5 164l165 114q94 -153 271 -153q102 0 149 39t47 102q0 54 -39.5 91t-132.5 81l-223 103q-143 64 -208.5 142t-65.5 191q0 188 190 267q-69 90 -69 217q0 153 108 254.5t287 101.5q253 0 381 -211l-170 -111q-80 134 -211 134
q-82 0 -128 -45t-46 -113q0 -65 34 -105.5t115 -78.5l225 -103q156 -71 225.5 -153.5t69.5 -198.5q0 -178 -192 -260q74 -89 74 -209q0 -146 -107.5 -235t-302.5 -89zM774 264q100 40 100 133q0 63 -39.5 102t-134.5 81l-225 102q-59 25 -100 61q-94 -43 -94 -135
q0 -62 35 -99.5t118 -74.5l221 -102q71 -31 119 -68z" />
    <glyph glyph-name="dieresis" unicode="&#xa8;" horiz-adv-x="1024" 
d="M711 1047q-48 0 -85.5 36.5t-37.5 87.5q0 50 37.5 86.5t85.5 36.5q50 0 87.5 -36.5t37.5 -86.5q0 -52 -37.5 -88t-87.5 -36zM313 1047q-50 0 -87.5 36t-37.5 88q0 50 37.5 86.5t87.5 36.5t86.5 -36t36.5 -87q0 -52 -36.5 -88t-86.5 -36z" />
    <glyph glyph-name="copyright" unicode="&#xa9;" horiz-adv-x="1609" 
d="M805 -16q-191 0 -354.5 91t-262 255.5t-98.5 365.5q0 151 58 284.5t155 227t228 147.5t274 54t274 -54t228 -147.5t155 -227t58 -284.5q0 -201 -98.5 -365.5t-262 -255.5t-354.5 -91zM805 84q166 0 305.5 79t221 220t81.5 313q0 173 -81.5 314t-221 220t-305.5 79
t-305.5 -79t-221 -220t-81.5 -314q0 -172 81.5 -313t221 -220t305.5 -79zM815 260q-186 0 -314 123t-128 311t126.5 314.5t307.5 126.5q227 0 348 -166l-143 -113q-74 100 -199 100q-105 0 -172.5 -73.5t-67.5 -188.5q0 -112 69.5 -184t178.5 -72q124 0 205 103l143 -107
q-125 -174 -354 -174z" />
    <glyph glyph-name="ordfeminine" unicode="&#xaa;" horiz-adv-x="849" 
d="M557 1100q-1 84 -36.5 118.5t-104.5 34.5q-46 0 -85.5 -14.5t-60 -30.5t-43.5 -41l-114 105q112 137 321 137q66 0 122 -18.5t99.5 -55t68 -98.5t24.5 -143v-428h-191l4 92q-77 -111 -221 -111q-117 0 -192.5 58.5t-75.5 168.5q0 111 81.5 168.5t211.5 57.5h192zM557 971
h-174q-123 0 -123 -84q0 -43 33 -66.5t94 -23.5q78 0 124 34.5t46 92.5v47z" />
    <glyph glyph-name="guillemotleft" unicode="&#xab;" horiz-adv-x="919" 
d="M643 72l-194 334v16l194 330h205l-199 -338l199 -342h-205zM264 72l-192 334v16l192 330h207l-199 -338l199 -342h-207z" />
    <glyph glyph-name="logicalnot" unicode="&#xac;" 
d="M227 371q-58 0 -99.5 40.5t-41.5 102.5q0 60 41.5 99.5t99.5 39.5q57 0 98.5 -39.5t41.5 -99.5q0 -62 -41.5 -102.5t-98.5 -40.5z" />
    <glyph glyph-name="registered" unicode="&#xae;" horiz-adv-x="1044" 
d="M520 530q-188 0 -319 126.5t-131 316.5q0 191 131 317.5t319 126.5q190 0 322.5 -126.5t132.5 -317.5q0 -125 -61.5 -227.5t-165.5 -159t-228 -56.5zM520 614q157 0 259 98t102 259q0 164 -101.5 262t-259.5 98q-156 0 -255 -97.5t-99 -262.5q0 -161 99 -259t255 -98z
M639 883l86 -140h-119l-67 115h-11h-61v-115h-113v465h170q94 0 146.5 -51t52.5 -123q0 -47 -21.5 -87t-62.5 -64zM467 946h59q86 0 86 84q0 38 -23.5 60t-62.5 22h-59v-166z" />
    <glyph glyph-name="macron" unicode="&#xaf;" horiz-adv-x="1024" 
d="M281 1079v156h462v-156h-462z" />
    <glyph glyph-name="macron" unicode="&#x2c9;" horiz-adv-x="1024" 
d="M281 1079v156h462v-156h-462z" />
    <glyph glyph-name="degree" unicode="&#xb0;" horiz-adv-x="759" 
d="M381 836q-125 0 -213 84t-88 202q0 122 87.5 204.5t213.5 82.5q124 0 211.5 -82.5t87.5 -204.5q0 -118 -88 -202t-211 -84zM381 975q63 0 102 41t39 106t-39 106.5t-102 41.5q-64 0 -104.5 -41.5t-40.5 -106.5t40.5 -106t104.5 -41z" />
    <glyph glyph-name="twosuperior" unicode="&#xb2;" 
d="M227 371q-58 0 -99.5 40.5t-41.5 102.5q0 60 41.5 99.5t99.5 39.5q57 0 98.5 -39.5t41.5 -99.5q0 -62 -41.5 -102.5t-98.5 -40.5z" />
    <glyph glyph-name="threesuperior" unicode="&#xb3;" 
d="M227 371q-58 0 -99.5 40.5t-41.5 102.5q0 60 41.5 99.5t99.5 39.5q57 0 98.5 -39.5t41.5 -99.5q0 -62 -41.5 -102.5t-98.5 -40.5z" />
    <glyph glyph-name="acute" unicode="&#xb4;" horiz-adv-x="1024" 
d="M432 1022l123 389h238l-201 -389h-160z" />
    <glyph glyph-name="mu" unicode="&#xb5;" 
d="M227 371q-58 0 -99.5 40.5t-41.5 102.5q0 60 41.5 99.5t99.5 39.5q57 0 98.5 -39.5t41.5 -99.5q0 -62 -41.5 -102.5t-98.5 -40.5z" />
    <glyph glyph-name="mu" unicode="&#x3bc;" 
d="M227 371q-58 0 -99.5 40.5t-41.5 102.5q0 60 41.5 99.5t99.5 39.5q57 0 98.5 -39.5t41.5 -99.5q0 -62 -41.5 -102.5t-98.5 -40.5z" />
    <glyph glyph-name="paragraph" unicode="&#xb6;" horiz-adv-x="1361" 
d="M633 0v561h-103q-105 0 -190 32.5t-140 89t-84.5 131t-29.5 159.5q0 113 50 207t153 153.5t241 59.5h664v-1393h-205v1210h-149v-1210h-207zM537 743h96v467h-96q-101 0 -162.5 -61t-61.5 -172t61.5 -172.5t162.5 -61.5z" />
    <glyph glyph-name="periodcentered" unicode="&#xb7;" horiz-adv-x="456" 
d="M229 371q-58 0 -99.5 40.5t-41.5 102.5q0 60 41.5 99.5t99.5 39.5q57 0 98.5 -39.5t41.5 -99.5q0 -62 -41.5 -102.5t-98.5 -40.5z" />
    <glyph glyph-name="periodcentered" unicode="&#x2219;" horiz-adv-x="456" 
d="M229 371q-58 0 -99.5 40.5t-41.5 102.5q0 60 41.5 99.5t99.5 39.5q57 0 98.5 -39.5t41.5 -99.5q0 -62 -41.5 -102.5t-98.5 -40.5z" />
    <glyph glyph-name="cedilla" unicode="&#xb8;" horiz-adv-x="1024" 
d="M528 -483q-158 0 -225 123l107 63q33 -68 102 -68q36 0 61 21.5t25 60.5t-26.5 62.5t-73.5 23.5h-56v197h117v-94q75 -13 125.5 -64.5t50.5 -134.5q0 -86 -62 -138t-145 -52z" />
    <glyph glyph-name="onesuperior" unicode="&#xb9;" 
d="M227 371q-58 0 -99.5 40.5t-41.5 102.5q0 60 41.5 99.5t99.5 39.5q57 0 98.5 -39.5t41.5 -99.5q0 -62 -41.5 -102.5t-98.5 -40.5z" />
    <glyph glyph-name="ordmasculine" unicode="&#xba;" horiz-adv-x="954" 
d="M477 647q-166 0 -280.5 109t-114.5 272q0 162 115 271.5t280 109.5t280 -109.5t115 -271.5q0 -163 -114.5 -272t-280.5 -109zM477 807q90 0 145.5 61t55.5 160q0 97 -55.5 158t-145.5 61t-143 -60.5t-53 -158.5q0 -99 53 -160t143 -61z" />
    <glyph glyph-name="guillemotright" unicode="&#xbb;" horiz-adv-x="919" 
d="M449 72l198 338l-198 342h206l193 -334v-17l-193 -329h-206zM72 72l198 338l-198 342h204l195 -334v-17l-195 -329h-204z" />
    <glyph glyph-name="onequarter" unicode="&#xbc;" 
d="M227 371q-58 0 -99.5 40.5t-41.5 102.5q0 60 41.5 99.5t99.5 39.5q57 0 98.5 -39.5t41.5 -99.5q0 -62 -41.5 -102.5t-98.5 -40.5z" />
    <glyph glyph-name="onehalf" unicode="&#xbd;" 
d="M227 371q-58 0 -99.5 40.5t-41.5 102.5q0 60 41.5 99.5t99.5 39.5q57 0 98.5 -39.5t41.5 -99.5q0 -62 -41.5 -102.5t-98.5 -40.5z" />
    <glyph glyph-name="threequarters" unicode="&#xbe;" 
d="M227 371q-58 0 -99.5 40.5t-41.5 102.5q0 60 41.5 99.5t99.5 39.5q57 0 98.5 -39.5t41.5 -99.5q0 -62 -41.5 -102.5t-98.5 -40.5z" />
    <glyph glyph-name="questiondown" unicode="&#xbf;" horiz-adv-x="989" 
d="M545 1114q-60 0 -103 42t-43 104t43 103.5t103 41.5q58 0 101.5 -41.5t43.5 -103.5t-43.5 -104t-101.5 -42zM514 -18q-198 0 -309 112t-111 287q0 165 87.5 267.5t260.5 131.5v189h199v-361h-84q-125 0 -185.5 -64.5t-60.5 -162.5q0 -89 55 -151t148 -62q92 0 147 39.5
t97 124.5l168 -96q-50 -123 -155.5 -188.5t-256.5 -65.5z" />
    <glyph glyph-name="Agrave" unicode="&#xc0;" horiz-adv-x="1349" 
d="M592 1538l-201 389h238l123 -389h-160zM59 0l596 1407h25l610 -1407h-225l-80 197h-637l-80 -197h-209zM422 379h485l-174 434q-16 36 -33 88t-26 85l-10 34q-33 -125 -68 -207z" />
    <glyph glyph-name="Aacute" unicode="&#xc1;" horiz-adv-x="1349" 
d="M592 1538l123 389h237l-200 -389h-160zM59 0l596 1407h25l610 -1407h-225l-80 197h-637l-80 -197h-209zM422 379h485l-174 434q-16 36 -33 88t-26 85l-10 34q-33 -125 -68 -207z" />
    <glyph glyph-name="Acircumflex" unicode="&#xc2;" horiz-adv-x="1349" 
d="M362 1536l293 418h23l293 -418h-170l-133 170l-136 -170h-170zM59 0l596 1407h25l610 -1407h-225l-80 197h-637l-80 -197h-209zM422 379h485l-174 434q-16 36 -33 88t-26 85l-10 34q-33 -125 -68 -207z" />
    <glyph glyph-name="Atilde" unicode="&#xc3;" horiz-adv-x="1349" 
d="M485 1532l-145 14q6 122 61 189t140 67q68 0 135 -53q7 -5 19 -14.5t17 -13t13.5 -9.5t13 -8t11.5 -5t13 -4t13 -1q57 0 66 106l145 -14q-6 -123 -60 -189.5t-141 -66.5q-66 0 -135 55q-8 6 -25 19t-22 17t-15.5 10t-18 7.5t-17.5 1.5q-59 0 -68 -108zM59 0l596 1407h25
l610 -1407h-225l-80 197h-637l-80 -197h-209zM422 379h485l-174 434q-16 36 -33 88t-26 85l-10 34q-33 -125 -68 -207z" />
    <glyph glyph-name="Adieresis" unicode="&#xc4;" horiz-adv-x="1349" 
d="M874 1563q-48 0 -85 36.5t-37 88.5q0 50 37 86t85 36q50 0 87.5 -36t37.5 -86q0 -52 -37.5 -88.5t-87.5 -36.5zM477 1563q-50 0 -87.5 36.5t-37.5 88.5q0 50 37.5 86t87.5 36t86.5 -35.5t36.5 -86.5q0 -52 -36.5 -88.5t-86.5 -36.5zM59 0l596 1407h25l610 -1407h-225
l-80 197h-637l-80 -197h-209zM422 379h485l-174 434q-16 36 -33 88t-26 85l-10 34q-33 -125 -68 -207z" />
    <glyph glyph-name="Aring" unicode="&#xc5;" horiz-adv-x="1349" 
d="M676 1483q-100 0 -170 65.5t-70 157.5q0 94 69.5 159.5t170.5 65.5t170 -65.5t69 -159.5q0 -92 -69.5 -157.5t-169.5 -65.5zM59 0l596 1407h25l610 -1407h-225l-80 197h-637l-80 -197h-209zM676 1604q43 0 70.5 27.5t27.5 74.5q0 49 -27 76.5t-71 27.5t-71 -27.5
t-27 -76.5q0 -47 27.5 -74.5t70.5 -27.5zM422 379h485l-174 434q-16 36 -33 88t-26 85l-10 34q-33 -125 -68 -207z" />
    <glyph glyph-name="AE" unicode="&#xc6;" horiz-adv-x="1988" 
d="M43 0l942 1393h854v-191h-668v-540h592v-187h-592v-285h697v-190h-912v197h-553l-131 -197h-229zM530 383h426v518q0 35 4 81t8 74l5 29q-41 -95 -86 -163z" />
    <glyph glyph-name="Ccedilla" unicode="&#xc7;" horiz-adv-x="1488" 
d="M717 -12q-129 18 -241.5 78t-194.5 151t-129.5 215.5t-47.5 263.5q0 153 56.5 286.5t152.5 226.5t227.5 146.5t278.5 53.5q373 0 557 -276l-166 -119q-61 94 -160 147t-231 53q-216 0 -354.5 -147t-138.5 -371t139 -372t354 -148q264 0 412 219l166 -116
q-92 -138 -235 -216t-328 -81v-76q75 -13 125.5 -64.5t50.5 -134.5q0 -86 -62 -138t-145 -52q-158 0 -225 123l106 63q33 -68 102 -68q36 0 61 21.5t25 60.5t-26.5 62.5t-73.5 23.5h-55v185z" />
    <glyph glyph-name="Egrave" unicode="&#xc8;" horiz-adv-x="1202" 
d="M553 1538l-201 389h238l123 -389h-160zM168 0v1393h885v-191h-668v-540h592v-187h-592v-285h696v-190h-913z" />
    <glyph glyph-name="Eacute" unicode="&#xc9;" horiz-adv-x="1202" 
d="M528 1538l123 389h238l-201 -389h-160zM168 0v1393h885v-191h-668v-540h592v-187h-592v-285h696v-190h-913z" />
    <glyph glyph-name="Ecircumflex" unicode="&#xca;" horiz-adv-x="1202" 
d="M313 1536l293 418h23l293 -418h-170l-134 170l-135 -170h-170zM168 0v1393h885v-191h-668v-540h592v-187h-592v-285h696v-190h-913z" />
    <glyph glyph-name="Edieresis" unicode="&#xcb;" horiz-adv-x="1202" 
d="M815 1563q-48 0 -85.5 37t-37.5 88q0 50 37.5 86t85.5 36q50 0 87.5 -36t37.5 -86q0 -52 -37.5 -88.5t-87.5 -36.5zM418 1563q-50 0 -87.5 36.5t-37.5 88.5q0 50 37.5 86t87.5 36t86.5 -35.5t36.5 -86.5q0 -52 -36.5 -88.5t-86.5 -36.5zM168 0v1393h885v-191h-668v-540
h592v-187h-592v-285h696v-190h-913z" />
    <glyph glyph-name="Igrave" unicode="&#xcc;" horiz-adv-x="565" 
d="M199 1538l-201 389h238l122 -389h-159zM176 0v1393h215v-1393h-215z" />
    <glyph glyph-name="Iacute" unicode="&#xcd;" horiz-adv-x="565" 
d="M205 1538l123 389h237l-200 -389h-160zM176 0v1393h215v-1393h-215z" />
    <glyph glyph-name="Icircumflex" unicode="&#xce;" horiz-adv-x="567" 
d="M-23 1536l293 418h23l293 -418h-170l-133 170l-136 -170h-170zM176 0v1393h215v-1393h-215z" />
    <glyph glyph-name="Idieresis" unicode="&#xcf;" horiz-adv-x="563" 
d="M479 1563q-48 0 -85.5 37t-37.5 88q0 50 37.5 86t85.5 36q50 0 87.5 -36t37.5 -86q0 -52 -37.5 -88.5t-87.5 -36.5zM82 1563q-50 0 -87.5 36.5t-37.5 88.5q0 50 37.5 86t87.5 36t86.5 -35.5t36.5 -86.5q0 -52 -36.5 -88.5t-86.5 -36.5zM176 0v1393h215v-1393h-215z" />
    <glyph glyph-name="Eth" unicode="&#xd0;" horiz-adv-x="1396" 
d="M168 0v492h-141v186h141v715h391q217 0 384.5 -88t259 -246.5t91.5 -362.5q0 -310 -202.5 -503t-532.5 -193h-391zM385 190h162q257 0 389.5 137.5t132.5 368.5t-132.5 368.5t-389.5 137.5h-162v-524h342v-186h-342v-302z" />
    <glyph glyph-name="Ntilde" unicode="&#xd1;" horiz-adv-x="1447" 
d="M545 1532l-146 14q6 122 61 189t140 67q68 0 135 -53q6 -4 17 -12.5t15 -12t12.5 -9t12.5 -8t10.5 -6t11 -4.5t10.5 -2t12 -1q56 0 65 106l146 -14q-6 -123 -60 -189.5t-141 -66.5q-66 0 -135 55q-8 6 -21.5 16.5t-19 14.5t-14.5 10t-14.5 8t-13.5 4t-16 2
q-58 0 -67 -108zM1253 -14l-768 827q-24 26 -57 65t-54 65l-20 26q15 -115 15 -201v-768h-201v1407h29l768 -825q24 -25 56 -64t53 -66l20 -26q-15 123 -15 201v766h201v-1407h-27z" />
    <glyph glyph-name="Ograve" unicode="&#xd2;" horiz-adv-x="1644" 
d="M743 1538l-200 389h237l123 -389h-160zM823 -18q-198 0 -362 91t-260.5 255t-96.5 368q0 153 56.5 286.5t153 227.5t229 147.5t280.5 53.5q147 0 279 -53.5t228.5 -147t153 -227.5t56.5 -287q0 -204 -96 -368t-260 -255t-361 -91zM823 176q217 0 356.5 148t139.5 372
t-139.5 372.5t-356.5 148.5t-357 -148.5t-140 -372.5t140 -372t357 -148z" />
    <glyph glyph-name="Oacute" unicode="&#xd3;" horiz-adv-x="1644" 
d="M743 1538l123 389h238l-201 -389h-160zM823 -18q-198 0 -362 91t-260.5 255t-96.5 368q0 153 56.5 286.5t153 227.5t229 147.5t280.5 53.5q147 0 279 -53.5t228.5 -147t153 -227.5t56.5 -287q0 -204 -96 -368t-260 -255t-361 -91zM823 176q217 0 356.5 148t139.5 372
t-139.5 372.5t-356.5 148.5t-357 -148.5t-140 -372.5t140 -372t357 -148z" />
    <glyph glyph-name="Ocircumflex" unicode="&#xd4;" horiz-adv-x="1644" 
d="M518 1536l293 418h23l292 -418h-170l-133 170l-135 -170h-170zM823 -18q-198 0 -362 91t-260.5 255t-96.5 368q0 153 56.5 286.5t153 227.5t229 147.5t280.5 53.5q147 0 279 -53.5t228.5 -147t153 -227.5t56.5 -287q0 -204 -96 -368t-260 -255t-361 -91zM823 176
q217 0 356.5 148t139.5 372t-139.5 372.5t-356.5 148.5t-357 -148.5t-140 -372.5t140 -372t357 -148z" />
    <glyph glyph-name="Otilde" unicode="&#xd5;" horiz-adv-x="1644" 
d="M645 1532l-145 14q6 123 61 189.5t139 66.5q69 0 136 -53q7 -5 19 -14.5t17 -13t13.5 -9.5t13 -8t11.5 -5t13 -4t13 -1q56 0 65 106l146 -14q-6 -123 -60 -189.5t-141 -66.5q-66 0 -135 55q-8 6 -25 19t-22 17t-15.5 10t-18 7.5t-17.5 1.5q-59 0 -68 -108zM823 -18
q-198 0 -362 91t-260.5 255t-96.5 368q0 153 56.5 286.5t153 227.5t229 147.5t280.5 53.5q147 0 279 -53.5t228.5 -147t153 -227.5t56.5 -287q0 -204 -96 -368t-260 -255t-361 -91zM823 176q217 0 356.5 148t139.5 372t-139.5 372.5t-356.5 148.5t-357 -148.5t-140 -372.5
t140 -372t357 -148z" />
    <glyph glyph-name="Odieresis" unicode="&#xd6;" horiz-adv-x="1644" 
d="M1022 1563q-48 0 -85.5 37t-37.5 88q0 50 37.5 86t85.5 36q50 0 87.5 -36t37.5 -86q0 -52 -37.5 -88.5t-87.5 -36.5zM625 1563q-50 0 -87.5 36.5t-37.5 88.5q0 50 37.5 86t87.5 36t86.5 -35.5t36.5 -86.5q0 -52 -36.5 -88.5t-86.5 -36.5zM823 -18q-198 0 -362 91
t-260.5 255t-96.5 368q0 153 56.5 286.5t153 227.5t229 147.5t280.5 53.5q147 0 279 -53.5t228.5 -147t153 -227.5t56.5 -287q0 -204 -96 -368t-260 -255t-361 -91zM823 176q217 0 356.5 148t139.5 372t-139.5 372.5t-356.5 148.5t-357 -148.5t-140 -372.5t140 -372
t357 -148z" />
    <glyph glyph-name="multiply" unicode="&#xd7;" 
d="M227 371q-58 0 -99.5 40.5t-41.5 102.5q0 60 41.5 99.5t99.5 39.5q57 0 98.5 -39.5t41.5 -99.5q0 -62 -41.5 -102.5t-98.5 -40.5z" />
    <glyph glyph-name="Oslash" unicode="&#xd8;" horiz-adv-x="1640" 
d="M209 -20l-121 118l162 158q-148 191 -148 440q0 152 56.5 285.5t153 227t229 148t280.5 54.5q255 0 451 -156l160 156l120 -119l-159 -157q145 -189 145 -439q0 -151 -56.5 -284.5t-153 -227.5t-228.5 -148t-279 -54q-257 0 -450 153zM406 408l720 708q-125 103 -305 103
q-217 0 -357 -149.5t-140 -373.5q0 -164 82 -288zM821 174q217 0 357.5 149t140.5 373q0 160 -82 289l-723 -709q127 -102 307 -102z" />
    <glyph glyph-name="Ugrave" unicode="&#xd9;" horiz-adv-x="1380" 
d="M610 1538l-200 389h237l123 -389h-160zM690 -18q-115 0 -211 32t-167.5 94t-111.5 159.5t-40 221.5v904h217v-891q0 -326 313 -326q316 0 316 326v891h215v-904q0 -124 -40.5 -221.5t-112.5 -159.5t-168 -94t-210 -32z" />
    <glyph glyph-name="Uacute" unicode="&#xda;" horiz-adv-x="1380" 
d="M610 1538l123 389h238l-201 -389h-160zM690 -18q-115 0 -211 32t-167.5 94t-111.5 159.5t-40 221.5v904h217v-891q0 -326 313 -326q316 0 316 326v891h215v-904q0 -124 -40.5 -221.5t-112.5 -159.5t-168 -94t-210 -32z" />
    <glyph glyph-name="Ucircumflex" unicode="&#xdb;" horiz-adv-x="1380" 
d="M385 1536l293 418h22l293 -418h-170l-133 170l-135 -170h-170zM690 -18q-115 0 -211 32t-167.5 94t-111.5 159.5t-40 221.5v904h217v-891q0 -326 313 -326q316 0 316 326v891h215v-904q0 -124 -40.5 -221.5t-112.5 -159.5t-168 -94t-210 -32z" />
    <glyph glyph-name="Udieresis" unicode="&#xdc;" horiz-adv-x="1380" 
d="M889 1563q-48 0 -85.5 37t-37.5 88q0 50 37.5 86t85.5 36q50 0 87.5 -36t37.5 -86q0 -52 -37.5 -88.5t-87.5 -36.5zM492 1563q-50 0 -87.5 36.5t-37.5 88.5q0 50 37.5 86t87.5 36t86 -35.5t36 -86.5q0 -52 -36 -88.5t-86 -36.5zM690 -18q-115 0 -211 32t-167.5 94
t-111.5 159.5t-40 221.5v904h217v-891q0 -326 313 -326q316 0 316 326v891h215v-904q0 -124 -40.5 -221.5t-112.5 -159.5t-168 -94t-210 -32z" />
    <glyph glyph-name="Yacute" unicode="&#xdd;" horiz-adv-x="1368" 
d="M606 1538l123 389h238l-201 -389h-160zM588 0v440l-529 953h240l315 -574q19 -35 40 -85t32 -83l12 -33q43 123 84 201l305 574h224l-506 -940v-453h-217z" />
    <glyph glyph-name="Thorn" unicode="&#xde;" horiz-adv-x="1212" 
d="M168 0v1393h217v-156h139q281 0 436.5 -144t155.5 -388q0 -243 -156 -386t-436 -143h-139v-176h-217zM385 365h131q379 0 379 340q0 342 -379 342h-131v-682z" />
    <glyph glyph-name="germandbls" unicode="&#xdf;" horiz-adv-x="1173" 
d="M788 -18q-122 0 -210.5 50.5t-133.5 127.5l140 102q75 -115 196 -115q65 0 99 26.5t34 70.5q0 47 -38 74t-140 67q-54 22 -90.5 42t-70 50t-50 72t-16.5 96q0 83 37 184l88 230q26 64 26 127q0 71 -41.5 109t-111.5 38q-168 0 -168 -217v-1116h-207v1114q0 102 30.5 179
t83.5 122.5t118 67.5t141 22q67 0 126.5 -17.5t110.5 -53.5t81 -99t30 -145q0 -93 -37 -186l-86 -226q-24 -62 -24 -100q0 -49 30 -72.5t117 -58.5q124 -52 191 -118t67 -171q0 -124 -75.5 -200t-246.5 -76z" />
    <glyph glyph-name="agrave" unicode="&#xe0;" horiz-adv-x="1118" 
d="M434 1022l-201 389h238l123 -389h-160zM485 -18q-166 0 -280.5 128.5t-114.5 321.5t114 320t283 127q105 0 179 -47t116 -130l-2 158h207v-860h-207l2 160q-38 -80 -116 -129t-181 -49zM541 164q113 0 178 73t65 193q0 119 -65 191.5t-178 72.5q-109 0 -172.5 -72
t-63.5 -190q0 -121 63.5 -194.5t172.5 -73.5z" />
    <glyph glyph-name="aacute" unicode="&#xe1;" horiz-adv-x="1118" 
d="M436 1022l123 389h238l-201 -389h-160zM485 -18q-166 0 -280.5 128.5t-114.5 321.5t114 320t283 127q105 0 179 -47t116 -130l-2 158h207v-860h-207l2 160q-38 -80 -116 -129t-181 -49zM541 164q113 0 178 73t65 193q0 119 -65 191.5t-178 72.5q-109 0 -172.5 -72
t-63.5 -190q0 -121 63.5 -194.5t172.5 -73.5z" />
    <glyph glyph-name="acircumflex" unicode="&#xe2;" horiz-adv-x="1118" 
d="M244 1020l293 418h22l293 -418h-170l-133 170l-135 -170h-170zM485 -18q-166 0 -280.5 128.5t-114.5 321.5t114 320t283 127q105 0 179 -47t116 -130l-2 158h207v-860h-207l2 160q-38 -80 -116 -129t-181 -49zM541 164q113 0 178 73t65 193q0 119 -65 191.5t-178 72.5
q-109 0 -172.5 -72t-63.5 -190q0 -121 63.5 -194.5t172.5 -73.5z" />
    <glyph glyph-name="atilde" unicode="&#xe3;" horiz-adv-x="1118" 
d="M365 1016l-146 14q6 122 61 189t140 67q68 0 135 -53q7 -5 19 -14.5t17 -13t13.5 -9.5t13 -8t11.5 -5t13 -4t13 -1q57 0 66 106l145 -14q-6 -124 -59.5 -190t-140.5 -66q-67 0 -136 55q-8 6 -25 19t-22 17t-15.5 10t-18 7.5t-17.5 1.5q-58 0 -67 -108zM485 -18
q-166 0 -280.5 128.5t-114.5 321.5t114 320t283 127q105 0 179 -47t116 -130l-2 158h207v-860h-207l2 160q-38 -80 -116 -129t-181 -49zM541 164q113 0 178 73t65 193q0 119 -65 191.5t-178 72.5q-109 0 -172.5 -72t-63.5 -190q0 -121 63.5 -194.5t172.5 -73.5z" />
    <glyph glyph-name="adieresis" unicode="&#xe4;" horiz-adv-x="1118" 
d="M748 1047q-48 0 -85.5 36.5t-37.5 87.5q0 50 37.5 86.5t85.5 36.5q50 0 87 -36t37 -87q0 -52 -37 -88t-87 -36zM350 1047q-50 0 -87.5 36t-37.5 88q0 50 37.5 86.5t87.5 36.5t86.5 -36t36.5 -87q0 -52 -36.5 -88t-86.5 -36zM485 -18q-166 0 -280.5 128.5t-114.5 321.5
t114 320t283 127q105 0 179 -47t116 -130l-2 158h207v-860h-207l2 160q-38 -80 -116 -129t-181 -49zM541 164q113 0 178 73t65 193q0 119 -65 191.5t-178 72.5q-109 0 -172.5 -72t-63.5 -190q0 -121 63.5 -194.5t172.5 -73.5z" />
    <glyph glyph-name="aring" unicode="&#xe5;" horiz-adv-x="1118" 
d="M528 981q-100 0 -169.5 65.5t-69.5 157.5q0 94 69 160t170 66t170.5 -66t69.5 -160q0 -92 -70 -157.5t-170 -65.5zM485 -18q-166 0 -280.5 128.5t-114.5 321.5t114 320t283 127q105 0 179 -47t116 -130l-2 158h207v-860h-207l2 160q-38 -80 -116 -129t-181 -49zM528 1102
q44 0 71.5 28t27.5 74q0 49 -27.5 77t-71.5 28t-71 -28t-27 -77q0 -47 27.5 -74.5t70.5 -27.5zM541 164q113 0 178 73t65 193q0 119 -65 191.5t-178 72.5q-109 0 -172.5 -72t-63.5 -190q0 -121 63.5 -194.5t172.5 -73.5z" />
    <glyph glyph-name="ae" unicode="&#xe6;" horiz-adv-x="1642" 
d="M651 512q0 195 -172 195q-134 0 -225 -103l-119 121q62 74 147.5 114t213.5 40q208 0 280 -166q56 77 142 121.5t192 44.5q216 0 335.5 -144.5t108.5 -374.5h-694q19 -95 89.5 -149.5t183.5 -54.5q149 0 245 92l121 -127q-139 -139 -364 -139q-125 0 -218.5 46
t-150.5 130q-42 -85 -133.5 -130.5t-210.5 -45.5q-159 0 -251.5 65.5t-92.5 206.5q0 128 92 193t246 65h235zM860 504h486q-14 93 -72.5 148t-163.5 55q-99 0 -165 -53.5t-85 -149.5zM651 369h-221q-149 0 -149 -109q0 -113 163 -113q92 0 149.5 42t57.5 112v68z" />
    <glyph glyph-name="ccedilla" unicode="&#xe7;" horiz-adv-x="968" 
d="M436 -6q-155 34 -251.5 153.5t-96.5 282.5q0 192 131.5 320.5t327.5 128.5q117 0 200 -41.5t148 -122.5l-147 -119q-32 46 -84.5 73t-116.5 27q-113 0 -179.5 -74t-66.5 -192t66.5 -192t179.5 -74q126 0 211 96l141 -123q-65 -75 -147.5 -114.5t-198.5 -40.5v-76
q75 -13 125.5 -64.5t50.5 -134.5q0 -86 -62 -138t-145 -52q-158 0 -225 123l106 63q33 -68 103 -68q36 0 61 21.5t25 60.5t-26.5 62.5t-73.5 23.5h-56v191z" />
    <glyph glyph-name="egrave" unicode="&#xe8;" horiz-adv-x="1079" 
d="M473 1022l-201 389h238l123 -389h-160zM299 360q19 -96 87.5 -150t184.5 -54q148 0 244 92l121 -127q-139 -139 -363 -139q-218 0 -351.5 126t-133.5 322q0 191 132.5 320t326.5 129q216 0 335.5 -144.5t108.5 -374.5h-692zM299 504h483q-14 93 -72 148t-161 55
q-100 0 -165.5 -53t-84.5 -150z" />
    <glyph glyph-name="eacute" unicode="&#xe9;" horiz-adv-x="1079" 
d="M459 1022l123 389h237l-201 -389h-159zM299 360q19 -96 87.5 -150t184.5 -54q148 0 244 92l121 -127q-139 -139 -363 -139q-218 0 -351.5 126t-133.5 322q0 191 132.5 320t326.5 129q216 0 335.5 -144.5t108.5 -374.5h-692zM299 504h483q-14 93 -72 148t-161 55
q-100 0 -165.5 -53t-84.5 -150z" />
    <glyph glyph-name="ecircumflex" unicode="&#xea;" horiz-adv-x="1079" 
d="M233 1020l293 418h23l293 -418h-170l-133 170l-136 -170h-170zM299 360q19 -96 87.5 -150t184.5 -54q148 0 244 92l121 -127q-139 -139 -363 -139q-218 0 -351.5 126t-133.5 322q0 191 132.5 320t326.5 129q216 0 335.5 -144.5t108.5 -374.5h-692zM299 504h483
q-14 93 -72 148t-161 55q-100 0 -165.5 -53t-84.5 -150z" />
    <glyph glyph-name="edieresis" unicode="&#xeb;" horiz-adv-x="1079" 
d="M737 1047q-48 0 -85.5 36.5t-37.5 87.5q0 50 37.5 86.5t85.5 36.5q50 0 87.5 -36.5t37.5 -86.5q0 -52 -37.5 -88t-87.5 -36zM340 1047q-50 0 -87.5 36t-37.5 88q0 50 37.5 86.5t87.5 36.5t86.5 -36t36.5 -87q0 -52 -36.5 -88t-86.5 -36zM299 360q19 -96 87.5 -150
t184.5 -54q148 0 244 92l121 -127q-139 -139 -363 -139q-218 0 -351.5 126t-133.5 322q0 191 132.5 320t326.5 129q216 0 335.5 -144.5t108.5 -374.5h-692zM299 504h483q-14 93 -72 148t-161 55q-100 0 -165.5 -53t-84.5 -150z" />
    <glyph glyph-name="igrave" unicode="&#xec;" horiz-adv-x="483" 
d="M160 1022l-201 389h238l122 -389h-159zM137 0v860h209v-860h-209z" />
    <glyph glyph-name="iacute" unicode="&#xed;" horiz-adv-x="483" 
d="M156 1022l123 389h237l-201 -389h-159zM137 0v860h209v-860h-209z" />
    <glyph glyph-name="icircumflex" unicode="&#xee;" horiz-adv-x="485" 
d="M-63 1020l292 418h23l293 -418h-170l-133 170l-136 -170h-169zM137 0v860h209v-860h-209z" />
    <glyph glyph-name="idieresis" unicode="&#xef;" horiz-adv-x="483" 
d="M440 1047q-48 0 -85.5 36.5t-37.5 87.5q0 50 37.5 86.5t85.5 36.5q50 0 87.5 -36.5t37.5 -86.5q0 -52 -37.5 -88t-87.5 -36zM43 1047q-50 0 -87.5 36t-37.5 88q0 50 37.5 86.5t87.5 36.5t86.5 -36t36.5 -87q0 -52 -36.5 -88t-86.5 -36zM137 0v860h209v-860h-209z" />
    <glyph glyph-name="eth" unicode="&#xf0;" horiz-adv-x="1103" 
d="M557 1130l-129 -122l-98 98l135 129q-77 79 -156 147l111 131q101 -79 176 -149l125 121l100 -99l-129 -124q324 -367 324 -801q0 -217 -131 -348t-332 -131q-196 0 -330.5 128.5t-134.5 319.5q0 94 36 178.5t95.5 143t139 93t163.5 34.5q143 0 230 -93q-50 160 -195 344
zM553 160q114 0 182 76t68 198q0 117 -68 190.5t-182 73.5q-115 0 -183.5 -74t-68.5 -194t69 -195t183 -75z" />
    <glyph glyph-name="ntilde" unicode="&#xf1;" horiz-adv-x="1069" 
d="M354 1016l-145 14q6 122 61 189t140 67q68 0 135 -53q7 -5 19 -14.5t17 -13t13.5 -9.5t13 -8t11.5 -5t13 -4t13 -1q57 0 66 106l145 -14q-6 -123 -60 -189.5t-141 -66.5q-66 0 -135 55q-8 6 -25 19t-22 17t-15.5 10t-18 7.5t-17.5 1.5q-59 0 -68 -108zM131 0v860h207
l-4 -160q40 84 117 131.5t174 47.5q145 0 233 -98.5t88 -270.5v-510h-207v494q0 194 -178 194q-102 0 -162.5 -59t-60.5 -162v-467h-207z" />
    <glyph glyph-name="ograve" unicode="&#xf2;" horiz-adv-x="1103" 
d="M467 1022l-201 389h238l123 -389h-160zM553 -18q-196 0 -330.5 128.5t-134.5 319.5t134.5 320t330.5 129q197 0 330 -128.5t133 -320.5t-133 -320t-330 -128zM553 160q114 0 182 75t68 195t-68 194t-182 74q-115 0 -183.5 -74t-68.5 -194t69 -195t183 -75z" />
    <glyph glyph-name="oacute" unicode="&#xf3;" horiz-adv-x="1103" 
d="M475 1022l123 389h238l-201 -389h-160zM553 -18q-196 0 -330.5 128.5t-134.5 319.5t134.5 320t330.5 129q197 0 330 -128.5t133 -320.5t-133 -320t-330 -128zM553 160q114 0 182 75t68 195t-68 194t-182 74q-115 0 -183.5 -74t-68.5 -194t69 -195t183 -75z" />
    <glyph glyph-name="ocircumflex" unicode="&#xf4;" horiz-adv-x="1103" 
d="M246 1020l293 418h22l293 -418h-170l-133 170l-135 -170h-170zM553 -18q-196 0 -330.5 128.5t-134.5 319.5t134.5 320t330.5 129q197 0 330 -128.5t133 -320.5t-133 -320t-330 -128zM553 160q114 0 182 75t68 195t-68 194t-182 74q-115 0 -183.5 -74t-68.5 -194t69 -195
t183 -75z" />
    <glyph glyph-name="otilde" unicode="&#xf5;" horiz-adv-x="1103" 
d="M373 1016l-146 14q6 122 61 189t140 67q68 0 135 -53q6 -4 17 -12.5t15 -12t12.5 -9t12.5 -8t10.5 -6t11 -4.5t10.5 -2t12 -1q56 0 65 106l145 -14q-6 -124 -59.5 -190t-140.5 -66q-66 0 -135 55q-8 6 -21.5 16.5t-19 14.5t-14.5 10t-14.5 8t-13.5 4t-16 2
q-58 0 -67 -108zM553 -18q-196 0 -330.5 128.5t-134.5 319.5t134.5 320t330.5 129q197 0 330 -128.5t133 -320.5t-133 -320t-330 -128zM553 160q114 0 182 75t68 195t-68 194t-182 74q-115 0 -183.5 -74t-68.5 -194t69 -195t183 -75z" />
    <glyph glyph-name="odieresis" unicode="&#xf6;" horiz-adv-x="1103" 
d="M750 1047q-48 0 -85.5 36.5t-37.5 87.5q0 50 37.5 86.5t85.5 36.5q50 0 87 -36t37 -87q0 -52 -37 -88t-87 -36zM352 1047q-50 0 -87.5 36t-37.5 88q0 50 37.5 86.5t87.5 36.5t86.5 -36t36.5 -87q0 -52 -36.5 -88t-86.5 -36zM553 -18q-196 0 -330.5 128.5t-134.5 319.5
t134.5 320t330.5 129q197 0 330 -128.5t133 -320.5t-133 -320t-330 -128zM553 160q114 0 182 75t68 195t-68 194t-182 74q-115 0 -183.5 -74t-68.5 -194t69 -195t183 -75z" />
    <glyph glyph-name="divide" unicode="&#xf7;" 
d="M227 371q-58 0 -99.5 40.5t-41.5 102.5q0 60 41.5 99.5t99.5 39.5q57 0 98.5 -39.5t41.5 -99.5q0 -62 -41.5 -102.5t-98.5 -40.5z" />
    <glyph glyph-name="oslash" unicode="&#xf8;" horiz-adv-x="1103" 
d="M936 682q80 -113 80 -252q0 -192 -133 -320t-330 -128q-168 0 -295 100l-123 -109l-86 99l119 104q-80 116 -80 254q0 191 134.5 320t330.5 129q165 0 293 -101l123 109l86 -101zM313 307l396 350q-63 48 -156 48q-116 0 -189 -77t-73 -198q0 -65 22 -123zM791 553
l-398 -350q66 -51 160 -51q117 0 188.5 77.5t71.5 200.5q0 65 -22 123z" />
    <glyph glyph-name="ugrave" unicode="&#xf9;" horiz-adv-x="1044" 
d="M444 1022l-200 389h237l123 -389h-160zM514 -20q-188 0 -289.5 106.5t-101.5 296.5v477h207v-471q0 -113 46 -170t146 -57q101 0 147 57t46 170v471h207v-477q0 -189 -108 -296t-300 -107z" />
    <glyph glyph-name="uacute" unicode="&#xfa;" horiz-adv-x="1044" 
d="M440 1022l123 389h238l-201 -389h-160zM514 -20q-188 0 -289.5 106.5t-101.5 296.5v477h207v-471q0 -113 46 -170t146 -57q101 0 147 57t46 170v471h207v-477q0 -189 -108 -296t-300 -107z" />
    <glyph glyph-name="ucircumflex" unicode="&#xfb;" horiz-adv-x="1044" 
d="M221 1020l293 418h23l292 -418h-170l-133 170l-135 -170h-170zM514 -20q-188 0 -289.5 106.5t-101.5 296.5v477h207v-471q0 -113 46 -170t146 -57q101 0 147 57t46 170v471h207v-477q0 -189 -108 -296t-300 -107z" />
    <glyph glyph-name="udieresis" unicode="&#xfc;" horiz-adv-x="1044" 
d="M723 1047q-48 0 -85.5 36.5t-37.5 87.5q0 50 37.5 86.5t85.5 36.5q50 0 87.5 -36.5t37.5 -86.5q0 -52 -37.5 -88t-87.5 -36zM326 1047q-50 0 -87.5 36t-37.5 88q0 50 37.5 86.5t87.5 36.5t86.5 -36t36.5 -87q0 -52 -36.5 -88t-86.5 -36zM514 -20q-188 0 -289.5 106.5
t-101.5 296.5v477h207v-471q0 -113 46 -170t146 -57q101 0 147 57t46 170v471h207v-477q0 -189 -108 -296t-300 -107z" />
    <glyph glyph-name="yacute" unicode="&#xfd;" horiz-adv-x="974" 
d="M418 1022l123 389h237l-200 -389h-160zM164 -434l223 512l-352 782h229l180 -430q13 -29 25.5 -73.5t18.5 -74.5l6 -30q18 112 47 178l184 430h215l-563 -1294h-213z" />
    <glyph glyph-name="thorn" unicode="&#xfe;" horiz-adv-x="1134" 
d="M137 -434v1913h207v-768q101 168 303 168q167 0 282 -127t115 -320t-116.5 -321.5t-284.5 -128.5q-104 0 -181.5 45t-117.5 120v-581h-207zM588 164q110 0 175.5 73t65.5 195q0 118 -65.5 190t-175.5 72q-113 0 -181.5 -72t-68.5 -190q0 -122 68 -195t182 -73z" />
    <glyph glyph-name="ydieresis" unicode="&#xff;" horiz-adv-x="974" 
d="M684 1047q-48 0 -85.5 36.5t-37.5 87.5q0 50 37.5 86.5t85.5 36.5q50 0 87.5 -36.5t37.5 -86.5q0 -52 -37.5 -88t-87.5 -36zM287 1047q-50 0 -87.5 36t-37.5 88q0 50 37.5 86.5t87.5 36.5t86.5 -36t36.5 -87q0 -52 -36.5 -88t-86.5 -36zM164 -434l223 512l-352 782h229
l180 -430q13 -29 25.5 -73.5t18.5 -74.5l6 -30q18 112 47 178l184 430h215l-563 -1294h-213z" />
    <glyph glyph-name="dotlessi" unicode="&#x131;" horiz-adv-x="483" 
d="M137 0v860h209v-860h-209z" />
    <glyph glyph-name="Lslash" unicode="&#x141;" horiz-adv-x="1128" 
d="M182 0v385l-153 -55v190l153 55v818h215v-740l389 144v-191l-389 -143v-273h645v-190h-860z" />
    <glyph glyph-name="lslash" unicode="&#x142;" horiz-adv-x="567" 
d="M180 0v440l-157 -92v203l157 92v836h207v-719l166 98v-203l-166 -98v-557h-207z" />
    <glyph glyph-name="OE" unicode="&#x152;" horiz-adv-x="2031" 
d="M836 0q-163 0 -300 51t-232.5 142t-148.5 220.5t-53 282.5q0 310 202 503.5t532 193.5h1046v-191h-668v-540h592v-187h-592v-285h697v-190h-1075zM848 190h149v1012h-149q-257 0 -390.5 -137.5t-133.5 -368.5t133.5 -368.5t390.5 -137.5z" />
    <glyph glyph-name="oe" unicode="&#x153;" horiz-adv-x="1792" 
d="M1010 360q19 -96 87.5 -150t184.5 -54q148 0 244 92l121 -127q-139 -139 -363 -139q-131 0 -226.5 52t-148.5 144q-51 -92 -142.5 -144t-213.5 -52q-196 0 -330.5 128.5t-134.5 319.5t134.5 320t330.5 129q122 0 212.5 -51.5t141.5 -143.5q51 91 142 143t211 52
q143 0 246.5 -67t153 -184t42.5 -268h-692zM1010 504h483q-14 93 -72 148t-161 55q-100 0 -165.5 -53t-84.5 -150zM553 160q114 0 182 75t68 195t-68 194t-182 74q-115 0 -183.5 -74t-68.5 -194t69 -195t183 -75z" />
    <glyph glyph-name="Scaron" unicode="&#x160;" horiz-adv-x="1091" 
d="M508 1509l-293 418h170l133 -170l135 170h170l-293 -418h-22zM545 -18q-187 0 -312.5 79.5t-189.5 208.5l178 99q57 -94 129.5 -144.5t190.5 -50.5q106 0 173.5 52.5t67.5 138.5q0 85 -53.5 135t-179.5 106l-92 41q-166 73 -246 164.5t-80 243.5q0 156 109 255t282 99
q138 0 234 -53.5t159 -165.5l-170 -105q-41 71 -92 103.5t-131 32.5q-82 0 -131 -45t-49 -117q0 -75 45 -120t156 -93l90 -41q190 -83 277 -180.5t87 -257.5q0 -179 -125.5 -282t-326.5 -103z" />
    <glyph glyph-name="scaron" unicode="&#x161;" horiz-adv-x="849" 
d="M399 993l-293 418h170l134 -170l135 170h170l-293 -418h-23zM438 -18q-138 0 -238 51t-147 127l142 98q77 -111 231 -111q152 0 152 93q0 43 -34 62.5t-130 45.5q-29 8 -45 12q-43 12 -76 25t-68 34.5t-58 48.5t-37.5 67.5t-14.5 89.5q0 124 86 189t221 65
q181 0 299 -129l-121 -119q-73 84 -178 84q-58 0 -89.5 -21t-31.5 -59q0 -46 37 -65.5t151 -49.5q48 -12 82 -24t75 -34t66 -48.5t42.5 -68.5t17.5 -95q0 -120 -80.5 -194t-253.5 -74z" />
    <glyph glyph-name="Ydieresis" unicode="&#x178;" horiz-adv-x="1368" 
d="M883 1563q-48 0 -85.5 37t-37.5 88q0 50 37.5 86t85.5 36q50 0 87.5 -36t37.5 -86q0 -52 -37.5 -88.5t-87.5 -36.5zM485 1563q-50 0 -87.5 36.5t-37.5 88.5q0 50 37.5 86t87.5 36t86.5 -35.5t36.5 -86.5q0 -52 -36.5 -88.5t-86.5 -36.5zM588 0v440l-529 953h240l315 -574
q19 -35 40 -85t32 -83l12 -33q43 123 84 201l305 574h224l-506 -940v-453h-217z" />
    <glyph glyph-name="Zcaron" unicode="&#x17d;" horiz-adv-x="1224" 
d="M623 1509l-293 418h170l133 -170l135 170h170l-293 -418h-22zM68 0v23l704 1179h-592v191h930v-23l-700 -1180h686v-190h-1028z" />
    <glyph glyph-name="zcaron" unicode="&#x17e;" horiz-adv-x="894" 
d="M453 993l-293 418h170l133 -170l135 170h170l-293 -418h-22zM57 0v23l443 669h-394v168h711v-22l-444 -670h422v-168h-738z" />
    <glyph glyph-name="florin" unicode="&#x192;" horiz-adv-x="794" 
d="M420 487l-105 -921h-202l104 921h-139v162h158l51 453q36 307 297 307q155 0 237 -117l-131 -114q-20 29 -41 42t-55 13q-88 0 -102 -119l-54 -465h211v-162h-229z" />
    <glyph glyph-name="circumflex" unicode="&#x2c6;" horiz-adv-x="1024" 
d="M207 1020l293 418h22l293 -418h-170l-133 170l-135 -170h-170z" />
    <glyph glyph-name="caron" unicode="&#x2c7;" horiz-adv-x="1024" 
d="M502 993l-293 418h170l133 -170l135 170h170l-293 -418h-22z" />
    <glyph glyph-name="breve" unicode="&#x2d8;" horiz-adv-x="1024" 
d="M512 1012q-128 0 -206.5 72.5t-92.5 189.5l162 24q25 -131 137 -131t137 131l162 -24q-14 -117 -92.5 -189.5t-206.5 -72.5z" />
    <glyph glyph-name="dotaccent" unicode="&#x2d9;" horiz-adv-x="1024" 
d="M512 1047q-49 0 -87 36.5t-38 87.5t38.5 88t86.5 37q50 0 87.5 -36.5t37.5 -88.5t-37.5 -88t-87.5 -36z" />
    <glyph glyph-name="ring" unicode="&#x2da;" horiz-adv-x="1024" 
d="M512 981q-100 0 -170 65.5t-70 157.5q0 94 69.5 160t170.5 66t170.5 -66t69.5 -160q0 -92 -70 -157.5t-170 -65.5zM512 1102q43 0 70.5 27.5t27.5 74.5q0 49 -27 77t-71 28t-71 -28t-27 -77q0 -47 27.5 -74.5t70.5 -27.5z" />
    <glyph glyph-name="ogonek" unicode="&#x2db;" horiz-adv-x="1024" 
d="M492 -483q-85 0 -144 50.5t-59 143.5q0 95 82 199l69 90h131l-77 -129q-28 -47 -37 -63t-17 -41t-8 -52q0 -36 20 -55.5t52 -19.5q58 0 96 63l109 -63q-65 -123 -217 -123z" />
    <glyph glyph-name="tilde" unicode="&#x2dc;" horiz-adv-x="1024" 
d="M334 1016l-146 14q6 122 61 189t140 67q68 0 135 -53q6 -4 17 -12.5t15 -12t12.5 -9t12.5 -8t10.5 -6t11 -4.5t10.5 -2t12 -1q56 0 65 106l146 -14q-6 -123 -60 -189.5t-141 -66.5q-66 0 -135 55q-8 6 -21.5 16.5t-19 14.5t-14.5 10t-14.5 8t-13.5 4t-16 2
q-58 0 -67 -108z" />
    <glyph glyph-name="hungarumlaut" unicode="&#x2dd;" horiz-adv-x="1024" 
d="M596 1022l121 389h219l-182 -389h-158zM264 1022l123 389h219l-182 -389h-160z" />
    <glyph glyph-name="Delta" unicode="&#x394;" 
d="M227 371q-58 0 -99.5 40.5t-41.5 102.5q0 60 41.5 99.5t99.5 39.5q57 0 98.5 -39.5t41.5 -99.5q0 -62 -41.5 -102.5t-98.5 -40.5z" />
    <glyph glyph-name="Delta" unicode="&#x2206;" 
d="M227 371q-58 0 -99.5 40.5t-41.5 102.5q0 60 41.5 99.5t99.5 39.5q57 0 98.5 -39.5t41.5 -99.5q0 -62 -41.5 -102.5t-98.5 -40.5z" />
    <glyph glyph-name="Omega" unicode="&#x3a9;" 
d="M227 371q-58 0 -99.5 40.5t-41.5 102.5q0 60 41.5 99.5t99.5 39.5q57 0 98.5 -39.5t41.5 -99.5q0 -62 -41.5 -102.5t-98.5 -40.5z" />
    <glyph glyph-name="Omega" unicode="&#x2126;" 
d="M227 371q-58 0 -99.5 40.5t-41.5 102.5q0 60 41.5 99.5t99.5 39.5q57 0 98.5 -39.5t41.5 -99.5q0 -62 -41.5 -102.5t-98.5 -40.5z" />
    <glyph glyph-name="pi" unicode="&#x3c0;" 
d="M227 371q-58 0 -99.5 40.5t-41.5 102.5q0 60 41.5 99.5t99.5 39.5q57 0 98.5 -39.5t41.5 -99.5q0 -62 -41.5 -102.5t-98.5 -40.5z" />
    <glyph glyph-name="endash" unicode="&#x2013;" horiz-adv-x="819" 
d="M68 338v184h684v-184h-684z" />
    <glyph glyph-name="emdash" unicode="&#x2014;" horiz-adv-x="1310" 
d="M68 338v184h1175v-184h-1175z" />
    <glyph glyph-name="quoteleft" unicode="&#x2018;" 
d="M225 911q-55 0 -95 38.5t-40 94.5q0 55 43 130l117 219h104l-73 -224q34 -13 56.5 -46t22.5 -76q0 -58 -40 -97t-95 -39z" />
    <glyph glyph-name="quoteright" unicode="&#x2019;" 
d="M94 926l74 223q-32 13 -55 47t-23 76q0 57 39.5 96t93.5 39q56 0 96.5 -38.5t40.5 -94.5q0 -54 -43 -129l-118 -219h-105z" />
    <glyph glyph-name="quotesinglbase" unicode="&#x201a;" 
d="M94 -209l74 223q-32 13 -55 47t-23 76q0 56 40 95.5t93 39.5q56 0 96.5 -39.5t40.5 -95.5q0 -55 -43 -127l-118 -219h-105z" />
    <glyph glyph-name="quotedblleft" unicode="&#x201c;" horiz-adv-x="831" 
d="M608 911q-55 0 -96 38.5t-41 94.5q0 52 45 130l117 219h104l-73 -224q34 -13 56.5 -46t22.5 -76q0 -58 -40 -97t-95 -39zM225 911q-55 0 -95 38.5t-40 94.5q0 55 43 130l117 219h104l-73 -224q34 -13 56.5 -46t22.5 -76q0 -58 -40 -97t-95 -39z" />
    <glyph glyph-name="quotedblright" unicode="&#x201d;" horiz-adv-x="831" 
d="M477 926l74 223q-33 13 -56.5 47t-23.5 76q0 57 40.5 96t94.5 39q56 0 96.5 -38.5t40.5 -94.5q0 -48 -43 -129l-118 -219h-105zM94 926l74 223q-32 13 -55 47t-23 76q0 57 39.5 96t93.5 39q56 0 96.5 -38.5t40.5 -94.5q0 -54 -43 -129l-118 -219h-105z" />
    <glyph glyph-name="quotedblbase" unicode="&#x201e;" horiz-adv-x="831" 
d="M477 -209l74 223q-33 13 -56.5 47t-23.5 76q0 56 40.5 95.5t94.5 39.5q56 0 96.5 -39.5t40.5 -95.5q0 -50 -43 -127l-118 -219h-105zM94 -209l74 223q-32 13 -55 47t-23 76q0 56 40 95.5t93 39.5q56 0 96.5 -39.5t40.5 -95.5q0 -55 -43 -127l-118 -219h-105z" />
    <glyph glyph-name="dagger" unicode="&#x2020;" horiz-adv-x="714" 
d="M262 535v479h-186v172h186v207h191v-207h186v-172h-186v-479h-191z" />
    <glyph glyph-name="daggerdbl" unicode="&#x2021;" horiz-adv-x="714" 
d="M262 535v206h-186v156h186v133h-186v156h186v207h191v-207h186v-156h-186v-133h186v-156h-186v-206h-191z" />
    <glyph glyph-name="bullet" unicode="&#x2022;" horiz-adv-x="569" 
d="M285 346q-84 0 -145.5 60t-61.5 147q0 88 61 147.5t146 59.5q84 0 145.5 -59.5t61.5 -147.5q0 -86 -62 -146.5t-145 -60.5z" />
    <glyph glyph-name="ellipsis" unicode="&#x2026;" horiz-adv-x="1380" 
d="M1153 -12q-58 0 -100.5 40.5t-42.5 100.5t42.5 99.5t100.5 39.5q57 0 98 -39.5t41 -99.5t-41 -100.5t-98 -40.5zM690 -12q-58 0 -99.5 40.5t-41.5 100.5t41.5 99.5t99.5 39.5t99.5 -39.5t41.5 -99.5t-41.5 -100.5t-99.5 -40.5zM229 -12q-58 0 -99.5 40.5t-41.5 100.5
t41.5 99.5t99.5 39.5q57 0 98.5 -39.5t41.5 -99.5t-41.5 -100.5t-98.5 -40.5z" />
    <glyph glyph-name="perthousand" unicode="&#x2030;" horiz-adv-x="2633" 
d="M426 692q-148 0 -256.5 103.5t-108.5 255.5q0 153 108.5 255.5t256.5 102.5q149 0 258 -102.5t109 -255.5q0 -152 -109.5 -255.5t-257.5 -103.5zM356 0l875 1393h209l-875 -1393h-209zM2208 -18q-149 0 -258 103t-109 255q0 102 51 184.5t135 128t181 45.5
q148 0 256 -102.5t108 -255.5q0 -152 -108 -255t-256 -103zM1368 -18q-148 0 -256 103t-108 255q0 153 108 255.5t256 102.5q97 0 181 -45.5t135 -128t51 -184.5q0 -152 -109 -255t-258 -103zM426 858q76 0 128 55t52 138q0 85 -52 138.5t-128 53.5q-77 0 -127.5 -53.5
t-50.5 -138.5q0 -83 50.5 -138t127.5 -55zM2208 147q76 0 128 55t52 138q0 85 -52 138.5t-128 53.5q-78 0 -129 -53.5t-51 -138.5q0 -83 51.5 -138t128.5 -55zM1368 147q76 0 128 55t52 138q0 85 -52 138.5t-128 53.5t-127 -53.5t-51 -138.5q0 -83 51.5 -138t126.5 -55z" />
    <glyph glyph-name="guilsinglleft" unicode="&#x2039;" horiz-adv-x="542" 
d="M264 72l-192 334v16l192 330h207l-199 -338l199 -342h-207z" />
    <glyph glyph-name="guilsinglright" unicode="&#x203a;" horiz-adv-x="542" 
d="M72 72l198 338l-198 342h204l195 -334v-17l-195 -329h-204z" />
    <glyph glyph-name="fraction" unicode="&#x2044;" horiz-adv-x="894" 
d="M-78 0l844 1393h207l-842 -1393h-209z" />
    <glyph glyph-name="fraction" unicode="&#x2215;" horiz-adv-x="894" 
d="M-78 0l844 1393h207l-842 -1393h-209z" />
    <glyph glyph-name="Euro" unicode="&#x20ac;" horiz-adv-x="1581" 
d="M244 745h-158v162h184q62 227 239 364.5t411 137.5q182 0 309 -65t217 -197l-162 -115q-62 92 -147.5 138.5t-216.5 46.5q-150 0 -262.5 -82.5t-163.5 -227.5h606v-162h-637q-2 -16 -2 -49q0 -48 6 -94h633v-162h-588q58 -125 167 -196.5t249 -71.5q76 0 139 18t110 52
t80 70.5t64 84.5l168 -112q-178 -303 -561 -303q-223 0 -397.5 125.5t-245.5 332.5h-199v162h162q-6 47 -6 94q0 33 2 49z" />
    <glyph glyph-name="trademark" unicode="&#x2122;" horiz-adv-x="1470" 
d="M705 780v621h18l297 -316l299 316h18v-621h-147v320l-160 -189h-18l-162 189v-320h-145zM260 780v490h-174v123h498v-123h-174v-490h-150z" />
    <glyph glyph-name="partialdiff" unicode="&#x2202;" 
d="M227 371q-58 0 -99.5 40.5t-41.5 102.5q0 60 41.5 99.5t99.5 39.5q57 0 98.5 -39.5t41.5 -99.5q0 -62 -41.5 -102.5t-98.5 -40.5z" />
    <glyph glyph-name="product" unicode="&#x220f;" 
d="M227 371q-58 0 -99.5 40.5t-41.5 102.5q0 60 41.5 99.5t99.5 39.5q57 0 98.5 -39.5t41.5 -99.5q0 -62 -41.5 -102.5t-98.5 -40.5z" />
    <glyph glyph-name="summation" unicode="&#x2211;" horiz-adv-x="1640" 
d="M938 12q64 -56 118 -84t126 -28q107 0 186 92l141 -125q-118 -156 -325 -156q-63 0 -122 16.5t-111.5 49t-90.5 61.5t-87 71q-11 10 -17 15q-51 42 -83.5 65.5t-81 43.5t-95.5 20q-138 0 -232 -143l-145 119q70 109 196 161q-101 95 -158 225t-57 283q0 204 96.5 368
t260.5 254.5t362 90.5q147 0 279 -53.5t228.5 -146.5t153 -226.5t56.5 -286.5q0 -274 -168 -460.5t-430 -225.5zM819 184q217 0 356.5 145t139.5 369t-139.5 371.5t-356.5 147.5t-357 -147.5t-140 -371.5q0 -223 139.5 -368.5t357.5 -145.5z" />
    <glyph glyph-name="minus" unicode="&#x2212;" 
d="M227 371q-58 0 -99.5 40.5t-41.5 102.5q0 60 41.5 99.5t99.5 39.5q57 0 98.5 -39.5t41.5 -99.5q0 -62 -41.5 -102.5t-98.5 -40.5z" />
    <glyph glyph-name="radical" unicode="&#x221a;" 
d="M227 371q-58 0 -99.5 40.5t-41.5 102.5q0 60 41.5 99.5t99.5 39.5q57 0 98.5 -39.5t41.5 -99.5q0 -62 -41.5 -102.5t-98.5 -40.5z" />
    <glyph glyph-name="integral" unicode="&#x222b;" 
d="M227 371q-58 0 -99.5 40.5t-41.5 102.5q0 60 41.5 99.5t99.5 39.5q57 0 98.5 -39.5t41.5 -99.5q0 -62 -41.5 -102.5t-98.5 -40.5z" />
    <glyph glyph-name="approxequal" unicode="&#x2248;" 
d="M227 371q-58 0 -99.5 40.5t-41.5 102.5q0 60 41.5 99.5t99.5 39.5q57 0 98.5 -39.5t41.5 -99.5q0 -62 -41.5 -102.5t-98.5 -40.5z" />
    <glyph glyph-name="lessequal" unicode="&#x2264;" 
d="M227 371q-58 0 -99.5 40.5t-41.5 102.5q0 60 41.5 99.5t99.5 39.5q57 0 98.5 -39.5t41.5 -99.5q0 -62 -41.5 -102.5t-98.5 -40.5z" />
    <glyph glyph-name="greaterequal" unicode="&#x2265;" 
d="M227 371q-58 0 -99.5 40.5t-41.5 102.5q0 60 41.5 99.5t99.5 39.5q57 0 98.5 -39.5t41.5 -99.5q0 -62 -41.5 -102.5t-98.5 -40.5z" />
    <glyph glyph-name="lozenge" unicode="&#x25ca;" 
d="M227 371q-58 0 -99.5 40.5t-41.5 102.5q0 60 41.5 99.5t99.5 39.5q57 0 98.5 -39.5t41.5 -99.5q0 -62 -41.5 -102.5t-98.5 -40.5z" />
    <glyph glyph-name="plusminus" horiz-adv-x="1669" 
d="M209 0v686h-141v174h141v299q0 153 70 229t200 76q142 0 223 -90l-110 -133q-37 37 -88 37q-88 0 -88 -117v-301h348v340q0 152 69.5 228.5t198.5 76.5q127 0 213 -86l-115 -137q-16 20 -32.5 28.5t-44.5 8.5q-82 0 -82 -117v-342h213v-174h-213v-686h-207v686h-348v-686
h-207zM1319 0v1479h209v-1479h-209z" />
    <glyph glyph-name="apple" horiz-adv-x="456" 
d="M229 371q-58 0 -99.5 40.5t-41.5 102.5q0 60 41.5 99.5t99.5 39.5q57 0 98.5 -39.5t41.5 -99.5q0 -62 -41.5 -102.5t-98.5 -40.5z" />
    <glyph glyph-name="infinity" horiz-adv-x="1665" 
d="M1425 1057q-57 0 -98 38.5t-41 98.5q0 57 41 96t98 39q55 0 95.5 -39t40.5 -96q0 -60 -40 -98.5t-96 -38.5zM209 0v686h-141v174h141v299q0 153 70 229t200 76q142 0 223 -90l-110 -133q-37 37 -88 37q-88 0 -88 -117v-301h348v340q0 153 71 229t205 76q136 0 222 -86
l-115 -139q-39 39 -88 39q-88 0 -88 -117v-342h557v-860h-209v686h-348v-686h-207v686h-348v-686h-207z" />
    <glyph glyph-name="notequal" horiz-adv-x="1269" 
d="M209 0v686h-141v174h141v299q0 153 70 229t200 76q142 0 223 -90l-110 -133q-37 37 -88 37q-88 0 -88 -117v-301h348v340q0 153 71 229t205 76q158 0 244 -106l-123 -131q-44 51 -100 51q-90 0 -90 -117v-342h231v-174h-231v-686h-207v686h-348v-686h-207z" />
    </font>
</defs>
</svg>
