<?xml version="1.0" standalone="no"?>
<!DOCTYPE svg PUBLIC "-//W3C//DTD SVG 1.1//EN" "http://www.w3.org/Graphics/SVG/1.1/DTD/svg11.dtd" >
<svg xmlns="http://www.w3.org/2000/svg" xmlns:xlink="http://www.w3.org/1999/xlink" version="1.1">
<metadata>
Created by FontForge 20160407 at Mon Oct 24 12:42:54 2016
 By Jimmy Wärting
Libre Baskerville is webfont optimized for web body text (typically 16px). It's based on 1941 ATF Specimens, but it has a taller x height, wider counters and minor contrast that allow it to work on small sizes in any screen.
</metadata>
<defs>
<font id="LibreBaskerville-Bold" horiz-adv-x="585" >
  <font-face 
    font-family="Libre Baskerville"
    font-weight="700"
    font-stretch="normal"
    units-per-em="1000"
    panose-1="2 0 0 0 0 0 0 0 0 0"
    ascent="800"
    descent="-200"
    x-height="530"
    cap-height="770"
    bbox="-305 -260 1679 970"
    underline-thickness="50"
    underline-position="-100"
    unicode-range="U+000D-FB06"
  />
<missing-glyph horiz-adv-x="756" 
d="M130 -260v1230h496v-1230h-496zM240 911v-1110h275v1110h-275z" />
    <glyph glyph-name="f_f" unicode="ff" horiz-adv-x="772" 
d="M265 457v-291c0 -99 15 -124 75 -126v-40h-303v40c79 4 89 17 89 118v299h-107v57h107v32c0 150 99 244 255 244c50 0 82 -9 117 -33c49 44 143 73 234 73s150 -35 150 -89c0 -36 -23 -53 -50 -53c-32 0 -55 14 -75 40c-27 35 -39 44 -59 44c-57 0 -97 -42 -97 -180v-78
h157v-57h-157v-291c0 -100 19 -124 99 -126v-40h-299v40c53 3 61 19 61 118v299h-197zM265 514h197v146c-44 58 -75 72 -113 72c-63 0 -84 -66 -84 -180v-38z" />
    <glyph glyph-name="f_i" unicode="fi" horiz-adv-x="692" 
d="M588 540v-375c0 -106 11 -122 87 -125v-40h-295v40c58 3 69 22 69 117v113c0 71 -3 126 -7 146c-7 32 -27 41 -95 41h-91v-293c0 -99 16 -124 77 -126v-38h-286v38c61 4 70 18 70 118v301h-99v57h99v72c0 155 102 244 275 244c105 0 178 -38 178 -93
c0 -29 -20 -49 -49 -49c-23 0 -46 11 -69 33c-39 38 -65 51 -99 51c-37 0 -62 -17 -77 -51c-14 -30 -20 -70 -20 -129v-78h127z" />
    <glyph glyph-name="f_l" unicode="fl" horiz-adv-x="707" 
d="M599 830v-669c0 -101 12 -118 87 -121v-40h-295v40c58 3 69 21 69 114v564c-33 34 -74 54 -108 54c-35 0 -61 -21 -76 -61c-11 -30 -16 -67 -16 -119v-78h115v-57h-115v-291c0 -99 17 -124 84 -126v-40h-297v40c65 4 74 18 74 118v299h-103v57h103v72
c0 153 95 244 253 244c54 0 114 -11 142 -26z" />
    <glyph glyph-name="f_f_i" unicode="ffi" horiz-adv-x="1044" 
d="M940 540v-376c0 -105 10 -121 87 -124v-40h-295v40c59 4 69 24 69 117v112c0 77 -3 129 -7 147c-7 33 -25 41 -86 41h-107v-291c0 -100 16 -124 84 -126v-40h-294v40c62 3 71 19 71 118v299h-197v-291c0 -99 15 -124 75 -126v-40h-303v40c79 4 89 17 89 118v299h-107v57
h107v32c0 150 99 244 255 244c50 0 82 -9 117 -33c49 44 143 73 234 73c115 0 190 -35 190 -89c0 -36 -23 -53 -50 -53c-26 0 -45 10 -75 40c-33 33 -67 44 -99 44c-57 0 -97 -42 -97 -180v-78h156zM265 514h197v146c-44 58 -75 72 -113 72c-63 0 -84 -66 -84 -180v-38z" />
    <glyph glyph-name="f_f_l" unicode="ffl" horiz-adv-x="1048" 
d="M265 457v-291c0 -99 15 -124 75 -126v-40h-303v40c79 4 89 17 89 118v299h-107v57h107v32c0 150 99 244 255 244c50 0 82 -9 117 -33c49 44 143 73 234 73c56 0 102 -8 135 -23l73 23v-666c0 -105 10 -121 87 -124v-40h-295v40c59 4 69 24 69 117v568
c-33 33 -71 47 -103 47c-57 0 -97 -42 -97 -180v-78h132v-57h-132v-291c0 -100 16 -124 84 -126v-40h-294v40c62 3 71 19 71 118v299h-197zM265 514h197v146c-44 58 -75 72 -113 72c-63 0 -84 -66 -84 -180v-38z" />
    <glyph glyph-name="f_b" unicode="fb" horiz-adv-x="1050" 
d="M599 830v-369h4c34 50 91 79 161 79c140 0 248 -120 248 -275c0 -156 -118 -276 -259 -276c-75 0 -143 31 -182 78l-76 -67h-34v718c-33 34 -75 54 -109 54c-61 0 -92 -61 -92 -180v-78h115v-57h-115v-291c0 -99 17 -124 84 -126v-40h-297v40c65 4 74 18 74 118v299h-103
v57h103v72c0 153 95 244 253 244c54 0 114 -11 142 -26zM601 282v-63c0 -99 58 -172 137 -172s122 76 122 214c0 141 -42 216 -122 216c-84 0 -137 -71 -137 -195z" />
    <glyph glyph-name="f_f_b" unicode="ffb" horiz-adv-x="1391" 
d="M940 830v-369h4c34 50 91 79 161 79c140 0 248 -120 248 -275c0 -156 -118 -276 -259 -276c-75 0 -143 31 -182 78l-76 -67h-34v725c-33 33 -72 47 -104 47c-57 0 -97 -42 -97 -180v-78h132v-57h-132v-291c0 -100 16 -124 84 -126v-40h-294v40c62 3 71 19 71 118v299
h-197v-291c0 -99 15 -124 75 -126v-40h-303v40c79 4 89 17 89 118v299h-107v57h107v32c0 150 99 244 255 244c50 0 82 -9 117 -33c49 44 143 73 234 73c62 0 113 -11 146 -29zM942 282v-63c0 -99 58 -172 137 -172s122 76 122 214c0 141 -42 216 -122 216
c-84 0 -137 -71 -137 -195zM265 514h197v146c-44 58 -75 72 -113 72c-63 0 -84 -66 -84 -180v-38z" />
    <glyph glyph-name="f_h" unicode="fh" horiz-adv-x="1071" 
d="M601 297v-133c0 -109 7 -119 87 -124v-40h-295v40c63 5 69 16 69 117v561c-33 34 -76 54 -110 54c-61 0 -92 -61 -92 -180v-78h115v-57h-115v-291c0 -99 15 -124 74 -126v-40h-287v40c65 4 74 18 74 118v299h-103v57h103v72c0 153 95 244 253 244c54 0 114 -11 142 -26
l83 26v-369h4c41 54 91 79 162 79c133 0 208 -95 208 -221v-155c0 -111 6 -119 85 -124v-40h-313v40c80 4 89 16 89 117v123c0 142 -27 194 -102 194c-85 0 -131 -68 -131 -177z" />
    <glyph glyph-name="f_f_h" unicode="ffh" horiz-adv-x="1412" 
d="M942 297v-133c0 -109 7 -119 87 -124v-40h-295v40c63 5 69 16 69 117v566c-1 0 -2 1 -2 2c-33 33 -71 47 -103 47c-57 0 -97 -42 -97 -180v-78h132v-57h-132v-291c0 -100 16 -124 84 -126v-40h-294v40c62 3 71 19 71 118v299h-197v-291c0 -99 15 -124 75 -126v-40h-303
v40c79 4 89 17 89 118v299h-107v57h107v32c0 150 99 244 255 244c50 0 82 -9 117 -33c49 44 143 73 234 73c58 0 105 -9 138 -25l70 25v-369h4c41 54 91 79 162 79c65 0 116 -20 152 -60c35 -40 56 -100 56 -161v-155c0 -111 6 -119 85 -124v-40h-313v40c80 4 89 16 89 117
v123c0 142 -27 194 -102 194c-41 0 -72 -15 -95 -44c-23 -31 -36 -77 -36 -133zM265 514h197v146c-44 58 -75 72 -113 72c-63 0 -84 -66 -84 -180v-38z" />
    <glyph glyph-name="f_j" unicode="fj" horiz-adv-x="673" 
d="M588 540v-542c0 -166 -84 -258 -235 -258c-102 0 -164 43 -164 99c0 33 26 52 54 52c75 0 60 -98 132 -98c49 0 74 35 74 129v494c-7 32 -27 41 -95 41h-98v-293c0 -99 16 -124 77 -126v-38h-286v38c61 4 70 18 70 118v301h-99v57h99v72c0 155 102 244 275 244
c105 0 178 -38 178 -93c0 -29 -20 -49 -49 -49c-23 0 -46 11 -69 33c-39 38 -65 51 -99 51c-37 0 -62 -17 -77 -51c-14 -30 -20 -70 -20 -129v-78h127z" />
    <glyph glyph-name="f_f_j" unicode="ffj" horiz-adv-x="1025" 
d="M940 540v-542c0 -166 -84 -258 -235 -258c-102 0 -164 43 -164 99c0 33 26 52 54 52c75 0 60 -98 132 -98c49 0 74 35 74 129v494c-7 33 -32 41 -93 41h-107v-291c0 -100 16 -124 84 -126v-40h-294v40c62 3 71 19 71 118v299h-197v-291c0 -99 15 -124 75 -126v-40h-303
v40c79 4 89 17 89 118v299h-107v57h107v32c0 150 99 244 255 244c50 0 82 -9 117 -33c49 44 143 73 234 73c115 0 190 -35 190 -89c0 -36 -23 -53 -50 -53c-26 0 -45 10 -75 40c-33 33 -67 44 -99 44c-57 0 -97 -42 -97 -180v-78h156zM265 514h197v146
c-44 58 -75 72 -113 72c-63 0 -84 -66 -84 -180v-38z" />
    <glyph glyph-name="f_k" unicode="fk" horiz-adv-x="1021" 
d="M715 0v40c40 0 51 4 51 18c0 8 -3 14 -31 58l-86 135l-50 -48v-39c0 -103 12 -124 69 -124v-40h-285v40c66 0 79 22 79 117v561c-33 34 -76 54 -110 54c-61 0 -92 -61 -92 -180v-78h115v-57h-115v-291c0 -99 15 -126 74 -126v-40h-287v40c64 0 74 18 74 118v299h-103v57
h103v72c0 153 95 244 253 244c54 0 114 -11 142 -26l83 26v-556l96 91c74 70 92 90 92 104c0 16 -19 21 -83 21v40h273v-40c-50 0 -84 -15 -130 -58l-97 -91l173 -245c30 -43 54 -56 103 -56v-40h-311z" />
    <glyph glyph-name="f_f_k" unicode="ffk" horiz-adv-x="1362" 
d="M1056 0v40c41 0 52 4 52 16c0 8 -3 15 -30 57l-88 138l-50 -48v-39c0 -103 14 -124 69 -124v-40h-295v40c71 0 89 22 89 117v568c-33 33 -73 47 -105 47c-57 0 -97 -42 -97 -180v-78h132v-57h-132v-291c0 -100 16 -124 84 -126v-40h-294v40c62 3 71 19 71 118v299h-197
v-291c0 -99 15 -124 75 -126v-40h-303v40c79 4 89 17 89 118v299h-107v57h107v32c0 150 99 244 255 244c50 0 82 -9 117 -33c49 44 143 73 234 73c63 0 114 -11 147 -29l61 29v-556l96 91c79 75 96 97 96 109c0 11 -15 16 -87 16v40h273v-40c-50 0 -84 -15 -130 -58l-97 -91
l173 -245c33 -47 59 -56 103 -56v-40h-311zM265 514h197v146c-44 58 -75 72 -113 72c-63 0 -84 -66 -84 -180v-38z" />
    <glyph glyph-name="f_t" unicode="ft" horiz-adv-x="774" 
d="M17 475v55h108v56c0 145 102 244 253 244c90 0 156 -36 156 -85c0 -30 -26 -53 -60 -53c-24 0 -36 13 -72 56c-16 19 -33 26 -52 26c-53 0 -86 -70 -86 -182v-62h158c65 0 134 61 156 121h51v-121h115v-55h-115v-307c0 -82 17 -114 59 -114c27 0 45 11 59 36l21 -29
c-18 -46 -64 -71 -132 -71c-92 0 -146 45 -146 122v363h-226v-309c0 -100 21 -124 109 -126v-40h-338v40c80 4 90 17 90 118v317h-108z" />
    <glyph glyph-name="f_f_t" unicode="fft" horiz-adv-x="1093" 
d="M809 475h-210v-309c0 -100 20 -126 99 -126v-40h-299v40c53 0 61 19 61 118v317h-197v-309c0 -99 16 -126 75 -126v-40h-303v40c82 0 89 17 89 118v317h-107v55h107v16c0 150 99 244 255 244c50 0 82 -9 117 -33c49 44 143 73 234 73s150 -35 150 -89
c0 -36 -23 -53 -50 -53c-32 0 -55 14 -75 40c-27 35 -39 44 -59 44c-57 0 -97 -42 -97 -180v-62h142c65 0 134 61 156 121h51v-121h115v-55h-115v-307c0 -82 17 -114 59 -114c27 0 45 11 59 36l21 -29c-18 -46 -64 -71 -132 -71c-92 0 -146 45 -146 122v363zM263 530h197
v130c-44 58 -75 72 -113 72c-63 0 -84 -66 -84 -180v-22z" />
    <glyph glyph-name=".notdef" horiz-adv-x="756" 
d="M130 -260v1230h496v-1230h-496zM240 911v-1110h275v1110h-275z" />
    <glyph glyph-name="m" unicode="m" horiz-adv-x="1106" 
d="M258 297v-132c0 -111 6 -120 86 -125v-40h-316v40c80 5 90 16 90 117v124c0 76 -2 129 -7 147c-8 34 -21 40 -85 40v34l193 38l12 -87h6c56 62 109 87 183 87c88 0 145 -32 174 -89h4c48 56 118 89 193 89c79 0 141 -21 174 -58c26 -30 39 -76 39 -163v-154
c0 -110 8 -120 87 -125v-40h-316v40c80 4 89 17 89 117v131c0 139 -29 187 -112 187c-47 0 -75 -25 -95 -61c-17 -31 -26 -72 -26 -117v-132c0 -110 6 -120 88 -125v-40h-317v40c80 5 89 16 89 117v131c0 140 -29 187 -116 187c-44 0 -71 -23 -90 -59
c-17 -32 -27 -75 -27 -119z" />
    <glyph glyph-name="i" unicode="i" horiz-adv-x="361" 
d="M257 540v-376c0 -106 10 -121 87 -124v-40h-315v40c75 4 89 23 89 117v123c0 77 -3 129 -7 147c-7 33 -25 41 -86 41v34zM110 752c0 44 34 78 77 78c44 0 78 -34 78 -78c0 -43 -34 -77 -78 -77c-43 0 -77 34 -77 77z" />
    <glyph glyph-name="dotlessi" unicode="&#x131;" horiz-adv-x="361" 
d="M257 540v-376c0 -106 10 -121 87 -124v-40h-315v40c75 4 89 23 89 117v123c0 77 -3 129 -7 147c-7 33 -25 41 -86 41v34z" />
    <glyph glyph-name="n" unicode="n" horiz-adv-x="727" 
d="M257 301v-138c0 -108 7 -118 87 -123v-40h-315v40c78 5 89 16 89 116v125c0 78 -3 128 -7 145c-8 35 -25 42 -86 42v34l193 38l13 -88h4c44 55 106 88 177 88c85 0 133 -22 174 -76c23 -31 43 -75 43 -160v-141c0 -108 8 -118 85 -123v-40h-313v40c79 4 89 17 89 116v136
c0 136 -29 183 -116 183c-43 0 -73 -25 -95 -68c-12 -24 -22 -65 -22 -106z" />
    <glyph glyph-name="u" unicode="u" horiz-adv-x="709" 
d="M465 262v104c0 108 -6 116 -87 124v40h226v-303c0 -81 2 -125 7 -147c7 -34 19 -40 85 -40v-39l-199 -12l-11 89h-4c-34 -55 -101 -88 -178 -88c-70 0 -126 26 -163 76c-29 39 -43 92 -43 165v135c0 110 -5 115 -85 124v40h224v-283c0 -134 32 -192 105 -192
c40 0 70 18 91 54c22 36 32 84 32 153z" />
    <glyph glyph-name="h" unicode="h" horiz-adv-x="714" 
d="M244 297v-133c0 -109 7 -119 87 -124v-40h-315v40c81 5 89 16 89 117v411c0 79 -2 123 -7 147c-7 34 -19 40 -79 40v37l223 38v-369h4c41 54 91 79 162 79c65 0 116 -20 152 -60c35 -40 56 -100 56 -161v-155c0 -111 6 -119 85 -124v-40h-313v40c80 4 89 16 89 117v123
c0 142 -27 194 -102 194c-41 0 -72 -15 -95 -44c-23 -31 -36 -77 -36 -133z" />
    <glyph glyph-name="l" unicode="l" horiz-adv-x="355" 
d="M247 830v-666c0 -106 10 -121 87 -124v-40h-315v40c75 4 89 23 89 117v413c0 77 -3 129 -7 147c-7 33 -25 41 -86 41v34z" />
    <glyph glyph-name="r" unicode="r" horiz-adv-x="498" 
d="M258 203v-48c0 -103 13 -114 106 -115v-40h-334v40c81 5 89 16 89 117v122c0 165 -12 189 -93 189v35l200 37l16 -115h4c36 70 99 115 164 115c51 0 86 -28 86 -67c0 -43 -27 -76 -69 -76c-41 0 -59 40 -87 40c-25 0 -50 -36 -64 -92c-11 -40 -18 -93 -18 -142z" />
    <glyph glyph-name="space" unicode=" " horiz-adv-x="266" 
 />
    <glyph glyph-name="o" unicode="o" horiz-adv-x="660" 
d="M328 540c159 0 295 -114 295 -271c0 -162 -136 -279 -295 -279c-158 0 -291 116 -291 279c0 158 133 271 291 271zM328 482c-81 0 -134 -86 -134 -214c0 -132 52 -217 134 -217c84 0 138 86 138 217c0 127 -55 214 -138 214z" />
    <glyph glyph-name="p" unicode="p" horiz-adv-x="697" 
d="M218 536v-71h4c44 50 101 75 172 75c155 0 265 -115 265 -275c0 -159 -110 -275 -263 -275c-66 0 -113 21 -148 66h-4v-139c0 -106 16 -122 120 -125v-42h-345v42c72 2 87 22 87 118v372c0 61 -3 124 -7 146c-6 31 -26 41 -82 41v39zM388 483c-43 0 -84 -20 -107 -51
c-22 -30 -35 -79 -35 -132v-68c0 -46 12 -88 35 -121c25 -36 62 -55 107 -55c81 0 120 67 120 207c0 145 -41 220 -120 220z" />
    <glyph glyph-name="d" unicode="d" horiz-adv-x="694" 
d="M481 -10v74h-4c-46 -49 -107 -74 -179 -74c-152 0 -259 112 -259 271s109 279 253 279c66 0 118 -18 156 -66h4v85c0 78 -2 140 -6 157c-6 28 -39 40 -109 40v34l253 40v-572c0 -99 2 -149 7 -177c6 -35 17 -41 74 -41v-39zM450 248v39c0 50 -11 95 -32 128
c-24 38 -63 59 -106 59c-78 0 -121 -75 -121 -211c0 -138 43 -216 120 -216c44 0 87 24 112 63c19 29 27 70 27 138z" />
    <glyph glyph-name="b" unicode="b" horiz-adv-x="674" 
d="M225 282v-63c0 -99 58 -172 137 -172s122 75 122 217c0 138 -41 213 -122 213c-48 0 -91 -27 -114 -74c-15 -31 -23 -72 -23 -121zM223 830v-369h4c34 50 91 79 160 79c141 0 249 -121 249 -274c0 -159 -118 -277 -260 -277c-73 0 -142 31 -181 78l-76 -67h-34v595
c0 64 -4 105 -13 129c-8 20 -16 24 -73 32v34z" />
    <glyph glyph-name="q" unicode="q" horiz-adv-x="674" 
d="M449 249v62c0 98 -58 171 -135 171c-79 0 -124 -77 -124 -213c0 -138 44 -214 124 -214c48 0 90 27 112 73c15 32 23 74 23 121zM451 -92v154h-5c-46 -51 -91 -72 -153 -72c-147 0 -254 115 -254 273c0 162 108 277 259 277c67 0 124 -23 171 -68l76 58h44v-615
c0 -111 8 -122 97 -125v-40h-358v40c97 2 123 27 123 118z" />
    <glyph glyph-name="j" unicode="j" horiz-adv-x="331" 
d="M246 540v-542c0 -166 -84 -258 -235 -258c-102 0 -164 43 -164 99c0 33 26 52 54 52c75 0 60 -98 132 -98c49 0 74 35 74 129v368c0 73 -4 121 -8 138c-7 31 -23 40 -85 40v34zM99 752c0 44 34 78 77 78c44 0 78 -34 78 -78c0 -43 -34 -77 -78 -77c-43 0 -77 34 -77 77z
" />
    <glyph glyph-name="c" unicode="c" horiz-adv-x="564" 
d="M502 121l26 -38c-50 -56 -130 -88 -217 -88c-162 0 -272 108 -272 268c0 165 117 277 288 277c120 0 209 -51 209 -118c0 -39 -24 -63 -61 -63c-31 0 -52 15 -75 51c-40 63 -51 72 -85 72c-77 0 -122 -76 -122 -205c0 -138 53 -216 149 -216c54 0 111 22 160 60z" />
    <glyph glyph-name="e" unicode="e" 
d="M512 128l28 -35c-62 -70 -136 -103 -227 -103c-164 0 -275 109 -275 268c0 165 119 282 287 282c141 0 224 -81 224 -217c0 -21 -2 -23 -33 -23h-322c-3 -7 -4 -17 -4 -33c0 -130 61 -212 158 -212c56 0 112 26 164 73zM201 356h145c54 0 63 3 63 26
c0 58 -37 100 -88 100c-57 0 -107 -53 -120 -126z" />
    <glyph glyph-name="f" unicode="f" horiz-adv-x="443" 
d="M17 475v55h108v56c0 145 102 244 253 244c90 0 156 -36 156 -85c0 -30 -26 -53 -60 -53c-24 0 -36 13 -72 56c-16 19 -33 26 -52 26c-53 0 -86 -70 -86 -182v-62h169v-55h-169v-309c0 -100 21 -124 109 -126v-40h-338v40c80 4 90 17 90 118v317h-108z" />
    <glyph glyph-name="g" unicode="g" horiz-adv-x="610" 
d="M228 108c71 -6 106 -10 163 -19c103 -15 167 -83 167 -176c0 -113 -96 -173 -276 -173c-165 0 -260 51 -260 140c0 69 41 105 95 105c35 0 70 -15 92 -41c-35 -7 -59 -34 -59 -67c0 -53 49 -83 140 -83c99 0 150 32 150 95c0 45 -31 81 -87 88l-175 24
c-74 10 -111 44 -111 99c0 54 37 90 102 103v4c-60 24 -103 90 -103 158c0 100 88 175 205 175c57 0 115 -19 154 -49c61 38 89 49 122 49c51 0 85 -25 85 -62c0 -28 -19 -48 -47 -48c-40 0 -43 43 -83 43c-13 0 -28 -10 -40 -27c13 -23 18 -48 18 -82
c0 -100 -61 -174 -212 -191c-63 -7 -85 -16 -85 -37c0 -16 15 -25 45 -28zM276 230c43 0 68 48 68 129c0 82 -25 129 -69 129c-45 0 -74 -49 -74 -127c0 -79 30 -131 75 -131z" />
    <glyph glyph-name="k" unicode="k" horiz-adv-x="664" 
d="M358 0v40c43 0 58 3 58 13c0 8 -20 43 -48 84l-76 114l-50 -48v-39c0 -103 12 -124 69 -124v-40h-295v40c74 2 89 22 89 117v424c0 164 -5 174 -86 174v37l223 38v-556l96 91c69 65 96 95 96 109c0 12 -21 16 -87 16v40h273v-40c-51 0 -84 -15 -130 -58l-97 -91l173 -245
c31 -43 55 -56 103 -56v-40h-311z" />
    <glyph glyph-name="s" unicode="s" horiz-adv-x="466" 
d="M107 35l-22 -35h-31v182h42c23 -95 64 -138 132 -138c49 0 78 22 78 58c0 37 -32 71 -106 111c-101 55 -142 105 -142 173c0 89 70 155 163 155c41 0 85 -13 115 -34l18 24h26v-151h-39c-31 76 -61 107 -107 107c-37 0 -61 -22 -61 -55c0 -37 31 -68 106 -108
c108 -58 151 -109 151 -181c0 -92 -72 -153 -182 -153c-57 0 -109 16 -141 45z" />
    <glyph glyph-name="t" unicode="t" horiz-adv-x="382" 
d="M98 475h-73v45c79 23 134 72 161 131h51v-121h115v-55h-115v-307c0 -82 17 -114 59 -114c27 0 45 11 59 36l21 -29c-18 -46 -64 -71 -132 -71c-92 0 -146 45 -146 122v363z" />
    <glyph glyph-name="v" unicode="v" horiz-adv-x="624" 
d="M259 -10l-158 411c-30 77 -48 89 -94 89v40h299v-40c-67 0 -73 -11 -73 -33c0 -17 8 -41 17 -64l95 -262h4l107 261c9 22 15 40 15 55c0 29 -18 42 -68 43v40h221v-40c-36 0 -59 -12 -87 -76l-187 -424h-91z" />
    <glyph glyph-name="w" unicode="w" horiz-adv-x="891" 
d="M448 345l-135 -355h-75l-137 411c-21 64 -47 86 -93 89v40h286v-40c-48 -1 -64 -13 -64 -43c0 -14 5 -32 11 -54l63 -234h4l140 371h82l105 -371h5l80 207c13 33 18 58 18 76c0 35 -25 48 -63 48v40h215v-40c-47 0 -58 -10 -115 -154l-138 -346h-79l-106 355h-4z" />
    <glyph glyph-name="x" unicode="x" horiz-adv-x="648" 
d="M353 336l53 68c28 36 35 45 35 60c0 19 -14 26 -50 26v40h230v-40c-50 -2 -76 -13 -132 -78l-102 -118l158 -203c31 -40 56 -51 100 -51v-40h-318v40c39 0 52 6 52 24c0 15 -9 30 -28 56l-58 80l-44 -53c-46 -55 -50 -66 -50 -76c0 -22 18 -31 61 -31v-40h-251v40
c42 0 86 12 109 39l139 163l-167 212c-25 32 -40 36 -73 36v40h305v-40c-33 0 -51 -10 -51 -28c0 -7 4 -16 11 -26z" />
    <glyph glyph-name="y" unicode="y" horiz-adv-x="646" 
d="M516 323l-229 -480c-28 -59 -93 -103 -151 -103c-44 0 -73 23 -73 59c0 33 22 52 74 56c61 5 98 24 115 56l27 52l-177 438c-31 77 -42 87 -94 89v40h303v-40c-52 0 -70 -9 -70 -35c0 -10 4 -25 9 -40l102 -292h4l86 195c36 83 44 105 44 128c0 35 -15 44 -73 44v40h241
v-40c-52 0 -68 -19 -138 -167z" />
    <glyph glyph-name="z" unicode="z" horiz-adv-x="568" 
d="M532 170l-12 -170h-494v23l313 454h-92c-114 0 -137 -15 -153 -103h-39l12 156h451v-23l-308 -453h88c140 0 170 18 195 116h39z" />
    <glyph glyph-name="I" unicode="I" horiz-adv-x="429" 
d="M393 40v-40h-357v40c90 3 105 20 105 144v402c0 113 -13 140 -95 144v40h337v-40c-82 -4 -95 -31 -95 -144v-402c0 -124 15 -141 105 -144z" />
    <glyph glyph-name="H" unicode="H" horiz-adv-x="945" 
d="M805 609v-448c0 -102 15 -118 105 -121v-40h-367v40c98 3 115 20 115 114v209h-371v-202c0 -102 16 -118 114 -121v-40h-366v40c90 3 105 20 105 114v462c0 93 -13 110 -94 114v40h345v-40c-90 -3 -104 -20 -104 -121v-184h371v191c0 93 -15 110 -105 114v40h346v-40
c-81 -3 -94 -20 -94 -121z" />
    <glyph glyph-name="L" unicode="L" horiz-adv-x="755" 
d="M740 227l-16 -227h-689v40c89 3 105 20 105 114v462c0 93 -14 110 -94 114v40h345v-40c-90 -3 -104 -20 -104 -121v-419c0 -112 42 -135 181 -135c154 0 202 32 232 172h40z" />
    <glyph glyph-name="E" unicode="E" horiz-adv-x="764" 
d="M287 680v-254c171 0 196 14 208 122h37v-293h-37c-17 108 -41 120 -208 120v-206c0 -86 42 -114 171 -114c152 0 203 38 231 174h40l-16 -229h-678v40c89 3 105 20 105 114v462c0 93 -14 110 -94 114v40h632l7 -196h-43c-17 112 -62 143 -204 143h-113
c-34 0 -38 -5 -38 -37z" />
    <glyph glyph-name="F" unicode="F" horiz-adv-x="689" 
d="M287 355v-194c0 -102 19 -118 146 -121v-40h-398v40c89 3 105 20 105 114v462c0 93 -14 110 -94 114v40h612l12 -211h-42c-16 114 -56 155 -185 155h-138c-11 0 -18 -6 -18 -17v-289c162 0 198 22 208 130h37v-313h-37c-16 112 -50 129 -208 130z" />
    <glyph glyph-name="J" unicode="J" horiz-adv-x="407" 
d="M130 -23v639c0 93 -13 110 -95 114v40h337v-40c-83 -3 -95 -20 -95 -121v-611c0 -167 -87 -258 -255 -258c-120 0 -190 46 -190 110c0 38 28 60 64 60c30 0 44 -13 70 -57s44 -55 75 -55c57 0 89 66 89 179z" />
    <glyph glyph-name="K" unicode="K" horiz-adv-x="822" 
d="M287 293v-132c0 -101 13 -118 95 -121v-40h-347v40c89 3 105 20 105 114v462c0 92 -14 110 -94 114v40h345v-40c-90 -3 -104 -20 -104 -121v-222l259 278c15 16 23 29 23 42c0 14 -16 23 -68 23v40h273v-39c-59 -2 -79 -12 -159 -95l-178 -186l294 -358
c28 -35 59 -49 112 -52v-40h-370v40c54 1 77 9 77 27c0 13 -5 22 -36 60l-177 218z" />
    <glyph glyph-name="M" unicode="M" horiz-adv-x="1145" 
d="M577 187h4l231 583h292v-40c-89 0 -103 -30 -103 -151v-388c0 -132 15 -148 114 -151v-40h-376v40c99 3 115 20 115 144v468h-5l-269 -662h-74l-278 662h-4v-461c0 -132 15 -148 114 -151v-40h-308v40c99 3 116 20 116 144v402c0 113 -15 144 -105 144v40h303z" />
    <glyph glyph-name="A" unicode="A" horiz-adv-x="809" 
d="M524 173l-23 60h-283c-32 -72 -47 -119 -47 -147c0 -40 30 -46 90 -46v-40h-274v40c64 7 92 24 115 81l263 659h74l239 -584c55 -135 70 -146 160 -155v-41h-378v41c64 3 90 10 90 42c0 19 -10 48 -26 90zM360 596l-119 -303h238l-115 303h-4z" />
    <glyph glyph-name="O" unicode="O" horiz-adv-x="943" 
d="M472 780c240 0 427 -175 427 -401c0 -217 -189 -389 -427 -389s-427 172 -427 389c0 226 187 401 427 401zM472 55c155 0 253 124 253 321c0 208 -97 339 -253 339s-253 -131 -253 -339c0 -197 97 -321 253 -321z" />
    <glyph glyph-name="Q" unicode="Q" horiz-adv-x="949" 
d="M471 780c242 0 433 -177 433 -402c0 -137 -71 -257 -192 -335c-44 -28 -78 -44 -178 -79c-59 -21 -80 -32 -105 -48v-4c9 1 26 2 39 2c114 0 201 -60 313 -60c63 0 97 21 117 74h37c3 -17 4 -32 4 -43c0 -83 -80 -145 -185 -145c-148 0 -255 122 -359 122
c-71 0 -83 -57 -134 -57c-23 0 -37 12 -37 28c0 23 17 38 73 69l126 71c-214 18 -377 192 -377 404c0 228 184 403 425 403zM471 30c157 0 259 136 259 345c0 208 -101 340 -259 340c-156 0 -251 -129 -251 -340c0 -213 96 -345 251 -345z" />
    <glyph glyph-name="C" unicode="C" horiz-adv-x="823" 
d="M688 708l19 62h49l-20 -253h-40c-28 122 -114 198 -228 198c-157 0 -247 -128 -247 -337c0 -206 87 -322 251 -322c132 0 222 73 259 215h44v-271h-47l-14 79c-74 -60 -163 -89 -267 -89c-243 0 -400 149 -400 382c0 242 168 408 412 408c81 0 147 -21 229 -72z" />
    <glyph glyph-name="G" unicode="G" horiz-adv-x="876" 
d="M438 -10c-240 0 -391 147 -391 381c0 243 164 409 403 409c83 0 152 -21 239 -72l19 62h36v-253h-50c-26 125 -111 198 -232 198c-152 0 -242 -125 -242 -336c0 -207 86 -322 242 -322c112 0 180 62 180 164c0 61 -30 88 -105 94v40h324v-40c-65 0 -87 -24 -87 -99v-133
c-58 0 -71 -4 -144 -48c-51 -30 -116 -45 -192 -45z" />
    <glyph glyph-name="D" unicode="D" horiz-adv-x="919" 
d="M452 0h-417v40c88 3 105 19 105 114v462c0 93 -13 110 -89 114v40h380c256 0 442 -168 442 -398c0 -219 -173 -372 -421 -372zM429 709h-125c-11 0 -17 -7 -17 -17v-517c0 -77 47 -114 147 -114c174 0 272 109 272 309c0 213 -105 339 -277 339z" />
    <glyph glyph-name="B" unicode="B" horiz-adv-x="797" 
d="M418 0h-385v40c90 3 106 20 106 114v462c0 93 -13 110 -85 114v40h321c200 0 314 -68 314 -187c0 -80 -56 -135 -171 -168v-4c147 0 240 -88 240 -208c0 -68 -34 -119 -95 -153c-59 -33 -142 -50 -245 -50zM425 61c108 0 161 47 161 145c0 59 -18 102 -58 130
s-103 39 -194 39h-48v-200c0 -82 39 -114 139 -114zM286 435h59c60 0 104 12 134 33c33 23 48 58 48 103c0 97 -46 138 -152 138h-71c-11 0 -18 -7 -18 -17v-257z" />
    <glyph glyph-name="V" unicode="V" horiz-adv-x="805" 
d="M278 610l160 -438l130 333c51 131 58 157 58 186c0 32 -18 39 -90 39v40h284v-40c-56 0 -93 -26 -115 -81l-263 -659h-74l-239 584c-52 126 -82 155 -160 155v41h378v-41c-70 -2 -89 -11 -89 -40c0 -18 7 -43 20 -79z" />
    <glyph glyph-name="N" unicode="N" horiz-adv-x="940" 
d="M804 -10h-134l-443 631h-4v-430c0 -132 15 -148 104 -151v-40h-297v40c98 3 115 20 115 144v402c0 113 -15 140 -105 144v40h279l403 -578h4v387c0 132 -15 148 -104 151v40h297v-40c-98 -3 -115 -20 -115 -144v-596z" />
    <glyph glyph-name="P" unicode="P" horiz-adv-x="717" 
d="M700 556c0 -143 -116 -221 -328 -221h-85v-176c0 -102 21 -119 145 -119v-40h-397v40c89 3 105 20 105 114v462c0 93 -13 110 -94 114v40h346c202 0 308 -74 308 -214zM287 697v-302h65c128 0 187 51 187 162c0 100 -50 157 -157 157h-77c-11 0 -18 -7 -18 -17z" />
    <glyph glyph-name="R" unicode="R" horiz-adv-x="815" 
d="M695 577c0 -111 -61 -189 -201 -214l232 -266c32 -37 79 -57 124 -57v-40h-237l-248 304c-33 40 -57 51 -78 51v-196c0 -99 18 -119 145 -119v-40h-397v40c88 0 105 20 105 114v462c0 93 -12 110 -94 114v40h346c192 0 303 -72 303 -193zM287 697v-282h65
c125 0 187 46 187 157c0 85 -55 142 -147 142h-87c-11 0 -18 -7 -18 -17z" />
    <glyph glyph-name="S" unicode="S" horiz-adv-x="663" 
d="M69 0l-15 255h39c18 -126 109 -204 229 -204c100 0 167 50 167 124c0 63 -33 90 -188 148c-155 59 -229 138 -229 245c0 125 101 212 247 212c68 0 127 -21 185 -64l18 50h24l11 -216h-39c-32 109 -104 169 -193 169c-82 0 -139 -45 -139 -109c0 -57 32 -82 170 -134
c186 -71 262 -146 262 -257c0 -135 -123 -229 -298 -229c-79 0 -140 21 -207 70l-20 -60h-24z" />
    <glyph glyph-name="T" unicode="T" horiz-adv-x="827" 
d="M805 770l10 -220h-43c-8 132 -61 168 -168 168c-104 0 -119 -7 -119 -31v-524c0 -86 17 -119 135 -123v-40h-419v40c119 4 137 37 137 123v524c0 24 -14 31 -103 31c-97 0 -180 -6 -184 -168h-39l10 220h783z" />
    <glyph glyph-name="U" unicode="U" horiz-adv-x="880" 
d="M757 522v-212c0 -226 -95 -320 -324 -320c-215 0 -310 86 -310 283v274c0 103 -4 138 -18 159c-12 18 -31 24 -78 24v40h359v-40c-56 0 -79 -5 -93 -22c-18 -21 -23 -57 -23 -161v-262c0 -151 64 -223 198 -223c138 0 206 76 206 229v231c0 111 -7 156 -29 181
c-18 19 -45 27 -97 27v40h324v-40c-49 0 -73 -7 -88 -25c-20 -25 -27 -72 -27 -183z" />
    <glyph glyph-name="W" unicode="W" horiz-adv-x="1227" 
d="M761 597l126 -403l135 386c16 45 24 77 24 100c0 41 -28 50 -88 50v40h284v-40c-50 0 -94 -23 -115 -81l-241 -659h-89l-174 528l-198 -528h-83l-212 584c-50 137 -81 155 -158 155v41h378v-41c-67 0 -89 -12 -89 -41c0 -21 5 -35 25 -91l140 -403l162 442
c-26 73 -52 86 -115 93v41h353v-41c-55 0 -82 -11 -82 -51c0 -20 6 -46 17 -81z" />
    <glyph glyph-name="X" unicode="X" horiz-adv-x="848" 
d="M499 424l227 -313c33 -45 79 -71 133 -71v-40h-373v40c68 0 78 10 78 26s-11 32 -53 91l-107 152l-69 -85c-58 -71 -116 -125 -116 -156c0 -21 25 -28 86 -28v-40h-307v40c73 0 97 11 141 64l219 267l-233 302c-36 46 -70 57 -115 57v40h376v-40c-48 0 -68 -12 -68 -36
c0 -17 10 -40 30 -67l103 -142l129 154c20 24 28 43 28 60c0 20 -12 31 -81 31v40h298v-40c-55 0 -83 -6 -103 -30z" />
    <glyph glyph-name="Y" unicode="Y" horiz-adv-x="760" 
d="M308 276l-207 368c-40 70 -63 86 -115 86v40h336v-40c-56 0 -76 -11 -76 -32c0 -13 8 -30 25 -62l143 -273h4l126 210c44 74 59 106 59 127c0 23 -17 30 -73 30v40h251v-40c-58 0 -88 -30 -180 -187l-146 -250v-102c0 -133 19 -151 104 -151v-40h-356v40
c83 0 105 18 105 144v92z" />
    <glyph glyph-name="Z" unicode="Z" horiz-adv-x="797" 
d="M760 255l-13 -255h-732v23l503 695h-253c-99 0 -144 -48 -163 -152h-39l16 204h648v-23l-498 -691h286c144 0 174 43 199 199h46z" />
    <glyph glyph-name="dotaccent" unicode="&#x2d9;" horiz-adv-x="195" 
d="M20 752c0 44 34 78 77 78c44 0 78 -34 78 -78c0 -43 -34 -77 -78 -77c-43 0 -77 34 -77 77z" />
    <glyph glyph-name="dieresis" unicode="&#xa8;" horiz-adv-x="365" 
d="M20 740c0 37 28 65 64 65c37 0 65 -28 65 -65c0 -36 -28 -64 -65 -64c-36 0 -64 28 -64 64zM216 740c0 37 28 65 64 65c37 0 65 -28 65 -65c0 -36 -28 -64 -65 -64c-36 0 -64 28 -64 64z" />
    <glyph glyph-name="dotlessj" unicode="&#x237;" horiz-adv-x="331" 
d="M246 540v-542c0 -166 -84 -258 -235 -258c-102 0 -164 43 -164 99c0 33 26 52 54 52c75 0 60 -98 132 -98c49 0 74 35 74 129v368c0 73 -4 121 -8 138c-7 31 -23 40 -85 40v34z" />
    <glyph glyph-name="dotaccent.cap" horiz-adv-x="173" 
d="M20 893c0 37 31 66 66 66c39 0 70 -29 70 -66c0 -34 -31 -63 -70 -63c-35 0 -66 29 -66 63z" />
    <glyph glyph-name="dieresis.cap" horiz-adv-x="339" 
d="M0 903c0 33 26 57 60 57c36 0 62 -24 62 -57c0 -35 -26 -59 -62 -59c-34 0 -60 24 -60 59zM217 903c0 33 26 57 62 57c33 0 60 -24 60 -57c0 -35 -27 -59 -60 -59c-36 0 -62 24 -62 59z" />
    <glyph glyph-name="dotbelow" horiz-adv-x="172" 
d="M9 -165c0 44 34 78 77 78c44 0 78 -34 78 -78c0 -43 -34 -77 -78 -77c-43 0 -77 34 -77 77z" />
    <glyph glyph-name="ndotaccent" unicode="&#x1e45;" horiz-adv-x="727" 
d="M257 301v-138c0 -108 7 -118 87 -123v-40h-315v40c78 5 89 16 89 116v125c0 78 -3 128 -7 145c-8 35 -25 42 -86 42v34l193 38l13 -88h4c44 55 106 88 177 88c85 0 133 -22 174 -76c23 -31 43 -75 43 -160v-141c0 -108 8 -118 85 -123v-40h-313v40c79 4 89 17 89 116v136
c0 136 -29 183 -116 183c-43 0 -73 -25 -95 -68c-12 -24 -22 -65 -22 -106zM305 752c0 44 34 78 77 78c44 0 78 -34 78 -78c0 -43 -34 -77 -78 -77c-43 0 -77 34 -77 77z" />
    <glyph glyph-name="cdotaccent" unicode="&#x10b;" horiz-adv-x="564" 
d="M502 121l26 -38c-50 -56 -130 -88 -217 -88c-162 0 -272 108 -272 268c0 165 117 277 288 277c120 0 209 -51 209 -118c0 -39 -24 -63 -61 -63c-31 0 -52 15 -75 51c-40 63 -51 72 -85 72c-77 0 -122 -76 -122 -205c0 -138 53 -216 149 -216c54 0 111 22 160 60zM243 752
c0 44 34 78 77 78c44 0 78 -34 78 -78c0 -43 -34 -77 -78 -77c-43 0 -77 34 -77 77z" />
    <glyph glyph-name="edotaccent" unicode="&#x117;" 
d="M512 128l28 -35c-62 -70 -136 -103 -227 -103c-164 0 -275 109 -275 268c0 165 119 282 287 282c141 0 224 -81 224 -217c0 -21 -2 -23 -33 -23h-322c-3 -7 -4 -17 -4 -33c0 -130 61 -212 158 -212c56 0 112 26 164 73zM201 356h145c54 0 63 3 63 26
c0 58 -37 100 -88 100c-57 0 -107 -53 -120 -126zM247 752c0 44 34 78 77 78c44 0 78 -34 78 -78c0 -43 -34 -77 -78 -77c-43 0 -77 34 -77 77z" />
    <glyph glyph-name="zdotaccent" unicode="&#x17c;" horiz-adv-x="568" 
d="M532 170l-12 -170h-494v23l313 454h-92c-114 0 -137 -15 -153 -103h-39l12 156h451v-23l-308 -453h88c140 0 170 18 195 116h39zM250 752c0 44 34 78 77 78c44 0 78 -34 78 -78c0 -43 -34 -77 -78 -77c-43 0 -77 34 -77 77z" />
    <glyph glyph-name="adieresis" unicode="&#xe4;" horiz-adv-x="574" 
d="M344 190v95c-111 -51 -169 -91 -169 -138c0 -39 24 -63 56 -63c65 0 113 47 113 106zM203 277l141 61v42c0 77 -27 111 -84 111c-38 0 -55 -19 -72 -67c-12 -33 -33 -53 -71 -53c-37 0 -58 24 -58 65c0 63 71 104 211 104c150 0 208 -49 208 -176v-219
c0 -57 11 -85 34 -85c13 0 24 4 35 13l15 -29c-18 -33 -61 -54 -110 -54c-61 0 -94 39 -94 107h-5c-38 -69 -102 -106 -180 -106c-83 0 -139 52 -139 128c0 58 48 109 169 158zM110 740c0 37 28 65 64 65c37 0 65 -28 65 -65c0 -36 -28 -64 -65 -64c-36 0 -64 28 -64 64z
M306 740c0 37 28 65 64 65c37 0 65 -28 65 -65c0 -36 -28 -64 -65 -64c-36 0 -64 28 -64 64z" />
    <glyph glyph-name="udieresis" unicode="&#xfc;" horiz-adv-x="709" 
d="M465 262v104c0 108 -6 116 -87 124v40h226v-303c0 -81 2 -125 7 -147c7 -34 19 -40 85 -40v-39l-199 -12l-11 89h-4c-34 -55 -101 -88 -178 -88c-70 0 -126 26 -163 76c-29 39 -43 92 -43 165v135c0 110 -5 115 -85 124v40h224v-283c0 -134 32 -192 105 -192
c40 0 70 18 91 54c22 36 32 84 32 153zM170 740c0 37 28 65 64 65c37 0 65 -28 65 -65c0 -36 -28 -64 -65 -64c-36 0 -64 28 -64 64zM366 740c0 37 28 65 64 65c37 0 65 -28 65 -65c0 -36 -28 -64 -65 -64c-36 0 -64 28 -64 64z" />
    <glyph glyph-name="odieresis" unicode="&#xf6;" horiz-adv-x="660" 
d="M328 540c159 0 295 -114 295 -271c0 -162 -136 -279 -295 -279c-158 0 -291 116 -291 279c0 158 133 271 291 271zM328 482c-81 0 -134 -86 -134 -214c0 -132 52 -217 134 -217c84 0 138 86 138 217c0 127 -55 214 -138 214zM179 740c0 37 28 65 64 65
c37 0 65 -28 65 -65c0 -36 -28 -64 -65 -64c-36 0 -64 28 -64 64zM375 740c0 37 28 65 64 65c37 0 65 -28 65 -65c0 -36 -28 -64 -65 -64c-36 0 -64 28 -64 64z" />
    <glyph glyph-name="edieresis" unicode="&#xeb;" 
d="M512 128l28 -35c-62 -70 -136 -103 -227 -103c-164 0 -275 109 -275 268c0 165 119 282 287 282c141 0 224 -81 224 -217c0 -21 -2 -23 -33 -23h-322c-3 -7 -4 -17 -4 -33c0 -130 61 -212 158 -212c56 0 112 26 164 73zM201 356h145c54 0 63 3 63 26
c0 58 -37 100 -88 100c-57 0 -107 -53 -120 -126zM167 740c0 37 28 65 64 65c37 0 65 -28 65 -65c0 -36 -28 -64 -65 -64c-36 0 -64 28 -64 64zM363 740c0 37 28 65 64 65c37 0 65 -28 65 -65c0 -36 -28 -64 -65 -64c-36 0 -64 28 -64 64z" />
    <glyph glyph-name="wdieresis" unicode="&#x1e85;" horiz-adv-x="891" 
d="M448 345l-135 -355h-75l-137 411c-21 64 -47 86 -93 89v40h286v-40c-48 -1 -64 -13 -64 -43c0 -14 5 -32 11 -54l63 -234h4l140 371h82l105 -371h5l80 207c13 33 18 58 18 76c0 35 -25 48 -63 48v40h215v-40c-47 0 -58 -10 -115 -154l-138 -346h-79l-106 355h-4zM319 740
c0 37 28 65 64 65c37 0 65 -28 65 -65c0 -36 -28 -64 -65 -64c-36 0 -64 28 -64 64zM515 740c0 37 28 65 64 65c37 0 65 -28 65 -65c0 -36 -28 -64 -65 -64c-36 0 -64 28 -64 64z" />
    <glyph glyph-name="ydieresis" unicode="&#xff;" horiz-adv-x="646" 
d="M516 323l-229 -480c-28 -59 -93 -103 -151 -103c-44 0 -73 23 -73 59c0 33 22 52 74 56c61 5 98 24 115 56l27 52l-177 438c-31 77 -42 87 -94 89v40h303v-40c-52 0 -70 -9 -70 -35c0 -10 4 -25 9 -40l102 -292h4l86 195c36 83 44 105 44 128c0 35 -15 44 -73 44v40h241
v-40c-52 0 -68 -19 -138 -167zM220 740c0 37 28 65 64 65c37 0 65 -28 65 -65c0 -36 -28 -64 -65 -64c-36 0 -64 28 -64 64zM416 740c0 37 28 65 64 65c37 0 65 -28 65 -65c0 -36 -28 -64 -65 -64c-36 0 -64 28 -64 64z" />
    <glyph glyph-name="idieresis" unicode="&#xef;" horiz-adv-x="361" 
d="M257 540v-376c0 -106 10 -121 87 -124v-40h-315v40c75 4 89 23 89 117v123c0 77 -3 129 -7 147c-7 33 -25 41 -86 41v34zM38 740c0 37 28 65 64 65c37 0 65 -28 65 -65c0 -36 -28 -64 -65 -64c-36 0 -64 28 -64 64zM234 740c0 37 28 65 64 65c37 0 65 -28 65 -65
c0 -36 -28 -64 -65 -64c-36 0 -64 28 -64 64z" />
    <glyph glyph-name="idotbelow" unicode="&#x1ecb;" horiz-adv-x="361" 
d="M257 540v-376c0 -106 10 -121 87 -124v-40h-315v40c75 4 89 23 89 117v123c0 77 -3 129 -7 147c-7 33 -25 41 -86 41v34zM110 752c0 44 34 78 77 78c44 0 78 -34 78 -78c0 -43 -34 -77 -78 -77c-43 0 -77 34 -77 77zM110 -165c0 44 34 78 77 78c44 0 78 -34 78 -78
c0 -43 -34 -77 -78 -77c-43 0 -77 34 -77 77z" />
    <glyph glyph-name="udotbelow" unicode="&#x1ee5;" horiz-adv-x="709" 
d="M465 262v104c0 108 -6 116 -87 124v40h226v-303c0 -81 2 -125 7 -147c7 -34 19 -40 85 -40v-39l-199 -12l-11 89h-4c-34 -55 -101 -88 -178 -88c-70 0 -126 26 -163 76c-29 39 -43 92 -43 165v135c0 110 -5 115 -85 124v40h224v-283c0 -134 32 -192 105 -192
c40 0 70 18 91 54c22 36 32 84 32 153zM249 -165c0 44 34 78 77 78c44 0 78 -34 78 -78c0 -43 -34 -77 -78 -77c-43 0 -77 34 -77 77z" />
    <glyph glyph-name="hdotbelow" unicode="&#x1e25;" horiz-adv-x="714" 
d="M244 297v-133c0 -109 7 -119 87 -124v-40h-315v40c81 5 89 16 89 117v411c0 79 -2 123 -7 147c-7 34 -19 40 -79 40v37l223 38v-369h4c41 54 91 79 162 79c65 0 116 -20 152 -60c35 -40 56 -100 56 -161v-155c0 -111 6 -119 85 -124v-40h-313v40c80 4 89 16 89 117v123
c0 142 -27 194 -102 194c-41 0 -72 -15 -95 -44c-23 -31 -36 -77 -36 -133zM281 -165c0 44 34 78 77 78c44 0 78 -34 78 -78c0 -43 -34 -77 -78 -77c-43 0 -77 34 -77 77z" />
    <glyph glyph-name="rdotbelow" unicode="&#x1e5b;" horiz-adv-x="498" 
d="M258 203v-48c0 -103 13 -114 106 -115v-40h-334v40c81 5 89 16 89 117v122c0 165 -12 189 -93 189v35l200 37l16 -115h4c36 70 99 115 164 115c51 0 86 -28 86 -67c0 -43 -27 -76 -69 -76c-41 0 -59 40 -87 40c-25 0 -50 -36 -64 -92c-11 -40 -18 -93 -18 -142zM112 -165
c0 44 34 78 77 78c44 0 78 -34 78 -78c0 -43 -34 -77 -78 -77c-43 0 -77 34 -77 77z" />
    <glyph glyph-name="odotbelow" unicode="&#x1ecd;" horiz-adv-x="660" 
d="M328 540c159 0 295 -114 295 -271c0 -162 -136 -279 -295 -279c-158 0 -291 116 -291 279c0 158 133 271 291 271zM328 482c-81 0 -134 -86 -134 -214c0 -132 52 -217 134 -217c84 0 138 86 138 217c0 127 -55 214 -138 214zM251 -165c0 44 34 78 77 78
c44 0 78 -34 78 -78c0 -43 -34 -77 -78 -77c-43 0 -77 34 -77 77z" />
    <glyph glyph-name="ddotbelow" unicode="&#x1e0d;" horiz-adv-x="694" 
d="M481 -10v74h-4c-46 -49 -107 -74 -179 -74c-152 0 -259 112 -259 271s109 279 253 279c66 0 118 -18 156 -66h4v85c0 78 -2 140 -6 157c-6 28 -39 40 -109 40v34l253 40v-572c0 -99 2 -149 7 -177c6 -35 17 -41 74 -41v-39zM450 248v39c0 50 -11 95 -32 128
c-24 38 -63 59 -106 59c-78 0 -121 -75 -121 -211c0 -138 43 -216 120 -216c44 0 87 24 112 63c19 29 27 70 27 138zM272 -165c0 44 34 78 77 78c44 0 78 -34 78 -78c0 -43 -34 -77 -78 -77c-43 0 -77 34 -77 77z" />
    <glyph glyph-name="edotbelow" unicode="&#x1eb9;" 
d="M512 128l28 -35c-62 -70 -136 -103 -227 -103c-164 0 -275 109 -275 268c0 165 119 282 287 282c141 0 224 -81 224 -217c0 -21 -2 -23 -33 -23h-322c-3 -7 -4 -17 -4 -33c0 -130 61 -212 158 -212c56 0 112 26 164 73zM201 356h145c54 0 63 3 63 26
c0 58 -37 100 -88 100c-57 0 -107 -53 -120 -126zM235 -165c0 44 34 78 77 78c44 0 78 -34 78 -78c0 -43 -34 -77 -78 -77c-43 0 -77 34 -77 77z" />
    <glyph glyph-name="sdotbelow" unicode="&#x1e63;" horiz-adv-x="466" 
d="M107 35l-22 -35h-31v182h42c23 -95 64 -138 132 -138c49 0 78 22 78 58c0 37 -32 71 -106 111c-101 55 -142 105 -142 173c0 89 70 155 163 155c41 0 85 -13 115 -34l18 24h26v-151h-39c-31 76 -61 107 -107 107c-37 0 -61 -22 -61 -55c0 -37 31 -68 106 -108
c108 -58 151 -109 151 -181c0 -92 -72 -153 -182 -153c-57 0 -109 16 -141 45zM162 -164c0 44 34 78 77 78c44 0 78 -34 78 -78c0 -43 -34 -77 -78 -77c-43 0 -77 34 -77 77z" />
    <glyph glyph-name="tdotbelow" unicode="&#x1e6d;" horiz-adv-x="382" 
d="M98 475h-73v45c79 23 134 72 161 131h51v-121h115v-55h-115v-307c0 -82 17 -114 59 -114c27 0 45 11 59 36l21 -29c-18 -46 -64 -71 -132 -71c-92 0 -146 45 -146 122v363zM133 -165c0 44 34 78 77 78c44 0 78 -34 78 -78c0 -43 -34 -77 -78 -77c-43 0 -77 34 -77 77z
" />
    <glyph glyph-name="zdotbelow" unicode="&#x1e93;" horiz-adv-x="568" 
d="M532 170l-12 -170h-494v23l313 454h-92c-114 0 -137 -15 -153 -103h-39l12 156h451v-23l-308 -453h88c140 0 170 18 195 116h39zM226 -165c0 44 34 78 77 78c44 0 78 -34 78 -78c0 -43 -34 -77 -78 -77c-43 0 -77 34 -77 77z" />
    <glyph glyph-name="Idotbelow" unicode="&#x1eca;" horiz-adv-x="429" 
d="M393 40v-40h-357v40c90 3 105 20 105 144v402c0 113 -13 140 -95 144v40h337v-40c-82 -4 -95 -31 -95 -144v-402c0 -124 15 -141 105 -144zM136 -165c0 44 34 78 77 78c44 0 78 -34 78 -78c0 -43 -34 -77 -78 -77c-43 0 -77 34 -77 77z" />
    <glyph glyph-name="Hdotbelow" unicode="&#x1e24;" horiz-adv-x="945" 
d="M805 609v-448c0 -102 15 -118 105 -121v-40h-367v40c98 3 115 20 115 114v209h-371v-202c0 -102 16 -118 114 -121v-40h-366v40c90 3 105 20 105 114v462c0 93 -13 110 -94 114v40h345v-40c-90 -3 -104 -20 -104 -121v-184h371v191c0 93 -15 110 -105 114v40h346v-40
c-81 -3 -94 -20 -94 -121zM420 -165c0 44 34 78 77 78c44 0 78 -34 78 -78c0 -43 -34 -77 -78 -77c-43 0 -77 34 -77 77z" />
    <glyph glyph-name="Edotbelow" unicode="&#x1eb8;" horiz-adv-x="764" 
d="M287 680v-254c171 0 196 14 208 122h37v-293h-37c-17 108 -41 120 -208 120v-206c0 -86 42 -114 171 -114c152 0 203 38 231 174h40l-16 -229h-678v40c89 3 105 20 105 114v462c0 93 -14 110 -94 114v40h632l7 -196h-43c-17 112 -62 143 -204 143h-113
c-34 0 -38 -5 -38 -37zM325 -165c0 44 34 78 77 78c44 0 78 -34 78 -78c0 -43 -34 -77 -78 -77c-43 0 -77 34 -77 77z" />
    <glyph glyph-name="Odotbelow" unicode="&#x1ecc;" horiz-adv-x="944" 
d="M472 780c240 0 427 -175 427 -401c0 -217 -189 -389 -427 -389s-427 172 -427 389c0 226 187 401 427 401zM472 55c155 0 253 124 253 321c0 208 -97 339 -253 339s-253 -131 -253 -339c0 -197 97 -321 253 -321zM405 -165c0 44 34 78 77 78c44 0 78 -34 78 -78
c0 -43 -34 -77 -78 -77c-43 0 -77 34 -77 77z" />
    <glyph glyph-name="Ddotbelow" unicode="&#x1e0c;" horiz-adv-x="919" 
d="M452 0h-417v40c88 3 105 19 105 114v462c0 93 -13 110 -89 114v40h380c256 0 442 -168 442 -398c0 -219 -173 -372 -421 -372zM429 709h-125c-11 0 -17 -7 -17 -17v-517c0 -77 47 -114 147 -114c174 0 272 109 272 309c0 213 -105 339 -277 339zM371 -165
c0 44 34 78 77 78c44 0 78 -34 78 -78c0 -43 -34 -77 -78 -77c-43 0 -77 34 -77 77z" />
    <glyph glyph-name="Rdotbelow" unicode="&#x1e5a;" horiz-adv-x="815" 
d="M695 577c0 -111 -61 -189 -201 -214l232 -266c32 -37 79 -57 124 -57v-40h-237l-248 304c-33 40 -57 51 -78 51v-196c0 -99 18 -119 145 -119v-40h-397v40c88 0 105 20 105 114v462c0 93 -12 110 -94 114v40h346c192 0 303 -72 303 -193zM287 697v-282h65
c125 0 187 46 187 157c0 85 -55 142 -147 142h-87c-11 0 -18 -7 -18 -17zM360 -165c0 44 34 78 77 78c44 0 78 -34 78 -78c0 -43 -34 -77 -78 -77c-43 0 -77 34 -77 77z" />
    <glyph glyph-name="Sdotbelow" unicode="&#x1e62;" horiz-adv-x="663" 
d="M69 0l-15 255h39c18 -126 109 -204 229 -204c100 0 167 50 167 124c0 63 -33 90 -188 148c-155 59 -229 138 -229 245c0 125 101 212 247 212c68 0 127 -21 185 -64l18 50h24l11 -216h-39c-32 109 -104 169 -193 169c-82 0 -139 -45 -139 -109c0 -57 32 -82 170 -134
c186 -71 262 -146 262 -257c0 -135 -123 -229 -298 -229c-79 0 -140 21 -207 70l-20 -60h-24zM244 -165c0 44 34 78 77 78c44 0 78 -34 78 -78c0 -43 -34 -77 -78 -77c-43 0 -77 34 -77 77z" />
    <glyph glyph-name="Tdotbelow" unicode="&#x1e6c;" horiz-adv-x="827" 
d="M805 770l10 -220h-43c-8 132 -61 168 -168 168c-104 0 -119 -7 -119 -31v-524c0 -86 17 -119 135 -123v-40h-419v40c119 4 137 37 137 123v524c0 24 -14 31 -103 31c-97 0 -180 -6 -184 -168h-39l10 220h783zM335 -165c0 44 34 78 77 78c44 0 78 -34 78 -78
c0 -43 -34 -77 -78 -77c-43 0 -77 34 -77 77z" />
    <glyph glyph-name="Udotbelow" unicode="&#x1ee4;" horiz-adv-x="880" 
d="M757 522v-212c0 -226 -95 -320 -324 -320c-215 0 -310 86 -310 283v274c0 103 -4 138 -18 159c-12 18 -31 24 -78 24v40h359v-40c-56 0 -79 -5 -93 -22c-18 -21 -23 -57 -23 -161v-262c0 -151 64 -223 198 -223c138 0 206 76 206 229v231c0 111 -7 156 -29 181
c-18 19 -45 27 -97 27v40h324v-40c-49 0 -73 -7 -88 -25c-20 -25 -27 -72 -27 -183zM395 -165c0 44 34 78 77 78c44 0 78 -34 78 -78c0 -43 -34 -77 -78 -77c-43 0 -77 34 -77 77z" />
    <glyph glyph-name="Zdotbelow" unicode="&#x1e92;" horiz-adv-x="797" 
d="M760 255l-13 -255h-732v23l503 695h-253c-99 0 -144 -48 -163 -152h-39l16 204h648v-23l-498 -691h286c144 0 174 43 199 199h46zM318 -165c0 44 34 78 77 78c44 0 78 -34 78 -78c0 -43 -34 -77 -78 -77c-43 0 -77 34 -77 77z" />
    <glyph glyph-name="period" unicode="." horiz-adv-x="260" 
d="M54 64c0 43 33 77 75 77c44 0 77 -34 77 -77c0 -41 -33 -74 -77 -74c-42 0 -75 33 -75 74z" />
    <glyph glyph-name="colon" unicode=":" horiz-adv-x="284" 
d="M66 64c0 43 33 77 75 77c44 0 77 -34 77 -77c0 -41 -33 -74 -77 -74c-42 0 -75 33 -75 74zM66 380c0 43 33 77 75 77c44 0 77 -34 77 -77c0 -41 -33 -74 -77 -74c-42 0 -75 33 -75 74z" />
    <glyph glyph-name="semicolon" unicode=";" horiz-adv-x="295" 
d="M78 -155l-29 42c72 48 105 85 105 121c-7 -4 -20 -8 -30 -8c-28 0 -51 29 -51 64c0 44 33 77 75 77c47 0 77 -36 77 -93c0 -72 -47 -137 -147 -203zM73 380c0 43 33 77 75 77c44 0 77 -34 77 -77c0 -41 -33 -74 -77 -74c-42 0 -75 33 -75 74z" />
    <glyph glyph-name="acute" unicode="&#xb4;" horiz-adv-x="299" 
d="M75 651h-59l127 119c32 30 58 43 85 43c33 0 55 -17 55 -45c0 -23 -27 -39 -69 -57z" />
    <glyph glyph-name="aacute" unicode="&#xe1;" horiz-adv-x="574" 
d="M344 190v95c-111 -51 -169 -91 -169 -138c0 -39 24 -63 56 -63c65 0 113 47 113 106zM203 277l141 61v42c0 77 -27 111 -84 111c-38 0 -55 -19 -72 -67c-12 -33 -33 -53 -71 -53c-37 0 -58 24 -58 65c0 63 71 104 211 104c150 0 208 -49 208 -176v-219
c0 -57 11 -85 34 -85c13 0 24 4 35 13l15 -29c-18 -33 -61 -54 -110 -54c-61 0 -94 39 -94 107h-5c-38 -69 -102 -106 -180 -106c-83 0 -139 52 -139 128c0 58 48 109 169 158zM211 651h-59l127 119c32 30 58 43 85 43c33 0 55 -17 55 -45c0 -23 -27 -39 -69 -57z" />
    <glyph glyph-name="nacute" unicode="&#x144;" horiz-adv-x="727" 
d="M257 301v-138c0 -108 7 -118 87 -123v-40h-315v40c78 5 89 16 89 116v125c0 78 -3 128 -7 145c-8 35 -25 42 -86 42v34l193 38l13 -88h4c44 55 106 88 177 88c85 0 133 -22 174 -76c23 -31 43 -75 43 -160v-141c0 -108 8 -118 85 -123v-40h-313v40c79 4 89 17 89 116v136
c0 136 -29 183 -116 183c-43 0 -73 -25 -95 -68c-12 -24 -22 -65 -22 -106zM330 651h-59l127 119c32 30 58 43 85 43c33 0 55 -17 55 -45c0 -23 -27 -39 -69 -57z" />
    <glyph glyph-name="uacute" unicode="&#xfa;" horiz-adv-x="709" 
d="M465 262v104c0 108 -6 116 -87 124v40h226v-303c0 -81 2 -125 7 -147c7 -34 19 -40 85 -40v-39l-199 -12l-11 89h-4c-34 -55 -101 -88 -178 -88c-70 0 -126 26 -163 76c-29 39 -43 92 -43 165v135c0 110 -5 115 -85 124v40h224v-283c0 -134 32 -192 105 -192
c40 0 70 18 91 54c22 36 32 84 32 153zM278 651h-59l127 119c32 30 58 43 85 43c33 0 55 -17 55 -45c0 -23 -27 -39 -69 -57z" />
    <glyph glyph-name="racute" unicode="&#x155;" horiz-adv-x="498" 
d="M258 203v-48c0 -103 13 -114 106 -115v-40h-334v40c81 5 89 16 89 117v122c0 165 -12 189 -93 189v35l200 37l16 -115h4c36 70 99 115 164 115c51 0 86 -28 86 -67c0 -43 -27 -76 -69 -76c-41 0 -59 40 -87 40c-25 0 -50 -36 -64 -92c-11 -40 -18 -93 -18 -142zM248 651
h-59l127 119c32 30 58 43 85 43c33 0 55 -17 55 -45c0 -23 -27 -39 -69 -57z" />
    <glyph glyph-name="oacute" unicode="&#xf3;" horiz-adv-x="660" 
d="M328 540c159 0 295 -114 295 -271c0 -162 -136 -279 -295 -279c-158 0 -291 116 -291 279c0 158 133 271 291 271zM328 482c-81 0 -134 -86 -134 -214c0 -132 52 -217 134 -217c84 0 138 86 138 217c0 127 -55 214 -138 214zM288 651h-59l127 119c32 30 58 43 85 43
c33 0 55 -17 55 -45c0 -23 -27 -39 -69 -57z" />
    <glyph glyph-name="cacute" unicode="&#x107;" horiz-adv-x="564" 
d="M502 121l26 -38c-50 -56 -130 -88 -217 -88c-162 0 -272 108 -272 268c0 165 117 277 288 277c120 0 209 -51 209 -118c0 -39 -24 -63 -61 -63c-31 0 -52 15 -75 51c-40 63 -51 72 -85 72c-77 0 -122 -76 -122 -205c0 -138 53 -216 149 -216c54 0 111 22 160 60zM306 651
h-59l127 119c32 30 58 43 85 43c33 0 55 -17 55 -45c0 -23 -27 -39 -69 -57z" />
    <glyph glyph-name="eacute" unicode="&#xe9;" 
d="M512 128l28 -35c-62 -70 -136 -103 -227 -103c-164 0 -275 109 -275 268c0 165 119 282 287 282c141 0 224 -81 224 -217c0 -21 -2 -23 -33 -23h-322c-3 -7 -4 -17 -4 -33c0 -130 61 -212 158 -212c56 0 112 26 164 73zM201 356h145c54 0 63 3 63 26
c0 58 -37 100 -88 100c-57 0 -107 -53 -120 -126zM291 651h-59l127 119c32 30 58 43 85 43c33 0 55 -17 55 -45c0 -23 -27 -39 -69 -57z" />
    <glyph glyph-name="sacute" unicode="&#x15b;" horiz-adv-x="466" 
d="M107 35l-22 -35h-31v182h42c23 -95 64 -138 132 -138c49 0 78 22 78 58c0 37 -32 71 -106 111c-101 55 -142 105 -142 173c0 89 70 155 163 155c41 0 85 -13 115 -34l18 24h26v-151h-39c-31 76 -61 107 -107 107c-37 0 -61 -22 -61 -55c0 -37 31 -68 106 -108
c108 -58 151 -109 151 -181c0 -92 -72 -153 -182 -153c-57 0 -109 16 -141 45zM197 651h-59l127 119c32 30 58 43 85 43c33 0 55 -17 55 -45c0 -23 -27 -39 -69 -57z" />
    <glyph glyph-name="wacute" unicode="&#x1e83;" horiz-adv-x="891" 
d="M448 345l-135 -355h-75l-137 411c-21 64 -47 86 -93 89v40h286v-40c-48 -1 -64 -13 -64 -43c0 -14 5 -32 11 -54l63 -234h4l140 371h82l105 -371h5l80 207c13 33 18 58 18 76c0 35 -25 48 -63 48v40h215v-40c-47 0 -58 -10 -115 -154l-138 -346h-79l-106 355h-4zM428 651
h-59l127 119c32 30 58 43 85 43c33 0 55 -17 55 -45c0 -23 -27 -39 -69 -57z" />
    <glyph glyph-name="yacute" unicode="&#xfd;" horiz-adv-x="646" 
d="M516 323l-229 -480c-28 -59 -93 -103 -151 -103c-44 0 -73 23 -73 59c0 33 22 52 74 56c61 5 98 24 115 56l27 52l-177 438c-31 77 -42 87 -94 89v40h303v-40c-52 0 -70 -9 -70 -35c0 -10 4 -25 9 -40l102 -292h4l86 195c36 83 44 105 44 128c0 35 -15 44 -73 44v40h241
v-40c-52 0 -68 -19 -138 -167zM329 651h-59l127 119c32 30 58 43 85 43c33 0 55 -17 55 -45c0 -23 -27 -39 -69 -57z" />
    <glyph glyph-name="zacute" unicode="&#x17a;" horiz-adv-x="568" 
d="M532 170l-12 -170h-494v23l313 454h-92c-114 0 -137 -15 -153 -103h-39l12 156h451v-23l-308 -453h88c140 0 170 18 195 116h39zM275 651h-59l127 119c32 30 58 43 85 43c33 0 55 -17 55 -45c0 -23 -27 -39 -69 -57z" />
    <glyph glyph-name="iacute" unicode="&#xed;" horiz-adv-x="361" 
d="M257 540v-376c0 -106 10 -121 87 -124v-40h-315v40c75 4 89 23 89 117v123c0 77 -3 129 -7 147c-7 33 -25 41 -86 41v34zM146 651h-59l127 119c32 30 58 43 85 43c33 0 55 -17 55 -45c0 -23 -27 -39 -69 -57z" />
    <glyph glyph-name="grave" unicode="`" horiz-adv-x="299" 
d="M283 651h-64l-134 60c-42 19 -69 34 -69 57c0 28 22 45 55 45c27 0 53 -13 85 -43z" />
    <glyph glyph-name="agrave" unicode="&#xe0;" horiz-adv-x="574" 
d="M344 190v95c-111 -51 -169 -91 -169 -138c0 -39 24 -63 56 -63c65 0 113 47 113 106zM203 277l141 61v42c0 77 -27 111 -84 111c-38 0 -55 -19 -72 -67c-12 -33 -33 -53 -71 -53c-37 0 -58 24 -58 65c0 63 71 104 211 104c150 0 208 -49 208 -176v-219
c0 -57 11 -85 34 -85c13 0 24 4 35 13l15 -29c-18 -33 -61 -54 -110 -54c-61 0 -94 39 -94 107h-5c-38 -69 -102 -106 -180 -106c-83 0 -139 52 -139 128c0 58 48 109 169 158zM392 651h-64l-134 60c-42 19 -69 34 -69 57c0 28 22 45 55 45c27 0 53 -13 85 -43z" />
    <glyph glyph-name="ugrave" unicode="&#xf9;" horiz-adv-x="709" 
d="M465 262v104c0 108 -6 116 -87 124v40h226v-303c0 -81 2 -125 7 -147c7 -34 19 -40 85 -40v-39l-199 -12l-11 89h-4c-34 -55 -101 -88 -178 -88c-70 0 -126 26 -163 76c-29 39 -43 92 -43 165v135c0 110 -5 115 -85 124v40h224v-283c0 -134 32 -192 105 -192
c40 0 70 18 91 54c22 36 32 84 32 153zM439 651h-64l-134 60c-42 19 -69 34 -69 57c0 28 22 45 55 45c27 0 53 -13 85 -43z" />
    <glyph glyph-name="ograve" unicode="&#xf2;" horiz-adv-x="660" 
d="M328 540c159 0 295 -114 295 -271c0 -162 -136 -279 -295 -279c-158 0 -291 116 -291 279c0 158 133 271 291 271zM328 482c-81 0 -134 -86 -134 -214c0 -132 52 -217 134 -217c84 0 138 86 138 217c0 127 -55 214 -138 214zM469 651h-64l-134 60c-42 19 -69 34 -69 57
c0 28 22 45 55 45c27 0 53 -13 85 -43z" />
    <glyph glyph-name="egrave" unicode="&#xe8;" 
d="M512 128l28 -35c-62 -70 -136 -103 -227 -103c-164 0 -275 109 -275 268c0 165 119 282 287 282c141 0 224 -81 224 -217c0 -21 -2 -23 -33 -23h-322c-3 -7 -4 -17 -4 -33c0 -130 61 -212 158 -212c56 0 112 26 164 73zM201 356h145c54 0 63 3 63 26
c0 58 -37 100 -88 100c-57 0 -107 -53 -120 -126zM388 651h-64l-134 60c-42 19 -69 34 -69 57c0 28 22 45 55 45c27 0 53 -13 85 -43z" />
    <glyph glyph-name="wgrave" unicode="&#x1e81;" horiz-adv-x="891" 
d="M448 345l-135 -355h-75l-137 411c-21 64 -47 86 -93 89v40h286v-40c-48 -1 -64 -13 -64 -43c0 -14 5 -32 11 -54l63 -234h4l140 371h82l105 -371h5l80 207c13 33 18 58 18 76c0 35 -25 48 -63 48v40h215v-40c-47 0 -58 -10 -115 -154l-138 -346h-79l-106 355h-4zM588 651
h-64l-134 60c-42 19 -69 34 -69 57c0 28 22 45 55 45c27 0 53 -13 85 -43z" />
    <glyph glyph-name="ygrave" unicode="&#x1ef3;" horiz-adv-x="646" 
d="M516 323l-229 -480c-28 -59 -93 -103 -151 -103c-44 0 -73 23 -73 59c0 33 22 52 74 56c61 5 98 24 115 56l27 52l-177 438c-31 77 -42 87 -94 89v40h303v-40c-52 0 -70 -9 -70 -35c0 -10 4 -25 9 -40l102 -292h4l86 195c36 83 44 105 44 128c0 35 -15 44 -73 44v40h241
v-40c-52 0 -68 -19 -138 -167zM490 651h-64l-134 60c-42 19 -69 34 -69 57c0 28 22 45 55 45c27 0 53 -13 85 -43z" />
    <glyph glyph-name="igrave" unicode="&#xec;" horiz-adv-x="361" 
d="M257 540v-376c0 -106 10 -121 87 -124v-40h-315v40c75 4 89 23 89 117v123c0 77 -3 129 -7 147c-7 33 -25 41 -86 41v34zM280 651h-64l-134 60c-42 19 -69 34 -69 57c0 28 22 45 55 45c27 0 53 -13 85 -43z" />
    <glyph glyph-name="hungarumlaut" unicode="&#x2dd;" horiz-adv-x="536" 
d="M75 651h-59l127 119c32 30 58 43 85 43c33 0 55 -17 55 -45c0 -23 -27 -39 -69 -57zM312 651h-59l127 119c32 30 58 43 85 43c33 0 55 -17 55 -45c0 -23 -27 -39 -69 -57z" />
    <glyph glyph-name="uhungarumlaut" unicode="&#x171;" horiz-adv-x="709" 
d="M465 262v104c0 108 -6 116 -87 124v40h226v-303c0 -81 2 -125 7 -147c7 -34 19 -40 85 -40v-39l-199 -12l-11 89h-4c-34 -55 -101 -88 -178 -88c-70 0 -126 26 -163 76c-29 39 -43 92 -43 165v135c0 110 -5 115 -85 124v40h224v-283c0 -134 32 -192 105 -192
c40 0 70 18 91 54c22 36 32 84 32 153zM191 651h-59l127 119c32 30 58 43 85 43c33 0 55 -17 55 -45c0 -23 -27 -39 -69 -57zM428 651h-59l127 119c32 30 58 43 85 43c33 0 55 -17 55 -45c0 -23 -27 -39 -69 -57z" />
    <glyph glyph-name="ohungarumlaut" unicode="&#x151;" horiz-adv-x="660" 
d="M328 540c159 0 295 -114 295 -271c0 -162 -136 -279 -295 -279c-158 0 -291 116 -291 279c0 158 133 271 291 271zM328 482c-81 0 -134 -86 -134 -214c0 -132 52 -217 134 -217c84 0 138 86 138 217c0 127 -55 214 -138 214zM215 651h-59l127 119c32 30 58 43 85 43
c33 0 55 -17 55 -45c0 -23 -27 -39 -69 -57zM452 651h-59l127 119c32 30 58 43 85 43c33 0 55 -17 55 -45c0 -23 -27 -39 -69 -57z" />
    <glyph glyph-name="circumflex" unicode="&#x2c6;" horiz-adv-x="386" 
d="M141 800h104l120 -149h-52l-120 68l-120 -68h-52z" />
    <glyph glyph-name="caron" unicode="&#x2c7;" horiz-adv-x="386" 
d="M245 651h-104l-120 149h52l120 -68l120 68h52z" />
    <glyph glyph-name="acircumflex" unicode="&#xe2;" horiz-adv-x="574" 
d="M344 190v95c-111 -51 -169 -91 -169 -138c0 -39 24 -63 56 -63c65 0 113 47 113 106zM203 277l141 61v42c0 77 -27 111 -84 111c-38 0 -55 -19 -72 -67c-12 -33 -33 -53 -71 -53c-37 0 -58 24 -58 65c0 63 71 104 211 104c150 0 208 -49 208 -176v-219
c0 -57 11 -85 34 -85c13 0 24 4 35 13l15 -29c-18 -33 -61 -54 -110 -54c-61 0 -94 39 -94 107h-5c-38 -69 -102 -106 -180 -106c-83 0 -139 52 -139 128c0 58 48 109 169 158zM221 800h104l120 -149h-52l-120 68l-120 -68h-52z" />
    <glyph glyph-name="ucircumflex" unicode="&#xfb;" horiz-adv-x="709" 
d="M465 262v104c0 108 -6 116 -87 124v40h226v-303c0 -81 2 -125 7 -147c7 -34 19 -40 85 -40v-39l-199 -12l-11 89h-4c-34 -55 -101 -88 -178 -88c-70 0 -126 26 -163 76c-29 39 -43 92 -43 165v135c0 110 -5 115 -85 124v40h224v-283c0 -134 32 -192 105 -192
c40 0 70 18 91 54c22 36 32 84 32 153zM267 800h104l120 -149h-52l-120 68l-120 -68h-52z" />
    <glyph glyph-name="hcircumflex" unicode="&#x125;" horiz-adv-x="714" 
d="M244 297v-133c0 -109 7 -119 87 -124v-40h-315v40c81 5 89 16 89 117v411c0 79 -2 123 -7 147c-7 34 -19 40 -79 40v37l223 38v-369h4c41 54 91 79 162 79c65 0 116 -20 152 -60c35 -40 56 -100 56 -161v-155c0 -111 6 -119 85 -124v-40h-313v40c80 4 89 16 89 117v123
c0 142 -27 194 -102 194c-41 0 -72 -15 -95 -44c-23 -31 -36 -77 -36 -133zM409 800h104l120 -149h-52l-120 68l-120 -68h-52z" />
    <glyph glyph-name="ocircumflex" unicode="&#xf4;" horiz-adv-x="660" 
d="M328 540c159 0 295 -114 295 -271c0 -162 -136 -279 -295 -279c-158 0 -291 116 -291 279c0 158 133 271 291 271zM328 482c-81 0 -134 -86 -134 -214c0 -132 52 -217 134 -217c84 0 138 86 138 217c0 127 -55 214 -138 214zM276 800h104l120 -149h-52l-120 68l-120 -68
h-52z" />
    <glyph glyph-name="ccircumflex" unicode="&#x109;" horiz-adv-x="564" 
d="M502 121l26 -38c-50 -56 -130 -88 -217 -88c-162 0 -272 108 -272 268c0 165 117 277 288 277c120 0 209 -51 209 -118c0 -39 -24 -63 -61 -63c-31 0 -52 15 -75 51c-40 63 -51 72 -85 72c-77 0 -122 -76 -122 -205c0 -138 53 -216 149 -216c54 0 111 22 160 60zM257 800
h104l120 -149h-52l-120 68l-120 -68h-52z" />
    <glyph glyph-name="ecircumflex" unicode="&#xea;" 
d="M512 128l28 -35c-62 -70 -136 -103 -227 -103c-164 0 -275 109 -275 268c0 165 119 282 287 282c141 0 224 -81 224 -217c0 -21 -2 -23 -33 -23h-322c-3 -7 -4 -17 -4 -33c0 -130 61 -212 158 -212c56 0 112 26 164 73zM201 356h145c54 0 63 3 63 26
c0 58 -37 100 -88 100c-57 0 -107 -53 -120 -126zM263 800h104l120 -149h-52l-120 68l-120 -68h-52z" />
    <glyph glyph-name="scircumflex" unicode="&#x15d;" horiz-adv-x="466" 
d="M107 35l-22 -35h-31v182h42c23 -95 64 -138 132 -138c49 0 78 22 78 58c0 37 -32 71 -106 111c-101 55 -142 105 -142 173c0 89 70 155 163 155c41 0 85 -13 115 -34l18 24h26v-151h-39c-31 76 -61 107 -107 107c-37 0 -61 -22 -61 -55c0 -37 31 -68 106 -108
c108 -58 151 -109 151 -181c0 -92 -72 -153 -182 -153c-57 0 -109 16 -141 45zM190 800h104l120 -149h-52l-120 68l-120 -68h-52z" />
    <glyph glyph-name="wcircumflex" unicode="&#x175;" horiz-adv-x="891" 
d="M448 345l-135 -355h-75l-137 411c-21 64 -47 86 -93 89v40h286v-40c-48 -1 -64 -13 -64 -43c0 -14 5 -32 11 -54l63 -234h4l140 371h82l105 -371h5l80 207c13 33 18 58 18 76c0 35 -25 48 -63 48v40h215v-40c-47 0 -58 -10 -115 -154l-138 -346h-79l-106 355h-4zM416 800
h104l120 -149h-52l-120 68l-120 -68h-52z" />
    <glyph glyph-name="ycircumflex" unicode="&#x177;" horiz-adv-x="646" 
d="M516 323l-229 -480c-28 -59 -93 -103 -151 -103c-44 0 -73 23 -73 59c0 33 22 52 74 56c61 5 98 24 115 56l27 52l-177 438c-31 77 -42 87 -94 89v40h303v-40c-52 0 -70 -9 -70 -35c0 -10 4 -25 9 -40l102 -292h4l86 195c36 83 44 105 44 128c0 35 -15 44 -73 44v40h241
v-40c-52 0 -68 -19 -138 -167zM317 800h104l120 -149h-52l-120 68l-120 -68h-52z" />
    <glyph glyph-name="icircumflex" unicode="&#xee;" horiz-adv-x="361" 
d="M257 540v-376c0 -106 10 -121 87 -124v-40h-315v40c75 4 89 23 89 117v123c0 77 -3 129 -7 147c-7 33 -25 41 -86 41v34zM135 800h104l120 -149h-52l-120 68l-120 -68h-52z" />
    <glyph glyph-name="jcircumflex" unicode="&#x135;" horiz-adv-x="331" 
d="M246 540v-542c0 -166 -84 -258 -235 -258c-102 0 -164 43 -164 99c0 33 26 52 54 52c75 0 60 -98 132 -98c49 0 74 35 74 129v368c0 73 -4 121 -8 138c-7 31 -23 40 -85 40v34zM120 800h104l120 -149h-52l-120 68l-120 -68h-52z" />
    <glyph glyph-name="ncaron" unicode="&#x148;" horiz-adv-x="727" 
d="M257 301v-138c0 -108 7 -118 87 -123v-40h-315v40c78 5 89 16 89 116v125c0 78 -3 128 -7 145c-8 35 -25 42 -86 42v34l193 38l13 -88h4c44 55 106 88 177 88c85 0 133 -22 174 -76c23 -31 43 -75 43 -160v-141c0 -108 8 -118 85 -123v-40h-313v40c79 4 89 17 89 116v136
c0 136 -29 183 -116 183c-43 0 -73 -25 -95 -68c-12 -24 -22 -65 -22 -106zM423 651h-104l-120 149h52l120 -68l120 68h52z" />
    <glyph glyph-name="rcaron" unicode="&#x159;" horiz-adv-x="498" 
d="M258 203v-48c0 -103 13 -114 106 -115v-40h-334v40c81 5 89 16 89 117v122c0 165 -12 189 -93 189v35l200 37l16 -115h4c36 70 99 115 164 115c51 0 86 -28 86 -67c0 -43 -27 -76 -69 -76c-41 0 -59 40 -87 40c-25 0 -50 -36 -64 -92c-11 -40 -18 -93 -18 -142zM340 651
h-104l-120 149h52l120 -68l120 68h52z" />
    <glyph glyph-name="ccaron" unicode="&#x10d;" horiz-adv-x="564" 
d="M502 121l26 -38c-50 -56 -130 -88 -217 -88c-162 0 -272 108 -272 268c0 165 117 277 288 277c120 0 209 -51 209 -118c0 -39 -24 -63 -61 -63c-31 0 -52 15 -75 51c-40 63 -51 72 -85 72c-77 0 -122 -76 -122 -205c0 -138 53 -216 149 -216c54 0 111 22 160 60zM381 651
h-104l-120 149h52l120 -68l120 68h52z" />
    <glyph glyph-name="ecaron" unicode="&#x11b;" 
d="M512 128l28 -35c-62 -70 -136 -103 -227 -103c-164 0 -275 109 -275 268c0 165 119 282 287 282c141 0 224 -81 224 -217c0 -21 -2 -23 -33 -23h-322c-3 -7 -4 -17 -4 -33c0 -130 61 -212 158 -212c56 0 112 26 164 73zM201 356h145c54 0 63 3 63 26
c0 58 -37 100 -88 100c-57 0 -107 -53 -120 -126zM375 651h-104l-120 149h52l120 -68l120 68h52z" />
    <glyph glyph-name="scaron" unicode="&#x161;" horiz-adv-x="466" 
d="M107 35l-22 -35h-31v182h42c23 -95 64 -138 132 -138c49 0 78 22 78 58c0 37 -32 71 -106 111c-101 55 -142 105 -142 173c0 89 70 155 163 155c41 0 85 -13 115 -34l18 24h26v-151h-39c-31 76 -61 107 -107 107c-37 0 -61 -22 -61 -55c0 -37 31 -68 106 -108
c108 -58 151 -109 151 -181c0 -92 -72 -153 -182 -153c-57 0 -109 16 -141 45zM294 651h-104l-120 149h52l120 -68l120 68h52z" />
    <glyph glyph-name="zcaron" unicode="&#x17e;" horiz-adv-x="568" 
d="M532 170l-12 -170h-494v23l313 454h-92c-114 0 -137 -15 -153 -103h-39l12 156h451v-23l-308 -453h88c140 0 170 18 195 116h39zM368 651h-104l-120 149h52l120 -68l120 68h52z" />
    <glyph glyph-name="ae" unicode="&#xe6;" horiz-adv-x="889" 
d="M817 128l28 -35c-68 -72 -137 -103 -231 -103c-114 0 -195 43 -243 127c-37 -80 -109 -126 -196 -126c-88 0 -141 46 -141 122c0 68 44 112 164 163l146 62v42c0 76 -26 111 -82 111c-38 0 -51 -12 -73 -64c-16 -40 -36 -56 -69 -56c-38 0 -61 23 -61 62
c0 70 71 107 203 107c93 0 154 -19 186 -58c43 37 109 58 182 58c142 0 223 -81 223 -223c0 -16 -1 -17 -32 -17h-329c-3 -7 -4 -21 -4 -40c0 -133 57 -205 162 -205c57 0 103 20 167 73zM344 197v89c-125 -60 -169 -97 -169 -143c0 -36 26 -59 66 -59c58 0 103 49 103 113z
M499 356h153c55 0 62 3 62 29c0 58 -37 97 -91 97c-58 0 -105 -48 -124 -126z" />
    <glyph glyph-name="aeacute" unicode="&#x1fd;" horiz-adv-x="889" 
d="M817 128l28 -35c-68 -72 -137 -103 -231 -103c-114 0 -195 43 -243 127c-37 -80 -109 -126 -196 -126c-88 0 -141 46 -141 122c0 68 44 112 164 163l146 62v42c0 76 -26 111 -82 111c-38 0 -51 -12 -73 -64c-16 -40 -36 -56 -69 -56c-38 0 -61 23 -61 62
c0 70 71 107 203 107c93 0 154 -19 186 -58c43 37 109 58 182 58c142 0 223 -81 223 -223c0 -16 -1 -17 -32 -17h-329c-3 -7 -4 -21 -4 -40c0 -133 57 -205 162 -205c57 0 103 20 167 73zM344 197v89c-125 -60 -169 -97 -169 -143c0 -36 26 -59 66 -59c58 0 103 49 103 113z
M499 356h153c55 0 62 3 62 29c0 58 -37 97 -91 97c-58 0 -105 -48 -124 -126zM394 651h-59l127 119c32 30 58 43 85 43c33 0 55 -17 55 -45c0 -23 -27 -39 -69 -57z" />
    <glyph glyph-name="periodcentered" unicode="&#xb7;" horiz-adv-x="281" 
d="M65 274c0 43 33 77 75 77c44 0 77 -34 77 -77c0 -41 -33 -74 -77 -74c-42 0 -75 33 -75 74z" />
    <glyph glyph-name="uni2219" unicode="&#x2219;" horiz-adv-x="281" 
d="M65 274c0 43 33 77 75 77c44 0 77 -34 77 -77c0 -41 -33 -74 -77 -74c-42 0 -75 33 -75 74z" />
    <glyph glyph-name="oe" unicode="&#x153;" horiz-adv-x="1053" 
d="M980 128l28 -35c-62 -70 -136 -103 -227 -103c-97 0 -176 38 -224 102c-54 -64 -138 -102 -229 -102c-158 0 -291 116 -291 279c0 158 133 271 291 271c94 0 180 -40 235 -106c51 66 132 106 230 106c141 0 224 -81 224 -217c0 -21 -2 -23 -33 -23h-322
c-3 -7 -4 -17 -4 -33c0 -130 61 -212 158 -212c56 0 112 26 164 73zM328 482c-81 0 -134 -86 -134 -214c0 -132 52 -217 134 -217c84 0 138 86 138 217c0 127 -55 214 -138 214zM669 356h145c54 0 63 3 63 26c0 58 -37 100 -88 100c-57 0 -107 -53 -120 -126z" />
    <glyph glyph-name="kgreenlandic" unicode="&#x138;" horiz-adv-x="675" 
d="M369 0v40c37 0 51 6 51 20c0 9 -6 21 -17 38l-100 153l-50 -48v-39c0 -103 12 -124 69 -124v-40h-295v40c72 0 89 22 89 117v134c0 169 -7 174 -86 174v37l223 38v-266l96 91c79 75 96 97 96 109c0 11 -15 16 -87 16v40h273v-40c-50 0 -84 -15 -130 -58l-97 -91l173 -245
c33 -47 59 -56 103 -56v-40h-311z" />
    <glyph glyph-name="OE" unicode="&#x152;" horiz-adv-x="1181" 
d="M482 770h614l9 -196h-42c-17 106 -65 143 -208 143h-133c-12 0 -18 -7 -18 -17v-277c154 0 193 22 204 125h41v-293h-41c-16 101 -49 127 -204 128v-214c0 -87 42 -114 174 -114c161 0 204 47 233 174h40l-21 -229h-652c-243 0 -433 168 -433 379c0 220 191 391 437 391z
M482 705c-164 0 -263 -123 -263 -329c0 -191 99 -311 263 -311c55 0 75 22 75 87v466c0 66 -21 87 -75 87z" />
    <glyph glyph-name="tilde" unicode="&#x2dc;" horiz-adv-x="401" 
d="M57 660h-46c13 78 62 134 119 134c19 0 37 -5 87 -24c41 -16 61 -22 79 -22c25 0 39 11 49 42h45c-5 -35 -23 -76 -44 -102c-21 -25 -43 -36 -73 -36c-24 0 -47 7 -85 25c-30 14 -65 23 -87 23c-23 0 -34 -10 -44 -40z" />
    <glyph glyph-name="asciitilde" unicode="~" horiz-adv-x="562" 
d="M119 249h-46c13 82 61 134 123 134c58 0 140 -46 199 -46c28 0 42 11 52 42h45c-15 -88 -59 -138 -123 -138c-63 0 -130 48 -202 48c-28 0 -37 -7 -48 -40z" />
    <glyph glyph-name="atilde" unicode="&#xe3;" horiz-adv-x="574" 
d="M344 190v95c-111 -51 -169 -91 -169 -138c0 -39 24 -63 56 -63c65 0 113 47 113 106zM203 277l141 61v42c0 77 -27 111 -84 111c-38 0 -55 -19 -72 -67c-12 -33 -33 -53 -71 -53c-37 0 -58 24 -58 65c0 63 71 104 211 104c150 0 208 -49 208 -176v-219
c0 -57 11 -85 34 -85c13 0 24 4 35 13l15 -29c-18 -33 -61 -54 -110 -54c-61 0 -94 39 -94 107h-5c-38 -69 -102 -106 -180 -106c-83 0 -139 52 -139 128c0 58 48 109 169 158zM134 660h-46c13 78 62 134 119 134c19 0 37 -5 87 -24c41 -16 61 -22 79 -22c25 0 39 11 49 42
h45c-5 -35 -23 -76 -44 -102c-21 -25 -43 -36 -73 -36c-24 0 -47 7 -85 25c-30 14 -65 23 -87 23c-23 0 -34 -10 -44 -40z" />
    <glyph glyph-name="ntilde" unicode="&#xf1;" horiz-adv-x="727" 
d="M257 301v-138c0 -108 7 -118 87 -123v-40h-315v40c78 5 89 16 89 116v125c0 78 -3 128 -7 145c-8 35 -25 42 -86 42v34l193 38l13 -88h4c44 55 106 88 177 88c85 0 133 -22 174 -76c23 -31 43 -75 43 -160v-141c0 -108 8 -118 85 -123v-40h-313v40c79 4 89 17 89 116v136
c0 136 -29 183 -116 183c-43 0 -73 -25 -95 -68c-12 -24 -22 -65 -22 -106zM220 660h-46c13 78 62 134 119 134c19 0 37 -5 87 -24c41 -16 61 -22 79 -22c25 0 39 11 49 42h45c-5 -35 -23 -76 -44 -102c-21 -25 -43 -36 -73 -36c-24 0 -47 7 -85 25c-30 14 -65 23 -87 23
c-23 0 -34 -10 -44 -40z" />
    <glyph glyph-name="utilde" unicode="&#x169;" horiz-adv-x="709" 
d="M465 262v104c0 108 -6 116 -87 124v40h226v-303c0 -81 2 -125 7 -147c7 -34 19 -40 85 -40v-39l-199 -12l-11 89h-4c-34 -55 -101 -88 -178 -88c-70 0 -126 26 -163 76c-29 39 -43 92 -43 165v135c0 110 -5 115 -85 124v40h224v-283c0 -134 32 -192 105 -192
c40 0 70 18 91 54c22 36 32 84 32 153zM168 660h-46c13 78 62 134 119 134c19 0 37 -5 87 -24c41 -16 61 -22 79 -22c25 0 39 11 49 42h45c-5 -35 -23 -76 -44 -102c-21 -25 -43 -36 -73 -36c-24 0 -47 7 -85 25c-30 14 -65 23 -87 23c-23 0 -34 -10 -44 -40z" />
    <glyph glyph-name="otilde" unicode="&#xf5;" horiz-adv-x="660" 
d="M328 540c159 0 295 -114 295 -271c0 -162 -136 -279 -295 -279c-158 0 -291 116 -291 279c0 158 133 271 291 271zM328 482c-81 0 -134 -86 -134 -214c0 -132 52 -217 134 -217c84 0 138 86 138 217c0 127 -55 214 -138 214zM177 660h-46c13 78 62 134 119 134
c19 0 37 -5 87 -24c41 -16 61 -22 79 -22c25 0 39 11 49 42h45c-5 -35 -23 -76 -44 -102c-21 -25 -43 -36 -73 -36c-24 0 -47 7 -85 25c-30 14 -65 23 -87 23c-23 0 -34 -10 -44 -40z" />
    <glyph glyph-name="etilde" unicode="&#x1ebd;" 
d="M512 128l28 -35c-62 -70 -136 -103 -227 -103c-164 0 -275 109 -275 268c0 165 119 282 287 282c141 0 224 -81 224 -217c0 -21 -2 -23 -33 -23h-322c-3 -7 -4 -17 -4 -33c0 -130 61 -212 158 -212c56 0 112 26 164 73zM201 356h145c54 0 63 3 63 26
c0 58 -37 100 -88 100c-57 0 -107 -53 -120 -126zM173 660h-46c13 78 62 134 119 134c19 0 37 -5 87 -24c41 -16 61 -22 79 -22c25 0 39 11 49 42h45c-5 -35 -23 -76 -44 -102c-21 -25 -43 -36 -73 -36c-24 0 -47 7 -85 25c-30 14 -65 23 -87 23c-23 0 -34 -10 -44 -40z" />
    <glyph glyph-name="ytilde" unicode="&#x1ef9;" horiz-adv-x="646" 
d="M516 323l-229 -480c-28 -59 -93 -103 -151 -103c-44 0 -73 23 -73 59c0 33 22 52 74 56c61 5 98 24 115 56l27 52l-177 438c-31 77 -42 87 -94 89v40h303v-40c-52 0 -70 -9 -70 -35c0 -10 4 -25 9 -40l102 -292h4l86 195c36 83 44 105 44 128c0 35 -15 44 -73 44v40h241
v-40c-52 0 -68 -19 -138 -167zM219 660h-46c13 78 62 134 119 134c19 0 37 -5 87 -24c41 -16 61 -22 79 -22c25 0 39 11 49 42h45c-5 -35 -23 -76 -44 -102c-21 -25 -43 -36 -73 -36c-24 0 -47 7 -85 25c-30 14 -65 23 -87 23c-23 0 -34 -10 -44 -40z" />
    <glyph glyph-name="itilde" unicode="&#x129;" horiz-adv-x="361" 
d="M257 540v-376c0 -106 10 -121 87 -124v-40h-315v40c75 4 89 23 89 117v123c0 77 -3 129 -7 147c-7 33 -25 41 -86 41v34zM36 660h-46c13 78 62 134 119 134c19 0 37 -5 87 -24c41 -16 61 -22 79 -22c25 0 39 11 49 42h45c-5 -35 -23 -76 -44 -102
c-21 -25 -43 -36 -73 -36c-24 0 -47 7 -85 25c-30 14 -65 23 -87 23c-23 0 -34 -10 -44 -40z" />
    <glyph glyph-name="breve" unicode="&#x2d8;" horiz-adv-x="332" 
d="M272 786h44c-5 -82 -68 -140 -150 -140c-84 0 -147 59 -150 140h43c12 -31 54 -51 106 -51s95 20 107 51z" />
    <glyph glyph-name="abreve" unicode="&#x103;" horiz-adv-x="574" 
d="M344 190v95c-111 -51 -169 -91 -169 -138c0 -39 24 -63 56 -63c65 0 113 47 113 106zM203 277l141 61v42c0 77 -27 111 -84 111c-38 0 -55 -19 -72 -67c-12 -33 -33 -53 -71 -53c-37 0 -58 24 -58 65c0 63 71 104 211 104c150 0 208 -49 208 -176v-219
c0 -57 11 -85 34 -85c13 0 24 4 35 13l15 -29c-18 -33 -61 -54 -110 -54c-61 0 -94 39 -94 107h-5c-38 -69 -102 -106 -180 -106c-83 0 -139 52 -139 128c0 58 48 109 169 158zM376 786h44c-5 -82 -68 -140 -150 -140c-84 0 -147 59 -150 140h43c12 -31 54 -51 106 -51
s95 20 107 51z" />
    <glyph glyph-name="ubreve" unicode="&#x16d;" horiz-adv-x="709" 
d="M465 262v104c0 108 -6 116 -87 124v40h226v-303c0 -81 2 -125 7 -147c7 -34 19 -40 85 -40v-39l-199 -12l-11 89h-4c-34 -55 -101 -88 -178 -88c-70 0 -126 26 -163 76c-29 39 -43 92 -43 165v135c0 110 -5 115 -85 124v40h224v-283c0 -134 32 -192 105 -192
c40 0 70 18 91 54c22 36 32 84 32 153zM425 786h44c-5 -82 -68 -140 -150 -140c-84 0 -147 59 -150 140h43c12 -31 54 -51 106 -51s95 20 107 51z" />
    <glyph glyph-name="obreve" unicode="&#x14f;" horiz-adv-x="660" 
d="M328 540c159 0 295 -114 295 -271c0 -162 -136 -279 -295 -279c-158 0 -291 116 -291 279c0 158 133 271 291 271zM328 482c-81 0 -134 -86 -134 -214c0 -132 52 -217 134 -217c84 0 138 86 138 217c0 127 -55 214 -138 214zM434 786h44c-5 -82 -68 -140 -150 -140
c-84 0 -147 59 -150 140h43c12 -31 54 -51 106 -51s95 20 107 51z" />
    <glyph glyph-name="ebreve" unicode="&#x115;" 
d="M512 128l28 -35c-62 -70 -136 -103 -227 -103c-164 0 -275 109 -275 268c0 165 119 282 287 282c141 0 224 -81 224 -217c0 -21 -2 -23 -33 -23h-322c-3 -7 -4 -17 -4 -33c0 -130 61 -212 158 -212c56 0 112 26 164 73zM201 356h145c54 0 63 3 63 26
c0 58 -37 100 -88 100c-57 0 -107 -53 -120 -126zM420 786h44c-5 -82 -68 -140 -150 -140c-84 0 -147 59 -150 140h43c12 -31 54 -51 106 -51s95 20 107 51z" />
    <glyph glyph-name="ibreve" unicode="&#x12d;" horiz-adv-x="361" 
d="M257 540v-376c0 -106 10 -121 87 -124v-40h-315v40c75 4 89 23 89 117v123c0 77 -3 129 -7 147c-7 33 -25 41 -86 41v34zM293 786h44c-5 -82 -68 -140 -150 -140c-84 0 -147 59 -150 140h43c12 -31 54 -51 106 -51s95 20 107 51z" />
    <glyph glyph-name="acute.cap" horiz-adv-x="317" 
d="M93 830h-73l126 97c26 20 60 33 94 33c37 0 57 -15 57 -37c0 -30 -19 -48 -88 -65z" />
    <glyph glyph-name="hungarumlaut.cap" horiz-adv-x="521" 
d="M93 830h-73l106 97c24 22 60 33 94 33c37 0 57 -15 57 -37c0 -30 -20 -45 -88 -65zM317 830h-73l106 97c24 22 60 33 94 33c37 0 57 -15 57 -37c0 -30 -20 -45 -88 -65z" />
    <glyph glyph-name="tilde.cap" horiz-adv-x="401" 
d="M57 828h-46c13 78 62 134 119 134c19 0 37 -5 87 -24c41 -16 61 -22 79 -22c25 0 39 11 49 42h45c-5 -35 -23 -76 -44 -102c-21 -25 -43 -36 -73 -36c-24 0 -47 7 -85 25c-30 14 -65 23 -87 23c-23 0 -34 -10 -44 -40z" />
    <glyph glyph-name="lacute" unicode="&#x13a;" horiz-adv-x="355" 
d="M150 830h-73l126 97c26 20 60 33 94 33c37 0 57 -15 57 -37c0 -30 -19 -48 -88 -65zM247 830v-666c0 -106 10 -121 87 -124v-40h-315v40c75 4 89 23 89 117v413c0 77 -3 129 -7 147c-7 33 -25 41 -86 41v34z" />
    <glyph glyph-name="Aacute" unicode="&#xc1;" horiz-adv-x="809" 
d="M524 173l-23 60h-283c-32 -72 -47 -119 -47 -147c0 -40 30 -46 90 -46v-40h-274v40c64 7 92 24 115 81l263 659h74l239 -584c55 -135 70 -146 160 -155v-41h-378v41c64 3 90 10 90 42c0 19 -10 48 -26 90zM360 596l-119 -303h238l-115 303h-4zM437 830h-73l126 97
c26 20 60 33 94 33c37 0 57 -15 57 -37c0 -30 -19 -48 -88 -65z" />
    <glyph glyph-name="Cacute" unicode="&#x106;" horiz-adv-x="823" 
d="M688 708l19 62h49l-20 -253h-40c-28 122 -114 198 -228 198c-157 0 -247 -128 -247 -337c0 -206 87 -322 251 -322c132 0 222 73 259 215h44v-271h-47l-14 79c-74 -60 -163 -89 -267 -89c-243 0 -400 149 -400 382c0 242 168 408 412 408c81 0 147 -21 229 -72zM392 830
h-73l126 97c26 20 60 33 94 33c37 0 57 -15 57 -37c0 -30 -19 -48 -88 -65z" />
    <glyph glyph-name="Eacute" unicode="&#xc9;" horiz-adv-x="764" 
d="M287 680v-254c171 0 196 14 208 122h37v-293h-37c-17 108 -41 120 -208 120v-206c0 -86 42 -114 171 -114c152 0 203 38 231 174h40l-16 -229h-678v40c89 3 105 20 105 114v462c0 93 -14 110 -94 114v40h632l7 -196h-43c-17 112 -62 143 -204 143h-113
c-34 0 -38 -5 -38 -37zM391 830h-73l126 97c26 20 60 33 94 33c37 0 57 -15 57 -37c0 -30 -19 -48 -88 -65z" />
    <glyph glyph-name="Iacute" unicode="&#xcd;" horiz-adv-x="429" 
d="M393 40v-40h-357v40c90 3 105 20 105 144v402c0 113 -13 140 -95 144v40h337v-40c-82 -4 -95 -31 -95 -144v-402c0 -124 15 -141 105 -144zM194 830h-73l126 97c26 20 60 33 94 33c37 0 57 -15 57 -37c0 -30 -19 -48 -88 -65z" />
    <glyph glyph-name="grave.cap" horiz-adv-x="317" 
d="M297 830h-73l-116 28c-69 17 -88 35 -88 65c0 22 20 37 57 37c34 0 68 -13 94 -33z" />
    <glyph glyph-name="Lacute" unicode="&#x139;" horiz-adv-x="755" 
d="M740 227l-16 -227h-689v40c89 3 105 20 105 114v462c0 93 -14 110 -94 114v40h345v-40c-90 -3 -104 -20 -104 -121v-419c0 -112 42 -135 181 -135c154 0 202 32 232 172h40zM193 830h-73l126 97c26 20 60 33 94 33c37 0 57 -15 57 -37c0 -30 -19 -48 -88 -65z" />
    <glyph glyph-name="Nacute" unicode="&#x143;" horiz-adv-x="940" 
d="M804 -10h-134l-443 631h-4v-430c0 -132 15 -148 104 -151v-40h-297v40c98 3 115 20 115 144v402c0 113 -15 140 -105 144v40h279l403 -578h4v387c0 132 -15 148 -104 151v40h297v-40c-98 -3 -115 -20 -115 -144v-596zM444 830h-73l126 97c26 20 60 33 94 33
c37 0 57 -15 57 -37c0 -30 -19 -48 -88 -65z" />
    <glyph glyph-name="Oacute" unicode="&#xd3;" horiz-adv-x="944" 
d="M472 780c240 0 427 -175 427 -401c0 -217 -189 -389 -427 -389s-427 172 -427 389c0 226 187 401 427 401zM472 55c155 0 253 124 253 321c0 208 -97 339 -253 339s-253 -131 -253 -339c0 -197 97 -321 253 -321zM419 830h-73l126 97c26 20 60 33 94 33
c37 0 57 -15 57 -37c0 -30 -19 -48 -88 -65z" />
    <glyph glyph-name="Racute" unicode="&#x154;" horiz-adv-x="815" 
d="M695 577c0 -111 -61 -189 -201 -214l232 -266c32 -37 79 -57 124 -57v-40h-237l-248 304c-33 40 -57 51 -78 51v-196c0 -99 18 -119 145 -119v-40h-397v40c88 0 105 20 105 114v462c0 93 -12 110 -94 114v40h346c192 0 303 -72 303 -193zM287 697v-282h65
c125 0 187 46 187 157c0 85 -55 142 -147 142h-87c-11 0 -18 -7 -18 -17zM365 830h-73l126 97c26 20 60 33 94 33c37 0 57 -15 57 -37c0 -30 -19 -48 -88 -65z" />
    <glyph glyph-name="Sacute" unicode="&#x15a;" horiz-adv-x="663" 
d="M69 0l-15 255h39c18 -126 109 -204 229 -204c100 0 167 50 167 124c0 63 -33 90 -188 148c-155 59 -229 138 -229 245c0 125 101 212 247 212c68 0 127 -21 185 -64l18 50h24l11 -216h-39c-32 109 -104 169 -193 169c-82 0 -139 -45 -139 -109c0 -57 32 -82 170 -134
c186 -71 262 -146 262 -257c0 -135 -123 -229 -298 -229c-79 0 -140 21 -207 70l-20 -60h-24zM286 830h-73l126 97c26 20 60 33 94 33c37 0 57 -15 57 -37c0 -30 -19 -48 -88 -65z" />
    <glyph glyph-name="Uacute" unicode="&#xda;" horiz-adv-x="880" 
d="M757 522v-212c0 -226 -95 -320 -324 -320c-215 0 -310 86 -310 283v274c0 103 -4 138 -18 159c-12 18 -31 24 -78 24v40h359v-40c-56 0 -79 -5 -93 -22c-18 -21 -23 -57 -23 -161v-262c0 -151 64 -223 198 -223c138 0 206 76 206 229v231c0 111 -7 156 -29 181
c-18 19 -45 27 -97 27v40h324v-40c-49 0 -73 -7 -88 -25c-20 -25 -27 -72 -27 -183zM407 830h-73l126 97c26 20 60 33 94 33c37 0 57 -15 57 -37c0 -30 -19 -48 -88 -65z" />
    <glyph glyph-name="Igrave" unicode="&#xcc;" horiz-adv-x="429" 
d="M393 40v-40h-357v40c90 3 105 20 105 144v402c0 113 -13 140 -95 144v40h337v-40c-82 -4 -95 -31 -95 -144v-402c0 -124 15 -141 105 -144zM346 830h-73l-116 28c-69 17 -88 35 -88 65c0 22 20 37 57 37c34 0 68 -13 94 -33z" />
    <glyph glyph-name="Agrave" unicode="&#xc0;" horiz-adv-x="809" 
d="M524 173l-23 60h-283c-32 -72 -47 -119 -47 -147c0 -40 30 -46 90 -46v-40h-274v40c64 7 92 24 115 81l263 659h74l239 -584c55 -135 70 -146 160 -155v-41h-378v41c64 3 90 10 90 42c0 19 -10 48 -26 90zM360 596l-119 -303h238l-115 303h-4zM442 830h-73l-116 28
c-69 17 -88 35 -88 65c0 22 20 37 57 37c34 0 68 -13 94 -33z" />
    <glyph glyph-name="Egrave" unicode="&#xc8;" horiz-adv-x="764" 
d="M287 680v-254c171 0 196 14 208 122h37v-293h-37c-17 108 -41 120 -208 120v-206c0 -86 42 -114 171 -114c152 0 203 38 231 174h40l-16 -229h-678v40c89 3 105 20 105 114v462c0 93 -14 110 -94 114v40h632l7 -196h-43c-17 112 -62 143 -204 143h-113
c-34 0 -38 -5 -38 -37zM495 830h-73l-116 28c-69 17 -88 35 -88 65c0 22 20 37 57 37c34 0 68 -13 94 -33z" />
    <glyph glyph-name="Ograve" unicode="&#xd2;" horiz-adv-x="944" 
d="M472 780c240 0 427 -175 427 -401c0 -217 -189 -389 -427 -389s-427 172 -427 389c0 226 187 401 427 401zM472 55c155 0 253 124 253 321c0 208 -97 339 -253 339s-253 -131 -253 -339c0 -197 97 -321 253 -321zM601 830h-73l-116 28c-69 17 -88 35 -88 65
c0 22 20 37 57 37c34 0 68 -13 94 -33z" />
    <glyph glyph-name="Ugrave" unicode="&#xd9;" horiz-adv-x="880" 
d="M757 522v-212c0 -226 -95 -320 -324 -320c-215 0 -310 86 -310 283v274c0 103 -4 138 -18 159c-12 18 -31 24 -78 24v40h359v-40c-56 0 -79 -5 -93 -22c-18 -21 -23 -57 -23 -161v-262c0 -151 64 -223 198 -223c138 0 206 76 206 229v231c0 111 -7 156 -29 181
c-18 19 -45 27 -97 27v40h324v-40c-49 0 -73 -7 -88 -25c-20 -25 -27 -72 -27 -183zM599 830h-73l-116 28c-69 17 -88 35 -88 65c0 22 20 37 57 37c34 0 68 -13 94 -33z" />
    <glyph glyph-name="Wgrave" unicode="&#x1e80;" horiz-adv-x="1227" 
d="M761 597l126 -403l135 386c16 45 24 77 24 100c0 41 -28 50 -88 50v40h284v-40c-50 0 -94 -23 -115 -81l-241 -659h-89l-174 528l-198 -528h-83l-212 584c-50 137 -81 155 -158 155v41h378v-41c-67 0 -89 -12 -89 -41c0 -21 5 -35 25 -91l140 -403l162 442
c-26 73 -52 86 -115 93v41h353v-41c-55 0 -82 -11 -82 -51c0 -20 6 -46 17 -81zM746 830h-73l-116 28c-69 17 -88 35 -88 65c0 22 20 37 57 37c34 0 68 -13 94 -33z" />
    <glyph glyph-name="Wacute" unicode="&#x1e82;" horiz-adv-x="1227" 
d="M761 597l126 -403l135 386c16 45 24 77 24 100c0 41 -28 50 -88 50v40h284v-40c-50 0 -94 -23 -115 -81l-241 -659h-89l-174 528l-198 -528h-83l-212 584c-50 137 -81 155 -158 155v41h378v-41c-67 0 -89 -12 -89 -41c0 -21 5 -35 25 -91l140 -403l162 442
c-26 73 -52 86 -115 93v41h353v-41c-55 0 -82 -11 -82 -51c0 -20 6 -46 17 -81zM587 830h-73l126 97c26 20 60 33 94 33c37 0 57 -15 57 -37c0 -30 -19 -48 -88 -65z" />
    <glyph glyph-name="Ygrave" unicode="&#x1ef2;" horiz-adv-x="760" 
d="M308 276l-207 368c-40 70 -63 86 -115 86v40h336v-40c-56 0 -76 -11 -76 -32c0 -13 8 -30 25 -62l143 -273h4l126 210c44 74 59 106 59 127c0 23 -17 30 -73 30v40h251v-40c-58 0 -88 -30 -180 -187l-146 -250v-102c0 -133 19 -151 104 -151v-40h-356v40
c83 0 105 18 105 144v92zM509 830h-73l-116 28c-69 17 -88 35 -88 65c0 22 20 37 57 37c34 0 68 -13 94 -33z" />
    <glyph glyph-name="Yacute" unicode="&#xdd;" horiz-adv-x="760" 
d="M308 276l-207 368c-40 70 -63 86 -115 86v40h336v-40c-56 0 -76 -11 -76 -32c0 -13 8 -30 25 -62l143 -273h4l126 210c44 74 59 106 59 127c0 23 -17 30 -73 30v40h251v-40c-58 0 -88 -30 -180 -187l-146 -250v-102c0 -133 19 -151 104 -151v-40h-356v40
c83 0 105 18 105 144v92zM325 830h-73l126 97c26 20 60 33 94 33c37 0 57 -15 57 -37c0 -30 -19 -48 -88 -65z" />
    <glyph glyph-name="Zacute" unicode="&#x179;" horiz-adv-x="797" 
d="M760 255l-13 -255h-732v23l503 695h-253c-99 0 -144 -48 -163 -152h-39l16 204h648v-23l-498 -691h286c144 0 174 43 199 199h46zM513 830h-73l-116 28c-69 17 -88 35 -88 65c0 22 20 37 57 37c34 0 68 -13 94 -33z" />
    <glyph glyph-name="Ohungarumlaut" unicode="&#x150;" horiz-adv-x="944" 
d="M472 780c240 0 427 -175 427 -401c0 -217 -189 -389 -427 -389s-427 172 -427 389c0 226 187 401 427 401zM472 55c155 0 253 124 253 321c0 208 -97 339 -253 339s-253 -131 -253 -339c0 -197 97 -321 253 -321zM344 830h-73l106 97c24 22 60 33 94 33
c37 0 57 -15 57 -37c0 -30 -20 -45 -88 -65zM568 830h-73l106 97c24 22 60 33 94 33c37 0 57 -15 57 -37c0 -30 -20 -45 -88 -65z" />
    <glyph glyph-name="Uhungarumlaut" unicode="&#x170;" horiz-adv-x="880" 
d="M757 522v-212c0 -226 -95 -320 -324 -320c-215 0 -310 86 -310 283v274c0 103 -4 138 -18 159c-12 18 -31 24 -78 24v40h359v-40c-56 0 -79 -5 -93 -22c-18 -21 -23 -57 -23 -161v-262c0 -151 64 -223 198 -223c138 0 206 76 206 229v231c0 111 -7 156 -29 181
c-18 19 -45 27 -97 27v40h324v-40c-49 0 -73 -7 -88 -25c-20 -25 -27 -72 -27 -183zM358 830h-73l106 97c24 22 60 33 94 33c37 0 57 -15 57 -37c0 -30 -20 -45 -88 -65zM582 830h-73l106 97c24 22 60 33 94 33c37 0 57 -15 57 -37c0 -30 -20 -45 -88 -65z" />
    <glyph glyph-name="Atilde" unicode="&#xc3;" horiz-adv-x="809" 
d="M524 173l-23 60h-283c-32 -72 -47 -119 -47 -147c0 -40 30 -46 90 -46v-40h-274v40c64 7 92 24 115 81l263 659h74l239 -584c55 -135 70 -146 160 -155v-41h-378v41c64 3 90 10 90 42c0 19 -10 48 -26 90zM360 596l-119 -303h238l-115 303h-4zM271 828h-46
c13 78 62 134 119 134c19 0 37 -5 87 -24c41 -16 61 -22 79 -22c25 0 39 11 49 42h45c-5 -35 -23 -76 -44 -102c-21 -25 -43 -36 -73 -36c-24 0 -47 7 -85 25c-30 14 -65 23 -87 23c-23 0 -34 -10 -44 -40z" />
    <glyph glyph-name="Edieresis" unicode="&#xcb;" horiz-adv-x="764" 
d="M287 680v-254c171 0 196 14 208 122h37v-293h-37c-17 108 -41 120 -208 120v-206c0 -86 42 -114 171 -114c152 0 203 38 231 174h40l-16 -229h-678v40c89 3 105 20 105 114v462c0 93 -14 110 -94 114v40h632l7 -196h-43c-17 112 -62 143 -204 143h-113
c-34 0 -38 -5 -38 -37zM219 903c0 33 26 57 60 57c36 0 62 -24 62 -57c0 -35 -26 -59 -62 -59c-34 0 -60 24 -60 59zM436 903c0 33 26 57 62 57c33 0 60 -24 60 -57c0 -35 -27 -59 -60 -59c-36 0 -62 24 -62 59z" />
    <glyph glyph-name="Edotaccent" unicode="&#x116;" horiz-adv-x="764" 
d="M287 680v-254c171 0 196 14 208 122h37v-293h-37c-17 108 -41 120 -208 120v-206c0 -86 42 -114 171 -114c152 0 203 38 231 174h40l-16 -229h-678v40c89 3 105 20 105 114v462c0 93 -14 110 -94 114v40h632l7 -196h-43c-17 112 -62 143 -204 143h-113
c-34 0 -38 -5 -38 -37zM314 893c0 37 31 66 66 66c39 0 70 -29 70 -66c0 -34 -31 -63 -70 -63c-35 0 -66 29 -66 63z" />
    <glyph glyph-name="Idieresis" unicode="&#xcf;" horiz-adv-x="429" 
d="M393 40v-40h-357v40c90 3 105 20 105 144v402c0 113 -13 140 -95 144v40h337v-40c-82 -4 -95 -31 -95 -144v-402c0 -124 15 -141 105 -144zM45 903c0 33 26 57 60 57c36 0 62 -24 62 -57c0 -35 -26 -59 -62 -59c-34 0 -60 24 -60 59zM262 903c0 33 26 57 62 57
c33 0 60 -24 60 -57c0 -35 -27 -59 -60 -59c-36 0 -62 24 -62 59z" />
    <glyph glyph-name="Idotaccent" unicode="&#x130;" horiz-adv-x="429" 
d="M393 40v-40h-357v40c90 3 105 20 105 144v402c0 113 -13 140 -95 144v40h337v-40c-82 -4 -95 -31 -95 -144v-402c0 -124 15 -141 105 -144zM147 893c0 37 31 66 66 66c39 0 70 -29 70 -66c0 -34 -31 -63 -70 -63c-35 0 -66 29 -66 63z" />
    <glyph glyph-name="Ldot" unicode="&#x13f;" horiz-adv-x="755" 
d="M740 227l-16 -227h-689v40c89 3 105 20 105 114v462c0 93 -14 110 -94 114v40h345v-40c-90 -3 -104 -20 -104 -121v-419c0 -112 42 -135 181 -135c154 0 202 32 232 172h40zM415 401c0 43 33 77 75 77c44 0 77 -34 77 -77c0 -41 -33 -74 -77 -74c-42 0 -75 33 -75 74z
" />
    <glyph glyph-name="Cdotaccent" unicode="&#x10a;" horiz-adv-x="823" 
d="M688 708l19 62h49l-20 -253h-40c-28 122 -114 198 -228 198c-157 0 -247 -128 -247 -337c0 -206 87 -322 251 -322c132 0 222 73 259 215h44v-271h-47l-14 79c-74 -60 -163 -89 -267 -89c-243 0 -400 149 -400 382c0 242 168 408 412 408c81 0 147 -21 229 -72zM392 893
c0 37 31 66 66 66c39 0 70 -29 70 -66c0 -34 -31 -63 -70 -63c-35 0 -66 29 -66 63z" />
    <glyph glyph-name="Gdotaccent" unicode="&#x120;" horiz-adv-x="876" 
d="M438 -10c-240 0 -391 147 -391 381c0 243 164 409 403 409c83 0 152 -21 239 -72l19 62h36v-253h-50c-26 125 -111 198 -232 198c-152 0 -242 -125 -242 -336c0 -207 86 -322 242 -322c112 0 180 62 180 164c0 61 -30 88 -105 94v40h324v-40c-65 0 -87 -24 -87 -99v-133
c-58 0 -71 -4 -144 -48c-51 -30 -116 -45 -192 -45zM374 893c0 37 31 66 66 66c39 0 70 -29 70 -66c0 -34 -31 -63 -70 -63c-35 0 -66 29 -66 63z" />
    <glyph glyph-name="Ndotaccent" unicode="&#x1e44;" horiz-adv-x="940" 
d="M804 -10h-134l-443 631h-4v-430c0 -132 15 -148 104 -151v-40h-297v40c98 3 115 20 115 144v402c0 113 -15 140 -105 144v40h279l403 -578h4v387c0 132 -15 148 -104 151v40h297v-40c-98 -3 -115 -20 -115 -144v-596zM422 893c0 37 31 66 66 66c39 0 70 -29 70 -66
c0 -34 -31 -63 -70 -63c-35 0 -66 29 -66 63z" />
    <glyph glyph-name="Zdotaccent" unicode="&#x17b;" horiz-adv-x="797" 
d="M760 255l-13 -255h-732v23l503 695h-253c-99 0 -144 -48 -163 -152h-39l16 204h648v-23l-498 -691h286c144 0 174 43 199 199h46zM326 893c0 37 31 66 66 66c39 0 70 -29 70 -66c0 -34 -31 -63 -70 -63c-35 0 -66 29 -66 63z" />
    <glyph glyph-name="IJ" unicode="&#x132;" horiz-adv-x="836" 
d="M393 40v-40h-357v40c90 3 105 20 105 144v402c0 113 -13 140 -95 144v40h337v-40c-82 -4 -95 -31 -95 -144v-402c0 -124 15 -141 105 -144zM559 -23v639c0 93 -13 110 -95 114v40h337v-40c-83 -3 -95 -20 -95 -121v-611c0 -167 -87 -258 -255 -258
c-120 0 -190 46 -190 110c0 38 28 60 64 60c30 0 44 -13 70 -57s44 -55 75 -55c57 0 89 66 89 179z" />
    <glyph glyph-name="ij" unicode="&#x133;" horiz-adv-x="692" 
d="M257 540v-376c0 -106 10 -121 87 -124v-40h-315v40c75 4 89 23 89 117v123c0 77 -3 129 -7 147c-7 33 -25 41 -86 41v34zM110 752c0 44 34 78 77 78c44 0 78 -34 78 -78c0 -43 -34 -77 -78 -77c-43 0 -77 34 -77 77zM607 540v-542c0 -166 -84 -258 -235 -258
c-102 0 -164 43 -164 99c0 33 26 52 54 52c75 0 60 -98 132 -98c49 0 74 35 74 129v368c0 73 -4 121 -8 138c-7 31 -23 40 -85 40v34zM460 752c0 44 34 78 77 78c44 0 78 -34 78 -78c0 -43 -34 -77 -78 -77c-43 0 -77 34 -77 77z" />
    <glyph glyph-name="uni01F1" unicode="&#x1f1;" horiz-adv-x="1706" 
d="M452 0h-417v40c88 3 105 19 105 114v462c0 93 -13 110 -89 114v40h380c256 0 442 -168 442 -398c0 -219 -173 -372 -421 -372zM429 709h-125c-11 0 -17 -7 -17 -17v-517c0 -77 47 -114 147 -114c174 0 272 109 272 309c0 213 -105 339 -277 339zM1669 255l-13 -255h-732
v23l503 695h-253c-99 0 -144 -48 -163 -152h-39l16 204h648v-23l-498 -691h286c144 0 174 43 199 199h46z" />
    <glyph glyph-name="uni01F2" unicode="&#x1f2;" horiz-adv-x="1482" 
d="M452 0h-417v40c88 3 105 19 105 114v462c0 93 -13 110 -89 114v40h380c256 0 442 -168 442 -398c0 -219 -173 -372 -421 -372zM429 709h-125c-11 0 -17 -7 -17 -17v-517c0 -77 47 -114 147 -114c174 0 272 109 272 309c0 213 -105 339 -277 339zM1446 170l-12 -170h-494
v23l313 454h-92c-114 0 -137 -15 -153 -103h-39l12 156h451v-23l-308 -453h88c140 0 170 18 195 116h39z" />
    <glyph glyph-name="uni01F3" unicode="&#x1f3;" horiz-adv-x="1262" 
d="M481 -10v74h-4c-46 -49 -107 -74 -179 -74c-152 0 -259 112 -259 271s109 279 253 279c66 0 118 -18 156 -66h4v85c0 78 -2 140 -6 157c-6 28 -39 40 -109 40v34l253 40v-572c0 -99 2 -149 7 -177c6 -35 17 -41 74 -41v-39zM450 248v39c0 50 -11 95 -32 128
c-24 38 -63 59 -106 59c-78 0 -121 -75 -121 -211c0 -138 43 -216 120 -216c44 0 87 24 112 63c19 29 27 70 27 138zM1226 170l-12 -170h-494v23l313 454h-92c-114 0 -137 -15 -153 -103h-39l12 156h451v-23l-308 -453h88c140 0 170 18 195 116h39z" />
    <glyph glyph-name="uni01C7" unicode="&#x1c7;" horiz-adv-x="1155" 
d="M740 227l-16 -227h-689v40c89 3 105 20 105 114v462c0 93 -14 110 -94 114v40h345v-40c-90 -3 -104 -20 -104 -121v-419c0 -112 42 -135 181 -135c154 0 202 32 232 172h40zM878 -23v639c0 93 -13 110 -95 114v40h337v-40c-83 -3 -95 -20 -95 -121v-611
c0 -167 -87 -258 -255 -258c-120 0 -190 46 -190 110c0 38 28 60 64 60c30 0 44 -13 70 -57s44 -55 75 -55c57 0 89 66 89 179z" />
    <glyph glyph-name="uni01C8" unicode="&#x1c8;" horiz-adv-x="1080" 
d="M740 227l-16 -227h-689v40c89 3 105 20 105 114v462c0 93 -14 110 -94 114v40h345v-40c-90 -3 -104 -20 -104 -121v-419c0 -112 42 -135 181 -135c154 0 202 32 232 172h40zM995 540v-542c0 -166 -84 -258 -235 -258c-102 0 -164 43 -164 99c0 33 26 52 54 52
c75 0 60 -98 132 -98c49 0 74 35 74 129v368c0 73 -4 121 -8 138c-7 31 -23 40 -85 40v34zM848 752c0 44 34 78 77 78c44 0 78 -34 78 -78c0 -43 -34 -77 -78 -77c-43 0 -77 34 -77 77z" />
    <glyph glyph-name="uni01C9" unicode="&#x1c9;" horiz-adv-x="686" 
d="M247 830v-666c0 -106 10 -121 87 -124v-40h-315v40c75 4 89 23 89 117v413c0 77 -3 129 -7 147c-7 33 -25 41 -86 41v34zM601 540v-542c0 -166 -84 -258 -235 -258c-102 0 -164 43 -164 99c0 33 26 52 54 52c75 0 60 -98 132 -98c49 0 74 35 74 129v368
c0 73 -4 121 -8 138c-7 31 -23 40 -85 40v34zM454 752c0 44 34 78 77 78c44 0 78 -34 78 -78c0 -43 -34 -77 -78 -77c-43 0 -77 34 -77 77z" />
    <glyph glyph-name="uni01CA" unicode="&#x1ca;" horiz-adv-x="1347" 
d="M804 -10h-134l-443 631h-4v-430c0 -132 15 -148 104 -151v-40h-297v40c98 3 115 20 115 144v402c0 113 -15 140 -105 144v40h279l403 -578h4v387c0 132 -15 148 -104 151v40h297v-40c-98 -3 -115 -20 -115 -144v-596zM1070 -23v639c0 93 -13 110 -95 114v40h337v-40
c-83 -3 -95 -20 -95 -121v-611c0 -167 -87 -258 -255 -258c-120 0 -190 46 -190 110c0 38 28 60 64 60c30 0 44 -13 70 -57s44 -55 75 -55c57 0 89 66 89 179z" />
    <glyph glyph-name="uni01CB" unicode="&#x1cb;" horiz-adv-x="1256" 
d="M804 -10h-134l-443 631h-4v-430c0 -132 15 -148 104 -151v-40h-297v40c98 3 115 20 115 144v402c0 113 -15 140 -105 144v40h279l403 -578h4v387c0 132 -15 148 -104 151v40h297v-40c-98 -3 -115 -20 -115 -144v-596zM1171 540v-542c0 -166 -84 -258 -235 -258
c-102 0 -164 43 -164 99c0 33 26 52 54 52c75 0 60 -98 132 -98c49 0 74 35 74 129v368c0 73 -4 121 -8 138c-7 31 -23 40 -85 40v34zM1024 752c0 44 34 78 77 78c44 0 78 -34 78 -78c0 -43 -34 -77 -78 -77c-43 0 -77 34 -77 77z" />
    <glyph glyph-name="uni01CC" unicode="&#x1cc;" horiz-adv-x="1058" 
d="M257 301v-138c0 -108 7 -118 87 -123v-40h-315v40c78 5 89 16 89 116v125c0 78 -3 128 -7 145c-8 35 -25 42 -86 42v34l193 38l13 -88h4c44 55 106 88 177 88c85 0 133 -22 174 -76c23 -31 43 -75 43 -160v-141c0 -108 8 -118 85 -123v-40h-313v40c79 4 89 17 89 116v136
c0 136 -29 183 -116 183c-43 0 -73 -25 -95 -68c-12 -24 -22 -65 -22 -106zM973 540v-542c0 -166 -84 -258 -235 -258c-102 0 -164 43 -164 99c0 33 26 52 54 52c75 0 60 -98 132 -98c49 0 74 35 74 129v368c0 73 -4 121 -8 138c-7 31 -23 40 -85 40v34zM826 752
c0 44 34 78 77 78c44 0 78 -34 78 -78c0 -43 -34 -77 -78 -77c-43 0 -77 34 -77 77z" />
    <glyph glyph-name="Adieresis" unicode="&#xc4;" horiz-adv-x="809" 
d="M524 173l-23 60h-283c-32 -72 -47 -119 -47 -147c0 -40 30 -46 90 -46v-40h-274v40c64 7 92 24 115 81l263 659h74l239 -584c55 -135 70 -146 160 -155v-41h-378v41c64 3 90 10 90 42c0 19 -10 48 -26 90zM360 596l-119 -303h238l-115 303h-4zM235 903c0 33 26 57 60 57
c36 0 62 -24 62 -57c0 -35 -26 -59 -62 -59c-34 0 -60 24 -60 59zM452 903c0 33 26 57 62 57c33 0 60 -24 60 -57c0 -35 -27 -59 -60 -59c-36 0 -62 24 -62 59z" />
    <glyph glyph-name="Odieresis" unicode="&#xd6;" horiz-adv-x="944" 
d="M472 780c240 0 427 -175 427 -401c0 -217 -189 -389 -427 -389s-427 172 -427 389c0 226 187 401 427 401zM472 55c155 0 253 124 253 321c0 208 -97 339 -253 339s-253 -131 -253 -339c0 -197 97 -321 253 -321zM297 903c0 33 26 57 60 57c36 0 62 -24 62 -57
c0 -35 -26 -59 -62 -59c-34 0 -60 24 -60 59zM514 903c0 33 26 57 62 57c33 0 60 -24 60 -57c0 -35 -27 -59 -60 -59c-36 0 -62 24 -62 59z" />
    <glyph glyph-name="Udieresis" unicode="&#xdc;" horiz-adv-x="880" 
d="M757 522v-212c0 -226 -95 -320 -324 -320c-215 0 -310 86 -310 283v274c0 103 -4 138 -18 159c-12 18 -31 24 -78 24v40h359v-40c-56 0 -79 -5 -93 -22c-18 -21 -23 -57 -23 -161v-262c0 -151 64 -223 198 -223c138 0 206 76 206 229v231c0 111 -7 156 -29 181
c-18 19 -45 27 -97 27v40h324v-40c-49 0 -73 -7 -88 -25c-20 -25 -27 -72 -27 -183zM301 903c0 33 26 57 60 57c36 0 62 -24 62 -57c0 -35 -26 -59 -62 -59c-34 0 -60 24 -60 59zM518 903c0 33 26 57 62 57c33 0 60 -24 60 -57c0 -35 -27 -59 -60 -59c-36 0 -62 24 -62 59z
" />
    <glyph glyph-name="Wdieresis" unicode="&#x1e84;" horiz-adv-x="1227" 
d="M761 597l126 -403l135 386c16 45 24 77 24 100c0 41 -28 50 -88 50v40h284v-40c-50 0 -94 -23 -115 -81l-241 -659h-89l-174 528l-198 -528h-83l-212 584c-50 137 -81 155 -158 155v41h378v-41c-67 0 -89 -12 -89 -41c0 -21 5 -35 25 -91l140 -403l162 442
c-26 73 -52 86 -115 93v41h353v-41c-55 0 -82 -11 -82 -51c0 -20 6 -46 17 -81zM480 903c0 33 26 57 60 57c36 0 62 -24 62 -57c0 -35 -26 -59 -62 -59c-34 0 -60 24 -60 59zM697 903c0 33 26 57 62 57c33 0 60 -24 60 -57c0 -35 -27 -59 -60 -59c-36 0 -62 24 -62 59z" />
    <glyph glyph-name="Ydieresis" unicode="&#x178;" horiz-adv-x="760" 
d="M308 276l-207 368c-40 70 -63 86 -115 86v40h336v-40c-56 0 -76 -11 -76 -32c0 -13 8 -30 25 -62l143 -273h4l126 210c44 74 59 106 59 127c0 23 -17 30 -73 30v40h251v-40c-58 0 -88 -30 -180 -187l-146 -250v-102c0 -133 19 -151 104 -151v-40h-356v40
c83 0 105 18 105 144v92zM251 903c0 33 26 57 60 57c36 0 62 -24 62 -57c0 -35 -26 -59 -62 -59c-34 0 -60 24 -60 59zM468 903c0 33 26 57 62 57c33 0 60 -24 60 -57c0 -35 -27 -59 -60 -59c-36 0 -62 24 -62 59z" />
    <glyph glyph-name="ellipsis" unicode="&#x2026;" horiz-adv-x="754" 
d="M54 64c0 43 33 77 75 77c44 0 77 -34 77 -77c0 -41 -33 -74 -77 -74c-42 0 -75 33 -75 74zM301 64c0 43 33 77 75 77c44 0 77 -34 77 -77c0 -41 -33 -74 -77 -74c-42 0 -75 33 -75 74zM548 64c0 43 33 77 75 77c44 0 77 -34 77 -77c0 -41 -33 -74 -77 -74
c-42 0 -75 33 -75 74z" />
    <glyph glyph-name="Etilde" unicode="&#x1ebc;" horiz-adv-x="764" 
d="M287 680v-254c171 0 196 14 208 122h37v-293h-37c-17 108 -41 120 -208 120v-206c0 -86 42 -114 171 -114c152 0 203 38 231 174h40l-16 -229h-678v40c89 3 105 20 105 114v462c0 93 -14 110 -94 114v40h632l7 -196h-43c-17 112 -62 143 -204 143h-113
c-34 0 -38 -5 -38 -37zM259 828h-46c13 78 62 134 119 134c19 0 37 -5 87 -24c41 -16 61 -22 79 -22c25 0 39 11 49 42h45c-5 -35 -23 -76 -44 -102c-21 -25 -43 -36 -73 -36c-24 0 -47 7 -85 25c-30 14 -65 23 -87 23c-23 0 -34 -10 -44 -40z" />
    <glyph glyph-name="Itilde" unicode="&#x128;" horiz-adv-x="429" 
d="M393 40v-40h-357v40c90 3 105 20 105 144v402c0 113 -13 140 -95 144v40h337v-40c-82 -4 -95 -31 -95 -144v-402c0 -124 15 -141 105 -144zM73 828h-46c13 78 62 134 119 134c19 0 37 -5 87 -24c41 -16 61 -22 79 -22c25 0 39 11 49 42h45c-5 -35 -23 -76 -44 -102
c-21 -25 -43 -36 -73 -36c-24 0 -47 7 -85 25c-30 14 -65 23 -87 23c-23 0 -34 -10 -44 -40z" />
    <glyph glyph-name="Ntilde" unicode="&#xd1;" horiz-adv-x="940" 
d="M804 -10h-134l-443 631h-4v-430c0 -132 15 -148 104 -151v-40h-297v40c98 3 115 20 115 144v402c0 113 -15 140 -105 144v40h279l403 -578h4v387c0 132 -15 148 -104 151v40h297v-40c-98 -3 -115 -20 -115 -144v-596zM353 828h-46c13 78 62 134 119 134
c19 0 37 -5 87 -24c41 -16 61 -22 79 -22c25 0 39 11 49 42h45c-5 -35 -23 -76 -44 -102c-21 -25 -43 -36 -73 -36c-24 0 -47 7 -85 25c-30 14 -65 23 -87 23c-23 0 -34 -10 -44 -40z" />
    <glyph glyph-name="Otilde" unicode="&#xd5;" horiz-adv-x="944" 
d="M472 780c240 0 427 -175 427 -401c0 -217 -189 -389 -427 -389s-427 172 -427 389c0 226 187 401 427 401zM472 55c155 0 253 124 253 321c0 208 -97 339 -253 339s-253 -131 -253 -339c0 -197 97 -321 253 -321zM326 828h-46c13 78 62 134 119 134c19 0 37 -5 87 -24
c41 -16 61 -22 79 -22c25 0 39 11 49 42h45c-5 -35 -23 -76 -44 -102c-21 -25 -43 -36 -73 -36c-24 0 -47 7 -85 25c-30 14 -65 23 -87 23c-23 0 -34 -10 -44 -40z" />
    <glyph glyph-name="Utilde" unicode="&#x168;" horiz-adv-x="880" 
d="M757 522v-212c0 -226 -95 -320 -324 -320c-215 0 -310 86 -310 283v274c0 103 -4 138 -18 159c-12 18 -31 24 -78 24v40h359v-40c-56 0 -79 -5 -93 -22c-18 -21 -23 -57 -23 -161v-262c0 -151 64 -223 198 -223c138 0 206 76 206 229v231c0 111 -7 156 -29 181
c-18 19 -45 27 -97 27v40h324v-40c-49 0 -73 -7 -88 -25c-20 -25 -27 -72 -27 -183zM336 828h-46c13 78 62 134 119 134c19 0 37 -5 87 -24c41 -16 61 -22 79 -22c25 0 39 11 49 42h45c-5 -35 -23 -76 -44 -102c-21 -25 -43 -36 -73 -36c-24 0 -47 7 -85 25
c-30 14 -65 23 -87 23c-23 0 -34 -10 -44 -40z" />
    <glyph glyph-name="Ytilde" unicode="&#x1ef8;" horiz-adv-x="760" 
d="M308 276l-207 368c-40 70 -63 86 -115 86v40h336v-40c-56 0 -76 -11 -76 -32c0 -13 8 -30 25 -62l143 -273h4l126 210c44 74 59 106 59 127c0 23 -17 30 -73 30v40h251v-40c-58 0 -88 -30 -180 -187l-146 -250v-102c0 -133 19 -151 104 -151v-40h-356v40
c83 0 105 18 105 144v92zM283 828h-46c13 78 62 134 119 134c19 0 37 -5 87 -24c41 -16 61 -22 79 -22c25 0 39 11 49 42h45c-5 -35 -23 -76 -44 -102c-21 -25 -43 -36 -73 -36c-24 0 -47 7 -85 25c-30 14 -65 23 -87 23c-23 0 -34 -10 -44 -40z" />
    <glyph glyph-name="breve.cap" horiz-adv-x="332" 
d="M272 960h44c-5 -76 -68 -130 -150 -130c-84 0 -147 55 -150 130h43c12 -25 54 -41 106 -41s95 16 107 41z" />
    <glyph glyph-name="Abreve" unicode="&#x102;" horiz-adv-x="809" 
d="M524 173l-23 60h-283c-32 -72 -47 -119 -47 -147c0 -40 30 -46 90 -46v-40h-274v40c64 7 92 24 115 81l263 659h74l239 -584c55 -135 70 -146 160 -155v-41h-378v41c64 3 90 10 90 42c0 19 -10 48 -26 90zM360 596l-119 -303h238l-115 303h-4zM504 960h44
c-5 -76 -68 -130 -150 -130c-84 0 -147 55 -150 130h43c12 -25 54 -41 106 -41s95 16 107 41z" />
    <glyph glyph-name="Ebreve" unicode="&#x114;" horiz-adv-x="764" 
d="M287 680v-254c171 0 196 14 208 122h37v-293h-37c-17 108 -41 120 -208 120v-206c0 -86 42 -114 171 -114c152 0 203 38 231 174h40l-16 -229h-678v40c89 3 105 20 105 114v462c0 93 -14 110 -94 114v40h632l7 -196h-43c-17 112 -62 143 -204 143h-113
c-34 0 -38 -5 -38 -37zM509 960h44c-5 -76 -68 -130 -150 -130c-84 0 -147 55 -150 130h43c12 -25 54 -41 106 -41s95 16 107 41z" />
    <glyph glyph-name="Gbreve" unicode="&#x11e;" horiz-adv-x="876" 
d="M438 -10c-240 0 -391 147 -391 381c0 243 164 409 403 409c83 0 152 -21 239 -72l19 62h36v-253h-50c-26 125 -111 198 -232 198c-152 0 -242 -125 -242 -336c0 -207 86 -322 242 -322c112 0 180 62 180 164c0 61 -30 88 -105 94v40h324v-40c-65 0 -87 -24 -87 -99v-133
c-58 0 -71 -4 -144 -48c-51 -30 -116 -45 -192 -45zM561 960h44c-5 -76 -68 -130 -150 -130c-84 0 -147 55 -150 130h43c12 -25 54 -41 106 -41s95 16 107 41z" />
    <glyph glyph-name="Ibreve" unicode="&#x12c;" horiz-adv-x="429" 
d="M393 40v-40h-357v40c90 3 105 20 105 144v402c0 113 -13 140 -95 144v40h337v-40c-82 -4 -95 -31 -95 -144v-402c0 -124 15 -141 105 -144zM320 960h44c-5 -76 -68 -130 -150 -130c-84 0 -147 55 -150 130h43c12 -25 54 -41 106 -41s95 16 107 41z" />
    <glyph glyph-name="Obreve" unicode="&#x14e;" horiz-adv-x="944" 
d="M472 780c240 0 427 -175 427 -401c0 -217 -189 -389 -427 -389s-427 172 -427 389c0 226 187 401 427 401zM472 55c155 0 253 124 253 321c0 208 -97 339 -253 339s-253 -131 -253 -339c0 -197 97 -321 253 -321zM580 960h44c-5 -76 -68 -130 -150 -130
c-84 0 -147 55 -150 130h43c12 -25 54 -41 106 -41s95 16 107 41z" />
    <glyph glyph-name="Ubreve" unicode="&#x16c;" horiz-adv-x="880" 
d="M757 522v-212c0 -226 -95 -320 -324 -320c-215 0 -310 86 -310 283v274c0 103 -4 138 -18 159c-12 18 -31 24 -78 24v40h359v-40c-56 0 -79 -5 -93 -22c-18 -21 -23 -57 -23 -161v-262c0 -151 64 -223 198 -223c138 0 206 76 206 229v231c0 111 -7 156 -29 181
c-18 19 -45 27 -97 27v40h324v-40c-49 0 -73 -7 -88 -25c-20 -25 -27 -72 -27 -183zM574 960h44c-5 -76 -68 -130 -150 -130c-84 0 -147 55 -150 130h43c12 -25 54 -41 106 -41s95 16 107 41z" />
    <glyph glyph-name="circumflex.cap" horiz-adv-x="386" 
d="M135 960h116l124 -130h-67l-115 49l-115 -49h-67z" />
    <glyph glyph-name="Acircumflex" unicode="&#xc2;" horiz-adv-x="809" 
d="M524 173l-23 60h-283c-32 -72 -47 -119 -47 -147c0 -40 30 -46 90 -46v-40h-274v40c64 7 92 24 115 81l263 659h74l239 -584c55 -135 70 -146 160 -155v-41h-378v41c64 3 90 10 90 42c0 19 -10 48 -26 90zM360 596l-119 -303h238l-115 303h-4zM340 960h116l124 -130h-67
l-115 49l-115 -49h-67z" />
    <glyph glyph-name="Ccircumflex" unicode="&#x108;" horiz-adv-x="823" 
d="M688 708l19 62h49l-20 -253h-40c-28 122 -114 198 -228 198c-157 0 -247 -128 -247 -337c0 -206 87 -322 251 -322c132 0 222 73 259 215h44v-271h-47l-14 79c-74 -60 -163 -89 -267 -89c-243 0 -400 149 -400 382c0 242 168 408 412 408c81 0 147 -21 229 -72zM398 960
h116l124 -130h-67l-115 49l-115 -49h-67z" />
    <glyph glyph-name="Ecircumflex" unicode="&#xca;" horiz-adv-x="764" 
d="M287 680v-254c171 0 196 14 208 122h37v-293h-37c-17 108 -41 120 -208 120v-206c0 -86 42 -114 171 -114c152 0 203 38 231 174h40l-16 -229h-678v40c89 3 105 20 105 114v462c0 93 -14 110 -94 114v40h632l7 -196h-43c-17 112 -62 143 -204 143h-113
c-34 0 -38 -5 -38 -37zM344 960h116l124 -130h-67l-115 49l-115 -49h-67z" />
    <glyph glyph-name="Gcircumflex" unicode="&#x11c;" horiz-adv-x="876" 
d="M438 -10c-240 0 -391 147 -391 381c0 243 164 409 403 409c83 0 152 -21 239 -72l19 62h36v-253h-50c-26 125 -111 198 -232 198c-152 0 -242 -125 -242 -336c0 -207 86 -322 242 -322c112 0 180 62 180 164c0 61 -30 88 -105 94v40h324v-40c-65 0 -87 -24 -87 -99v-133
c-58 0 -71 -4 -144 -48c-51 -30 -116 -45 -192 -45zM397 960h116l124 -130h-67l-115 49l-115 -49h-67z" />
    <glyph glyph-name="Hcircumflex" unicode="&#x124;" horiz-adv-x="945" 
d="M805 609v-448c0 -102 15 -118 105 -121v-40h-367v40c98 3 115 20 115 114v209h-371v-202c0 -102 16 -118 114 -121v-40h-366v40c90 3 105 20 105 114v462c0 93 -13 110 -94 114v40h345v-40c-90 -3 -104 -20 -104 -121v-184h371v191c0 93 -15 110 -105 114v40h346v-40
c-81 -3 -94 -20 -94 -121zM413 960h116l124 -130h-67l-115 49l-115 -49h-67z" />
    <glyph glyph-name="Icircumflex" unicode="&#xce;" horiz-adv-x="429" 
d="M393 40v-40h-357v40c90 3 105 20 105 144v402c0 113 -13 140 -95 144v40h337v-40c-82 -4 -95 -31 -95 -144v-402c0 -124 15 -141 105 -144zM156 960h116l124 -130h-67l-115 49l-115 -49h-67z" />
    <glyph glyph-name="Jcircumflex" unicode="&#x134;" horiz-adv-x="407" 
d="M130 -23v639c0 93 -13 110 -95 114v40h337v-40c-83 -3 -95 -20 -95 -121v-611c0 -167 -87 -258 -255 -258c-120 0 -190 46 -190 110c0 38 28 60 64 60c30 0 44 -13 70 -57s44 -55 75 -55c57 0 89 66 89 179zM145 960h116l124 -130h-67l-115 49l-115 -49h-67z" />
    <glyph glyph-name="Ocircumflex" unicode="&#xd4;" horiz-adv-x="944" 
d="M472 780c240 0 427 -175 427 -401c0 -217 -189 -389 -427 -389s-427 172 -427 389c0 226 187 401 427 401zM472 55c155 0 253 124 253 321c0 208 -97 339 -253 339s-253 -131 -253 -339c0 -197 97 -321 253 -321zM413 960h116l124 -130h-67l-115 49l-115 -49h-67z" />
    <glyph glyph-name="Scircumflex" unicode="&#x15c;" horiz-adv-x="663" 
d="M69 0l-15 255h39c18 -126 109 -204 229 -204c100 0 167 50 167 124c0 63 -33 90 -188 148c-155 59 -229 138 -229 245c0 125 101 212 247 212c68 0 127 -21 185 -64l18 50h24l11 -216h-39c-32 109 -104 169 -193 169c-82 0 -139 -45 -139 -109c0 -57 32 -82 170 -134
c186 -71 262 -146 262 -257c0 -135 -123 -229 -298 -229c-79 0 -140 21 -207 70l-20 -60h-24zM261 960h116l124 -130h-67l-115 49l-115 -49h-67z" />
    <glyph glyph-name="Ucircumflex" unicode="&#xdb;" horiz-adv-x="880" 
d="M757 522v-212c0 -226 -95 -320 -324 -320c-215 0 -310 86 -310 283v274c0 103 -4 138 -18 159c-12 18 -31 24 -78 24v40h359v-40c-56 0 -79 -5 -93 -22c-18 -21 -23 -57 -23 -161v-262c0 -151 64 -223 198 -223c138 0 206 76 206 229v231c0 111 -7 156 -29 181
c-18 19 -45 27 -97 27v40h324v-40c-49 0 -73 -7 -88 -25c-20 -25 -27 -72 -27 -183zM409 960h116l124 -130h-67l-115 49l-115 -49h-67z" />
    <glyph glyph-name="Wcircumflex" unicode="&#x174;" horiz-adv-x="1227" 
d="M761 597l126 -403l135 386c16 45 24 77 24 100c0 41 -28 50 -88 50v40h284v-40c-50 0 -94 -23 -115 -81l-241 -659h-89l-174 528l-198 -528h-83l-212 584c-50 137 -81 155 -158 155v41h378v-41c-67 0 -89 -12 -89 -41c0 -21 5 -35 25 -91l140 -403l162 442
c-26 73 -52 86 -115 93v41h353v-41c-55 0 -82 -11 -82 -51c0 -20 6 -46 17 -81zM590 960h116l124 -130h-67l-115 49l-115 -49h-67z" />
    <glyph glyph-name="Ycircumflex" unicode="&#x176;" horiz-adv-x="760" 
d="M308 276l-207 368c-40 70 -63 86 -115 86v40h336v-40c-56 0 -76 -11 -76 -32c0 -13 8 -30 25 -62l143 -273h4l126 210c44 74 59 106 59 127c0 23 -17 30 -73 30v40h251v-40c-58 0 -88 -30 -180 -187l-146 -250v-102c0 -133 19 -151 104 -151v-40h-356v40
c83 0 105 18 105 144v92zM359 960h116l124 -130h-67l-115 49l-115 -49h-67z" />
    <glyph glyph-name="caron.cap" horiz-adv-x="386" 
d="M251 830h-116l-124 130h67l115 -49l115 49h67z" />
    <glyph glyph-name="Ccaron" unicode="&#x10c;" horiz-adv-x="823" 
d="M688 708l19 62h49l-20 -253h-40c-28 122 -114 198 -228 198c-157 0 -247 -128 -247 -337c0 -206 87 -322 251 -322c132 0 222 73 259 215h44v-271h-47l-14 79c-74 -60 -163 -89 -267 -89c-243 0 -400 149 -400 382c0 242 168 408 412 408c81 0 147 -21 229 -72zM516 830
h-116l-124 130h67l115 -49l115 49h67z" />
    <glyph glyph-name="Ecaron" unicode="&#x11a;" horiz-adv-x="764" 
d="M287 680v-254c171 0 196 14 208 122h37v-293h-37c-17 108 -41 120 -208 120v-206c0 -86 42 -114 171 -114c152 0 203 38 231 174h40l-16 -229h-678v40c89 3 105 20 105 114v462c0 93 -14 110 -94 114v40h632l7 -196h-43c-17 112 -62 143 -204 143h-113
c-34 0 -38 -5 -38 -37zM460 830h-116l-124 130h67l115 -49l115 49h67z" />
    <glyph glyph-name="Lcaron" unicode="&#x13d;" horiz-adv-x="755" 
d="M740 227l-16 -227h-689v40c89 3 105 20 105 114v462c0 93 -14 110 -94 114v40h345v-40c-90 -3 -104 -20 -104 -121v-419c0 -112 42 -135 181 -135c154 0 202 32 232 172h40zM284 830h-116l-124 130h67l115 -49l115 49h67z" />
    <glyph glyph-name="Ncaron" unicode="&#x147;" horiz-adv-x="940" 
d="M804 -10h-134l-443 631h-4v-430c0 -132 15 -148 104 -151v-40h-297v40c98 3 115 20 115 144v402c0 113 -15 140 -105 144v40h279l403 -578h4v387c0 132 -15 148 -104 151v40h297v-40c-98 -3 -115 -20 -115 -144v-596zM528 830h-116l-124 130h67l115 -49l115 49h67z" />
    <glyph glyph-name="Rcaron" unicode="&#x158;" horiz-adv-x="815" 
d="M695 577c0 -111 -61 -189 -201 -214l232 -266c32 -37 79 -57 124 -57v-40h-237l-248 304c-33 40 -57 51 -78 51v-196c0 -99 18 -119 145 -119v-40h-397v40c88 0 105 20 105 114v462c0 93 -12 110 -94 114v40h346c192 0 303 -72 303 -193zM287 697v-282h65
c125 0 187 46 187 157c0 85 -55 142 -147 142h-87c-11 0 -18 -7 -18 -17zM433 830h-116l-124 130h67l115 -49l115 49h67z" />
    <glyph glyph-name="Scaron" unicode="&#x160;" horiz-adv-x="663" 
d="M69 0l-15 255h39c18 -126 109 -204 229 -204c100 0 167 50 167 124c0 63 -33 90 -188 148c-155 59 -229 138 -229 245c0 125 101 212 247 212c68 0 127 -21 185 -64l18 50h24l11 -216h-39c-32 109 -104 169 -193 169c-82 0 -139 -45 -139 -109c0 -57 32 -82 170 -134
c186 -71 262 -146 262 -257c0 -135 -123 -229 -298 -229c-79 0 -140 21 -207 70l-20 -60h-24zM377 830h-116l-124 130h67l115 -49l115 49h67z" />
    <glyph glyph-name="Tcaron" unicode="&#x164;" horiz-adv-x="827" 
d="M805 770l10 -220h-43c-8 132 -61 168 -168 168c-104 0 -119 -7 -119 -31v-524c0 -86 17 -119 135 -123v-40h-419v40c119 4 137 37 137 123v524c0 24 -14 31 -103 31c-97 0 -180 -6 -184 -168h-39l10 220h783zM470 830h-116l-124 130h67l115 -49l115 49h67z" />
    <glyph glyph-name="Zcaron" unicode="&#x17d;" horiz-adv-x="797" 
d="M760 255l-13 -255h-732v23l503 695h-253c-99 0 -144 -48 -163 -152h-39l16 204h648v-23l-498 -691h286c144 0 174 43 199 199h46zM454 830h-116l-124 130h67l115 -49l115 49h67z" />
    <glyph glyph-name="uni01C4" unicode="&#x1c4;" horiz-adv-x="1716" 
d="M452 0h-417v40c88 3 105 19 105 114v462c0 93 -13 110 -89 114v40h380c256 0 442 -168 442 -398c0 -219 -173 -372 -421 -372zM429 709h-125c-11 0 -17 -7 -17 -17v-517c0 -77 47 -114 147 -114c174 0 272 109 272 309c0 213 -105 339 -277 339zM1679 255l-13 -255h-732
v23l503 695h-253c-99 0 -144 -48 -163 -152h-39l16 204h648v-23l-498 -691h286c144 0 174 43 199 199h46zM1373 830h-116l-124 130h67l115 -49l115 49h67z" />
    <glyph glyph-name="uni01C5" unicode="&#x1c5;" horiz-adv-x="1487" 
d="M452 0h-417v40c88 3 105 19 105 114v462c0 93 -13 110 -89 114v40h380c256 0 442 -168 442 -398c0 -219 -173 -372 -421 -372zM429 709h-125c-11 0 -17 -7 -17 -17v-517c0 -77 47 -114 147 -114c174 0 272 109 272 309c0 213 -105 339 -277 339zM1451 170l-12 -170h-494
v23l313 454h-92c-114 0 -137 -15 -153 -103h-39l12 156h451v-23l-308 -453h88c140 0 170 18 195 116h39zM1287 651h-104l-120 149h52l120 -68l120 68h52z" />
    <glyph glyph-name="uni01C6" unicode="&#x1c6;" horiz-adv-x="1262" 
d="M481 -10v74h-4c-46 -49 -107 -74 -179 -74c-152 0 -259 112 -259 271s109 279 253 279c66 0 118 -18 156 -66h4v85c0 78 -2 140 -6 157c-6 28 -39 40 -109 40v34l253 40v-572c0 -99 2 -149 7 -177c6 -35 17 -41 74 -41v-39zM450 248v39c0 50 -11 95 -32 128
c-24 38 -63 59 -106 59c-78 0 -121 -75 -121 -211c0 -138 43 -216 120 -216c44 0 87 24 112 63c19 29 27 70 27 138zM1226 170l-12 -170h-494v23l313 454h-92c-114 0 -137 -15 -153 -103h-39l12 156h451v-23l-308 -453h88c140 0 170 18 195 116h39zM1062 651h-104l-120 149
h52l120 -68l120 68h52z" />
    <glyph glyph-name="ring" unicode="&#x2da;" horiz-adv-x="224" 
d="M21 742c0 51 38 88 90 88c53 0 92 -37 92 -88c0 -49 -39 -86 -92 -86c-52 0 -90 37 -90 86zM70 742c0 -22 18 -39 41 -39c22 0 39 17 39 39c0 21 -17 37 -39 37c-23 0 -41 -16 -41 -37z" />
    <glyph glyph-name="aring" unicode="&#xe5;" horiz-adv-x="574" 
d="M344 190v95c-111 -51 -169 -91 -169 -138c0 -39 24 -63 56 -63c65 0 113 47 113 106zM203 277l141 61v42c0 77 -27 111 -84 111c-38 0 -55 -19 -72 -67c-12 -33 -33 -53 -71 -53c-37 0 -58 24 -58 65c0 63 71 104 211 104c150 0 208 -49 208 -176v-219
c0 -57 11 -85 34 -85c13 0 24 4 35 13l15 -29c-18 -33 -61 -54 -110 -54c-61 0 -94 39 -94 107h-5c-38 -69 -102 -106 -180 -106c-83 0 -139 52 -139 128c0 58 48 109 169 158zM179 742c0 51 38 88 90 88c53 0 92 -37 92 -88c0 -49 -39 -86 -92 -86c-52 0 -90 37 -90 86z
M228 742c0 -22 18 -39 41 -39c22 0 39 17 39 39c0 21 -17 37 -39 37c-23 0 -41 -16 -41 -37z" />
    <glyph glyph-name="uring" unicode="&#x16f;" horiz-adv-x="709" 
d="M465 262v104c0 108 -6 116 -87 124v40h226v-303c0 -81 2 -125 7 -147c7 -34 19 -40 85 -40v-39l-199 -12l-11 89h-4c-34 -55 -101 -88 -178 -88c-70 0 -126 26 -163 76c-29 39 -43 92 -43 165v135c0 110 -5 115 -85 124v40h224v-283c0 -134 32 -192 105 -192
c40 0 70 18 91 54c22 36 32 84 32 153zM238 742c0 51 38 88 90 88c53 0 92 -37 92 -88c0 -49 -39 -86 -92 -86c-52 0 -90 37 -90 86zM287 742c0 -22 18 -39 41 -39c22 0 39 17 39 39c0 21 -17 37 -39 37c-23 0 -41 -16 -41 -37z" />
    <glyph glyph-name="ring.cap" horiz-adv-x="178" 
d="M21 895c0 37 29 65 68 65s68 -28 68 -65s-29 -65 -68 -65s-68 28 -68 65zM63 895c0 -14 11 -24 26 -24c14 0 25 10 25 24c0 13 -11 23 -25 23c-15 0 -26 -10 -26 -23z" />
    <glyph glyph-name="Aring" unicode="&#xc5;" horiz-adv-x="809" 
d="M524 173l-23 60h-283c-32 -72 -47 -119 -47 -147c0 -40 30 -46 90 -46v-40h-274v40c64 7 92 24 115 81l263 659h74l239 -584c55 -135 70 -146 160 -155v-41h-378v41c64 3 90 10 90 42c0 19 -10 48 -26 90zM360 596l-119 -303h238l-115 303h-4zM337 895c0 37 29 65 68 65
s68 -28 68 -65s-29 -65 -68 -65s-68 28 -68 65zM379 895c0 -14 11 -24 26 -24c14 0 25 10 25 24c0 13 -11 23 -25 23c-15 0 -26 -10 -26 -23z" />
    <glyph glyph-name="Uring" unicode="&#x16e;" horiz-adv-x="880" 
d="M757 522v-212c0 -226 -95 -320 -324 -320c-215 0 -310 86 -310 283v274c0 103 -4 138 -18 159c-12 18 -31 24 -78 24v40h359v-40c-56 0 -79 -5 -93 -22c-18 -21 -23 -57 -23 -161v-262c0 -151 64 -223 198 -223c138 0 206 76 206 229v231c0 111 -7 156 -29 181
c-18 19 -45 27 -97 27v40h324v-40c-49 0 -73 -7 -88 -25c-20 -25 -27 -72 -27 -183zM402 895c0 37 29 65 68 65s68 -28 68 -65s-29 -65 -68 -65s-68 28 -68 65zM444 895c0 -14 11 -24 26 -24c14 0 25 10 25 24c0 13 -11 23 -25 23c-15 0 -26 -10 -26 -23z" />
    <glyph glyph-name="aringacute" unicode="&#x1fb;" horiz-adv-x="574" 
d="M155 738c0 48 36 82 83 82c17 0 32 -4 45 -12c19 24 34 32 52 32c24 0 40 -14 40 -36c0 -19 -21 -36 -54 -51c1 -5 1 -10 1 -15c0 -44 -35 -79 -84 -79c-20 0 -38 6 -52 17l-30 -15h-66l67 56c-2 7 -2 14 -2 21zM202 738c0 -19 15 -33 36 -33c22 0 36 14 36 33
c0 20 -14 34 -36 34c-21 0 -36 -14 -36 -34zM344 190v95c-111 -51 -169 -91 -169 -138c0 -39 24 -63 56 -63c65 0 113 47 113 106zM203 277l141 61v42c0 77 -27 111 -84 111c-38 0 -55 -19 -72 -67c-12 -33 -33 -53 -71 -53c-37 0 -58 24 -58 65c0 63 71 104 211 104
c150 0 208 -49 208 -176v-219c0 -57 11 -85 34 -85c13 0 24 4 35 13l15 -29c-18 -33 -61 -54 -110 -54c-61 0 -94 39 -94 107h-5c-38 -69 -102 -106 -180 -106c-83 0 -139 52 -139 128c0 58 48 109 169 158z" />
    <glyph glyph-name="Aringacute" unicode="&#x1fa;" horiz-adv-x="789" 
d="M548 171l-48 108h-274c-44 -94 -67 -165 -67 -192c0 -37 26 -49 82 -49v-38h-255v38c64 7 89 25 115 81l273 601h45l268 -580c35 -76 72 -101 130 -101v-39h-343v39c70 0 100 11 100 47c0 20 -4 36 -26 85zM368 574l-118 -245h227zM326 878c0 48 36 82 83 82
c18 0 34 -5 48 -13c17 17 32 23 49 23c18 0 30 -10 30 -26c0 -18 -17 -35 -45 -50c1 -5 2 -11 2 -16c0 -44 -35 -79 -84 -79c-20 0 -39 6 -53 17l-34 -15h-56l62 56c-2 6 -2 13 -2 21zM365 878c0 -24 18 -41 44 -41c27 0 45 17 45 41c0 25 -18 42 -45 42
c-26 0 -44 -17 -44 -42z" />
    <glyph glyph-name="Dcaron" unicode="&#x10e;" horiz-adv-x="919" 
d="M452 0h-417v40c88 3 105 19 105 114v462c0 93 -13 110 -89 114v40h380c256 0 442 -168 442 -398c0 -219 -173 -372 -421 -372zM429 709h-125c-11 0 -17 -7 -17 -17v-517c0 -77 47 -114 147 -114c174 0 272 109 272 309c0 213 -105 339 -277 339zM511 830h-116l-124 130
h67l115 -49l115 49h67z" />
    <glyph glyph-name="macron" unicode="&#xaf;" horiz-adv-x="326" 
d="M305 692h-284v65h284v-65z" />
    <glyph glyph-name="amacron" unicode="&#x101;" horiz-adv-x="574" 
d="M344 190v95c-111 -51 -169 -91 -169 -138c0 -39 24 -63 56 -63c65 0 113 47 113 106zM203 277l141 61v42c0 77 -27 111 -84 111c-38 0 -55 -19 -72 -67c-12 -33 -33 -53 -71 -53c-37 0 -58 24 -58 65c0 63 71 104 211 104c150 0 208 -49 208 -176v-219
c0 -57 11 -85 34 -85c13 0 24 4 35 13l15 -29c-18 -33 -61 -54 -110 -54c-61 0 -94 39 -94 107h-5c-38 -69 -102 -106 -180 -106c-83 0 -139 52 -139 128c0 58 48 109 169 158zM407 692h-284v65h284v-65z" />
    <glyph glyph-name="umacron" unicode="&#x16b;" horiz-adv-x="709" 
d="M465 262v104c0 108 -6 116 -87 124v40h226v-303c0 -81 2 -125 7 -147c7 -34 19 -40 85 -40v-39l-199 -12l-11 89h-4c-34 -55 -101 -88 -178 -88c-70 0 -126 26 -163 76c-29 39 -43 92 -43 165v135c0 110 -5 115 -85 124v40h224v-283c0 -134 32 -192 105 -192
c40 0 70 18 91 54c22 36 32 84 32 153zM461 692h-284v65h284v-65z" />
    <glyph glyph-name="omacron" unicode="&#x14d;" horiz-adv-x="660" 
d="M328 540c159 0 295 -114 295 -271c0 -162 -136 -279 -295 -279c-158 0 -291 116 -291 279c0 158 133 271 291 271zM328 482c-81 0 -134 -86 -134 -214c0 -132 52 -217 134 -217c84 0 138 86 138 217c0 127 -55 214 -138 214zM470 692h-284v65h284v-65z" />
    <glyph glyph-name="emacron" unicode="&#x113;" 
d="M512 128l28 -35c-62 -70 -136 -103 -227 -103c-164 0 -275 109 -275 268c0 165 119 282 287 282c141 0 224 -81 224 -217c0 -21 -2 -23 -33 -23h-322c-3 -7 -4 -17 -4 -33c0 -130 61 -212 158 -212c56 0 112 26 164 73zM201 356h145c54 0 63 3 63 26
c0 58 -37 100 -88 100c-57 0 -107 -53 -120 -126zM460 692h-284v65h284v-65z" />
    <glyph glyph-name="imacron" unicode="&#x12b;" horiz-adv-x="361" 
d="M257 540v-376c0 -106 10 -121 87 -124v-40h-315v40c75 4 89 23 89 117v123c0 77 -3 129 -7 147c-7 33 -25 41 -86 41v34zM329 692h-284v65h284v-65z" />
    <glyph glyph-name="macron.cap" horiz-adv-x="326" 
d="M305 865h-284v65h284v-65z" />
    <glyph glyph-name="Amacron" unicode="&#x100;" horiz-adv-x="809" 
d="M524 173l-23 60h-283c-32 -72 -47 -119 -47 -147c0 -40 30 -46 90 -46v-40h-274v40c64 7 92 24 115 81l263 659h74l239 -584c55 -135 70 -146 160 -155v-41h-378v41c64 3 90 10 90 42c0 19 -10 48 -26 90zM360 596l-119 -303h238l-115 303h-4zM540 865h-284v65h284v-65z
" />
    <glyph glyph-name="Emacron" unicode="&#x112;" horiz-adv-x="764" 
d="M287 680v-254c171 0 196 14 208 122h37v-293h-37c-17 108 -41 120 -208 120v-206c0 -86 42 -114 171 -114c152 0 203 38 231 174h40l-16 -229h-678v40c89 3 105 20 105 114v462c0 93 -14 110 -94 114v40h632l7 -196h-43c-17 112 -62 143 -204 143h-113
c-34 0 -38 -5 -38 -37zM545 865h-284v65h284v-65z" />
    <glyph glyph-name="Imacron" unicode="&#x12a;" horiz-adv-x="429" 
d="M393 40v-40h-357v40c90 3 105 20 105 144v402c0 113 -13 140 -95 144v40h337v-40c-82 -4 -95 -31 -95 -144v-402c0 -124 15 -141 105 -144zM357 865h-284v65h284v-65z" />
    <glyph glyph-name="Omacron" unicode="&#x14c;" horiz-adv-x="944" 
d="M472 780c240 0 427 -175 427 -401c0 -217 -189 -389 -427 -389s-427 172 -427 389c0 226 187 401 427 401zM472 55c155 0 253 124 253 321c0 208 -97 339 -253 339s-253 -131 -253 -339c0 -197 97 -321 253 -321zM613 865h-284v65h284v-65z" />
    <glyph glyph-name="Umacron" unicode="&#x16a;" horiz-adv-x="880" 
d="M757 522v-212c0 -226 -95 -320 -324 -320c-215 0 -310 86 -310 283v274c0 103 -4 138 -18 159c-12 18 -31 24 -78 24v40h359v-40c-56 0 -79 -5 -93 -22c-18 -21 -23 -57 -23 -161v-262c0 -151 64 -223 198 -223c138 0 206 76 206 229v231c0 111 -7 156 -29 181
c-18 19 -45 27 -97 27v40h324v-40c-49 0 -73 -7 -88 -25c-20 -25 -27 -72 -27 -183zM612 865h-284v65h284v-65z" />
    <glyph glyph-name="asciicircum" unicode="^" horiz-adv-x="492" 
d="M199 410h94l135 -180h-57l-125 99l-125 -99h-57z" />
    <glyph glyph-name="cedilla" unicode="&#xb8;" horiz-adv-x="243" 
d="M166 12l-32 -74c83 0 135 -36 135 -93c0 -62 -59 -105 -142 -105c-76 0 -131 36 -131 86c0 26 14 41 36 41c19 0 29 -9 41 -37c13 -32 24 -42 46 -42c27 0 44 18 44 45c0 35 -27 54 -76 54c-11 0 -30 -1 -39 -2l-2 3l55 124h65z" />
    <glyph glyph-name="ccedilla" unicode="&#xe7;" horiz-adv-x="564" 
d="M502 121l26 -38c-49 -55 -126 -86 -210 -88l-24 -57c83 0 135 -36 135 -93c0 -62 -59 -105 -142 -105c-76 0 -131 36 -131 86c0 26 14 41 36 41c19 0 29 -9 41 -37c13 -32 24 -42 46 -42c27 0 44 18 44 45c0 35 -27 54 -76 54c-11 0 -30 -1 -39 -2l-2 3l49 112
c-131 21 -216 122 -216 263c0 165 117 277 288 277c120 0 209 -51 209 -118c0 -39 -24 -63 -61 -63c-31 0 -52 15 -75 51c-40 63 -51 72 -85 72c-77 0 -122 -76 -122 -205c0 -138 53 -216 149 -216c54 0 111 22 160 60z" />
    <glyph glyph-name="Ccedilla" unicode="&#xc7;" horiz-adv-x="823" 
d="M688 708l19 62h49l-20 -253h-40c-28 122 -114 198 -228 198c-157 0 -247 -128 -247 -337c0 -206 87 -322 251 -322c132 0 222 73 259 215h44v-271h-47l-14 79c-70 -57 -153 -86 -250 -89l-22 -52c83 0 135 -36 135 -93c0 -62 -59 -105 -142 -105c-76 0 -131 36 -131 86
c0 26 14 41 36 41c19 0 29 -9 41 -37c13 -32 24 -42 46 -42c27 0 44 18 44 45c0 35 -27 54 -76 54c-11 0 -30 -1 -39 -2l-2 3l46 104c-216 18 -353 162 -353 380c0 242 168 408 412 408c81 0 147 -21 229 -72z" />
    <glyph glyph-name="uni015F" unicode="&#x15f;" horiz-adv-x="466" 
d="M107 35l-22 -35h-31v182h42c23 -95 64 -138 132 -138c49 0 78 22 78 58c0 37 -32 71 -106 111c-101 55 -142 105 -142 173c0 89 70 155 163 155c41 0 85 -13 115 -34l18 24h26v-151h-39c-31 76 -61 107 -107 107c-37 0 -61 -22 -61 -55c0 -37 31 -68 106 -108
c108 -58 151 -109 151 -181c0 -89 -67 -148 -170 -152l-22 -53c83 0 135 -36 135 -93c0 -62 -59 -105 -142 -105c-76 0 -131 36 -131 86c0 26 14 41 36 41c19 0 29 -9 41 -37c13 -32 24 -42 46 -42c27 0 44 18 44 45c0 35 -27 54 -76 54c-11 0 -30 -1 -39 -2l-2 3l47 107
c-36 6 -68 20 -90 40z" />
    <glyph glyph-name="uni0163" unicode="&#x163;" horiz-adv-x="382" 
d="M98 475h-73v45c79 23 134 72 161 131h51v-121h115v-55h-115v-307c0 -82 17 -114 59 -114c27 0 45 11 59 36l21 -29c-18 -46 -64 -71 -132 -71l-22 -52c83 0 135 -36 135 -93c0 -62 -59 -105 -142 -105c-76 0 -131 36 -131 86c0 26 14 41 36 41c19 0 29 -9 41 -37
c13 -32 24 -42 46 -42c27 0 44 18 44 45c0 35 -27 54 -76 54c-11 0 -30 -1 -39 -2l-2 3l48 110c-54 16 -84 56 -84 114v363z" />
    <glyph glyph-name="uni015E" unicode="&#x15e;" horiz-adv-x="663" 
d="M69 0l-15 255h39c18 -126 109 -204 229 -204c100 0 167 50 167 124c0 63 -33 90 -188 148c-155 59 -229 138 -229 245c0 125 101 212 247 212c68 0 127 -21 185 -64l18 50h24l11 -216h-39c-32 109 -104 169 -193 169c-82 0 -139 -45 -139 -109c0 -57 32 -82 170 -134
c186 -71 262 -146 262 -257c0 -129 -111 -220 -273 -228l-22 -53c83 0 135 -36 135 -93c0 -62 -59 -105 -142 -105c-76 0 -131 36 -131 86c0 26 14 41 36 41c19 0 29 -9 41 -37c13 -32 24 -42 46 -42c27 0 44 18 44 45c0 35 -27 54 -76 54c-11 0 -30 -1 -39 -2l-2 3l46 104
c-61 6 -113 27 -168 68l-20 -60h-24z" />
    <glyph glyph-name="uni0162" unicode="&#x162;" horiz-adv-x="827" 
d="M805 770l10 -220h-43c-8 132 -61 168 -168 168c-104 0 -119 -7 -119 -31v-524c0 -86 17 -119 135 -123v-40h-181l-27 -62c83 0 135 -36 135 -93c0 -62 -59 -105 -142 -105c-76 0 -131 36 -131 86c0 26 14 41 36 41c19 0 29 -9 41 -37c13 -32 24 -42 46 -42
c27 0 44 18 44 45c0 35 -27 54 -76 54c-11 0 -30 -1 -39 -2l-2 3l49 112h-172v40c119 4 137 37 137 123v524c0 24 -14 31 -103 31c-97 0 -180 -6 -184 -168h-39l10 220h783z" />
    <glyph glyph-name="ogonek" unicode="&#x2db;" horiz-adv-x="278" 
d="M231 -116l35 -36c-43 -56 -102 -87 -166 -87c-74 0 -110 29 -110 88c0 62 60 118 165 156h62v-5c-73 -32 -124 -83 -124 -124c0 -26 20 -45 49 -45s63 20 89 53z" />
    <glyph glyph-name="aogonek" unicode="&#x105;" horiz-adv-x="574" 
d="M499 -116l35 -36c-43 -56 -102 -87 -166 -87c-74 0 -110 29 -110 88s54 112 149 150c-32 15 -49 49 -49 98h-5c-38 -69 -102 -106 -180 -106c-83 0 -139 52 -139 128c0 58 49 106 169 158l141 61v42c0 77 -27 111 -84 111c-38 0 -55 -19 -72 -67c-12 -33 -33 -53 -71 -53
c-37 0 -58 24 -58 65c0 63 71 104 211 104c150 0 208 -49 208 -176v-219c0 -57 11 -85 34 -85c13 0 24 4 35 13l15 -29c-17 -30 -54 -50 -97 -53c-62 -32 -104 -78 -104 -115c0 -26 20 -45 49 -45s63 20 89 53zM344 190v95c-111 -51 -169 -91 -169 -138c0 -39 24 -63 56 -63
c65 0 113 47 113 106z" />
    <glyph glyph-name="iogonek" unicode="&#x12f;" horiz-adv-x="361" 
d="M243 -116l35 -36c-43 -56 -102 -87 -166 -87c-74 0 -110 29 -110 88c0 60 55 113 152 151h-125v40c75 4 89 23 89 117v123c0 77 -3 129 -7 147c-7 33 -25 41 -86 41v34l232 38v-376c0 -106 10 -121 87 -124v-40h-115c-73 -32 -124 -83 -124 -124c0 -26 20 -45 49 -45
s63 20 89 53zM110 752c0 44 34 78 77 78c44 0 78 -34 78 -78c0 -43 -34 -77 -78 -77c-43 0 -77 34 -77 77z" />
    <glyph glyph-name="uogonek" unicode="&#x173;" horiz-adv-x="709" 
d="M606 -116l35 -36c-43 -56 -102 -87 -166 -87c-74 0 -110 29 -110 88c0 55 47 106 131 143l-10 86h-4c-34 -55 -101 -88 -178 -88c-70 0 -126 26 -163 76c-29 39 -43 92 -43 165v135c0 110 -5 115 -85 124v40h224v-283c0 -134 32 -192 105 -192c40 0 70 18 91 54
c22 36 32 84 32 153v104c0 108 -6 116 -87 124v40h226v-303c0 -81 2 -125 7 -147c7 -34 19 -40 85 -40v-39l-117 -7c-66 -32 -111 -79 -111 -118c0 -26 20 -45 49 -45s63 20 89 53z" />
    <glyph glyph-name="oogonek" unicode="&#x1eb;" horiz-adv-x="660" 
d="M395 -116l35 -36c-43 -56 -102 -87 -166 -87c-74 0 -110 29 -110 88c0 56 48 106 134 144c-140 17 -251 127 -251 276c0 158 133 271 291 271c159 0 295 -114 295 -271c0 -150 -116 -261 -259 -277c-64 -32 -107 -78 -107 -116c0 -26 20 -45 49 -45s63 20 89 53zM328 482
c-81 0 -134 -86 -134 -214c0 -132 52 -217 134 -217c84 0 138 86 138 217c0 127 -55 214 -138 214z" />
    <glyph glyph-name="eogonek" unicode="&#x119;" 
d="M369 -116l35 -36c-43 -56 -102 -87 -166 -87c-74 0 -110 29 -110 88c0 56 49 107 135 145c-136 19 -225 121 -225 264c0 165 119 282 287 282c141 0 224 -81 224 -217c0 -21 -2 -23 -33 -23h-322c-3 -7 -4 -17 -4 -33c0 -130 61 -212 158 -212c56 0 112 26 164 73l28 -35
c-57 -64 -124 -97 -205 -102c-62 -32 -104 -78 -104 -115c0 -26 20 -45 49 -45s63 20 89 53zM201 356h145c54 0 63 3 63 26c0 58 -37 100 -88 100c-57 0 -107 -53 -120 -126z" />
    <glyph glyph-name="Iogonek" unicode="&#x12e;" horiz-adv-x="429" 
d="M272 -116l35 -36c-43 -56 -102 -87 -166 -87c-74 0 -110 29 -110 88c0 60 55 113 152 151h-147v40c90 3 105 20 105 144v402c0 113 -13 140 -95 144v40h337v-40c-82 -4 -95 -31 -95 -144v-402c0 -124 15 -141 105 -144v-40h-135c-73 -32 -124 -83 -124 -124
c0 -26 20 -45 49 -45s63 20 89 53z" />
    <glyph glyph-name="Eogonek" unicode="&#x118;" horiz-adv-x="764" 
d="M476 -116l35 -36c-43 -56 -102 -87 -166 -87c-74 0 -110 29 -110 88c0 60 55 113 152 151h-352v40c89 3 105 20 105 114v462c0 93 -14 110 -94 114v40h632l7 -196h-43c-17 112 -62 143 -204 143h-113c-34 0 -38 -5 -38 -37v-254c171 0 196 14 208 122h37v-293h-37
c-17 108 -41 120 -208 120v-206c0 -86 42 -114 171 -114c152 0 203 38 231 174h40l-16 -229h-251c-73 -32 -124 -83 -124 -124c0 -26 20 -45 49 -45s63 20 89 53z" />
    <glyph glyph-name="Aogonek" unicode="&#x104;" horiz-adv-x="809" 
d="M698 -116l35 -36c-43 -56 -102 -87 -166 -87c-74 0 -110 29 -110 88c0 60 55 113 152 151h-149v41c64 3 90 10 90 42c0 19 -10 48 -26 90l-23 60h-283c-32 -72 -47 -119 -47 -147c0 -40 30 -46 90 -46v-40h-274v40c64 7 92 24 115 81l263 659h74l239 -584
c55 -135 70 -146 160 -155v-41h-154c-73 -32 -124 -83 -124 -124c0 -26 20 -45 49 -45s63 20 89 53zM360 596l-119 -303h238l-115 303h-4z" />
    <glyph glyph-name="Oogonek" unicode="&#x1ea;" horiz-adv-x="943" 
d="M555 -116l35 -36c-43 -56 -102 -87 -166 -87c-74 0 -110 29 -110 88c0 55 47 105 130 142c-225 12 -399 179 -399 388c0 226 187 401 427 401s427 -175 427 -401c0 -200 -161 -362 -373 -386c-65 -32 -109 -79 -109 -117c0 -26 20 -45 49 -45s63 20 89 53zM472 55
c155 0 253 124 253 321c0 208 -97 339 -253 339s-253 -131 -253 -339c0 -197 97 -321 253 -321z" />
    <glyph glyph-name="Uogonek" unicode="&#x172;" horiz-adv-x="880" 
d="M541 -116l35 -36c-43 -56 -102 -87 -166 -87c-74 0 -110 29 -110 88c0 54 46 104 128 141c-212 2 -305 87 -305 283v274c0 103 -4 138 -18 159c-12 18 -31 24 -78 24v40h359v-40c-56 0 -79 -5 -93 -22c-18 -21 -23 -57 -23 -161v-262c0 -151 64 -223 198 -223
c138 0 206 76 206 229v231c0 111 -7 156 -29 181c-18 19 -45 27 -97 27v40h324v-40c-49 0 -73 -7 -88 -25c-20 -25 -27 -72 -27 -183v-212c0 -197 -72 -293 -241 -315c-67 -32 -113 -80 -113 -119c0 -26 20 -45 49 -45s63 20 89 53z" />
    <glyph glyph-name="gbreve" unicode="&#x11f;" horiz-adv-x="610" 
d="M228 108c71 -6 106 -10 163 -19c103 -15 167 -83 167 -176c0 -113 -96 -173 -276 -173c-165 0 -260 51 -260 140c0 69 41 105 95 105c35 0 70 -15 92 -41c-35 -7 -59 -34 -59 -67c0 -53 49 -83 140 -83c99 0 150 32 150 95c0 45 -31 81 -87 88l-175 24
c-74 10 -111 44 -111 99c0 54 37 90 102 103v4c-60 24 -103 90 -103 158c0 100 88 175 205 175c57 0 115 -19 154 -49c61 38 89 49 122 49c51 0 85 -25 85 -62c0 -28 -19 -48 -47 -48c-40 0 -43 43 -83 43c-13 0 -28 -10 -40 -27c13 -23 18 -48 18 -82
c0 -100 -61 -174 -212 -191c-63 -7 -85 -16 -85 -37c0 -16 15 -25 45 -28zM276 230c43 0 68 48 68 129c0 82 -25 129 -69 129c-45 0 -74 -49 -74 -127c0 -79 30 -131 75 -131zM390 786h44c-5 -82 -68 -140 -150 -140c-84 0 -147 59 -150 140h43c12 -31 54 -51 106 -51
s95 20 107 51z" />
    <glyph glyph-name="gdotaccent" unicode="&#x121;" horiz-adv-x="610" 
d="M228 108c71 -6 106 -10 163 -19c103 -15 167 -83 167 -176c0 -113 -96 -173 -276 -173c-165 0 -260 51 -260 140c0 69 41 105 95 105c35 0 70 -15 92 -41c-35 -7 -59 -34 -59 -67c0 -53 49 -83 140 -83c99 0 150 32 150 95c0 45 -31 81 -87 88l-175 24
c-74 10 -111 44 -111 99c0 54 37 90 102 103v4c-60 24 -103 90 -103 158c0 100 88 175 205 175c57 0 115 -19 154 -49c61 38 89 49 122 49c51 0 85 -25 85 -62c0 -28 -19 -48 -47 -48c-40 0 -43 43 -83 43c-13 0 -28 -10 -40 -27c13 -23 18 -48 18 -82
c0 -100 -61 -174 -212 -191c-63 -7 -85 -16 -85 -37c0 -16 15 -25 45 -28zM276 230c43 0 68 48 68 129c0 82 -25 129 -69 129c-45 0 -74 -49 -74 -127c0 -79 30 -131 75 -131zM222 752c0 44 34 78 77 78c44 0 78 -34 78 -78c0 -43 -34 -77 -78 -77c-43 0 -77 34 -77 77z" />
    <glyph glyph-name="gcircumflex" unicode="&#x11d;" horiz-adv-x="610" 
d="M228 108c71 -6 106 -10 163 -19c103 -15 167 -83 167 -176c0 -113 -96 -173 -276 -173c-165 0 -260 51 -260 140c0 69 41 105 95 105c35 0 70 -15 92 -41c-35 -7 -59 -34 -59 -67c0 -53 49 -83 140 -83c99 0 150 32 150 95c0 45 -31 81 -87 88l-175 24
c-74 10 -111 44 -111 99c0 54 37 90 102 103v4c-60 24 -103 90 -103 158c0 100 88 175 205 175c57 0 115 -19 154 -49c61 38 89 49 122 49c51 0 85 -25 85 -62c0 -28 -19 -48 -47 -48c-40 0 -43 43 -83 43c-13 0 -28 -10 -40 -27c13 -23 18 -48 18 -82
c0 -100 -61 -174 -212 -191c-63 -7 -85 -16 -85 -37c0 -16 15 -25 45 -28zM276 230c43 0 68 48 68 129c0 82 -25 129 -69 129c-45 0 -74 -49 -74 -127c0 -79 30 -131 75 -131zM241 800h104l120 -149h-52l-120 68l-120 -68h-52z" />
    <glyph glyph-name="ldot" unicode="&#x140;" horiz-adv-x="439" 
d="M247 830v-666c0 -106 10 -121 87 -124v-40h-315v40c75 4 89 23 89 117v413c0 77 -3 129 -7 147c-7 33 -25 41 -86 41v34zM322 416c0 43 33 77 75 77c44 0 77 -34 77 -77c0 -41 -33 -74 -77 -74c-42 0 -75 33 -75 74z" />
    <glyph glyph-name="comma" unicode="," horiz-adv-x="262" 
d="M59 -155l-29 42c72 48 105 85 105 121c-7 -4 -20 -8 -30 -8c-28 0 -51 29 -51 64c0 44 33 77 75 77c47 0 77 -36 77 -93c0 -72 -47 -137 -147 -203z" />
    <glyph glyph-name="commaaccent" unicode="&#xf6c3;" horiz-adv-x="170" 
d="M54 -260l-28 31c40 22 58 47 58 72c-6 -5 -15 -8 -27 -8c-25 0 -46 20 -46 50c0 31 29 60 72 60c42 0 66 -29 66 -79c0 -45 -26 -87 -95 -126z" />
    <glyph glyph-name="ncommaaccent" unicode="&#x146;" horiz-adv-x="727" 
d="M257 301v-138c0 -108 7 -118 87 -123v-40h-315v40c78 5 89 16 89 116v125c0 78 -3 128 -7 145c-8 35 -25 42 -86 42v34l193 38l13 -88h4c44 55 106 88 177 88c85 0 133 -22 174 -76c23 -31 43 -75 43 -160v-141c0 -108 8 -118 85 -123v-40h-313v40c79 4 89 17 89 116v136
c0 136 -29 183 -116 183c-43 0 -73 -25 -95 -68c-12 -24 -22 -65 -22 -106zM340 -250l-28 31c40 22 58 47 58 72c-6 -5 -15 -8 -27 -8c-25 0 -46 20 -46 50c0 31 29 60 72 60c42 0 66 -29 66 -79c0 -45 -26 -87 -95 -126z" />
    <glyph glyph-name="lcommaaccent" unicode="&#x13c;" horiz-adv-x="355" 
d="M247 830v-666c0 -106 10 -121 87 -124v-40h-315v40c75 4 89 23 89 117v413c0 77 -3 129 -7 147c-7 33 -25 41 -86 41v34zM159 -250l-28 31c40 22 58 47 58 72c-6 -5 -15 -8 -27 -8c-25 0 -46 20 -46 50c0 31 29 60 72 60c42 0 66 -29 66 -79c0 -45 -26 -87 -95 -126z" />
    <glyph glyph-name="rcommaaccent" unicode="&#x157;" horiz-adv-x="498" 
d="M258 203v-48c0 -103 13 -114 106 -115v-40h-334v40c81 5 89 16 89 117v122c0 165 -12 189 -93 189v35l200 37l16 -115h4c36 70 99 115 164 115c51 0 86 -28 86 -67c0 -43 -27 -76 -69 -76c-41 0 -59 40 -87 40c-25 0 -50 -36 -64 -92c-11 -40 -18 -93 -18 -142zM158 -250
l-28 31c40 22 58 47 58 72c-6 -5 -15 -8 -27 -8c-25 0 -46 20 -46 50c0 31 29 60 72 60c42 0 66 -29 66 -79c0 -45 -26 -87 -95 -126z" />
    <glyph glyph-name="kcommaaccent" unicode="&#x137;" horiz-adv-x="664" 
d="M358 0v40c43 0 58 3 58 13c0 8 -20 43 -48 84l-76 114l-50 -48v-39c0 -103 12 -124 69 -124v-40h-295v40c74 2 89 22 89 117v424c0 164 -5 174 -86 174v37l223 38v-556l96 91c69 65 96 95 96 109c0 12 -21 16 -87 16v40h273v-40c-51 0 -84 -15 -130 -58l-97 -91l173 -245
c31 -43 55 -56 103 -56v-40h-311zM314 -250l-28 31c40 22 58 47 58 72c-6 -5 -15 -8 -27 -8c-25 0 -46 20 -46 50c0 31 29 60 72 60c42 0 66 -29 66 -79c0 -45 -26 -87 -95 -126z" />
    <glyph glyph-name="Lcommaaccent" unicode="&#x13b;" horiz-adv-x="755" 
d="M740 227l-16 -227h-689v40c89 3 105 20 105 114v462c0 93 -14 110 -94 114v40h345v-40c-90 -3 -104 -20 -104 -121v-419c0 -112 42 -135 181 -135c154 0 202 32 232 172h40zM378 -250l-28 31c40 22 58 47 58 72c-6 -5 -15 -8 -27 -8c-25 0 -46 20 -46 50
c0 31 29 60 72 60c42 0 66 -29 66 -79c0 -45 -26 -87 -95 -126z" />
    <glyph glyph-name="Kcommaaccent" unicode="&#x136;" horiz-adv-x="822" 
d="M287 293v-132c0 -101 13 -118 95 -121v-40h-347v40c89 3 105 20 105 114v462c0 92 -14 110 -94 114v40h345v-40c-90 -3 -104 -20 -104 -121v-222l259 278c15 16 23 29 23 42c0 14 -16 23 -68 23v40h273v-39c-59 -2 -79 -12 -159 -95l-178 -186l294 -358
c28 -35 59 -49 112 -52v-40h-370v40c54 1 77 9 77 27c0 13 -5 22 -36 60l-177 218zM406 -250l-28 31c40 22 58 47 58 72c-6 -5 -15 -8 -27 -8c-25 0 -46 20 -46 50c0 31 29 60 72 60c42 0 66 -29 66 -79c0 -45 -26 -87 -95 -126z" />
    <glyph glyph-name="Gcommaaccent" unicode="&#x122;" horiz-adv-x="876" 
d="M438 -10c-240 0 -391 147 -391 381c0 243 164 409 403 409c83 0 152 -21 239 -72l19 62h36v-253h-50c-26 125 -111 198 -232 198c-152 0 -242 -125 -242 -336c0 -207 86 -322 242 -322c112 0 180 62 180 164c0 61 -30 88 -105 94v40h324v-40c-65 0 -87 -24 -87 -99v-133
c-58 0 -71 -4 -144 -48c-51 -30 -116 -45 -192 -45zM415 -250l-28 31c40 22 58 47 58 72c-6 -5 -15 -8 -27 -8c-25 0 -46 20 -46 50c0 31 29 60 72 60c42 0 66 -29 66 -79c0 -45 -26 -87 -95 -126z" />
    <glyph glyph-name="Ncommaaccent" unicode="&#x145;" horiz-adv-x="940" 
d="M804 -10h-134l-443 631h-4v-430c0 -132 15 -148 104 -151v-40h-297v40c98 3 115 20 115 144v402c0 113 -15 140 -105 144v40h279l403 -578h4v387c0 132 -15 148 -104 151v40h297v-40c-98 -3 -115 -20 -115 -144v-596zM460 -250l-28 31c40 22 58 47 58 72
c-6 -5 -15 -8 -27 -8c-25 0 -46 20 -46 50c0 31 29 60 72 60c42 0 66 -29 66 -79c0 -45 -26 -87 -95 -126z" />
    <glyph glyph-name="Rcommaaccent" unicode="&#x156;" horiz-adv-x="815" 
d="M695 577c0 -111 -61 -189 -201 -214l232 -266c32 -37 79 -57 124 -57v-40h-237l-248 304c-33 40 -57 51 -78 51v-196c0 -99 18 -119 145 -119v-40h-397v40c88 0 105 20 105 114v462c0 93 -12 110 -94 114v40h346c192 0 303 -72 303 -193zM287 697v-282h65
c125 0 187 46 187 157c0 85 -55 142 -147 142h-87c-11 0 -18 -7 -18 -17zM406 -250l-28 31c40 22 58 47 58 72c-6 -5 -15 -8 -27 -8c-25 0 -46 20 -46 50c0 31 29 60 72 60c42 0 66 -29 66 -79c0 -45 -26 -87 -95 -126z" />
    <glyph glyph-name="uni0219" unicode="&#x219;" horiz-adv-x="466" 
d="M107 35l-22 -35h-31v182h42c23 -95 64 -138 132 -138c49 0 78 22 78 58c0 37 -32 71 -106 111c-101 55 -142 105 -142 173c0 89 70 155 163 155c41 0 85 -13 115 -34l18 24h26v-151h-39c-31 76 -61 107 -107 107c-37 0 -61 -22 -61 -55c0 -37 31 -68 106 -108
c108 -58 151 -109 151 -181c0 -92 -72 -153 -182 -153c-57 0 -109 16 -141 45zM209 -249l-28 31c40 22 58 47 58 72c-6 -5 -15 -8 -27 -8c-25 0 -46 20 -46 50c0 31 29 60 72 60c42 0 66 -29 66 -79c0 -45 -26 -87 -95 -126z" />
    <glyph glyph-name="uni021B" unicode="&#x21b;" horiz-adv-x="382" 
d="M98 475h-73v45c79 23 134 72 161 131h51v-121h115v-55h-115v-307c0 -82 17 -114 59 -114c27 0 45 11 59 36l21 -29c-18 -46 -64 -71 -132 -71c-92 0 -146 45 -146 122v363zM170 -250l-28 31c40 22 58 47 58 72c-6 -5 -15 -8 -27 -8c-25 0 -46 20 -46 50c0 31 29 60 72 60
c42 0 66 -29 66 -79c0 -45 -26 -87 -95 -126z" />
    <glyph glyph-name="uni021A" unicode="&#x21a;" horiz-adv-x="827" 
d="M805 770l10 -220h-43c-8 132 -61 168 -168 168c-104 0 -119 -7 -119 -31v-524c0 -86 17 -119 135 -123v-40h-419v40c119 4 137 37 137 123v524c0 24 -14 31 -103 31c-97 0 -180 -6 -184 -168h-39l10 220h783zM381 -250l-28 31c40 22 58 47 58 72c-6 -5 -15 -8 -27 -8
c-25 0 -46 20 -46 50c0 31 29 60 72 60c42 0 66 -29 66 -79c0 -45 -26 -87 -95 -126z" />
    <glyph glyph-name="uni0218" unicode="&#x218;" horiz-adv-x="663" 
d="M69 0l-15 255h39c18 -126 109 -204 229 -204c100 0 167 50 167 124c0 63 -33 90 -188 148c-155 59 -229 138 -229 245c0 125 101 212 247 212c68 0 127 -21 185 -64l18 50h24l11 -216h-39c-32 109 -104 169 -193 169c-82 0 -139 -45 -139 -109c0 -57 32 -82 170 -134
c186 -71 262 -146 262 -257c0 -135 -123 -229 -298 -229c-79 0 -140 21 -207 70l-20 -60h-24zM290 -250l-28 31c40 22 58 47 58 72c-6 -5 -15 -8 -27 -8c-25 0 -46 20 -46 50c0 31 29 60 72 60c42 0 66 -29 66 -79c0 -45 -26 -87 -95 -126z" />
    <glyph glyph-name="dcaron" unicode="&#x10f;" horiz-adv-x="694" 
d="M481 -10v74h-4c-46 -49 -107 -74 -179 -74c-152 0 -259 112 -259 271s109 279 253 279c66 0 118 -18 156 -66h4v85c0 78 -2 140 -6 157c-6 28 -39 40 -109 40v34l253 40v-572c0 -99 2 -149 7 -177c6 -35 17 -41 74 -41v-39zM450 248v39c0 50 -11 95 -32 128
c-24 38 -63 59 -106 59c-78 0 -121 -75 -121 -211c0 -138 43 -216 120 -216c44 0 87 24 112 63c19 29 27 70 27 138zM718 559l-28 31c40 28 58 55 58 88c-6 -5 -15 -8 -27 -8c-25 0 -46 20 -46 50c0 31 29 60 72 60c42 0 66 -29 66 -79c0 -53 -26 -97 -95 -142z" />
    <glyph glyph-name="caron.alt" horiz-adv-x="170" 
d="M54 559l-28 31c40 28 58 55 58 88c-6 -5 -15 -8 -27 -8c-25 0 -46 20 -46 50c0 31 29 60 72 60c42 0 66 -29 66 -79c0 -53 -26 -97 -95 -142z" />
    <glyph glyph-name="lcaron" unicode="&#x13e;" horiz-adv-x="355" 
d="M247 830v-666c0 -106 10 -121 87 -124v-40h-315v40c75 4 89 23 89 117v413c0 77 -3 129 -7 147c-7 33 -25 41 -86 41v34zM384 559l-28 31c40 28 58 55 58 88c-6 -5 -15 -8 -27 -8c-25 0 -46 20 -46 50c0 31 29 60 72 60c42 0 66 -29 66 -79c0 -53 -26 -97 -95 -142z" />
    <glyph glyph-name="tcaron" unicode="&#x165;" horiz-adv-x="382" 
d="M98 475h-73v45c79 23 134 72 161 131h51v-121h115v-55h-115v-307c0 -82 17 -114 59 -114c27 0 45 11 59 36l21 -29c-18 -46 -64 -71 -132 -71c-92 0 -146 45 -146 122v363zM355 559l-28 31c40 28 58 55 58 88c-6 -5 -15 -8 -27 -8c-25 0 -46 20 -46 50c0 31 29 60 72 60
c42 0 66 -29 66 -79c0 -53 -26 -97 -95 -142z" />
    <glyph glyph-name="gcommaaccent" unicode="&#x123;" horiz-adv-x="610" 
d="M327 856l28 -31c-40 -22 -58 -47 -58 -72c6 5 15 8 27 8c25 0 46 -20 46 -50c0 -31 -29 -60 -72 -60c-42 0 -66 29 -66 79c0 45 26 87 95 126zM228 108c71 -6 106 -10 163 -19c103 -15 167 -83 167 -176c0 -113 -96 -173 -276 -173c-165 0 -260 51 -260 140
c0 69 41 105 95 105c35 0 70 -15 92 -41c-35 -7 -59 -34 -59 -67c0 -53 49 -83 140 -83c99 0 150 32 150 95c0 45 -31 81 -87 88l-175 24c-74 10 -111 44 -111 99c0 54 37 90 102 103v4c-60 24 -103 90 -103 158c0 100 88 175 205 175c57 0 115 -19 154 -49
c61 38 89 49 122 49c51 0 85 -25 85 -62c0 -28 -19 -48 -47 -48c-40 0 -43 43 -83 43c-13 0 -28 -10 -40 -27c13 -23 18 -48 18 -82c0 -100 -61 -174 -212 -191c-63 -7 -85 -16 -85 -37c0 -16 15 -25 45 -28zM276 230c43 0 68 48 68 129c0 82 -25 129 -69 129
c-45 0 -74 -49 -74 -127c0 -79 30 -131 75 -131z" />
    <glyph glyph-name="quoteright" unicode="&#x2019;" horiz-adv-x="242" 
d="M84 540l-29 42c48 37 75 77 75 110c-5 -2 -15 -3 -22 -3c-31 0 -54 28 -54 64c0 44 33 77 77 77c46 0 75 -37 75 -94c0 -68 -42 -136 -122 -196z" />
    <glyph glyph-name="quoteleft" unicode="&#x2018;" horiz-adv-x="247" 
d="M166 830l29 -42c-48 -37 -75 -77 -75 -110c5 2 15 3 22 3c31 0 54 -28 54 -64c0 -44 -33 -77 -77 -77c-46 0 -75 37 -75 94c0 68 42 136 122 196z" />
    <glyph glyph-name="quotesinglbase" unicode="&#x201a;" horiz-adv-x="261" 
d="M85 -184l-29 42c48 37 75 77 75 110c-5 -2 -15 -3 -22 -3c-31 0 -54 28 -54 64c0 44 33 77 77 77c46 0 75 -37 75 -94c0 -68 -42 -136 -122 -196z" />
    <glyph glyph-name="quotedblright" unicode="&#x201d;" horiz-adv-x="448" 
d="M84 540l-29 42c48 37 75 77 75 110c-5 -2 -15 -3 -22 -3c-31 0 -54 28 -54 64c0 44 33 77 77 77c46 0 75 -37 75 -94c0 -68 -42 -136 -122 -196zM290 540l-29 42c48 37 75 77 75 110c-5 -2 -15 -3 -22 -3c-31 0 -54 28 -54 64c0 44 33 77 77 77c46 0 75 -37 75 -94
c0 -68 -42 -136 -122 -196z" />
    <glyph glyph-name="quotedblleft" unicode="&#x201c;" horiz-adv-x="453" 
d="M372 830l29 -42c-48 -37 -75 -77 -75 -110c5 2 15 3 22 3c31 0 54 -28 54 -64c0 -44 -33 -77 -77 -77c-46 0 -75 37 -75 94c0 68 42 136 122 196zM166 830l29 -42c-48 -37 -75 -77 -75 -110c5 2 15 3 22 3c31 0 54 -28 54 -64c0 -44 -33 -77 -77 -77c-46 0 -75 37 -75 94
c0 68 42 136 122 196z" />
    <glyph glyph-name="quotedblbase" unicode="&#x201e;" horiz-adv-x="467" 
d="M85 -184l-29 42c48 37 75 77 75 110c-5 -2 -15 -3 -22 -3c-31 0 -54 28 -54 64c0 44 33 77 77 77c46 0 75 -37 75 -94c0 -68 -42 -136 -122 -196zM291 -184l-29 42c48 37 75 77 75 110c-5 -2 -15 -3 -22 -3c-31 0 -54 28 -54 64c0 44 33 77 77 77c46 0 75 -37 75 -94
c0 -68 -42 -136 -122 -196z" />
    <glyph glyph-name="quotesingle" unicode="'" horiz-adv-x="213" 
d="M127 554h-41c-12 72 -38 186 -38 217c0 34 25 59 58 59c34 0 59 -25 59 -60c0 -31 -26 -144 -38 -216z" />
    <glyph glyph-name="quotedbl" unicode="&#x22;" horiz-adv-x="392" 
d="M127 554h-41c-12 72 -38 186 -38 217c0 34 25 59 58 59c34 0 59 -25 59 -60c0 -31 -26 -144 -38 -216zM307 554h-41c-12 72 -39 186 -39 217c0 34 25 59 59 59c33 0 58 -25 58 -60c0 -31 -26 -144 -37 -216z" />
    <glyph glyph-name="apostrophe" unicode="&#x2bc;" horiz-adv-x="204" 
d="M123 596h-41c-4 26 -12 57 -19 87c-9 36 -17 69 -17 88c0 34 24 59 56 59s56 -25 56 -60c0 -19 -8 -51 -17 -87c-7 -29 -14 -61 -18 -87z" />
    <glyph glyph-name="napostrophe" unicode="&#x149;" horiz-adv-x="797" 
d="M327 301v-138c0 -108 7 -118 87 -123v-40h-315v40c78 5 89 16 89 116v125c0 78 -3 128 -7 145c-8 35 -25 42 -86 42v34l193 38l13 -88h4c44 55 106 88 177 88c85 0 133 -22 174 -76c23 -31 43 -75 43 -160v-141c0 -108 8 -118 85 -123v-40h-313v40c79 4 89 17 89 116v136
c0 136 -29 183 -116 183c-43 0 -73 -25 -95 -68c-12 -24 -22 -65 -22 -106zM96 596h-41c-4 26 -12 57 -19 87c-9 36 -17 69 -17 88c0 34 24 59 56 59s56 -25 56 -60c0 -19 -8 -51 -17 -87c-7 -29 -14 -61 -18 -87z" />
    <glyph glyph-name="zero" unicode="0" horiz-adv-x="755" 
d="M375 780c183 0 333 -175 333 -401c0 -217 -150 -389 -333 -389c-180 0 -328 172 -328 389c0 226 148 401 328 401zM375 48c96 0 154 75 154 328c0 264 -58 346 -154 346s-154 -82 -154 -346c0 -253 58 -328 154 -328z" />
    <glyph glyph-name="one" unicode="1" horiz-adv-x="436" 
d="M302 780v-616c0 -103 14 -121 109 -124v-40h-376v40c103 4 120 23 120 117v363c0 77 0 130 -5 146c-8 29 -44 32 -120 32v40c71 3 200 19 272 42z" />
    <glyph glyph-name="two" unicode="2" horiz-adv-x="651" 
d="M227 123l1 -5h204c67 0 97 21 127 115h44l-40 -233h-524v46c317 272 391 380 391 520c0 97 -47 157 -123 157c-73 0 -126 -53 -126 -129c0 -66 37 -108 95 -108c-6 -38 -39 -63 -82 -63c-83 0 -145 63 -145 150c0 119 117 207 275 207c157 0 267 -89 267 -216
c0 -161 -154 -300 -364 -441z" />
    <glyph glyph-name="three" unicode="3" horiz-adv-x="637" 
d="M429 216c0 102 -43 162 -114 162c-26 -11 -53 -18 -70 -18c-37 0 -59 16 -59 44c0 24 21 38 57 38c18 0 44 -6 63 -11c63 0 105 50 105 150c0 96 -41 146 -106 146c-61 0 -97 -31 -97 -83c0 -36 23 -63 55 -63c-8 -36 -36 -58 -77 -58c-65 0 -118 52 -118 115
c0 85 95 142 238 142c157 0 258 -70 258 -178c0 -86 -60 -163 -144 -185v-6c102 -28 169 -109 169 -204c0 -126 -121 -217 -288 -217c-152 0 -264 75 -264 178c0 74 60 136 132 136c44 0 77 -25 85 -64c-40 0 -70 -37 -70 -85c0 -65 46 -108 116 -108c75 0 129 67 129 169z
" />
    <glyph glyph-name="four" unicode="4" horiz-adv-x="664" 
d="M8 208v60l365 512h95v-509c97 3 118 19 118 96h37v-243h-37c0 73 -21 86 -118 88v-31c0 -93 15 -138 93 -141v-40h-343v40c94 4 109 50 109 134v34h-319zM327 271v324h-4l-230 -324h234z" />
    <glyph glyph-name="five" unicode="5" horiz-adv-x="595" 
d="M249 651l-47 -174l2 -3c22 24 67 41 110 41c135 0 237 -104 237 -241c0 -159 -143 -284 -327 -284c-125 0 -214 58 -214 138c0 42 22 67 60 67c87 0 25 -151 157 -151c103 0 164 100 164 253c0 110 -27 160 -97 160c-58 0 -95 -28 -118 -90c-11 -31 -23 -38 -41 -38
c-17 0 -28 10 -28 26c0 4 1 8 2 12l112 413c37 -12 81 -18 143 -18c74 0 130 7 160 19l6 -1c-19 -82 -86 -129 -184 -129h-97z" />
    <glyph glyph-name="six" unicode="6" horiz-adv-x="674" 
d="M629 259c0 -150 -129 -269 -288 -269c-173 0 -293 143 -293 347c0 243 159 443 353 443c107 0 191 -49 191 -112c0 -38 -26 -62 -66 -62c-82 0 -49 119 -156 119c-87 0 -154 -121 -154 -280l3 -2c42 48 87 70 151 70c147 0 259 -109 259 -254zM214 337v-54
c0 -157 46 -238 131 -238c84 0 123 67 123 210c0 130 -39 199 -112 199c-58 0 -100 -36 -142 -117z" />
    <glyph glyph-name="nine" unicode="9" horiz-adv-x="674" 
d="M45 511c0 150 129 269 288 269c173 0 293 -143 293 -347c0 -243 -159 -443 -353 -443c-107 0 -191 49 -191 112c0 38 26 62 66 62c82 0 49 -119 156 -119c90 0 159 121 159 280l-3 2c-43 -48 -90 -70 -156 -70c-147 0 -259 109 -259 254zM460 433v49
c0 161 -46 243 -131 243c-84 0 -123 -67 -123 -210c0 -130 39 -199 112 -199c58 0 100 36 142 117z" />
    <glyph glyph-name="seven" unicode="7" horiz-adv-x="516" 
d="M418 651h-190c-110 0 -129 -8 -152 -62l-17 -39h-40l74 280h42c-3 -12 -5 -21 -5 -29c0 -24 19 -31 80 -31h318v-40c-152 -312 -166 -346 -264 -633c-27 -77 -57 -107 -103 -107c-40 0 -64 23 -64 63c0 36 13 64 110 224c120 198 145 244 211 374z" />
    <glyph glyph-name="eight" unicode="8" horiz-adv-x="635" 
d="M342 314l-82 36c-55 -37 -85 -92 -85 -156c0 -90 55 -148 141 -148c90 0 154 56 154 133c0 55 -40 97 -128 135zM452 448c87 -55 138 -139 138 -228c0 -134 -115 -230 -276 -230c-150 0 -264 82 -264 191c0 76 48 144 136 190c-75 51 -118 124 -118 204
c0 60 23 111 67 149c43 37 105 56 178 56c64 0 123 -15 167 -42c45 -32 70 -81 70 -135c0 -61 -29 -106 -98 -155zM310 496l68 -27c39 32 60 75 60 119c0 78 -56 137 -130 137c-71 0 -125 -47 -125 -109c0 -46 44 -88 127 -120z" />
    <glyph glyph-name="equal" unicode="=" horiz-adv-x="618" 
d="M547 482v-60h-476v60h476zM547 302v-60h-476v60h476z" />
    <glyph glyph-name="exclam" unicode="!" horiz-adv-x="311" 
d="M185 207h-60c0 121 -10 201 -20 265c-13 81 -28 136 -28 218c0 60 26 90 78 90s78 -30 78 -90c0 -82 -15 -137 -28 -218c-10 -64 -20 -143 -20 -265zM80 65c0 42 33 76 76 76c42 0 76 -34 76 -76s-33 -75 -76 -75s-76 32 -76 75z" />
    <glyph glyph-name="exclamdown" unicode="&#xa1;" horiz-adv-x="311" 
d="M126 563h60c0 -121 10 -201 20 -265c13 -81 28 -136 28 -218c0 -60 -26 -90 -78 -90s-78 30 -78 90c0 82 15 137 28 218c10 64 20 143 20 265zM231 705c0 -42 -33 -76 -76 -76c-42 0 -76 34 -76 76s33 75 76 75s76 -32 76 -75z" />
    <glyph glyph-name="question" unicode="?" horiz-adv-x="403" 
d="M186 239h-68v237h35c91 0 137 31 137 89s-41 106 -91 106c-26 0 -56 -11 -79 -11c-39 0 -66 24 -66 59c0 40 27 61 75 61c119 0 228 -119 228 -250c0 -107 -63 -170 -171 -170v-121zM72 65c0 42 33 76 76 76c42 0 76 -34 76 -76s-33 -75 -76 -75s-76 32 -76 75z" />
    <glyph glyph-name="questiondown" unicode="&#xbf;" horiz-adv-x="401" 
d="M216 531h68v-237h-35c-91 0 -137 -31 -137 -89s41 -106 91 -106c26 0 56 11 79 11c39 0 66 -24 66 -59c0 -40 -27 -61 -75 -61c-119 0 -228 119 -228 250c0 107 63 170 171 170v121zM330 705c0 -42 -33 -76 -76 -76c-42 0 -76 34 -76 76s33 75 76 75s76 -32 76 -75z" />
    <glyph glyph-name="hyphen" unicode="-" horiz-adv-x="457" 
d="M391 243h-325v93h325v-93z" />
    <glyph glyph-name="endash" unicode="&#x2013;" horiz-adv-x="730" 
d="M664 243h-598v93h598v-93z" />
    <glyph glyph-name="emdash" unicode="&#x2014;" horiz-adv-x="1138" 
d="M1072 243h-1006v93h1006v-93z" />
    <glyph glyph-name="underscore" unicode="_" horiz-adv-x="730" 
d="M664 -148h-598v78h598v-78z" />
    <glyph glyph-name="parenleft" unicode="(" horiz-adv-x="343" 
d="M291 831l32 -28c-118 -173 -153 -323 -153 -461c0 -173 47 -366 162 -503l-33 -33c-173 154 -264 332 -264 517c0 180 87 354 256 508z" />
    <glyph glyph-name="parenright" unicode=")" horiz-adv-x="343" 
d="M20 803l32 28c169 -154 256 -328 256 -508c0 -185 -91 -363 -264 -517l-33 33c115 137 162 330 162 503c0 138 -35 288 -153 461z" />
    <glyph glyph-name="bracketleft" unicode="[" horiz-adv-x="392" 
d="M379 768h-159v-866h159v-52h-283v970h283v-52z" />
    <glyph glyph-name="bracketright" unicode="]" horiz-adv-x="392" 
d="M172 768h-159v52h283v-970h-283v52h159v866z" />
    <glyph glyph-name="braceleft" unicode="{" horiz-adv-x="354" 
d="M237 198v-193c0 -69 19 -105 91 -123v-32c-165 0 -215 33 -215 154v191c0 60 -22 124 -94 130v35c79 15 94 53 94 129v170c0 127 37 171 210 171v-33c-65 -15 -86 -54 -86 -122v-174c0 -82 -15 -138 -123 -156v-5c101 -14 123 -62 123 -142z" />
    <glyph glyph-name="braceright" unicode="}" horiz-adv-x="354" 
d="M117 5v193c0 80 22 128 123 142v5c-108 18 -123 74 -123 156v174c0 68 -21 107 -86 122v33c173 0 210 -44 210 -171v-170c0 -76 15 -114 94 -129v-35c-72 -6 -94 -70 -94 -130v-191c0 -121 -50 -154 -215 -154v32c72 18 91 54 91 123z" />
    <glyph glyph-name="bar" unicode="|" horiz-adv-x="295" 
d="M94 820h107v-1070h-107v1070z" />
    <glyph glyph-name="brokenbar" unicode="&#xa6;" horiz-adv-x="304" 
d="M98 750h108v-385h-108v385zM98 205h108v-385h-108v385z" />
    <glyph glyph-name="logicalnot" unicode="&#xac;" horiz-adv-x="637" 
d="M489 110v193h-418v70h490v-263h-72z" />
    <glyph glyph-name="uni00AD" unicode="&#xad;" horiz-adv-x="467" 
d="M401 242h-335v95h335v-95z" />
    <glyph glyph-name="guilsinglleft" unicode="&#x2039;" horiz-adv-x="333" 
d="M238 77l-192 185l196 185l32 -23l-92 -162l90 -161z" />
    <glyph glyph-name="guilsinglright" unicode="&#x203a;" horiz-adv-x="333" 
d="M287 262l-192 -185l-34 24l90 161l-92 162l32 23z" />
    <glyph glyph-name="guillemotleft" unicode="&#xab;" horiz-adv-x="553" 
d="M238 77l-192 185l196 185l32 -23l-92 -162l90 -161zM458 77l-192 185l196 185l32 -23l-92 -162l90 -161z" />
    <glyph glyph-name="guillemotright" unicode="&#xbb;" horiz-adv-x="553" 
d="M507 262l-192 -185l-34 24l90 161l-92 162l32 23zM287 262l-192 -185l-34 24l90 161l-92 162l32 23z" />
    <glyph glyph-name="numbersign" unicode="#" horiz-adv-x="702" 
d="M635 310l-10 -60h-146l-38 -250h-72l36 250h-149l-39 -250h-73l39 250h-147l11 60h149l23 160h-150l10 60h151l36 240h73l-36 -240h149l35 240h73l-35 -240h141l-11 -60h-141l-23 -160h144zM439 470h-147l-23 -160h148z" />
    <glyph glyph-name="asterisk" unicode="*" horiz-adv-x="492" 
d="M267 528c2 -94 30 -76 30 -123c0 -34 -22 -56 -51 -56c-30 0 -53 23 -53 57c0 38 31 46 32 121c-63 -30 -70 -97 -124 -97c-25 0 -49 22 -49 51c0 19 10 38 31 50c33 19 56 -5 120 33c-33 16 -58 25 -88 25c-32 0 -63 28 -63 57c0 30 25 52 51 52c62 0 45 -54 121 -97
c-3 92 -31 76 -31 121c0 35 22 58 52 58s53 -23 53 -58c0 -38 -32 -46 -32 -121c76 43 58 97 121 97c25 0 51 -22 51 -52c0 -29 -32 -57 -63 -57c-32 0 -54 -7 -88 -25c64 -38 87 -14 120 -33c20 -12 31 -31 31 -50c0 -29 -24 -51 -49 -51c-61 0 -58 71 -122 98z" />
    <glyph glyph-name="bullet" unicode="&#x2022;" horiz-adv-x="466" 
d="M230 211c-84 0 -159 73 -159 158s75 157 164 157c86 0 160 -72 160 -157s-74 -158 -165 -158z" />
    <glyph glyph-name="section" unicode="&#xa7;" horiz-adv-x="560" 
d="M208 307l170 -96c33 21 47 44 47 68c-1 40 -38 82 -85 108l-140 79c-41 -23 -57 -49 -57 -74c0 -33 27 -64 65 -85zM281 107l-108 61c-83 47 -123 101 -123 178c0 71 34 122 99 153c-49 36 -80 98 -80 161c0 103 81 170 206 170c118 0 201 -60 201 -145
c0 -46 -25 -75 -66 -75c-38 0 -66 25 -66 61c0 37 30 42 30 63c0 26 -42 46 -99 46c-69 0 -108 -30 -108 -89c0 -31 11 -53 120 -119l105 -64c90 -55 121 -108 121 -180c0 -64 -25 -109 -86 -151c49 -43 76 -100 76 -161c0 -112 -94 -190 -231 -190c-131 0 -225 72 -225 174
c0 54 26 88 67 88c39 0 71 -30 71 -66c0 -44 -46 -62 -46 -86c0 -29 65 -55 137 -55c85 0 134 37 134 100c0 42 -21 65 -129 126z" />
    <glyph glyph-name="paragraph" unicode="&#xb6;" horiz-adv-x="659" 
d="M512 568v-500c0 -75 5 -133 14 -154c8 -26 32 -36 86 -36v-43h-196v881h-48v-881h-222v43c74 0 105 11 115 39c6 17 10 86 10 151v285c-11 0 -20 -1 -36 -1c-127 0 -202 77 -202 207c0 136 102 211 289 211h290v-43c-59 0 -78 -8 -88 -36c-8 -21 -12 -51 -12 -123z" />
    <glyph glyph-name="fraction" unicode="&#x2044;" horiz-adv-x="40" 
d="M346 770l-571 -770h-80l580 770h71z" />
    <glyph glyph-name="uni2215" unicode="&#x2215;" horiz-adv-x="582" 
d="M617 770l-571 -770h-80l580 770h71z" />
    <glyph glyph-name="slash" unicode="/" horiz-adv-x="477" 
d="M455 770l-361 -770h-71l371 770h61z" />
    <glyph glyph-name="backslash" unicode="\" horiz-adv-x="477" 
d="M383 0l-361 770h61l371 -770h-71z" />
    <glyph glyph-name="Euro" unicode="&#x20ac;" horiz-adv-x="762" 
d="M520 358v-60h-222c0 -149 67 -250 162 -250c96 0 167 90 179 222h55v-270h-46l-12 69c-48 -53 -109 -79 -184 -79c-167 0 -291 118 -324 308h-90v60h85c-1 10 -1 20 -1 30c0 14 1 28 3 42h-88v60h94c38 187 164 290 333 290c64 0 98 -11 157 -61l18 51h39v-236h-55
c-23 121 -77 188 -155 188c-91 0 -150 -77 -168 -232h220v-60h-223c-2 -14 -3 -29 -3 -43c1 -10 1 -20 1 -29h225z" />
    <glyph glyph-name="dollar" unicode="$" horiz-adv-x="644" 
d="M285 900h68v-123c115 0 223 -79 223 -167c0 -35 -23 -58 -58 -58c-95 0 -58 165 -165 165v-244c180 -72 254 -146 254 -253c0 -126 -98 -215 -254 -228v-162h-68v161c-142 8 -248 88 -248 187c0 46 22 72 59 72s58 -25 78 -104c15 -58 50 -89 111 -94v276
c-152 61 -221 133 -221 234c0 135 110 217 221 217v121zM480 168c0 56 -35 93 -127 133v-247c81 10 127 52 127 114zM177 616c0 -45 35 -82 108 -115v215c-58 0 -108 -46 -108 -100z" />
    <glyph glyph-name="yen" unicode="&#xa5;" horiz-adv-x="851" 
d="M661 235v-65h-164c1 -109 15 -129 108 -132v-38h-360v38c93 3 104 26 105 132h-165v65h165v64h-165v65h119l-161 282c-40 71 -57 84 -115 84v40h343v-40c-62 0 -77 -9 -77 -32c0 -14 7 -33 21 -60l143 -275h4l118 200c53 90 62 111 62 135c0 22 -14 32 -68 32v40h251v-40
c-59 0 -85 -20 -168 -162l-119 -204h123v-65h-164v-64h164z" />
    <glyph glyph-name="sterling" unicode="&#xa3;" horiz-adv-x="708" 
d="M242 77c-43 26 -69 36 -91 36c-24 0 -38 -12 -38 -32c0 -22 15 -32 45 -32s61 10 84 28zM307 534l37 -103h213v-61h-199c10 -39 14 -64 14 -99c0 -63 -12 -107 -40 -145c49 -10 119 -17 167 -17c69 0 117 15 155 49l11 -4c0 -109 -53 -164 -158 -164
c-56 0 -113 16 -214 59c-27 -34 -93 -60 -152 -60c-66 0 -106 32 -106 83c0 57 48 98 115 98c34 0 76 -10 113 -27c2 9 4 41 4 56c0 41 -22 105 -58 171h-131v61h111c-16 50 -24 95 -24 133c0 132 100 216 257 216c123 0 211 -52 211 -125c0 -34 -19 -51 -54 -51
c-92 0 -43 118 -166 118c-72 0 -120 -40 -120 -101c0 -23 7 -66 14 -87z" />
    <glyph glyph-name="cent" unicode="&#xa2;" horiz-adv-x="579" 
d="M285 683h64v-143c129 -4 192 -66 192 -121c0 -29 -18 -60 -61 -60c-25 0 -49 10 -75 52c-19 35 -35 56 -56 65v-414c61 1 110 20 158 59l26 -38c-41 -47 -110 -79 -184 -89v-141h-64v137c-143 6 -241 113 -241 271c0 153 95 257 241 276v146zM198 276
c0 -109 30 -178 87 -203v406c-58 -17 -87 -86 -87 -203z" />
    <glyph glyph-name="currency" unicode="&#xa4;" horiz-adv-x="610" 
d="M52 57l74 71c-31 37 -49 83 -49 135s17 98 49 136l-75 72l37 35l75 -72c39 30 87 47 142 47s102 -17 142 -47l75 72l37 -35l-76 -72c33 -38 51 -84 51 -136s-18 -98 -49 -135l74 -71l-37 -35l-74 71c-40 -31 -88 -47 -143 -47c-56 0 -104 17 -143 48l-74 -71zM140 263
c0 -86 74 -157 165 -157s166 71 166 157c0 87 -75 158 -166 158s-165 -71 -165 -158z" />
    <glyph glyph-name="at" unicode="@" horiz-adv-x="1061" 
d="M690 442l23 88h121l-70 -227c-20 -65 -28 -107 -28 -126c0 -24 18 -40 46 -40c83 0 171 145 171 281c0 177 -151 307 -356 307c-244 0 -431 -185 -431 -425c0 -225 164 -376 407 -376c115 0 221 33 320 100l32 -41c-125 -82 -235 -117 -368 -117
c-302 0 -517 181 -517 435c0 268 240 479 547 479c253 0 423 -144 423 -358c0 -185 -125 -345 -270 -345c-72 0 -111 41 -117 115h-4c-44 -73 -108 -115 -173 -115c-92 0 -167 84 -167 186c0 139 144 277 289 277c65 0 98 -27 118 -98h4zM580 488c-87 0 -168 -121 -168 -252
c0 -68 21 -104 60 -104c80 0 179 144 179 261c0 61 -25 95 -71 95z" />
    <glyph glyph-name="ampersand" unicode="&#x26;" horiz-adv-x="891" 
d="M356 473c57 44 82 90 82 144c0 56 -30 92 -76 92c-42 0 -64 -32 -64 -91c0 -52 21 -102 58 -145zM460 133l-178 221c-67 -45 -105 -110 -105 -175c0 -67 48 -116 113 -116c52 0 116 26 170 70zM391 425l160 -201c65 73 111 146 111 178c0 21 -18 30 -64 30v40h242v-40
c-61 0 -86 -20 -116 -62l-139 -193c54 -69 121 -112 179 -112c37 0 54 10 77 47l26 -7c-15 -74 -70 -115 -155 -115c-69 0 -122 32 -209 107c-68 -63 -167 -107 -262 -107c-128 0 -221 75 -221 177c0 90 69 163 228 241c-44 62 -64 115 -64 174c0 117 79 198 193 198
c101 0 174 -62 174 -149c0 -72 -48 -132 -160 -206z" />
    <glyph glyph-name="copyright" unicode="&#xa9;" horiz-adv-x="902" 
d="M857 386c0 -220 -182 -396 -408 -396c-224 0 -404 178 -404 395s179 395 403 395c227 0 409 -175 409 -394zM797 386c0 187 -157 336 -349 336s-343 -152 -343 -337s152 -337 344 -337c191 0 348 152 348 338zM608 305h35c-20 -88 -78 -148 -182 -148
c-149 0 -244 86 -244 218c0 139 102 234 250 234c46 0 84 -15 133 -51l10 45h22l5 -131h-27c-17 54 -69 87 -137 87c-89 0 -140 -67 -140 -180c0 -111 50 -171 142 -171c68 0 114 34 133 97z" />
    <glyph glyph-name="Eth" unicode="&#xd0;" horiz-adv-x="920" 
d="M453 0h-417v40c88 3 105 19 105 114v222h-87v60h87v180c0 93 -13 110 -89 114v40h380c256 0 442 -168 442 -398c0 -219 -173 -372 -421 -372zM430 709h-125c-11 0 -17 -7 -17 -17v-256h133v-60h-133v-201c0 -77 47 -114 147 -114c174 0 272 109 272 309
c0 213 -105 339 -277 339z" />
    <glyph glyph-name="Dcroat" unicode="&#x110;" horiz-adv-x="920" 
d="M453 0h-417v40c88 3 105 19 105 114v216h-87v60h87v186c0 93 -13 110 -89 114v40h380c256 0 442 -168 442 -398c0 -219 -173 -372 -421 -372zM430 709h-125c-11 0 -17 -7 -17 -17v-262h133v-60h-133v-195c0 -77 47 -114 147 -114c174 0 272 109 272 309
c0 213 -105 339 -277 339z" />
    <glyph glyph-name="Hbar" unicode="&#x126;" horiz-adv-x="949" 
d="M807 609v-8h75v-60h-75v-380c0 -102 15 -118 105 -121v-40h-367v40c98 3 115 20 115 114v209h-371v-202c0 -102 16 -118 114 -121v-40h-366v40c90 3 105 20 105 114v387h-72v60h72v15c0 93 -13 110 -94 114v40h345v-40c-90 -3 -104 -20 -104 -121v-8h371v15
c0 93 -15 110 -105 114v40h346v-40c-81 -3 -94 -20 -94 -121zM289 425h371v116h-371v-116z" />
    <glyph glyph-name="Lslash" unicode="&#x141;" horiz-adv-x="757" 
d="M742 227l-16 -227h-689v40c89 3 105 20 105 114v151l-75 -45v74l75 45v237c0 93 -14 110 -94 114v40h345v-40c-90 -3 -104 -20 -104 -121v-143l118 71v-74l-118 -71v-202c0 -112 42 -135 181 -135c154 0 202 32 232 172h40z" />
    <glyph glyph-name="Oslash" unicode="&#xd8;" horiz-adv-x="943" 
d="M472 780c87 0 168 -24 235 -64l95 114h89l-128 -154c84 -73 136 -178 136 -297c0 -217 -189 -389 -427 -389c-85 0 -163 22 -229 59l-108 -130h-88l140 169c-88 71 -142 174 -142 291c0 226 187 401 427 401zM219 376c0 -79 15 -145 43 -197l382 460
c-43 49 -102 76 -172 76c-156 0 -253 -131 -253 -339zM472 55c155 0 253 124 253 321c0 80 -15 149 -42 204l-379 -458c42 -43 99 -67 168 -67z" />
    <glyph glyph-name="Oslashacute" unicode="&#x1fe;" horiz-adv-x="943" 
d="M472 780c87 0 168 -24 235 -64l95 114h89l-128 -154c84 -73 136 -178 136 -297c0 -217 -189 -389 -427 -389c-85 0 -163 22 -229 59l-108 -130h-88l140 169c-88 71 -142 174 -142 291c0 226 187 401 427 401zM219 376c0 -79 15 -145 43 -197l382 460
c-43 49 -102 76 -172 76c-156 0 -253 -131 -253 -339zM472 55c155 0 253 124 253 321c0 80 -15 149 -42 204l-379 -458c42 -43 99 -67 168 -67zM456 830h-73l126 97c26 20 60 33 94 33c37 0 57 -15 57 -37c0 -30 -19 -48 -88 -65z" />
    <glyph glyph-name="Tbar" unicode="&#x166;" horiz-adv-x="827" 
d="M805 770l10 -220h-43c-8 132 -61 168 -168 168c-104 0 -119 -7 -119 -31v-220h203v-60h-203v-244c0 -86 17 -119 135 -123v-40h-419v40c119 4 137 37 137 123v244h-203v60h203v220c0 24 -14 31 -103 31c-97 0 -180 -6 -184 -168h-39l10 220h783z" />
    <glyph glyph-name="dcroat" unicode="&#x111;" horiz-adv-x="694" 
d="M481 -10v74h-4c-46 -49 -107 -74 -179 -74c-152 0 -259 112 -259 271s109 279 253 279c66 0 118 -18 156 -66h4v127h-85v50h84c-1 32 -3 55 -5 65c-6 28 -39 40 -109 40v34l253 40v-179h70v-50h-70v-343c0 -99 2 -149 7 -177c6 -35 17 -41 74 -41v-39zM450 248v39
c0 50 -11 95 -32 128c-24 38 -63 59 -106 59c-78 0 -121 -75 -121 -211c0 -138 43 -216 120 -216c44 0 87 24 112 63c19 29 27 70 27 138z" />
    <glyph glyph-name="hbar" unicode="&#x127;" horiz-adv-x="714" 
d="M244 297v-133c0 -109 7 -119 87 -124v-40h-315v40c81 5 89 16 89 117v444h-85v50h84c-1 30 -3 50 -6 64c-7 34 -19 40 -79 40v37l223 38v-179h71v-50h-71v-140h4c41 54 91 79 162 79c65 0 116 -20 152 -60c35 -40 56 -100 56 -161v-155c0 -111 6 -119 85 -124v-40h-313
v40c80 4 89 16 89 117v123c0 142 -27 194 -102 194c-41 0 -72 -15 -95 -44c-23 -31 -36 -77 -36 -133z" />
    <glyph glyph-name="lslash" unicode="&#x142;" horiz-adv-x="357" 
d="M248 830v-359l73 43v-65l-73 -43v-242c0 -106 10 -121 87 -124v-40h-315v40c75 4 89 23 89 117v167l-72 -42v65l72 42v181c0 77 -3 129 -7 147c-7 33 -25 41 -86 41v34z" />
    <glyph glyph-name="registered" unicode="&#xae;" horiz-adv-x="902" 
d="M857 386c0 -220 -182 -396 -408 -396c-224 0 -404 178 -404 395s179 395 403 395c227 0 409 -175 409 -394zM797 386c0 187 -157 336 -349 336s-343 -152 -343 -337s152 -337 344 -337c191 0 348 152 348 338zM616 507c0 -60 -37 -102 -123 -114l130 -145
c20 -23 39 -33 71 -38v-27h-124l-145 171c-20 23 -32 29 -48 29v-107c0 -54 8 -66 71 -66v-27h-208v27c42 2 49 12 49 63v249c0 51 -6 61 -43 63v30h184c118 0 186 -41 186 -108zM377 571v-155h37c68 0 100 26 100 88c0 55 -25 76 -84 76h-43c-8 0 -10 -4 -10 -9z" />
    <glyph glyph-name="ordfeminine" unicode="&#xaa;" horiz-adv-x="381" 
d="M211 620v29c-53 -23 -73 -46 -73 -69c0 -16 13 -28 32 -28c23 0 41 31 41 68zM148 656l63 31v14c0 31 -13 45 -42 45c-31 0 -39 -6 -48 -31c-7 -19 -15 -29 -32 -29c-15 0 -32 7 -32 28c0 34 42 66 121 66s107 -21 107 -77v-102c0 -38 7 -58 23 -58c12 0 19 3 25 13
l8 -22c-11 -16 -40 -27 -68 -27c-39 0 -57 13 -57 38h-4c-16 -23 -44 -38 -78 -38c-49 0 -81 24 -81 59c0 36 23 59 95 90z" />
    <glyph glyph-name="ordmasculine" unicode="&#xba;" horiz-adv-x="383" 
d="M190 780c82 0 152 -57 152 -135c0 -80 -70 -138 -152 -138c-81 0 -149 58 -149 138c0 78 68 135 149 135zM190 744c-36 0 -62 -41 -62 -99c0 -61 25 -101 62 -101c38 0 64 40 64 101c0 58 -26 99 -64 99z" />
    <glyph glyph-name="degree" unicode="&#xb0;" horiz-adv-x="334" 
d="M41 660c0 66 57 120 126 120s126 -54 126 -120s-57 -120 -126 -120s-126 54 -126 120zM87 660c0 -41 37 -75 80 -75s78 34 78 75s-35 74 -78 74s-80 -33 -80 -74z" />
    <glyph glyph-name="AE" unicode="&#xc6;" horiz-adv-x="1136" 
d="M406 41c89 3 105 20 105 114v119h-248c-89 -160 -90 -167 -90 -191c0 -42 41 -39 77 -42v-41h-272v41c64 7 92 25 125 81c39 67 66 120 303 552c5 10 8 18 8 25c0 18 -25 23 -83 23v48h723v-196h-42c-16 114 -63 143 -202 143h-134c-11 0 -18 -7 -18 -17v-274
c172 0 196 15 208 122h37v-293h-37c-16 100 -34 120 -208 121v-209c0 -87 42 -114 175 -114c145 0 196 40 223 174h44l-15 -227h-679v41zM297 334h214v387z" />
    <glyph glyph-name="schwa" unicode="&#x259;" horiz-adv-x="586" 
d="M74 402l-28 35c62 70 136 103 227 103c164 0 275 -109 275 -268c0 -165 -119 -282 -287 -282c-141 0 -224 89 -224 237c0 21 2 23 33 23h322c3 7 4 17 4 33c0 118 -61 192 -158 192c-56 0 -112 -26 -164 -73zM385 194h-145c-54 0 -63 -3 -63 -26c0 -70 32 -120 88 -120
c67 0 117 61 120 146z" />
    <glyph glyph-name="AEacute" unicode="&#x1fc;" horiz-adv-x="1136" 
d="M406 41c89 3 105 20 105 114v119h-248c-89 -160 -90 -167 -90 -191c0 -42 41 -39 77 -42v-41h-272v41c64 7 92 25 125 81c39 67 66 120 303 552c5 10 8 18 8 25c0 18 -25 23 -83 23v48h723v-196h-42c-16 114 -63 143 -202 143h-134c-11 0 -18 -7 -18 -17v-274
c172 0 196 15 208 122h37v-293h-37c-16 100 -34 120 -208 121v-209c0 -87 42 -114 175 -114c145 0 196 40 223 174h44l-15 -227h-679v41zM297 334h214v387zM612 830h-73l126 97c26 20 60 33 94 33c37 0 57 -15 57 -37c0 -30 -19 -48 -88 -65z" />
    <glyph glyph-name="oslash" unicode="&#xf8;" horiz-adv-x="658" 
d="M327 540c58 0 113 -16 159 -43l79 95h81l-109 -131c52 -48 85 -115 85 -192c0 -162 -136 -279 -295 -279c-55 0 -106 14 -150 38l-74 -89h-80l104 125c-56 50 -91 121 -91 205c0 158 133 271 291 271zM327 482c-81 0 -134 -86 -134 -214c0 -41 5 -77 14 -107l219 263
c-24 37 -58 58 -99 58zM465 268c0 34 -4 65 -12 92l-217 -261c23 -31 54 -48 91 -48c84 0 138 86 138 217z" />
    <glyph glyph-name="oslashacute" unicode="&#x1ff;" horiz-adv-x="658" 
d="M327 540c58 0 112 -15 159 -42l78 94h82l-109 -131c52 -48 85 -115 85 -192c0 -162 -136 -279 -295 -279c-55 0 -106 14 -150 38l-74 -89h-81l104 126c-55 49 -90 120 -90 204c0 158 133 271 291 271zM327 482c-81 0 -134 -86 -134 -214c0 -40 5 -76 14 -106l218 263
c-24 36 -58 57 -98 57zM465 268c0 34 -4 65 -12 92l-217 -261c23 -31 54 -48 91 -48c84 0 138 86 138 217zM325 651h-59l127 119c32 30 58 43 85 43c33 0 55 -17 55 -45c0 -23 -27 -39 -69 -57z" />
    <glyph glyph-name="tbar" unicode="&#x167;" horiz-adv-x="385" 
d="M101 475h-73v45c79 23 134 72 161 131h51v-121h115v-55h-115v-94h102v-50h-102v-163c0 -82 17 -114 59 -114c27 0 45 11 59 36l21 -29c-18 -46 -64 -71 -132 -71c-92 0 -146 45 -146 122v219h-52v50h52v94z" />
    <glyph glyph-name="Schwa" unicode="&#x18f;" horiz-adv-x="853" 
d="M107 596l-47 41c87 101 195 144 323 144c253 0 424 -157 424 -387c0 -236 -183 -404 -442 -404c-205 0 -326 112 -326 299c0 26 6 29 47 29h542c6 16 6 39 6 64c0 204 -106 332 -273 332c-103 0 -170 -29 -254 -118zM618 245h-340c-82 0 -90 -6 -90 -41
c0 -88 77 -146 202 -146c121 0 201 63 228 187z" />
    <glyph glyph-name="mu" unicode="&#xb5;" horiz-adv-x="744" 
d="M202 92l-4 -1c25 -81 63 -233 63 -280c0 -44 -27 -71 -69 -71c-44 0 -75 35 -75 82v543c0 109 -6 118 -87 125v40h224v-273c0 -142 32 -202 103 -202c48 0 78 19 103 73c13 33 23 90 23 144v93c0 108 -6 117 -87 125v40h225v-307c0 -75 2 -119 7 -143
c6 -33 20 -40 85 -40v-39l-199 -12l-11 89h-4c-29 -64 -75 -88 -146 -88c-62 0 -116 32 -151 102z" />
    <glyph glyph-name="uni03BC" unicode="&#x3bc;" horiz-adv-x="720" 
d="M192 92l-4 -1c25 -81 63 -233 63 -280c0 -44 -27 -71 -69 -71c-44 0 -77 35 -77 82v543c0 109 -4 118 -85 125v40h224v-273c0 -142 32 -202 103 -202c48 0 78 19 103 73c13 33 23 90 23 144v93c0 108 -6 117 -87 125v40h225v-307c0 -75 2 -119 7 -143
c6 -33 20 -40 85 -40v-39l-199 -12l-11 89h-4c-29 -64 -75 -88 -146 -88c-62 0 -116 32 -151 102z" />
    <glyph glyph-name="Eng" unicode="&#x14a;" horiz-adv-x="940" 
d="M804 588v-598c0 -162 -83 -250 -226 -250c-97 0 -162 43 -162 107c0 35 19 53 51 53c25 0 36 -11 57 -47c26 -44 42 -55 72 -55c76 0 122 50 129 138l-498 695h-4v-440c0 -132 15 -148 104 -151v-40h-297v40c98 3 115 20 115 144v402c0 113 -15 140 -105 144v40h279
l403 -578h4v387c0 132 -15 148 -104 151v40h297v-40c-98 -3 -115 -20 -115 -142z" />
    <glyph glyph-name="eng" unicode="&#x14b;" horiz-adv-x="700" 
d="M257 301v-138c0 -108 7 -118 87 -123v-40h-315v40c78 5 89 16 89 116v125c0 78 -3 128 -7 145c-8 35 -25 42 -86 42v34l193 38l13 -88h4c44 55 106 88 177 88c85 0 133 -22 174 -76c23 -31 43 -75 43 -160v-306c0 -166 -84 -258 -235 -258c-102 0 -164 43 -164 99
c0 33 26 52 54 52c75 0 60 -98 132 -98c49 0 74 35 74 129v370c0 136 -29 183 -116 183c-43 0 -73 -25 -95 -68c-12 -24 -22 -65 -22 -106z" />
    <glyph glyph-name="thorn" unicode="&#xfe;" horiz-adv-x="674" 
d="M85 -97v691c0 64 -4 109 -13 129c-8 18 -22 24 -83 32v35l234 40v-371h4c36 54 89 81 158 81c142 0 251 -118 251 -272c0 -157 -116 -279 -265 -279c-62 0 -107 21 -144 67v-146c0 -106 16 -122 120 -125v-35h-360v35c83 3 98 21 98 118zM225 298v-89
c0 -96 54 -162 132 -162c83 0 128 75 128 216c0 142 -44 214 -130 214c-49 0 -81 -22 -107 -74c-16 -34 -23 -65 -23 -105z" />
    <glyph glyph-name="Thorn" unicode="&#xde;" horiz-adv-x="734" 
d="M294 618v-17h105c195 0 308 -86 308 -210c0 -147 -90 -225 -328 -225h-85v-19c0 -90 8 -106 135 -106v-41h-397v41c98 3 115 17 115 111v463c0 94 -17 111 -115 114v41h397v-38c-127 0 -135 -19 -135 -114zM294 527v-301h65c121 0 181 48 181 165c0 99 -53 153 -141 153
h-87c-11 0 -18 -7 -18 -17z" />
    <glyph glyph-name="eth" unicode="&#xf0;" horiz-adv-x="661" 
d="M200 244c0 -126 49 -199 121 -199c81 0 134 76 134 199c0 130 -52 210 -133 210c-73 0 -122 -78 -122 -210zM164 736l20 44c65 -18 133 -40 182 -68l136 75l30 -43l-116 -64c134 -82 203 -221 203 -372c0 -186 -127 -318 -299 -318c-158 0 -281 108 -281 254
c0 150 116 269 272 269c75 0 132 -35 161 -101l3 2c-28 102 -69 175 -130 228l-140 -76l-24 43l124 66c-31 24 -69 37 -141 61z" />
    <glyph glyph-name="florin" unicode="&#x192;" horiz-adv-x="723" 
d="M55 -201c60 0 93 74 127 283l55 343h-110l15 55h105l9 45c32 158 141 255 288 255c95 0 163 -41 163 -99c0 -29 -18 -46 -50 -46c-22 0 -34 7 -54 29c-45 49 -58 58 -84 58c-62 0 -100 -60 -125 -199l-8 -43h130l-14 -55h-122l-35 -199c-32 -181 -52 -256 -87 -325
c-56 -110 -125 -161 -218 -161c-90 0 -166 47 -166 104c0 30 21 52 51 52c23 0 40 -12 64 -44c38 -50 41 -53 66 -53z" />
    <glyph glyph-name="germandbls" unicode="&#xdf;" horiz-adv-x="711" 
d="M358 830c154 0 256 -78 256 -194c0 -90 -55 -151 -152 -169v-5c119 0 211 -105 211 -239s-95 -233 -224 -233c-76 0 -128 35 -128 86c0 28 18 47 47 47c56 0 46 -77 87 -77c39 0 67 70 67 165c0 140 -66 220 -180 220v61c83 0 121 44 121 141c0 93 -34 137 -107 137
c-78 0 -110 -52 -110 -178v-428c0 -99 9 -123 48 -123v-41h-278v41c79 0 91 15 91 115v430c0 156 91 244 251 244z" />
    <glyph glyph-name="zerosuperior" unicode="&#x2070;" horiz-adv-x="314" 
d="M157 780c71 0 129 -70 129 -160c0 -87 -58 -156 -129 -156c-70 0 -129 69 -129 156c0 90 59 160 129 160zM157 499c34 0 54 27 54 119c0 97 -19 127 -54 127s-54 -30 -54 -127c0 -92 19 -119 54 -119z" />
    <glyph glyph-name="onesuperior" unicode="&#xb9;" horiz-adv-x="249" 
d="M157 780v-237c0 -41 6 -49 44 -50v-25h-148v25c38 2 44 9 44 47v127c0 31 0 53 -2 58c-2 11 -16 13 -44 13v25c33 1 73 8 106 17z" />
    <glyph glyph-name="twosuperior" unicode="&#xb2;" horiz-adv-x="284" 
d="M105 516v-4h79c24 0 35 8 45 41h26l-15 -85h-211v18c120 106 148 153 148 208c0 33 -18 53 -48 53c-23 0 -41 -18 -41 -41c0 -26 15 -43 36 -43c-2 -15 -17 -26 -38 -26c-33 0 -58 25 -58 60c0 48 46 83 109 83c65 0 111 -36 111 -86c0 -64 -64 -122 -143 -178z" />
    <glyph glyph-name="threesuperior" unicode="&#xb3;" horiz-adv-x="283" 
d="M180 556c0 37 -16 60 -43 60c-10 -4 -21 -7 -29 -7c-14 0 -23 9 -23 21s9 19 22 19c8 0 17 -2 27 -5c23 0 39 26 39 61c0 29 -12 43 -38 43c-24 0 -38 -11 -38 -29c0 -14 9 -23 24 -23c-2 -11 -18 -20 -35 -20c-26 0 -47 21 -47 47c0 35 37 57 96 57
c66 0 109 -28 109 -72c0 -34 -27 -64 -64 -72v-4c45 -11 74 -43 74 -81c0 -50 -51 -87 -120 -87c-62 0 -107 30 -107 71c0 29 23 51 52 51c19 0 35 -9 39 -23c-15 0 -27 -15 -27 -32c0 -20 16 -33 41 -33c32 0 48 20 48 58z" />
    <glyph glyph-name="foursuperior" unicode="&#x2074;" horiz-adv-x="283" 
d="M12 540v30l155 210h31v-211c35 1 39 5 39 36h19v-94h-19c0 25 -5 29 -39 30v-8c0 -37 5 -44 33 -45v-20h-144v20c38 2 44 8 44 42v10h-119zM131 570v111h-4l-80 -111h84z" />
    <glyph glyph-name="fivesuperior" unicode="&#x2075;" horiz-adv-x="265" 
d="M113 727l-16 -63l1 -4c9 11 25 17 44 17c52 0 95 -44 95 -98c0 -64 -60 -115 -135 -115c-52 0 -90 27 -90 64c0 16 8 24 23 24c40 0 11 -55 65 -55c42 0 64 33 64 96c0 32 -12 52 -32 52c-21 0 -38 -11 -47 -30c-5 -12 -9 -16 -17 -16s-13 3 -13 10c0 2 0 4 1 6l45 165
c10 -4 28 -7 53 -7c30 0 56 3 70 7h4c-7 -33 -37 -53 -80 -53h-35z" />
    <glyph glyph-name="sixsuperior" unicode="&#x2076;" horiz-adv-x="296" 
d="M270 574c0 -62 -53 -110 -120 -110c-72 0 -121 57 -121 141c0 97 63 175 141 175c42 0 76 -21 76 -47c0 -15 -10 -25 -25 -25c-30 0 -26 39 -61 39c-34 0 -65 -43 -65 -106l4 -1c17 25 43 36 71 36c56 0 100 -45 100 -102zM102 596v-20c0 -59 16 -89 49 -89
c31 0 47 28 47 80c0 50 -14 75 -42 75c-21 0 -37 -14 -54 -46z" />
    <glyph glyph-name="sevensuperior" unicode="&#x2077;" horiz-adv-x="231" 
d="M122 626l52 99h-68c-44 0 -50 -3 -62 -27l-6 -16h-21l29 112h22c-1 -2 -2 -9 -2 -12c0 -10 6 -12 33 -12h128v-8c-59 -128 -73 -171 -107 -260c-13 -34 -29 -44 -47 -44s-24 10 -24 23c0 14 8 30 73 145z" />
    <glyph glyph-name="eightsuperior" unicode="&#x2078;" horiz-adv-x="282" 
d="M153 595l-26 14c-26 -12 -43 -31 -43 -57c0 -35 23 -55 60 -55c27 0 51 20 51 49c0 14 -6 25 -42 49zM186 641c37 -18 67 -46 67 -88c0 -55 -53 -89 -113 -89c-49 0 -111 24 -111 75c0 42 33 67 70 83c-32 17 -60 40 -60 79c0 21 11 42 28 57c19 16 47 22 73 22
c24 0 50 -5 69 -17s31 -31 31 -53c0 -34 -24 -52 -54 -69zM138 665l20 -10c16 10 33 31 33 49c0 24 -13 43 -45 43c-28 0 -45 -16 -45 -39c0 -16 12 -30 37 -43z" />
    <glyph glyph-name="ninesuperior" unicode="&#x2079;" horiz-adv-x="298" 
d="M28 670c0 62 53 110 120 110c72 0 121 -57 121 -142c0 -96 -63 -174 -142 -174c-46 0 -85 21 -85 47c0 15 10 25 25 25c34 0 31 -39 70 -39c35 0 65 45 65 114l-4 3c-17 -25 -42 -36 -70 -36c-56 0 -100 41 -100 92zM196 658v20c0 52 -16 79 -48 79
c-31 0 -48 -27 -48 -78c0 -45 13 -67 41 -67c21 0 37 13 55 46z" />
    <glyph glyph-name="zeroinferior" unicode="&#x2080;" horiz-adv-x="316" 
d="M158 306c70 0 129 -70 129 -160c0 -87 -59 -156 -129 -156s-129 69 -129 156c0 90 59 160 129 160zM158 25c34 0 54 27 54 119c0 97 -19 127 -54 127s-54 -30 -54 -127c0 -92 19 -119 54 -119z" />
    <glyph glyph-name="oneinferior" unicode="&#x2081;" horiz-adv-x="249" 
d="M157 312v-237c0 -41 6 -49 44 -50v-25h-148v25c38 2 44 9 44 47v127c0 31 0 53 -2 58c-2 11 -16 13 -44 13v25c33 1 73 8 106 17z" />
    <glyph glyph-name="twoinferior" unicode="&#x2082;" horiz-adv-x="284" 
d="M105 48v-4h79c24 0 35 8 45 41h26l-15 -85h-211v18c120 106 148 153 148 208c0 33 -18 53 -48 53c-23 0 -41 -18 -41 -41c0 -26 15 -43 36 -43c-2 -15 -17 -26 -38 -26c-33 0 -58 25 -58 60c0 48 46 83 109 83c65 0 111 -36 111 -86c0 -64 -64 -122 -143 -178z" />
    <glyph glyph-name="threeinferior" unicode="&#x2083;" horiz-adv-x="284" 
d="M180 82c0 37 -16 60 -43 60c-10 -4 -21 -7 -29 -7c-14 0 -23 9 -23 21s9 19 22 19c8 0 17 -2 27 -5c23 0 39 26 39 61c0 29 -12 43 -38 43c-24 0 -38 -11 -38 -29c0 -14 9 -23 24 -23c-2 -11 -18 -20 -35 -20c-26 0 -47 21 -47 47c0 35 37 57 96 57c66 0 109 -28 109 -72
c0 -34 -27 -64 -64 -72v-4c45 -11 74 -43 74 -81c0 -50 -51 -87 -120 -87c-62 0 -107 30 -107 71c0 29 23 51 52 51c19 0 35 -9 39 -23c-15 0 -27 -15 -27 -32c0 -20 16 -33 41 -33c32 0 48 20 48 58z" />
    <glyph glyph-name="fourinferior" unicode="&#x2084;" horiz-adv-x="283" 
d="M12 72v30l155 210h31v-211c35 1 39 5 39 36h19v-94h-19c0 25 -5 29 -39 30v-8c0 -37 5 -44 33 -45v-20h-144v20c38 2 44 8 44 42v10h-119zM131 102v111h-4l-80 -111h84z" />
    <glyph glyph-name="fiveinferior" unicode="&#x2085;" horiz-adv-x="265" 
d="M113 253l-16 -63l1 -4c9 11 25 17 44 17c52 0 95 -44 95 -98c0 -64 -60 -115 -135 -115c-52 0 -90 27 -90 64c0 16 8 24 23 24c40 0 11 -55 65 -55c42 0 64 33 64 96c0 32 -12 52 -32 52c-21 0 -38 -11 -47 -30c-5 -12 -9 -16 -17 -16s-13 3 -13 10c0 2 0 4 1 6l45 165
c10 -4 28 -7 53 -7c30 0 56 3 70 7h4c-7 -33 -37 -53 -80 -53h-35z" />
    <glyph glyph-name="sixinferior" unicode="&#x2086;" horiz-adv-x="297" 
d="M270 100c0 -62 -53 -110 -120 -110c-72 0 -121 57 -121 141c0 97 63 175 141 175c42 0 76 -21 76 -47c0 -15 -10 -25 -25 -25c-30 0 -26 39 -61 39c-34 0 -65 -43 -65 -106l4 -1c17 25 43 36 71 36c56 0 100 -45 100 -102zM102 122v-20c0 -59 16 -89 49 -89
c31 0 47 28 47 80c0 50 -14 75 -42 75c-21 0 -37 -14 -54 -46z" />
    <glyph glyph-name="seveninferior" unicode="&#x2087;" horiz-adv-x="231" 
d="M122 158l52 99h-68c-44 0 -50 -3 -62 -27l-6 -16h-21l29 112h22c-1 -2 -2 -9 -2 -12c0 -10 6 -12 33 -12h128v-8c-59 -128 -73 -171 -107 -260c-13 -34 -29 -44 -47 -44s-24 10 -24 23c0 14 8 30 73 145z" />
    <glyph glyph-name="eightinferior" unicode="&#x2088;" horiz-adv-x="282" 
d="M153 121l-26 14c-26 -12 -43 -31 -43 -57c0 -35 23 -55 60 -55c27 0 51 20 51 49c0 14 -6 25 -42 49zM186 167c37 -18 67 -46 67 -88c0 -55 -53 -89 -113 -89c-49 0 -111 24 -111 75c0 42 33 67 70 83c-32 17 -60 40 -60 79c0 21 11 42 28 57c19 16 47 22 73 22
c24 0 50 -5 69 -17s31 -31 31 -53c0 -34 -24 -52 -54 -69zM138 191l20 -10c16 10 33 31 33 49c0 24 -13 43 -45 43c-28 0 -45 -16 -45 -39c0 -16 12 -30 37 -43z" />
    <glyph glyph-name="nineinferior" unicode="&#x2089;" horiz-adv-x="298" 
d="M28 196c0 62 53 110 120 110c72 0 121 -57 121 -142c0 -96 -63 -174 -142 -174c-46 0 -85 21 -85 47c0 15 10 25 25 25c34 0 31 -39 70 -39c35 0 65 45 65 114l-4 3c-17 -25 -42 -36 -70 -36c-56 0 -100 41 -100 92zM196 184v20c0 52 -16 79 -48 79
c-31 0 -48 -27 -48 -78c0 -45 13 -67 41 -67c21 0 37 13 55 46z" />
    <glyph glyph-name="percent" unicode="%" horiz-adv-x="712" 
d="M682 770l-571 -770h-80l580 770h71zM215 780c71 0 129 -70 129 -160c0 -87 -58 -156 -129 -156c-70 0 -129 69 -129 156c0 90 59 160 129 160zM215 499c34 0 54 27 54 119c0 97 -19 127 -54 127s-54 -30 -54 -127c0 -92 19 -119 54 -119zM499 306c70 0 129 -70 129 -160
c0 -87 -59 -156 -129 -156s-129 69 -129 156c0 90 59 160 129 160zM499 25c34 0 54 27 54 119c0 97 -19 127 -54 127s-54 -30 -54 -127c0 -92 19 -119 54 -119z" />
    <glyph glyph-name="perthousand" unicode="&#x2030;" horiz-adv-x="968" 
d="M682 770l-571 -770h-80l580 770h71zM215 780c71 0 129 -70 129 -160c0 -87 -58 -156 -129 -156c-70 0 -129 69 -129 156c0 90 59 160 129 160zM215 499c34 0 54 27 54 119c0 97 -19 127 -54 127s-54 -30 -54 -127c0 -92 19 -119 54 -119zM805 306c70 0 129 -70 129 -160
c0 -87 -59 -156 -129 -156s-129 69 -129 156c0 90 59 160 129 160zM805 25c34 0 54 27 54 119c0 97 -19 127 -54 127s-54 -30 -54 -127c0 -92 19 -119 54 -119zM499 306c70 0 129 -70 129 -160c0 -87 -59 -156 -129 -156s-129 69 -129 156c0 90 59 160 129 160zM499 25
c34 0 54 27 54 119c0 97 -19 127 -54 127s-54 -30 -54 -127c0 -92 19 -119 54 -119z" />
    <glyph glyph-name="onehalf" unicode="&#xbd;" horiz-adv-x="716" 
d="M679 770l-571 -770h-80l580 770h71zM242 780v-237c0 -41 6 -49 44 -50v-25h-148v25c38 2 44 9 44 47v127c0 31 0 53 -2 58c-2 11 -16 13 -44 13v25c33 1 73 8 106 17zM469 48v-4h79c24 0 35 8 45 41h26l-15 -85h-211v18c120 106 148 153 148 208c0 33 -18 53 -48 53
c-23 0 -41 -18 -41 -41c0 -26 15 -43 36 -43c-2 -15 -17 -26 -38 -26c-33 0 -58 25 -58 60c0 48 46 83 109 83c65 0 111 -36 111 -86c0 -64 -64 -122 -143 -178z" />
    <glyph glyph-name="onethird" unicode="&#x2153;" horiz-adv-x="715" 
d="M679 770l-571 -770h-80l580 770h71zM242 780v-237c0 -41 6 -49 44 -50v-25h-148v25c38 2 44 9 44 47v127c0 31 0 53 -2 58c-2 11 -16 13 -44 13v25c33 1 73 8 106 17zM544 82c0 37 -16 60 -43 60c-10 -4 -21 -7 -29 -7c-14 0 -23 9 -23 21s9 19 22 19c8 0 17 -2 27 -5
c23 0 39 26 39 61c0 29 -12 43 -38 43c-24 0 -38 -11 -38 -29c0 -14 9 -23 24 -23c-2 -11 -18 -20 -35 -20c-26 0 -47 21 -47 47c0 35 37 57 96 57c66 0 109 -28 109 -72c0 -34 -27 -64 -64 -72v-4c45 -11 74 -43 74 -81c0 -50 -51 -87 -120 -87c-62 0 -107 30 -107 71
c0 29 23 51 52 51c19 0 35 -9 39 -23c-15 0 -27 -15 -27 -32c0 -20 16 -33 41 -33c32 0 48 20 48 58z" />
    <glyph glyph-name="onequarter" unicode="&#xbc;" horiz-adv-x="712" 
d="M679 770l-571 -770h-80l580 770h71zM242 780v-237c0 -41 6 -49 44 -50v-25h-148v25c38 2 44 9 44 47v127c0 31 0 53 -2 58c-2 11 -16 13 -44 13v25c33 1 73 8 106 17zM369 72v30l155 210h31v-211c35 1 39 5 39 36h19v-94h-19c0 25 -5 29 -39 30v-8c0 -37 5 -44 33 -45
v-20h-144v20c38 2 44 8 44 42v10h-119zM488 102v111h-4l-80 -111h84z" />
    <glyph glyph-name="oneeighth" unicode="&#x215b;" horiz-adv-x="715" 
d="M679 770l-571 -770h-80l580 770h71zM242 780v-237c0 -41 6 -49 44 -50v-25h-148v25c38 2 44 9 44 47v127c0 31 0 53 -2 58c-2 11 -16 13 -44 13v25c33 1 73 8 106 17zM517 121l-26 14c-26 -12 -43 -31 -43 -57c0 -35 23 -55 60 -55c27 0 51 20 51 49c0 14 -6 25 -42 49z
M550 167c37 -18 67 -46 67 -88c0 -55 -53 -89 -113 -89c-49 0 -111 24 -111 75c0 42 33 67 70 83c-32 17 -60 40 -60 79c0 21 11 42 28 57c19 16 47 22 73 22c24 0 50 -5 69 -17s31 -31 31 -53c0 -34 -24 -52 -54 -69zM502 191l20 -10c16 10 33 31 33 49c0 24 -13 43 -45 43
c-28 0 -45 -16 -45 -39c0 -16 12 -30 37 -43z" />
    <glyph glyph-name="twothirds" unicode="&#x2154;" horiz-adv-x="717" 
d="M687 770l-571 -770h-80l580 770h71zM552 82c0 37 -16 60 -43 60c-10 -4 -21 -7 -29 -7c-14 0 -23 9 -23 21s9 19 22 19c8 0 17 -2 27 -5c23 0 39 26 39 61c0 29 -12 43 -38 43c-24 0 -38 -11 -38 -29c0 -14 9 -23 24 -23c-2 -11 -18 -20 -35 -20c-26 0 -47 21 -47 47
c0 35 37 57 96 57c66 0 109 -28 109 -72c0 -34 -27 -64 -64 -72v-4c45 -11 74 -43 74 -81c0 -50 -51 -87 -120 -87c-62 0 -107 30 -107 71c0 29 23 51 52 51c19 0 35 -9 39 -23c-15 0 -27 -15 -27 -32c0 -20 16 -33 41 -33c32 0 48 20 48 58zM166 516v-4h79c24 0 35 8 45 41
h26l-15 -85h-211v18c120 106 148 153 148 208c0 33 -18 53 -48 53c-23 0 -41 -18 -41 -41c0 -26 15 -43 36 -43c-2 -15 -17 -26 -38 -26c-33 0 -58 25 -58 60c0 48 46 83 109 83c65 0 111 -36 111 -86c0 -64 -64 -122 -143 -178z" />
    <glyph glyph-name="threequarters" unicode="&#xbe;" horiz-adv-x="714" 
d="M685 770l-571 -770h-80l580 770h71zM375 72v30l155 210h31v-211c35 1 39 5 39 36h19v-94h-19c0 25 -5 29 -39 30v-8c0 -37 5 -44 33 -45v-20h-144v20c38 2 44 8 44 42v10h-119zM494 102v111h-4l-80 -111h84zM247 556c0 37 -16 60 -43 60c-10 -4 -21 -7 -29 -7
c-14 0 -23 9 -23 21s9 19 22 19c8 0 17 -2 27 -5c23 0 39 26 39 61c0 29 -12 43 -38 43c-24 0 -38 -11 -38 -29c0 -14 9 -23 24 -23c-2 -11 -18 -20 -35 -20c-26 0 -47 21 -47 47c0 35 37 57 96 57c66 0 109 -28 109 -72c0 -34 -27 -64 -64 -72v-4c45 -11 74 -43 74 -81
c0 -50 -51 -87 -120 -87c-62 0 -107 30 -107 71c0 29 23 51 52 51c19 0 35 -9 39 -23c-15 0 -27 -15 -27 -32c0 -20 16 -33 41 -33c32 0 48 20 48 58z" />
    <glyph glyph-name="threeeighths" unicode="&#x215c;" horiz-adv-x="716" 
d="M686 770l-571 -770h-80l580 770h71zM524 121l-26 14c-26 -12 -43 -31 -43 -57c0 -35 23 -55 60 -55c27 0 51 20 51 49c0 14 -6 25 -42 49zM557 167c37 -18 67 -46 67 -88c0 -55 -53 -89 -113 -89c-49 0 -111 24 -111 75c0 42 33 67 70 83c-32 17 -60 40 -60 79
c0 21 11 42 28 57c19 16 47 22 73 22c24 0 50 -5 69 -17s31 -31 31 -53c0 -34 -24 -52 -54 -69zM509 191l20 -10c16 10 33 31 33 49c0 24 -13 43 -45 43c-28 0 -45 -16 -45 -39c0 -16 12 -30 37 -43zM237 556c0 37 -16 60 -43 60c-10 -4 -21 -7 -29 -7c-14 0 -23 9 -23 21
s9 19 22 19c8 0 17 -2 27 -5c23 0 39 26 39 61c0 29 -12 43 -38 43c-24 0 -38 -11 -38 -29c0 -14 9 -23 24 -23c-2 -11 -18 -20 -35 -20c-26 0 -47 21 -47 47c0 35 37 57 96 57c66 0 109 -28 109 -72c0 -34 -27 -64 -64 -72v-4c45 -11 74 -43 74 -81c0 -50 -51 -87 -120 -87
c-62 0 -107 30 -107 71c0 29 23 51 52 51c19 0 35 -9 39 -23c-15 0 -27 -15 -27 -32c0 -20 16 -33 41 -33c32 0 48 20 48 58z" />
    <glyph glyph-name="fiveeighths" unicode="&#x215d;" horiz-adv-x="713" 
d="M683 770l-571 -770h-80l580 770h71zM521 121l-26 14c-26 -12 -43 -31 -43 -57c0 -35 23 -55 60 -55c27 0 51 20 51 49c0 14 -6 25 -42 49zM554 167c37 -18 67 -46 67 -88c0 -55 -53 -89 -113 -89c-49 0 -111 24 -111 75c0 42 33 67 70 83c-32 17 -60 40 -60 79
c0 21 11 42 28 57c19 16 47 22 73 22c24 0 50 -5 69 -17s31 -31 31 -53c0 -34 -24 -52 -54 -69zM506 191l20 -10c16 10 33 31 33 49c0 24 -13 43 -45 43c-28 0 -45 -16 -45 -39c0 -16 12 -30 37 -43zM180 727l-16 -63l1 -4c9 11 25 17 44 17c52 0 95 -44 95 -98
c0 -64 -60 -115 -135 -115c-52 0 -90 27 -90 64c0 16 8 24 23 24c40 0 11 -55 65 -55c42 0 64 33 64 96c0 32 -12 52 -32 52c-21 0 -38 -11 -47 -30c-5 -12 -9 -16 -17 -16s-13 3 -13 10c0 2 0 4 1 6l45 165c10 -4 28 -7 53 -7c30 0 56 3 70 7h4c-7 -33 -37 -53 -80 -53h-35
z" />
    <glyph glyph-name="seveneighths" unicode="&#x215e;" horiz-adv-x="715" 
d="M679 770l-571 -770h-80l580 770h71zM517 121l-26 14c-26 -12 -43 -31 -43 -57c0 -35 23 -55 60 -55c27 0 51 20 51 49c0 14 -6 25 -42 49zM550 167c37 -18 67 -46 67 -88c0 -55 -53 -89 -113 -89c-49 0 -111 24 -111 75c0 42 33 67 70 83c-32 17 -60 40 -60 79
c0 21 11 42 28 57c19 16 47 22 73 22c24 0 50 -5 69 -17s31 -31 31 -53c0 -34 -24 -52 -54 -69zM502 191l20 -10c16 10 33 31 33 49c0 24 -13 43 -45 43c-28 0 -45 -16 -45 -39c0 -16 12 -30 37 -43zM229 626l52 99h-68c-44 0 -50 -3 -62 -27l-6 -16h-21l29 112h22
c-1 -2 -2 -9 -2 -12c0 -10 6 -12 33 -12h128v-8c-59 -128 -73 -171 -107 -260c-13 -34 -29 -44 -47 -44s-24 10 -24 23c0 14 8 30 73 145z" />
    <glyph glyph-name="plus" unicode="+" horiz-adv-x="560" 
d="M314 86h-68v221h-212v62h212v221h68v-221h212v-62h-212v-221z" />
    <glyph glyph-name="minus" unicode="&#x2212;" horiz-adv-x="634" 
d="M563 370v-64h-492v64h492z" />
    <glyph glyph-name="plusminus" unicode="&#xb1;" horiz-adv-x="628" 
d="M348 227h-68v209h-212v64h212v209h68v-209h212v-64h-212v-209zM560 152v-64h-492v64h492z" />
    <glyph glyph-name="multiply" unicode="&#xd7;" horiz-adv-x="524" 
d="M471 169l-48 -48l-162 162l-164 -164l-46 46l164 164l-162 162l48 48l162 -162l164 164l46 -46l-164 -164z" />
    <glyph glyph-name="divide" unicode="&#xf7;" 
d="M539 370v-64h-492v64h492zM220 521c0 43 33 77 75 77c44 0 77 -34 77 -77c0 -41 -33 -74 -77 -74c-42 0 -75 33 -75 74zM220 151c0 43 33 77 75 77c44 0 77 -34 77 -77c0 -41 -33 -74 -77 -74c-42 0 -75 33 -75 74z" />
    <glyph glyph-name="less" unicode="&#x3c;" horiz-adv-x="593" 
d="M96 336l420 -195v-69l-480 232v64l480 232v-69z" />
    <glyph glyph-name="greater" unicode="&#x3e;" horiz-adv-x="593" 
d="M77 141l420 195l-420 195v69l480 -232v-64l-480 -232v69z" />
    <glyph glyph-name="trademark" unicode="&#x2122;" horiz-adv-x="906" 
d="M378 770v-81h-22c-4 42 -13 54 -56 54c-41 0 -47 -3 -47 -13v-194c0 -35 6 -47 49 -49v-25h-163v25c43 2 50 15 50 49v194c0 10 -7 13 -42 13c-36 0 -63 -3 -65 -54h-21v81h317zM624 559l91 211h121v-25c-36 0 -42 -12 -42 -61v-136c0 -53 6 -60 46 -61v-25h-155v25
c40 1 46 8 46 58v175h-4l-116 -262h-13l-109 262h-4v-172c0 -53 6 -60 46 -61v-25h-128v25c40 1 46 8 46 58v142c0 45 -9 58 -42 58v25h132z" />
    <glyph glyph-name="dagger" unicode="&#x2020;" horiz-adv-x="580" 
d="M92 424c-37 0 -65 29 -65 67s28 67 65 67c47 0 76 -35 172 -43c-3 115 -43 143 -43 198c0 38 30 67 70 67s70 -29 70 -67c0 -54 -39 -82 -44 -198c95 9 123 43 171 43c37 0 65 -29 65 -67s-28 -67 -65 -67c-48 0 -78 34 -171 42c0 -98 22 -149 68 -205
c-36 -108 -68 -354 -68 -521h-52c0 167 -32 413 -68 521c46 56 67 107 68 205c-96 -8 -125 -42 -173 -42z" />
    <glyph glyph-name="daggerdbl" unicode="&#x2021;" horiz-adv-x="596" 
d="M393 261c-46 -55 -68 -108 -68 -205c85 9 112 45 156 45c43 0 75 -31 75 -72s-32 -72 -75 -72c-44 0 -70 36 -156 46c5 -112 49 -140 49 -191c0 -41 -32 -72 -75 -72s-75 31 -75 72c0 52 44 80 48 191c-87 -9 -114 -46 -157 -46s-75 31 -75 72s32 72 75 72
c44 0 71 -36 158 -45c-1 97 -22 148 -68 205c47 55 69 106 70 203c-88 -9 -116 -45 -160 -45c-43 0 -75 31 -75 72s32 72 75 72s71 -37 159 -46c-4 111 -50 139 -50 191c0 41 32 72 75 72s75 -31 75 -72c0 -51 -45 -79 -51 -191c87 10 114 46 158 46c43 0 75 -31 75 -72
s-32 -72 -75 -72c-44 0 -72 36 -158 45c0 -97 23 -148 70 -203z" />
    <glyph glyph-name="servicemark" unicode="&#x2120;" horiz-adv-x="806" 
d="M68 472v90h24c7 -36 30 -68 79 -68c32 0 58 14 58 42c0 23 -12 37 -63 58c-71 29 -92 57 -92 102c0 54 46 84 95 84c23 0 44 -7 66 -24l12 18h11v-79h-23c-14 41 -34 55 -65 55c-23 0 -45 -10 -45 -34c0 -22 12 -35 53 -52c87 -37 108 -62 108 -110
c0 -61 -60 -90 -116 -90c-31 0 -53 9 -76 28l-11 -20h-15zM524 559l91 211h121v-25c-36 0 -42 -12 -42 -61v-136c0 -53 6 -60 46 -61v-25h-155v25c41 1 46 8 46 58v175h-4l-116 -262h-13l-109 262h-4v-172c0 -53 6 -60 46 -61v-25h-128v25c40 1 46 8 46 58v142
c0 45 -6 58 -42 58v25h132z" />
    <glyph glyph-name="c_t" horiz-adv-x="947" 
d="M502 121l26 -38c-50 -56 -130 -88 -217 -88c-162 0 -272 108 -272 268c0 166 117 277 291 277c28 0 55 -3 79 -9c-10 24 -14 49 -14 80c0 123 74 193 209 193c130 0 198 -67 198 -195v-79h115v-55h-115v-307c0 -82 17 -114 60 -114c26 0 43 11 58 36l21 -29
c-18 -46 -64 -71 -132 -71c-92 0 -146 45 -146 122v363h-73v45c88 6 143 50 143 115c0 68 -54 114 -134 114c-89 0 -144 -55 -144 -143c0 -46 14 -83 45 -117c23 -19 36 -43 36 -69c0 -37 -25 -61 -62 -61c-29 0 -49 14 -74 51c-46 68 -51 72 -84 72
c-78 0 -123 -75 -123 -204c0 -140 53 -217 150 -217c52 0 109 22 159 60z" />
    <glyph glyph-name="s_t" unicode="&#xfb06;" horiz-adv-x="867" 
d="M107 35l-22 -35h-31v182h42c23 -95 64 -138 132 -138c49 0 78 22 78 58s-29 66 -106 111c-106 61 -142 105 -142 173c0 97 77 159 196 159c25 0 48 -2 69 -7c-5 23 -8 47 -8 71c0 125 74 195 208 195c131 0 199 -67 199 -195v-79h115v-55h-115v-307
c0 -82 17 -114 60 -114c25 0 42 11 58 36l21 -29c-18 -46 -64 -71 -132 -71c-92 0 -146 45 -146 122v363h-73v45c91 0 143 50 143 116c0 67 -54 113 -135 113c-89 0 -143 -55 -143 -147c0 -43 12 -75 40 -107c12 -13 19 -28 19 -43c0 -33 -26 -58 -61 -58
c-68 0 -71 93 -141 93c-35 0 -59 -23 -59 -55c0 -37 25 -62 106 -108c114 -66 151 -110 151 -181c0 -92 -72 -153 -182 -153c-58 0 -110 16 -141 45z" />
    <glyph glyph-name="s_p" horiz-adv-x="1132" 
d="M107 35l-22 -35h-31v182h42c23 -95 64 -138 132 -138c49 0 78 22 78 58c0 31 -16 58 -106 111c-106 61 -142 103 -142 173c0 97 77 159 196 159h12c-19 21 -29 51 -29 79c0 92 78 166 174 166c90 0 139 -71 183 -71c8 42 30 63 63 63c38 0 57 -20 57 -51
c0 -35 -33 -73 -62 -73v-193h4c44 50 101 75 172 75c155 0 265 -115 265 -275c0 -159 -110 -275 -263 -275c-66 0 -113 21 -148 66h-4v-139c0 -106 16 -122 120 -125v-42h-345v42c72 2 87 22 87 118v540c0 79 11 141 40 218c-53 0 -102 64 -170 64c-66 0 -116 -45 -116 -106
c0 -46 23 -78 76 -102c39 -18 64 -43 64 -72c0 -33 -26 -58 -61 -58c-68 0 -71 93 -141 93c-35 0 -59 -23 -59 -55c0 -39 25 -62 106 -108c115 -67 151 -112 151 -181c0 -92 -72 -153 -182 -153c-59 0 -111 16 -141 45zM822 483c-91 0 -142 -70 -142 -183v-68
c0 -97 54 -176 142 -176c81 0 120 67 120 207c0 145 -41 220 -120 220z" />
    <glyph glyph-name="uni00A0" unicode="&#xa0;" horiz-adv-x="266" 
 />
    <glyph glyph-name="NULL" horiz-adv-x="0" 
 />
    <glyph glyph-name="NULL" horiz-adv-x="0" 
 />
    <glyph glyph-name="CR" unicode="&#xd;" horiz-adv-x="350" 
 />
    <glyph glyph-name="a" unicode="a" horiz-adv-x="574" 
d="M344 190v95c-111 -51 -169 -91 -169 -138c0 -39 24 -63 56 -63c65 0 113 47 113 106zM203 277l141 61v42c0 77 -27 111 -84 111c-38 0 -55 -19 -72 -67c-12 -33 -33 -53 -71 -53c-37 0 -58 24 -58 65c0 63 71 104 211 104c150 0 208 -49 208 -176v-219
c0 -57 11 -85 34 -85c13 0 24 4 35 13l15 -29c-18 -33 -61 -54 -110 -54c-61 0 -94 39 -94 107h-5c-38 -69 -102 -106 -180 -106c-83 0 -139 52 -139 128c0 58 48 109 169 158z" />
    </font>
</defs>
</svg>
