<?xml version="1.0" standalone="no"?>
<!DOCTYPE svg PUBLIC "-//W3C//DTD SVG 1.1//EN" "http://www.w3.org/Graphics/SVG/1.1/DTD/svg11.dtd" >
<svg xmlns="http://www.w3.org/2000/svg" xmlns:xlink="http://www.w3.org/1999/xlink" version="1.1">
<metadata>
Created by FontForge 20170731 at Thu Jul 25 20:47:50 2013
 By Aleksey,,,
Copyright (c) 2013 by Guilherme Schneider Denzin. All rights reserved.
</metadata>
<defs>
<font id="Kraftstoff-Regular" horiz-adv-x="325" >
  <font-face 
    font-family="Kraftstoff"
    font-weight="400"
    font-stretch="normal"
    units-per-em="1000"
    panose-1="0 0 5 0 0 0 0 0 0 0"
    ascent="800"
    descent="-200"
    x-height="500"
    cap-height="722"
    bbox="-54 -315 814 976"
    underline-thickness="50"
    underline-position="-200"
    unicode-range="U+0020-25CA"
  />
<missing-glyph horiz-adv-x="500" 
d="M0 0v700h500v-700h-500zM250 395l170 255h-340zM280 350l170 -255v510zM80 50h340l-170 255zM50 605v-510l170 255z" />
    <glyph glyph-name=".notdef" horiz-adv-x="500" 
d="M0 0v700h500v-700h-500zM250 395l170 255h-340zM280 350l170 -255v510zM80 50h340l-170 255zM50 605v-510l170 255z" />
    <glyph glyph-name=".null" horiz-adv-x="0" 
 />
    <glyph glyph-name="nonmarkingreturn" horiz-adv-x="333" 
 />
    <glyph glyph-name="space" unicode=" " horiz-adv-x="200" 
 />
    <glyph glyph-name="exclam" unicode="!" horiz-adv-x="113" 
d="M25 686l7 -513q0 -35 24 -35q8 0 16.5 5t8.5 14l7 538q0 22 -31 22q-32 0 -32 -31zM26 40q0 -40 18 -40q40 0 40 19v42q0 10 -10 16.5t-24 6.5q-15 0 -19.5 -8t-4.5 -36z" />
    <glyph glyph-name="quotedbl" unicode="&#x22;" horiz-adv-x="194" 
d="M25 719q8 -61 8 -76q0 -33 17 -33q10 0 18.5 10t8.5 18q0 5 2 43.5t2 45.5q0 20 -33 20q-23 0 -23 -28zM113 719q6 -61 6 -76q0 -12 5 -22.5t14 -10.5q10 0 18 10t8 18q0 5 2.5 43.5t2.5 45.5q0 20 -33 20q-23 0 -23 -28z" />
    <glyph glyph-name="numbersign" unicode="#" horiz-adv-x="596" 
d="M524 370h-90q-11 -79 -18 -134h98q11 0 22 -12.5t10 -25.5q-4 -24 -47 -24h-92l-10 -88q-5 -38 -33 -38q-18 0 -24.5 6.5t-4.5 20.5q0 18 12 99h-138l-12 -88q-2 -38 -33 -38q-18 0 -24.5 6.5t-4.5 20.5q0 2 1.5 14.5t4.5 37t6 47.5h-88q-18 0 -27 6t-6 23q7 33 31 33h99
q15 121 16 134h-88q-18 0 -26.5 5.5t-6.5 22.5q4 32 31 32h99q11 92 11 100q2 11 15.5 23.5t26.5 12.5q12 0 16.5 -13.5t1.5 -29.5q0 -12 -9 -93h138q10 83 10 100q2 11 15.5 23.5t27.5 12.5q12 0 16.5 -13.5t1.5 -29.5q0 -10 -11 -93h100q11 0 21.5 -11.5t8.5 -24.5
q-2 -24 -47 -24zM217 236h137q11 75 18 134h-138q-3 -20 -8.5 -66.5t-8.5 -67.5z" />
    <glyph glyph-name="dollar" unicode="$" horiz-adv-x="333" 
d="M81 98l1 -1q7 -45 58 -51h2v357q-12 15 -26 29q-2 2 -7 7.5t-8 8.5q-25 27 -37.5 42t-25.5 43t-13 55q0 54 31 88t86 41v40q0 31 21 31q29 0 29 -22v-50q79 -13 105 -81q1 -5 1 -8q-22 -15 -44 -18q-10 5 -12 10q-15 37 -50 46v-236q90 -101 108 -188q22 -115 -16 -180
q-28 -49 -92 -62v-55q0 -19 -32 -19q-18 0 -18 35v35q-2 1 -5.5 1t-5.5 1q-40 5 -68 27.5t-36 56.5q11 12 23 16q8 2 15.5 2.5t11.5 -0.5zM82 588q0 -38 60 -104v183q-60 -11 -60 -79zM232 83q34 58 12 149q-10 49 -52 108v-289q26 9 40 32z" />
    <glyph glyph-name="percent" unicode="%" horiz-adv-x="623" 
d="M441 723l-310 -695q-12 -32 5 -38q9 -5 25 -1.5t19 11.5q2 5 157.5 354t157.5 355q10 18 -22 32q-19 11 -32 -18zM228 592v-86q0 -40 -31.5 -63t-70 -23t-70 23t-31.5 63zM68 583v-67q1 0 0 -5.5t2 -14t8 -16.5t18 -13.5t31 -5.5q31 0 45.5 13.5t13.5 27.5l-1 14v67
q0 2 0.5 5.5t-1 12.5t-6.5 16t-18 12.5t-33 5.5q-29 0 -43.5 -13t-15.5 -26v-13zM598 192v-86q0 -40 -31.5 -63t-70 -23t-70 23t-31.5 63zM438 183v-67q1 0 0 -5.5t2 -14t8 -16.5t18 -13.5t31 -5.5q31 0 45.5 13.5t13.5 27.5l-1 14v67q0 2 0.5 5.5t-1 12.5t-6.5 16t-18 12.5
t-33 5.5q-29 0 -43.5 -13t-15.5 -26v-13z" />
    <glyph glyph-name="ampersand" unicode="&#x26;" horiz-adv-x="563" 
d="M513 314q-2 -120 -51 -204q29 -36 51 -58q-4 -19 -16 -32q-7 -7 -16 -11q-26 26 -49 56q-74 -82 -175 -82q-84 0 -144 58q-63 60 -63 161q0 28 7.5 50.5t24.5 43.5t30 33t39 34q36 29 55 49q-50 128 -50 229q0 42 34 66q25 22 64 22q35 0 61 -21q28 -26 28 -67
q0 -122 -52 -208q-14 -19 -23 -30q45 -91 99 -170q32 -46 60 -80q32 72 33 157q24 13 53 4zM254 676q-17 0 -32 -8.5t-15 -26.5q0 -82 37 -181l2 2q46 74 46 179q0 13 -11 26q-9 9 -27 9zM393 103l3 3q-48 62 -72 96q-60 90 -94 161q-9 -8 -24.5 -22.5t-20.5 -18.5
q-31 -26 -44.5 -38.5t-26 -34.5t-12.5 -47q0 -75 48 -123q46 -43 107 -43q78 0 136 67z" />
    <glyph glyph-name="quotesingle" unicode="'" horiz-adv-x="106" 
d="M25 679q6 -61 6 -76q0 -12 5 -22.5t14 -10.5q10 0 18 10t8 18q0 5 2.5 43.5t2.5 45.5q0 20 -33 20q-23 0 -23 -28z" />
    <glyph glyph-name="parenleft" unicode="(" horiz-adv-x="178" 
d="M25 69v568q0 47 36.5 73t86.5 26q11 -21 0 -46q-36 0 -54.5 -16t-19.5 -32v-17v-544q1 -1 0 -7t3 -15.5t10 -19t22 -16t39 -6.5q5 -11 5 -22.5t-3 -17.5l-2 -6q-50 -1 -86.5 25t-36.5 73z" />
    <glyph glyph-name="parenright" unicode=")" horiz-adv-x="178" 
d="M104 81v544q-1 1 0 7t-3 16t-10 19t-22 16t-39 7q-5 11 -5 22.5t3 17.5l2 6q50 0 86.5 -26t36.5 -73v-568q0 -47 -36.5 -73t-86.5 -25q-11 21 0 46q36 0 54.5 16t19.5 32v16z" />
    <glyph glyph-name="asterisk" unicode="*" horiz-adv-x="213" 
d="M170 524q22 -13 15 -29q-13 -22 -29 -15q-2 1 -7.5 4.5l-11 7t-10.5 7.5v-22q3 -26 -15 -27q-27 -2 -28 15q-2 13 0 37l-18 -12q-22 -17 -32 -3q-19 21 -3 32q11 9 32 22q-5 3 -12.5 8t-12 8.5t-7.5 5.5q-13 12 3 32q9 13 32 -1l18 -15v7v16.5v12.5q2 20 28 16
q11 -1 13 -7t2 -21v-20q6 5 17 11t12 7q18 9 29 -15q9 -15 -15 -29l-30 -16z" />
    <glyph glyph-name="plus" unicode="+" horiz-adv-x="512" 
d="M456 343q31 0 31 -24q0 -34 -22 -34h-180v-171q0 -31 -24 -31q-34 0 -34 22v180h-183q-19 0 -19 37q0 21 35 21h167v183q0 19 37 19q21 0 21 -35v-167h171z" />
    <glyph glyph-name="comma" unicode="," horiz-adv-x="130" 
d="M99 13q-15 -48 -22 -68q-14 -40 -39 -31q-23 7 -2 79q0 2 -5 10t-4 16q9 29 9 30q11 27 50 13q27 -8 13 -49z" />
    <glyph glyph-name="hyphen" unicode="-" horiz-adv-x="474" 
d="M418 316h-358q-35 0 -35 -21q0 -37 19 -37h383q22 0 22 34q0 24 -31 24z" />
    <glyph glyph-name="period" unicode="." horiz-adv-x="133" 
d="M25 44q0 -19 6 -36t18 -17q59 0 59 25v56q0 13 -14 21.5t-37 8.5q-20 0 -26 -10t-6 -48z" />
    <glyph glyph-name="slash" unicode="/" horiz-adv-x="421" 
d="M340 704l-310 -695q-12 -32 5 -38q9 -5 25 -1.5t19 11.5q2 5 157.5 354t157.5 355q10 18 -22 32q-19 11 -32 -18z" />
    <glyph glyph-name="zero" unicode="0" horiz-adv-x="319" 
d="M262 620q1 -8 11.5 -68t17 -129t2.5 -137q-16 -220 -48 -260q-16 -21 -47.5 -29.5t-77.5 4.5q-62 22 -74 142q0 2 -5 28.5t-8 53.5t-6 66.5t-1.5 87.5t8.5 97q17 105 30.5 151.5t32.5 56.5q11 6 26 10.5t25 5.5l9 2q37 0 69 -23t36 -59zM239 320q1 48 -4 126t-8 87
q-2 5 -7.5 43.5t-6.5 42.5q-4 12 -17.5 23.5t-29.5 11.5q-74 0 -86 -259q-4 -87 6 -168t22.5 -123t22.5 -54q24 -20 45 -9.5t34 42.5q21 49 29 237z" />
    <glyph glyph-name="one" unicode="1" horiz-adv-x="155" 
d="M74 540v-516q0 -11 8 -18t21 -7h7h6.5t5 0.5t4 2t2 4t2 6t0.5 9.5v650q0 31 -19 31h-17q-10 0 -15.5 -5.5t-5.5 -25.5q0 -31 -41 -53q-3 -3 -5 -6.5t-2 -8.5t0.5 -7.5t2 -9t1.5 -8.5q1 -19 26 -19q6 0 9 -0.5t6.5 -5t3.5 -13.5z" />
    <glyph glyph-name="two" unicode="2" horiz-adv-x="312" 
d="M25 594q0 -13 13.5 -17.5t27 -0.5t13.5 10q0 22 23.5 42.5t54.5 20.5q28 0 45.5 -13t22 -30.5t4 -33t-4.5 -24.5q-195 -439 -195 -456v-68q0 -25 34 -25h206q10 0 14 14.5t0 29.5t-13 15h-176q-18 0 -7 25q9 28 187 444q29 68 -3 117t-98 56q-60 8 -104 -25t-44 -81z" />
    <glyph glyph-name="three" unicode="3" horiz-adv-x="323" 
d="M27 676v-36q0 -14 14 -14q3 0 11.5 7t16.5 7h150q6 0 7 -1t1 -6q-4 -4 -72 -107.5t-72 -107.5v-35q0 -21 23 -21h77q28 0 45.5 -15.5t12.5 -42.5q-20 -64 -57 -119t-69.5 -84.5t-59.5 -51t-28 -23.5q-4 -13 0 -25t10.5 -17t10.5 -1q65 38 116.5 89t79 97t41 81.5
t13.5 53.5q0 36 -23 60.5t-44 32t-33 7.5h-36q-6 0 -9 8t2 14l129 193q11 16 6 47t-20 31h-222q-10 0 -14.5 -2.5t-5.5 -6t-1 -12.5z" />
    <glyph glyph-name="four" unicode="4" horiz-adv-x="309" 
d="M53 637q8 -83 8 -155q0 -46 -14 -132.5t-20 -103.5q-9 -23 11 -23h124q16 0 16 -8v-205q0 -8 14 -11.5t28 -1.5t14 6v194q0 20 6 20h26q7 0 12.5 3.5t5.5 7.5v21q0 20 -13 20h-24q-10 0 -10 8v422q0 11 -29.5 9.5t-29.5 -9.5v-412q0 -18 -13 -18h-57q-8 0 -12 0.5
t-5.5 1.5t-0.5 3q9 27 18 88q20 135 2 262q0 26 -20 26h-21q-16 0 -16 -13z" />
    <glyph glyph-name="five" unicode="5" horiz-adv-x="315" 
d="M276 700h-209q-30 0 -30 -21v-292q0 -10 5.5 -15t11.5 -6t19 -1h117q11 0 20.5 -3.5t19.5 -19t10 -41.5q0 -39 -29.5 -85.5t-68.5 -82t-69 -59.5t-39 -28q-16 -9 0 -44q1 -3 3 -5t4 -2.5t5 0.5l4.5 1.5t6 2.5t6.5 3q94 64 160.5 150.5t66.5 142.5q0 58 -26 89.5t-74 31.5
h-88q-15 0 -15 6v199q0 10 0.5 14.5t6 9t15.5 4.5h173q4 0 5 12.5t-2 25.5t-9 13z" />
    <glyph glyph-name="six" unicode="6" horiz-adv-x="320" 
d="M265 650q-48 -23 -84 -57t-54 -65t-28.5 -63.5t-13 -47.5t-2.5 -22q0 -14 8 -14q43 22 73 22q70 0 100.5 -40.5t30.5 -98.5v-131q-7 -61 -34.5 -99.5t-96.5 -38.5q-36 0 -63.5 14t-42.5 37.5t-22.5 46t-10.5 47.5v161q0 28 3.5 77t3.5 61q6 30 16.5 58t24.5 50.5
t28.5 41.5t31.5 34.5t31.5 27t30.5 21t25.5 15t19.5 9.5l10 5q20 4 23.5 -21t-8.5 -30zM171 344q-40 0 -64 -23.5t-24 -92.5v-95q9 -64 72 -80q78 0 78 80q0 6 1.5 49.5t1.5 81.5q0 44 -21 62t-44 18z" />
    <glyph glyph-name="seven" unicode="7" horiz-adv-x="312" 
d="M25 692v-47q0 -21 37 -21q8 0 8 21q0 15 21 15h126q11 0 11.5 -1t-4.5 -7q0 -3 -5 -13.5t-22 -49.5t-38 -94q-71 -186 -71 -472q0 -20 13 -25.5t25 -1.5l13 5v51q0 112 16 214.5t41 175t40 107t29 60.5l9 18t7.5 14t4 10.5t1.5 14.5q0 24 -6.5 32.5t-22.5 8.5h-206
q-18 0 -22.5 -2t-4.5 -13z" />
    <glyph glyph-name="eight" unicode="8" horiz-adv-x="310" 
d="M231 416q6 -9 15 -26t24 -64.5t15 -90.5q-3 -45 -9 -79t-19.5 -73t-39.5 -60.5t-63 -21.5q-74 0 -106 66t-20 182q3 31 11 61.5t17 52t17 38.5t13 27l6 9q-34 39 -34 114q0 60 25.5 102t69.5 42q47 0 76.5 -37t29.5 -95q0 -40 -9.5 -75t-16 -51t-2.5 -21zM158 640
q-29 -6 -42 -26t-11.5 -42t2.5 -44q3 -29 20 -50t34 -19q25 3 37.5 35t9.5 71q0 28 -5.5 45.5t-15.5 23t-15.5 6.5t-13.5 0zM231 217q6 67 -17 123t-46 56q-49 0 -73.5 -67t-24.5 -152q0 -54 22.5 -89t51.5 -35q12 0 22.5 3t18 6t14 11.5t10.5 14t7.5 17.5t5 18.5t3.5 22.5
t2.5 22.5t2 24.5t1.5 24z" />
    <glyph glyph-name="nine" unicode="9" horiz-adv-x="322" 
d="M55 44q48 23 84.5 57.5t54.5 65.5t29 63t13.5 47.5t2.5 22.5q0 15 -9 15q-43 -23 -73 -23q-71 0 -101.5 41t-30.5 100v131q7 62 35 101t97 39q37 0 64.5 -14.5t42.5 -38.5t22.5 -46.5t10.5 -47.5v-162q0 -29 -3.5 -78t-3.5 -61q-10 -50 -34 -94.5t-47.5 -71t-56 -50
t-46 -30.5t-32.5 -16q-3 -2 -4 -2q-20 -4 -23.5 21t8.5 31zM150 352q41 0 65 23.5t24 93.5v95q-10 65 -73 81q-79 0 -79 -81q0 -6 -1 -50t-1 -81q0 -44 20.5 -62.5t44.5 -18.5z" />
    <glyph glyph-name="colon" unicode=":" horiz-adv-x="127" 
d="M25 455q0 -19 6 -36t18 -17q20 0 36.5 6.5t16.5 18.5v56q0 13 -13 21.5t-32 8.5q-20 0 -26 -10t-6 -48zM25 155q0 -19 6 -36t18 -17q20 0 36.5 6.5t16.5 18.5v56q0 13 -13 21.5t-32 8.5q-20 0 -26 -10t-6 -48z" />
    <glyph glyph-name="semicolon" unicode=";" horiz-adv-x="135" 
d="M33 275q0 -19 6 -36t18 -17q20 0 36.5 6.5t16.5 18.5v56q0 13 -13 21.5t-32 8.5q-20 0 -26 -10t-6 -48zM99 13q-15 -48 -22 -68q-14 -40 -39 -31q-23 7 -2 79q0 2 -5 10t-4 16q9 29 9 30q11 27 50 13q27 -8 13 -49z" />
    <glyph glyph-name="less" unicode="&#x3c;" horiz-adv-x="376" 
d="M115 293l222 118q12 7 13.5 17.5t-8.5 20.5q-18 19 -39 9l-260 -142q-13 -6 -16.5 -19t4.5 -19q9 -6 132.5 -76.5t139.5 -78.5q21 -11 39 9q11 10 9.5 20.5t-14.5 17.5z" />
    <glyph glyph-name="equal" unicode="=" horiz-adv-x="512" 
d="M456 445h-396q-35 0 -35 -21q0 -37 19 -37h421q22 0 22 34q0 24 -31 24zM456 306h-396q-35 0 -35 -21q0 -37 19 -37h421q22 0 22 34q0 24 -31 24z" />
    <glyph glyph-name="greater" unicode="&#x3e;" horiz-adv-x="376" 
d="M261 292l-222 -123q-13 -7 -14.5 -17.5t9.5 -20.5q18 -20 39 -9q16 8 139.5 78.5t132.5 76.5q8 6 4.5 19t-16.5 19q-248 137 -260 143q-21 10 -39 -9q-10 -10 -8.5 -20.5t13.5 -17.5z" />
    <glyph glyph-name="question" unicode="?" horiz-adv-x="340" 
d="M300 650q30 -60 5 -130q-7 -22 -42 -90q-3 -7 -17 -32.5t-21 -41.5t-10 -33q-13 -68 -10 -177q-27 -18 -56 -1q-2 61 1.5 98.5t18.5 90.5q16 57 45 116q25 47 38 84q18 52 -4 95q-14 26 -40 35q-21 3 -33 3.5t-29 -9t-26.5 -17t-25 -20t-24.5 -19.5q-11 -9 -34 14
q-17 17 -9 25q16 13 27 22t28.5 21.5t33.5 19t34.5 12.5t38 5.5t39.5 -7.5q21 -7 41 -25.5t31 -38.5zM150 40q0 -40 18 -40q40 0 40 19v42q0 10 -10 16.5t-24 6.5q-15 0 -19.5 -8t-4.5 -36z" />
    <glyph glyph-name="at" unicode="@" horiz-adv-x="799" 
d="M365 472v21q3 12 14 16q47 0 81 -28q51 -43 56 -123l-1 -192q3 -42 17 -58t49 -16q37 0 71 44t48 110q11 40 7.5 86t-18 87.5t-50 79t-87.5 61.5q-89 40 -179 26.5t-162 -78.5q-74 -67 -99.5 -160t5.5 -186q43 -137 165 -193q46 -22 100.5 -31t92 -7.5t65.5 7.5
q1 -3 4 -10.5l5 -12.5q3 -14 3 -25q-40 -9 -91 -9q-111 0 -200 43q-140 68 -190 223q-35 106 -6 214.5t113 183.5q83 74 187.5 90t206.5 -30q50 -23 87 -57.5t57 -72t30.5 -80.5t10 -82.5t-8.5 -77.5q-18 -85 -64.5 -138t-102.5 -53q-52 0 -80 25q-3 -1 -13 -1q-70 0 -100 3
q-12 2 -25.5 7t-31.5 18.5t-28 36t-15.5 58t7.5 85.5q10 38 39 69q56 45 118 61q-9 20 -30 36l-12 9q-18 9 -31 9q-11 5 -14 12zM467 143v190q2 10 0 15q-2 10 -19 10q-51 0 -86 -57t-25 -108q7 -33 30.5 -56.5t56.5 -23.5q26 0 34.5 5.5t8.5 24.5z" />
    <glyph glyph-name="A" unicode="A" horiz-adv-x="330" 
d="M215 696q2 -9 46 -339t44 -341q0 -18 -21 -18q-28 0 -31 15q0 2 -3.5 27t-10 75.5t-12.5 98.5q-3 11 -10 11h-104q-7 0 -10 -11q-6 -48 -12.5 -98.5t-10 -75.5t-3.5 -27q-2 -15 -31 -15q-21 0 -21 18q0 10 43.5 339t45.5 341q5 18 20 18h62q19 0 19 -18zM133 287h64
q11 0 14 2.5t0 15.5q-10 70 -20.5 161.5t-16.5 140t-7 48.5h-4q-1 0 -7 -48.5t-16.5 -140t-20.5 -161.5q-3 -13 0 -15.5t14 -2.5z" />
    <glyph glyph-name="B" unicode="B" horiz-adv-x="310" 
d="M184 405q0 -2 10.5 -12.5t25 -29.5t29.5 -44t25.5 -63.5t10.5 -80.5q0 -71 -39.5 -120t-91.5 -54q-21 -2 -112 -2q-17 0 -17 41l1 646q0 30 27 30q73 0 104 -3q12 -2 25 -7t31.5 -19t28.5 -36.5t16 -59t-7 -86.5q-8 -31 -25 -53.5t-29.5 -32.5t-12.5 -14zM74 640v-198
q0 -23 20 -23q23 0 69 42t46 99q0 59 -28 84.5t-61 25.5q-28 0 -37 -5t-9 -25zM102 48q14 0 32 4.5t41.5 15.5t41 37t19.5 62q3 48 -18.5 95.5t-40.5 69t-30 29.5q-3 2 -7.5 4t-16.5 6t-21.5 3t-17 -10t-7.5 -27v-253q0 -13 0.5 -18.5t6.5 -11.5t18 -6z" />
    <glyph glyph-name="C" unicode="C" horiz-adv-x="308" 
d="M77 601v-488q1 -25 19.5 -45.5t54.5 -20.5q30 0 53 20.5t23 40.5q0 7 14 11.5t28 0t14 -18.5q0 -47 -44 -79.5t-103 -25.5q-49 6 -81 38.5t-30 78.5v486q-2 47 29.5 79.5t81.5 38.5q59 7 103 -25.5t44 -79.5q0 -13 -14 -17.5t-28 -0.5t-14 11q0 20 -23 41t-53 21
q-36 0 -54.5 -20.5t-19.5 -45.5z" />
    <glyph glyph-name="D" unicode="D" horiz-adv-x="303" 
d="M278 559v-401q0 -1 0.5 -14.5t0 -19t-1.5 -20t-4.5 -22t-8 -20.5t-13 -20.5t-19.5 -16.5t-27 -14t-35 -7q-39 -4 -119 -4h-3h-2h-5q-16 2 -16 24v668q0 23 16 26h5q85 0 124 -5q19 -2 35 -7t27 -13.5t19.5 -16.5t13 -21t8 -20.5t4.5 -22t1.5 -20t0 -19t-0.5 -14.5z
M225 152v413q0 3 0.5 16t0 18t-2 16t-6 16t-11.5 12t-18.5 10.5t-27.5 5.5h-68q-17 0 -17 -21v-563q0 -19 17 -19h68q16 2 27.5 5.5t18.5 11t11.5 12.5t6 16t2 16t0 18.5t-0.5 16.5z" />
    <glyph glyph-name="E" unicode="E" horiz-adv-x="301" 
d="M25 27v660q0 23 17 28h5h225q5 -2 3.5 -15t-9 -28t-13.5 -15h-154q-17 0 -17 -21v-174q0 -18 16 -18h96q13 0 14 -15t-6.5 -30t-15.5 -15h-87q-17 0 -17 -14v-292q0 -21 17 -21h153q6 0 13 -15t8.5 -27.5t-4.5 -14.5h-218h-2h-2h-5q-17 4 -17 27z" />
    <glyph glyph-name="F" unicode="F" horiz-adv-x="279" 
d="M25 687v-670q0 -11 3.5 -16.5t7 -6t11.5 -0.5q9 0 21.5 6.5t12.5 13.5v352q0 12 18 12h81q8 0 15.5 15t6.5 30.5t-15 15.5h-89q-17 0 -17 18v178q0 22 18 22h132q7 0 14 15t8.5 27.5t-3.5 14.5h-198q-18 0 -22.5 -5.5t-4.5 -21.5z" />
    <glyph glyph-name="G" unicode="G" horiz-adv-x="308" 
d="M283 85v-1v-2v-4q-3 -45 -46.5 -75t-99.5 -23q-50 6 -81.5 38t-30.5 80v506q-1 47 30.5 79t81.5 39q59 8 102.5 -25t43.5 -80q0 -13 -13.5 -17.5t-27 -0.5t-13.5 11q0 20 -23 41t-53 21q-37 0 -56 -20.5t-20 -46.5v-508q1 -26 20 -47t56 -21q29 0 52 20.5t24 40.5v178
q0 10 -10 10h-40q-32 0 -32 19q0 10 9.5 23t17.5 13q48 11 81 0q14 -5 21 -22t7 -31v-15v-180z" />
    <glyph glyph-name="H" unicode="H" horiz-adv-x="314" 
d="M235 443v248q0 28 22 28q32 0 32 -20v-686q0 -7 -11.5 -13t-22.5 -6q-19 0 -19 25v339q-2 17 -17 17h-120q-17 0 -18 -12v-351q0 -8 -11.5 -13.5t-23.5 -5.5q-21 0 -21 23v675q0 28 24 28q32 0 32 -20v-248q0 -19 10 -20h135q9 1 9 12z" />
    <glyph glyph-name="I" unicode="I" horiz-adv-x="105" 
d="M25 693v-672q0 -11 4 -15t15 -4q36 0 36 14v686q0 20 -33 20q-22 0 -22 -29z" />
    <glyph glyph-name="J" unicode="J" horiz-adv-x="258" 
d="M180 108v592q-2 16 9 16h33q6 0 9 -8t3 -16l-1 -7v-576q2 -46 -30 -77.5t-81 -38.5q-51 -7 -95 21q-7 18 7 32q7 7 15 9.5t13 1.5l4 -1q16 -12 39 -12q36 0 54.5 19t20.5 45z" />
    <glyph glyph-name="K" unicode="K" horiz-adv-x="324" 
d="M296 19l3 -10q2 -14 -18 -18q-9 -1 -18.5 4t-14.5 11l-6 5l-141 315l-19 -43v-271q0 -8 -7.5 -12.5t-14.5 -5.5h-8q-18 0 -22.5 5.5t-4.5 20.5v677q0 14 4.5 18.5t22.5 4.5q30 1 30 -18v-284q0 -1 1 -2l156 292q1 1 4 2.5t12 3.5t18 1t14 -4.5t5.5 -6t-0.5 -4.5
l-165 -305z" />
    <glyph glyph-name="L" unicode="L" horiz-adv-x="285" 
d="M25 26v664q0 13 3 18.5t14 7.5q38 5 38 -15v-626q0 -21 18 -21h151q6 0 9 -14t1 -27.5t-9 -13.5h-208q-11 1 -14 7t-3 20z" />
    <glyph glyph-name="M" unicode="M" horiz-adv-x="365" 
d="M77 707l100 -246q100 216 110 245q5 10 39 10q5 0 8.5 -4.5t4.5 -9.5l1 -4l-2 -682q0 -21 -17 -21q-11 0 -22.5 4.5t-11.5 12.5v537l-89 -178q-5 -10 -21 -12.5t-19 3.5q0 2 -20.5 49t-41 93.5t-19.5 44.5v-537q0 -8 -11.5 -12.5t-22.5 -4.5q-18 0 -18 21v684
q-1 13 12 15t27 -3l13 -4v-1z" />
    <glyph glyph-name="N" unicode="N" horiz-adv-x="314" 
d="M258 714q31 0 31 -20v-675q0 -8 -12 -17.5t-23 -9.5q-5 0 -10 5q-7 6 -13 21q-2 4 -26 82t-63 204.5t-63 203.5v-489q0 -8 -12 -17.5t-23 -9.5q-18 0 -18 32l-1 663v2q0 8 2 12q5 13 20 13h5q18 2 24 -10q3 -3 3 -10q6 -19 66 -221.5t91 -302.5l-1 517q0 27 23 27z" />
    <glyph glyph-name="O" unicode="O" horiz-adv-x="318" 
d="M25 97v519q0 41 27.5 69.5t67 35t79 -0.5t67 -35t27.5 -69q-2 -11 0 -519q0 -41 -27.5 -69t-67 -35t-79 -0.5t-67 35t-27.5 69.5zM78 604v-495q0 -3 0.5 -7.5t4.5 -16.5t11.5 -21.5t24.5 -17t40 -7.5q39 0 58.5 17.5t20.5 35.5v17v495q-1 1 0.5 7.5t-3 17t-11 20.5
t-24 17t-41.5 7q-36 0 -56.5 -17.5t-22.5 -34.5z" />
    <glyph glyph-name="P" unicode="P" horiz-adv-x="317" 
d="M179 379q-15 -3 -83 -3q-13 0 -13 -13v-342q0 -7 -13.5 -17t-22.5 -10q-21 0 -21 31l-1 665q0 15 4.5 20.5t22.5 5.5q90 0 115 -3q125 -13 125 -148v-14v-8v-15t-5.5 -34.5t-15.5 -46t-34 -40.5t-58 -28zM80 638v-185q0 -17 17 -17h53q26 2 43.5 11t26 19.5t13 27
t4.5 25.5v24q-1 55 -12 75q-19 33 -69 39q-18 2 -58 2q-18 0 -18 -21z" />
    <glyph glyph-name="Q" unicode="Q" horiz-adv-x="315" 
d="M288 607v-508q0 -54 -50 -85q43 -20 50 -44q5 -17 -1 -31t-14.5 -19.5t-10.5 -1.5q-61 67 -121 73q-50 1 -83 33.5t-33 74.5v508q0 43 37 75.5t90 33.5h9q53 -1 90 -33.5t37 -75.5zM78 595v-483q1 -1 0 -7.5t3 -17t11 -20.5t24 -17t41 -7t40.5 7t23.5 17t11 20.5t4 17.5
v7v483q-1 1 0 7.5t-3 17t-11 20.5t-24 17t-41 7q-36 0 -55.5 -17t-21.5 -35z" />
    <glyph glyph-name="R" unicode="R" 
d="M181 376l119 -360q-2 -16 -23 -18q-9 -1 -18 2.5t-14 7.5l-5 4q-103 316 -114 348q-4 12 -13 12h-19q-14 0 -14 -12v-344q0 -8 -11.5 -13.5t-21.5 -5.5h-5h-4.5t-4 0.5t-4 2t-2 4t-2 6t-0.5 8.5v673q0 15 4.5 21t21.5 6q84 0 118 -4q22 -2 40.5 -8t31 -15.5t22 -18.5
t15.5 -23.5t10 -24t5.5 -25.5t2 -23t0.5 -21.5v-15.5v-14.5t-5.5 -34.5t-16 -45t-35 -40.5t-58.5 -28.5zM80 639v-188q0 -18 17 -18h17.5h22h14.5q96 5 93 111q0 17 -0.5 27.5t-5.5 27.5t-13.5 27.5t-25.5 19.5t-42 12q-18 2 -59 2q-18 0 -18 -21z" />
    <glyph glyph-name="S" unicode="S" horiz-adv-x="301" 
d="M270 235q17 -109 -13 -173q-15 -30 -43.5 -48t-62.5 -18t-40 2q-33 5 -56 27.5t-30 55.5l10 12l10 6q6 2 12 3t9 0h4l1 -1q6 -43 47 -49q23 -5 49.5 2.5t36.5 28.5q25 49 10 144q-14 89 -105 207q-2 2 -6 7t-7 8q-21 28 -30.5 41.5t-20.5 40.5t-11 53q0 57 36 94t90 37
q37 0 69 -23t44 -60l1 -7q-22 -18 -43 -21q-7 5 -9 10q-16 48 -62 48q-69 0 -69 -78q0 -39 63 -118q52 -66 79 -116.5t37 -114.5z" />
    <glyph glyph-name="T" unicode="T" horiz-adv-x="345" 
d="M145 17v636q0 11 -9 11h-77q-34 0 -34 19q0 11 10 22t19 11h245q21 0 21 -29q0 -24 -30 -24h-70q-17 0 -20 -14v-637q0 -16 -33 -16q-21 0 -22 21z" />
    <glyph glyph-name="U" unicode="U" horiz-adv-x="320" 
d="M79 702v-584q1 -1 0 -7.5t3.5 -17.5t11 -21t24 -17.5t42.5 -7.5q24 0 41 7.5t24.5 17.5t11.5 20.5t4 17.5v8v585q0 6 3.5 9.5t7.5 3.5l3 1h27q6 0 9.5 -3.5t3.5 -7.5v-3v-596v-1q0 -45 -37.5 -78t-92.5 -34h-10q-54 1 -92 34.5t-38 78.5v598q-1 12 11 12h26q8 0 12 -3.5
t4 -7.5z" />
    <glyph glyph-name="V" unicode="V" horiz-adv-x="334" 
d="M164 57h5q1 0 10 65.5t21.5 160.5t25 189t21.5 162t9 69q2 16 30 16q23 0 23 -19q0 -10 -44 -339.5t-47 -344.5q-4 -18 -19 -18h-64q-16 0 -20 18q-2 15 -46 344.5t-44 339.5q0 19 21 19q29 0 31 -16q0 -1 9 -69t21.5 -162t25 -189t21.5 -160.5t10 -65.5z" />
    <glyph glyph-name="W" unicode="W" horiz-adv-x="495" 
d="M327 55h4q2 0 23 160t42 322t22 164q2 16 30 16q22 0 22 -18q0 -10 -43.5 -337.5t-46.5 -347.5q-3 -17 -20 -17h-62q-18 0 -21 17q-1 6 -30 224q-29 -218 -30 -224q-3 -17 -20 -17h-62q-17 0 -20 17q-3 20 -46.5 347.5t-43.5 337.5q0 18 22 18q28 0 30 -16q1 -2 22 -164
t42 -322t23 -160h4q1 0 53 384q-7 53 -16.5 123t-13.5 102t-4 35q0 18 22 18q28 0 30 -16q0 -1 9 -68.5t21.5 -162l25 -189t22 -160.5t10.5 -66z" />
    <glyph glyph-name="X" unicode="X" horiz-adv-x="321" 
d="M190 371l103 -338q9 -27 -12 -34q-31 -11 -37 8l-83 284q-82 -279 -84 -284q-6 -19 -37 -8q-21 7 -12 34l103 338l-103 308q-9 27 12 34q31 11 37 -8q1 -2 22 -65.5t41 -125.5l21 -62l21 62q20 62 40.5 125.5t21.5 65.5q6 19 37 8q21 -7 12 -34q-7 -20 -17.5 -51.5
t-33 -99.5t-37.5 -112z" />
    <glyph glyph-name="Y" unicode="Y" horiz-adv-x="310" 
d="M155 459l80 246q6 19 35 8q21 -7 12 -33l-100 -304v-364q0 -5 -12.5 -10.5t-22.5 -5.5q-16 0 -18 19v360l-101 305q-9 26 12 33q29 11 35 -8z" />
    <glyph glyph-name="Z" unicode="Z" horiz-adv-x="334" 
d="M59 716h223q16 0 21.5 -4.5t5.5 -15.5v-26q0 -12 -7 -29l-213 -566q-8 -21 4 -21h193q19 0 12 -27q-9 -25 -23 -28h-236q-14 0 -14 52l217 588q3 11 0.5 13.5t-14.5 2.5h-168q-8 0 -13 15.5t-2 30.5t14 15z" />
    <glyph glyph-name="bracketleft" unicode="[" horiz-adv-x="177" 
d="M25 -86v819q0 14 3 20t14 7h100q7 0 9 -14t-1 -27.5t-9 -13.5h-43q-18 0 -18 -21v-721q0 -21 18 -21h43q6 0 9 -14t1 -27.5t-9 -13.5h-100q-11 1 -14 7t-3 20z" />
    <glyph glyph-name="backslash" unicode="\" horiz-adv-x="421" 
d="M391 8l-310 695q-13 29 -32 18q-32 -14 -22 -32q2 -6 157.5 -355t157.5 -354q3 -8 19 -11.5t25 1.5q17 6 5 38z" />
    <glyph glyph-name="bracketright" unicode="]" horiz-adv-x="177" 
d="M152 731v-819q0 -14 -3 -20t-14 -7h-100q-7 0 -9 13.5t1 27.5t9 14h43q18 0 18 21v721q0 21 -18 21h-43q-6 0 -9 13.5t-1 27.5t9 14h100q11 -1 14 -7t3 -20z" />
    <glyph glyph-name="asciicircum" unicode="^" horiz-adv-x="1030" 
 />
    <glyph glyph-name="underscore" unicode="_" horiz-adv-x="550" 
d="M494 0h-434q-35 0 -35 -21q0 -37 19 -37h459q22 0 22 34q0 24 -31 24z" />
    <glyph glyph-name="grave" unicode="`" horiz-adv-x="200" 
d="M156 703l-80 50q-30 19 -42 0q-21 -30 0 -42q41 -30 105 -58q9 -4 18.5 0.5t13.5 10.5q11 19 -15 39z" />
    <glyph glyph-name="a" unicode="a" horiz-adv-x="316" 
d="M118 468l-2 17q0 6 5 12t11 6q52 2 95 -25q63 -40 63 -142l1 -303q0 -34 -31 -34l-117 1q-13 0 -29 5.5t-36.5 20.5t-33 41.5t-18.5 68t7 99.5q16 56 48 85q62 53 137 72q-18 33 -34 45q-28 18 -51 18q-15 0 -15 13zM234 86v239q0 12 -21 12q-28 0 -79 -47.5t-51 -112.5
q0 -67 31.5 -96t69.5 -29q31 0 41 6t9 28z" />
    <glyph glyph-name="b" unicode="b" horiz-adv-x="330" 
d="M98 779v-280q85 -20 154 -96q32 -38 45 -100q14 -73 7.5 -125t-17.5 -84.5t-31.5 -52t-35.5 -27t-29 -9.5q-33 -6 -115 -6q-31 0 -31 42v744q0 18 27 18q26 0 26 -24zM151 51q36 0 67 40t32 133q1 46 -10.5 84t-28 60.5t-35.5 38t-33 21.5t-21 6q-14 0 -18 -4.5t-4 -20.5
v-311q0 -31 10.5 -39t40.5 -8z" />
    <glyph glyph-name="c" unicode="c" 
d="M85 368v-236q1 -30 22.5 -53.5t64.5 -23.5q34 0 62 24q27 19 44 21q12 0 18 -13.5t3 -25.5q0 -7 -3 -12q-22 -28 -60.5 -42.5t-82.5 -9.5q-57 7 -93.5 44t-34.5 92v234q-2 55 34.5 92t93.5 44q86 11 137 -44q13 -11 9 -21t-11 -16t-17 -10q-14 -2 -18.5 -1.5t-14.5 8.5
t-14 10q-24 16 -52 16q-43 0 -64.5 -23.5t-22.5 -53.5z" />
    <glyph glyph-name="d" unicode="d" horiz-adv-x="310" 
d="M285 789v-749q0 -43 -31 -43q-82 0 -116 6q-13 2 -27.5 9.5t-35 27t-32 52.5t-18 85t7.5 125q11 62 45 102q68 75 153 96v283q0 10 8.5 16t19.5 6q26 0 26 -16zM231 96v314q0 16 -5 20.5t-18 4.5q-7 0 -21 -6t-33 -22t-35.5 -38.5t-28.5 -61t-12 -84.5q2 -92 34 -132
t68 -40q30 0 40.5 7.5t10.5 37.5z" />
    <glyph glyph-name="e" unicode="e" 
d="M83 178v-43q2 -30 23.5 -53.5t63.5 -23.5q25 0 53 17q2 1 14.5 10t21.5 13.5t17 4.5q15 0 21 -13t-4 -37q-23 -29 -61 -43.5t-80 -8.5q-58 8 -94 44.5t-33 91.5v230q-3 55 33 91.5t94 43.5q61 9 111 -23q80 -57 -8 -183q-78 -98 -172 -118zM84 377v-96q0 -16 4.5 -21.5
t18.5 -5.5q8 0 35.5 20t55 48t39.5 57.5t-12 47.5q-31 19 -55 19q-38 0 -59.5 -20.5t-26.5 -48.5z" />
    <glyph glyph-name="f" unicode="f" horiz-adv-x="206" 
d="M142 512h34q37 0 37 -21q0 -31 -3 -34h-68v-440q0 -20 -26 -20q-11 0 -18.5 5.5t-7.5 14.5v440h-47q-18 0 -18 22q0 12 0.5 15.5t4 8.5t11.5 9h49v76q-2 50 31 84.5t85 40.5q14 2 22 2q6 -26 0 -53h-3q-40 0 -60 -21t-23 -49v-80z" />
    <glyph glyph-name="g" unicode="g" horiz-adv-x="321" 
d="M296 474v-652q2 -54 -34 -90t-93 -44q-30 -4 -76 7q-16 10 -16 32q0 17 28 29q28 -10 49 -10q42 0 61 21t22 51v187q-43 -16 -86 -10q-57 7 -93 43.5t-33 90.5v233q-3 54 33 91t93 44q47 6 87 -12q5 13 29 13q29 0 29 -24zM83 372v-243q3 -31 24 -54t63 -23q13 0 24.5 3
t19 7t12.5 8.5t8 7.5l3 3v333q-26 26 -67 26q-39 0 -60.5 -19.5t-26.5 -48.5z" />
    <glyph glyph-name="h" unicode="h" horiz-adv-x="310" 
d="M285 363v-346q0 -9 -5 -13.5t-21 -4.5q-31 0 -31 19v327v28q-4 29 -24.5 48.5t-59.5 19.5q-38 0 -63 -20v-403q0 -19 -27 -19q-29 0 -29 19v703q0 19 29 19q27 0 27 -24v-227q36 15 82 10q57 -8 90.5 -44.5t31.5 -91.5z" />
    <glyph glyph-name="i" unicode="i" horiz-adv-x="109" 
d="M26 663q0 -40 18 -40q40 0 40 19v42q0 10 -10 16.5t-24 6.5q-15 0 -19.5 -8t-4.5 -36zM25 469v-434q0 -35 21 -35q37 0 37 19v459q0 22 -34 22q-24 0 -24 -31z" />
    <glyph glyph-name="j" unicode="j" horiz-adv-x="186" 
d="M119 628q-19 0 -19 40v8q0 34 19 34q34 0 34 -24v-39q0 -8 -11.5 -13.5t-22.5 -5.5zM115 501h29q8 0 12 -9.5t4 -19.5l1 -9v-648q0 -49 -31 -83.5t-80 -42.5q-3 -3 -5.5 -1.5t-2.5 4.5q-4 3 -10.5 19t-6.5 23q0 8 5 8q34 3 52 24.5t21 48.5v665q0 21 12 21z" />
    <glyph glyph-name="k" unicode="k" horiz-adv-x="333" 
d="M140 284l162 -266q3 -7 3.5 -11t-7.5 -5.5t-12 -2t-10 -0.5q-16 0 -25 2t-11 4l-1 2l-140 236l-18 -22v-202q0 -13 -6 -16t-20 -3q-10 0 -15 0.5t-10 5t-5 13.5v689q0 22 30 22q11 0 18.5 -7.5t7.5 -18.5v-402l183 195q15 17 37 -8q14 -19 0 -37z" />
    <glyph glyph-name="l" unicode="l" horiz-adv-x="140" 
d="M91 57h7q17 0 17 -27q0 -30 -17 -30h-34q-39 0 -39 54v657q0 20 28 20q29 0 29 -23v-636q0 -15 9 -15z" />
    <glyph glyph-name="m" unicode="m" horiz-adv-x="570" 
d="M25 19v470q0 18 30 18t30 -28q41 24 84 24q72 0 116 -50q50 50 114 50t106.5 -40t39.5 -97v-348q0 -11 -6 -14.5t-22 -3.5q-32 0 -32 18v358q-5 27 -25.5 48t-59.5 21q-34 0 -57 -22t-27 -46v-359q0 -18 -32 -18q-30 0 -30 18v361q-5 26 -25.5 46t-58.5 20t-59 -21.5
t-26 -47.5v-359q0 -10 -6.5 -13.5t-25.5 -3.5q-16 0 -22 4t-6 15z" />
    <glyph glyph-name="n" unicode="n" horiz-adv-x="339" 
d="M25 19v469q0 18 29 18q31 0 31 -28q39 24 84 24q43 0 74.5 -15t45 -37.5t19.5 -41t6 -32.5v-358q0 -11 -7 -14.5t-25 -3.5q-28 0 -28 18v360q-6 26 -26.5 46t-57.5 20q-38 0 -59 -21.5t-27 -47.5v-356q0 -19 -31 -19q-17 0 -22.5 4t-5.5 15z" />
    <glyph glyph-name="o" unicode="o" horiz-adv-x="353" 
d="M328 382v-263q0 -46 -31 -78t-76 -39t-89.5 0t-75.5 39t-31 78v263q0 34 16.5 60t43.5 39.5t59 20t64.5 0t59.5 -20t43.5 -40t16.5 -59.5zM81 368v-235q0 -3 1 -8.5t6.5 -19.5t14.5 -24.5t28 -19t45 -8.5q44 0 67.5 20t24.5 40l2 20v235v8.5t-4.5 19.5t-13 24.5t-28.5 19
t-48 8.5q-41 0 -64.5 -20t-27.5 -40z" />
    <glyph glyph-name="p" unicode="p" horiz-adv-x="340" 
d="M85 486v-5q61 29 113 22t85.5 -47t31.5 -97v-226q2 -56 -41 -96.5t-105 -40.5q-41 0 -84 25v-310q0 -22 -29 -22q-31 0 -31 18v783q0 18 31 18q29 0 29 -22zM254 123v255q0 25 -22.5 45t-60.5 20q-41 0 -63.5 -20t-22.5 -45v-125v-130q0 -27 22 -46t62 -19q38 0 61.5 20
t23.5 45z" />
    <glyph glyph-name="q" unicode="q" horiz-adv-x="340" 
d="M257 487v-5q-90 47 -162.5 6.5t-69.5 -128.5v-228q-2 -56 41.5 -96.5t105.5 -40.5q39 0 85 25v-312q0 -22 29 -22t29 16v790q0 17 -29 17t-29 -22zM86 122v258q0 25 22.5 44t60.5 19q41 0 64.5 -19.5t23.5 -43.5v-128v-130q0 -26 -22.5 -46t-62.5 -20q-39 0 -62.5 20.5
t-23.5 45.5z" />
    <glyph glyph-name="r" unicode="r" horiz-adv-x="240" 
d="M84 479v-21q28 35 68 40q18 1 34 0q13 -1 27 -6q3 -9 0 -32q-2 -11 -14 -27q-3 1 -9.5 2.5t-8.5 1.5q-16 2 -31 -1q-29 -5 -47.5 -30t-18.5 -49v-342q-5 -17 -29 -17q-30 0 -30 17v469q0 17 30 17q29 0 29 -22z" />
    <glyph glyph-name="s" unicode="s" horiz-adv-x="315" 
d="M151 303l8 -6q8 -6 21.5 -15.5t22 -15.5t21.5 -16t20.5 -17.5t17.5 -19.5t14 -22l10 -25t4 -29t-2 -34q-6 -59 -58 -89q-38 -18 -86 -18h-9q-52 0 -105 23q-5 4 -5 14q12 44 21 44q1 0 16.5 -5t39.5 -10t44 -4q38 4 54 12q22 14 25 42q4 23 -1.5 41t-24.5 36.5t-32 28
t-46 31.5q-90 57 -93 128q-6 56 46 93q44 33 107 33q47 0 96 -19q7 -4 2 -21q-16 -32 -19 -34q-4 -3 -11 -3q-29 14 -68 14q-42 0 -70 -18q-21 -18 -21 -40q4 -36 61 -79z" />
    <glyph glyph-name="t" unicode="t" horiz-adv-x="272" 
d="M154 518h55q11 0 14.5 -6t3.5 -24q0 -33 -18 -33h-55v-356q0 -26 5.5 -32t36.5 -10q6 0 6 -5v-46q0 -9 -6 -9h-3q-59 2 -80 27.5t-19 83.5v347h-43q-21 0 -21 33q0 18 4.5 24t16.5 6h43v117q0 18 30 18t30 -18v-117z" />
    <glyph glyph-name="u" unicode="u" horiz-adv-x="340" 
d="M315 486v-471q0 -18 -30 -18q-31 0 -31 28q-39 -24 -84 -24q-35 0 -62.5 10.5t-42.5 25.5t-24.5 34t-12.5 32.5t-3 24.5v359q0 11 7 14t25 3q16 0 22 -3.5t6 -13.5v-361q6 -26 26.5 -46t57.5 -20q39 0 60 21.5t26 47.5v357q0 10 6.5 14t24.5 4q17 0 23 -3.5t6 -14.5z" />
    <glyph glyph-name="v" unicode="v" horiz-adv-x="371" 
d="M202 78l87 416q5 18 35 6q15 -5 19 -10.5t2 -15.5l-83 -406q-16 -73 -82 -73q-64 0 -81 73l-73 406q-2 9 2 15t18 11q29 11 36 -6l77 -416q6 -19 21 -19q17 0 22 19z" />
    <glyph glyph-name="w" unicode="w" horiz-adv-x="558" 
d="M391 79l84 416q7 15 36 5q15 -6 19.5 -11t0.5 -15l-81 -405q-17 -71 -82 -71q-64 0 -79 71l-13 69l-15 -69q-15 -71 -82 -71q-64 0 -79 71l-74 405q-2 10 2 15t19 11q32 11 35 -5l77 -416q4 -18 20 -18q19 0 23 18l44 217l-31 178q-2 10 1.5 15t18.5 11q29 10 36 -5
l77 -416q4 -18 20 -18q14 0 23 18z" />
    <glyph glyph-name="x" unicode="x" horiz-adv-x="333" 
d="M192 323l45 166q11 21 37 11q18 -4 22.5 -9t2.5 -16l-42 -163q-12 -35 -20 -42q10 -13 20 -45l50 -197q7 -18 -25 -28q-29 -8 -36 8l-57 208q-4 17 -25 17q-22 0 -31 -17l-45 -208q-9 -16 -39 -5q-17 4 -21 9t-2 16l42 197q8 27 23 45q-14 18 -23 42l-33 163q-2 11 2 16
t20 9q32 12 37 -5l39 -172q8 -19 31 -19q9 0 17.5 5.5t10.5 13.5z" />
    <glyph glyph-name="y" unicode="y" horiz-adv-x="312" 
d="M229 74v412q0 22 30 22q28 0 28 -23v-664q3 -54 -33 -90.5t-93 -44.5q-33 -4 -75 8q-17 10 -17 31q0 13 9 23t20 6q27 -10 47 -10q43 0 62.5 20.5t21.5 51.5v191q-41 -12 -77 -7q-57 7 -93.5 43t-33.5 91v357q0 2 0.5 5t7.5 8t21 5q31 0 31 -18v-368q0 -37 34 -51
t67.5 -10t42.5 12z" />
    <glyph glyph-name="z" unicode="z" horiz-adv-x="343" 
d="M34 451v35q0 14 9 14h232q27 0 38 -21q10 -19 -3 -43l-207 -371q-3 -5 4 -5l196 2q4 0 5.5 -2.5t1.5 -5.5v-2v-46q0 -6 -7 -6h-235q-26 0 -39 21q-10 19 3 43l208 372v3q-1 1 -5 1h-189q-12 0 -12 11z" />
    <glyph glyph-name="braceleft" unicode="{" horiz-adv-x="223" 
d="M138 263v-207q0 -22 14.5 -41t41.5 -25q4 -28 -7 -52q-46 9 -74 41.5t-26 77.5v206q-2 23 -16.5 42.5t-42.5 26.5q-3 4 -3 25q0 5 6 29q27 7 40.5 25.5t13.5 40.5v212q-2 47 29 78.5t81 40.5q7 -17 -3 -54q-27 -6 -40.5 -25t-13.5 -40v-212q3 -62 -46 -93q49 -36 46 -96z
" />
    <glyph glyph-name="bar" unicode="|" horiz-adv-x="162" 
d="M108 -40l4 779q1 35 -20 35q-37 0 -37 -19q-1 -6 -3 -401t-2 -403q0 -22 34 -22q24 0 24 31z" />
    <glyph glyph-name="braceright" unicode="}" horiz-adv-x="223" 
d="M138 264v-206q1 -46 -27.5 -78t-74.5 -41q-11 24 -7 52q27 6 41.5 25t14.5 41v207q-3 60 46 96q-49 31 -46 93v212q0 21 -13.5 40t-40.5 25q-10 37 -3 54q51 -9 81.5 -40.5t26.5 -78.5v-212q4 -52 56 -66q6 -24 6 -29q0 -20 -3 -25q-28 -7 -42.5 -27t-14.5 -42z" />
    <glyph glyph-name="asciitilde" unicode="~" horiz-adv-x="1030" 
 />
    <glyph glyph-name="exclamdown" unicode="&#xa1;" horiz-adv-x="113" 
d="M85 482q0 40 -18 40q-40 0 -40 -19v-42q0 -10 10 -16.5t24 -6.5q15 0 19.5 8t4.5 36zM88 -164l-9 513q0 35 -24 35q-8 0 -16.5 -5t-8.5 -14l-5 -538q0 -22 31 -22q32 0 32 31z" />
    <glyph glyph-name="cent" unicode="&#xa2;" 
d="M25 201v234q-2 50 28.5 85.5t80.5 47.5v38q0 31 24 31q34 0 34 -22v-43q61 -4 98 -45q13 -11 9 -21t-11 -16t-17 -10q-14 -2 -18.5 -1.5t-14.5 8.5t-14 10q-13 9 -32 14v-386q19 4 42 22q27 19 44 21q12 0 18 -13.5t3 -25.5q0 -7 -3 -12q-38 -46 -104 -52v-46
q0 -19 -37 -19q-21 0 -21 35v34q-50 12 -80.5 47.5t-28.5 84.5zM85 436v-236q2 -53 49 -70v377q-47 -17 -49 -71z" />
    <glyph glyph-name="sterling" unicode="&#xa3;" horiz-adv-x="417" 
d="M170 317v-177q2 -49 -20 -82h212q18 0 24 -5.5t6 -21.5v-5v-6t-0.5 -6t-1.5 -5.5t-3 -4t-5.5 -3.5t-7.5 -1h-325q-12 0 -18 12t-6 23q0 14 11 18q8 2 11 4q31 10 47.5 33t18.5 50v177h-57q-25 0 -25 33q0 25 46 25h36v175q-3 63 38.5 109.5t102.5 46.5h94q2 -37 -3 -61
h-95q-35 0 -57.5 -32.5t-22.5 -62.5v-175h61q40 0 40 -27q0 -12 -7.5 -21.5t-21.5 -9.5h-72z" />
    <glyph glyph-name="currency" unicode="&#xa4;" horiz-adv-x="460" 
d="M367 292l52 -51q24 -24 10 -40q-26 -26 -40 -12l-62 62q-42 -26 -97.5 -26t-97.5 26l-62 -62q-13 -13 -40 12q-14 15 10 40l52 51q-14 25 -14 55v87q0 29 13 53l-60 60q-16 16 8 40q17 17 39 -5l53 -53q41 27 98.5 27t98.5 -27l54 53q21 22 38 5q24 -24 9 -40l-9 -9
q-8 -8 -22.5 -22t-29.5 -29q13 -22 13 -53v-87q0 -30 -14 -55zM138 420v-59q0 -3 0.5 -8.5t5.5 -19t13.5 -24t27 -19t44.5 -8.5q28 0 47.5 8t27.5 20t12.5 23.5t3.5 19.5v8v59q-2 1 0 8.5t-3 19.5t-12.5 23.5t-27.5 19.5t-48 8q-41 0 -63.5 -19.5t-25.5 -39.5z" />
    <glyph glyph-name="yen" unicode="&#xa5;" horiz-adv-x="310" 
d="M182 380v-52h34q31 0 31 -21q0 -31 -22 -31h-43v-25h34q31 0 31 -21q0 -31 -22 -31h-43v-183q0 -5 -12.5 -10.5t-22.5 -5.5q-16 0 -18 19v180h-48q-19 0 -19 33q0 19 35 19h32v25h-48q-19 0 -19 33q0 19 35 19h32v51l-101 302q-9 26 12 33q29 11 35 -8l80 -243l80 243
q6 19 35 8q21 -7 12 -33z" />
    <glyph glyph-name="brokenbar" unicode="&#xa6;" horiz-adv-x="1030" 
 />
    <glyph glyph-name="section" unicode="&#xa7;" horiz-adv-x="438" 
d="M274 455l8 -6q8 -6 21.5 -15.5t22 -15.5t21.5 -16t20.5 -17.5t17.5 -19.5t14 -22l10 -25t4 -29t-2 -34q-6 -59 -58 -89q-33 -16 -70 -17q12 -35 5 -74q-6 -59 -58 -89q-38 -18 -86 -18h-9q-52 0 -105 23q-5 4 -5 14q12 44 21 44q1 0 16.5 -5t39.5 -10t44 -4q38 4 54 12
q22 14 25 42q4 23 -1.5 41t-24.5 36.5t-32 28t-46 31.5q-90 57 -93 128q-6 56 46 93q37 28 93 33q-14 25 -16 54q-6 56 46 93q44 33 107 33q47 0 96 -19q7 -4 2 -21q-16 -32 -19 -34q-4 -3 -11 -3q-29 14 -68 14q-42 0 -70 -18q-21 -18 -21 -40q4 -36 61 -79zM151 275l8 -6
q6 -5 34.5 -25t42.5 -32q22 -2 33 -2q38 4 54 12q22 14 25 42q5 29 -9.5 54.5t-32.5 40t-57 39.5q-29 14 -68 14q-42 0 -70 -18q-21 -18 -21 -40q4 -36 61 -79z" />
    <glyph glyph-name="dieresis" unicode="&#xa8;" horiz-adv-x="228" 
d="M25 651q0 -40 18 -40q40 0 40 19v42q0 10 -10 16.5t-24 6.5q-15 0 -19.5 -8t-4.5 -36zM145 651q0 -40 18 -40q40 0 40 19v42q0 10 -10 16.5t-24 6.5q-15 0 -19.5 -8t-4.5 -36z" />
    <glyph glyph-name="copyright" unicode="&#xa9;" horiz-adv-x="718" 
d="M595 588q98 -98 98 -235t-98 -238q-98 -98 -236 -98q-136 0 -237 98q-97 100 -97 238t97 235q101 98 237 98q138 0 236 -98zM359 69q117 0 199.5 83t82.5 201q0 116 -82.5 199t-199.5 83t-199.5 -83t-82.5 -199q0 -118 82.5 -201t199.5 -83zM286 420v-135q1 -26 19.5 -46
t54.5 -20q31 0 54 21q24 16 37 18q11 0 16 -11.5t3 -22.5q0 -6 -2 -10q-19 -24 -52.5 -36.5t-71.5 -8.5q-49 6 -80.5 38t-29.5 79v133q-2 48 29.5 80t80.5 37q74 9 118 -38q24 -23 -16 -41q-6 -4 -13 -2t-10 4t-9 7t-9 7q-21 13 -45 13q-36 0 -54.5 -20t-19.5 -46z" />
    <glyph glyph-name="guillemotleft" unicode="&#xab;" horiz-adv-x="387" 
d="M229 294l121 -121q22 -21 5 -38q-25 -25 -40 -9q-3 4 -22 23t-53 52.5t-52 51.5q-7 -7 -13 -12.5t-9 -8.5l-4 -4l55 -55q22 -22 5 -39q-24 -23 -39 -8q-146 146 -155 154q-12 13 12 39l143 143q15 15 39 -9q18 -16 -5 -39l-54 -54l25 -25q18 18 52 51.5t53 52.5t22 23
q15 16 40 -9q17 -17 -5 -38zM122 319l-25 -25l25 -25l25 25l-7 7l-9.5 9.5z" />
    <glyph glyph-name="logicalnot" unicode="&#xac;" horiz-adv-x="1030" 
 />
    <glyph glyph-name="registered" unicode="&#xae;" horiz-adv-x="718" 
d="M595 588q98 -98 98 -235t-98 -238q-98 -98 -236 -98q-136 0 -237 98q-97 100 -97 238t97 235q101 98 237 98q138 0 236 -98zM359 69q117 0 199.5 83t82.5 201q0 116 -82.5 199t-199.5 83t-199.5 -83t-82.5 -199q0 -118 82.5 -201t199.5 -83zM280 161v378q0 27 27 27
q52 0 68 -3q82 -8 82 -104v-5q0 -22 -8 -42q-15 -43 -54 -57l63 -194q-6 -22 -24 -22q-10 0 -17.5 3t-10.5 6l-3 3q-57 174 -65 197h-4v-189q0 -3 -1.5 -7t-9.5 -9.5t-21 -5.5q-7 0 -14.5 6t-7.5 18zM365 509l-31 2v-106h28q41 2 41 51q0 25 -7 37.5t-31 15.5z" />
    <glyph glyph-name="macron" unicode="&#xaf;" horiz-adv-x="262" 
d="M206 781h-146q-35 0 -35 -21q0 -37 19 -37h171q22 0 22 34q0 24 -31 24z" />
    <glyph glyph-name="degree" unicode="&#xb0;" horiz-adv-x="253" 
d="M228 670v-86q0 -40 -31.5 -63t-70 -23t-70 23t-31.5 63zM68 661v-67q1 0 0 -5.5t2 -14t8 -16.5t18 -13.5t31 -5.5q31 0 45.5 13.5t13.5 27.5l-1 14v67q0 2 0.5 5.5t-1 12.5t-6.5 16t-18 12.5t-33 5.5q-29 0 -43.5 -13t-15.5 -26v-13z" />
    <glyph glyph-name="plusminus" unicode="&#xb1;" horiz-adv-x="512" 
d="M44 417q-19 0 -19 37q0 21 35 21h167v183q0 19 37 19q21 0 21 -35v-167h171q31 0 31 -24q0 -34 -22 -34h-180v-171q0 -31 -24 -31q-34 0 -34 22v180h-183zM60 176h396q31 0 31 -24q0 -34 -22 -34h-421q-19 0 -19 37q0 21 35 21z" />
    <glyph glyph-name="acute" unicode="&#xb4;" horiz-adv-x="200" 
d="M124 753l-80 -50q-26 -20 -15 -39q4 -6 13.5 -10.5t18.5 -0.5q64 28 105 58q21 12 0 42q-12 19 -42 0z" />
    <glyph glyph-name="paragraph" unicode="&#xb6;" horiz-adv-x="404" 
d="M352 740q18 0 22.5 -5.5t4.5 -20.5v-742q0 -31 -22 -31q-36 0 -36 9v693q0 13 -13 13h-15v-684q0 -11 -3.5 -17t-7.5 -7.5t-11 -1.5q-10 0 -23 4.5t-13 11.5v425q0 13 -13 13q-19 0 -47 1.5t-36 1.5q-36 0 -60.5 17t-34.5 41t-15 48t-4 41l1 17v8q0 21 0.5 34.5t6.5 38.5
t18.5 40.5t38 30t61.5 18.5q25 3 201 3z" />
    <glyph glyph-name="periodcentered" unicode="&#xb7;" horiz-adv-x="147" 
d="M25 286q0 -19 6 -36t18 -17q73 0 73 25v56q0 30 -65 30q-20 0 -26 -10t-6 -48z" />
    <glyph glyph-name="cedilla" unicode="&#xb8;" horiz-adv-x="188" 
d="M92 11v-43q27 0 41 -6.5t20 -26.5l7 -28q14 -51 -33 -75t-97 -1q-8 36 3 41q21 -7 36 -7q57 0 44 50q0 1 -1 4t-1 3.5t-1.5 2.5t-3.5 2t-6 1t-10 1h-14h-26q-3 0 -5 1.5t-3 3.5v1v76h50z" />
    <glyph glyph-name="guillemotright" unicode="&#xbb;" horiz-adv-x="387" 
d="M37 169l121 121l-121 121q-21 21 -5 38q24 25 40 9q3 -4 22 -23t53 -52.5t52 -51.5l25 25l-54 54q-23 23 -5 39q24 24 39 9l143 -143q24 -26 12 -39q-9 -8 -155 -154q-15 -15 -39 8q-17 17 5 39q25 26 55 55l-4 4t-9 8.5t-13 12.5q-18 -18 -52 -51.5t-53 -52.5t-22 -23
q-16 -16 -40 9q-16 17 5 38zM290 290l-25 25l-25 -25q4 -4 10 -9.5t9.5 -9t5.5 -6.5z" />
    <glyph glyph-name="questiondown" unicode="&#xbf;" horiz-adv-x="340" 
d="M189 503q0 40 -18 40q-40 0 -40 -19v-42q0 -10 10 -16.5t24 -6.5q15 0 19.5 8t4.5 36zM40 -107q-30 60 -5 130q7 22 42 90q4 9 13.5 26t15 27.5t11 25.5t7.5 28q13 68 10 177q27 18 56 1q2 -61 -1 -98.5t-18 -90.5q-16 -57 -45 -116q-25 -47 -38 -84q-18 -52 4 -95
q14 -26 40 -35q21 -3 33 -3.5t29 9t26.5 17t25 20t24.5 19.5q11 9 34 -14q17 -17 9 -25q-16 -13 -27 -22t-28.5 -21.5t-33.5 -19t-34.5 -12.5t-38 -5.5t-39.5 7.5q-21 7 -41 25.5t-31 38.5z" />
    <glyph glyph-name="Agrave" unicode="&#xc0;" horiz-adv-x="330" 
d="M209 843l-80 50q-30 19 -42 0q-21 -30 0 -42q41 -30 105 -58q9 -4 18.5 0.5t13.5 10.5q11 19 -15 39zM134 714h62q19 0 19 -18q2 -9 46 -339t44 -341q0 -18 -21 -18q-28 0 -31 15q0 2 -3.5 27t-10 75.5t-12.5 98.5q-3 11 -10 11h-104q-7 0 -10 -11q-6 -48 -12.5 -98.5
t-10 -75.5t-3.5 -27q-2 -15 -31 -15q-21 0 -21 18q0 10 43.5 339t45.5 341q5 18 20 18zM133 287h64q11 0 14 2.5t0 15.5q-10 70 -20.5 161.5t-16.5 140t-7 48.5h-4q-1 0 -7 -48.5t-16.5 -140t-20.5 -161.5q-3 -13 0 -15.5t14 -2.5z" />
    <glyph glyph-name="Aacute" unicode="&#xc1;" horiz-adv-x="330" 
d="M203 893l-80 -50q-26 -20 -15 -39q4 -6 13.5 -10.5t18.5 -0.5q64 28 105 58q21 12 0 42q-12 19 -42 0zM134 714h62q19 0 19 -18q2 -9 46 -339t44 -341q0 -18 -21 -18q-28 0 -31 15q0 2 -3.5 27t-10 75.5t-12.5 98.5q-3 11 -10 11h-104q-7 0 -10 -11q-6 -48 -12.5 -98.5
t-10 -75.5t-3.5 -27q-2 -15 -31 -15q-21 0 -21 18q0 10 43.5 339t45.5 341q5 18 20 18zM133 287h64q11 0 14 2.5t0 15.5q-10 70 -20.5 161.5t-16.5 140t-7 48.5h-4q-1 0 -7 -48.5t-16.5 -140t-20.5 -161.5q-3 -13 0 -15.5t14 -2.5z" />
    <glyph glyph-name="Acircumflex" unicode="&#xc2;" horiz-adv-x="330" 
d="M240 840q13 -9 0 -33q-14 -24 -36 0q-20 20 -37 30l-34 -30q-23 -23 -37 0q-17 21 0 33q55 42 64 44h17q8 -2 63 -44zM134 714h62q19 0 19 -18q2 -9 46 -339t44 -341q0 -18 -21 -18q-28 0 -31 15q0 2 -3.5 27t-10 75.5t-12.5 98.5q-3 11 -10 11h-104q-7 0 -10 -11
q-6 -48 -12.5 -98.5t-10 -75.5t-3.5 -27q-2 -15 -31 -15q-21 0 -21 18q0 10 43.5 339t45.5 341q5 18 20 18zM133 287h64q11 0 14 2.5t0 15.5q-10 70 -20.5 161.5t-16.5 140t-7 48.5h-4q-1 0 -7 -48.5t-16.5 -140t-20.5 -161.5q-3 -13 0 -15.5t14 -2.5z" />
    <glyph glyph-name="Atilde" unicode="&#xc3;" horiz-adv-x="330" 
d="M271 822q7 -10 3 -27q-30 -15 -55 -15q-7 0 -17 2q-19 5 -45 31q-14 15 -22 15q-29 0 -46 -29q-10 2 -16 8q-12 8 -16 18q30 44 78 44q26 0 53 -29q14 -16 24 -18q16 -4 48 12q8 -8 11 -12zM134 714h62q19 0 19 -18q2 -9 46 -339t44 -341q0 -18 -21 -18q-28 0 -31 15
q0 2 -3.5 27t-10 75.5t-12.5 98.5q-3 11 -10 11h-104q-7 0 -10 -11q-6 -48 -12.5 -98.5t-10 -75.5t-3.5 -27q-2 -15 -31 -15q-21 0 -21 18q0 10 43.5 339t45.5 341q5 18 20 18zM133 287h64q11 0 14 2.5t0 15.5q-10 70 -20.5 161.5t-16.5 140t-7 48.5h-4q-1 0 -7 -48.5
t-16.5 -140t-20.5 -161.5q-3 -13 0 -15.5t14 -2.5z" />
    <glyph glyph-name="Adieresis" unicode="&#xc4;" horiz-adv-x="330" 
d="M75 831q0 -40 18 -40q40 0 40 19v42q0 10 -10 16.5t-24 6.5q-15 0 -19.5 -8t-4.5 -36zM195 831q0 -40 18 -40q40 0 40 19v42q0 10 -10 16.5t-24 6.5q-15 0 -19.5 -8t-4.5 -36zM134 714h62q19 0 19 -18q2 -9 46 -339t44 -341q0 -18 -21 -18q-28 0 -31 15q0 2 -3.5 27
t-10 75.5t-12.5 98.5q-3 11 -10 11h-104q-7 0 -10 -11q-6 -48 -12.5 -98.5t-10 -75.5t-3.5 -27q-2 -15 -31 -15q-21 0 -21 18q0 10 43.5 339t45.5 341q5 18 20 18zM133 287h64q11 0 14 2.5t0 15.5q-10 70 -20.5 161.5t-16.5 140t-7 48.5h-4q-1 0 -7 -48.5t-16.5 -140
t-20.5 -161.5q-3 -13 0 -15.5t14 -2.5z" />
    <glyph glyph-name="Aring" unicode="&#xc5;" horiz-adv-x="330" 
d="M165 970q33 0 52.5 -23.5t19.5 -59.5t-19.5 -59.5t-52.5 -23.5q-34 0 -55 24t-21 59t21 59t55 24zM165 843q34 0 34 44t-34 44q-17 0 -27.5 -12.5t-10.5 -31.5t10 -31.5t28 -12.5zM134 714h62q19 0 19 -18q2 -9 46 -339t44 -341q0 -18 -21 -18q-28 0 -31 15q0 2 -3.5 27
t-10 75.5t-12.5 98.5q-3 11 -10 11h-104q-7 0 -10 -11q-6 -48 -12.5 -98.5t-10 -75.5t-3.5 -27q-2 -15 -31 -15q-21 0 -21 18q0 10 43.5 339t45.5 341q5 18 20 18zM133 287h64q11 0 14 2.5t0 15.5q-10 70 -20.5 161.5t-16.5 140t-7 48.5h-4q-1 0 -7 -48.5t-16.5 -140
t-20.5 -161.5q-3 -13 0 -15.5t14 -2.5z" />
    <glyph glyph-name="Ccedilla" unicode="&#xc7;" horiz-adv-x="308" 
d="M77 601v-488q1 -25 19.5 -45.5t54.5 -20.5q30 0 53 20.5t23 40.5q0 7 14 11.5t28 0t14 -18.5q0 -42 -37 -73.5t-89 -32.5v-25q27 0 41 -6.5t20 -26.5l7 -28q14 -51 -33 -75t-97 -1q-8 36 3 41q21 -7 36 -7q56 0 44 50q0 1 -1 4t-1 3.5t-1.5 2.5t-3.5 2t-6 1t-10 1h-14
h-26q-3 0 -5 1.5t-2 3.5l-1 1v66q-38 12 -61 41.5t-21 68.5v486q-2 47 29.5 79.5t81.5 38.5q59 7 103 -25.5t44 -79.5q0 -13 -14 -17.5t-28 -0.5t-14 11q0 20 -23 41t-53 21q-36 0 -54.5 -20.5t-19.5 -45.5z" />
    <glyph glyph-name="Egrave" unicode="&#xc8;" horiz-adv-x="301" 
d="M193 848l-80 50q-30 19 -42 0q-21 -30 0 -42q41 -30 105 -58q9 -4 18.5 0.5t13.5 10.5q11 19 -15 39zM25 27v660q0 23 17 28h5h225q5 -2 3.5 -15t-9 -28t-13.5 -15h-154q-17 0 -17 -21v-174q0 -18 16 -18h96q13 0 14 -15t-6.5 -30t-15.5 -15h-87q-17 0 -17 -14v-292
q0 -21 17 -21h153q6 0 13 -15t8.5 -27.5t-4.5 -14.5h-218h-2h-2h-5q-17 4 -17 27z" />
    <glyph glyph-name="Eacute" unicode="&#xc9;" horiz-adv-x="301" 
d="M187 898l-80 -50q-26 -20 -15 -39q4 -6 13.5 -10.5t18.5 -0.5q64 28 105 58q21 12 0 42q-12 19 -42 0zM25 27v660q0 23 17 28h5h225q5 -2 3.5 -15t-9 -28t-13.5 -15h-154q-17 0 -17 -21v-174q0 -18 16 -18h96q13 0 14 -15t-6.5 -30t-15.5 -15h-87q-17 0 -17 -14v-292
q0 -21 17 -21h153q6 0 13 -15t8.5 -27.5t-4.5 -14.5h-218h-2h-2h-5q-17 4 -17 27z" />
    <glyph glyph-name="Edieresis" unicode="&#xcb;" horiz-adv-x="301" 
d="M59 836q0 -40 18 -40q40 0 40 19v42q0 10 -10 16.5t-24 6.5q-15 0 -19.5 -8t-4.5 -36zM179 836q0 -40 18 -40q40 0 40 19v42q0 10 -10 16.5t-24 6.5q-15 0 -19.5 -8t-4.5 -36zM25 27v660q0 23 17 28h5h225q5 -2 3.5 -15t-9 -28t-13.5 -15h-154q-17 0 -17 -21v-174
q0 -18 16 -18h96q13 0 14 -15t-6.5 -30t-15.5 -15h-87q-17 0 -17 -14v-292q0 -21 17 -21h153q6 0 13 -15t8.5 -27.5t-4.5 -14.5h-218h-2h-2h-5q-17 4 -17 27z" />
    <glyph glyph-name="Igrave" unicode="&#xcc;" horiz-adv-x="105" 
d="M98 840l-80 50q-30 19 -42 0q-21 -30 0 -42q41 -30 105 -58q9 -4 18.5 0.5t13.5 10.5q11 19 -15 39zM25 693v-672q0 -11 4 -15t15 -4q36 0 36 14v686q0 20 -33 20q-22 0 -22 -29z" />
    <glyph glyph-name="Idieresis" unicode="&#xcf;" horiz-adv-x="105" 
d="M-36 828q0 -40 18 -40q40 0 40 19v42q0 10 -10 16.5t-24 6.5q-15 0 -19.5 -8t-4.5 -36zM84 828q0 -40 18 -40q40 0 40 19v42q0 10 -10 16.5t-24 6.5q-15 0 -19.5 -8t-4.5 -36zM25 693v-672q0 -11 4 -15t15 -4q36 0 36 14v686q0 20 -33 20q-22 0 -22 -29z" />
    <glyph glyph-name="Ntilde" unicode="&#xd1;" horiz-adv-x="314" 
d="M259 803q7 -10 3 -27q-30 -15 -55 -15q-7 0 -17 2q-19 5 -45 31q-14 15 -22 15q-29 0 -46 -29q-10 2 -16 8q-12 8 -16 18q30 44 78 44q26 0 53 -29q14 -16 24 -18q16 -5 48 12q8 -8 11 -12zM47 714h5q18 2 24 -10q3 -3 3 -10q6 -19 66 -221.5t91 -302.5l-1 517
q0 27 23 27q31 0 31 -20v-675q0 -8 -12 -17.5t-23 -9.5q-5 0 -10 5q-7 6 -13 21q-2 4 -26 82t-63 204.5t-63 203.5v-489q0 -8 -12 -17.5t-23 -9.5q-17 0 -19 32v663v2q0 8 2 12q5 13 20 13z" />
    <glyph glyph-name="Ograve" unicode="&#xd2;" horiz-adv-x="318" 
d="M204 843l-80 50q-30 19 -42 0q-21 -30 0 -42q41 -30 105 -58q9 -4 18.5 0.5t13.5 10.5q11 19 -15 39zM25 97v519q0 41 27.5 69.5t67 35t79 -0.5t67 -35t27.5 -69q-2 -11 0 -519q0 -41 -27.5 -69t-67 -35t-79 -0.5t-67 35t-27.5 69.5zM78 604v-495q0 -3 0.5 -7.5
t4.5 -16.5t11.5 -21.5t24.5 -17t40 -7.5q39 0 58.5 17.5t20.5 35.5v17v495q-1 1 0.5 7.5t-3 17t-11 20.5t-24 17t-41.5 7q-36 0 -56.5 -17.5t-22.5 -34.5z" />
    <glyph glyph-name="Oacute" unicode="&#xd3;" horiz-adv-x="318" 
d="M198 893l-80 -50q-26 -20 -15 -39q4 -6 13.5 -10.5t18.5 -0.5q64 28 105 58q21 12 0 42q-12 19 -42 0zM25 97v519q0 41 27.5 69.5t67 35t79 -0.5t67 -35t27.5 -69q-2 -11 0 -519q0 -41 -27.5 -69t-67 -35t-79 -0.5t-67 35t-27.5 69.5zM78 604v-495q0 -3 0.5 -7.5
t4.5 -16.5t11.5 -21.5t24.5 -17t40 -7.5q39 0 58.5 17.5t20.5 35.5v17v495q-1 1 0.5 7.5t-3 17t-11 20.5t-24 17t-41.5 7q-36 0 -56.5 -17.5t-22.5 -34.5z" />
    <glyph glyph-name="Ocircumflex" unicode="&#xd4;" horiz-adv-x="318" 
d="M235 840q13 -9 0 -33q-14 -24 -36 0q-20 20 -37 30l-34 -30q-23 -23 -37 0q-17 21 0 33q55 42 64 44h17q8 -2 63 -44zM25 97v519q0 41 27.5 69.5t67 35t79 -0.5t67 -35t27.5 -69q-2 -11 0 -519q0 -41 -27.5 -69t-67 -35t-79 -0.5t-67 35t-27.5 69.5zM78 604v-495
q0 -3 0.5 -7.5t4.5 -16.5t11.5 -21.5t24.5 -17t40 -7.5q39 0 58.5 17.5t20.5 35.5v17v495q-1 1 0.5 7.5t-3 17t-11 20.5t-24 17t-41.5 7q-36 0 -56.5 -17.5t-22.5 -34.5z" />
    <glyph glyph-name="Otilde" unicode="&#xd5;" horiz-adv-x="318" 
d="M266 822q7 -10 3 -27q-30 -15 -55 -15q-7 0 -17 2q-19 5 -45 31q-14 15 -22 15q-29 0 -46 -29q-10 2 -16 8q-12 8 -16 18q30 44 78 44q26 0 53 -29q14 -16 24 -18q17 -4 48 12q8 -8 11 -12zM25 97v519q0 41 27.5 69.5t67 35t79 -0.5t67 -35t27.5 -69q-2 -11 0 -519
q0 -41 -27.5 -69t-67 -35t-79 -0.5t-67 35t-27.5 69.5zM78 604v-495q0 -3 0.5 -7.5t4.5 -16.5t11.5 -21.5t24.5 -17t40 -7.5q39 0 58.5 17.5t20.5 35.5v17v495q-1 1 0.5 7.5t-3 17t-11 20.5t-24 17t-41.5 7q-36 0 -56.5 -17.5t-22.5 -34.5z" />
    <glyph glyph-name="multiply" unicode="&#xd7;" horiz-adv-x="399" 
d="M362 193q21 -22 4 -39q-23 -25 -39 -8q-11 9 -127 127l-121 -121q-22 -22 -39 -5q-24 24 -9 40q6 5 128 127q-126 126 -130 129q-13 13 13 40q15 15 40 -10q7 -9 118 -118q122 123 129 129q13 13 40 -12q14 -15 -10 -40l-118 -118z" />
    <glyph glyph-name="Ugrave" unicode="&#xd9;" horiz-adv-x="320" 
d="M203 849l-80 50q-30 19 -42 0q-21 -30 0 -42q41 -30 105 -58q9 -4 18.5 0.5t13.5 10.5q11 19 -15 39zM79 702v-584q1 -1 0 -7.5t3.5 -17.5t11 -21t24 -17.5t42.5 -7.5q24 0 41 7.5t24.5 17.5t11.5 20.5t4 17.5v8v585q0 6 3.5 9.5t7.5 3.5l3 1h27q6 0 9.5 -3.5t3.5 -7.5
v-3v-597q0 -45 -37.5 -78t-92.5 -34h-10q-54 1 -92 34.5t-38 78.5v598q-1 12 11 12h26q8 0 12 -3.5t4 -7.5z" />
    <glyph glyph-name="Uacute" unicode="&#xda;" horiz-adv-x="320" 
d="M197 899l-80 -50q-26 -20 -15 -39q4 -6 13.5 -10.5t18.5 -0.5q64 28 105 58q21 12 0 42q-12 19 -42 0zM79 702v-584q1 -1 0 -7.5t3.5 -17.5t11 -21t24 -17.5t42.5 -7.5q24 0 41 7.5t24.5 17.5t11.5 20.5t4 17.5v8v585q0 6 3.5 9.5t7.5 3.5l3 1h27q6 0 9.5 -3.5t3.5 -7.5
v-3v-597q0 -45 -37.5 -78t-92.5 -34h-10q-54 1 -92 34.5t-38 78.5v598q-1 12 11 12h26q8 0 12 -3.5t4 -7.5z" />
    <glyph glyph-name="Udieresis" unicode="&#xdc;" horiz-adv-x="320" 
d="M69 837q0 -40 18 -40q40 0 40 19v42q0 10 -10 16.5t-24 6.5q-15 0 -19.5 -8t-4.5 -36zM189 837q0 -40 18 -40q40 0 40 19v42q0 10 -10 16.5t-24 6.5q-15 0 -19.5 -8t-4.5 -36zM79 702v-584q1 -1 0 -7.5t3.5 -17.5t11 -21t24 -17.5t42.5 -7.5q24 0 41 7.5t24.5 17.5
t11.5 20.5t4 17.5v8v585q0 6 3.5 9.5t7.5 3.5l3 1h27q6 0 9.5 -3.5t3.5 -7.5v-3v-597q0 -45 -37.5 -78t-92.5 -34h-10q-54 1 -92 34.5t-38 78.5v598q-1 12 11 12h26q8 0 12 -3.5t4 -7.5z" />
    <glyph glyph-name="agrave" unicode="&#xe0;" horiz-adv-x="316" 
d="M242 642l-80 50q-30 19 -42 0q-21 -30 0 -42q41 -30 105 -58q9 -4 18.5 0.5t13.5 10.5q11 19 -15 39zM118 468l-2 17q0 6 5 12t11 6q52 2 95 -25q63 -40 63 -142l1 -303q0 -18 -7.5 -26t-23.5 -7h-117q-13 0 -29 5.5t-36.5 20.5t-33 41.5t-18.5 68t7 99.5q16 56 48 85
q62 53 137 72q-18 33 -34 45q-28 18 -51 18q-15 0 -15 13zM234 86v239q0 12 -21 12q-28 0 -79 -47.5t-51 -112.5q0 -67 31.5 -96t69.5 -29q31 0 41 6t9 28z" />
    <glyph glyph-name="aacute" unicode="&#xe1;" horiz-adv-x="316" 
d="M236 692l-80 -50q-26 -20 -15 -39q4 -6 13.5 -10.5t18.5 -0.5q64 28 105 58q21 12 0 42q-12 19 -42 0zM118 468l-2 17q0 6 5 12t11 6q52 2 95 -25q63 -40 63 -142l1 -303q0 -18 -7.5 -26t-23.5 -7h-117q-13 0 -29 5.5t-36.5 20.5t-33 41.5t-18.5 68t7 99.5q16 56 48 85
q62 53 137 72q-18 33 -34 45q-28 18 -51 18q-15 0 -15 13zM234 86v239q0 12 -21 12q-28 0 -79 -47.5t-51 -112.5q0 -67 31.5 -96t69.5 -29q31 0 41 6t9 28z" />
    <glyph glyph-name="acircumflex" unicode="&#xe2;" horiz-adv-x="316" 
d="M273 639q13 -9 0 -33q-14 -24 -36 0q-20 20 -37 30l-34 -30q-23 -23 -37 0q-16 21 0 33q55 42 64 44h17q8 -2 63 -44zM118 468l-2 17q0 6 5 12t11 6q52 2 95 -25q63 -40 63 -142l1 -303q0 -18 -7.5 -26t-23.5 -7h-117q-13 0 -29 5.5t-36.5 20.5t-33 41.5t-18.5 68t7 99.5
q16 56 48 85q62 53 137 72q-18 33 -34 45q-28 18 -51 18q-15 0 -15 13zM234 86v239q0 12 -21 12q-28 0 -79 -47.5t-51 -112.5q0 -67 31.5 -96t69.5 -29q31 0 41 6t9 28z" />
    <glyph glyph-name="atilde" unicode="&#xe3;" horiz-adv-x="316" 
d="M304 621q7 -10 3 -27q-30 -15 -55 -15q-7 0 -17 2q-19 5 -45 31q-14 15 -22 15q-29 0 -46 -29q-10 2 -16 8q-12 8 -16 18q30 44 78 44q26 0 53 -29q14 -16 24 -18q17 -5 48 12q8 -8 11 -12zM118 468l-2 17q0 6 5 12t11 6q52 2 95 -25q63 -40 63 -142l1 -303
q0 -18 -7.5 -26t-23.5 -7h-117q-13 0 -29 5.5t-36.5 20.5t-33 41.5t-18.5 68t7 99.5q16 56 48 85q62 53 137 72q-18 33 -34 45q-28 18 -51 18q-15 0 -15 13zM234 86v239q0 12 -21 12q-28 0 -79 -47.5t-51 -112.5q0 -67 31.5 -96t69.5 -29q31 0 41 6t9 28z" />
    <glyph glyph-name="adieresis" unicode="&#xe4;" horiz-adv-x="316" 
d="M108 630q0 -40 18 -40q40 0 40 19v42q0 10 -10 16.5t-24 6.5q-15 0 -19.5 -8t-4.5 -36zM228 630q0 -40 18 -40q40 0 40 19v42q0 10 -10 16.5t-24 6.5q-15 0 -19.5 -8t-4.5 -36zM118 468l-2 17q0 6 5 12t11 6q52 2 95 -25q63 -40 63 -142l1 -303q0 -18 -7.5 -26t-23.5 -7
h-117q-13 0 -29 5.5t-36.5 20.5t-33 41.5t-18.5 68t7 99.5q16 56 48 85q62 53 137 72q-18 33 -34 45q-28 18 -51 18q-15 0 -15 13zM234 86v239q0 12 -21 12q-28 0 -79 -47.5t-51 -112.5q0 -67 31.5 -96t69.5 -29q31 0 41 6t9 28z" />
    <glyph glyph-name="aring" unicode="&#xe5;" horiz-adv-x="316" 
d="M198 769q33 0 52.5 -23.5t19.5 -59.5t-19.5 -59.5t-52.5 -23.5q-34 0 -55 24t-21 59t21 59t55 24zM198 642q34 0 34 44t-34 44q-17 0 -27.5 -12.5t-10.5 -31.5t10 -31.5t28 -12.5zM118 468l-2 17q0 6 5 12t11 6q52 2 95 -25q63 -40 63 -142l1 -303q0 -18 -7.5 -26
t-23.5 -7h-117q-13 0 -29 5.5t-36.5 20.5t-33 41.5t-18.5 68t7 99.5q16 56 48 85q62 53 137 72q-18 33 -34 45q-28 18 -51 18q-15 0 -15 13zM234 86v239q0 12 -21 12q-28 0 -79 -47.5t-51 -112.5q0 -67 31.5 -96t69.5 -29q31 0 41 6t9 28z" />
    <glyph glyph-name="ccedilla" unicode="&#xe7;" 
d="M85 368v-236q1 -30 22.5 -53.5t64.5 -23.5q34 0 62 24q27 19 44 21q12 0 18 -13.5t3 -25.5q0 -7 -3 -12q-43 -55 -122 -53v-19q27 0 41 -6.5t20 -26.5l7 -28q14 -51 -33 -75t-97 -1q-8 36 3 41q21 -7 36 -7q57 0 44 50q0 1 -1 4t-1 3.5t-1.5 2.5t-3.5 2t-6 1t-10 1h-14
h-26q-3 0 -5 1.5t-3 2.5v2v59q-46 13 -73.5 48t-25.5 82v234q-2 55 34.5 92t93.5 44q86 11 137 -44q13 -11 9 -21t-11 -16t-17 -10q-14 -2 -18.5 -1.5t-14.5 8.5t-14 10q-24 16 -52 16q-43 0 -64.5 -23.5t-22.5 -53.5z" />
    <glyph glyph-name="egrave" unicode="&#xe8;" 
d="M211 630l-80 50q-30 19 -42 0q-21 -30 0 -42q41 -30 105 -58q9 -4 18.5 0.5t13.5 10.5q11 19 -15 39zM83 178v-43q2 -30 23.5 -53.5t63.5 -23.5q25 0 53 17q2 1 14.5 10t21.5 13.5t17 4.5q15 0 21 -13t-4 -37q-23 -29 -61 -43.5t-80 -8.5q-58 8 -94 44.5t-33 91.5v230
q-3 55 33 91.5t94 43.5q61 9 111 -23q80 -57 -8 -183q-78 -98 -172 -118zM84 377v-96q0 -16 4.5 -21.5t18.5 -5.5q8 0 35.5 20t55 48t39.5 57.5t-12 47.5q-31 19 -55 19q-38 0 -59.5 -20.5t-26.5 -48.5z" />
    <glyph glyph-name="eacute" unicode="&#xe9;" 
d="M205 680l-80 -50q-26 -20 -15 -39q4 -6 13.5 -10.5t18.5 -0.5q64 28 105 58q21 12 0 42q-12 19 -42 0zM83 178v-43q2 -30 23.5 -53.5t63.5 -23.5q25 0 53 17q2 1 14.5 10t21.5 13.5t17 4.5q15 0 21 -13t-4 -37q-23 -29 -61 -43.5t-80 -8.5q-58 8 -94 44.5t-33 91.5v230
q-3 55 33 91.5t94 43.5q61 9 111 -23q80 -57 -8 -183q-78 -98 -172 -118zM84 377v-96q0 -16 4.5 -21.5t18.5 -5.5q8 0 35.5 20t55 48t39.5 57.5t-12 47.5q-31 19 -55 19q-38 0 -59.5 -20.5t-26.5 -48.5z" />
    <glyph glyph-name="ecircumflex" unicode="&#xea;" 
d="M242 627q13 -9 0 -33q-14 -24 -36 0q-20 20 -37 30l-34 -30q-23 -23 -37 0q-17 21 0 33q55 42 64 44h17q8 -2 63 -44zM83 178v-43q2 -30 23.5 -53.5t63.5 -23.5q25 0 53 17q2 1 14.5 10t21.5 13.5t17 4.5q15 0 21 -13t-4 -37q-23 -29 -61 -43.5t-80 -8.5q-58 8 -94 44.5
t-33 91.5v230q-3 55 33 91.5t94 43.5q61 9 111 -23q80 -57 -8 -183q-78 -98 -172 -118zM84 377v-96q0 -16 4.5 -21.5t18.5 -5.5q8 0 35.5 20t55 48t39.5 57.5t-12 47.5q-31 19 -55 19q-38 0 -59.5 -20.5t-26.5 -48.5z" />
    <glyph glyph-name="edieresis" unicode="&#xeb;" 
d="M77 618q0 -40 18 -40q40 0 40 19v42q0 10 -10 16.5t-24 6.5q-15 0 -19.5 -8t-4.5 -36zM197 618q0 -40 18 -40q40 0 40 19v42q0 10 -10 16.5t-24 6.5q-15 0 -19.5 -8t-4.5 -36zM83 178v-43q2 -30 23.5 -53.5t63.5 -23.5q25 0 53 17q2 1 14.5 10t21.5 13.5t17 4.5
q15 0 21 -13t-4 -37q-23 -29 -61 -43.5t-80 -8.5q-58 8 -94 44.5t-33 91.5v230q-3 55 33 91.5t94 43.5q61 9 111 -23q80 -57 -8 -183q-78 -98 -172 -118zM84 377v-96q0 -16 4.5 -21.5t18.5 -5.5q8 0 35.5 20t55 48t39.5 57.5t-12 47.5q-31 19 -55 19q-38 0 -59.5 -20.5
t-26.5 -48.5z" />
    <glyph glyph-name="igrave" unicode="&#xec;" horiz-adv-x="200" 
d="M156 627l-80 50q-30 19 -42 0q-21 -30 0 -42q41 -30 105 -58q9 -4 18.5 0.5t13.5 10.5q11 19 -15 39zM115 469v-434q0 -35 21 -35q37 0 37 19v459q0 22 -34 22q-24 0 -24 -31z" />
    <glyph glyph-name="iacute" unicode="&#xed;" horiz-adv-x="200" 
d="M124 707l-80 -50q-26 -20 -15 -39q4 -6 13.5 -10.5t18.5 -0.5q64 28 105 58q21 12 0 42q-12 19 -42 0zM41 469v-434q0 -35 21 -35q37 0 37 19v459q0 22 -34 22q-24 0 -24 -31z" />
    <glyph glyph-name="icircumflex" unicode="&#xee;" horiz-adv-x="208" 
d="M177 638q13 -9 0 -33q-14 -24 -36 0q-20 20 -37 30l-34 -30q-23 -23 -37 0q-17 21 0 33q55 42 64 44h17q8 -2 63 -44zM74 469v-434q0 -35 21 -35q37 0 37 19v459q0 22 -34 22q-24 0 -24 -31z" />
    <glyph glyph-name="idieresis" unicode="&#xef;" horiz-adv-x="218" 
d="M25 665q0 -40 18 -40q40 0 40 19v42q0 10 -10 16.5t-24 6.5q-15 0 -19.5 -8t-4.5 -36zM135 665q0 -40 18 -40q40 0 40 19v42q0 10 -10 16.5t-24 6.5q-15 0 -19.5 -8t-4.5 -36zM84 469v-434q0 -35 21 -35q37 0 37 19v459q0 22 -34 22q-24 0 -24 -31z" />
    <glyph glyph-name="ntilde" unicode="&#xf1;" horiz-adv-x="339" 
d="M273 601q7 -10 3 -27q-30 -15 -55 -15q-7 0 -17 2q-19 5 -45 31q-14 15 -22 15q-29 0 -46 -29q-10 2 -16 8q-12 8 -16 18q30 44 78 44q26 0 53 -29q14 -16 24 -18q16 -5 48 12q8 -8 11 -12zM25 19v469q0 18 29 18q31 0 31 -28q39 24 84 24q43 0 74.5 -15t45 -37.5
t19.5 -41t6 -32.5v-358q0 -11 -7 -14.5t-25 -3.5q-28 0 -28 18v360q-6 26 -26.5 46t-57.5 20q-38 0 -59 -21.5t-27 -47.5v-356q0 -19 -31 -19q-17 0 -22.5 4t-5.5 15z" />
    <glyph glyph-name="ograve" unicode="&#xf2;" horiz-adv-x="353" 
d="M215 634l-80 50q-30 19 -42 0q-21 -30 0 -42q41 -30 105 -58q9 -4 18.5 0.5t13.5 10.5q11 19 -15 39zM328 382v-263q0 -46 -31 -78t-76 -39t-89.5 0t-75.5 39t-31 78v263q0 34 16.5 60t43.5 39.5t59 20t64.5 0t59.5 -20t43.5 -40t16.5 -59.5zM81 368v-235q0 -3 1 -8.5
t6.5 -19.5t14.5 -24.5t28 -19t45 -8.5q44 0 67.5 20t24.5 40l2 20v235v8.5t-4.5 19.5t-13 24.5t-28.5 19t-48 8.5q-41 0 -64.5 -20t-27.5 -40z" />
    <glyph glyph-name="ocircumflex" unicode="&#xf4;" horiz-adv-x="353" 
d="M246 631q13 -9 0 -33q-14 -24 -36 0q-20 20 -37 30l-34 -30q-23 -23 -37 0q-16 21 0 33q55 42 64 44h17q8 -2 63 -44zM328 382v-263q0 -46 -31 -78t-76 -39t-89.5 0t-75.5 39t-31 78v263q0 34 16.5 60t43.5 39.5t59 20t64.5 0t59.5 -20t43.5 -40t16.5 -59.5zM81 368v-235
q0 -3 1 -8.5t6.5 -19.5t14.5 -24.5t28 -19t45 -8.5q44 0 67.5 20t24.5 40l2 20v235v8.5t-4.5 19.5t-13 24.5t-28.5 19t-48 8.5q-41 0 -64.5 -20t-27.5 -40z" />
    <glyph glyph-name="otilde" unicode="&#xf5;" horiz-adv-x="353" 
d="M277 613q7 -10 3 -27q-30 -15 -55 -15q-7 0 -17 2q-19 5 -45 31q-14 15 -22 15q-29 0 -46 -29q-10 2 -16 8q-12 8 -16 18q30 44 78 44q26 0 53 -29q14 -16 24 -18q16 -5 48 12q8 -8 11 -12zM328 382v-263q0 -46 -31 -78t-76 -39t-89.5 0t-75.5 39t-31 78v263
q0 34 16.5 60t43.5 39.5t59 20t64.5 0t59.5 -20t43.5 -40t16.5 -59.5zM81 368v-235q0 -3 1 -8.5t6.5 -19.5t14.5 -24.5t28 -19t45 -8.5q44 0 67.5 20t24.5 40l2 20v235v8.5t-4.5 19.5t-13 24.5t-28.5 19t-48 8.5q-41 0 -64.5 -20t-27.5 -40z" />
    <glyph glyph-name="odieresis" unicode="&#xf6;" horiz-adv-x="353" 
d="M81 622q0 -40 18 -40q40 0 40 19v42q0 10 -10 16.5t-24 6.5q-15 0 -19.5 -8t-4.5 -36zM201 622q0 -40 18 -40q40 0 40 19v42q0 10 -10 16.5t-24 6.5q-15 0 -19.5 -8t-4.5 -36zM328 382v-263q0 -46 -31 -78t-76 -39t-89.5 0t-75.5 39t-31 78v263q0 34 16.5 60t43.5 39.5
t59 20t64.5 0t59.5 -20t43.5 -40t16.5 -59.5zM81 368v-235q0 -3 1 -8.5t6.5 -19.5t14.5 -24.5t28 -19t45 -8.5q44 0 67.5 20t24.5 40l2 20v235v8.5t-4.5 19.5t-13 24.5t-28.5 19t-48 8.5q-41 0 -64.5 -20t-27.5 -40z" />
    <glyph glyph-name="divide" unicode="&#xf7;" horiz-adv-x="512" 
d="M286 471q0 40 -18 40q-17 0 -33.5 -5t-16.5 -14v-42q0 -10 14.5 -16.5t29.5 -6.5t19.5 8t4.5 36zM456 337h-396q-35 0 -35 -21q0 -37 19 -37h421q22 0 22 34q0 24 -31 24zM286 134q0 40 -18 40q-17 0 -33.5 -5t-16.5 -14v-42q0 -10 14.5 -16.5t29.5 -6.5t19.5 8t4.5 36z
" />
    <glyph glyph-name="ugrave" unicode="&#xf9;" horiz-adv-x="340" 
d="M208 628l-80 50q-30 19 -42 0q-21 -30 0 -42q41 -30 105 -58q9 -4 18.5 0.5t13.5 10.5q11 19 -15 39zM315 486v-471q0 -18 -30 -18q-31 0 -31 28q-39 -24 -84 -24q-35 0 -62.5 10.5t-42.5 25.5t-24.5 34t-12.5 32.5t-3 24.5v359q0 11 7 14t25 3q16 0 22 -3.5t6 -13.5
v-361q6 -26 26.5 -46t57.5 -20q39 0 60 21.5t26 47.5v357q0 10 6.5 14t24.5 4q17 0 23 -3.5t6 -14.5z" />
    <glyph glyph-name="uacute" unicode="&#xfa;" horiz-adv-x="340" 
d="M202 678l-80 -50q-26 -20 -15 -39q4 -6 13.5 -10.5t18.5 -0.5q64 28 105 58q21 12 0 42q-12 19 -42 0zM315 486v-471q0 -18 -30 -18q-31 0 -31 28q-39 -24 -84 -24q-35 0 -62.5 10.5t-42.5 25.5t-24.5 34t-12.5 32.5t-3 24.5v359q0 11 7 14t25 3q16 0 22 -3.5t6 -13.5
v-361q6 -26 26.5 -46t57.5 -20q39 0 60 21.5t26 47.5v357q0 10 6.5 14t24.5 4q17 0 23 -3.5t6 -14.5z" />
    <glyph glyph-name="ucircumflex" unicode="&#xfb;" horiz-adv-x="340" 
d="M239 625q13 -9 0 -33q-14 -24 -36 0q-20 20 -37 30l-34 -30q-23 -23 -37 0q-17 21 0 33q55 42 64 44h17q8 -2 63 -44zM315 486v-471q0 -18 -30 -18q-31 0 -31 28q-39 -24 -84 -24q-35 0 -62.5 10.5t-42.5 25.5t-24.5 34t-12.5 32.5t-3 24.5v359q0 11 7 14t25 3
q16 0 22 -3.5t6 -13.5v-361q6 -26 26.5 -46t57.5 -20q39 0 60 21.5t26 47.5v357q0 10 6.5 14t24.5 4q17 0 23 -3.5t6 -14.5z" />
    <glyph glyph-name="udieresis" unicode="&#xfc;" horiz-adv-x="340" 
d="M74 616q0 -40 18 -40q40 0 40 19v42q0 10 -10 16.5t-24 6.5q-15 0 -19.5 -8t-4.5 -36zM194 616q0 -40 18 -40q40 0 40 19v42q0 10 -10 16.5t-24 6.5q-15 0 -19.5 -8t-4.5 -36zM315 486v-471q0 -18 -30 -18q-31 0 -31 28q-39 -24 -84 -24q-35 0 -62.5 10.5t-42.5 25.5
t-24.5 34t-12.5 32.5t-3 24.5v359q0 11 7 14t25 3q16 0 22 -3.5t6 -13.5v-361q6 -26 26.5 -46t57.5 -20q39 0 60 21.5t26 47.5v357q0 10 6.5 14t24.5 4q17 0 23 -3.5t6 -14.5z" />
    <glyph glyph-name="Amacron" unicode="&#x100;" horiz-adv-x="330" 
d="M239 884h-146q-35 0 -35 -21q0 -37 19 -37h171q22 0 22 34q0 24 -31 24zM134 714h62q19 0 19 -18q2 -9 46 -339t44 -341q0 -18 -21 -18q-28 0 -31 15q0 2 -3.5 27t-10 75.5t-12.5 98.5q-3 11 -10 11h-104q-7 0 -10 -11q-6 -48 -12.5 -98.5t-10 -75.5t-3.5 -27
q-2 -15 -31 -15q-21 0 -21 18q0 10 43.5 339t45.5 341q5 18 20 18zM133 287h64q11 0 14 2.5t0 15.5q-10 70 -20.5 161.5t-16.5 140t-7 48.5h-4q-1 0 -7 -48.5t-16.5 -140t-20.5 -161.5q-3 -13 0 -15.5t14 -2.5z" />
    <glyph glyph-name="amacron" unicode="&#x101;" horiz-adv-x="316" 
d="M272 683h-146q-35 0 -35 -21q0 -37 19 -37h171q22 0 22 34q0 24 -31 24zM118 468l-2 17q0 6 5 12t11 6q52 2 95 -25q63 -40 63 -142l1 -303q0 -18 -7.5 -26t-23.5 -7h-117q-13 0 -29 5.5t-36.5 20.5t-33 41.5t-18.5 68t7 99.5q16 56 48 85q62 53 137 72q-18 33 -34 45
q-28 18 -51 18q-15 0 -15 13zM234 86v239q0 12 -21 12q-28 0 -79 -47.5t-51 -112.5q0 -67 31.5 -96t69.5 -29q31 0 41 6t9 28z" />
    <glyph glyph-name="abreve" unicode="&#x103;" horiz-adv-x="316" 
d="M195 603q-73 0 -114 46q16 23 50 38q26 -33 64 -33q17 0 31 6.5t19 11t15 15.5q32 -16 50 -38q-43 -46 -115 -46zM118 468l-2 17q0 6 5 12t11 6q52 2 95 -25q63 -40 63 -142l1 -303q0 -18 -7.5 -26t-23.5 -7h-117q-13 0 -29 5.5t-36.5 20.5t-33 41.5t-18.5 68t7 99.5
q16 56 48 85q62 53 137 72q-18 33 -34 45q-28 18 -51 18q-15 0 -15 13zM234 86v239q0 12 -21 12q-28 0 -79 -47.5t-51 -112.5q0 -67 31.5 -96t69.5 -29q31 0 41 6t9 28z" />
    <glyph glyph-name="Aogonek" unicode="&#x104;" horiz-adv-x="330" 
d="M134 714h62q19 0 19 -18q2 -9 46 -339t44 -341q0 -18 -21 -18q-28 0 -31 15q0 2 -3.5 27t-10 75.5t-12.5 98.5q-3 11 -10 11h-104q-7 0 -10 -11q-6 -47 -12 -95t-10 -74.5t-4 -30.5h14q-9 -48 -1 -70q11 -27 53.5 -28t62.5 12q5 -16 -6 -56q-64 -24 -114.5 -3t-50.5 83
q0 23 5 46q-15 3 -15 18q0 10 43.5 339t45.5 341q5 18 20 18zM133 287h64q11 0 14 2.5t0 15.5q-10 70 -20.5 161.5t-16.5 140t-7 48.5h-4q-1 0 -7 -48.5t-16.5 -140t-20.5 -161.5q-3 -13 0 -15.5t14 -2.5z" />
    <glyph glyph-name="aogonek" unicode="&#x105;" horiz-adv-x="316" 
d="M260 0h-72q-4 -37 2 -55q11 -27 53.5 -28t62.5 12q5 -16 -6 -56q-64 -24 -114.5 -3t-50.5 83q0 24 5 47q-14 1 -30 7t-36 21.5t-31.5 42t-17 67t7.5 97.5q16 56 48 85q62 53 137 72q-18 33 -34 45q-28 18 -51 18q-15 0 -15 13l-2 17q0 6 5 12t11 6q52 2 95 -25
q63 -40 63 -142l1 -303q0 -18 -7.5 -26t-23.5 -7zM234 86v239q0 12 -21 12q-28 0 -79 -47.5t-51 -112.5q0 -67 31.5 -96t69.5 -29q31 0 41 6t9 28z" />
    <glyph glyph-name="Ccaron" unicode="&#x10c;" horiz-adv-x="308" 
d="M82 885q-12 10 0 33q15 23 36 0q20 -21 37 -31l34 30q25 23 37 0q17 -23 0 -33q-54 -42 -64 -43l-17 -1q-12 3 -63 45zM77 601v-488q1 -25 19.5 -45.5t54.5 -20.5q30 0 53 20.5t23 40.5q0 7 14 11.5t28 0t14 -18.5q0 -47 -44 -79.5t-103 -25.5q-49 6 -81 38.5t-30 78.5
v486q-2 47 29.5 79.5t81.5 38.5q59 7 103 -25.5t44 -79.5q0 -13 -14 -17.5t-28 -0.5t-14 11q0 20 -23 41t-53 21q-36 0 -54.5 -20.5t-19.5 -45.5z" />
    <glyph glyph-name="ccaron" unicode="&#x10d;" 
d="M92 665q-12 10 0 33q15 23 36 0q20 -21 37 -31l34 30q25 23 37 0q17 -23 0 -33q-54 -42 -64 -43l-17 -1q-12 3 -63 45zM85 368v-236q1 -30 22.5 -53.5t64.5 -23.5q34 0 62 24q27 19 44 21q12 0 18 -13.5t3 -25.5q0 -7 -3 -12q-22 -28 -60.5 -42.5t-82.5 -9.5
q-57 7 -93.5 44t-34.5 92v234q-2 55 34.5 92t93.5 44q86 11 137 -44q13 -11 9 -21t-11 -16t-17 -10q-14 -2 -18.5 -1.5t-14.5 8.5t-14 10q-24 16 -52 16q-43 0 -64.5 -23.5t-22.5 -53.5z" />
    <glyph glyph-name="Dcaron" unicode="&#x10e;" horiz-adv-x="303" 
d="M61 877q-12 10 0 33q15 23 36 0q20 -21 37 -31l34 30q25 23 37 0q17 -23 0 -33q-54 -42 -64 -43l-17 -1q-12 3 -63 45zM278 559v-401q0 -1 0.5 -14.5t0 -19t-1.5 -20t-4.5 -22t-8 -20.5t-13 -20.5t-19.5 -16.5t-27 -14t-35 -7q-39 -4 -119 -4h-3h-2h-5q-16 2 -16 24v668
q0 23 16 26h5q85 0 124 -5q19 -2 35 -7t27 -13.5t19.5 -16.5t13 -21t8 -20.5t4.5 -22t1.5 -20t0 -19t-0.5 -14.5zM225 152v413q0 3 0.5 16t0 18t-2 16t-6 16t-11.5 12t-18.5 10.5t-27.5 5.5h-68q-17 0 -17 -21v-563q0 -19 17 -19h68q16 2 27.5 5.5t18.5 11t11.5 12.5t6 16
t2 16t0 18.5t-0.5 16.5z" />
    <glyph glyph-name="Emacron" unicode="&#x112;" horiz-adv-x="301" 
d="M223 889h-146q-35 0 -35 -21q0 -37 19 -37h171q22 0 22 34q0 24 -31 24zM25 27v660q0 23 17 28h5h225q5 -2 3.5 -15t-9 -28t-13.5 -15h-154q-17 0 -17 -21v-174q0 -18 16 -18h96q13 0 14 -15t-6.5 -30t-15.5 -15h-87q-17 0 -17 -14v-292q0 -21 17 -21h153q6 0 13 -15
t8.5 -27.5t-4.5 -14.5h-218h-2h-2h-5q-17 4 -17 27z" />
    <glyph glyph-name="emacron" unicode="&#x113;" 
d="M241 671h-146q-35 0 -35 -21q0 -37 19 -37h171q22 0 22 34q0 24 -31 24zM83 178v-43q2 -30 23.5 -53.5t63.5 -23.5q25 0 53 17q2 1 14.5 10t21.5 13.5t17 4.5q15 0 21 -13t-4 -37q-23 -29 -61 -43.5t-80 -8.5q-58 8 -94 44.5t-33 91.5v230q-3 55 33 91.5t94 43.5
q61 9 111 -23q80 -57 -8 -183q-78 -98 -172 -118zM84 377v-96q0 -16 4.5 -21.5t18.5 -5.5q8 0 35.5 20t55 48t39.5 57.5t-12 47.5q-31 19 -55 19q-38 0 -59.5 -20.5t-26.5 -48.5z" />
    <glyph glyph-name="ebreve" unicode="&#x115;" 
d="M164 591q-73 0 -114 46q16 23 50 38q26 -33 64 -33q17 0 31 6.5t19 11t15 15.5q32 -16 50 -38q-43 -46 -115 -46zM83 178v-43q2 -30 23.5 -53.5t63.5 -23.5q25 0 53 17q2 1 14.5 10t21.5 13.5t17 4.5q15 0 21 -13t-4 -37q-23 -29 -61 -43.5t-80 -8.5q-58 8 -94 44.5
t-33 91.5v230q-3 55 33 91.5t94 43.5q61 9 111 -23q80 -57 -8 -183q-78 -98 -172 -118zM84 377v-96q0 -16 4.5 -21.5t18.5 -5.5q8 0 35.5 20t55 48t39.5 57.5t-12 47.5q-31 19 -55 19q-38 0 -59.5 -20.5t-26.5 -48.5z" />
    <glyph glyph-name="Eogonek" unicode="&#x118;" horiz-adv-x="301" 
d="M99 57h153q6 0 13 -15t8.5 -27.5t-4.5 -14.5h-178q-9 -48 -1 -70q11 -27 53.5 -28t62.5 12q5 -16 -6 -56q-64 -24 -114.5 -3t-50.5 83q0 35 9 62h-2q-17 4 -17 27v660q0 23 17 28h5h225q5 -2 3.5 -15t-9 -28t-13.5 -15h-154q-17 0 -17 -21v-174q0 -18 16 -18h96
q13 0 14 -15t-6.5 -30t-15.5 -15h-87q-17 0 -17 -14v-292q0 -21 17 -21z" />
    <glyph glyph-name="eogonek" unicode="&#x119;" 
d="M83 178v-43q2 -30 23.5 -53.5t63.5 -23.5q25 0 53 17q2 1 14.5 10t21.5 13.5t17 4.5q15 0 21 -13t-4 -37q-42 -51 -112 -53q-3 -28 3 -46q11 -27 53.5 -28t62.5 12q5 -16 -6 -56q-64 -24 -114.5 -3t-50.5 83q0 24 4 43q-50 12 -80.5 47t-27.5 85v230q-3 55 33 91.5
t94 43.5q61 9 111 -23q80 -57 -8 -183q-78 -98 -172 -118zM84 377v-96q0 -16 4.5 -21.5t18.5 -5.5q8 0 35.5 20t55 48t39.5 57.5t-12 47.5q-31 19 -55 19q-38 0 -59.5 -20.5t-26.5 -48.5z" />
    <glyph glyph-name="Ecaron" unicode="&#x11a;" horiz-adv-x="301" 
d="M74 886q-12 10 0 33q15 23 36 0q20 -21 37 -31l34 30q25 23 37 0q16 -23 0 -33q-54 -42 -64 -43l-17 -1q-12 3 -63 45zM25 27v660q0 23 17 28h5h225q5 -2 3.5 -15t-9 -28t-13.5 -15h-154q-17 0 -17 -21v-174q0 -18 16 -18h96q13 0 14 -15t-6.5 -30t-15.5 -15h-87
q-17 0 -17 -14v-292q0 -21 17 -21h153q6 0 13 -15t8.5 -27.5t-4.5 -14.5h-218h-2h-2h-5q-17 4 -17 27z" />
    <glyph glyph-name="ecaron" unicode="&#x11b;" 
d="M92 668q-12 10 0 33q15 23 36 0q20 -21 37 -31l34 30q25 23 37 0q17 -23 0 -33q-54 -42 -64 -43l-17 -1q-12 3 -63 45zM83 178v-43q2 -30 23.5 -53.5t63.5 -23.5q25 0 53 17q2 1 14.5 10t21.5 13.5t17 4.5q15 0 21 -13t-4 -37q-23 -29 -61 -43.5t-80 -8.5q-58 8 -94 44.5
t-33 91.5v230q-3 55 33 91.5t94 43.5q61 9 111 -23q80 -57 -8 -183q-78 -98 -172 -118zM84 377v-96q0 -16 4.5 -21.5t18.5 -5.5q8 0 35.5 20t55 48t39.5 57.5t-12 47.5q-31 19 -55 19q-38 0 -59.5 -20.5t-26.5 -48.5z" />
    <glyph glyph-name="Itilde" unicode="&#x128;" horiz-adv-x="105" 
d="M160 819q7 -10 3 -27q-30 -15 -55 -15q-7 0 -17 2q-19 5 -45 31q-14 15 -22 15q-29 0 -46 -29q-10 2 -16 8q-12 8 -16 18q30 44 78 44q26 0 53 -29q14 -16 24 -18q17 -5 48 12q8 -8 11 -12zM25 693v-672q0 -11 4 -15t15 -4q36 0 36 14v686q0 20 -33 20q-22 0 -22 -29z
" />
    <glyph glyph-name="itilde" unicode="&#x129;" horiz-adv-x="108" 
d="M25 469v-434q0 -35 21 -35q37 0 37 19v459q0 22 -34 22q-24 0 -24 -31z" />
    <glyph glyph-name="Imacron" unicode="&#x12a;" horiz-adv-x="105" 
d="M128 881h-146q-35 0 -35 -21q0 -37 19 -37h171q22 0 22 34q0 24 -31 24zM25 693v-672q0 -11 4 -15t15 -4q36 0 36 14v686q0 20 -33 20q-22 0 -22 -29z" />
    <glyph glyph-name="imacron" unicode="&#x12b;" horiz-adv-x="262" 
d="M206 667h-146q-35 0 -35 -21q0 -37 19 -37h171q22 0 22 34q0 24 -31 24zM102 469v-434q0 -35 21 -35q37 0 37 19v459q0 22 -34 22q-24 0 -24 -31z" />
    <glyph glyph-name="ibreve" unicode="&#x12d;" horiz-adv-x="279" 
d="M139 591q-73 0 -114 46q16 23 50 38q26 -33 64 -33q17 0 31 6.5t19 11t15 15.5q32 -16 50 -38q-43 -46 -115 -46zM110 469v-434q0 -35 21 -35q37 0 37 19v459q0 22 -34 22q-24 0 -24 -31z" />
    <glyph glyph-name="Ncaron" unicode="&#x147;" horiz-adv-x="314" 
d="M78 862q-12 10 0 33q15 23 36 0q20 -21 37 -31l34 30q25 23 37 0q16 -23 0 -33q-54 -42 -64 -43l-17 -1q-12 3 -63 45zM47 714h5q18 2 24 -10q3 -3 3 -10q6 -19 66 -221.5t91 -302.5l-1 517q0 27 23 27q31 0 31 -20v-675q0 -8 -12 -17.5t-23 -9.5q-5 0 -10 5q-7 6 -13 21
q-2 4 -26 82t-63 204.5t-63 203.5v-489q0 -8 -12 -17.5t-23 -9.5q-17 0 -19 32v663v2q0 8 2 12q5 13 20 13z" />
    <glyph glyph-name="ncaron" unicode="&#x148;" horiz-adv-x="339" 
d="M92 660q-12 10 0 33q15 23 36 0q20 -21 37 -31l34 30q25 23 37 0q16 -23 0 -33q-54 -42 -64 -43l-17 -1q-12 3 -63 45zM25 19v469q0 18 29 18q31 0 31 -28q39 24 84 24q43 0 74.5 -15t45 -37.5t19.5 -41t6 -32.5v-358q0 -11 -7 -14.5t-25 -3.5q-28 0 -28 18v360
q-6 26 -26.5 46t-57.5 20q-38 0 -59 -21.5t-27 -47.5v-356q0 -19 -31 -19q-17 0 -22.5 4t-5.5 15z" />
    <glyph glyph-name="Omacron" unicode="&#x14c;" horiz-adv-x="318" 
d="M234 884h-146q-35 0 -35 -21q0 -37 19 -37h171q22 0 22 34q0 24 -31 24zM25 97v519q0 41 27.5 69.5t67 35t79 -0.5t67 -35t27.5 -69q-2 -11 0 -519q0 -41 -27.5 -69t-67 -35t-79 -0.5t-67 35t-27.5 69.5zM78 604v-495q0 -3 0.5 -7.5t4.5 -16.5t11.5 -21.5t24.5 -17
t40 -7.5q39 0 58.5 17.5t20.5 35.5v17v495q-1 1 0.5 7.5t-3 17t-11 20.5t-24 17t-41.5 7q-36 0 -56.5 -17.5t-22.5 -34.5z" />
    <glyph glyph-name="omacron" unicode="&#x14d;" horiz-adv-x="353" 
d="M245 675h-146q-35 0 -35 -21q0 -37 19 -37h171q22 0 22 34q0 24 -31 24zM328 382v-263q0 -46 -31 -78t-76 -39t-89.5 0t-75.5 39t-31 78v263q0 34 16.5 60t43.5 39.5t59 20t64.5 0t59.5 -20t43.5 -40t16.5 -59.5zM81 368v-235q0 -3 1 -8.5t6.5 -19.5t14.5 -24.5t28 -19
t45 -8.5q44 0 67.5 20t24.5 40l2 20v235v8.5t-4.5 19.5t-13 24.5t-28.5 19t-48 8.5q-41 0 -64.5 -20t-27.5 -40z" />
    <glyph glyph-name="obreve" unicode="&#x14f;" horiz-adv-x="353" 
d="M168 595q-73 0 -114 46q16 23 50 38q26 -33 64 -33q17 0 31 6.5t19 11t15 15.5q32 -16 50 -38q-43 -46 -115 -46zM328 382v-263q0 -46 -31 -78t-76 -39t-89.5 0t-75.5 39t-31 78v263q0 34 16.5 60t43.5 39.5t59 20t64.5 0t59.5 -20t43.5 -40t16.5 -59.5zM81 368v-235
q0 -3 1 -8.5t6.5 -19.5t14.5 -24.5t28 -19t45 -8.5q44 0 67.5 20t24.5 40l2 20v235v8.5t-4.5 19.5t-13 24.5t-28.5 19t-48 8.5q-41 0 -64.5 -20t-27.5 -40z" />
    <glyph glyph-name="Rcaron" unicode="&#x158;" 
d="M68 862q-12 10 0 33q15 23 36 0q20 -21 37 -31l34 30q25 23 37 0q16 -23 0 -33q-54 -42 -64 -43l-17 -1q-12 3 -63 45zM181 376l119 -360q-2 -16 -23 -18q-9 -1 -18 2.5t-14 7.5l-5 4q-103 316 -114 348q-4 12 -13 12h-19q-14 0 -14 -12v-344q0 -8 -11.5 -13.5
t-21.5 -5.5h-5h-4.5t-4 0.5t-4 2t-2 4t-2 6t-0.5 8.5v673q0 15 4.5 21t21.5 6q84 0 118 -4q22 -2 40.5 -8t31 -15.5t22 -18.5t15.5 -23.5t10 -24t5.5 -25.5t2 -23t0.5 -21.5v-15.5v-14.5t-5.5 -34.5t-16 -45t-35 -40.5t-58.5 -28.5zM80 639v-188q0 -18 17 -18h17.5h22h14.5
q96 5 93 111q0 17 -0.5 27.5t-5.5 27.5t-13.5 27.5t-25.5 19.5t-42 12q-18 2 -59 2q-18 0 -18 -21z" />
    <glyph glyph-name="rcaron" unicode="&#x159;" horiz-adv-x="240" 
d="M44 646q-12 10 0 33q15 23 36 0q20 -21 37 -31l34 30q25 23 37 0q17 -23 0 -33q-54 -42 -64 -43l-17 -1q-12 3 -63 45zM84 479v-21q28 35 68 40q18 1 34 0q13 -1 27 -6q3 -9 0 -32q-2 -11 -14 -27q-3 1 -9.5 2.5t-8.5 1.5q-16 2 -31 -1q-29 -5 -47.5 -30t-18.5 -49v-342
q-5 -17 -29 -17q-30 0 -30 17v469q0 17 30 17q29 0 29 -22z" />
    <glyph glyph-name="Scedilla" unicode="&#x15e;" horiz-adv-x="301" 
d="M273 632l1 -7q-22 -18 -43 -21q-7 5 -9 10q-16 48 -62 48q-69 0 -69 -78q0 -39 63 -118q52 -66 79 -116.5t37 -114.5q17 -109 -13 -173q-28 -57 -91 -65v-29q27 0 41 -6.5t20 -26.5l7 -28q14 -51 -33 -75t-97 -1q-8 36 3 41q21 -7 36 -7q57 0 44 50q0 1 -1 4t-1 3.5
t-1.5 2.5t-3.5 2t-6 1t-10 1h-14h-26q-3 0 -5 1.5t-3 3.5v1v62l-5 1q-33 5 -56 27.5t-30 55.5l10 12l10 6q6 2 12 3t9 0h4l1 -1q6 -43 47 -49q23 -5 49.5 2.5t36.5 28.5q25 49 10 144q-14 89 -105 207q-2 2 -6 7t-7 8q-21 28 -30.5 41.5t-20.5 40.5t-11 53q0 57 36 94t90 37
q37 0 69 -23t44 -60z" />
    <glyph glyph-name="scedilla" unicode="&#x15f;" horiz-adv-x="315" 
d="M151 303l8 -6q8 -6 21.5 -15.5t22 -15.5t21.5 -16t20.5 -17.5t17.5 -19.5t14 -22l10 -25t4 -29t-2 -34q-6 -59 -58 -89q-28 -12 -54 -16v-30q27 0 41 -6.5t20 -26.5l7 -28q14 -51 -33 -75t-97 -1q-8 36 3 41q21 -7 36 -7q57 0 44 50q0 1 -1 4t-1 3.5t-1.5 2.5t-3.5 2
t-6 1t-10 1h-14h-26q-3 0 -5 1.5t-3 3.5v1v61q-52 3 -96 23q-5 4 -5 14q12 44 21 44q1 0 16.5 -5t39.5 -10t44 -4q38 4 54 12q22 14 25 42q4 23 -1.5 41t-24.5 36.5t-32 28t-46 31.5q-90 57 -93 128q-6 56 46 93q44 33 107 33q47 0 96 -19q7 -4 2 -21q-16 -32 -19 -34
q-4 -3 -11 -3q-29 14 -68 14q-42 0 -70 -18q-21 -18 -21 -40q4 -36 61 -79z" />
    <glyph glyph-name="Scaron" unicode="&#x160;" horiz-adv-x="301" 
d="M85 878q-12 10 0 33q15 23 36 0q20 -21 37 -31l34 30q25 23 37 0q16 -23 0 -33q-54 -42 -64 -43l-17 -1q-12 3 -63 45zM273 632l1 -7q-22 -18 -43 -21q-7 5 -9 10q-16 48 -62 48q-69 0 -69 -78q0 -39 63 -118q52 -66 79 -116.5t37 -114.5q17 -109 -13 -173
q-15 -30 -43.5 -48t-62.5 -18t-40 2q-33 5 -56 27.5t-30 55.5l10 12l10 6q6 2 12 3t9 0h4l1 -1q6 -43 47 -49q23 -5 49.5 2.5t36.5 28.5q25 49 10 144q-14 89 -105 207q-2 2 -6 7t-7 8q-21 28 -30.5 41.5t-20.5 40.5t-11 53q0 57 36 94t90 37q37 0 69 -23t44 -60z" />
    <glyph glyph-name="scaron" unicode="&#x161;" horiz-adv-x="315" 
d="M80 660q-12 10 0 33q15 23 36 0q20 -21 37 -31l34 30q25 23 37 0q16 -23 0 -33q-54 -42 -64 -43l-17 -1q-12 3 -63 45zM151 303l8 -6q8 -6 21.5 -15.5t22 -15.5t21.5 -16t20.5 -17.5t17.5 -19.5t14 -22l10 -25t4 -29t-2 -34q-6 -59 -58 -89q-38 -18 -86 -18h-9
q-52 0 -105 23q-5 4 -5 14q12 44 21 44q1 0 16.5 -5t39.5 -10t44 -4q38 4 54 12q22 14 25 42q4 23 -1.5 41t-24.5 36.5t-32 28t-46 31.5q-90 57 -93 128q-6 56 46 93q44 33 107 33q47 0 96 -19q7 -4 2 -21q-16 -32 -19 -34q-4 -3 -11 -3q-29 14 -68 14q-42 0 -70 -18
q-21 -18 -21 -40q4 -36 61 -79z" />
    <glyph glyph-name="Tcedilla" unicode="&#x162;" horiz-adv-x="345" 
d="M145 17v636q0 11 -9 11h-77q-34 0 -34 19q0 11 10 22t19 11h245q21 0 21 -29q0 -24 -30 -24h-70q-17 0 -20 -14v-637q0 -2 -2 -6v-29q27 0 41 -6.5t20 -26.5l7 -28q14 -51 -33 -75t-97 -1q-8 36 3 41q21 -7 36 -7q57 0 44 50q0 1 -1 4t-1 3.5t-1.5 2.5t-3.5 2t-6 1t-10 1
h-14h-26q-3 0 -5 1.5t-3 2.5v2v62q-1 3 -3 11z" />
    <glyph glyph-name="tcedilla" unicode="&#x163;" horiz-adv-x="272" 
d="M154 518h55q11 0 14.5 -6t3.5 -24q0 -33 -18 -33h-55v-356q0 -26 5.5 -32t36.5 -10q6 0 6 -5v-46q0 -9 -6 -9h-3q-38 2 -57 11v-40q27 0 41 -6.5t20 -26.5l7 -28q14 -51 -33 -75t-97 -1q-8 36 3 41q21 -7 36 -7q57 0 44 50q0 1 -1 4t-1 3.5t-1.5 2.5t-3.5 2t-6 1t-10 1
h-14h-26q-3 0 -5 1.5t-3 3.5v1v76h44q-39 22 -36 97v347h-43q-21 0 -21 33q0 18 4.5 24t16.5 6h43v117q0 18 30 18t30 -18v-117z" />
    <glyph glyph-name="Tcaron" unicode="&#x164;" horiz-adv-x="345" 
d="M103 868q-12 10 0 33q15 23 36 0q20 -21 37 -31l34 30q25 23 37 0q17 -23 0 -33q-54 -42 -64 -43l-17 -1q-12 3 -63 45zM145 17v636q0 11 -9 11h-77q-34 0 -34 19q0 11 10 22t19 11h245q21 0 21 -29q0 -24 -30 -24h-70q-17 0 -20 -14v-637q0 -16 -33 -16q-21 0 -22 21z
" />
    <glyph glyph-name="Utilde" unicode="&#x168;" horiz-adv-x="320" 
d="M265 828q7 -10 3 -27q-30 -15 -55 -15q-7 0 -17 2q-19 5 -45 31q-14 15 -22 15q-29 0 -46 -29q-10 2 -16 8q-12 8 -16 18q30 44 78 44q26 0 53 -29q14 -16 24 -18q16 -4 48 12q8 -8 11 -12zM79 702v-584q1 -1 0 -7.5t3.5 -17.5t11 -21t24 -17.5t42.5 -7.5q24 0 41 7.5
t24.5 17.5t11.5 20.5t4 17.5v8v585q0 6 3.5 9.5t7.5 3.5l3 1h27q6 0 9.5 -3.5t3.5 -7.5v-3v-597q0 -45 -37.5 -78t-92.5 -34h-10q-54 1 -92 34.5t-38 78.5v598q-1 12 11 12h26q8 0 12 -3.5t4 -7.5z" />
    <glyph glyph-name="utilde" unicode="&#x169;" horiz-adv-x="340" 
d="M270 607q7 -10 3 -27q-30 -15 -55 -15q-7 0 -17 2q-19 5 -45 31q-14 15 -22 15q-29 0 -46 -29q-10 2 -16 8q-12 8 -16 18q30 44 78 44q26 0 53 -29q14 -16 24 -18q17 -5 48 12q8 -8 11 -12zM315 486v-471q0 -18 -30 -18q-31 0 -31 28q-39 -24 -84 -24q-35 0 -62.5 10.5
t-42.5 25.5t-24.5 34t-12.5 32.5t-3 24.5v359q0 11 7 14t25 3q16 0 22 -3.5t6 -13.5v-361q6 -26 26.5 -46t57.5 -20q39 0 60 21.5t26 47.5v357q0 10 6.5 14t24.5 4q17 0 23 -3.5t6 -14.5z" />
    <glyph glyph-name="Umacron" unicode="&#x16a;" horiz-adv-x="320" 
d="M233 890h-146q-35 0 -35 -21q0 -37 19 -37h171q22 0 22 34q0 24 -31 24zM79 702v-584q1 -1 0 -7.5t3.5 -17.5t11 -21t24 -17.5t42.5 -7.5q24 0 41 7.5t24.5 17.5t11.5 20.5t4 17.5v8v585q0 6 3.5 9.5t7.5 3.5l3 1h27q6 0 9.5 -3.5t3.5 -7.5v-3v-597q0 -45 -37.5 -78
t-92.5 -34h-10q-54 1 -92 34.5t-38 78.5v598q-1 12 11 12h26q8 0 12 -3.5t4 -7.5z" />
    <glyph glyph-name="umacron" unicode="&#x16b;" horiz-adv-x="340" 
d="M238 669h-146q-35 0 -35 -21q0 -37 19 -37h171q22 0 22 34q0 24 -31 24zM315 486v-471q0 -18 -30 -18q-31 0 -31 28q-39 -24 -84 -24q-35 0 -62.5 10.5t-42.5 25.5t-24.5 34t-12.5 32.5t-3 24.5v359q0 11 7 14t25 3q16 0 22 -3.5t6 -13.5v-361q6 -26 26.5 -46t57.5 -20
q39 0 60 21.5t26 47.5v357q0 10 6.5 14t24.5 4q17 0 23 -3.5t6 -14.5z" />
    <glyph glyph-name="ubreve" unicode="&#x16d;" horiz-adv-x="340" 
d="M161 589q-73 0 -114 46q16 23 50 38q26 -33 64 -33q17 0 31 6.5t19 11t15 15.5q32 -16 50 -38q-43 -46 -115 -46zM315 486v-471q0 -18 -30 -18q-31 0 -31 28q-39 -24 -84 -24q-35 0 -62.5 10.5t-42.5 25.5t-24.5 34t-12.5 32.5t-3 24.5v359q0 11 7 14t25 3q16 0 22 -3.5
t6 -13.5v-361q6 -26 26.5 -46t57.5 -20q39 0 60 21.5t26 47.5v357q0 10 6.5 14t24.5 4q17 0 23 -3.5t6 -14.5z" />
    <glyph glyph-name="Uring" unicode="&#x16e;" horiz-adv-x="320" 
d="M159 976q33 0 52.5 -23.5t19.5 -59.5t-19.5 -59.5t-52.5 -23.5q-34 0 -55 24t-21 59t21 59t55 24zM159 849q34 0 34 44t-34 44q-17 0 -27.5 -12.5t-10.5 -31.5t10 -31.5t28 -12.5zM79 702v-584q1 -1 0 -7.5t3.5 -17.5t11 -21t24 -17.5t42.5 -7.5q24 0 41 7.5t24.5 17.5
t11.5 20.5t4 17.5v8v585q0 6 3.5 9.5t7.5 3.5l3 1h27q6 0 9.5 -3.5t3.5 -7.5v-3v-597q0 -45 -37.5 -78t-92.5 -34h-10q-54 1 -92 34.5t-38 78.5v598q-1 12 11 12h26q8 0 12 -3.5t4 -7.5z" />
    <glyph glyph-name="uring" unicode="&#x16f;" horiz-adv-x="340" 
d="M164 755q33 0 52.5 -23.5t19.5 -59.5t-19.5 -59.5t-52.5 -23.5q-34 0 -55 24t-21 59t21 59t55 24zM164 628q34 0 34 44t-34 44q-17 0 -27.5 -12.5t-10.5 -31.5t10 -31.5t28 -12.5zM315 486v-471q0 -18 -30 -18q-31 0 -31 28q-39 -24 -84 -24q-35 0 -62.5 10.5t-42.5 25.5
t-24.5 34t-12.5 32.5t-3 24.5v359q0 11 7 14t25 3q16 0 22 -3.5t6 -13.5v-361q6 -26 26.5 -46t57.5 -20q39 0 60 21.5t26 47.5v357q0 10 6.5 14t24.5 4q17 0 23 -3.5t6 -14.5z" />
    <glyph glyph-name="Uogonek" unicode="&#x172;" horiz-adv-x="320" 
d="M79 702v-584q1 -1 0 -7.5t3.5 -17.5t11 -21t24 -17.5t42.5 -7.5q24 0 41 7.5t24.5 17.5t11.5 20.5t4 17.5v8v585q0 6 3.5 9.5t7.5 3.5l3 1h27q6 0 9.5 -3.5t3.5 -7.5v-3v-597q0 -45 -37.5 -78t-92.5 -34h-10q-54 1 -92 34.5t-38 78.5v598q-1 12 11 12h26q8 0 12 -3.5
t4 -7.5zM44 0h47q-9 -48 -1 -70q11 -27 53.5 -28t62.5 12q5 -16 -6 -56q-64 -24 -114.5 -3t-50.5 83q0 35 9 62z" />
    <glyph glyph-name="uogonek" unicode="&#x173;" horiz-adv-x="340" 
d="M315 486v-471q0 -18 -30 -18q-31 0 -31 28q-39 -24 -84 -24q-35 0 -62.5 10.5t-42.5 25.5t-24.5 34t-12.5 32.5t-3 24.5v359q0 11 7 14t25 3q16 0 22 -3.5t6 -13.5v-361q6 -26 26.5 -46t57.5 -20q39 0 60 21.5t26 47.5v357q0 10 6.5 14t24.5 4q17 0 23 -3.5t6 -14.5z
M44 9h47q-9 -48 -1 -70q11 -27 53.5 -28t62.5 12q5 -16 -6 -56q-64 -24 -114.5 -3t-50.5 83q0 35 9 62z" />
    <glyph glyph-name="Zcaron" unicode="&#x17d;" horiz-adv-x="334" 
d="M96 874q-12 10 0 33q15 23 36 0q20 -21 37 -31l34 30q25 23 37 0q16 -23 0 -33q-54 -42 -64 -43l-17 -1q-12 3 -63 45zM59 716h223q16 0 21.5 -4.5t5.5 -15.5v-26q0 -12 -7 -29l-213 -566q-8 -21 4 -21h193q19 0 12 -27q-9 -25 -23 -28h-236q-14 0 -14 52l217 588
q3 11 0.5 13.5t-14.5 2.5h-168q-8 0 -13 15.5t-2 30.5t14 15z" />
    <glyph glyph-name="zcaron" unicode="&#x17e;" horiz-adv-x="343" 
d="M92 659q-12 10 0 33q15 23 36 0q20 -21 37 -31l34 30q25 23 37 0q16 -23 0 -33q-54 -42 -64 -43l-17 -1q-12 3 -63 45zM34 451v35q0 14 9 14h232q27 0 38 -21q10 -19 -3 -43l-207 -371q-3 -5 4 -5l196 2q4 0 5.5 -2.5t1.5 -5.5v-2v-46q0 -6 -7 -6h-235q-26 0 -39 21
q-10 19 3 43l208 372v3q-1 1 -5 1h-189q-12 0 -12 11z" />
    <glyph glyph-name="Acaron" unicode="&#x1cd;" horiz-adv-x="330" 
d="M90 881q-12 10 0 33q15 23 36 0q20 -21 37 -31l34 30q25 23 37 0q16 -23 0 -33q-54 -42 -64 -43l-17 -1q-12 3 -63 45zM134 714h62q19 0 19 -18q2 -9 46 -339t44 -341q0 -18 -21 -18q-28 0 -31 15q0 2 -3.5 27t-10 75.5t-12.5 98.5q-3 11 -10 11h-104q-7 0 -10 -11
q-6 -48 -12.5 -98.5t-10 -75.5t-3.5 -27q-2 -15 -31 -15q-21 0 -21 18q0 10 43.5 339t45.5 341q5 18 20 18zM133 287h64q11 0 14 2.5t0 15.5q-10 70 -20.5 161.5t-16.5 140t-7 48.5h-4q-1 0 -7 -48.5t-16.5 -140t-20.5 -161.5q-3 -13 0 -15.5t14 -2.5z" />
    <glyph glyph-name="acaron" unicode="&#x1ce;" horiz-adv-x="316" 
d="M123 680q-12 10 0 33q15 23 36 0q20 -21 37 -31l34 30q25 23 37 0q17 -23 0 -33q-54 -42 -64 -43l-17 -1q-12 3 -63 45zM118 468l-2 17q0 6 5 12t11 6q52 2 95 -25q63 -40 63 -142l1 -303q0 -18 -7.5 -26t-23.5 -7h-117q-13 0 -29 5.5t-36.5 20.5t-33 41.5t-18.5 68
t7 99.5q16 56 48 85q62 53 137 72q-18 33 -34 45q-28 18 -51 18q-15 0 -15 13zM234 86v239q0 12 -21 12q-28 0 -79 -47.5t-51 -112.5q0 -67 31.5 -96t69.5 -29q31 0 41 6t9 28z" />
    <glyph glyph-name="Icaron" unicode="&#x1cf;" horiz-adv-x="105" 
d="M-21 878q-12 10 0 33q15 23 36 0q20 -21 37 -31l34 30q25 23 37 0q17 -23 0 -33q-54 -42 -64 -43l-17 -1q-12 3 -63 45zM25 693v-672q0 -11 4 -15t15 -4q36 0 36 14v686q0 20 -33 20q-22 0 -22 -29z" />
    <glyph glyph-name="icaron" unicode="&#x1d0;" horiz-adv-x="183" 
d="M6 660q-12 10 0 33q15 23 36 0q20 -21 37 -31l34 30q25 23 37 0q16 -23 0 -33q-54 -42 -64 -43l-17 -1q-12 3 -63 45zM80 469v-434q0 -35 21 -35q37 0 37 19v459q0 22 -34 22q-24 0 -24 -31z" />
    <glyph glyph-name="Ocaron" unicode="&#x1d1;" horiz-adv-x="318" 
d="M85 881q-12 10 0 33q15 23 36 0q20 -21 37 -31l34 30q25 23 37 0q16 -23 0 -33q-54 -42 -64 -43l-17 -1q-12 3 -63 45zM25 97v519q0 41 27.5 69.5t67 35t79 -0.5t67 -35t27.5 -69q-2 -11 0 -519q0 -41 -27.5 -69t-67 -35t-79 -0.5t-67 35t-27.5 69.5zM78 604v-495
q0 -3 0.5 -7.5t4.5 -16.5t11.5 -21.5t24.5 -17t40 -7.5q39 0 58.5 17.5t20.5 35.5v17v495q-1 1 0.5 7.5t-3 17t-11 20.5t-24 17t-41.5 7q-36 0 -56.5 -17.5t-22.5 -34.5z" />
    <glyph glyph-name="ocaron" unicode="&#x1d2;" horiz-adv-x="353" 
d="M96 672q-12 10 0 33q15 23 36 0q20 -21 37 -31l34 30q25 23 37 0q16 -23 0 -33q-54 -42 -64 -43l-17 -1q-12 3 -63 45zM328 382v-263q0 -46 -31 -78t-76 -39t-89.5 0t-75.5 39t-31 78v263q0 34 16.5 60t43.5 39.5t59 20t64.5 0t59.5 -20t43.5 -40t16.5 -59.5zM81 368
v-235q0 -3 1 -8.5t6.5 -19.5t14.5 -24.5t28 -19t45 -8.5q44 0 67.5 20t24.5 40l2 20v235v8.5t-4.5 19.5t-13 24.5t-28.5 19t-48 8.5q-41 0 -64.5 -20t-27.5 -40z" />
    <glyph glyph-name="Ucaron" unicode="&#x1d3;" horiz-adv-x="320" 
d="M84 887q-12 10 0 33q15 23 36 0q20 -21 37 -31l34 30q25 23 37 0q16 -23 0 -33q-54 -42 -64 -43l-17 -1q-12 3 -63 45zM79 702v-584q1 -1 0 -7.5t3.5 -17.5t11 -21t24 -17.5t42.5 -7.5q24 0 41 7.5t24.5 17.5t11.5 20.5t4 17.5v8v585q0 6 3.5 9.5t7.5 3.5l3 1h27
q6 0 9.5 -3.5t3.5 -7.5v-3v-597q0 -45 -37.5 -78t-92.5 -34h-10q-54 1 -92 34.5t-38 78.5v598q-1 12 11 12h26q8 0 12 -3.5t4 -7.5z" />
    <glyph glyph-name="ucaron" unicode="&#x1d4;" horiz-adv-x="340" 
d="M89 666q-12 10 0 33q15 23 36 0q20 -21 37 -31l34 30q25 23 37 0q17 -23 0 -33q-54 -42 -64 -43l-17 -1q-12 3 -63 45zM315 486v-471q0 -18 -30 -18q-31 0 -31 28q-39 -24 -84 -24q-35 0 -62.5 10.5t-42.5 25.5t-24.5 34t-12.5 32.5t-3 24.5v359q0 11 7 14t25 3
q16 0 22 -3.5t6 -13.5v-361q6 -26 26.5 -46t57.5 -20q39 0 60 21.5t26 47.5v357q0 10 6.5 14t24.5 4q17 0 23 -3.5t6 -14.5z" />
    <glyph glyph-name="Gcaron" unicode="&#x1e6;" horiz-adv-x="308" 
d="M78 872q-12 10 0 33q15 23 36 0q20 -21 37 -31l34 30q25 23 37 0q16 -23 0 -33q-54 -42 -64 -43l-17 -1q-12 3 -63 45zM283 265v-187q-3 -45 -46.5 -75t-99.5 -23q-50 6 -81.5 38t-30.5 80v506q-1 47 30.5 79t81.5 39q59 8 102.5 -25t43.5 -80q0 -13 -13.5 -17.5
t-27 -0.5t-13.5 11q0 20 -23 41t-53 21q-37 0 -56 -20.5t-20 -46.5v-508q1 -26 20 -47t56 -21q29 0 52 20.5t24 40.5v178q0 10 -10 10h-40q-32 0 -32 19q0 10 9.5 23t17.5 13q48 11 81 0q14 -5 21 -22t7 -31v-15z" />
    <glyph glyph-name="gcaron" unicode="&#x1e7;" horiz-adv-x="321" 
d="M93 660q-12 10 0 33q15 23 36 0q20 -21 37 -31l34 30q25 23 37 0q16 -23 0 -33q-54 -42 -64 -43l-17 -1q-12 3 -63 45zM296 474v-652q2 -54 -34 -90t-93 -44q-30 -4 -76 7q-16 10 -16 32q0 17 28 29q28 -10 49 -10q42 0 61 21t22 51v187q-43 -16 -86 -10q-57 7 -93 43.5
t-33 90.5v233q-3 54 33 91t93 44q47 6 87 -12q5 13 29 13q29 0 29 -24zM83 372v-243q3 -31 24 -54t63 -23q13 0 24.5 3t19 7t12.5 8.5t8 7.5l3 3v333q-26 26 -67 26q-39 0 -60.5 -19.5t-26.5 -48.5z" />
    <glyph glyph-name="Kcaron" unicode="&#x1e8;" horiz-adv-x="324" 
d="M69 869q-12 10 0 33q15 23 36 0q20 -21 37 -31l34 30q25 23 37 0q17 -23 0 -33q-54 -42 -64 -43l-17 -1q-12 3 -63 45zM296 19l3 -10q2 -14 -18 -18q-9 -1 -18.5 4t-14.5 11l-6 5l-141 315l-19 -43v-271q0 -8 -7.5 -12.5t-14.5 -5.5h-8q-18 0 -22.5 5.5t-4.5 20.5v677
q0 14 4.5 18.5t22.5 4.5q30 1 30 -18v-284q0 -1 1 -2l156 292q1 1 4 2.5t12 3.5t18 1t14 -4.5t5.5 -6t-0.5 -4.5l-165 -305z" />
    <glyph glyph-name="kcaron" unicode="&#x1e9;" horiz-adv-x="333" 
d="M54 768q-12 10 0 33q15 23 36 0q20 -21 37 -31l34 30q25 23 37 0q17 -23 0 -33q-54 -42 -64 -43l-17 -1q-12 3 -63 45zM140 284l162 -266q3 -7 3.5 -11t-7.5 -5.5t-12 -2t-10 -0.5q-16 0 -25 2t-11 4l-1 2l-140 236l-18 -22v-202q0 -13 -6 -16t-20 -3q-10 0 -15 0.5
t-10 5t-5 13.5v631q0 22 30 22q11 0 18.5 -7.5t7.5 -18.5v-344l183 195q15 17 37 -8q14 -19 0 -37z" />
    <glyph glyph-name="Oogonek" unicode="&#x1ea;" horiz-adv-x="318" 
d="M25 97v519q0 41 27.5 69.5t67 35t79 -0.5t67 -35t27.5 -69q-2 -11 0 -519q0 -41 -27.5 -69t-67 -35t-79 -0.5t-67 35t-27.5 69.5zM78 604v-495q0 -3 0.5 -7.5t4.5 -16.5t11.5 -21.5t24.5 -17t40 -7.5q39 0 58.5 17.5t20.5 35.5v17v495q-1 1 0.5 7.5t-3 17t-11 20.5
t-24 17t-41.5 7q-36 0 -56.5 -17.5t-22.5 -34.5zM44 0h47q-9 -48 -1 -70q11 -27 53.5 -28t62.5 12q5 -16 -6 -56q-64 -24 -114.5 -3t-50.5 83q0 35 9 62z" />
    <glyph glyph-name="oogonek" unicode="&#x1eb;" horiz-adv-x="353" 
d="M328 382v-263q0 -54 -40.5 -86t-97.5 -35q-9 -46 -1 -68q11 -27 53.5 -28t62.5 12q5 -16 -6 -56q-65 -24 -115 -3t-50 83q0 35 9 62q-51 8 -84.5 39t-33.5 80v263q0 34 16.5 60t43.5 39.5t59 20t64.5 0t59.5 -20t43.5 -40t16.5 -59.5zM81 368v-235q0 -3 1 -8.5t6.5 -19.5
t14.5 -24.5t28 -19t45 -8.5q44 0 67.5 20t24.5 40l2 20v235v8.5t-4.5 19.5t-13 24.5t-28.5 19t-48 8.5q-41 0 -64.5 -20t-27.5 -40z" />
    <glyph glyph-name="jcaron" unicode="&#x1f0;" horiz-adv-x="210" 
d="M33 683q-12 10 0 33q15 23 36 0q20 -21 37 -31l34 30q25 23 37 0q16 -23 0 -33q-54 -42 -64 -43l-17 -1q-12 3 -63 45zM115 501h29q8 0 12 -9.5t4 -19.5l1 -9v-648q0 -49 -31 -83.5t-80 -42.5q-3 -3 -5.5 -1.5t-2.5 4.5q-4 3 -10.5 19t-6.5 23q0 8 5 8q34 3 52 24.5
t21 48.5v665q0 21 12 21z" />
    <glyph glyph-name="uni01F8" unicode="&#x1f8;" horiz-adv-x="314" 
d="M197 824l-80 50q-30 19 -42 0q-21 -30 0 -42q41 -30 105 -58q9 -4 18.5 0.5t13.5 10.5q11 19 -15 39zM47 714h5q18 2 24 -10q3 -3 3 -10q6 -19 66 -221.5t91 -302.5l-1 517q0 27 23 27q31 0 31 -20v-675q0 -8 -12 -17.5t-23 -9.5q-5 0 -10 5q-7 6 -13 21q-2 4 -26 82
t-63 204.5t-63 203.5v-489q0 -8 -12 -17.5t-23 -9.5q-17 0 -19 32v663v2q0 8 2 12q5 13 20 13z" />
    <glyph glyph-name="uni021E" unicode="&#x21e;" horiz-adv-x="314" 
d="M83 863q-12 10 0 33q15 23 36 0q20 -21 37 -31l34 30q25 23 37 0q16 -23 0 -33q-54 -42 -64 -43l-17 -1q-12 3 -63 45zM235 443v248q0 28 22 28q32 0 32 -20v-686q0 -7 -11.5 -13t-22.5 -6q-19 0 -19 25v339q-2 17 -17 17h-120q-17 0 -18 -12v-351q0 -8 -11.5 -13.5
t-23.5 -5.5q-21 0 -21 23v675q0 28 24 28q32 0 32 -20v-248q0 -19 10 -20h135q9 1 9 12z" />
    <glyph glyph-name="uni021F" unicode="&#x21f;" horiz-adv-x="308" 
d="M55 768q-12 10 0 33q15 23 36 0q20 -21 37 -31l34 30q25 23 37 0q16 -23 0 -33q-54 -42 -64 -43l-17 -1q-12 3 -63 45zM283 363v-346q0 -9 -5 -13.5t-21 -4.5q-29 0 -29 19v327v28q-4 28 -25.5 48t-60.5 20q-38 0 -63 -20v-403q0 -19 -27 -19t-27 19v641q0 19 27 19
t27 -24v-165q36 15 82 10q57 -8 90.5 -44.5t31.5 -91.5z" />
    <glyph glyph-name="uni0228" unicode="&#x228;" horiz-adv-x="301" 
d="M99 57h153q6 0 13 -15t8.5 -27.5t-4.5 -14.5h-114v-32q27 0 41 -6.5t20 -26.5l7 -28q14 -51 -33 -75t-97 -1q-8 36 3 41q21 -7 36 -7q56 0 44 50q0 1 -1 4t-1 3.5t-1.5 2.5t-3.5 2t-6 1t-10 1h-14h-26q-3 0 -5 1.5t-2 3.5l-1 1v65h-54h-2h-2h-5q-17 4 -17 27v660
q0 23 17 28h5h225q5 -2 3.5 -15t-9 -28t-13.5 -15h-154q-17 0 -17 -21v-174q0 -18 16 -18h96q13 0 14 -15t-6.5 -30t-15.5 -15h-87q-17 0 -17 -14v-292q0 -21 17 -21z" />
    <glyph glyph-name="uni0229" unicode="&#x229;" 
d="M83 178v-43q2 -30 23.5 -53.5t63.5 -23.5q25 0 53 17q2 1 14.5 10t21.5 13.5t17 4.5q15 0 21 -13t-4 -37q-44 -54 -119 -54v-10q27 0 41 -6.5t20 -26.5l7 -28q14 -51 -33 -75t-97 -1q-8 36 3 41q21 -7 36 -7q57 0 44 50q0 1 -1 4t-1 3.5t-1.5 2.5t-3.5 2t-6 1t-10 1h-14
h-26q-3 0 -5 1.5t-3 2.5v2v51q-46 14 -73.5 48.5t-25.5 81.5v230q-3 55 33 91.5t94 43.5q61 9 111 -23q80 -57 -8 -183q-78 -98 -172 -118zM84 377v-96q0 -16 4.5 -21.5t18.5 -5.5q8 0 35.5 20t55 48t39.5 57.5t-12 47.5q-31 19 -55 19q-38 0 -59.5 -20.5t-26.5 -48.5z" />
    <glyph glyph-name="Ymacron" unicode="&#x232;" horiz-adv-x="310" 
d="M227 871h-146q-35 0 -35 -21q0 -37 19 -37h171q22 0 22 34q0 24 -31 24zM155 459l80 246q6 19 35 8q21 -7 12 -33l-100 -304v-364q0 -5 -12.5 -10.5t-22.5 -5.5q-16 0 -18 19v360l-101 305q-9 26 12 33q29 11 35 -8z" />
    <glyph glyph-name="ymacron" unicode="&#x233;" horiz-adv-x="312" 
d="M216 661h-146q-35 0 -35 -21q0 -37 19 -37h171q22 0 22 34q0 24 -31 24zM229 74v412q0 22 30 22q28 0 28 -23v-664q3 -54 -33 -90.5t-93 -44.5q-33 -4 -75 8q-17 10 -17 31q0 13 9 23t20 6q27 -10 47 -10q43 0 62.5 20.5t21.5 51.5v191q-41 -12 -77 -7q-57 7 -93.5 43
t-33.5 91v357q0 2 0.5 5t7.5 8t21 5q31 0 31 -18v-368q0 -37 34 -51t67.5 -10t42.5 12z" />
    <glyph glyph-name="circumflex" unicode="&#x2c6;" horiz-adv-x="208" 
d="M177 628q13 -9 0 -33q-14 -24 -36 0q-20 20 -37 30l-34 -30q-23 -23 -37 0q-17 21 0 33q55 42 64 44h17q8 -2 63 -44z" />
    <glyph glyph-name="caron" unicode="&#x2c7;" horiz-adv-x="208" 
d="M31 672q-12 10 0 33q15 23 36 0q20 -21 37 -31l34 30q25 23 37 0q17 -23 0 -33q-54 -42 -64 -43l-17 -1q-12 3 -63 45z" />
    <glyph glyph-name="breve" unicode="&#x2d8;" horiz-adv-x="279" 
d="M139 591q-73 0 -114 46q16 23 50 38q26 -33 64 -33q17 0 31 6.5t19 11t15 15.5q32 -16 50 -38q-43 -46 -115 -46z" />
    <glyph glyph-name="dotaccent" unicode="&#x2d9;" horiz-adv-x="131" 
d="M59 750q47 0 47 -24v-47q0 -20 -41 -20q-18 0 -27 7.5t-11 16t-2 21.5v10q0 19 6.5 27.5t27.5 8.5z" />
    <glyph glyph-name="ring" unicode="&#x2da;" horiz-adv-x="198" 
d="M101 780q33 0 52.5 -23.5t19.5 -59.5t-19.5 -59.5t-52.5 -23.5q-34 0 -55 24t-21 59t21 59t55 24zM101 653q34 0 34 44t-34 44q-17 0 -27.5 -12.5t-10.5 -31.5t10 -31.5t28 -12.5z" />
    <glyph glyph-name="ogonek" unicode="&#x2db;" horiz-adv-x="222" 
d="M34 0h47q-9 -48 -1 -70q11 -27 53.5 -28t62.5 12q5 -16 -6 -56q-64 -24 -114.5 -3t-50.5 83q0 35 9 62z" />
    <glyph glyph-name="tilde" unicode="&#x2dc;" horiz-adv-x="1030" 
d="M637 698q7 -10 3 -27q-30 -15 -55 -15q-7 0 -17 2q-19 5 -45 31q-14 15 -22 15q-29 0 -46 -29q-10 2 -16 8q-12 8 -16 18q30 44 78 44q26 0 53 -29q14 -16 24 -18q16 -4 48 12q8 -8 11 -12z" />
    <glyph glyph-name="hungarumlaut" unicode="&#x2dd;" horiz-adv-x="1030" 
d="M437 647l55 77q20 27 2 41q-29 23 -42 3q-29 -35 -64 -101q-10 -19 9 -33q18 -11 40 13zM577 647l55 77q20 27 2 41q-29 23 -42 3q-29 -35 -64 -101q-10 -19 9 -33q18 -11 40 13z" />
    <glyph glyph-name="Dcedilla" unicode="&#x1e10;" horiz-adv-x="303" 
d="M278 559v-401q0 -1 0.5 -14.5t0 -19t-1.5 -20t-4.5 -22t-8 -20.5t-13 -20.5t-19.5 -16.5t-27 -14t-35 -7q-28 -3 -68 -3v-33q27 0 41 -6.5t20 -26.5l7 -28q14 -51 -33 -75t-97 -1q-8 36 3 41q21 -7 36 -7q57 0 44 50q0 1 -1 4t-1 3.5t-1.5 2.5t-3.5 2t-6 1t-10 1h-14h-26
q-3 0 -5 1.5t-3 3.5v1l-1 65h-3h-2h-5q-16 2 -16 24v668q0 23 16 26h5q85 0 124 -5q19 -2 35 -7t27 -13.5t19.5 -16.5t13 -21t8 -20.5t4.5 -22t1.5 -20t0 -19t-0.5 -14.5zM75 638v-563q0 -19 17 -19h68q16 2 27.5 5.5t18.5 11t11.5 12.5t6 16t2 16t0 18.5t-0.5 16.5v413
q0 3 0.5 16t0 18t-2 16t-6 16t-11.5 12t-18.5 10.5t-27.5 5.5h-68q-17 0 -17 -21z" />
    <glyph glyph-name="dcedilla" unicode="&#x1e11;" horiz-adv-x="310" 
d="M278 -55l7 -28q14 -51 -33 -75t-97 -1q-8 36 3 41q21 -7 36 -7q56 0 44 50q0 1 -1 4t-1 3.5t-1.5 2.5t-3.5 2t-6 1t-10 1h-14h-26q-3 0 -5 1.5t-2 3.5l-1 1v55q-5 0 -29 3q-13 2 -27.5 9.5t-35 27t-32 52.5t-18 85t7.5 125q11 62 45 102q68 75 153 96v283q0 10 8.5 16
t19.5 6q26 0 26 -16v-749q0 -43 -31 -43h-37v-19q27 0 41 -6.5t20 -26.5zM231 96v314q0 16 -5 20.5t-18 4.5q-7 0 -21 -6t-33 -22t-35.5 -38.5t-28.5 -61t-12 -84.5q2 -92 34 -132t68 -40q30 0 40.5 7.5t10.5 37.5z" />
    <glyph glyph-name="Gmacron" unicode="&#x1e20;" horiz-adv-x="308" 
d="M227 875h-146q-35 0 -35 -21q0 -37 19 -37h171q22 0 22 34q0 24 -31 24zM283 265v-187q-3 -45 -46.5 -75t-99.5 -23q-50 6 -81.5 38t-30.5 80v506q-1 47 30.5 79t81.5 39q59 8 102.5 -25t43.5 -80q0 -13 -13.5 -17.5t-27 -0.5t-13.5 11q0 20 -23 41t-53 21
q-37 0 -56 -20.5t-20 -46.5v-508q1 -26 20 -47t56 -21q29 0 52 20.5t24 40.5v178q0 10 -10 10h-40q-32 0 -32 19q0 10 9.5 23t17.5 13q48 11 81 0q14 -5 21 -22t7 -31v-15z" />
    <glyph glyph-name="gmacron" unicode="&#x1e21;" horiz-adv-x="321" 
d="M242 663h-146q-35 0 -35 -21q0 -37 19 -37h171q22 0 22 34q0 24 -31 24zM296 474v-652q2 -54 -34 -90t-93 -44q-30 -4 -76 7q-16 10 -16 32q0 17 28 29q28 -10 49 -10q42 0 61 21t22 51v187q-43 -16 -86 -10q-57 7 -93 43.5t-33 90.5v233q-3 54 33 91t93 44q47 6 87 -12
q5 13 29 13q29 0 29 -24zM83 372v-243q3 -31 24 -54t63 -23q13 0 24.5 3t19 7t12.5 8.5t8 7.5l3 3v333q-26 26 -67 26q-39 0 -60.5 -19.5t-26.5 -48.5z" />
    <glyph glyph-name="Hcedilla" unicode="&#x1e28;" horiz-adv-x="314" 
d="M235 443v248q0 28 22 28q32 0 32 -20v-686q0 -7 -11.5 -13t-22.5 -6q-19 0 -19 25v339q-2 17 -17 17h-120q-17 0 -18 -12v-351h21v-43q27 0 41 -6.5t20 -26.5l7 -28q14 -51 -33 -75t-97 -1q-8 36 3 41q21 -7 36 -7q57 0 44 50q0 1 -1 4t-1 3.5t-1.5 2.5t-3.5 2t-6 1
t-10 1h-14h-26q-3 0 -5 1.5t-3 2.5v2v57h-6q-21 0 -21 23v675q0 28 24 28q32 0 32 -20v-248q0 -19 10 -20h135q9 1 9 12z" />
    <glyph glyph-name="hcedilla" unicode="&#x1e29;" horiz-adv-x="310" 
d="M81 716v-227q36 15 82 10q57 -8 90.5 -44.5t31.5 -91.5v-346q0 -9 -5 -13.5t-21 -4.5q-31 0 -31 19v355q-4 29 -24.5 48.5t-59.5 19.5q-38 0 -63 -20v-403q0 -5 -1 -7h22v-43q27 0 41 -6.5t20 -26.5l7 -28q14 -51 -33 -75t-97 -1q-8 36 3 41q21 -7 36 -7q57 0 44 50
q0 1 -1 4t-1 3.5t-1.5 2.5t-3.5 2t-6 1t-10 1h-14h-26q-3 0 -5 1.5t-3 3.5v1v64q-27 0 -27 19v703q0 19 29 19q27 0 27 -24z" />
    <glyph glyph-name="wring" unicode="&#x1e98;" horiz-adv-x="558" 
d="M111 780q33 0 52.5 -23.5t19.5 -59.5t-19.5 -59.5t-52.5 -23.5q-34 0 -55 24t-21 59t21 59t55 24zM111 653q34 0 34 44t-34 44q-17 0 -27.5 -12.5t-10.5 -31.5t10 -31.5t28 -12.5zM391 79l84 416q7 15 36 5q15 -6 19.5 -11t0.5 -15l-81 -405q-17 -71 -82 -71
q-64 0 -79 71l-13 69l-15 -69q-15 -71 -82 -71q-64 0 -79 71l-74 405q-2 10 2 15t19 11q32 11 35 -5l77 -416q4 -18 20 -18q19 0 23 18l44 217l-31 178q-2 10 1.5 15t18.5 11q29 10 36 -5l77 -416q4 -18 20 -18q14 0 23 18z" />
    <glyph glyph-name="yring" unicode="&#x1e99;" horiz-adv-x="312" 
d="M111 780q33 0 52.5 -23.5t19.5 -59.5t-19.5 -59.5t-52.5 -23.5q-34 0 -55 24t-21 59t21 59t55 24zM111 653q34 0 34 44t-34 44q-17 0 -27.5 -12.5t-10.5 -31.5t10 -31.5t28 -12.5zM229 74v412q0 22 30 22q28 0 28 -23v-664q3 -54 -33 -90.5t-93 -44.5q-33 -4 -75 8
q-17 10 -17 31q0 13 9 23t20 6q27 -10 47 -10q43 0 62.5 20.5t21.5 51.5v191q-41 -12 -77 -7q-57 7 -93.5 43t-33.5 91v357q0 2 0.5 5t7.5 8t21 5q31 0 31 -18v-368q0 -37 34 -51t67.5 -10t42.5 12z" />
    <glyph glyph-name="Ygrave" unicode="&#x1ef2;" horiz-adv-x="310" 
d="M197 830l-80 50q-30 19 -42 0q-21 -30 0 -42q41 -30 105 -58q9 -4 18.5 0.5t13.5 10.5q11 19 -15 39zM155 459l80 246q6 19 35 8q21 -7 12 -33l-100 -304v-364q0 -5 -12.5 -10.5t-22.5 -5.5q-16 0 -18 19v360l-101 305q-9 26 12 33q29 11 35 -8z" />
    <glyph glyph-name="ygrave" unicode="&#x1ef3;" horiz-adv-x="312" 
d="M166 703l-80 50q-30 19 -42 0q-21 -30 0 -42q41 -30 105 -58q9 -4 18.5 0.5t13.5 10.5q11 19 -15 39zM229 74v412q0 22 30 22q28 0 28 -23v-664q3 -54 -33 -90.5t-93 -44.5q-33 -4 -75 8q-17 10 -17 31q0 13 9 23t20 6q27 -10 47 -10q43 0 62.5 20.5t21.5 51.5v191
q-41 -12 -77 -7q-57 7 -93.5 43t-33.5 91v357q0 2 0.5 5t7.5 8t21 5q31 0 31 -18v-368q0 -37 34 -51t67.5 -10t42.5 12z" />
    <glyph glyph-name="endash" unicode="&#x2013;" horiz-adv-x="356" 
d="M300 316h-240q-35 0 -35 -21q0 -37 19 -37h265q22 0 22 34q0 24 -31 24z" />
    <glyph glyph-name="emdash" unicode="&#x2014;" horiz-adv-x="800" 
d="M744 353h-684q-35 0 -35 -21q0 -37 19 -37h709q22 0 22 34q0 24 -31 24z" />
    <glyph glyph-name="quoteleft" unicode="&#x2018;" horiz-adv-x="149" 
d="M45 679q6 -61 6 -76q0 -12 5 -22.5t14 -10.5q10 0 18 10t8 18q0 5 2.5 43.5t2.5 45.5q0 20 -33 20q-23 0 -23 -28z" />
    <glyph glyph-name="quoteright" unicode="&#x2019;" horiz-adv-x="153" 
d="M45 679q6 -61 6 -76q0 -12 5 -22.5t14 -10.5q10 0 18 10t8 18q0 5 2.5 43.5t2.5 45.5q0 20 -33 20q-23 0 -23 -28z" />
    <glyph glyph-name="quotesinglbase" unicode="&#x201a;" horiz-adv-x="130" 
d="M99 13q-15 -48 -22 -68q-14 -40 -39 -31q-23 7 -2 79q0 2 -5 10t-4 16q9 29 9 30q11 27 50 13q27 -8 13 -49z" />
    <glyph glyph-name="quotedblleft" unicode="&#x201c;" horiz-adv-x="285" 
d="M36 662q24 44 35 62q21 37 44 23q21 -11 -13 -78q-1 -2 2.5 -11t1.5 -16q-14 -24 -15 -28q-15 -24 -51 -3q-25 14 -4 51zM172 662q24 44 35 62q21 37 44 23q21 -11 -13 -78q-1 -2 2.5 -11t1.5 -16q-14 -24 -15 -28q-15 -24 -51 -3q-25 14 -4 51z" />
    <glyph glyph-name="quotedblright" unicode="&#x201d;" horiz-adv-x="290" 
d="M117 712q-26 -42 -39 -60q-19 -36 -44 -21q-21 12 16 78q1 2 -2 11t0 16q14 21 16 27q15 24 51 1q23 -15 2 -52zM253 709q-26 -42 -38 -60q-21 -37 -45 -20q-4 2 -6 6.5t-1.5 10.5t2 11.5t4.5 13t5.5 12.5t6.5 12.5t5 9.5q2 3 -1 12t-1 15q16 26 17 28q16 25 51 0
q10 -6 12 -14.5t-0.5 -16t-10.5 -20.5z" />
    <glyph glyph-name="quotedblbase" unicode="&#x201e;" horiz-adv-x="130" 
d="M99 13q-15 -48 -22 -68q-14 -40 -39 -31q-23 7 -2 79q0 2 -5 10t-4 16q9 29 9 30q11 27 50 13q27 -8 13 -49z" />
    <glyph glyph-name="dagger" unicode="&#x2020;" horiz-adv-x="1030" 
 />
    <glyph glyph-name="daggerdbl" unicode="&#x2021;" horiz-adv-x="1030" 
 />
    <glyph glyph-name="bullet" unicode="&#x2022;" horiz-adv-x="228" 
d="M114 233q-37 0 -63 26.5t-26 63.5t26 63t63 26t63 -26t26 -63t-26 -63.5t-63 -26.5z" />
    <glyph glyph-name="ellipsis" unicode="&#x2026;" horiz-adv-x="624" 
d="M25 44q0 -19 6 -36t18 -17q20 0 36.5 6.5t16.5 18.5v56q0 13 -13 21.5t-32 8.5q-20 0 -26 -10t-6 -48zM274 44q0 -19 6 -36t18 -17q20 0 36.5 6.5t16.5 18.5v56q0 13 -13 21.5t-32 8.5q-20 0 -26 -10t-6 -48zM522 44q0 -19 6 -36t18 -17q20 0 36.5 6.5t16.5 18.5v56
q0 13 -13 21.5t-32 8.5q-20 0 -26 -10t-6 -48z" />
    <glyph glyph-name="perthousand" unicode="&#x2030;" horiz-adv-x="839" 
d="M441 723l-310 -695q-12 -32 5 -38q9 -5 25 -1.5t19 11.5q2 5 157.5 354t157.5 355q10 18 -22 32q-19 11 -32 -18zM228 592v-86q0 -40 -31.5 -63t-70 -23t-70 23t-31.5 63zM68 583v-67q1 0 0 -5.5t2 -14t8 -16.5t18 -13.5t31 -5.5q31 0 45.5 13.5t13.5 27.5l-1 14v67
q0 2 0.5 5.5t-1 12.5t-6.5 16t-18 12.5t-33 5.5q-29 0 -43.5 -13t-15.5 -26v-13zM570 192v-86q0 -40 -31.5 -63t-70 -23t-70 23t-31.5 63zM814 192v-86q0 -40 -31.5 -63t-70 -23t-70 23t-31.5 63zM410 183v-67q1 0 0 -5.5t2 -14t8 -16.5t18 -13.5t31 -5.5q31 0 45.5 13.5
t13.5 27.5l-1 14v67q0 2 0.5 5.5t-1 12.5t-6.5 16t-18 12.5t-33 5.5q-29 0 -43.5 -13t-15.5 -26v-13zM654 183v-67q1 0 0 -5.5t2 -14t8 -16.5t18 -13.5t31 -5.5q31 0 45.5 13.5t13.5 27.5l-1 14v67q0 2 0.5 5.5t-1 12.5t-6.5 16t-18 12.5t-33 5.5q-29 0 -43.5 -13t-15.5 -26
v-13z" />
    <glyph glyph-name="guilsinglleft" unicode="&#x2039;" horiz-adv-x="256" 
d="M98 290l120 -121q23 -21 5 -38q-23 -25 -39 -9l-155 155q-13 13 12 38q134 135 143 143q16 16 39 -9q18 -17 -5 -38z" />
    <glyph glyph-name="guilsinglright" unicode="&#x203a;" horiz-adv-x="256" 
d="M158 290l-120 -121q-23 -21 -5 -38q23 -25 39 -9l155 155q13 13 -12 38q-134 135 -143 143q-16 16 -39 -9q-18 -17 5 -38z" />
    <glyph glyph-name="fraction" unicode="&#x2044;" horiz-adv-x="421" 
d="M340 716l-310 -695q-12 -32 5 -38q9 -5 25 -1.5t19 11.5q2 5 157.5 354t157.5 355q10 18 -22 32q-19 11 -32 -18z" />
    <glyph glyph-name="Euro" unicode="&#x20ac;" horiz-adv-x="380" 
d="M149 286v-180q1 -25 19.5 -45.5t54.5 -20.5q30 0 53 20.5t23 40.5q0 7 14 11.5t28 0t14 -18.5q0 -47 -44 -79.5t-103 -25.5q-49 6 -81 38.5t-30 78.5v180h-53q-19 0 -19 33q0 19 35 19h37v37h-53q-19 0 -19 33q0 19 35 19h37v165q-2 48 36.5 83t88.5 35q60 0 96.5 -29.5
t36.5 -75.5q0 -13 -14 -17.5t-28 -0.5t-14 11q0 20 -23 41t-53 21q-36 0 -54.5 -20.5t-19.5 -45.5v-167h122q31 0 31 -22q0 -30 -22 -30h-131v-37h122q31 0 31 -21q0 -31 -22 -31h-131z" />
    <glyph glyph-name="trademark" unicode="&#x2122;" horiz-adv-x="710" 
d="M422 707l100 -246q100 216 110 245q5 10 39 10q5 0 8.5 -4.5t4 -8.5t-0.5 -5v-682q0 -21 -17 -21q-11 0 -22.5 4.5t-11.5 12.5v537l-89 -178q-5 -10 -21 -12.5t-19 3.5q0 2 -20.5 49t-41 93.5t-19.5 44.5v-537q0 -8 -11.5 -12.5t-22.5 -4.5q-18 0 -18 21v684q-1 13 12 15
t26 -3l14 -4v-1zM145 17v636q0 11 -9 11h-77q-34 0 -34 19q0 11 10 22t19 11h245q21 0 21 -29q0 -24 -30 -24h-70q-17 0 -20 -14v-637q0 -16 -33 -16q-21 0 -22 21z" />
    <glyph glyph-name="partialdiff" unicode="&#x2202;" horiz-adv-x="1030" 
 />
    <glyph glyph-name="emptyset" unicode="&#x2205;" horiz-adv-x="1130" 
 />
    <glyph glyph-name="product" unicode="&#x220f;" horiz-adv-x="1030" 
 />
    <glyph glyph-name="summation" unicode="&#x2211;" horiz-adv-x="1030" 
 />
    <glyph glyph-name="minus" unicode="&#x2212;" horiz-adv-x="512" 
d="M456 337h-396q-35 0 -35 -21q0 -37 19 -37h421q22 0 22 34q0 24 -31 24z" />
    <glyph glyph-name="radical" unicode="&#x221a;" horiz-adv-x="1030" 
 />
    <glyph glyph-name="infinity" unicode="&#x221e;" horiz-adv-x="1130" 
 />
    <glyph glyph-name="integral" unicode="&#x222b;" horiz-adv-x="1130" 
 />
    <glyph glyph-name="approxequal" unicode="&#x2248;" horiz-adv-x="1030" 
 />
    <glyph glyph-name="notequal" unicode="&#x2260;" horiz-adv-x="512" 
d="M261 306h195q31 0 31 -24q0 -34 -22 -34h-229l-119 -267q-3 -8 -19 -11.5t-25 1.5q-17 6 -5 38l107 239h-131q-19 0 -19 37q0 21 35 21h140l37 81h-193q-19 0 -19 37q0 21 35 21h202l116 259q13 29 32 18q32 -14 22 -32l-109 -245h133q31 0 31 -24q0 -34 -22 -34h-168z
" />
    <glyph glyph-name="lessequal" unicode="&#x2264;" horiz-adv-x="377" 
d="M116 362l222 119q12 7 13.5 17.5t-8.5 20.5q-18 19 -39 9l-260 -143q-13 -6 -16.5 -19t4.5 -19q9 -6 132.5 -76.5t139.5 -78.5q21 -11 39 9q11 10 9.5 20.5t-14.5 17.5zM306 151h-250q-31 0 -31 -24q0 -34 22 -34h275q19 0 19 37q0 21 -35 21z" />
    <glyph glyph-name="greaterequal" unicode="&#x2265;" horiz-adv-x="377" 
d="M261 362l-222 -123q-13 -7 -14.5 -17.5t9.5 -20.5q18 -20 39 -9q16 8 139.5 78.5t132.5 76.5q8 6 4.5 19t-16.5 19q-248 137 -260 143q-21 10 -39 -9q-10 -10 -8.5 -20.5t13.5 -17.5zM321 151h-250q-35 0 -35 -21q0 -37 19 -37h275q22 0 22 34q0 24 -31 24z" />
    <glyph glyph-name="lozenge" unicode="&#x25ca;" horiz-adv-x="1030" 
 />
    </font>
</defs>
</svg>
