<?xml version="1.0" standalone="no"?>
<!DOCTYPE svg PUBLIC "-//W3C//DTD SVG 1.1//EN" "http://www.w3.org/Graphics/SVG/1.1/DTD/svg11.dtd" >
<svg xmlns="http://www.w3.org/2000/svg" xmlns:xlink="http://www.w3.org/1999/xlink" version="1.1">
<metadata>
Created by FontForge 20170910 at Wed Mar 19 22:00:52 2014
 By Jimmy Wärting
Copyright (C) 2001, 2011 Hoefler &#38; Co. http://www.typography.com
</metadata>
<defs>
<font id="Gotham-BookItalic" horiz-adv-x="400" >
  <font-face 
    font-family="Gotham Book"
    font-weight="325"
    font-style="italic"
    font-stretch="normal"
    units-per-em="1000"
    panose-1="2 0 0 0 0 0 0 0 0 0"
    ascent="800"
    descent="-200"
    x-height="517"
    cap-height="700"
    bbox="-310 -244 1185 994"
    underline-thickness="50"
    underline-position="-150"
    slope="-15"
    unicode-range="U+0020-FB04"
  />
<missing-glyph horiz-adv-x="500" 
d="M0 -200v1000h500v-1000h-500zM50 -76l172 376l-172 376v-752zM71 -150h358l-179 390zM250 360l179 390h-358zM450 -76v752l-172 -376z" />
    <glyph glyph-name="f_f" unicode="ff" horiz-adv-x="750" 
d="M46 0l121 449h-71l18 68h71l16 60q19 71 57 109q46 46 121 46q61 0 103 -22l-18 -66q-45 21 -85 21q-78 0 -104 -98l-13 -50h169l-19 -68h-168l-121 -449h-77zM421 0l121 449h-71l18 68h71l16 60q19 71 57 109q46 46 121 46q61 0 103 -22l-18 -66q-45 21 -85 21
q-78 0 -104 -98l-13 -50h169l-19 -68h-168l-121 -449h-77z" />
    <glyph glyph-name="fi" unicode="fi" horiz-adv-x="639" 
d="M46 0l121 449h-71l18 68h71l16 60q19 71 57 109q46 46 121 46q61 0 103 -22l-18 -66q-45 21 -85 21q-78 0 -104 -98l-13 -50h169l-19 -68h-168l-121 -449h-77zM399 0l139 517h77l-139 -517h-77zM563 630l23 85h88l-23 -85h-88z" />
    <glyph glyph-name="fl" unicode="fl" horiz-adv-x="639" 
d="M46 0l121 449h-71l18 68h71l16 60q19 71 57 109q46 46 121 46q61 0 103 -22l-18 -66q-45 21 -85 21q-78 0 -104 -98l-13 -50h169l-19 -68h-168l-121 -449h-77zM399 0l196 730h77l-196 -730h-77z" />
    <glyph glyph-name="f_f_i" unicode="ffi" horiz-adv-x="1015" 
d="M46 0l121 449h-71l18 68h71l16 60q19 71 57 109q46 46 121 46q61 0 103 -22l-18 -66q-45 21 -85 21q-78 0 -104 -98l-13 -50h169l-19 -68h-168l-121 -449h-77zM421 0l121 449h-71l18 68h71l16 60q19 71 57 109q46 46 121 46q61 0 103 -22l-18 -66q-45 21 -85 21
q-78 0 -104 -98l-13 -50h169l-19 -68h-168l-121 -449h-77zM774 0l139 517h77l-139 -517h-77zM938 630l23 85h88l-23 -85h-88z" />
    <glyph glyph-name="f_f_l" unicode="ffl" horiz-adv-x="1015" 
d="M46 0l121 449h-71l18 68h71l16 60q19 71 57 109q46 46 121 46q61 0 103 -22l-18 -66q-45 21 -85 21q-78 0 -104 -98l-13 -50h169l-19 -68h-168l-121 -449h-77zM421 0l121 449h-71l18 68h71l16 60q19 71 57 109q46 46 121 46q61 0 103 -22l-18 -66q-45 21 -85 21
q-78 0 -104 -98l-13 -50h169l-19 -68h-168l-121 -449h-77zM774 0l196 730h77l-196 -730h-77z" />
    <glyph glyph-name=".notdef" horiz-adv-x="500" 
d="M0 -200v1000h500v-1000h-500zM50 -76l172 376l-172 376v-752zM71 -150h358l-179 390zM250 360l179 390h-358zM450 -76v752l-172 -376z" />
    <glyph glyph-name=".null" horiz-adv-x="0" 
 />
    <glyph glyph-name="nonmarkingreturn" horiz-adv-x="333" 
 />
    <glyph glyph-name="space" unicode=" " horiz-adv-x="300" 
 />
    <glyph glyph-name="exclam" unicode="!" horiz-adv-x="271" 
d="M97 198l96 446l16 56h90l-15 -56l-143 -446h-44zM20 0l28 105h92l-28 -105h-92z" />
    <glyph glyph-name="quotedbl" unicode="&#x22;" horiz-adv-x="442" 
d="M100 428l91 272h92l-1 -5l-139 -267h-43zM297 428l91 272h92l-1 -5l-139 -267h-43z" />
    <glyph glyph-name="numbersign" unicode="#" horiz-adv-x="700" 
d="M618 246l-13 -69h-125l-61 -177h-71l61 177h-190l-61 -177h-71l61 177h-113l13 69h124l74 212h-116l14 69h126l60 173h71l-60 -173h190l60 173h71l-60 -173h112l-13 -69h-123l-74 -212h114zM316 459l-74 -214h192l74 214h-192z" />
    <glyph glyph-name="dollar" unicode="$" horiz-adv-x="623" 
d="M424 758h64l-19 -68q98 -22 167 -90l-55 -53q-59 57 -136 74l-66 -238q88 -33 129 -74.5t41 -104.5q0 -89 -73.5 -146.5t-188.5 -57.5h-13l-28 -98h-64l29 104q-135 23 -213 118l58 49q70 -81 179 -98l70 252q-94 35 -135 74t-41 103q0 84 70 140t174 56q23 0 34 -1z
M468 196q0 36 -24.5 61.5t-85.5 49.5l-67 -237h6q78 0 124.5 35t46.5 91zM210 512q0 -37 26 -61t90 -49l62 227q-7 1 -22 1q-70 0 -113 -34t-43 -84z" />
    <glyph glyph-name="percent" unicode="%" horiz-adv-x="837" 
d="M64 0l339 350l340 350h79l-340 -350l-339 -350h-79zM232 346q-62 0 -101.5 42t-39.5 104q0 94 66 162q54 54 125 54q63 0 102.5 -42t39.5 -104q0 -95 -67 -162q-54 -54 -125 -54zM237 401q41 0 75 34q50 50 50 122q0 44 -22.5 70t-61.5 26q-41 0 -75 -34
q-50 -50 -50 -122q0 -44 22 -70t62 -26zM603 -8q-62 0 -101.5 42t-39.5 104q0 94 66 162q54 54 126 54q62 0 101.5 -42t39.5 -104q0 -94 -66 -162q-54 -54 -126 -54zM608 47q41 0 75 34q50 50 50 122q0 44 -22.5 70t-61.5 26q-41 0 -75 -34q-50 -50 -50 -122q0 -44 22.5 -70
t61.5 -26z" />
    <glyph glyph-name="ampersand" unicode="&#x26;" horiz-adv-x="692" 
d="M600 345l53 -34q-62 -102 -122 -168l85 -119l-59 -38l-77 108q-112 -104 -245 -104q-90 0 -148 48t-58 131q0 80 58.5 140t173.5 92q-44 70 -44 130q0 76 56 128.5t138 52.5q78 0 125 -42t47 -109q0 -131 -216 -194l125 -174q56 62 108 152zM244 58q101 0 197 87
l-146 206q-94 -25 -141 -71.5t-47 -104.5q0 -54 37 -85.5t100 -31.5zM291 531q0 -51 41 -114q177 50 177 140q0 40 -27.5 65t-73.5 25q-49 0 -83 -34t-34 -82z" />
    <glyph glyph-name="quotesingle" unicode="'" horiz-adv-x="245" 
d="M100 428l91 272h92l-1 -5l-139 -267h-43z" />
    <glyph glyph-name="parenleft" unicode="(" horiz-adv-x="434" 
d="M264 -141q-176 153 -176 357q0 196 148 344q97 97 248 157l27 -57q-129 -56 -212 -139q-132 -132 -132 -303q0 -94 37.5 -167.5t105.5 -143.5z" />
    <glyph glyph-name="parenright" unicode=")" horiz-adv-x="434" 
d="M187 719q176 -153 176 -357q0 -196 -148 -344q-97 -97 -248 -157l-27 57q129 56 212 139q132 132 132 303q0 94 -37.5 167.5t-105.5 143.5z" />
    <glyph glyph-name="asterisk" unicode="*" horiz-adv-x="430" 
d="M272 395l-51 13l43 119l-119 -43l-15 51l127 22l-99 82l39 38l81 -97l22 123l51 -13l-43 -118l119 43l15 -52l-127 -21l99 -82l-39 -38l-81 97z" />
    <glyph glyph-name="plus" unicode="+" horiz-adv-x="625" 
d="M236 110l55 206h-207l19 72h207l56 206h75l-56 -206h208l-20 -72h-207l-55 -206h-75z" />
    <glyph glyph-name="comma" unicode="," horiz-adv-x="246" 
d="M-42 -121l-8 34q82 21 94 87h-36l28 105h92l-24 -90q-19 -64 -51.5 -94.5t-94.5 -41.5z" />
    <glyph glyph-name="hyphen" unicode="-" horiz-adv-x="410" 
d="M66 260l21 81h279l-21 -81h-279z" />
    <glyph glyph-name="period" unicode="." horiz-adv-x="245" 
d="M8 0l28 105h92l-29 -105h-91z" />
    <glyph glyph-name="slash" unicode="/" horiz-adv-x="508" 
d="M-125 -128l707 926h78l-707 -926h-78z" />
    <glyph glyph-name="zero" unicode="0" horiz-adv-x="715" 
d="M441 712q115 0 180 -75t65 -195q0 -100 -38 -195t-104 -161q-96 -98 -222 -98q-115 0 -180 74.5t-65 195.5q0 99 37.5 194.5t103.5 161.5q98 98 223 98zM327 60q82 0 155 71q56 56 89 140.5t33 170.5q0 88 -44.5 143t-124.5 55q-83 0 -154 -71q-56 -56 -89 -140.5
t-33 -170.5q0 -88 44 -143t124 -55z" />
    <glyph glyph-name="one" unicode="1" horiz-adv-x="361" 
d="M94 0l165 617l-142 -41l-2 69l188 60h59l-189 -705h-79z" />
    <glyph glyph-name="two" unicode="2" horiz-adv-x="595" 
d="M-22 0l16 62l395 304q61 47 89 84.5t28 80.5q0 48 -35.5 77.5t-97.5 29.5q-99 0 -191 -96l-53 50q111 118 247 118q94 0 153 -48.5t59 -125.5q0 -60 -36 -109.5t-114 -109.5l-317 -245h374l-19 -72h-498z" />
    <glyph glyph-name="three" unicode="3" horiz-adv-x="605" 
d="M248 -12q-89 0 -151 36t-94 100l62 40q59 -104 187 -104q83 0 138 44t55 111q0 59 -48 89t-133 30h-32l-10 45l283 250h-345l20 71h456l-16 -58l-285 -249q84 -7 138 -51.5t54 -120.5q0 -86 -64 -150q-83 -83 -215 -83z" />
    <glyph glyph-name="four" unicode="4" horiz-adv-x="649" 
d="M354 0l45 166h-364l-10 59l519 480h76l-127 -473h109l-18 -66h-109l-44 -166h-77zM129 232h288l96 357z" />
    <glyph glyph-name="five" unicode="5" horiz-adv-x="603" 
d="M251 -12q-81 0 -143 34.5t-99 90.5l61 45q72 -99 187 -99q89 0 146 51t57 121q0 62 -43 98t-114 36q-73 0 -143 -38l-45 36l110 337h391l-21 -73h-319l-74 -220q56 27 120 27q100 0 160.5 -53.5t60.5 -143.5q0 -96 -70 -164q-83 -85 -222 -85z" />
    <glyph glyph-name="six" unicode="6" horiz-adv-x="641" 
d="M316 -12q-108 0 -170 64q-69 69 -69 194q0 109 37.5 205t101.5 160q101 101 232 101q127 0 207 -90l-52 -54q-67 72 -161 72q-95 0 -169 -74q-42 -42 -71.5 -103.5t-36.5 -124.5q32 44 84.5 73t117.5 29q100 0 160.5 -57.5t60.5 -143.5q0 -98 -72 -170q-81 -81 -200 -81z
M318 57q83 0 138 55q51 51 51 121q0 57 -40.5 98t-114.5 41q-89 0 -144 -57q-49 -47 -49 -111t41 -103q43 -44 118 -44z" />
    <glyph glyph-name="seven" unicode="7" horiz-adv-x="586" 
d="M61 0l461 628h-381l20 72h475l-17 -59l-465 -641h-93z" />
    <glyph glyph-name="eight" unicode="8" horiz-adv-x="647" 
d="M296 -10q-112 0 -185 53.5t-73 133.5t56.5 130t147.5 66q-45 18 -73 56.5t-28 88.5q0 80 71.5 136t181.5 56q104 0 170 -51t66 -130q0 -69 -48.5 -117t-124.5 -64q50 -18 84.5 -59t34.5 -96q0 -86 -79 -144.5t-201 -58.5zM301 58q87 0 140.5 38.5t54.5 100.5
q0 53 -50.5 90.5t-131.5 37.5q-88 0 -142 -41t-54 -99q-1 -56 49.5 -91.5t133.5 -35.5zM376 390q81 0 128.5 39t47.5 92t-44 87t-116 34q-76 0 -124.5 -37.5t-48.5 -93.5q0 -52 44 -86.5t113 -34.5z" />
    <glyph glyph-name="nine" unicode="9" horiz-adv-x="641" 
d="M243 -12q-127 0 -215 96l52 54q73 -78 167 -78t169 75q42 41 71 100.5t36 121.5q-31 -44 -83.5 -74.5t-119.5 -30.5q-100 0 -160.5 58.5t-60.5 146.5q0 100 74 174q83 81 200 81q106 0 170 -64q69 -69 69 -198q0 -107 -38 -202t-102 -159q-101 -101 -229 -101zM338 320
q83 0 140 57q51 49 51 120q0 62 -40 102q-45 44 -118 44q-81 0 -137 -54q-53 -53 -53 -126q-1 -59 40 -101t117 -42z" />
    <glyph glyph-name="colon" unicode=":" horiz-adv-x="256" 
d="M13 0l28 105h92l-29 -105h-91zM123 412l28 105h92l-28 -105h-92z" />
    <glyph glyph-name="semicolon" unicode=";" horiz-adv-x="256" 
d="M-37 -121l-8 34q82 21 94 87h-36l28 105h92l-24 -90q-19 -64 -51.5 -94.5t-94.5 -41.5zM123 412l28 105h92l-28 -105h-92z" />
    <glyph glyph-name="less" unicode="&#x3c;" horiz-adv-x="625" 
d="M487 86l-408 233l18 66l533 233l-22 -83l-436 -188l335 -189z" />
    <glyph glyph-name="equal" unicode="=" horiz-adv-x="625" 
d="M66 198l21 74h459l-20 -74h-460zM130 432l19 74h460l-20 -74h-459z" />
    <glyph glyph-name="greater" unicode="&#x3e;" horiz-adv-x="625" 
d="M47 86l22 83l436 188l-335 189l20 72l407 -233l-18 -66z" />
    <glyph glyph-name="question" unicode="?" horiz-adv-x="537" 
d="M189 198l28 162l6 5q109 8 173 50t64 111q0 52 -37 81.5t-96 29.5q-100 0 -182 -80l-45 52q100 100 235 100q94 0 150.5 -50.5t56.5 -126.5q0 -93 -72 -150t-190 -74l-40 -110h-51zM117 0l28 105h92l-28 -105h-92z" />
    <glyph glyph-name="at" unicode="@" horiz-adv-x="980" 
d="M482 -159q-189 0 -304 107.5t-115 283.5q0 127 65.5 237.5t178.5 177t246 66.5q181 0 288 -100.5t107 -250.5q0 -136 -66.5 -213.5t-148.5 -77.5q-52 0 -84 25t-41 69q-79 -96 -179 -96q-68 0 -113.5 45t-45.5 122q0 110 76 189t170 79q107 0 147 -98l27 88l65 -17
l-75 -241q-9 -27 -9 -51q0 -34 19.5 -54t54.5 -20q59 0 112.5 67t53.5 184q0 135 -97.5 226t-260.5 91q-122 0 -227 -62t-165.5 -165t-60.5 -220q0 -160 105 -258.5t277 -98.5q109 0 206 45l15 -31q-105 -48 -221 -48zM449 131q70 0 129 59.5t59 134.5q0 52 -32 84.5
t-85 32.5q-71 0 -122.5 -59t-51.5 -141q0 -52 28.5 -81.5t74.5 -29.5z" />
    <glyph glyph-name="A" unicode="A" horiz-adv-x="761" 
d="M-40 0l508 705h76l130 -705h-81l-32 185h-382l-132 -185h-87zM229 257h319l-63 358z" />
    <glyph glyph-name="B" unicode="B" horiz-adv-x="717" 
d="M30 0l188 700h262q102 0 159.5 -44t57.5 -119q0 -72 -48.5 -120t-126.5 -64q124 -38 124 -145q0 -92 -79 -150t-215 -58h-322zM127 71h234q95 0 150 37.5t55 102.5q0 52 -44 79.5t-117 27.5h-212zM212 388h199q94 0 149.5 38t55.5 101q0 49 -37 75.5t-106 26.5h-196z" />
    <glyph glyph-name="C" unicode="C" horiz-adv-x="735" 
d="M383 -13q-127 0 -212.5 79t-85.5 211q0 87 35 168.5t97 143.5q123 123 288 123q93 0 160 -40.5t104 -109.5l-68 -42q-35 59 -82.5 89t-120.5 30q-123 0 -219 -94q-52 -53 -81.5 -122.5t-29.5 -142.5q0 -100 61 -159.5t158 -59.5q119 0 217 95l53 -52q-117 -117 -274 -117
z" />
    <glyph glyph-name="D" unicode="D" horiz-adv-x="773" 
d="M30 0l188 700h169q178 0 273 -93q76 -76 76 -201q0 -161 -110 -273q-133 -133 -359 -133h-237zM595 556q-71 71 -213 71h-104l-149 -554h148q179 0 289 110q88 88 88 218q0 98 -59 155z" />
    <glyph glyph-name="E" unicode="E" horiz-adv-x="653" 
d="M30 0l188 700h501l-20 -72h-422l-64 -239h377l-20 -72h-376l-66 -245h427l-19 -72h-506z" />
    <glyph glyph-name="F" unicode="F" horiz-adv-x="658" 
d="M30 0l188 700h503l-19 -73h-425l-67 -250h380l-20 -72h-379l-82 -305h-79z" />
    <glyph glyph-name="G" unicode="G" horiz-adv-x="784" 
d="M396 -13q-132 0 -221 80.5t-89 217.5q0 82 34.5 161t95.5 140q124 126 300 126q179 0 264 -128l-60 -47q-35 49 -83.5 76t-127.5 27q-134 0 -233 -99q-50 -51 -78.5 -117.5t-28.5 -135.5q0 -106 64 -167t168 -61q102 0 181 49l55 194h-211l19 71h289l-89 -314
q-117 -73 -249 -73z" />
    <glyph glyph-name="H" unicode="H" horiz-adv-x="756" 
d="M30 0l188 700h79l-83 -311h399l83 311h80l-188 -700h-80l85 315h-399l-85 -315h-79z" />
    <glyph glyph-name="I" unicode="I" horiz-adv-x="291" 
d="M37 0l188 700h79l-188 -700h-79z" />
    <glyph glyph-name="J" unicode="J" horiz-adv-x="555" 
d="M194 -10q-79 0 -131.5 40.5t-76.5 108.5l63 37q44 -113 146 -113q68 0 118 48q45 46 73 151l118 438h80l-121 -453q-35 -128 -96 -189q-68 -68 -173 -68z" />
    <glyph glyph-name="K" unicode="K" horiz-adv-x="718" 
d="M30 0l188 700h79l-111 -416l502 416h112l-376 -308l199 -392h-89l-174 346l-203 -167l-48 -179h-79z" />
    <glyph glyph-name="L" unicode="L" horiz-adv-x="607" 
d="M30 0l188 700h79l-168 -627h394l-20 -73h-473z" />
    <glyph glyph-name="M" unicode="M" horiz-adv-x="867" 
d="M30 0l188 700h73l152 -382l356 382h88l-188 -700h-80l152 567l-355 -375h-4l-153 374l-152 -566h-77z" />
    <glyph glyph-name="N" unicode="N" horiz-adv-x="787" 
d="M30 0l188 700h73l285 -568l153 568h77l-188 -700h-63l-292 581l-156 -581h-77z" />
    <glyph glyph-name="O" unicode="O" horiz-adv-x="842" 
d="M496 712q134 0 220.5 -87t86.5 -216q0 -84 -34 -163.5t-93 -139.5q-121 -119 -281 -119q-134 0 -220.5 87t-86.5 217q0 84 34 163t94 139q119 119 280 119zM400 60q122 0 214 92q50 50 78 117t28 137q0 101 -63 167t-166 66q-124 0 -214 -92q-50 -49 -78 -116t-28 -138
q0 -101 63 -167t166 -66z" />
    <glyph glyph-name="P" unicode="P" horiz-adv-x="667" 
d="M30 0l188 700h219q134 0 200 -65q50 -52 50 -130q0 -98 -66 -164q-90 -92 -279 -92h-166l-67 -249h-79zM573 584q-43 43 -139 43h-157l-82 -308h151q148 0 215 67q44 44 44 114q0 51 -32 84z" />
    <glyph glyph-name="Q" unicode="Q" horiz-adv-x="842" 
d="M496 712q134 0 220.5 -87t86.5 -216q0 -84 -34 -163.5t-94 -139.5l-10 -10l69 -79l-62 -46l-64 81q-97 -65 -213 -65q-134 0 -220.5 87t-86.5 217q0 84 34 163t94 139q119 119 280 119zM400 60q85 0 162 49l-109 130l62 47l102 -131q49 50 76 116t27 135q0 101 -63 167
t-166 66q-124 0 -214 -92q-50 -49 -78 -116t-28 -138q0 -101 63 -167t166 -66z" />
    <glyph glyph-name="R" unicode="R" horiz-adv-x="717" 
d="M510 0l-139 272h-17h-172l-73 -272h-79l188 700h252q131 0 197 -64q46 -48 46 -121q0 -88 -62 -152q-63 -63 -194 -84l144 -279h-91zM201 343h190q135 0 199 64q42 44 42 102q0 47 -29 76q-42 42 -137 42h-188z" />
    <glyph glyph-name="S" unicode="S" horiz-adv-x="637" 
d="M298 -10q-190 0 -286 133l60 47q89 -109 231 -109q76 0 126.5 37t50.5 94q0 40 -31.5 68t-112.5 60q-103 41 -147.5 81.5t-44.5 105.5q0 75 54 128q75 75 204 75q157 0 248 -106l-58 -52q-79 87 -197 87q-76 0 -122 -36.5t-46 -86.5q0 -41 34 -68t121 -61
q94 -36 137.5 -78t43.5 -107q0 -76 -57 -135q-77 -77 -208 -77z" />
    <glyph glyph-name="T" unicode="T" horiz-adv-x="616" 
d="M196 0l168 627h-236l20 73h551l-20 -73h-236l-168 -627h-79z" />
    <glyph glyph-name="U" unicode="U" horiz-adv-x="758" 
d="M347 -11q-122 0 -188.5 61.5t-66.5 162.5q0 55 15 109l100 378h80l-106 -399q-10 -35 -10 -79q0 -72 46.5 -116t136.5 -44q91 0 156 64q61 63 89 171l109 403h79l-112 -417q-36 -133 -110 -207q-87 -87 -218 -87z" />
    <glyph glyph-name="V" unicode="V" horiz-adv-x="717" 
d="M247 -5l-110 705h84l86 -602l409 602h90l-488 -705h-71z" />
    <glyph glyph-name="W" unicode="W" horiz-adv-x="1083" 
d="M206 -5l-61 705h82l44 -583l347 585h65l37 -585l356 583h89l-439 -705h-69l-40 565l-343 -565h-68z" />
    <glyph glyph-name="X" unicode="X" horiz-adv-x="694" 
d="M-31 0l359 362l-176 338h87l146 -286l279 286h102l-346 -349l182 -351h-87l-152 299l-291 -299h-103z" />
    <glyph glyph-name="Y" unicode="Y" horiz-adv-x="663" 
d="M216 0l76 282l-173 418h88l140 -353l330 353h101l-410 -431l-72 -269h-80z" />
    <glyph glyph-name="Z" unicode="Z" horiz-adv-x="669" 
d="M-19 0l14 53l597 576h-427l20 71h542l-14 -53l-597 -576h445l-19 -71h-561z" />
    <glyph glyph-name="bracketleft" unicode="[" horiz-adv-x="439" 
d="M9 -130l223 830h286l-16 -60h-214l-190 -710h213l-16 -60h-286z" />
    <glyph glyph-name="backslash" unicode="\" horiz-adv-x="508" 
d="M357 -128l-218 926h66l218 -926h-66z" />
    <glyph glyph-name="bracketright" unicode="]" horiz-adv-x="440" 
d="M445 700l-223 -830h-286l16 60h214l190 710h-213l16 60h286z" />
    <glyph glyph-name="asciicircum" unicode="^" horiz-adv-x="500" 
d="M117 493l211 209h60l100 -209h-61l-77 154l-159 -154h-74z" />
    <glyph glyph-name="underscore" unicode="_" horiz-adv-x="600" 
d="M-114 -160l17 63h605l-18 -63h-604z" />
    <glyph glyph-name="grave" unicode="`" horiz-adv-x="500" 
d="M362 595l-83 108l81 37l56 -145h-54z" />
    <glyph glyph-name="a" unicode="a" horiz-adv-x="576" 
d="M183 -11q-69 0 -116.5 38.5t-47.5 104.5q0 74 49 123q64 64 181 64q84 0 184 -28l3 12q7 26 7 48q0 105 -140 105q-68 0 -146 -27l-13 64q83 31 171 31q97 0 150 -42.5t53 -117.5q0 -33 -11 -71l-78 -293h-75l22 81q-80 -92 -193 -92zM207 49q67 0 126 43.5t77 110.5
l10 36q-80 23 -168 23q-79 0 -122 -43q-33 -31 -33 -78q0 -41 30 -66.5t80 -25.5z" />
    <glyph glyph-name="b" unicode="b" horiz-adv-x="659" 
d="M319 -12q-139 0 -194 128l-31 -116h-77l196 730h77l-82 -302q88 100 196 100q89 0 147 -60.5t58 -158.5q0 -141 -96 -237q-84 -84 -194 -84zM312 56q80 0 142 60q74 76 74 186q0 72 -40 115t-106 43q-86 0 -153 -69q-77 -77 -77 -174q0 -68 45 -114.5t115 -46.5z" />
    <glyph glyph-name="c" unicode="c" horiz-adv-x="562" 
d="M277 -12q-95 0 -162 61.5t-67 164.5q0 130 94 224q90 90 210 90q76 0 127 -34t79 -87l-62 -40q-55 93 -149 93q-82 0 -145 -65q-75 -75 -75 -179q0 -73 45 -116.5t109 -43.5q78 0 153 68l45 -50q-91 -86 -202 -86z" />
    <glyph glyph-name="d" unicode="d" horiz-adv-x="660" 
d="M428 0l24 88q-89 -100 -196 -100q-89 0 -147 61t-58 158q0 141 96 237q84 84 194 84q139 0 194 -128l88 330h77l-195 -730h-77zM278 56q84 0 153 69q77 77 77 175q0 68 -45 114t-115 46q-82 0 -142 -60q-74 -72 -74 -186q0 -72 40 -115t106 -43z" />
    <glyph glyph-name="e" unicode="e" horiz-adv-x="589" 
d="M531 232h-405q-1 -7 -1 -21q0 -70 41.5 -113.5t111.5 -43.5q86 0 163 61l39 -50q-91 -77 -208 -77q-100 0 -162 61.5t-62 158.5q0 64 26 125.5t72 107.5q87 87 203 87q94 0 147 -56.5t53 -141.5q0 -49 -18 -98zM201 401q-44 -44 -65 -111h333q5 15 5 40q0 57 -33 95
t-96 38q-80 0 -144 -62z" />
    <glyph glyph-name="f" unicode="f" horiz-adv-x="375" 
d="M46 0l121 449h-71l18 68h71l16 60q19 71 57 109q46 46 121 46q61 0 103 -22l-18 -66q-45 21 -85 21q-78 0 -104 -98l-13 -50h169l-19 -68h-168l-121 -449h-77z" />
    <glyph glyph-name="g" unicode="g" horiz-adv-x="659" 
d="M240 -162q-71 0 -138 24t-115 66l48 54q91 -78 204 -78q94 0 145 53q41 40 65 124l14 52q-91 -93 -198 -93q-86 0 -148 53t-62 142q0 120 87 207q86 86 203 86q132 0 190 -124l30 113h77l-118 -443q-30 -109 -84 -163q-73 -73 -200 -73zM287 106q90 0 158 68
q63 63 63 140q0 60 -43.5 103t-115.5 43q-86 0 -149 -63q-64 -64 -64 -152q0 -66 44 -102.5t107 -36.5z" />
    <glyph glyph-name="h" unicode="h" horiz-adv-x="614" 
d="M17 0l196 730h77l-80 -297q82 95 180 95q75 0 119.5 -43.5t44.5 -116.5q0 -26 -12 -80l-77 -288h-77l79 293q7 30 7 58q0 51 -30.5 79.5t-84.5 28.5q-60 0 -113.5 -47t-73.5 -120l-78 -292h-77z" />
    <glyph glyph-name="i" unicode="i" horiz-adv-x="264" 
d="M24 0l139 517h77l-139 -517h-77zM188 630l23 85h88l-23 -85h-88z" />
    <glyph glyph-name="j" unicode="j" horiz-adv-x="264" 
d="M-50 -163q-38 0 -69 9l18 65q23 -7 44 -7q55 0 74 70l146 543h77l-148 -551q-36 -129 -142 -129zM188 630l23 85h88l-23 -85h-88z" />
    <glyph glyph-name="k" unicode="k" horiz-adv-x="568" 
d="M17 0l196 730h77l-133 -497l347 284h106l-278 -223l143 -294h-88l-119 245l-138 -110l-36 -135h-77z" />
    <glyph glyph-name="l" unicode="l" horiz-adv-x="264" 
d="M24 0l196 730h77l-196 -730h-77z" />
    <glyph glyph-name="m" unicode="m" horiz-adv-x="952" 
d="M17 0l138 517h77l-22 -84q41 47 80 71t92 24q61 0 98 -33.5t49 -83.5q76 117 208 117q70 0 114 -44t44 -116q0 -22 -15 -80l-76 -288h-77l78 293q8 27 8 58q0 50 -28.5 79t-78.5 29q-57 0 -108.5 -47.5t-70.5 -119.5l-78 -292h-76l78 293q8 27 8 58q0 50 -29 79t-79 29
q-57 0 -108.5 -47.5t-70.5 -119.5l-78 -292h-77z" />
    <glyph glyph-name="n" unicode="n" horiz-adv-x="614" 
d="M17 0l138 517h77l-22 -84q82 95 180 95q75 0 119.5 -43.5t44.5 -116.5q0 -26 -12 -80l-77 -288h-77l79 293q7 30 7 58q0 51 -30.5 79.5t-84.5 28.5q-60 0 -113.5 -47t-73.5 -120l-78 -292h-77z" />
    <glyph glyph-name="o" unicode="o" horiz-adv-x="637" 
d="M284 -12q-105 0 -170 65t-65 167q0 126 93 217q91 91 211 91q106 0 171 -65t65 -166q0 -123 -93 -218q-91 -91 -212 -91zM289 57q83 0 147 64q74 74 74 173q0 78 -44.5 122t-117.5 44q-82 0 -147 -65q-74 -74 -74 -173q0 -77 44.5 -121t117.5 -44z" />
    <glyph glyph-name="p" unicode="p" horiz-adv-x="659" 
d="M319 -12q-139 0 -194 128l-74 -276h-77l181 677h77l-24 -89q88 100 196 100q89 0 147 -60.5t58 -158.5q0 -141 -96 -237q-84 -84 -194 -84zM312 56q80 0 142 60q74 76 74 186q0 72 -40 115t-106 43q-86 0 -153 -69q-77 -77 -77 -174q0 -68 45 -114.5t115 -46.5z" />
    <glyph glyph-name="q" unicode="q" horiz-adv-x="660" 
d="M256 -12q-89 0 -147 61t-58 158q0 141 96 237q84 84 194 84q139 0 194 -128l31 117h77l-181 -677h-77l67 248q-89 -100 -196 -100zM278 56q84 0 153 69q77 77 77 175q0 68 -45 114t-115 46q-82 0 -142 -60q-74 -72 -74 -186q0 -72 40 -115t106 -43z" />
    <glyph glyph-name="r" unicode="r" horiz-adv-x="402" 
d="M17 0l138 517h77l-35 -135q106 152 246 144l-22 -83h-5q-88 0 -162.5 -63t-104.5 -176l-55 -204h-77z" />
    <glyph glyph-name="s" unicode="s" horiz-adv-x="496" 
d="M217 -11q-133 0 -223 90l50 50q79 -76 180 -76q46 0 80 24t34 62q0 26 -21.5 46.5t-76.5 41.5q-76 30 -111 60.5t-35 81.5q0 68 54 113.5t142 45.5q54 0 105 -20.5t86 -50.5l-45 -53q-74 60 -153 60q-52 0 -82 -24t-30 -58q0 -26 21.5 -45.5t81.5 -42.5q74 -30 107.5 -62
t33.5 -80q0 -71 -57 -117t-141 -46z" />
    <glyph glyph-name="t" unicode="t" horiz-adv-x="401" 
d="M202 -9q-57 0 -91.5 26.5t-34.5 75.5q0 26 7 54l81 302h-71l18 68h72l42 156h76l-42 -156h163l-18 -68h-163l-80 -298q-4 -24 -4 -38q0 -53 71 -53q36 0 75 16l-19 -70q-37 -15 -82 -15z" />
    <glyph glyph-name="u" unicode="u" horiz-adv-x="614" 
d="M224 -11q-75 0 -120 43.5t-45 116.5q0 30 13 80l76 288h77l-78 -293q-8 -27 -8 -58q0 -51 31 -79.5t85 -28.5q61 0 114 47t73 121l78 291h77l-139 -517h-76l22 84q-84 -95 -180 -95z" />
    <glyph glyph-name="v" unicode="v" horiz-adv-x="566" 
d="M171 -4l-83 521h81l58 -429l285 429h88l-361 -521h-68z" />
    <glyph glyph-name="w" unicode="w" horiz-adv-x="848" 
d="M137 -4l-41 521h78l27 -412l250 414h64l29 -414l249 412h80l-322 -521h-68l-30 408l-249 -408h-67z" />
    <glyph glyph-name="x" unicode="x" horiz-adv-x="564" 
d="M198 517l98 -197l197 197h97l-263 -256l135 -261h-85l-103 210l-212 -210h-97l278 268l-130 249h85z" />
    <glyph glyph-name="y" unicode="y" horiz-adv-x="574" 
d="M181 0l-94 517h81l71 -431l277 431h88l-354 -534q-54 -79 -103 -112.5t-109 -33.5q-61 0 -113 36l42 57q35 -27 79 -27q34 0 65.5 22t69.5 75z" />
    <glyph glyph-name="z" unicode="z" horiz-adv-x="549" 
d="M-20 0l14 49l441 403h-321l18 65h432l-14 -49l-442 -403h338l-18 -65h-448z" />
    <glyph glyph-name="braceleft" unicode="{" horiz-adv-x="483" 
d="M311 -141q-86 18 -126 61t-40 102q0 37 23 111q10 31 10 59q0 33 -20 49t-71 16h-28l16 60h28q72 0 106 34t56 143q21 104 67 151q64 63 206 70l1 -55q-103 -6 -150 -53q-36 -36 -52 -120q-8 -41 -12.5 -60.5t-18.5 -51.5t-32 -50q-34 -34 -95 -43q73 -18 73 -84
q0 -30 -11 -63q-21 -63 -21 -103q0 -46 26 -76.5t89 -48.5z" />
    <glyph glyph-name="bar" unicode="|" horiz-adv-x="303" 
d="M16 -128l248 926h65l-249 -926h-64z" />
    <glyph glyph-name="braceright" unicode="}" horiz-adv-x="483" 
d="M188 715q86 -18 126 -61t40 -102q0 -37 -23 -111q-10 -31 -10 -59q0 -33 20 -49t71 -16h28l-16 -60h-28q-72 0 -106 -34t-56 -143q-21 -104 -67 -151q-64 -63 -206 -70l-1 55q103 6 150 53q36 36 52 120q8 41 12.5 60.5t18.5 51.5t32 50q34 34 95 43q-73 18 -73 84
q0 30 11 63q21 63 21 103q0 46 -26 76.5t-89 48.5z" />
    <glyph glyph-name="asciitilde" unicode="~" horiz-adv-x="474" 
d="M128 238l-50 22q51 106 118 106q34 0 70 -33q19 -18 28 -23.5t21 -5.5q17 0 30.5 14t31.5 45l49 -21q-49 -106 -117 -106q-15 0 -27.5 4.5t-20.5 10.5t-22 18q-32 29 -49 29t-30.5 -14t-31.5 -46z" />
    <glyph glyph-name="uni00A0" unicode="&#xa0;" horiz-adv-x="300" 
 />
    <glyph glyph-name="exclamdown" unicode="&#xa1;" horiz-adv-x="271" 
d="M224 502l-96 -446l-16 -56h-90l15 56l143 446h44zM301 700l-28 -105h-92l28 105h92z" />
    <glyph glyph-name="cent" unicode="&#xa2;" horiz-adv-x="566" 
d="M440 706h65l-38 -94q88 -27 129 -109l-61 -39q-38 65 -97 83l-155 -393q8 -1 26 -1q90 0 166 66l45 -51q-91 -84 -212 -84q-27 0 -47 4l-37 -94h-64l43 111q-61 26 -95.5 80t-34.5 124q0 135 93 226q88 90 215 90q5 0 13.5 -0.5t12.5 -0.5zM151 310q0 -47 21.5 -83.5
t59.5 -56.5l151 386h-5q-88 0 -153 -65q-74 -76 -74 -181z" />
    <glyph glyph-name="sterling" unicode="&#xa3;" horiz-adv-x="629" 
d="M-5 0l12 46l89 21l62 228h-84l19 69h83l33 121q27 103 80 154q67 69 169 69q131 0 194 -113l-65 -42q-25 41 -56 61.5t-78 20.5q-63 0 -107 -44q-41 -41 -62 -120l-29 -107h280l-19 -69h-280l-60 -225h356l-19 -70h-518z" />
    <glyph glyph-name="yen" unicode="&#xa5;" horiz-adv-x="703" 
d="M240 0l31 116h-203l16 62h203l23 88h-203l17 62h177l-158 372h88l141 -344l326 344h99l-360 -372h174l-17 -62h-206l-23 -88h206l-17 -62h-206l-30 -116h-78z" />
    <glyph glyph-name="section" unicode="&#xa7;" horiz-adv-x="632" 
d="M594 345q0 -60 -53.5 -93.5t-126.5 -36.5q65 -34 65 -92q0 -59 -55.5 -96t-136.5 -37q-69 0 -129.5 24t-95.5 61l50 50q32 -31 80 -51t102 -20q46 0 77 18.5t31 48.5q0 27 -29 46.5t-100 43.5q-98 33 -143 64.5t-45 80.5q0 59 53 93t126 37q-64 35 -64 92q0 59 55.5 96
t137.5 37q68 0 128.5 -24t95.5 -61l-49 -50q-75 71 -183 71q-46 0 -77 -18.5t-31 -48.5q0 -27 29.5 -47t99.5 -43q98 -33 143 -64.5t45 -80.5zM161 366q0 -27 27.5 -47t92.5 -41q60 -21 113 -21q52 0 88 23t36 55q0 27 -27.5 47t-92.5 41t-113 21q-52 0 -88 -23t-36 -55z
" />
    <glyph glyph-name="dieresis" unicode="&#xa8;" horiz-adv-x="500" 
d="M198 595l26 95h90l-26 -95h-90zM375 595l26 95h89l-26 -95h-89z" />
    <glyph glyph-name="copyright" unicode="&#xa9;" horiz-adv-x="830" 
d="M411 163q-67 0 -111.5 41.5t-44.5 111.5q0 97 68 167q64 64 151 64q98 0 142 -79l-47 -29q-37 58 -98 58t-107 -46q-53 -53 -53 -131q0 -51 29 -78.5t74 -27.5q56 0 107 48l35 -37q-62 -62 -145 -62zM799 394q0 -81 -31 -157t-88 -133q-116 -116 -279 -116
q-144 0 -232.5 90.5t-88.5 227.5q0 81 31 157t88 133q116 116 279 116q144 0 232.5 -90.5t88.5 -227.5zM114 307q0 -123 78 -205.5t211 -82.5q145 0 249 104q112 112 112 271q0 122 -77.5 204.5t-211.5 82.5q-145 0 -249 -104q-112 -112 -112 -270z" />
    <glyph glyph-name="ordfeminine" unicode="&#xaa;" horiz-adv-x="390" 
d="M190 407q-37 0 -61 21t-24 55q0 49 36.5 78t93.5 29q37 0 93 -15l2 6q4 14 4 24q0 53 -72 53q-40 0 -80 -15l-9 43q47 18 99 18q54 0 83.5 -23.5t29.5 -65.5q0 -14 -6 -40l-43 -162h-51l12 46q-47 -52 -107 -52zM207 446q35 0 67.5 24.5t41.5 58.5l4 13q-40 11 -81 11
q-36 0 -58.5 -18t-22.5 -46q0 -19 13.5 -31t35.5 -12zM56 289l12 47h250l-12 -47h-250z" />
    <glyph glyph-name="guillemotleft" unicode="&#xab;" horiz-adv-x="550" 
d="M153 40l-108 212l2 8l225 215l47 -41l-185 -187l79 -178zM375 40l-108 212l2 8l224 215l48 -41l-185 -187l79 -178z" />
    <glyph glyph-name="registered" unicode="&#xae;" horiz-adv-x="403" 
d="M294 710q69 0 112 -44t43 -109q0 -83 -57 -140t-135 -57q-69 0 -112 44t-43 109q0 83 57 140t135 57zM259 379q68 0 117 49q53 53 53 127q0 58 -37 97t-100 39q-68 0 -117 -49q-53 -53 -53 -127q0 -58 37 -97t100 -39zM235 511l-16 -61h-35l48 177h66q66 0 66 -52
q0 -23 -14.5 -39.5t-42.5 -21.5l29 -64h-35l-27 61h-39zM242 539h38q27 0 41 12q8 8 8 21q0 25 -35 25h-36z" />
    <glyph glyph-name="macron" unicode="&#xaf;" horiz-adv-x="500" 
d="M186 615l17 63h319l-17 -63h-319z" />
    <glyph glyph-name="degree" unicode="&#xb0;" horiz-adv-x="387" 
d="M261 705q59 0 96.5 -37.5t37.5 -94.5q0 -71 -52 -123q-51 -51 -120 -51q-59 0 -96.5 37.5t-37.5 95.5q0 70 52 122q51 51 120 51zM228 450q45 0 76 33q36 36 36 86q0 39 -23.5 62t-60.5 23q-44 0 -76 -32q-36 -36 -36 -86q0 -39 23.5 -62.5t60.5 -23.5z" />
    <glyph glyph-name="plusminus" unicode="&#xb1;" horiz-adv-x="625" 
d="M252 169l53 195h-200l19 70h200l51 195h74l-52 -195h199l-19 -70h-199l-53 -195h-73zM9 0l18 69h471l-18 -69h-471z" />
    <glyph glyph-name="two.sup" unicode="&#xb2;" 
d="M105 424l11 44l213 159q65 48 65 89q0 27 -19.5 42.5t-50.5 15.5q-52 0 -106 -54l-32 32q62 69 141 69q54 0 87 -28t33 -72q0 -34 -20.5 -63.5t-68.5 -63.5l-167 -122h205l-13 -48h-278z" />
    <glyph glyph-name="three.sup" unicode="&#xb3;" 
d="M258 414q-96 0 -138 71l38 29q38 -53 99 -53q44 0 72.5 22t28.5 56q0 64 -92 64h-20l-10 31l157 129h-187l14 48h255l-11 -41l-160 -129q47 -4 77.5 -28.5t30.5 -68.5q0 -55 -45.5 -92.5t-108.5 -37.5z" />
    <glyph glyph-name="acute" unicode="&#xb4;" horiz-adv-x="500" 
d="M239 595l134 145l80 -37l-142 -108h-72z" />
    <glyph glyph-name="mu" unicode="&#xb5;" horiz-adv-x="663" 
d="M266 -10q-58 0 -99 30t-57 85h-1q-10 -82 -28 -150l-31 -115h-76l181 677h77l-72 -268q-10 -40 -10 -70q0 -57 32 -89.5t90 -32.5q62 0 108.5 39t65.5 108l84 313h76l-99 -369q-6 -30 -6 -45q0 -44 53 -44q17 0 39 4l-17 -64q-22 -6 -49 -6q-93 0 -103 79
q-61 -82 -158 -82z" />
    <glyph glyph-name="paragraph" unicode="&#xb6;" horiz-adv-x="517" 
d="M268 0l66 249q-129 7 -189 67q-47 47 -47 124q0 105 66 171q87 89 267 89h105l-188 -700h-80z" />
    <glyph glyph-name="periodcentered" unicode="&#xb7;" horiz-adv-x="245" 
d="M73 248l29 106h91l-28 -106h-92z" />
    <glyph glyph-name="cedilla" unicode="&#xb8;" horiz-adv-x="500" 
d="M129 -155l-66 34l125 131h61z" />
    <glyph glyph-name="one.sup" unicode="&#xb9;" horiz-adv-x="325" 
d="M203 424l90 336l-94 -32l-2 47l121 43h42l-105 -394h-52z" />
    <glyph glyph-name="ordmasculine" unicode="&#xba;" horiz-adv-x="393" 
d="M58 289l12 47h270l-12 -47h-270zM165 538q0 -39 23 -63t60 -24q43 0 76 33q36 34 36 88q0 39 -23 63t-60 24q-43 0 -76 -33q-36 -36 -36 -88zM413 574q0 -69 -50 -119t-118 -50q-59 0 -96 36.5t-37 94.5q0 70 51 119q48 50 117 50q59 0 96 -37t37 -94z" />
    <glyph glyph-name="guillemotright" unicode="&#xbb;" horiz-adv-x="550" 
d="M396 473l108 -212l-2 -8l-225 -215l-47 41l185 187l-79 178zM174 473l108 -212l-2 -8l-224 -215l-48 41l185 187l-79 178z" />
    <glyph glyph-name="onequarter" unicode="&#xbc;" horiz-adv-x="825" 
d="M583 -1l23 88h-189l1 48l258 258h61l-71 -262h54l-11 -44h-54l-24 -88h-48zM40 0l342 359l320 341h59l-343 -359l-319 -341h-59zM147 313l89 336l-93 -32l-2 47l121 42h41l-105 -393h-51zM472 130h146l53 200z" />
    <glyph glyph-name="onehalf" unicode="&#xbd;" horiz-adv-x="825" 
d="M403 0l11 44l213 159q65 48 65 89q0 27 -19.5 42.5t-50.5 15.5q-52 0 -106 -54l-32 32q62 69 141 69q54 0 87 -28t33 -72q0 -34 -20.5 -63.5t-68.5 -63.5l-167 -122h205l-13 -48h-278zM147 313l89 336l-93 -32l-2 47l121 42h41l-105 -393h-51zM30 0l342 359l320 341h59
l-343 -359l-319 -341h-59z" />
    <glyph glyph-name="threequarters" unicode="&#xbe;" horiz-adv-x="900" 
d="M658 -1l23 88h-189l1 48l258 258h61l-71 -262h54l-11 -44h-54l-24 -88h-48zM204 303q-98 0 -138 71l37 29q37 -53 100 -53q44 0 72.5 22t28.5 56q0 64 -93 64h-19l-10 31l156 129h-187l14 48h256l-12 -41l-160 -129q47 -4 77.5 -28.5t30.5 -68.5q0 -55 -45 -92.5
t-108 -37.5zM110 0l342 359l320 341h59l-343 -359l-319 -341h-59zM547 130h146l53 200z" />
    <glyph glyph-name="questiondown" unicode="&#xbf;" horiz-adv-x="537" 
d="M398 502l-28 -162l-6 -5q-109 -8 -173 -50t-64 -111q0 -53 37 -82t96 -29q100 0 182 80l45 -52q-100 -100 -235 -100q-94 0 -150.5 50.5t-56.5 126.5q0 93 72 150t190 74l40 110h51zM470 700l-28 -105h-92l28 105h92z" />
    <glyph glyph-name="Agrave" unicode="&#xc0;" horiz-adv-x="761" 
d="M-40 0l508 705h76l130 -705h-81l-32 185h-382l-132 -185h-87zM229 257h319l-63 358zM484 772l-90 93l79 36l66 -129h-55z" />
    <glyph glyph-name="Aacute" unicode="&#xc1;" horiz-adv-x="761" 
d="M-40 0l508 705h76l130 -705h-81l-32 185h-382l-132 -185h-87zM229 257h319l-63 358zM485 772l135 129l78 -36l-139 -93h-74z" />
    <glyph glyph-name="Acircumflex" unicode="&#xc2;" horiz-adv-x="761" 
d="M-40 0l508 705h76l130 -705h-81l-32 185h-382l-132 -185h-87zM229 257h319l-63 358zM371 770l142 118h72l78 -118h-67l-58 60l-91 -60h-76z" />
    <glyph glyph-name="Atilde" unicode="&#xc3;" horiz-adv-x="761" 
d="M-40 0l508 705h76l130 -705h-81l-32 185h-382l-132 -185h-87zM229 257h319l-63 358zM413 763l-48 15q25 53 50 77t59 24q21 0 70 -20q44 -19 58 -19q19 0 31.5 10.5t28.5 36.5l49 -15q-24 -53 -49.5 -76.5t-59.5 -23.5q-21 0 -70 20q-44 19 -58 19q-19 0 -31.5 -10.5
t-29.5 -37.5z" />
    <glyph glyph-name="Adieresis" unicode="&#xc4;" horiz-adv-x="761" 
d="M-40 0l508 705h76l130 -705h-81l-32 185h-382l-132 -185h-87zM229 257h319l-63 358zM385 772l25 90h93l-24 -90h-94zM572 772l25 90h93l-25 -90h-93z" />
    <glyph glyph-name="Aring" unicode="&#xc5;" horiz-adv-x="761" 
d="M-40 0l482 669q-37 24 -37 68q0 47 36.5 79.5t88.5 32.5q43 0 71.5 -24.5t28.5 -62.5q0 -35 -21.5 -62.5t-56.5 -40.5l122 -659h-81l-32 185h-382l-132 -185h-87zM229 257h319l-63 358zM508 688q32 0 54.5 20.5t22.5 49.5q0 23 -16 38t-43 15q-31 0 -53.5 -20.5
t-22.5 -49.5q0 -24 16 -38.5t42 -14.5z" />
    <glyph glyph-name="AE" unicode="&#xc6;" horiz-adv-x="1054" 
d="M-40 0l599 700h560l-20 -72h-409l-64 -239h364l-19 -72h-364l-66 -245h414l-19 -72h-493l50 185h-284l-158 -185h-91zM268 257h243l100 373h-25z" />
    <glyph glyph-name="Ccedilla" unicode="&#xc7;" horiz-adv-x="735" 
d="M273 -155l-66 34l109 115q-103 19 -167 94.5t-64 188.5q0 87 35 168.5t97 143.5q123 123 288 123q93 0 160 -40.5t104 -109.5l-68 -42q-35 59 -82.5 89t-120.5 30q-123 0 -219 -94q-52 -53 -81.5 -122.5t-29.5 -142.5q0 -100 61 -159.5t158 -59.5q119 0 217 95l53 -52
q-117 -117 -274 -117h-7z" />
    <glyph glyph-name="Egrave" unicode="&#xc8;" horiz-adv-x="653" 
d="M439 762l-90 93l79 36l66 -129h-55zM30 0l188 700h501l-20 -72h-422l-64 -239h377l-20 -72h-376l-66 -245h427l-19 -72h-506z" />
    <glyph glyph-name="Eacute" unicode="&#xc9;" horiz-adv-x="653" 
d="M439 762l135 129l78 -36l-139 -93h-74zM30 0l188 700h501l-20 -72h-422l-64 -239h377l-20 -72h-376l-66 -245h427l-19 -72h-506z" />
    <glyph glyph-name="Ecircumflex" unicode="&#xca;" horiz-adv-x="653" 
d="M30 0l188 700h501l-20 -72h-422l-64 -239h377l-20 -72h-376l-66 -245h427l-19 -72h-506zM326 762l142 118h72l78 -118h-67l-58 60l-91 -60h-76z" />
    <glyph glyph-name="Edieresis" unicode="&#xcb;" horiz-adv-x="653" 
d="M339 762l25 90h93l-24 -90h-94zM526 762l25 90h93l-25 -90h-93zM30 0l188 700h501l-20 -72h-422l-64 -239h377l-20 -72h-376l-66 -245h427l-19 -72h-506z" />
    <glyph glyph-name="Igrave" unicode="&#xcc;" horiz-adv-x="291" 
d="M37 0l188 700h79l-188 -700h-79zM240 762l-90 93l79 36l66 -129h-55z" />
    <glyph glyph-name="Iacute" unicode="&#xcd;" horiz-adv-x="291" 
d="M37 0l188 700h79l-188 -700h-79zM241 762l135 129l78 -36l-139 -93h-74z" />
    <glyph glyph-name="Icircumflex" unicode="&#xce;" horiz-adv-x="291" 
d="M37 0l188 700h79l-188 -700h-79zM128 762l142 118h72l78 -118h-67l-58 60l-91 -60h-76z" />
    <glyph glyph-name="Idieresis" unicode="&#xcf;" horiz-adv-x="291" 
d="M37 0l188 700h79l-188 -700h-79zM141 762l25 90h93l-24 -90h-94zM328 762l25 90h93l-25 -90h-93z" />
    <glyph glyph-name="Eth" unicode="&#xd0;" horiz-adv-x="800" 
d="M66 320l17 64h77l85 316h170q179 0 272 -93q77 -77 77 -201q0 -162 -111 -273q-133 -133 -359 -133h-237l86 320h-77zM623 556q-73 71 -214 71h-104l-66 -243h208l-17 -64h-208l-66 -247h148q178 0 290 110q87 87 87 218q0 97 -58 155z" />
    <glyph glyph-name="Ntilde" unicode="&#xd1;" horiz-adv-x="787" 
d="M415 750l-48 15q25 53 50 77t59 24q21 0 70 -20q44 -19 58 -19q19 0 31.5 10.5t28.5 36.5l49 -15q-24 -53 -49.5 -76.5t-59.5 -23.5q-21 0 -70 20q-44 19 -58 19q-19 0 -31.5 -10.5t-29.5 -37.5zM30 0l188 700h73l285 -568l153 568h77l-188 -700h-63l-292 581l-156 -581
h-77z" />
    <glyph glyph-name="Ograve" unicode="&#xd2;" horiz-adv-x="842" 
d="M506 772l-90 93l79 36l66 -129h-55zM496 712q134 0 220.5 -87t86.5 -216q0 -84 -34 -163.5t-93 -139.5q-121 -119 -281 -119q-134 0 -220.5 87t-86.5 217q0 84 34 163t94 139q119 119 280 119zM400 60q122 0 214 92q50 50 78 117t28 137q0 101 -63 167t-166 66
q-124 0 -214 -92q-50 -49 -78 -116t-28 -138q0 -101 63 -167t166 -66z" />
    <glyph glyph-name="Oacute" unicode="&#xd3;" horiz-adv-x="842" 
d="M504 772l135 129l78 -36l-139 -93h-74zM496 712q134 0 220.5 -87t86.5 -216q0 -84 -34 -163.5t-93 -139.5q-121 -119 -281 -119q-134 0 -220.5 87t-86.5 217q0 84 34 163t94 139q119 119 280 119zM400 60q122 0 214 92q50 50 78 117t28 137q0 101 -63 167t-166 66
q-124 0 -214 -92q-50 -49 -78 -116t-28 -138q0 -101 63 -167t166 -66z" />
    <glyph glyph-name="Ocircumflex" unicode="&#xd4;" horiz-adv-x="842" 
d="M496 712q134 0 220.5 -87t86.5 -216q0 -84 -34 -163.5t-93 -139.5q-121 -119 -281 -119q-134 0 -220.5 87t-86.5 217q0 84 34 163t94 139q119 119 280 119zM400 60q122 0 214 92q50 50 78 117t28 137q0 101 -63 167t-166 66q-124 0 -214 -92q-50 -49 -78 -116t-28 -138
q0 -101 63 -167t166 -66zM393 772l142 118h72l78 -118h-67l-58 60l-91 -60h-76z" />
    <glyph glyph-name="Otilde" unicode="&#xd5;" horiz-adv-x="842" 
d="M435 763l-48 15q25 53 50 77t59 24q21 0 70 -20q44 -19 58 -19q19 0 31.5 10.5t28.5 36.5l49 -15q-24 -53 -49.5 -76.5t-59.5 -23.5q-21 0 -70 20q-44 19 -58 19q-19 0 -31.5 -10.5t-29.5 -37.5zM496 712q134 0 220.5 -87t86.5 -216q0 -84 -34 -163.5t-93 -139.5
q-121 -119 -281 -119q-134 0 -220.5 87t-86.5 217q0 84 34 163t94 139q119 119 280 119zM400 60q122 0 214 92q50 50 78 117t28 137q0 101 -63 167t-166 66q-124 0 -214 -92q-50 -49 -78 -116t-28 -138q0 -101 63 -167t166 -66z" />
    <glyph glyph-name="Odieresis" unicode="&#xd6;" horiz-adv-x="842" 
d="M406 772l25 90h93l-24 -90h-94zM593 772l25 90h93l-25 -90h-93zM496 712q134 0 220.5 -87t86.5 -216q0 -84 -34 -163.5t-93 -139.5q-121 -119 -281 -119q-134 0 -220.5 87t-86.5 217q0 84 34 163t94 139q119 119 280 119zM400 60q122 0 214 92q50 50 78 117t28 137
q0 101 -63 167t-166 66q-124 0 -214 -92q-50 -49 -78 -116t-28 -138q0 -101 63 -167t166 -66z" />
    <glyph glyph-name="multiply" unicode="&#xd7;" horiz-adv-x="625" 
d="M108 127l-41 55l223 175l-129 172l62 47l125 -175l222 177l41 -56l-223 -174l129 -172l-61 -47l-126 174z" />
    <glyph glyph-name="Oslash" unicode="&#xd8;" horiz-adv-x="842" 
d="M496 712q138 0 224 -91l98 84h90l-152 -131q47 -74 47 -165q0 -84 -34 -163.5t-93 -139.5q-121 -119 -281 -119q-137 0 -224 90l-98 -83h-90l151 130q-46 76 -46 167q0 84 34 163t94 139q119 119 280 119zM169 293q0 -68 27 -119l465 398q-64 69 -170 69q-122 0 -215 -93
q-50 -50 -78.5 -117.5t-28.5 -137.5zM400 58q122 0 215 93q50 50 78.5 117.5t28.5 137.5q0 67 -27 118l-465 -398q63 -68 170 -68z" />
    <glyph glyph-name="Ugrave" unicode="&#xd9;" horiz-adv-x="758" 
d="M463 759l-90 93l79 36l66 -129h-55zM347 -11q-122 0 -188.5 61.5t-66.5 162.5q0 55 15 109l100 378h80l-106 -399q-10 -35 -10 -79q0 -72 46.5 -116t136.5 -44q91 0 156 64q61 63 89 171l109 403h79l-112 -417q-36 -133 -110 -207q-87 -87 -218 -87z" />
    <glyph glyph-name="Uacute" unicode="&#xda;" horiz-adv-x="758" 
d="M463 759l135 129l78 -36l-139 -93h-74zM347 -11q-122 0 -188.5 61.5t-66.5 162.5q0 55 15 109l100 378h80l-106 -399q-10 -35 -10 -79q0 -72 46.5 -116t136.5 -44q91 0 156 64q61 63 89 171l109 403h79l-112 -417q-36 -133 -110 -207q-87 -87 -218 -87z" />
    <glyph glyph-name="Ucircumflex" unicode="&#xdb;" horiz-adv-x="758" 
d="M347 -11q-122 0 -188.5 61.5t-66.5 162.5q0 55 15 109l100 378h80l-106 -399q-10 -35 -10 -79q0 -72 46.5 -116t136.5 -44q91 0 156 64q61 63 89 171l109 403h79l-112 -417q-36 -133 -110 -207q-87 -87 -218 -87zM350 759l142 118h72l78 -118h-67l-58 60l-91 -60h-76z
" />
    <glyph glyph-name="Udieresis" unicode="&#xdc;" horiz-adv-x="758" 
d="M364 759l25 90h93l-24 -90h-94zM551 759l25 90h93l-25 -90h-93zM347 -11q-122 0 -188.5 61.5t-66.5 162.5q0 55 15 109l100 378h80l-106 -399q-10 -35 -10 -79q0 -72 46.5 -116t136.5 -44q91 0 156 64q61 63 89 171l109 403h79l-112 -417q-36 -133 -110 -207
q-87 -87 -218 -87z" />
    <glyph glyph-name="Yacute" unicode="&#xdd;" horiz-adv-x="663" 
d="M216 0l76 282l-173 418h88l140 -353l330 353h101l-410 -431l-72 -269h-80zM411 759l135 129l78 -36l-139 -93h-74z" />
    <glyph glyph-name="Thorn" unicode="&#xde;" horiz-adv-x="667" 
d="M30 0l188 700h78l-31 -120h139q135 0 201 -65q49 -51 49 -131q0 -99 -65 -164q-94 -92 -279 -92h-166l-35 -128h-79zM163 199h151q147 0 215 66q44 46 44 114q0 52 -32 84q-44 44 -139 44h-157z" />
    <glyph glyph-name="germandbls" unicode="&#xdf;" horiz-adv-x="623" 
d="M222 -2l17 64q118 0 176.5 41.5t58.5 103.5q0 99 -163 125l16 60q200 47 200 171q0 47 -33.5 76.5t-89.5 29.5q-64 0 -110 -47.5t-69 -133.5l-131 -488h-77l135 501q28 109 87 166q68 70 170 70q86 0 140.5 -48t54.5 -121q0 -149 -196 -205q144 -42 144 -157
q0 -93 -87 -151.5t-243 -56.5z" />
    <glyph glyph-name="agrave" unicode="&#xe0;" horiz-adv-x="576" 
d="M183 -11q-69 0 -116.5 38.5t-47.5 104.5q0 74 49 123q64 64 181 64q84 0 184 -28l3 12q7 26 7 48q0 105 -140 105q-68 0 -146 -27l-13 64q83 31 171 31q97 0 150 -42.5t53 -117.5q0 -33 -11 -71l-78 -293h-75l22 81q-80 -92 -193 -92zM207 49q67 0 126 43.5t77 110.5
l10 36q-80 23 -168 23q-79 0 -122 -43q-33 -31 -33 -78q0 -41 30 -66.5t80 -25.5zM325 595l-83 108l81 37l56 -145h-54z" />
    <glyph glyph-name="aacute" unicode="&#xe1;" horiz-adv-x="576" 
d="M183 -11q-69 0 -116.5 38.5t-47.5 104.5q0 74 49 123q64 64 181 64q84 0 184 -28l3 12q7 26 7 48q0 105 -140 105q-68 0 -146 -27l-13 64q83 31 171 31q97 0 150 -42.5t53 -117.5q0 -33 -11 -71l-78 -293h-75l22 81q-80 -92 -193 -92zM207 49q67 0 126 43.5t77 110.5
l10 36q-80 23 -168 23q-79 0 -122 -43q-33 -31 -33 -78q0 -41 30 -66.5t80 -25.5zM322 595l134 145l80 -37l-142 -108h-72z" />
    <glyph glyph-name="acircumflex" unicode="&#xe2;" horiz-adv-x="576" 
d="M183 -11q-69 0 -116.5 38.5t-47.5 104.5q0 74 49 123q64 64 181 64q84 0 184 -28l3 12q7 26 7 48q0 105 -140 105q-68 0 -146 -27l-13 64q83 31 171 31q97 0 150 -42.5t53 -117.5q0 -33 -11 -71l-78 -293h-75l22 81q-80 -92 -193 -92zM207 49q67 0 126 43.5t77 110.5
l10 36q-80 23 -168 23q-79 0 -122 -43q-33 -31 -33 -78q0 -41 30 -66.5t80 -25.5zM216 595l141 131h68l71 -131h-62l-54 67l-96 -67h-68z" />
    <glyph glyph-name="atilde" unicode="&#xe3;" horiz-adv-x="576" 
d="M183 -11q-69 0 -116.5 38.5t-47.5 104.5q0 74 49 123q64 64 181 64q84 0 184 -28l3 12q7 26 7 48q0 105 -140 105q-68 0 -146 -27l-13 64q83 31 171 31q97 0 150 -42.5t53 -117.5q0 -33 -11 -71l-78 -293h-75l22 81q-80 -92 -193 -92zM207 49q67 0 126 43.5t77 110.5
l10 36q-80 23 -168 23q-79 0 -122 -43q-33 -31 -33 -78q0 -41 30 -66.5t80 -25.5zM499 713l47 -13q-25 -58 -50 -81.5t-61 -23.5q-23 0 -69 21q-40 19 -57 19q-19 0 -32 -10.5t-29 -38.5l-47 14q25 57 50 80.5t61 23.5q23 0 69 -21q40 -19 57 -19q19 0 32 10.5t29 38.5z" />
    <glyph glyph-name="adieresis" unicode="&#xe4;" horiz-adv-x="576" 
d="M183 -11q-69 0 -116.5 38.5t-47.5 104.5q0 74 49 123q64 64 181 64q84 0 184 -28l3 12q7 26 7 48q0 105 -140 105q-68 0 -146 -27l-13 64q83 31 171 31q97 0 150 -42.5t53 -117.5q0 -33 -11 -71l-78 -293h-75l22 81q-80 -92 -193 -92zM207 49q67 0 126 43.5t77 110.5
l10 36q-80 23 -168 23q-79 0 -122 -43q-33 -31 -33 -78q0 -41 30 -66.5t80 -25.5zM227 595l26 95h90l-26 -95h-90zM404 595l26 95h89l-26 -95h-89z" />
    <glyph glyph-name="aring" unicode="&#xe5;" horiz-adv-x="576" 
d="M183 -11q-69 0 -116.5 38.5t-47.5 104.5q0 74 49 123q64 64 181 64q84 0 184 -28l3 12q7 26 7 48q0 105 -140 105q-68 0 -146 -27l-13 64q83 31 171 31q97 0 150 -42.5t53 -117.5q0 -33 -11 -71l-78 -293h-75l22 81q-80 -92 -193 -92zM207 49q67 0 126 43.5t77 110.5
l10 36q-80 23 -168 23q-79 0 -122 -43q-33 -31 -33 -78q0 -41 30 -66.5t80 -25.5zM501 707q0 -46 -36 -80t-85 -34q-45 0 -74 27t-29 68q0 46 36 80t85 34q45 0 74 -27t29 -68zM319 690q0 -26 17 -43t45 -17q31 0 54.5 22.5t23.5 52.5q0 27 -17 43.5t-45 16.5
q-32 0 -55 -22.5t-23 -52.5z" />
    <glyph glyph-name="ae" unicode="&#xe6;" horiz-adv-x="960" 
d="M190 -11q-74 0 -122.5 38t-48.5 105q0 74 49 123q64 64 181 64q84 0 184 -28l3 12q7 26 7 48q0 105 -140 105q-68 0 -146 -27l-13 64q83 31 171 31q76 0 125 -28.5t64 -80.5q41 52 97 82.5t119 30.5q94 0 146.5 -56.5t52.5 -141.5q0 -52 -17 -98h-406q-1 -7 -1 -21
q0 -71 42 -114t114 -43q85 0 160 61l40 -50q-91 -77 -202 -77q-74 0 -126.5 31.5t-77.5 87.5q-113 -118 -255 -118zM212 49q113 0 217 110q-6 32 -3 77q-78 26 -174 26q-79 0 -122 -43q-33 -31 -33 -78q0 -42 31 -67t84 -25zM572 401q-45 -44 -66 -111h334q4 18 4 40
q0 57 -33 95t-96 38q-81 0 -143 -62z" />
    <glyph glyph-name="ccedilla" unicode="&#xe7;" horiz-adv-x="562" 
d="M172 -155l-66 34l111 116q-74 18 -121.5 76t-47.5 143q0 130 94 224q90 90 210 90q76 0 127 -34t79 -87l-62 -40q-55 93 -149 93q-82 0 -145 -65q-75 -75 -75 -179q0 -73 45 -116.5t109 -43.5q78 0 153 68l45 -50q-91 -86 -202 -86h-1z" />
    <glyph glyph-name="egrave" unicode="&#xe8;" horiz-adv-x="589" 
d="M531 232h-405q-1 -7 -1 -21q0 -70 41.5 -113.5t111.5 -43.5q86 0 163 61l39 -50q-91 -77 -208 -77q-100 0 -162 61.5t-62 158.5q0 64 26 125.5t72 107.5q87 87 203 87q94 0 147 -56.5t53 -141.5q0 -49 -18 -98zM201 401q-44 -44 -65 -111h333q5 15 5 40q0 57 -33 95
t-96 38q-80 0 -144 -62zM352 595l-83 108l81 37l56 -145h-54z" />
    <glyph glyph-name="eacute" unicode="&#xe9;" horiz-adv-x="589" 
d="M531 232h-405q-1 -7 -1 -21q0 -70 41.5 -113.5t111.5 -43.5q86 0 163 61l39 -50q-91 -77 -208 -77q-100 0 -162 61.5t-62 158.5q0 64 26 125.5t72 107.5q87 87 203 87q94 0 147 -56.5t53 -141.5q0 -49 -18 -98zM201 401q-44 -44 -65 -111h333q5 15 5 40q0 57 -33 95
t-96 38q-80 0 -144 -62zM349 595l134 145l80 -37l-142 -108h-72z" />
    <glyph glyph-name="ecircumflex" unicode="&#xea;" horiz-adv-x="589" 
d="M531 232h-405q-1 -7 -1 -21q0 -70 41.5 -113.5t111.5 -43.5q86 0 163 61l39 -50q-91 -77 -208 -77q-100 0 -162 61.5t-62 158.5q0 64 26 125.5t72 107.5q87 87 203 87q94 0 147 -56.5t53 -141.5q0 -49 -18 -98zM201 401q-44 -44 -65 -111h333q5 15 5 40q0 57 -33 95
t-96 38q-80 0 -144 -62zM243 595l141 131h68l71 -131h-62l-54 67l-96 -67h-68z" />
    <glyph glyph-name="edieresis" unicode="&#xeb;" horiz-adv-x="589" 
d="M531 232h-405q-1 -7 -1 -21q0 -70 41.5 -113.5t111.5 -43.5q86 0 163 61l39 -50q-91 -77 -208 -77q-100 0 -162 61.5t-62 158.5q0 64 26 125.5t72 107.5q87 87 203 87q94 0 147 -56.5t53 -141.5q0 -49 -18 -98zM201 401q-44 -44 -65 -111h333q5 15 5 40q0 57 -33 95
t-96 38q-80 0 -144 -62zM255 595l26 95h90l-26 -95h-90zM432 595l26 95h89l-26 -95h-89z" />
    <glyph glyph-name="igrave" unicode="&#xec;" horiz-adv-x="264" 
d="M24 0l139 517h77l-139 -517h-77zM186 595l-83 108l81 37l56 -145h-54z" />
    <glyph glyph-name="iacute" unicode="&#xed;" horiz-adv-x="264" 
d="M184 595l134 145l80 -37l-142 -108h-72zM24 0l139 517h77l-139 -517h-77z" />
    <glyph glyph-name="icircumflex" unicode="&#xee;" horiz-adv-x="264" 
d="M78 595l141 131h68l71 -131h-62l-54 67l-96 -67h-68zM24 0l139 517h77l-139 -517h-77z" />
    <glyph glyph-name="idieresis" unicode="&#xef;" horiz-adv-x="264" 
d="M90 595l26 95h90l-26 -95h-90zM267 595l26 95h89l-26 -95h-89zM24 0l139 517h77l-139 -517h-77z" />
    <glyph glyph-name="eth" unicode="&#xf0;" horiz-adv-x="631" 
d="M260 568l-21 50l125 49q-17 21 -53 63h97q24 -32 26 -35l112 44l22 -50l-102 -40q120 -180 120 -330q0 -147 -96 -243q-88 -88 -211 -88q-104 0 -167.5 65.5t-63.5 167.5q0 125 88 213q80 82 192 82q109 0 179 -96q-29 88 -110 202zM286 56q86 0 151 65q68 70 68 164
q0 72 -47 120t-122 48q-83 0 -141 -60q-69 -69 -69 -168q0 -77 43 -123t117 -46z" />
    <glyph glyph-name="ntilde" unicode="&#xf1;" horiz-adv-x="614" 
d="M17 0l138 517h77l-22 -84q82 95 180 95q75 0 119.5 -43.5t44.5 -116.5q0 -26 -12 -80l-77 -288h-77l79 293q7 30 7 58q0 51 -30.5 79.5t-84.5 28.5q-60 0 -113.5 -47t-73.5 -120l-78 -292h-77zM532 713l47 -13q-25 -58 -50 -81.5t-61 -23.5q-23 0 -69 21q-40 19 -57 19
q-19 0 -32 -10.5t-29 -38.5l-47 14q25 57 50 80.5t61 23.5q23 0 69 -21q40 -19 57 -19q19 0 32 10.5t29 38.5z" />
    <glyph glyph-name="ograve" unicode="&#xf2;" horiz-adv-x="637" 
d="M284 -12q-105 0 -170 65t-65 167q0 126 93 217q91 91 211 91q106 0 171 -65t65 -166q0 -123 -93 -218q-91 -91 -212 -91zM289 57q83 0 147 64q74 74 74 173q0 78 -44.5 122t-117.5 44q-82 0 -147 -65q-74 -74 -74 -173q0 -77 44.5 -121t117.5 -44zM366 595l-83 108l81 37
l56 -145h-54z" />
    <glyph glyph-name="oacute" unicode="&#xf3;" horiz-adv-x="637" 
d="M362 595l134 145l80 -37l-142 -108h-72zM284 -12q-105 0 -170 65t-65 167q0 126 93 217q91 91 211 91q106 0 171 -65t65 -166q0 -123 -93 -218q-91 -91 -212 -91zM289 57q83 0 147 64q74 74 74 173q0 78 -44.5 122t-117.5 44q-82 0 -147 -65q-74 -74 -74 -173
q0 -77 44.5 -121t117.5 -44z" />
    <glyph glyph-name="ocircumflex" unicode="&#xf4;" horiz-adv-x="637" 
d="M258 595l141 131h68l71 -131h-62l-54 67l-96 -67h-68zM284 -12q-105 0 -170 65t-65 167q0 126 93 217q91 91 211 91q106 0 171 -65t65 -166q0 -123 -93 -218q-91 -91 -212 -91zM289 57q83 0 147 64q74 74 74 173q0 78 -44.5 122t-117.5 44q-82 0 -147 -65
q-74 -74 -74 -173q0 -77 44.5 -121t117.5 -44z" />
    <glyph glyph-name="otilde" unicode="&#xf5;" horiz-adv-x="637" 
d="M284 -12q-105 0 -170 65t-65 167q0 126 93 217q91 91 211 91q106 0 171 -65t65 -166q0 -123 -93 -218q-91 -91 -212 -91zM289 57q83 0 147 64q74 74 74 173q0 78 -44.5 122t-117.5 44q-82 0 -147 -65q-74 -74 -74 -173q0 -77 44.5 -121t117.5 -44zM542 713l47 -13
q-25 -58 -50 -81.5t-61 -23.5q-23 0 -69 21q-40 19 -57 19q-19 0 -32 -10.5t-29 -38.5l-47 14q25 57 50 80.5t61 23.5q23 0 69 -21q40 -19 57 -19q19 0 32 10.5t29 38.5z" />
    <glyph glyph-name="odieresis" unicode="&#xf6;" horiz-adv-x="637" 
d="M270 595l26 95h90l-26 -95h-90zM447 595l26 95h89l-26 -95h-89zM284 -12q-105 0 -170 65t-65 167q0 126 93 217q91 91 211 91q106 0 171 -65t65 -166q0 -123 -93 -218q-91 -91 -212 -91zM289 57q83 0 147 64q74 74 74 173q0 78 -44.5 122t-117.5 44q-82 0 -147 -65
q-74 -74 -74 -173q0 -77 44.5 -121t117.5 -44z" />
    <glyph glyph-name="divide" unicode="&#xf7;" horiz-adv-x="625" 
d="M221 102l28 103h100l-28 -103h-100zM84 317l19 70h489l-19 -70h-489zM327 499l28 104h100l-27 -104h-101z" />
    <glyph glyph-name="oslash" unicode="&#xf8;" horiz-adv-x="637" 
d="M-40 -6l121 102q-32 53 -32 124q0 126 93 217q91 91 211 91q104 0 170 -64l69 58h85l-120 -102q32 -56 32 -123q0 -123 -93 -218q-91 -91 -212 -91q-104 0 -170 64l-69 -58h-85zM288 55q85 0 149 66q74 74 74 173q0 44 -14 78l-327 -274q43 -43 118 -43zM126 222
q0 -44 14 -78l327 274q-45 43 -118 43q-82 0 -149 -65q-74 -74 -74 -174z" />
    <glyph glyph-name="ugrave" unicode="&#xf9;" horiz-adv-x="614" 
d="M224 -11q-75 0 -120 43.5t-45 116.5q0 30 13 80l76 288h77l-78 -293q-8 -27 -8 -58q0 -51 31 -79.5t85 -28.5q61 0 114 47t73 121l78 291h77l-139 -517h-76l22 84q-84 -95 -180 -95zM350 595l-83 108l81 37l56 -145h-54z" />
    <glyph glyph-name="uacute" unicode="&#xfa;" horiz-adv-x="614" 
d="M347 595l134 145l80 -37l-142 -108h-72zM224 -11q-75 0 -120 43.5t-45 116.5q0 30 13 80l76 288h77l-78 -293q-8 -27 -8 -58q0 -51 31 -79.5t85 -28.5q61 0 114 47t73 121l78 291h77l-139 -517h-76l22 84q-84 -95 -180 -95z" />
    <glyph glyph-name="ucircumflex" unicode="&#xfb;" horiz-adv-x="614" 
d="M241 595l141 131h68l71 -131h-62l-54 67l-96 -67h-68zM224 -11q-75 0 -120 43.5t-45 116.5q0 30 13 80l76 288h77l-78 -293q-8 -27 -8 -58q0 -51 31 -79.5t85 -28.5q61 0 114 47t73 121l78 291h77l-139 -517h-76l22 84q-84 -95 -180 -95z" />
    <glyph glyph-name="udieresis" unicode="&#xfc;" horiz-adv-x="614" 
d="M253 595l26 95h90l-26 -95h-90zM430 595l26 95h89l-26 -95h-89zM224 -11q-75 0 -120 43.5t-45 116.5q0 30 13 80l76 288h77l-78 -293q-8 -27 -8 -58q0 -51 31 -79.5t85 -28.5q61 0 114 47t73 121l78 291h77l-139 -517h-76l22 84q-84 -95 -180 -95z" />
    <glyph glyph-name="yacute" unicode="&#xfd;" horiz-adv-x="574" 
d="M181 0l-94 517h81l71 -431l277 431h88l-354 -534q-54 -79 -103 -112.5t-109 -33.5q-61 0 -113 36l42 57q35 -27 79 -27q34 0 65.5 22t69.5 75zM315 595l134 145l80 -37l-142 -108h-72z" />
    <glyph glyph-name="thorn" unicode="&#xfe;" horiz-adv-x="659" 
d="M318 -12q-74 0 -122 35.5t-71 92.5l-74 -276h-77l239 890h77l-82 -302q86 100 195 100q90 0 148 -60.5t58 -158.5q0 -141 -96 -237q-84 -84 -195 -84zM312 56q80 0 142 60q74 76 74 186q0 71 -40.5 114.5t-105.5 43.5q-85 0 -154 -69q-76 -78 -76 -174q0 -68 45 -114.5
t115 -46.5z" />
    <glyph glyph-name="ydieresis" unicode="&#xff;" horiz-adv-x="574" 
d="M181 0l-94 517h81l71 -431l277 431h88l-354 -534q-54 -79 -103 -112.5t-109 -33.5q-61 0 -113 36l42 57q35 -27 79 -27q34 0 65.5 22t69.5 75zM220 595l26 95h90l-26 -95h-90zM397 595l26 95h89l-26 -95h-89z" />
    <glyph glyph-name="Amacron" unicode="&#x100;" horiz-adv-x="761" 
d="M-40 0l508 705h76l130 -705h-81l-32 185h-382l-132 -185h-87zM229 257h319l-63 358zM366 793l17 64h329l-17 -64h-329z" />
    <glyph glyph-name="amacron" unicode="&#x101;" horiz-adv-x="576" 
d="M183 -11q-69 0 -116.5 38.5t-47.5 104.5q0 74 49 123q64 64 181 64q84 0 184 -28l3 12q7 26 7 48q0 105 -140 105q-68 0 -146 -27l-13 64q83 31 171 31q97 0 150 -42.5t53 -117.5q0 -33 -11 -71l-78 -293h-75l22 81q-80 -92 -193 -92zM207 49q67 0 126 43.5t77 110.5
l10 36q-80 23 -168 23q-79 0 -122 -43q-33 -31 -33 -78q0 -41 30 -66.5t80 -25.5zM207 615l17 63h319l-17 -63h-319z" />
    <glyph glyph-name="Abreve" unicode="&#x102;" horiz-adv-x="761" 
d="M-40 0l508 705h76l130 -705h-81l-32 185h-382l-132 -185h-87zM229 257h319l-63 358zM527 770q-63 0 -95.5 30.5t-22.5 83.5h56q3 -52 75 -52q70 0 102 52h63q-18 -53 -67 -83.5t-111 -30.5z" />
    <glyph glyph-name="abreve" unicode="&#x103;" horiz-adv-x="576" 
d="M183 -11q-69 0 -116.5 38.5t-47.5 104.5q0 74 49 123q64 64 181 64q84 0 184 -28l3 12q7 26 7 48q0 105 -140 105q-68 0 -146 -27l-13 64q83 31 171 31q97 0 150 -42.5t53 -117.5q0 -33 -11 -71l-78 -293h-75l22 81q-80 -92 -193 -92zM207 49q67 0 126 43.5t77 110.5
l10 36q-80 23 -168 23q-79 0 -122 -43q-33 -31 -33 -78q0 -41 30 -66.5t80 -25.5zM367 593q-65 0 -97 34t-24 91h56q0 -63 73 -63q69 0 108 63h60q-20 -57 -67 -91t-109 -34z" />
    <glyph glyph-name="Aogonek" unicode="&#x104;" horiz-adv-x="761" 
d="M653 -120l-11 -44q-5 -1 -14 -1q-108 6 -108 66q0 48 73 99l-32 185h-382l-132 -185h-87l508 705h76l130 -705h-14q-71 -51 -71 -84q0 -16 14.5 -24t49.5 -12zM229 257h319l-63 358z" />
    <glyph glyph-name="aogonek" unicode="&#x105;" horiz-adv-x="576" 
d="M414 -120l-11 -44q-5 -1 -14 -1q-108 6 -108 66q0 48 73 99l22 81q-80 -92 -193 -92q-69 0 -116.5 38.5t-47.5 104.5q0 74 49 123q64 64 181 64q84 0 184 -28l3 12q7 26 7 48q0 105 -140 105q-68 0 -146 -27l-13 64q83 31 171 31q97 0 150 -42.5t53 -117.5q0 -33 -11 -71
l-78 -293h-8q-71 -51 -71 -84q0 -16 14.5 -24t49.5 -12zM207 49q67 0 126 43.5t77 110.5l10 36q-80 23 -168 23q-79 0 -122 -43q-33 -31 -33 -78q0 -41 30 -66.5t80 -25.5z" />
    <glyph glyph-name="Cacute" unicode="&#x106;" horiz-adv-x="735" 
d="M383 -13q-127 0 -212.5 79t-85.5 211q0 87 35 168.5t97 143.5q123 123 288 123q93 0 160 -40.5t104 -109.5l-68 -42q-35 59 -82.5 89t-120.5 30q-123 0 -219 -94q-52 -53 -81.5 -122.5t-29.5 -142.5q0 -100 61 -159.5t158 -59.5q119 0 217 95l53 -52q-117 -117 -274 -117
zM486 772l135 129l78 -36l-139 -93h-74z" />
    <glyph glyph-name="cacute" unicode="&#x107;" horiz-adv-x="562" 
d="M337 595l134 145l80 -37l-142 -108h-72zM277 -12q-95 0 -162 61.5t-67 164.5q0 130 94 224q90 90 210 90q76 0 127 -34t79 -87l-62 -40q-55 93 -149 93q-82 0 -145 -65q-75 -75 -75 -179q0 -73 45 -116.5t109 -43.5q78 0 153 68l45 -50q-91 -86 -202 -86z" />
    <glyph glyph-name="Cdotaccent" unicode="&#x10a;" horiz-adv-x="735" 
d="M478 772l25 90h96l-25 -90h-96zM383 -13q-127 0 -212.5 79t-85.5 211q0 87 35 168.5t97 143.5q123 123 288 123q93 0 160 -40.5t104 -109.5l-68 -42q-35 59 -82.5 89t-120.5 30q-123 0 -219 -94q-52 -53 -81.5 -122.5t-29.5 -142.5q0 -100 61 -159.5t158 -59.5
q119 0 217 95l53 -52q-117 -117 -274 -117z" />
    <glyph glyph-name="cdotaccent" unicode="&#x10b;" horiz-adv-x="562" 
d="M277 -12q-95 0 -162 61.5t-67 164.5q0 130 94 224q90 90 210 90q76 0 127 -34t79 -87l-62 -40q-55 93 -149 93q-82 0 -145 -65q-75 -75 -75 -179q0 -73 45 -116.5t109 -43.5q78 0 153 68l45 -50q-91 -86 -202 -86zM331 594l27 98h89l-27 -98h-89z" />
    <glyph glyph-name="Ccaron" unicode="&#x10c;" horiz-adv-x="735" 
d="M383 -13q-127 0 -212.5 79t-85.5 211q0 87 35 168.5t97 143.5q123 123 288 123q93 0 160 -40.5t104 -109.5l-68 -42q-35 59 -82.5 89t-120.5 30q-123 0 -219 -94q-52 -53 -81.5 -122.5t-29.5 -142.5q0 -100 61 -159.5t158 -59.5q119 0 217 95l53 -52q-117 -117 -274 -117
zM711 890l-141 -118h-73l-78 118h67l58 -60l91 60h76z" />
    <glyph glyph-name="ccaron" unicode="&#x10d;" horiz-adv-x="562" 
d="M323 595l-71 131h62l55 -67l96 67h68l-142 -131h-68zM277 -12q-95 0 -162 61.5t-67 164.5q0 130 94 224q90 90 210 90q76 0 127 -34t79 -87l-62 -40q-55 93 -149 93q-82 0 -145 -65q-75 -75 -75 -179q0 -73 45 -116.5t109 -43.5q78 0 153 68l45 -50q-91 -86 -202 -86z
" />
    <glyph glyph-name="Dcaron" unicode="&#x10e;" horiz-adv-x="773" 
d="M30 0l188 700h169q178 0 273 -93q76 -76 76 -201q0 -161 -110 -273q-133 -133 -359 -133h-237zM595 556q-71 71 -213 71h-104l-149 -554h148q179 0 289 110q88 88 88 218q0 98 -59 155zM668 880l-141 -118h-73l-78 118h67l58 -60l91 60h76z" />
    <glyph glyph-name="dcaron" unicode="&#x10f;" horiz-adv-x="660" 
d="M727 584l56 165h76v-3l-95 -162h-37zM428 0l24 88q-89 -100 -196 -100q-89 0 -147 61t-58 158q0 141 96 237q84 84 194 84q139 0 194 -128l88 330h77l-195 -730h-77zM278 56q84 0 153 69q77 77 77 175q0 68 -45 114t-115 46q-82 0 -142 -60q-74 -72 -74 -186
q0 -72 40 -115t106 -43z" />
    <glyph glyph-name="Dcroat" unicode="&#x110;" horiz-adv-x="800" 
d="M66 320l17 64h77l85 316h170q179 0 272 -93q77 -77 77 -201q0 -162 -111 -273q-133 -133 -359 -133h-237l86 320h-77zM623 556q-73 71 -214 71h-104l-66 -243h208l-17 -64h-208l-66 -247h148q178 0 290 110q87 87 87 218q0 97 -58 155z" />
    <glyph glyph-name="dcroat" unicode="&#x111;" horiz-adv-x="659" 
d="M413 611l15 56h178l17 63h77l-17 -63h69l-15 -56h-69l-163 -611h-77l24 88q-89 -100 -196 -100q-89 0 -147 61t-58 158q0 141 96 237q84 84 194 84q139 0 194 -128l56 211h-178zM278 56q84 0 153 69q77 77 77 175q0 68 -45 114t-115 46q-82 0 -142 -60q-74 -72 -74 -186
q0 -72 40 -115t106 -43z" />
    <glyph glyph-name="Emacron" unicode="&#x112;" horiz-adv-x="653" 
d="M321 783l17 64h329l-17 -64h-329zM30 0l188 700h501l-20 -72h-422l-64 -239h377l-20 -72h-376l-66 -245h427l-19 -72h-506z" />
    <glyph glyph-name="emacron" unicode="&#x113;" horiz-adv-x="589" 
d="M531 232h-405q-1 -7 -1 -21q0 -70 41.5 -113.5t111.5 -43.5q86 0 163 61l39 -50q-91 -77 -208 -77q-100 0 -162 61.5t-62 158.5q0 64 26 125.5t72 107.5q87 87 203 87q94 0 147 -56.5t53 -141.5q0 -49 -18 -98zM201 401q-44 -44 -65 -111h333q5 15 5 40q0 57 -33 95
t-96 38q-80 0 -144 -62zM234 615l17 63h319l-17 -63h-319z" />
    <glyph glyph-name="Ebreve" unicode="&#x114;" horiz-adv-x="653" 
d="M482 760q-63 0 -95.5 30.5t-22.5 83.5h56q3 -52 75 -52q69 0 102 52h63q-18 -53 -67 -83.5t-111 -30.5zM30 0l188 700h501l-20 -72h-422l-64 -239h377l-20 -72h-376l-66 -245h427l-19 -72h-506z" />
    <glyph glyph-name="ebreve" unicode="&#x115;" horiz-adv-x="589" 
d="M531 232h-405q-1 -7 -1 -21q0 -70 41.5 -113.5t111.5 -43.5q86 0 163 61l39 -50q-91 -77 -208 -77q-100 0 -162 61.5t-62 158.5q0 64 26 125.5t72 107.5q87 87 203 87q94 0 147 -56.5t53 -141.5q0 -49 -18 -98zM201 401q-44 -44 -65 -111h333q5 15 5 40q0 57 -33 95
t-96 38q-80 0 -144 -62zM394 593q-65 0 -97 34t-24 91h56q0 -63 73 -63q70 0 108 63h60q-20 -57 -67 -91t-109 -34z" />
    <glyph glyph-name="Edotaccent" unicode="&#x116;" horiz-adv-x="653" 
d="M431 762l25 90h96l-25 -90h-96zM30 0l188 700h501l-20 -72h-422l-64 -239h377l-20 -72h-376l-66 -245h427l-19 -72h-506z" />
    <glyph glyph-name="edotaccent" unicode="&#x117;" horiz-adv-x="589" 
d="M531 232h-405q-1 -7 -1 -21q0 -70 41.5 -113.5t111.5 -43.5q86 0 163 61l39 -50q-91 -77 -208 -77q-100 0 -162 61.5t-62 158.5q0 64 26 125.5t72 107.5q87 87 203 87q94 0 147 -56.5t53 -141.5q0 -49 -18 -98zM201 401q-44 -44 -65 -111h333q5 15 5 40q0 57 -33 95
t-96 38q-80 0 -144 -62zM343 594l27 98h89l-27 -98h-89z" />
    <glyph glyph-name="Eogonek" unicode="&#x118;" horiz-adv-x="653" 
d="M30 0l188 700h501l-20 -72h-422l-64 -239h377l-20 -72h-376l-66 -245h427l-19 -72h-9q-71 -51 -71 -84q0 -16 14.5 -24t49.5 -12l-11 -44q-5 -1 -14 -1q-108 6 -108 66q0 48 72 99h-429z" />
    <glyph glyph-name="eogonek" unicode="&#x119;" horiz-adv-x="589" 
d="M441 115l39 -50q-100 -75 -122 -97q-29 -29 -29 -52q0 -16 14.5 -24t49.5 -12l-11 -44q-6 -1 -15 -1q-107 6 -107 66q0 44 59 90q-19 -3 -47 -3q-100 0 -162 61.5t-62 158.5q0 64 26 125.5t72 107.5q87 87 203 87q94 0 147 -56.5t53 -141.5q0 -49 -18 -98h-405
q-1 -7 -1 -21q0 -70 41.5 -113.5t111.5 -43.5q86 0 163 61zM201 401q-44 -44 -65 -111h333q5 15 5 40q0 57 -33 95t-96 38q-80 0 -144 -62z" />
    <glyph glyph-name="Ecaron" unicode="&#x11a;" horiz-adv-x="653" 
d="M664 880l-141 -118h-73l-78 118h67l58 -60l91 60h76zM30 0l188 700h501l-20 -72h-422l-64 -239h377l-20 -72h-376l-66 -245h427l-19 -72h-506z" />
    <glyph glyph-name="ecaron" unicode="&#x11b;" horiz-adv-x="589" 
d="M531 232h-405q-1 -7 -1 -21q0 -70 41.5 -113.5t111.5 -43.5q86 0 163 61l39 -50q-91 -77 -208 -77q-100 0 -162 61.5t-62 158.5q0 64 26 125.5t72 107.5q87 87 203 87q94 0 147 -56.5t53 -141.5q0 -49 -18 -98zM201 401q-44 -44 -65 -111h333q5 15 5 40q0 57 -33 95
t-96 38q-80 0 -144 -62zM336 595l-71 131h62l55 -67l96 67h68l-142 -131h-68z" />
    <glyph glyph-name="Gbreve" unicode="&#x11e;" horiz-adv-x="784" 
d="M540 770q-63 0 -95.5 30.5t-22.5 83.5h56q3 -52 75 -52q69 0 102 52h63q-18 -53 -67 -83.5t-111 -30.5zM396 -13q-132 0 -221 80.5t-89 217.5q0 82 34.5 161t95.5 140q124 126 300 126q179 0 264 -128l-60 -47q-35 49 -83.5 76t-127.5 27q-134 0 -233 -99
q-50 -51 -78.5 -117.5t-28.5 -135.5q0 -106 64 -167t168 -61q102 0 181 49l55 194h-211l19 71h289l-89 -314q-117 -73 -249 -73z" />
    <glyph glyph-name="gbreve" unicode="&#x11f;" horiz-adv-x="659" 
d="M240 -162q-71 0 -138 24t-115 66l48 54q91 -78 204 -78q94 0 145 53q41 40 65 124l14 52q-91 -93 -198 -93q-86 0 -148 53t-62 142q0 120 87 207q86 86 203 86q132 0 190 -124l30 113h77l-118 -443q-30 -109 -84 -163q-73 -73 -200 -73zM287 106q90 0 158 68
q63 63 63 140q0 60 -43.5 103t-115.5 43q-86 0 -149 -63q-64 -64 -64 -152q0 -66 44 -102.5t107 -36.5zM422 593q-65 0 -97 34t-24 91h56q0 -63 73 -63q70 0 108 63h60q-20 -57 -67 -91t-109 -34z" />
    <glyph glyph-name="Gdotaccent" unicode="&#x120;" horiz-adv-x="784" 
d="M490 772l25 90h96l-25 -90h-96zM396 -13q-132 0 -221 80.5t-89 217.5q0 82 34.5 161t95.5 140q124 126 300 126q179 0 264 -128l-60 -47q-35 49 -83.5 76t-127.5 27q-134 0 -233 -99q-50 -51 -78.5 -117.5t-28.5 -135.5q0 -106 64 -167t168 -61q102 0 181 49l55 194h-211
l19 71h289l-89 -314q-117 -73 -249 -73z" />
    <glyph glyph-name="gdotaccent" unicode="&#x121;" horiz-adv-x="659" 
d="M240 -162q-71 0 -138 24t-115 66l48 54q91 -78 204 -78q94 0 145 53q41 40 65 124l14 52q-91 -93 -198 -93q-86 0 -148 53t-62 142q0 120 87 207q86 86 203 86q132 0 190 -124l30 113h77l-118 -443q-30 -109 -84 -163q-73 -73 -200 -73zM287 106q90 0 158 68
q63 63 63 140q0 60 -43.5 103t-115.5 43q-86 0 -149 -63q-64 -64 -64 -152q0 -66 44 -102.5t107 -36.5zM372 594l27 98h89l-27 -98h-89z" />
    <glyph glyph-name="Gcommaaccent" unicode="&#x122;" horiz-adv-x="784" 
d="M237 -244l1 30q65 10 78 60h-41l22 83h90l-19 -71q-14 -51 -45 -74t-86 -28zM396 -13q-132 0 -221 80.5t-89 217.5q0 82 34.5 161t95.5 140q124 126 300 126q179 0 264 -128l-60 -47q-35 49 -83.5 76t-127.5 27q-134 0 -233 -99q-50 -51 -78.5 -117.5t-28.5 -135.5
q0 -106 64 -167t168 -61q102 0 181 49l55 194h-211l19 71h289l-89 -314q-117 -73 -249 -73z" />
    <glyph glyph-name="gcommaaccent" unicode="&#x123;" horiz-adv-x="659" 
d="M518 767l-1 -30q-65 -10 -78 -61h41l-22 -82h-90l19 71q14 51 45 74t86 28zM240 -162q-71 0 -138 24t-115 66l48 54q91 -78 204 -78q94 0 145 53q41 40 65 124l14 52q-91 -93 -198 -93q-86 0 -148 53t-62 142q0 120 87 207q86 86 203 86q132 0 190 -124l30 113h77
l-118 -443q-30 -109 -84 -163q-73 -73 -200 -73zM287 106q90 0 158 68q63 63 63 140q0 60 -43.5 103t-115.5 43q-86 0 -149 -63q-64 -64 -64 -152q0 -66 44 -102.5t107 -36.5z" />
    <glyph glyph-name="Hbar" unicode="&#x126;" horiz-adv-x="756" 
d="M93 510l16 61h74l35 129h79l-35 -129h399l35 129h80l-35 -129h74l-17 -61h-73l-137 -510h-80l84 312h-399l-84 -312h-79l137 510h-74zM213 385h399l33 125h-399z" />
    <glyph glyph-name="hbar" unicode="&#x127;" horiz-adv-x="614" 
d="M112 611l15 56h69l17 63h77l-17 -63h177l-15 -56h-177l-48 -178q82 95 180 95q75 0 119.5 -43.5t44.5 -116.5q0 -26 -12 -80l-77 -288h-77l79 293q7 30 7 58q0 51 -30.5 79.5t-84.5 28.5q-60 0 -113.5 -47t-73.5 -120l-78 -292h-77l164 611h-69z" />
    <glyph glyph-name="Imacron" unicode="&#x12a;" horiz-adv-x="291" 
d="M37 0l188 700h79l-188 -700h-79zM123 783l17 64h329l-17 -64h-329z" />
    <glyph glyph-name="imacron" unicode="&#x12b;" horiz-adv-x="264" 
d="M24 0l139 517h77l-139 -517h-77zM69 615l17 63h319l-17 -63h-319z" />
    <glyph glyph-name="Ibreve" unicode="&#x12c;" horiz-adv-x="291" 
d="M37 0l188 700h79l-188 -700h-79zM283 760q-63 0 -95.5 30.5t-22.5 83.5h56q3 -52 75 -52q70 0 102 52h63q-18 -53 -67 -83.5t-111 -30.5z" />
    <glyph glyph-name="ibreve" unicode="&#x12d;" horiz-adv-x="264" 
d="M24 0l139 517h77l-139 -517h-77zM228 593q-65 0 -97 34t-24 91h56q0 -63 73 -63q70 0 108 63h60q-20 -57 -67 -91t-109 -34z" />
    <glyph glyph-name="Iogonek" unicode="&#x12e;" horiz-adv-x="291" 
d="M37 0l188 700h79l-188 -700h-7q-71 -51 -71 -84q0 -16 14.5 -24t49.5 -12l-11 -44q-5 -1 -14 -1q-108 6 -108 66q0 48 72 99h-4z" />
    <glyph glyph-name="iogonek" unicode="&#x12f;" horiz-adv-x="264" 
d="M24 0l139 517h77l-139 -517h-7q-71 -51 -71 -84q0 -16 14.5 -24t49.5 -12l-11 -44q-5 -1 -14 -1q-108 6 -108 66q0 48 72 99h-2zM188 630l23 85h88l-23 -85h-88z" />
    <glyph glyph-name="Idotaccent" unicode="&#x130;" horiz-adv-x="291" 
d="M37 0l188 700h79l-188 -700h-79zM233 762l25 90h96l-25 -90h-96z" />
    <glyph glyph-name="dotlessi" unicode="&#x131;" horiz-adv-x="264" 
d="M24 0l139 517h77l-139 -517h-77z" />
    <glyph glyph-name="Kcommaaccent" unicode="&#x136;" horiz-adv-x="718" 
d="M188 -238l1 30q65 10 78 60h-41l22 83h90l-19 -71q-14 -51 -45 -74t-86 -28zM30 0l188 700h79l-111 -416l502 416h112l-376 -308l199 -392h-89l-174 346l-203 -167l-48 -179h-79z" />
    <glyph glyph-name="kcommaaccent" unicode="&#x137;" horiz-adv-x="568" 
d="M103 -243l1 30q65 10 78 60h-41l22 83h90l-19 -71q-14 -51 -45 -74t-86 -28zM17 0l196 730h77l-133 -497l347 284h106l-278 -223l143 -294h-88l-119 245l-138 -110l-36 -135h-77z" />
    <glyph glyph-name="Lacute" unicode="&#x139;" horiz-adv-x="607" 
d="M250 762l135 129l78 -36l-139 -93h-74zM30 0l188 700h79l-168 -627h394l-20 -73h-473z" />
    <glyph glyph-name="lacute" unicode="&#x13a;" horiz-adv-x="264" 
d="M241 782l135 129l78 -36l-139 -93h-74zM24 0l196 730h77l-196 -730h-77z" />
    <glyph glyph-name="Lcommaaccent" unicode="&#x13b;" horiz-adv-x="607" 
d="M133 -243l1 30q65 10 78 60h-41l22 83h90l-19 -71q-14 -51 -45 -74t-86 -28zM30 0l188 700h79l-168 -627h394l-20 -73h-473z" />
    <glyph glyph-name="lcommaaccent" unicode="&#x13c;" horiz-adv-x="264" 
d="M-53 -243l1 30q65 10 78 60h-41l22 83h90l-19 -71q-14 -51 -45 -74t-86 -28zM24 0l196 730h77l-196 -730h-77z" />
    <glyph glyph-name="Lcaron" unicode="&#x13d;" horiz-adv-x="607" 
d="M332 536l56 165h76v-3l-95 -162h-37zM30 0l188 700h79l-168 -627h394l-20 -73h-473z" />
    <glyph glyph-name="lcaron" unicode="&#x13e;" horiz-adv-x="264" 
d="M325 584l56 165h76v-3l-95 -162h-37zM24 0l196 730h77l-196 -730h-77z" />
    <glyph glyph-name="Ldot" unicode="&#x13f;" horiz-adv-x="620" 
d="M435 320l26 96h91l-26 -96h-91zM30 0l188 700h79l-168 -627h394l-20 -73h-473z" />
    <glyph glyph-name="ldot" unicode="&#x140;" horiz-adv-x="332" 
d="M273 323l25 92h84l-24 -92h-85zM24 0l196 730h77l-196 -730h-77z" />
    <glyph glyph-name="Lslash" unicode="&#x141;" horiz-adv-x="637" 
d="M60 279l20 73l80 23l88 325h79l-81 -301l233 66l-20 -74l-233 -66l-67 -252h394l-20 -73h-473l81 301z" />
    <glyph glyph-name="lslash" unicode="&#x142;" horiz-adv-x="323" 
d="M59 297l20 75l81 23l90 335h77l-84 -312l83 24l-20 -75l-83 -24l-92 -343h-77l86 320z" />
    <glyph glyph-name="Nacute" unicode="&#x143;" horiz-adv-x="787" 
d="M487 759l135 129l78 -36l-139 -93h-74zM30 0l188 700h73l285 -568l153 568h77l-188 -700h-63l-292 581l-156 -581h-77z" />
    <glyph glyph-name="nacute" unicode="&#x144;" horiz-adv-x="614" 
d="M354 595l134 145l80 -37l-142 -108h-72zM17 0l138 517h77l-22 -84q82 95 180 95q75 0 119.5 -43.5t44.5 -116.5q0 -26 -12 -80l-77 -288h-77l79 293q7 30 7 58q0 51 -30.5 79.5t-84.5 28.5q-60 0 -113.5 -47t-73.5 -120l-78 -292h-77z" />
    <glyph glyph-name="Ncommaaccent" unicode="&#x145;" horiz-adv-x="787" 
d="M208 -238l1 30q65 10 78 60h-41l22 83h90l-19 -71q-14 -51 -45 -74t-86 -28zM30 0l188 700h73l285 -568l153 568h77l-188 -700h-63l-292 581l-156 -581h-77z" />
    <glyph glyph-name="ncommaaccent" unicode="&#x146;" horiz-adv-x="614" 
d="M118 -243l1 30q65 10 78 60h-41l22 83h90l-19 -71q-14 -51 -45 -74t-86 -28zM17 0l138 517h77l-22 -84q82 95 180 95q75 0 119.5 -43.5t44.5 -116.5q0 -26 -12 -80l-77 -288h-77l79 293q7 30 7 58q0 51 -30.5 79.5t-84.5 28.5q-60 0 -113.5 -47t-73.5 -120l-78 -292h-77z
" />
    <glyph glyph-name="Ncaron" unicode="&#x147;" horiz-adv-x="787" 
d="M711 877l-141 -118h-73l-78 118h67l58 -60l91 60h76zM30 0l188 700h73l285 -568l153 568h77l-188 -700h-63l-292 581l-156 -581h-77z" />
    <glyph glyph-name="ncaron" unicode="&#x148;" horiz-adv-x="614" 
d="M341 595l-71 131h62l55 -67l96 67h68l-142 -131h-68zM17 0l138 517h77l-22 -84q82 95 180 95q75 0 119.5 -43.5t44.5 -116.5q0 -26 -12 -80l-77 -288h-77l79 293q7 30 7 58q0 51 -30.5 79.5t-84.5 28.5q-60 0 -113.5 -47t-73.5 -120l-78 -292h-77z" />
    <glyph glyph-name="Omacron" unicode="&#x14c;" horiz-adv-x="842" 
d="M388 793l17 64h329l-17 -64h-329zM496 712q134 0 220.5 -87t86.5 -216q0 -84 -34 -163.5t-93 -139.5q-121 -119 -281 -119q-134 0 -220.5 87t-86.5 217q0 84 34 163t94 139q119 119 280 119zM400 60q122 0 214 92q50 50 78 117t28 137q0 101 -63 167t-166 66
q-124 0 -214 -92q-50 -49 -78 -116t-28 -138q0 -101 63 -167t166 -66z" />
    <glyph glyph-name="omacron" unicode="&#x14d;" horiz-adv-x="637" 
d="M249 615l17 63h319l-17 -63h-319zM284 -12q-105 0 -170 65t-65 167q0 126 93 217q91 91 211 91q106 0 171 -65t65 -166q0 -123 -93 -218q-91 -91 -212 -91zM289 57q83 0 147 64q74 74 74 173q0 78 -44.5 122t-117.5 44q-82 0 -147 -65q-74 -74 -74 -173q0 -77 44.5 -121
t117.5 -44z" />
    <glyph glyph-name="Obreve" unicode="&#x14e;" horiz-adv-x="842" 
d="M548 770q-63 0 -95.5 30.5t-22.5 83.5h56q3 -52 75 -52q69 0 102 52h63q-18 -53 -67 -83.5t-111 -30.5zM496 712q134 0 220.5 -87t86.5 -216q0 -84 -34 -163.5t-93 -139.5q-121 -119 -281 -119q-134 0 -220.5 87t-86.5 217q0 84 34 163t94 139q119 119 280 119zM400 60
q122 0 214 92q50 50 78 117t28 137q0 101 -63 167t-166 66q-124 0 -214 -92q-50 -49 -78 -116t-28 -138q0 -101 63 -167t166 -66z" />
    <glyph glyph-name="obreve" unicode="&#x14f;" horiz-adv-x="637" 
d="M284 -12q-105 0 -170 65t-65 167q0 126 93 217q91 91 211 91q106 0 171 -65t65 -166q0 -123 -93 -218q-91 -91 -212 -91zM289 57q83 0 147 64q74 74 74 173q0 78 -44.5 122t-117.5 44q-82 0 -147 -65q-74 -74 -74 -173q0 -77 44.5 -121t117.5 -44zM409 593q-65 0 -97 34
t-24 91h56q0 -63 73 -63q69 0 108 63h60q-20 -57 -67 -91t-109 -34z" />
    <glyph glyph-name="Ohungarumlaut" unicode="&#x150;" horiz-adv-x="842" 
d="M496 712q134 0 220.5 -87t86.5 -216q0 -84 -34 -163.5t-93 -139.5q-121 -119 -281 -119q-134 0 -220.5 87t-86.5 217q0 84 34 163t94 139q119 119 280 119zM400 60q122 0 214 92q50 50 78 117t28 137q0 101 -63 167t-166 66q-124 0 -214 -92q-50 -49 -78 -116t-28 -138
q0 -101 63 -167t166 -66zM413 772l135 129l77 -36l-140 -93h-72zM568 772l135 129l77 -36l-140 -93h-72z" />
    <glyph glyph-name="ohungarumlaut" unicode="&#x151;" horiz-adv-x="637" 
d="M264 595l135 145l64 -37l-137 -108h-62zM428 595l135 145l65 -37l-139 -108h-61zM284 -12q-105 0 -170 65t-65 167q0 126 93 217q91 91 211 91q106 0 171 -65t65 -166q0 -123 -93 -218q-91 -91 -212 -91zM289 57q83 0 147 64q74 74 74 173q0 78 -44.5 122t-117.5 44
q-82 0 -147 -65q-74 -74 -74 -173q0 -77 44.5 -121t117.5 -44z" />
    <glyph glyph-name="OE" unicode="&#x152;" horiz-adv-x="1120" 
d="M435 0q-180 0 -274 94q-76 76 -76 200q0 160 111 273q133 133 359 133h630l-19 -72h-409l-64 -239h363l-19 -72h-363l-66 -245h414l-20 -72h-567zM226 144q73 -71 214 -71h89l149 554h-133q-178 0 -290 -110q-87 -87 -87 -218q0 -97 58 -155z" />
    <glyph glyph-name="oe" unicode="&#x153;" horiz-adv-x="1043" 
d="M282 -12q-103 0 -168 65.5t-65 166.5q0 126 93 217q91 91 211 91q81 0 135.5 -41t73.5 -106q89 147 240 147q94 0 147 -56.5t53 -141.5q0 -53 -18 -98h-405q-1 -7 -1 -21q0 -71 42 -114t114 -43q85 0 160 61l40 -50q-91 -77 -202 -77q-78 0 -133.5 38t-74.5 102
q-41 -62 -103 -101t-139 -39zM289 57q83 0 147 64q74 74 74 173q0 78 -44.5 122t-117.5 44q-82 0 -147 -65q-74 -74 -74 -173q0 -77 44.5 -121t117.5 -44zM654 401q-44 -44 -65 -111h334q4 18 4 40q0 57 -33 95t-96 38q-80 0 -144 -62z" />
    <glyph glyph-name="Racute" unicode="&#x154;" horiz-adv-x="717" 
d="M510 0l-139 272h-17h-172l-73 -272h-79l188 700h252q131 0 197 -64q46 -48 46 -121q0 -88 -62 -152q-63 -63 -194 -84l144 -279h-91zM201 343h190q135 0 199 64q42 44 42 102q0 47 -29 76q-42 42 -137 42h-188zM418 762l135 129l78 -36l-139 -93h-74z" />
    <glyph glyph-name="racute" unicode="&#x155;" horiz-adv-x="402" 
d="M251 595l134 145l80 -37l-142 -108h-72zM17 0l138 517h77l-35 -135q106 152 246 144l-22 -83h-5q-88 0 -162.5 -63t-104.5 -176l-55 -204h-77z" />
    <glyph glyph-name="Rcommaaccent" unicode="&#x156;" horiz-adv-x="717" 
d="M510 0l-139 272h-17h-172l-73 -272h-79l188 700h252q131 0 197 -64q46 -48 46 -121q0 -88 -62 -152q-63 -63 -194 -84l144 -279h-91zM201 343h190q135 0 199 64q42 44 42 102q0 47 -29 76q-42 42 -137 42h-188zM173 -238l1 30q65 10 78 60h-41l22 83h90l-19 -71
q-14 -51 -45 -74t-86 -28z" />
    <glyph glyph-name="rcommaaccent" unicode="&#x157;" horiz-adv-x="402" 
d="M-53 -243l1 30q65 10 78 60h-41l22 83h90l-19 -71q-14 -51 -45 -74t-86 -28zM17 0l138 517h77l-35 -135q106 152 246 144l-22 -83h-5q-88 0 -162.5 -63t-104.5 -176l-55 -204h-77z" />
    <glyph glyph-name="Rcaron" unicode="&#x158;" horiz-adv-x="717" 
d="M510 0l-139 272h-17h-172l-73 -272h-79l188 700h252q131 0 197 -64q46 -48 46 -121q0 -88 -62 -152q-63 -63 -194 -84l144 -279h-91zM201 343h190q135 0 199 64q42 44 42 102q0 47 -29 76q-42 42 -137 42h-188zM643 880l-141 -118h-73l-78 118h67l58 -60l91 60h76z" />
    <glyph glyph-name="rcaron" unicode="&#x159;" horiz-adv-x="402" 
d="M238 595l-71 131h62l55 -67l96 67h68l-142 -131h-68zM17 0l138 517h77l-35 -135q106 152 246 144l-22 -83h-5q-88 0 -162.5 -63t-104.5 -176l-55 -204h-77z" />
    <glyph glyph-name="Sacute" unicode="&#x15a;" horiz-adv-x="637" 
d="M298 -10q-190 0 -286 133l60 47q89 -109 231 -109q76 0 126.5 37t50.5 94q0 40 -31.5 68t-112.5 60q-103 41 -147.5 81.5t-44.5 105.5q0 75 54 128q75 75 204 75q157 0 248 -106l-58 -52q-79 87 -197 87q-76 0 -122 -36.5t-46 -86.5q0 -41 34 -68t121 -61
q94 -36 137.5 -78t43.5 -107q0 -76 -57 -135q-77 -77 -208 -77zM403 772l135 129l78 -36l-139 -93h-74z" />
    <glyph glyph-name="sacute" unicode="&#x15b;" horiz-adv-x="496" 
d="M288 595l134 145l80 -37l-142 -108h-72zM217 -11q-133 0 -223 90l50 50q79 -76 180 -76q46 0 80 24t34 62q0 26 -21.5 46.5t-76.5 41.5q-76 30 -111 60.5t-35 81.5q0 68 54 113.5t142 45.5q54 0 105 -20.5t86 -50.5l-45 -53q-74 60 -153 60q-52 0 -82 -24t-30 -58
q0 -26 21.5 -45.5t81.5 -42.5q74 -30 107.5 -62t33.5 -80q0 -71 -57 -117t-141 -46z" />
    <glyph glyph-name="Scedilla" unicode="&#x15e;" horiz-adv-x="637" 
d="M185 -155l-66 34l111 116q-141 20 -218 128l60 47q89 -109 231 -109q76 0 126.5 37t50.5 94q0 40 -31.5 68t-112.5 60q-103 41 -147.5 81.5t-44.5 105.5q0 75 54 128q75 75 204 75q157 0 248 -106l-58 -52q-79 87 -197 87q-76 0 -122 -36.5t-46 -86.5q0 -41 34 -68
t121 -61q94 -36 137.5 -78t43.5 -107q0 -76 -57 -135q-77 -77 -208 -77h-8z" />
    <glyph glyph-name="scedilla" unicode="&#x15f;" horiz-adv-x="496" 
d="M109 -155l-66 34l111 116q-95 18 -160 84l50 50q79 -76 180 -76q46 0 80 24t34 62q0 26 -21.5 46.5t-76.5 41.5q-76 30 -111 60.5t-35 81.5q0 68 54 113.5t142 45.5q54 0 105 -20.5t86 -50.5l-45 -53q-74 60 -153 60q-52 0 -82 -24t-30 -58q0 -26 21.5 -45.5t81.5 -42.5
q74 -30 107.5 -62t33.5 -80q0 -71 -57 -117t-141 -46h-4z" />
    <glyph glyph-name="Scaron" unicode="&#x160;" horiz-adv-x="637" 
d="M298 -10q-190 0 -286 133l60 47q89 -109 231 -109q76 0 126.5 37t50.5 94q0 40 -31.5 68t-112.5 60q-103 41 -147.5 81.5t-44.5 105.5q0 75 54 128q75 75 204 75q157 0 248 -106l-58 -52q-79 87 -197 87q-76 0 -122 -36.5t-46 -86.5q0 -41 34 -68t121 -61
q94 -36 137.5 -78t43.5 -107q0 -76 -57 -135q-77 -77 -208 -77zM627 890l-141 -118h-73l-78 118h67l58 -60l91 60h76z" />
    <glyph glyph-name="scaron" unicode="&#x161;" horiz-adv-x="496" 
d="M275 595l-71 131h62l55 -67l96 67h68l-142 -131h-68zM217 -11q-133 0 -223 90l50 50q79 -76 180 -76q46 0 80 24t34 62q0 26 -21.5 46.5t-76.5 41.5q-76 30 -111 60.5t-35 81.5q0 68 54 113.5t142 45.5q54 0 105 -20.5t86 -50.5l-45 -53q-74 60 -153 60q-52 0 -82 -24
t-30 -58q0 -26 21.5 -45.5t81.5 -42.5q74 -30 107.5 -62t33.5 -80q0 -71 -57 -117t-141 -46z" />
    <glyph glyph-name="Tcommaaccent" unicode="&#x162;" horiz-adv-x="616" 
d="M119 -243l1 30q65 10 78 60h-41l22 83h90l-19 -71q-14 -51 -45 -74t-86 -28zM196 0l168 627h-236l20 73h551l-20 -73h-236l-168 -627h-79z" />
    <glyph glyph-name="Tcommaaccent" unicode="&#x21a;" horiz-adv-x="616" 
d="M119 -243l1 30q65 10 78 60h-41l22 83h90l-19 -71q-14 -51 -45 -74t-86 -28zM196 0l168 627h-236l20 73h551l-20 -73h-236l-168 -627h-79z" />
    <glyph glyph-name="tcommaaccent" unicode="&#x163;" horiz-adv-x="401" 
d="M44 -243l1 30q65 10 78 60h-41l22 83h90l-19 -71q-14 -51 -45 -74t-86 -28zM202 -9q-57 0 -91.5 26.5t-34.5 75.5q0 26 7 54l81 302h-71l18 68h72l42 156h76l-42 -156h163l-18 -68h-163l-80 -298q-4 -24 -4 -38q0 -53 71 -53q36 0 75 16l-19 -70q-37 -15 -82 -15z" />
    <glyph glyph-name="tcommaaccent" unicode="&#x21b;" horiz-adv-x="401" 
d="M44 -243l1 30q65 10 78 60h-41l22 83h90l-19 -71q-14 -51 -45 -74t-86 -28zM202 -9q-57 0 -91.5 26.5t-34.5 75.5q0 26 7 54l81 302h-71l18 68h72l42 156h76l-42 -156h163l-18 -68h-163l-80 -298q-4 -24 -4 -38q0 -53 71 -53q36 0 75 16l-19 -70q-37 -15 -82 -15z" />
    <glyph glyph-name="Tcaron" unicode="&#x164;" horiz-adv-x="616" 
d="M624 880l-141 -118h-73l-78 118h67l58 -60l91 60h76zM196 0l168 627h-236l20 73h551l-20 -73h-236l-168 -627h-79z" />
    <glyph glyph-name="tcaron" unicode="&#x165;" horiz-adv-x="401" 
d="M357 584l56 165h76v-3l-95 -162h-37zM202 -9q-57 0 -91.5 26.5t-34.5 75.5q0 26 7 54l81 302h-71l18 68h72l42 156h76l-42 -156h163l-18 -68h-163l-80 -298q-4 -24 -4 -38q0 -53 71 -53q36 0 75 16l-19 -70q-37 -15 -82 -15z" />
    <glyph glyph-name="Umacron" unicode="&#x16a;" horiz-adv-x="758" 
d="M345 780l17 64h329l-17 -64h-329zM347 -11q-122 0 -188.5 61.5t-66.5 162.5q0 55 15 109l100 378h80l-106 -399q-10 -35 -10 -79q0 -72 46.5 -116t136.5 -44q91 0 156 64q61 63 89 171l109 403h79l-112 -417q-36 -133 -110 -207q-87 -87 -218 -87z" />
    <glyph glyph-name="umacron" unicode="&#x16b;" horiz-adv-x="614" 
d="M224 -11q-75 0 -120 43.5t-45 116.5q0 30 13 80l76 288h77l-78 -293q-8 -27 -8 -58q0 -51 31 -79.5t85 -28.5q61 0 114 47t73 121l78 291h77l-139 -517h-76l22 84q-84 -95 -180 -95zM232 615l17 63h319l-17 -63h-319z" />
    <glyph glyph-name="Ubreve" unicode="&#x16c;" horiz-adv-x="758" 
d="M505 754q-63 0 -95.5 30.5t-22.5 83.5h56q3 -52 75 -52q70 0 102 52h63q-18 -53 -67 -83.5t-111 -30.5zM347 -11q-122 0 -188.5 61.5t-66.5 162.5q0 55 15 109l100 378h80l-106 -399q-10 -35 -10 -79q0 -72 46.5 -116t136.5 -44q91 0 156 64q61 63 89 171l109 403h79
l-112 -417q-36 -133 -110 -207q-87 -87 -218 -87z" />
    <glyph glyph-name="ubreve" unicode="&#x16d;" horiz-adv-x="614" 
d="M224 -11q-75 0 -120 43.5t-45 116.5q0 30 13 80l76 288h77l-78 -293q-8 -27 -8 -58q0 -51 31 -79.5t85 -28.5q61 0 114 47t73 121l78 291h77l-139 -517h-76l22 84q-84 -95 -180 -95zM392 593q-65 0 -97 34t-24 91h56q0 -63 73 -63q70 0 108 63h60q-20 -57 -67 -91
t-109 -34z" />
    <glyph glyph-name="Uring" unicode="&#x16e;" horiz-adv-x="758" 
d="M347 -11q-122 0 -188.5 61.5t-66.5 162.5q0 55 15 109l100 378h80l-106 -399q-10 -35 -10 -79q0 -72 46.5 -116t136.5 -44q91 0 156 64q61 63 89 171l109 403h79l-112 -417q-36 -133 -110 -207q-87 -87 -218 -87zM540 941q43 0 71 -24.5t28 -61.5q0 -47 -36.5 -79.5
t-88.5 -32.5q-43 0 -71 24.5t-28 62.5q0 47 36.5 79t88.5 32zM518 781q31 0 53.5 20.5t22.5 49.5q0 23 -15.5 38t-42.5 15q-31 0 -53.5 -20.5t-22.5 -49.5q0 -24 16 -38.5t42 -14.5z" />
    <glyph glyph-name="uring" unicode="&#x16f;" horiz-adv-x="614" 
d="M523 700q0 -46 -36 -80t-85 -34q-45 0 -74 27t-29 68q0 46 36 80t85 34q45 0 74 -27t29 -68zM341 683q0 -26 17 -43t45 -17q31 0 54.5 22.5t23.5 52.5q0 27 -17 43.5t-45 16.5q-32 0 -55 -22.5t-23 -52.5zM224 -11q-75 0 -120 43.5t-45 116.5q0 30 13 80l76 288h77
l-78 -293q-8 -27 -8 -58q0 -51 31 -79.5t85 -28.5q61 0 114 47t73 121l78 291h77l-139 -517h-76l22 84q-84 -95 -180 -95z" />
    <glyph glyph-name="Uhungarumlaut" unicode="&#x170;" horiz-adv-x="758" 
d="M347 -11q-122 0 -188.5 61.5t-66.5 162.5q0 55 15 109l100 378h80l-106 -399q-10 -35 -10 -79q0 -72 46.5 -116t136.5 -44q91 0 156 64q61 63 89 171l109 403h79l-112 -417q-36 -133 -110 -207q-87 -87 -218 -87zM370 759l135 129l77 -36l-140 -93h-72zM525 759l135 129
l77 -36l-140 -93h-72z" />
    <glyph glyph-name="uhungarumlaut" unicode="&#x171;" horiz-adv-x="614" 
d="M224 -11q-75 0 -120 43.5t-45 116.5q0 30 13 80l76 288h77l-78 -293q-8 -27 -8 -58q0 -51 31 -79.5t85 -28.5q61 0 114 47t73 121l78 291h77l-139 -517h-76l22 84q-84 -95 -180 -95zM247 595l135 145l64 -37l-137 -108h-62zM411 595l135 145l65 -37l-139 -108h-61z" />
    <glyph glyph-name="Uogonek" unicode="&#x172;" horiz-adv-x="758" 
d="M347 -11h-3q-56 -43 -56 -73q0 -16 14.5 -24t49.5 -12l-11 -44q-5 -1 -14 -1q-108 6 -108 66q0 44 64 93q-92 15 -141.5 74t-49.5 145q0 55 15 109l100 378h80l-106 -399q-10 -35 -10 -79q0 -72 46.5 -116t136.5 -44q91 0 156 64q61 63 89 171l109 403h79l-112 -417
q-36 -133 -110 -207q-87 -87 -218 -87z" />
    <glyph glyph-name="uogonek" unicode="&#x173;" horiz-adv-x="614" 
d="M224 -11q-75 0 -120 43.5t-45 116.5q0 30 13 80l76 288h77l-78 -293q-8 -27 -8 -58q0 -51 31 -79.5t85 -28.5q61 0 114 47t73 121l78 291h77l-139 -517h-9q-71 -51 -71 -84q0 -16 14.5 -24t49.5 -12l-11 -44q-5 -1 -14 -1q-108 6 -108 66q0 48 73 99l22 84
q-84 -95 -180 -95z" />
    <glyph glyph-name="Wcircumflex" unicode="&#x174;" horiz-adv-x="1083" 
d="M206 -5l-61 705h82l44 -583l347 585h65l37 -585l356 583h89l-439 -705h-69l-40 565l-343 -565h-68zM511 762l142 118h72l78 -118h-67l-58 60l-91 -60h-76z" />
    <glyph glyph-name="wcircumflex" unicode="&#x175;" horiz-adv-x="848" 
d="M359 595l141 131h68l71 -131h-62l-54 67l-96 -67h-68zM137 -4l-41 521h78l27 -412l250 414h64l29 -414l249 412h80l-322 -521h-68l-30 408l-249 -408h-67z" />
    <glyph glyph-name="Ycircumflex" unicode="&#x176;" horiz-adv-x="663" 
d="M216 0l76 282l-173 418h88l140 -353l330 353h101l-410 -431l-72 -269h-80zM297 759l142 118h72l78 -118h-67l-58 60l-91 -60h-76z" />
    <glyph glyph-name="ycircumflex" unicode="&#x177;" horiz-adv-x="574" 
d="M181 0l-94 517h81l71 -431l277 431h88l-354 -534q-54 -79 -103 -112.5t-109 -33.5q-61 0 -113 36l42 57q35 -27 79 -27q34 0 65.5 22t69.5 75zM208 595l141 131h68l71 -131h-62l-54 67l-96 -67h-68z" />
    <glyph glyph-name="Ydieresis" unicode="&#x178;" horiz-adv-x="663" 
d="M216 0l76 282l-173 418h88l140 -353l330 353h101l-410 -431l-72 -269h-80zM310 759l25 90h93l-24 -90h-94zM497 759l25 90h93l-25 -90h-93z" />
    <glyph glyph-name="Zacute" unicode="&#x179;" horiz-adv-x="669" 
d="M-19 0l14 53l597 576h-427l20 71h542l-14 -53l-597 -576h445l-19 -71h-561zM408 762l135 129l78 -36l-139 -93h-74z" />
    <glyph glyph-name="zacute" unicode="&#x17a;" horiz-adv-x="549" 
d="M307 595l134 145l80 -37l-142 -108h-72zM-20 0l14 49l441 403h-321l18 65h432l-14 -49l-442 -403h338l-18 -65h-448z" />
    <glyph glyph-name="Zdotaccent" unicode="&#x17b;" horiz-adv-x="669" 
d="M400 762l25 90h96l-25 -90h-96zM-19 0l14 53l597 576h-427l20 71h542l-14 -53l-597 -576h445l-19 -71h-561z" />
    <glyph glyph-name="zdotaccent" unicode="&#x17c;" horiz-adv-x="549" 
d="M-20 0l14 49l441 403h-321l18 65h432l-14 -49l-442 -403h338l-18 -65h-448zM301 594l27 98h89l-27 -98h-89z" />
    <glyph glyph-name="Zcaron" unicode="&#x17d;" horiz-adv-x="669" 
d="M633 880l-141 -118h-73l-78 118h67l58 -60l91 60h76zM-19 0l14 53l597 576h-427l20 71h542l-14 -53l-597 -576h445l-19 -71h-561z" />
    <glyph glyph-name="zcaron" unicode="&#x17e;" horiz-adv-x="549" 
d="M294 595l-71 131h62l55 -67l96 67h68l-142 -131h-68zM-20 0l14 49l441 403h-321l18 65h432l-14 -49l-442 -403h338l-18 -65h-448z" />
    <glyph glyph-name="uni018F" unicode="&#x18f;" horiz-adv-x="803" 
d="M87 256q0 61 24 131h572q1 10 1 30q0 102 -60 162t-164 60q-119 0 -238 -89l-42 61q135 100 283 100q136 0 218.5 -80t82.5 -215q0 -85 -35 -169t-95 -142q-122 -117 -278 -117q-129 0 -199 75.5t-70 192.5zM573 150q72 70 98 168h-497q-7 -24 -7 -65q0 -84 48.5 -138
t148.5 -54q118 0 209 89z" />
    <glyph glyph-name="florin" unicode="&#x192;" horiz-adv-x="531" 
d="M41 -10q-37 0 -66 9l19 64q26 -7 47 -7q60 0 102 95l98 222h-97l18 67h108l54 121q65 149 185 149q51 0 93 -17l-20 -64q-35 14 -72 14q-73 0 -119 -103l-44 -100h150l-17 -67h-162l-107 -243q-33 -76 -74.5 -108t-95.5 -32z" />
    <glyph glyph-name="Aringacute" unicode="&#x1fa;" horiz-adv-x="761" 
d="M-40 0l482 669q-37 24 -37 68q0 47 36.5 79.5t88.5 32.5q43 0 71.5 -24.5t28.5 -62.5q0 -35 -21.5 -62.5t-56.5 -40.5l122 -659h-81l-32 185h-382l-132 -185h-87zM229 257h319l-63 358zM508 688q32 0 54.5 20.5t22.5 49.5q0 23 -16 38t-43 15q-31 0 -53.5 -20.5
t-22.5 -49.5q0 -24 16 -38.5t42 -14.5zM511 879l133 115l76 -35l-136 -80h-73z" />
    <glyph glyph-name="aringacute" unicode="&#x1fb;" horiz-adv-x="576" 
d="M392 831l131 126l74 -37l-137 -89h-68zM183 -11q-69 0 -116.5 38.5t-47.5 104.5q0 74 49 123q64 64 181 64q84 0 184 -28l3 12q7 26 7 48q0 105 -140 105q-68 0 -146 -27l-13 64q83 31 171 31q97 0 150 -42.5t53 -117.5q0 -33 -11 -71l-78 -293h-75l22 81
q-80 -92 -193 -92zM207 49q67 0 126 43.5t77 110.5l10 36q-80 23 -168 23q-79 0 -122 -43q-33 -31 -33 -78q0 -41 30 -66.5t80 -25.5zM503 707q0 -46 -36 -80t-85 -34q-45 0 -74 27t-29 68q0 46 36 80t85 34q45 0 74 -27t29 -68zM321 690q0 -26 17 -43t45 -17
q31 0 54.5 22.5t23.5 52.5q0 27 -17 43.5t-45 16.5q-32 0 -55 -22.5t-23 -52.5z" />
    <glyph glyph-name="AEacute" unicode="&#x1fc;" horiz-adv-x="1054" 
d="M706 762l135 129l78 -36l-139 -93h-74zM-40 0l599 700h560l-20 -72h-409l-64 -239h364l-19 -72h-364l-66 -245h414l-19 -72h-493l50 185h-284l-158 -185h-91zM268 257h243l100 373h-25z" />
    <glyph glyph-name="aeacute" unicode="&#x1fd;" horiz-adv-x="960" 
d="M190 -11q-74 0 -122.5 38t-48.5 105q0 74 49 123q64 64 181 64q84 0 184 -28l3 12q7 26 7 48q0 105 -140 105q-68 0 -146 -27l-13 64q83 31 171 31q76 0 125 -28.5t64 -80.5q41 52 97 82.5t119 30.5q94 0 146.5 -56.5t52.5 -141.5q0 -52 -17 -98h-406q-1 -7 -1 -21
q0 -71 42 -114t114 -43q85 0 160 61l40 -50q-91 -77 -202 -77q-74 0 -126.5 31.5t-77.5 87.5q-113 -118 -255 -118zM212 49q113 0 217 110q-6 32 -3 77q-78 26 -174 26q-79 0 -122 -43q-33 -31 -33 -78q0 -42 31 -67t84 -25zM572 401q-45 -44 -66 -111h334q4 18 4 40
q0 57 -33 95t-96 38q-81 0 -143 -62zM507 595l134 145l80 -37l-142 -108h-72z" />
    <glyph glyph-name="Oslashacute" unicode="&#x1fe;" horiz-adv-x="842" 
d="M496 712q138 0 224 -91l98 84h90l-152 -131q47 -74 47 -165q0 -84 -34 -163.5t-93 -139.5q-121 -119 -281 -119q-137 0 -224 90l-98 -83h-90l151 130q-46 76 -46 167q0 84 34 163t94 139q119 119 280 119zM169 293q0 -68 27 -119l465 398q-64 69 -170 69q-122 0 -215 -93
q-50 -50 -78.5 -117.5t-28.5 -137.5zM400 58q122 0 215 93q50 50 78.5 117.5t28.5 137.5q0 67 -27 118l-465 -398q63 -68 170 -68zM504 772l135 129l78 -36l-139 -93h-74z" />
    <glyph glyph-name="oslashacute" unicode="&#x1ff;" horiz-adv-x="637" 
d="M-40 -6l121 102q-32 53 -32 124q0 126 93 217q91 91 211 91q104 0 170 -64l69 58h85l-120 -102q32 -56 32 -123q0 -123 -93 -218q-91 -91 -212 -91q-104 0 -170 64l-69 -58h-85zM288 55q85 0 149 66q74 74 74 173q0 44 -14 78l-327 -274q43 -43 118 -43zM126 222
q0 -44 14 -78l327 274q-45 43 -118 43q-82 0 -149 -65q-74 -74 -74 -174zM362 595l134 145l80 -37l-142 -108h-72z" />
    <glyph glyph-name="Scommaaccent" unicode="&#x218;" horiz-adv-x="637" 
d="M124 -244l1 30q65 10 78 60h-41l22 83h90l-19 -71q-14 -51 -45 -74t-86 -28zM298 -10q-190 0 -286 133l60 47q89 -109 231 -109q76 0 126.5 37t50.5 94q0 40 -31.5 68t-112.5 60q-103 41 -147.5 81.5t-44.5 105.5q0 75 54 128q75 75 204 75q157 0 248 -106l-58 -52
q-79 87 -197 87q-76 0 -122 -36.5t-46 -86.5q0 -41 34 -68t121 -61q94 -36 137.5 -78t43.5 -107q0 -76 -57 -135q-77 -77 -208 -77z" />
    <glyph glyph-name="scommaaccent" unicode="&#x219;" horiz-adv-x="496" 
d="M54 -243l1 30q65 10 78 60h-41l22 83h90l-19 -71q-14 -51 -45 -74t-86 -28zM217 -11q-133 0 -223 90l50 50q79 -76 180 -76q46 0 80 24t34 62q0 26 -21.5 46.5t-76.5 41.5q-76 30 -111 60.5t-35 81.5q0 68 54 113.5t142 45.5q54 0 105 -20.5t86 -50.5l-45 -53
q-74 60 -153 60q-52 0 -82 -24t-30 -58q0 -26 21.5 -45.5t81.5 -42.5q74 -30 107.5 -62t33.5 -80q0 -71 -57 -117t-141 -46z" />
    <glyph glyph-name="schwa" unicode="&#x259;" horiz-adv-x="589" 
d="M42 187q0 52 17 98h406q0 3 0.5 10t0.5 11q0 70 -41.5 113.5t-111.5 43.5q-88 0 -163 -61l-40 50q91 77 209 77q100 0 162 -61.5t62 -158.5q0 -64 -26 -125.5t-72 -107.5q-87 -87 -203 -87q-94 0 -147 56.5t-53 141.5zM389 116q47 47 65 111h-333q-4 -18 -4 -40
q0 -57 33 -95t96 -38q81 0 143 62z" />
    <glyph glyph-name="circumflex" unicode="&#x2c6;" horiz-adv-x="500" 
d="M201 595l141 131h68l71 -131h-62l-54 67l-96 -67h-68z" />
    <glyph glyph-name="caron" unicode="&#x2c7;" horiz-adv-x="500" 
d="M305 595l-71 131h62l55 -67l96 67h68l-142 -131h-68z" />
    <glyph glyph-name="breve" unicode="&#x2d8;" horiz-adv-x="500" 
d="M344 593q-65 0 -97 34t-24 91h56q0 -63 73 -63q70 0 108 63h60q-20 -57 -67 -91t-109 -34z" />
    <glyph glyph-name="dotaccent" unicode="&#x2d9;" horiz-adv-x="500" 
d="M295 594l27 98h89l-27 -98h-89z" />
    <glyph glyph-name="ring" unicode="&#x2da;" horiz-adv-x="500" 
d="M481 707q0 -46 -36 -80t-85 -34q-45 0 -74 27t-29 68q0 46 36 80t85 34q45 0 74 -27t29 -68zM299 690q0 -26 17 -43t45 -17q31 0 54.5 22.5t23.5 52.5q0 27 -17 43.5t-45 16.5q-32 0 -55 -22.5t-23 -52.5z" />
    <glyph glyph-name="ogonek" unicode="&#x2db;" horiz-adv-x="500" 
d="M230 -120l-11 -44q-5 -1 -14 -1q-108 6 -108 66q0 51 96 115l48 -13q-75 -54 -75 -87q0 -16 14.5 -24t49.5 -12z" />
    <glyph glyph-name="tilde" unicode="&#x2dc;" horiz-adv-x="500" 
d="M478 713l47 -13q-25 -58 -50 -81.5t-61 -23.5q-23 0 -69 21q-40 19 -57 19q-19 0 -32 -10.5t-29 -38.5l-47 14q25 57 50 80.5t61 23.5q23 0 69 -21q40 -19 57 -19q19 0 32 10.5t29 38.5z" />
    <glyph glyph-name="hungarumlaut" unicode="&#x2dd;" horiz-adv-x="500" 
d="M173 595l135 145l64 -37l-137 -108h-62zM337 595l135 145l65 -37l-139 -108h-61z" />
    <glyph glyph-name="commaaccent" unicode="&#x326;" horiz-adv-x="500" 
d="M58 -243l1 30q65 10 78 60h-41l22 83h90l-19 -71q-14 -51 -45 -74t-86 -28z" />
    <glyph glyph-name="uni0384" unicode="&#x384;" horiz-adv-x="500" 
d="M283 595l107 154l80 -34l-122 -120h-65z" />
    <glyph glyph-name="uni0385" unicode="&#x385;" horiz-adv-x="500" 
d="M424 595l26 94h85l-26 -94h-85zM171 595l26 94h85l-26 -94h-85zM288 595l83 172l82 -18l-107 -154h-58z" />
    <glyph glyph-name="uni0386" unicode="&#x386;" horiz-adv-x="761" 
d="M-40 0l508 705h76l130 -705h-81l-32 185h-382l-132 -185h-87zM229 257h319l-63 358zM134 523l64 178h93l-106 -178h-51z" />
    <glyph glyph-name="uni0387" unicode="&#x387;" horiz-adv-x="256" 
d="M123 412l28 105h92l-28 -105h-92z" />
    <glyph glyph-name="uni0388" unicode="&#x388;" horiz-adv-x="653" 
d="M3 522l64 178h93l-106 -178h-51zM30 0l188 700h501l-20 -72h-422l-64 -239h377l-20 -72h-376l-66 -245h427l-19 -72h-506z" />
    <glyph glyph-name="uni0389" unicode="&#x389;" horiz-adv-x="756" 
d="M30 0l188 700h79l-83 -311h399l83 311h80l-188 -700h-80l85 315h-399l-85 -315h-79zM0 522l64 178h93l-106 -178h-51z" />
    <glyph glyph-name="uni038A" unicode="&#x38a;" horiz-adv-x="291" 
d="M37 0l188 700h79l-188 -700h-79zM3 522l64 178h93l-106 -178h-51z" />
    <glyph glyph-name="uni038C" unicode="&#x38c;" horiz-adv-x="842" 
d="M-3 525l64 178h93l-106 -178h-51zM496 712q134 0 220.5 -87t86.5 -216q0 -84 -34 -163.5t-93 -139.5q-121 -119 -281 -119q-134 0 -220.5 87t-86.5 217q0 84 34 163t94 139q119 119 280 119zM400 60q122 0 214 92q50 50 78 117t28 137q0 101 -63 167t-166 66
q-124 0 -214 -92q-50 -49 -78 -116t-28 -138q0 -101 63 -167t166 -66z" />
    <glyph glyph-name="uni038E" unicode="&#x38e;" horiz-adv-x="663" 
d="M216 0l76 282l-173 418h88l140 -353l330 353h101l-410 -431l-72 -269h-80zM-65 522l64 178h93l-106 -178h-51z" />
    <glyph glyph-name="uni038F" unicode="&#x38f;" horiz-adv-x="864" 
d="M502 639q-133 0 -219 -86q-88 -88 -88 -223q0 -142 126 -264l-18 -66h-293l19 70l209 -1q-125 123 -125 271q0 154 106 258q114 114 289 114q144 0 228.5 -77.5t84.5 -205.5q0 -206 -252 -360l202 1l-19 -70h-307l19 66q132 76 202.5 161t72.5 192q2 98 -61.5 159
t-175.5 61zM-6 525l64 178h93l-106 -178h-51z" />
    <glyph glyph-name="uni0390" unicode="&#x390;" horiz-adv-x="288" 
d="M307 595l26 94h85l-26 -94h-85zM54 595l26 94h85l-26 -94h-85zM171 595l83 172l82 -18l-107 -154h-58zM47 87q0 33 13 76l94 354h76l-98 -369q-7 -26 -7 -45q0 -44 54 -44q17 0 39 4l-17 -64q-23 -6 -49 -6q-51 0 -78 24.5t-27 69.5z" />
    <glyph glyph-name="uni0391" unicode="&#x391;" horiz-adv-x="761" 
d="M-40 0l508 705h76l130 -705h-81l-32 185h-382l-132 -185h-87zM229 257h319l-63 358z" />
    <glyph glyph-name="uni0392" unicode="&#x392;" horiz-adv-x="717" 
d="M30 0l188 700h262q102 0 159.5 -44t57.5 -119q0 -72 -48.5 -120t-126.5 -64q124 -38 124 -145q0 -92 -79 -150t-215 -58h-322zM127 71h234q95 0 150 37.5t55 102.5q0 52 -44 79.5t-117 27.5h-212zM212 388h199q94 0 149.5 38t55.5 101q0 49 -37 75.5t-106 26.5h-196z" />
    <glyph glyph-name="uni0393" unicode="&#x393;" horiz-adv-x="607" 
d="M30 0l188 700h473l-19 -73h-395l-168 -627h-79z" />
    <glyph glyph-name="uni0394" unicode="&#x394;" horiz-adv-x="763" 
d="M545 705l132 -647l-23 -58h-675l9 58l478 647h79zM486 612l-396 -540h501z" />
    <glyph glyph-name="uni0395" unicode="&#x395;" horiz-adv-x="653" 
d="M30 0l188 700h501l-20 -72h-422l-64 -239h377l-20 -72h-376l-66 -245h427l-19 -72h-506z" />
    <glyph glyph-name="uni0396" unicode="&#x396;" horiz-adv-x="669" 
d="M-19 0l14 53l597 576h-427l20 71h542l-14 -53l-597 -576h445l-19 -71h-561z" />
    <glyph glyph-name="uni0397" unicode="&#x397;" horiz-adv-x="756" 
d="M30 0l188 700h79l-83 -311h399l83 311h80l-188 -700h-80l85 315h-399l-85 -315h-79z" />
    <glyph glyph-name="uni0398" unicode="&#x398;" horiz-adv-x="842" 
d="M88 291q0 84 34 163t94 139q119 119 280 119q134 0 220.5 -87t86.5 -216q0 -84 -34 -163.5t-93 -139.5q-121 -119 -281 -119q-134 0 -220.5 87t-86.5 217zM169 293q0 -101 63.5 -167.5t167.5 -66.5q121 0 216 93q106 108 106 254q0 102 -63.5 168t-167.5 66
q-122 0 -215 -93q-50 -50 -78.5 -117t-28.5 -137zM636 389l-19 -74h-361l20 74h360z" />
    <glyph glyph-name="uni0399" unicode="&#x399;" horiz-adv-x="291" 
d="M37 0l188 700h79l-188 -700h-79z" />
    <glyph glyph-name="uni039A" unicode="&#x39a;" horiz-adv-x="718" 
d="M30 0l188 700h79l-111 -416l502 416h112l-376 -308l199 -392h-89l-174 346l-203 -167l-48 -179h-79z" />
    <glyph glyph-name="uni039B" unicode="&#x39b;" horiz-adv-x="739" 
d="M530 705l121 -705h-84l-97 598l-419 -598h-90l498 705h71z" />
    <glyph glyph-name="uni039C" unicode="&#x39c;" horiz-adv-x="867" 
d="M30 0l188 700h73l152 -382l356 382h88l-188 -700h-80l152 567l-355 -375h-4l-153 374l-152 -566h-77z" />
    <glyph glyph-name="uni039D" unicode="&#x39d;" horiz-adv-x="787" 
d="M30 0l188 700h73l285 -568l153 568h77l-188 -700h-63l-292 581l-156 -581h-77z" />
    <glyph glyph-name="uni039E" unicode="&#x39e;" horiz-adv-x="638" 
d="M540 74l-19 -74h-541l20 74h540zM704 700l-21 -74h-530l20 74h531zM593 390l-20 -74h-476l20 74h476z" />
    <glyph glyph-name="uni039F" unicode="&#x39f;" horiz-adv-x="842" 
d="M496 712q134 0 220.5 -87t86.5 -216q0 -84 -34 -163.5t-93 -139.5q-121 -119 -281 -119q-134 0 -220.5 87t-86.5 217q0 84 34 163t94 139q119 119 280 119zM400 60q122 0 214 92q50 50 78 117t28 137q0 101 -63 167t-166 66q-124 0 -214 -92q-50 -49 -78 -116t-28 -138
q0 -101 63 -167t166 -66z" />
    <glyph glyph-name="uni03A0" unicode="&#x3a0;" horiz-adv-x="755" 
d="M30 0l188 700h557l-188 -700h-80l169 627h-399l-168 -627h-79z" />
    <glyph glyph-name="uni03A1" unicode="&#x3a1;" horiz-adv-x="667" 
d="M30 0l188 700h219q134 0 200 -65q50 -52 50 -130q0 -98 -66 -164q-90 -92 -279 -92h-166l-67 -249h-79zM573 584q-43 43 -139 43h-157l-82 -308h151q148 0 215 67q44 44 44 114q0 51 -32 84z" />
    <glyph glyph-name="uni03A3" unicode="&#x3a3;" horiz-adv-x="659" 
d="M468 345l-336 -274h429l-19 -71h-550l16 59l361 297l-203 285l16 59h537l-19 -71h-433z" />
    <glyph glyph-name="uni03A4" unicode="&#x3a4;" horiz-adv-x="616" 
d="M196 0l168 627h-236l20 73h551l-20 -73h-236l-168 -627h-79z" />
    <glyph glyph-name="uni03A5" unicode="&#x3a5;" horiz-adv-x="663" 
d="M216 0l76 282l-173 418h88l140 -353l330 353h101l-410 -431l-72 -269h-80z" />
    <glyph glyph-name="uni03A6" unicode="&#x3a6;" horiz-adv-x="912" 
d="M538 713h79l-22 -81q131 -11 208 -77t78 -169q0 -113 -81 -194q-120 -120 -355 -121l-22 -84h-80l23 86q-131 11 -207.5 77t-77.5 169q0 113 81 194q120 119 355 121zM163 323q0 -78 59 -126t164 -55l113 422q-182 -1 -275 -93q-61 -61 -61 -148zM799 382
q0 77 -59.5 125.5t-163.5 55.5l-114 -422q182 0 275 93q62 62 62 148z" />
    <glyph glyph-name="uni03A7" unicode="&#x3a7;" horiz-adv-x="694" 
d="M-31 0l359 362l-176 338h87l146 -286l279 286h102l-346 -349l182 -351h-87l-152 299l-291 -299h-103z" />
    <glyph glyph-name="uni03A8" unicode="&#x3a8;" horiz-adv-x="855" 
d="M508 700h78l-123 -456q151 0 216 65q47 47 73 140l67 251h79l-71 -264q-31 -114 -91 -174q-92 -92 -292 -92h-1l-45 -170h-79l46 172q-115 9 -179 60.5t-64 147.5q0 48 23 135l50 185h79l-53 -197q-20 -75 -20 -115q0 -72 46 -105t138 -38z" />
    <glyph glyph-name="uni03A9" unicode="&#x3a9;" horiz-adv-x="864" 
d="M502 639q-133 0 -219 -86q-88 -88 -88 -223q0 -142 126 -264l-18 -66h-293l19 70l209 -1q-125 123 -125 271q0 154 106 258q114 114 289 114q144 0 228.5 -77.5t84.5 -205.5q0 -206 -252 -360l202 1l-19 -70h-307l19 66q132 76 202.5 161t72.5 192q2 98 -61.5 159
t-175.5 61z" />
    <glyph glyph-name="uni03AA" unicode="&#x3aa;" horiz-adv-x="291" 
d="M37 0l188 700h79l-188 -700h-79zM141 762l25 90h93l-24 -90h-94zM328 762l25 90h93l-25 -90h-93z" />
    <glyph glyph-name="uni03AB" unicode="&#x3ab;" horiz-adv-x="663" 
d="M216 0l76 282l-173 418h88l140 -353l330 353h101l-410 -431l-72 -269h-80zM310 759l25 90h93l-24 -90h-94zM497 759l25 90h93l-25 -90h-93z" />
    <glyph glyph-name="uni03AC" unicode="&#x3ac;" horiz-adv-x="700" 
d="M258 -12q-90 0 -148.5 61t-58.5 158q0 141 96 237q84 84 194 84q139 0 194 -128l31 117h77l-99 -369q-7 -26 -7 -45q0 -44 54 -44q17 0 39 4l-17 -64q-23 -6 -49 -6q-49 0 -75.5 24t-27.5 66q-89 -95 -203 -95zM278 56q84 0 153 69q77 77 77 175q0 68 -45 114t-115 46
q-82 0 -142 -60q-74 -72 -74 -186q0 -72 40 -115t106 -43zM363 595l107 154l80 -34l-122 -120h-65z" />
    <glyph glyph-name="uni03AD" unicode="&#x3ad;" horiz-adv-x="564" 
d="M320 595l107 154l80 -34l-122 -120h-65zM175 269q-73 33 -73 108q0 63 60 107t163 44q136 0 230 -79l-46 -52q-79 66 -186 66q-69 0 -106 -25t-37 -65q0 -37 29 -59t87 -22h115l-17 -61h-133q-71 0 -110 -25t-39 -67q0 -39 36 -62t105 -23q101 0 200 48l27 -60
q-108 -54 -230 -54q-106 0 -162 40t-56 102q0 56 40 91.5t103 47.5z" />
    <glyph glyph-name="uni03AE" unicode="&#x3ae;" horiz-adv-x="614" 
d="M371 595l107 154l80 -34l-122 -120h-65zM17 0l138 517h77l-22 -84q84 95 180 95q75 0 120 -43.5t45 -116.5q0 -30 -13 -80l-119 -448h-77l121 453q8 27 8 58q0 51 -31 79.5t-85 28.5q-60 0 -113.5 -47t-73.5 -120l-78 -292h-77z" />
    <glyph glyph-name="uni03AF" unicode="&#x3af;" horiz-adv-x="288" 
d="M171 595l107 154l80 -34l-122 -120h-65zM47 87q0 33 13 76l94 354h76l-98 -369q-7 -26 -7 -45q0 -44 54 -44q17 0 39 4l-17 -64q-23 -6 -49 -6q-51 0 -78 24.5t-27 69.5z" />
    <glyph glyph-name="uni03B0" unicode="&#x3b0;" horiz-adv-x="614" 
d="M486 595l26 94h85l-26 -94h-85zM233 595l26 94h85l-26 -94h-85zM350 595l83 172l82 -18l-107 -154h-58zM259 -12q-89 0 -142.5 44t-53.5 126q0 42 14 95l71 264h76l-74 -277q-11 -44 -11 -76q0 -52 32.5 -80t92.5 -28q76 0 124 48q39 41 62 121l78 292h77l-82 -306
q-25 -97 -79 -151q-72 -72 -185 -72z" />
    <glyph glyph-name="uni03B1" unicode="&#x3b1;" horiz-adv-x="700" 
d="M258 -12q-90 0 -148.5 61t-58.5 158q0 141 96 237q84 84 194 84q139 0 194 -128l31 117h77l-99 -369q-7 -26 -7 -45q0 -44 54 -44q17 0 39 4l-17 -64q-23 -6 -49 -6q-49 0 -75.5 24t-27.5 66q-89 -95 -203 -95zM278 56q84 0 153 69q77 77 77 175q0 68 -45 114t-115 46
q-82 0 -142 -60q-74 -72 -74 -186q0 -72 40 -115t106 -43z" />
    <glyph glyph-name="uni03B2" unicode="&#x3b2;" horiz-adv-x="655" 
d="M345 -11q-83 0 -138.5 34.5t-81.5 93.5l-74 -277h-77l175 655q29 107 90 168q74 74 189 74q96 0 153 -50.5t57 -128.5t-53 -131t-143 -70q64 -20 101 -61.5t37 -102.5q0 -85 -66 -144.5t-169 -59.5zM340 56q72 0 116.5 40.5t44.5 99.5q0 61 -52 99t-154 38h-113l-17 -65
q-8 -30 -8 -56q0 -67 50 -111.5t133 -44.5zM224 485l-25 -91h125q135 0 195 62q39 39 39 97q0 52 -35.5 84.5t-96.5 32.5q-79 0 -132 -53q-47 -47 -70 -132z" />
    <glyph glyph-name="uni03B3" unicode="&#x3b3;" horiz-adv-x="566" 
d="M201 -160h-77l46 168l-82 509h81l58 -427l285 427h88l-355 -510z" />
    <glyph glyph-name="uni03B4" unicode="&#x3b4;" horiz-adv-x="631" 
d="M327 665l127 -144q65 -73 94.5 -132t29.5 -132q0 -110 -77 -189q-80 -80 -201 -80q-114 0 -181.5 68t-67.5 166q0 227 303 304l-129 148l15 56h394l-18 -66zM402 472l-2 1q-139 -33 -205 -94t-66 -155q0 -73 47 -121t124 -48q86 0 142 58q58 56 58 141q0 58 -23.5 108.5
t-74.5 109.5z" />
    <glyph glyph-name="uni03B5" unicode="&#x3b5;" horiz-adv-x="564" 
d="M175 269q-73 33 -73 108q0 63 60 107t163 44q136 0 230 -79l-46 -52q-79 66 -186 66q-69 0 -106 -25t-37 -65q0 -37 29 -59t87 -22h115l-17 -61h-133q-71 0 -110 -25t-39 -67q0 -39 36 -62t105 -23q101 0 200 48l27 -60q-108 -54 -230 -54q-106 0 -162 40t-56 102
q0 56 40 91.5t103 47.5z" />
    <glyph glyph-name="uni03B6" unicode="&#x3b6;" horiz-adv-x="540" 
d="M624 670l-329 -258q-97 -75 -133 -119t-36 -88q0 -47 35 -76t121 -44l174 -33l-51 -189h-73l36 134l-114 22q-210 38 -210 178q0 67 45.5 123t163.5 147l254 196h-295l18 67h409z" />
    <glyph glyph-name="uni03B7" unicode="&#x3b7;" horiz-adv-x="614" 
d="M17 0l138 517h77l-22 -84q84 95 180 95q75 0 120 -43.5t45 -116.5q0 -30 -13 -80l-119 -448h-77l121 453q8 27 8 58q0 51 -31 79.5t-85 28.5q-60 0 -113.5 -47t-73.5 -120l-78 -292h-77z" />
    <glyph glyph-name="uni03B8" unicode="&#x3b8;" horiz-adv-x="661" 
d="M284 -13q-97 0 -151 69t-54 194q0 105 39.5 215t111.5 181q88 88 201 88q97 0 151 -68.5t54 -194.5q0 -105 -39.5 -214.5t-111.5 -181.5q-91 -88 -201 -88zM287 55q79 0 144 65q73 73 109 209h-379q-6 -42 -6 -79q0 -89 33 -142t99 -53zM284 601q-73 -73 -109 -206h378
q6 39 6 76q0 90 -32.5 142.5t-98.5 52.5q-80 0 -144 -65z" />
    <glyph glyph-name="uni03B9" unicode="&#x3b9;" horiz-adv-x="288" 
d="M47 87q0 33 13 76l94 354h76l-98 -369q-7 -26 -7 -45q0 -44 54 -44q17 0 39 4l-17 -64q-23 -6 -49 -6q-51 0 -78 24.5t-27 69.5z" />
    <glyph glyph-name="uni03BA" unicode="&#x3ba;" horiz-adv-x="573" 
d="M474 0h-85l-119 242l-142 -115l-34 -127h-77l138 517h77l-78 -290l355 290h106l-282 -228z" />
    <glyph glyph-name="uni03BB" unicode="&#x3bb;" horiz-adv-x="588" 
d="M55 0h-88l371 530l-3 22q-11 75 -30 96q-18 18 -52 18q-28 0 -60 -10l13 68q36 9 67 9q56 0 86 -31q36 -35 52 -143l80 -559h-80l-58 438z" />
    <glyph glyph-name="uni03BC" unicode="&#x3bc;" horiz-adv-x="663" 
d="M266 -10q-58 0 -99 30t-57 85h-1q-10 -82 -28 -150l-31 -115h-76l181 677h77l-72 -268q-10 -40 -10 -70q0 -57 32 -89.5t90 -32.5q62 0 108.5 39t65.5 108l84 313h76l-99 -369q-6 -30 -6 -45q0 -44 53 -44q17 0 39 4l-17 -64q-22 -6 -49 -6q-93 0 -103 79
q-61 -82 -158 -82z" />
    <glyph glyph-name="uni03BD" unicode="&#x3bd;" horiz-adv-x="566" 
d="M171 -4l-83 521h81l58 -429l285 429h88l-361 -521h-68z" />
    <glyph glyph-name="uni03BE" unicode="&#x3be;" horiz-adv-x="543" 
d="M451 51l-51 -188h-73l36 134l-97 18q-108 20 -164.5 62.5t-56.5 119.5q0 74 52.5 122t148.5 64q-86 48 -86 146q0 85 68 146.5t176 61.5q131 0 221 -94l-51 -53q-78 78 -172 78q-75 0 -119 -41t-44 -100q0 -64 42.5 -96t118.5 -32h72l-17 -65h-120q-96 0 -152.5 -34
t-56.5 -98q0 -49 39.5 -77t121.5 -43z" />
    <glyph glyph-name="uni03BF" unicode="&#x3bf;" horiz-adv-x="637" 
d="M284 -12q-105 0 -170 65t-65 167q0 126 93 217q91 91 211 91q106 0 171 -65t65 -166q0 -123 -93 -218q-91 -91 -212 -91zM289 57q83 0 147 64q74 74 74 173q0 78 -44.5 122t-117.5 44q-82 0 -147 -65q-74 -74 -74 -173q0 -77 44.5 -121t117.5 -44z" />
    <glyph glyph-name="uni03C0" unicode="&#x3c0;" horiz-adv-x="696" 
d="M433 87q0 33 13 76l75 285h-259l-119 -448h-77l120 448h-105l18 69h619l-18 -69h-103l-79 -300q-7 -26 -7 -45q0 -44 54 -44q17 0 39 4l-17 -64q-23 -6 -49 -6q-51 0 -78 24.5t-27 69.5z" />
    <glyph glyph-name="uni03C1" unicode="&#x3c1;" horiz-adv-x="648" 
d="M307 -12q-141 0 -194 128l-74 -276h-76l117 439q28 108 89 169q80 80 199 80q102 0 165.5 -61t63.5 -165q0 -66 -26.5 -126.5t-69.5 -103.5q-82 -84 -194 -84zM301 56q82 0 142 60q75 75 75 184q0 74 -41 117t-112 43q-82 0 -141 -59q-36 -36 -56.5 -87t-20.5 -99
q0 -70 42 -114.5t112 -44.5z" />
    <glyph glyph-name="uni03C2" unicode="&#x3c2;" horiz-adv-x="557" 
d="M447 52l-51 -189h-73l36 135l-93 17q-216 41 -216 221q0 119 87 208q86 84 204 84q136 0 214 -115l-61 -43q-64 90 -157 90q-81 0 -141 -60q-67 -67 -67 -159q0 -69 42.5 -107.5t129.5 -54.5z" />
    <glyph glyph-name="uni03C3" unicode="&#x3c3;" horiz-adv-x="673" 
d="M282 -12q-105 0 -169 64.5t-64 166.5q0 122 86 208q92 90 233 90h321l-18 -68l-173 1q40 -26 63 -72.5t23 -99.5q0 -115 -84 -201q-89 -89 -218 -89zM288 57q89 0 153 64q66 66 66 162q0 76 -42.5 120.5t-113.5 44.5q-91 0 -157 -66q-67 -67 -67 -161q0 -77 44 -120.5
t117 -43.5z" />
    <glyph glyph-name="uni03C4" unicode="&#x3c4;" horiz-adv-x="558" 
d="M590 517l-18 -69h-212l-72 -269q-11 -40 -11 -63q0 -60 74 -60q33 0 76 12l-17 -66q-39 -11 -78 -11q-65 0 -99 29t-34 82q0 29 14 83l70 263h-208l18 69h497z" />
    <glyph glyph-name="uni03C5" unicode="&#x3c5;" horiz-adv-x="614" 
d="M259 -12q-89 0 -142.5 44t-53.5 126q0 42 14 95l71 264h76l-74 -277q-11 -44 -11 -76q0 -52 32.5 -80t92.5 -28q76 0 124 48q39 41 62 121l78 292h77l-82 -306q-25 -97 -79 -151q-72 -72 -185 -72z" />
    <glyph glyph-name="uni03C6" unicode="&#x3c6;" horiz-adv-x="824" 
d="M262 -160l43 161q-118 14 -185.5 77t-67.5 157q0 104 75 179q50 50 129.5 78t175.5 28h12l56 210h77l-58 -214q118 -15 185.5 -78t67.5 -156q0 -104 -75 -179q-108 -106 -305 -106h-12l-42 -157h-76zM130 236q0 -69 50.5 -115t142.5 -55l104 387h-5q-155 0 -235 -80
q-57 -57 -57 -137zM694 281q0 69 -50 114.5t-143 55.5l-104 -387h5q155 0 235 80q57 57 57 137z" />
    <glyph glyph-name="uni03C7" unicode="&#x3c7;" horiz-adv-x="585" 
d="M190 517l97 -263l226 263h96l-292 -327l138 -350h-83l-112 300l-261 -300h-96l327 363l-123 314h83z" />
    <glyph glyph-name="uni03C8" unicode="&#x3c8;" horiz-adv-x="803" 
d="M565 730l-178 -665h1q129 0 194 65q45 45 68 132l68 255h76l-73 -277q-27 -99 -86 -158q-85 -85 -258 -85h-9l-41 -157h-77l43 159q-100 9 -160 60t-60 140q0 45 16 106l57 212h76l-62 -233q-11 -46 -11 -79q0 -61 41.5 -96.5t120.5 -42.5l178 664h76z" />
    <glyph glyph-name="uni03C9" unicode="&#x3c9;" horiz-adv-x="883" 
d="M446 418h76l-37 -142q-12 -46 -12 -87q0 -58 28 -95t86 -37q66 0 112.5 64t46.5 169q0 115 -64 227h83q59 -110 59 -230q0 -137 -69.5 -218t-170.5 -81q-75 0 -116.5 40t-49.5 108q-70 -148 -199 -148q-81 0 -126 54t-45 139q0 93 50 180.5t125 155.5h98
q-194 -167 -194 -330q0 -60 26.5 -95t77.5 -35q59 0 104 54t72 157z" />
    <glyph glyph-name="uni03CA" unicode="&#x3ca;" horiz-adv-x="288" 
d="M81 595l26 95h90l-26 -95h-90zM258 595l26 95h89l-26 -95h-89zM47 87q0 33 13 76l94 354h76l-98 -369q-7 -26 -7 -45q0 -44 54 -44q17 0 39 4l-17 -64q-23 -6 -49 -6q-51 0 -78 24.5t-27 69.5z" />
    <glyph glyph-name="uni03CB" unicode="&#x3cb;" horiz-adv-x="614" 
d="M260 595l26 95h90l-26 -95h-90zM437 595l26 95h89l-26 -95h-89zM259 -12q-89 0 -142.5 44t-53.5 126q0 42 14 95l71 264h76l-74 -277q-11 -44 -11 -76q0 -52 32.5 -80t92.5 -28q76 0 124 48q39 41 62 121l78 292h77l-82 -306q-25 -97 -79 -151q-72 -72 -185 -72z" />
    <glyph glyph-name="uni03CC" unicode="&#x3cc;" horiz-adv-x="637" 
d="M359 595l107 154l80 -34l-122 -120h-65zM284 -12q-105 0 -170 65t-65 167q0 126 93 217q91 91 211 91q106 0 171 -65t65 -166q0 -123 -93 -218q-91 -91 -212 -91zM289 57q83 0 147 64q74 74 74 173q0 78 -44.5 122t-117.5 44q-82 0 -147 -65q-74 -74 -74 -173
q0 -77 44.5 -121t117.5 -44z" />
    <glyph glyph-name="uni03CD" unicode="&#x3cd;" horiz-adv-x="614" 
d="M349 595l107 154l80 -34l-122 -120h-65zM259 -12q-89 0 -142.5 44t-53.5 126q0 42 14 95l71 264h76l-74 -277q-11 -44 -11 -76q0 -52 32.5 -80t92.5 -28q76 0 124 48q39 41 62 121l78 292h77l-82 -306q-25 -97 -79 -151q-72 -72 -185 -72z" />
    <glyph glyph-name="uni03CE" unicode="&#x3ce;" horiz-adv-x="883" 
d="M487 595l107 154l80 -34l-122 -120h-65zM446 418h76l-37 -142q-12 -46 -12 -87q0 -58 28 -95t86 -37q66 0 112.5 64t46.5 169q0 115 -64 227h83q59 -110 59 -230q0 -137 -69.5 -218t-170.5 -81q-75 0 -116.5 40t-49.5 108q-70 -148 -199 -148q-81 0 -126 54t-45 139
q0 93 50 180.5t125 155.5h98q-194 -167 -194 -330q0 -60 26.5 -95t77.5 -35q59 0 104 54t72 157z" />
    <glyph glyph-name="uni0400" unicode="&#x400;" horiz-adv-x="653" 
d="M439 762l-90 93l79 36l66 -129h-55zM30 0l188 700h501l-20 -72h-422l-64 -239h377l-20 -72h-376l-66 -245h427l-19 -72h-506z" />
    <glyph glyph-name="uni0401" unicode="&#x401;" horiz-adv-x="653" 
d="M339 762l25 90h93l-24 -90h-94zM526 762l25 90h93l-25 -90h-93zM30 0l188 700h501l-20 -72h-422l-64 -239h377l-20 -72h-376l-66 -245h427l-19 -72h-506z" />
    <glyph glyph-name="uni0402" unicode="&#x402;" horiz-adv-x="832" 
d="M694 241q0 126 -189 126q-68 0 -145 -17l-93 -350h-80l168 627h-226l20 73h546l-20 -73h-240l-55 -204q60 14 136 14q128 0 193.5 -49.5t65.5 -142.5q0 -96 -63 -159q-88 -88 -262 -88h-26l18 71h15q130 0 193 63q44 44 44 109z" />
    <glyph glyph-name="uni0403" unicode="&#x403;" horiz-adv-x="607" 
d="M410 762l135 129l78 -36l-139 -93h-74zM30 0l188 700h473l-19 -73h-395l-168 -627h-79z" />
    <glyph glyph-name="uni0404" unicode="&#x404;" horiz-adv-x="744" 
d="M87 284q0 86 34 166.5t95 140.5q56 57 130.5 89t155.5 32q180 0 267 -148l-66 -43q-75 119 -206 119q-128 0 -219 -93q-69 -68 -95 -160h383l-18 -69h-378q-1 -10 -1 -31v-2q0 -103 61 -164t159 -61q66 0 117 23.5t100 70.5l50 -52q-117 -115 -270 -115
q-130 0 -214.5 80.5t-84.5 216.5z" />
    <glyph glyph-name="uni0405" unicode="&#x405;" horiz-adv-x="637" 
d="M298 -10q-190 0 -286 133l60 47q89 -109 231 -109q76 0 126.5 37t50.5 94q0 40 -31.5 68t-112.5 60q-103 41 -147.5 81.5t-44.5 105.5q0 75 54 128q75 75 204 75q157 0 248 -106l-58 -52q-79 87 -197 87q-76 0 -122 -36.5t-46 -86.5q0 -41 34 -68t121 -61
q94 -36 137.5 -78t43.5 -107q0 -76 -57 -135q-77 -77 -208 -77z" />
    <glyph glyph-name="uni0406" unicode="&#x406;" horiz-adv-x="291" 
d="M37 0l188 700h79l-188 -700h-79z" />
    <glyph glyph-name="uni0407" unicode="&#x407;" horiz-adv-x="291" 
d="M37 0l188 700h79l-188 -700h-79zM141 762l25 90h93l-24 -90h-94zM328 762l25 90h93l-25 -90h-93z" />
    <glyph glyph-name="uni0408" unicode="&#x408;" horiz-adv-x="555" 
d="M194 -10q-79 0 -131.5 40.5t-76.5 108.5l63 37q44 -113 146 -113q68 0 118 48q45 46 73 151l118 438h80l-121 -453q-35 -128 -96 -189q-68 -68 -173 -68z" />
    <glyph glyph-name="uni0409" unicode="&#x409;" horiz-adv-x="1057" 
d="M427 0l169 630h-6l-536 -630h-94l599 700h136l-69 -253h129q137 0 202 -65q49 -51 49 -128q0 -98 -65 -163q-91 -91 -283 -91h-231zM925 250q0 50 -32 82q-43 43 -146 43h-140l-81 -303h141q146 0 213 65q45 45 45 113z" />
    <glyph glyph-name="uni040A" unicode="&#x40a;" horiz-adv-x="1128" 
d="M498 0l84 315h-388l-85 -315h-79l188 700h79l-84 -311h389l84 311h79l-68 -253h129q138 0 201 -65q50 -50 50 -128q0 -99 -66 -163q-90 -91 -283 -91h-230zM995 250q0 50 -31 82q-45 43 -146 43h-140l-81 -303h140q146 0 213 65q45 44 45 113z" />
    <glyph glyph-name="uni040B" unicode="&#x40b;" horiz-adv-x="844" 
d="M187 0l168 627h-226l20 73h546l-20 -73h-240l-55 -204q78 16 155 16q106 0 170.5 -44.5t64.5 -136.5q0 -47 -16 -104l-41 -154h-80l44 162q13 49 13 89q0 58 -45 87t-124 29t-161 -18l-93 -349h-80z" />
    <glyph glyph-name="uni040C" unicode="&#x40c;" horiz-adv-x="719" 
d="M30 0l188 700h79l-83 -308h111l365 308h112l-418 -346l255 -354h-91l-231 324h-122l-86 -324h-79zM447 759l135 129l78 -36l-139 -93h-74z" />
    <glyph glyph-name="uni040D" unicode="&#x40d;" horiz-adv-x="789" 
d="M480 759l-90 93l79 36l66 -129h-55zM727 700h81l-188 -700h-79l153 570l-594 -570h-70l188 700h79l-150 -558z" />
    <glyph glyph-name="uni040E" unicode="&#x40e;" horiz-adv-x="705" 
d="M795 700l-587 -700h-94l205 244l-176 456h84l148 -394l326 394h94zM466 757q-63 0 -95.5 30.5t-22.5 83.5h56q3 -52 75 -52q69 0 102 52h63q-18 -53 -67 -83.5t-111 -30.5z" />
    <glyph glyph-name="uni040F" unicode="&#x40f;" horiz-adv-x="755" 
d="M775 700l-188 -700h-241l-40 -146h-76l40 146h-240l188 700h79l-168 -627h398l168 627h80z" />
    <glyph glyph-name="uni0410" unicode="&#x410;" horiz-adv-x="761" 
d="M-40 0l508 705h76l130 -705h-81l-32 185h-382l-132 -185h-87zM229 257h319l-63 358z" />
    <glyph glyph-name="uni0411" unicode="&#x411;" horiz-adv-x="713" 
d="M642 226q0 -83 -57 -142q-85 -84 -268 -84h-287l188 700h493l-20 -72h-414l-62 -226h180q143 0 203 -60q44 -44 44 -116zM560 224q0 41 -27 68q-39 40 -146 40h-191l-69 -260h200q137 0 196 59q37 37 37 93z" />
    <glyph glyph-name="uni0412" unicode="&#x412;" horiz-adv-x="717" 
d="M30 0l188 700h262q102 0 159.5 -44t57.5 -119q0 -72 -48.5 -120t-126.5 -64q124 -38 124 -145q0 -92 -79 -150t-215 -58h-322zM127 71h234q95 0 150 37.5t55 102.5q0 52 -44 79.5t-117 27.5h-212zM212 388h199q94 0 149.5 38t55.5 101q0 49 -37 75.5t-106 26.5h-196z" />
    <glyph glyph-name="uni0413" unicode="&#x413;" horiz-adv-x="607" 
d="M30 0l188 700h473l-19 -73h-395l-168 -627h-79z" />
    <glyph glyph-name="uni0414" unicode="&#x414;" horiz-adv-x="843" 
d="M-13 73h68l445 632h83l107 -632h70l-59 -219h-77l40 146h-620l-40 -146h-76zM521 614l-378 -543h466z" />
    <glyph glyph-name="uni0415" unicode="&#x415;" horiz-adv-x="653" 
d="M30 0l188 700h501l-20 -72h-422l-64 -239h377l-20 -72h-376l-66 -245h427l-19 -72h-506z" />
    <glyph glyph-name="uni0416" unicode="&#x416;" horiz-adv-x="1077" 
d="M701 700l-84 -308h89l346 308h106l-398 -347l229 -353h-88l-205 324h-97l-86 -324h-79l87 324h-88l-366 -324h-106l422 366l-217 334h90l194 -308h89l83 308h79z" />
    <glyph glyph-name="uni0417" unicode="&#x417;" horiz-adv-x="672" 
d="M181 570l-37 61q127 81 267 81q112 0 177 -50.5t65 -129.5q0 -74 -52.5 -121.5t-132.5 -64.5q55 -18 88 -56t33 -90q0 -96 -82.5 -154t-199.5 -58q-175 0 -296 114l53 54q103 -97 246 -97q84 0 140.5 38t56.5 104q0 54 -45.5 85.5t-137.5 31.5h-111l19 69h115
q106 0 164 35.5t58 101.5q0 49 -42.5 83t-120.5 34q-113 0 -225 -71z" />
    <glyph glyph-name="uni0418" unicode="&#x418;" horiz-adv-x="789" 
d="M727 700h81l-188 -700h-79l153 570l-594 -570h-70l188 700h79l-150 -558z" />
    <glyph glyph-name="uni0419" unicode="&#x419;" horiz-adv-x="789" 
d="M522 757q-63 0 -95.5 30.5t-22.5 83.5h56q3 -52 75 -52q69 0 102 52h63q-18 -53 -67 -83.5t-111 -30.5zM727 700h81l-188 -700h-79l153 570l-594 -570h-70l188 700h79l-150 -558z" />
    <glyph glyph-name="uni041A" unicode="&#x41a;" horiz-adv-x="719" 
d="M30 0l188 700h79l-83 -308h111l365 308h112l-418 -346l255 -354h-91l-231 324h-122l-86 -324h-79z" />
    <glyph glyph-name="uni041B" unicode="&#x41b;" horiz-adv-x="739" 
d="M530 705l121 -705h-84l-97 598l-419 -598h-90l498 705h71z" />
    <glyph glyph-name="uni041C" unicode="&#x41c;" horiz-adv-x="867" 
d="M30 0l188 700h73l152 -382l356 382h88l-188 -700h-80l152 567l-355 -375h-4l-153 374l-152 -566h-77z" />
    <glyph glyph-name="uni041D" unicode="&#x41d;" horiz-adv-x="756" 
d="M30 0l188 700h79l-83 -311h399l83 311h80l-188 -700h-80l85 315h-399l-85 -315h-79z" />
    <glyph glyph-name="uni041E" unicode="&#x41e;" horiz-adv-x="842" 
d="M496 712q134 0 220.5 -87t86.5 -216q0 -84 -34 -163.5t-93 -139.5q-121 -119 -281 -119q-134 0 -220.5 87t-86.5 217q0 84 34 163t94 139q119 119 280 119zM400 60q122 0 214 92q50 50 78 117t28 137q0 101 -63 167t-166 66q-124 0 -214 -92q-50 -49 -78 -116t-28 -138
q0 -101 63 -167t166 -66z" />
    <glyph glyph-name="uni041F" unicode="&#x41f;" horiz-adv-x="755" 
d="M30 0l188 700h557l-188 -700h-80l169 627h-399l-168 -627h-79z" />
    <glyph glyph-name="uni0420" unicode="&#x420;" horiz-adv-x="667" 
d="M30 0l188 700h219q134 0 200 -65q50 -52 50 -130q0 -98 -66 -164q-90 -92 -279 -92h-166l-67 -249h-79zM573 584q-43 43 -139 43h-157l-82 -308h151q148 0 215 67q44 44 44 114q0 51 -32 84z" />
    <glyph glyph-name="uni0421" unicode="&#x421;" horiz-adv-x="735" 
d="M383 -13q-127 0 -212.5 79t-85.5 211q0 87 35 168.5t97 143.5q123 123 288 123q93 0 160 -40.5t104 -109.5l-68 -42q-35 59 -82.5 89t-120.5 30q-123 0 -219 -94q-52 -53 -81.5 -122.5t-29.5 -142.5q0 -100 61 -159.5t158 -59.5q119 0 217 95l53 -52q-117 -117 -274 -117
z" />
    <glyph glyph-name="uni0422" unicode="&#x422;" horiz-adv-x="616" 
d="M196 0l168 627h-236l20 73h551l-20 -73h-236l-168 -627h-79z" />
    <glyph glyph-name="uni0423" unicode="&#x423;" horiz-adv-x="705" 
d="M795 700l-587 -700h-94l205 244l-176 456h84l148 -394l326 394h94z" />
    <glyph glyph-name="uni0424" unicode="&#x424;" horiz-adv-x="912" 
d="M538 713h79l-22 -81q131 -11 208 -77t78 -169q0 -113 -81 -194q-120 -120 -355 -121l-22 -84h-80l23 86q-131 11 -207.5 77t-77.5 169q0 113 81 194q120 119 355 121zM163 323q0 -78 59 -126t164 -55l113 422q-182 -1 -275 -93q-61 -61 -61 -148zM799 382
q0 77 -59.5 125.5t-163.5 55.5l-114 -422q182 0 275 93q62 62 62 148z" />
    <glyph glyph-name="uni0425" unicode="&#x425;" horiz-adv-x="694" 
d="M-31 0l359 362l-176 338h87l146 -286l279 286h102l-346 -349l182 -351h-87l-152 299l-291 -299h-103z" />
    <glyph glyph-name="uni0426" unicode="&#x426;" horiz-adv-x="771" 
d="M775 700l-169 -627h76l-60 -219h-76l40 146h-556l188 700h79l-168 -627h398l168 627h80z" />
    <glyph glyph-name="uni0427" unicode="&#x427;" horiz-adv-x="691" 
d="M443 0l69 262q-78 -15 -155 -15q-108 0 -172.5 43.5t-64.5 137.5q0 42 16 104l45 168h80l-48 -176q-13 -49 -13 -88q0 -59 45 -88t124 -29q83 0 164 19l98 362h79l-188 -700h-79z" />
    <glyph glyph-name="uni0428" unicode="&#x428;" horiz-adv-x="1126" 
d="M1145 700l-188 -700h-927l188 700h79l-168 -627h344l169 627h79l-168 -627h344l169 627h79z" />
    <glyph glyph-name="uni0429" unicode="&#x429;" horiz-adv-x="1142" 
d="M1145 700l-169 -627h76l-60 -219h-76l40 146h-926l188 700h79l-168 -627h344l169 627h79l-168 -627h344l169 627h79z" />
    <glyph glyph-name="uni042A" unicode="&#x42a;" horiz-adv-x="826" 
d="M125 628l20 72h308l-68 -253h139q138 0 201 -65q50 -50 50 -128q0 -99 -66 -163q-90 -91 -283 -91h-240l168 628h-229zM693 250q0 50 -31 82q-45 43 -146 43h-150l-81 -303h150q146 0 213 65q45 44 45 113z" />
    <glyph glyph-name="uni042B" unicode="&#x42b;" horiz-adv-x="938" 
d="M30 0l188 700h79l-68 -253h139q138 0 201 -65q50 -50 50 -128q0 -99 -66 -163q-90 -91 -283 -91h-240zM537 250q0 50 -31 82q-45 43 -146 43h-150l-81 -303h150q146 0 213 65q45 44 45 113zM690 0l188 700h79l-188 -700h-79z" />
    <glyph glyph-name="uni042C" unicode="&#x42c;" horiz-adv-x="670" 
d="M30 0l188 700h79l-68 -253h139q138 0 201 -65q50 -50 50 -128q0 -99 -66 -163q-90 -91 -283 -91h-240zM537 250q0 50 -31 82q-45 43 -146 43h-150l-81 -303h150q146 0 213 65q45 44 45 113z" />
    <glyph glyph-name="uni042D" unicode="&#x42d;" horiz-adv-x="742" 
d="M704 414q0 -88 -33.5 -168.5t-94.5 -141.5q-115 -117 -278 -117q-179 0 -275 142l59 47q86 -117 216 -117q127 0 218 91q70 70 94 168h-384l19 69h376q1 8 1 25v2q0 103 -59.5 164t-155.5 61q-119 0 -222 -90l-46 56q121 107 272 107q128 0 210.5 -82t82.5 -216z" />
    <glyph glyph-name="uni042E" unicode="&#x42e;" horiz-adv-x="1085" 
d="M30 0l188 700h79l-83 -311h153q28 119 115 208q117 115 270 115q131 0 212 -86t81 -217q0 -84 -33 -165t-94 -142q-115 -115 -270 -115q-131 0 -211.5 86.5t-80.5 217.5q0 16 1 24h-163l-85 -315h-79zM653 60q116 0 204 88q49 49 77 117t28 141q0 101 -58.5 167
t-156.5 66q-118 0 -204 -88q-48 -49 -76.5 -117t-28.5 -141q0 -101 58.5 -167t156.5 -66z" />
    <glyph glyph-name="uni042F" unicode="&#x42f;" horiz-adv-x="727" 
d="M747 700l-188 -700h-80l73 272h-207l-262 -272h-102l282 289q-61 19 -97.5 64.5t-36.5 111.5q0 89 60 149q86 86 260 86h298zM648 627h-210q-127 0 -187 -58q-41 -41 -41 -101q0 -58 45 -91.5t130 -33.5h186z" />
    <glyph glyph-name="uni0430" unicode="&#x430;" horiz-adv-x="576" 
d="M183 -11q-69 0 -116.5 38.5t-47.5 104.5q0 74 49 123q64 64 181 64q84 0 184 -28l3 12q7 26 7 48q0 105 -140 105q-68 0 -146 -27l-13 64q83 31 171 31q97 0 150 -42.5t53 -117.5q0 -33 -11 -71l-78 -293h-75l22 81q-80 -92 -193 -92zM207 49q67 0 126 43.5t77 110.5
l10 36q-80 23 -168 23q-79 0 -122 -43q-33 -31 -33 -78q0 -41 30 -66.5t80 -25.5z" />
    <glyph glyph-name="uni0431" unicode="&#x431;" horiz-adv-x="653" 
d="M308 -12q-107 0 -170 63q-67 66 -67 188q0 99 36.5 202t106.5 173q48 48 110.5 74t161.5 36l156 16l3 -71l-155 -16q-160 -18 -228 -87q-60 -59 -96 -162q38 45 93.5 70t116.5 25q106 0 165.5 -60t59.5 -155q0 -124 -87 -211q-83 -85 -206 -85zM311 56q86 0 146 60
q65 65 65 164q0 71 -42.5 113t-118.5 42q-93 0 -154 -61q-59 -59 -59 -150q0 -75 42.5 -121.5t120.5 -46.5z" />
    <glyph glyph-name="uni0432" unicode="&#x432;" horiz-adv-x="597" 
d="M17 0l138 517h225q82 0 125.5 -33t43.5 -89q0 -53 -35 -88.5t-89 -46.5q38 -12 62 -40t24 -66q0 -75 -63.5 -114.5t-163.5 -39.5h-267zM171 291h150q151 0 151 97q0 31 -25.5 49t-75.5 18h-157zM109 62h177q62 0 104 23.5t42 72.5q0 73 -114 73h-163z" />
    <glyph glyph-name="uni0433" unicode="&#x433;" horiz-adv-x="492" 
d="M17 0l138 517h377l-19 -70h-300l-119 -447h-77z" />
    <glyph glyph-name="uni0434" unicode="&#x434;" horiz-adv-x="649" 
d="M-25 70h57l325 451h79l79 -451h58l-55 -207h-71l37 137h-457l-37 -137h-70zM378 440l-263 -372h323z" />
    <glyph glyph-name="uni0435" unicode="&#x435;" horiz-adv-x="589" 
d="M531 232h-405q-1 -7 -1 -21q0 -70 41.5 -113.5t111.5 -43.5q86 0 163 61l39 -50q-91 -77 -208 -77q-100 0 -162 61.5t-62 158.5q0 64 26 125.5t72 107.5q87 87 203 87q94 0 147 -56.5t53 -141.5q0 -49 -18 -98zM201 401q-44 -44 -65 -111h333q5 15 5 40q0 57 -33 95
t-96 38q-80 0 -144 -62z" />
    <glyph glyph-name="uni0436" unicode="&#x436;" horiz-adv-x="860" 
d="M538 517l-61 -224h76l244 224h102l-291 -259l166 -258h-84l-145 229h-85l-60 -229h-77l62 229h-75l-254 -229h-101l305 268l-156 249h85l136 -224h77l59 224h77z" />
    <glyph glyph-name="uni0437" unicode="&#x437;" horiz-adv-x="562" 
d="M242 -11q-140 0 -245 80l42 53q91 -67 201 -67q71 0 112.5 26t41.5 69q0 81 -135 81h-108l16 61h110q75 0 117 25t42 68q0 36 -32 57t-90 21q-92 0 -189 -50l-31 57q109 58 224 58q94 0 146 -38.5t52 -97.5q0 -55 -38 -89t-99 -47q92 -31 92 -111q0 -68 -63 -112
t-166 -44z" />
    <glyph glyph-name="uni0438" unicode="&#x438;" horiz-adv-x="635" 
d="M538 517h80l-138 -517h-77l107 400l-415 -400h-78l138 517h77l-107 -399z" />
    <glyph glyph-name="uni0439" unicode="&#x439;" horiz-adv-x="635" 
d="M538 517h80l-138 -517h-77l107 400l-415 -400h-78l138 517h77l-107 -399zM409 593q-65 0 -97 34t-24 91h56q0 -63 73 -63q69 0 108 63h60q-20 -57 -67 -91t-109 -34z" />
    <glyph glyph-name="uni043A" unicode="&#x43a;" horiz-adv-x="572" 
d="M17 0l138 517h77l-60 -223h80l256 223h105l-307 -261l181 -256h-86l-158 228h-89l-60 -228h-77z" />
    <glyph glyph-name="uni043B" unicode="&#x43b;" horiz-adv-x="589" 
d="M408 521l94 -521h-81l-69 425l-299 -425h-87l371 521h71z" />
    <glyph glyph-name="uni043C" unicode="&#x43c;" horiz-adv-x="720" 
d="M318 110l-119 288l-106 -398h-76l138 517h72l118 -290l266 290h92l-138 -517h-77l107 403l-274 -293h-3z" />
    <glyph glyph-name="uni043D" unicode="&#x43d;" horiz-adv-x="630" 
d="M613 517l-138 -517h-77l61 226h-304l-61 -226h-77l138 517h77l-59 -221h305l58 221h77z" />
    <glyph glyph-name="uni043E" unicode="&#x43e;" horiz-adv-x="637" 
d="M284 -12q-105 0 -170 65t-65 167q0 126 93 217q91 91 211 91q106 0 171 -65t65 -166q0 -123 -93 -218q-91 -91 -212 -91zM289 57q83 0 147 64q74 74 74 173q0 78 -44.5 122t-117.5 44q-82 0 -147 -65q-74 -74 -74 -173q0 -77 44.5 -121t117.5 -44z" />
    <glyph glyph-name="uni043F" unicode="&#x43f;" horiz-adv-x="629" 
d="M612 517l-138 -517h-77l120 447h-304l-119 -447h-77l138 517h457z" />
    <glyph glyph-name="uni0440" unicode="&#x440;" horiz-adv-x="659" 
d="M319 -12q-139 0 -194 128l-74 -276h-77l181 677h77l-24 -89q88 100 196 100q89 0 147 -60.5t58 -158.5q0 -141 -96 -237q-84 -84 -194 -84zM312 56q80 0 142 60q74 76 74 186q0 72 -40 115t-106 43q-86 0 -153 -69q-77 -77 -77 -174q0 -68 45 -114.5t115 -46.5z" />
    <glyph glyph-name="uni0441" unicode="&#x441;" horiz-adv-x="562" 
d="M277 -12q-95 0 -162 61.5t-67 164.5q0 130 94 224q90 90 210 90q76 0 127 -34t79 -87l-62 -40q-55 93 -149 93q-82 0 -145 -65q-75 -75 -75 -179q0 -73 45 -116.5t109 -43.5q78 0 153 68l45 -50q-91 -86 -202 -86z" />
    <glyph glyph-name="uni0442" unicode="&#x442;" horiz-adv-x="549" 
d="M99 517h492l-19 -69h-208l-120 -448h-77l120 448h-207z" />
    <glyph glyph-name="uni0443" unicode="&#x443;" horiz-adv-x="574" 
d="M181 0l-94 517h81l71 -431l277 431h88l-354 -534q-54 -79 -103 -112.5t-109 -33.5q-61 0 -113 36l42 57q35 -27 79 -27q34 0 65.5 22t69.5 75z" />
    <glyph glyph-name="uni0444" unicode="&#x444;" horiz-adv-x="824" 
d="M262 -160l43 161q-118 14 -185.5 77t-67.5 157q0 104 75 179q50 50 129.5 78t175.5 28h12l56 210h77l-58 -214q118 -15 185.5 -78t67.5 -156q0 -104 -75 -179q-108 -106 -305 -106h-12l-42 -157h-76zM130 236q0 -69 50.5 -115t142.5 -55l104 387h-5q-155 0 -235 -80
q-57 -57 -57 -137zM694 281q0 69 -50 114.5t-143 55.5l-104 -387h5q155 0 235 80q57 57 57 137z" />
    <glyph glyph-name="uni0445" unicode="&#x445;" horiz-adv-x="564" 
d="M198 517l98 -197l197 197h97l-263 -256l135 -261h-85l-103 210l-212 -210h-97l278 268l-130 249h85z" />
    <glyph glyph-name="uni0446" unicode="&#x446;" horiz-adv-x="646" 
d="M17 0l138 517h77l-119 -447h303l119 447h77l-120 -447h64l-56 -207h-70l37 137h-450z" />
    <glyph glyph-name="uni0447" unicode="&#x447;" horiz-adv-x="576" 
d="M559 517l-138 -517h-77l47 172q-66 -12 -118 -12q-94 0 -145 36.5t-51 110.5q0 34 15 91l32 119h77l-35 -130q-12 -46 -12 -70q0 -87 131 -87q66 0 123 13l74 274h77z" />
    <glyph glyph-name="uni0448" unicode="&#x448;" horiz-adv-x="942" 
d="M17 0l138 517h77l-119 -447h269l120 447h76l-119 -447h269l120 447h77l-139 -517h-769z" />
    <glyph glyph-name="uni0449" unicode="&#x449;" horiz-adv-x="958" 
d="M17 0l138 517h77l-119 -447h269l120 447h76l-119 -447h269l120 447h77l-120 -447h64l-56 -207h-70l37 137h-763z" />
    <glyph glyph-name="uni044A" unicode="&#x44a;" horiz-adv-x="676" 
d="M613 190q0 -89 -72 -139.5t-187 -50.5h-226l120 449h-171l18 68h248l-47 -178h117q99 0 149.5 -40t50.5 -109zM535 185q0 89 -127 89h-130l-56 -208h142q78 0 124.5 32t46.5 87z" />
    <glyph glyph-name="uni044B" unicode="&#x44b;" horiz-adv-x="784" 
d="M502 190q0 -89 -72 -139.5t-187 -50.5h-226l138 517h77l-47 -178h117q99 0 149.5 -40t50.5 -109zM424 185q0 89 -127 89h-130l-56 -208h142q78 0 124.5 32t46.5 87zM552 0l138 517h77l-139 -517h-76z" />
    <glyph glyph-name="uni044C" unicode="&#x44c;" horiz-adv-x="565" 
d="M502 190q0 -89 -72 -139.5t-187 -50.5h-226l138 517h77l-47 -178h117q99 0 149.5 -40t50.5 -109zM424 185q0 89 -127 89h-130l-56 -208h142q78 0 124.5 32t46.5 87z" />
    <glyph glyph-name="uni044D" unicode="&#x44d;" horiz-adv-x="568" 
d="M165 294l277 -1v3v5q0 75 -43.5 117.5t-110.5 42.5q-81 0 -163 -62l-39 54q98 75 207 75q98 0 162.5 -61.5t64.5 -166.5q0 -131 -93 -224q-88 -88 -206 -88q-134 0 -212 113l54 45q32 -45 69 -68t91 -23q84 0 148 64q45 45 62 111l-285 -1z" />
    <glyph glyph-name="uni044E" unicode="&#x44e;" horiz-adv-x="862" 
d="M17 0l138 517h77l-58 -221h121q23 83 85 145q87 87 204 87q103 0 166 -65t63 -167q0 -125 -95 -220q-86 -88 -205 -88q-102 0 -165 65.5t-63 167.5v5h-130l-61 -226h-77zM517 57q80 0 142 62q75 75 75 174q0 78 -42 122.5t-111 44.5q-80 0 -143 -63q-74 -76 -74 -174
q0 -78 41.5 -122t111.5 -44z" />
    <glyph glyph-name="uni044F" unicode="&#x44f;" horiz-adv-x="609" 
d="M-9 0l197 206q-45 16 -71 51t-26 83q0 83 67 130t168 47h266l-138 -517h-76l51 192h-164l-179 -192h-95zM499 453h-177q-68 0 -110.5 -28t-42.5 -83q0 -42 30.5 -65t87.5 -23h159z" />
    <glyph glyph-name="uni0450" unicode="&#x450;" horiz-adv-x="589" 
d="M531 232h-405q-1 -7 -1 -21q0 -70 41.5 -113.5t111.5 -43.5q86 0 163 61l39 -50q-91 -77 -208 -77q-100 0 -162 61.5t-62 158.5q0 64 26 125.5t72 107.5q87 87 203 87q94 0 147 -56.5t53 -141.5q0 -49 -18 -98zM201 401q-44 -44 -65 -111h333q5 15 5 40q0 57 -33 95
t-96 38q-80 0 -144 -62zM352 595l-83 108l81 37l56 -145h-54z" />
    <glyph glyph-name="uni0451" unicode="&#x451;" horiz-adv-x="589" 
d="M531 232h-405q-1 -7 -1 -21q0 -70 41.5 -113.5t111.5 -43.5q86 0 163 61l39 -50q-91 -77 -208 -77q-100 0 -162 61.5t-62 158.5q0 64 26 125.5t72 107.5q87 87 203 87q94 0 147 -56.5t53 -141.5q0 -49 -18 -98zM201 401q-44 -44 -65 -111h333q5 15 5 40q0 57 -33 95
t-96 38q-80 0 -144 -62zM255 595l26 95h90l-26 -95h-90zM432 595l26 95h89l-26 -95h-89z" />
    <glyph glyph-name="uni0452" unicode="&#x452;" horiz-adv-x="591" 
d="M431 572h-183l-39 -146q62 13 118 13q196 0 196 -146q0 -34 -15 -91l-51 -189q-26 -98 -70.5 -137t-120.5 -39q-50 0 -84 13l17 64q33 -12 67 -12q45 0 72 27t45 92l51 192q11 42 11 70q0 87 -130 87q-55 0 -125 -14l-95 -356h-77l153 572h-111l17 65h112l25 93h77
l-25 -93h183z" />
    <glyph glyph-name="uni0453" unicode="&#x453;" horiz-adv-x="492" 
d="M305 595l134 145l80 -37l-142 -108h-72zM17 0l138 517h377l-19 -70h-300l-119 -447h-77z" />
    <glyph glyph-name="uni0454" unicode="&#x454;" horiz-adv-x="569" 
d="M421 294l-18 -65l-277 1v-9v-5q0 -76 44.5 -118.5t110.5 -42.5q86 0 162 61l40 -54q-97 -74 -205 -74q-98 0 -164 61t-66 166q0 133 94 225q86 88 209 88q133 0 209 -107l-55 -46q-31 41 -67.5 63.5t-90.5 22.5q-86 0 -150 -64q-43 -43 -61 -104z" />
    <glyph glyph-name="uni0455" unicode="&#x455;" horiz-adv-x="496" 
d="M217 -11q-133 0 -223 90l50 50q79 -76 180 -76q46 0 80 24t34 62q0 26 -21.5 46.5t-76.5 41.5q-76 30 -111 60.5t-35 81.5q0 68 54 113.5t142 45.5q54 0 105 -20.5t86 -50.5l-45 -53q-74 60 -153 60q-52 0 -82 -24t-30 -58q0 -26 21.5 -45.5t81.5 -42.5q74 -30 107.5 -62
t33.5 -80q0 -71 -57 -117t-141 -46z" />
    <glyph glyph-name="uni0456" unicode="&#x456;" horiz-adv-x="264" 
d="M24 0l139 517h77l-139 -517h-77zM188 630l23 85h88l-23 -85h-88z" />
    <glyph glyph-name="uni0457" unicode="&#x457;" horiz-adv-x="264" 
d="M90 595l26 95h90l-26 -95h-90zM267 595l26 95h89l-26 -95h-89zM24 0l139 517h77l-139 -517h-77z" />
    <glyph glyph-name="uni0458" unicode="&#x458;" horiz-adv-x="264" 
d="M-50 -163q-38 0 -69 9l18 65q23 -7 44 -7q55 0 74 70l146 543h77l-148 -551q-36 -129 -142 -129zM188 630l23 85h88l-23 -85h-88z" />
    <glyph glyph-name="uni0459" unicode="&#x459;" horiz-adv-x="838" 
d="M-58 0l445 517h129l-47 -178h106q99 0 150 -40t51 -109q0 -89 -72.5 -139.5t-187.5 -50.5h-215l121 455h-2l-391 -455h-87zM698 185q0 89 -128 89h-119l-56 -208h131q79 0 125.5 32t46.5 87z" />
    <glyph glyph-name="uni045A" unicode="&#x45a;" horiz-adv-x="928" 
d="M17 0l138 517h77l-58 -221h297l59 221h76l-47 -178h106q99 0 150 -40t51 -109q0 -89 -72.5 -139.5t-187.5 -50.5h-215l61 226h-297l-61 -226h-77zM788 185q0 89 -128 89h-119l-55 -208h130q79 0 125.5 32t46.5 87z" />
    <glyph glyph-name="uni045B" unicode="&#x45b;" horiz-adv-x="591" 
d="M431 572h-183l-39 -146q62 13 118 13q196 0 196 -146q0 -34 -15 -91l-54 -202h-77l57 213q11 42 11 70q0 87 -130 87q-55 0 -125 -14l-95 -356h-77l153 572h-111l17 65h112l25 93h77l-25 -93h183z" />
    <glyph glyph-name="uni045C" unicode="&#x45c;" horiz-adv-x="572" 
d="M17 0l138 517h77l-60 -223h80l256 223h105l-307 -261l181 -256h-86l-158 228h-89l-60 -228h-77zM337 595l134 145l80 -37l-142 -108h-72z" />
    <glyph glyph-name="uni045D" unicode="&#x45d;" horiz-adv-x="635" 
d="M367 595l-83 108l81 37l56 -145h-54zM538 517h80l-138 -517h-77l107 400l-415 -400h-78l138 517h77l-107 -399z" />
    <glyph glyph-name="uni045E" unicode="&#x45e;" horiz-adv-x="574" 
d="M181 0l-94 517h81l71 -431l277 431h88l-354 -534q-54 -79 -103 -112.5t-109 -33.5q-61 0 -113 36l42 57q35 -27 79 -27q34 0 65.5 22t69.5 75zM359 593q-65 0 -97 34t-24 91h56q0 -63 73 -63q70 0 108 63h60q-20 -57 -67 -91t-109 -34z" />
    <glyph glyph-name="uni045F" unicode="&#x45f;" horiz-adv-x="629" 
d="M17 0l138 517h77l-119 -447h303l119 447h77l-138 -517h-196l-37 -137h-70l37 137h-191z" />
    <glyph glyph-name="uni0462" unicode="&#x462;" horiz-adv-x="826" 
d="M662 531h-255l-40 -148h184q118 0 173 -55q42 -42 42 -110q0 -86 -56 -140q-76 -78 -242 -78h-282l142 530h-229l19 69h228l31 114h79l-31 -114h255zM685 213q0 40 -24 64q-35 35 -118 35h-194l-65 -241h196q117 0 169 52q36 36 36 90z" />
    <glyph glyph-name="uni0463" unicode="&#x463;" horiz-adv-x="677" 
d="M556 517l-17 -67h-214l-33 -122h128q95 0 144.5 -39t49.5 -105q0 -86 -70 -135t-181 -49h-235l121 450h-173l18 67h173l57 213h77l-58 -213h213zM535 179q0 85 -122 85h-138l-53 -200h149q75 0 119.5 30.5t44.5 84.5z" />
    <glyph glyph-name="uni0472" unicode="&#x472;" horiz-adv-x="841" 
d="M495 712q134 0 220 -87t86 -216q0 -84 -33.5 -163.5t-93.5 -139.5q-119 -119 -280 -119q-134 0 -220 87t-86 217q0 84 34 163t93 139q121 119 280 119zM615 151q71 71 95 166h-542v-24q0 -102 63.5 -168.5t167.5 -66.5q125 0 216 93zM490 642q-121 0 -216 -93
q-68 -68 -93 -161h540q1 6 1 18q0 102 -63.5 169t-168.5 67z" />
    <glyph glyph-name="uni0473" unicode="&#x473;" horiz-adv-x="636" 
d="M283 -12q-105 0 -169.5 65t-64.5 167q0 125 92 217q91 91 212 91q105 0 169.5 -65t64.5 -166q0 -124 -92 -218q-93 -91 -212 -91zM289 54q84 0 150 66q46 45 65 109h-381v-5v-2q0 -78 45.5 -123t120.5 -45zM197 397q-46 -46 -64 -105h380v1v1q0 79 -45.5 124t-120.5 45
q-84 0 -150 -66z" />
    <glyph glyph-name="uni0474" unicode="&#x474;" horiz-adv-x="770" 
d="M246 -5l-109 705h84l85 -602l263 403q80 123 133 162.5t144 39.5h27l-18 -72h-11q-68 0 -106.5 -31.5t-112.5 -142.5l-309 -462h-70z" />
    <glyph glyph-name="uni0475" unicode="&#x475;" horiz-adv-x="591" 
d="M234 -4h-68l-78 521h81l54 -429l185 291q50 80 97 110.5t124 30.5h21l-19 -67h-10q-46 0 -78 -21.5t-69 -77.5z" />
    <glyph glyph-name="uni0490" unicode="&#x490;" horiz-adv-x="607" 
d="M672 627h-395l-168 -627h-79l188 700h397l37 139h76z" />
    <glyph glyph-name="uni0491" unicode="&#x491;" horiz-adv-x="492" 
d="M567 649l-54 -202h-300l-119 -447h-77l138 517h305l35 132h72z" />
    <glyph glyph-name="uni0492" unicode="&#x492;" horiz-adv-x="633" 
d="M56 0l83 309h-75l17 64h75l88 327h473l-19 -73h-395l-68 -254h201l-18 -64h-200l-83 -309h-79z" />
    <glyph glyph-name="uni0493" unicode="&#x493;" horiz-adv-x="511" 
d="M35 0l58 218h-68l15 55h67l66 244h377l-19 -70h-300l-47 -174h145l-15 -55h-144l-58 -218h-77z" />
    <glyph glyph-name="uni0496" unicode="&#x496;" horiz-adv-x="1086" 
d="M1158 700l-398 -347l181 -280h93l-60 -219h-76l40 146h-37l-205 324h-97l-86 -324h-79l87 324h-88l-366 -324h-106l422 366l-217 334h90l194 -308h89l83 308h79l-84 -308h89l346 308h106z" />
    <glyph glyph-name="uni0497" unicode="&#x497;" horiz-adv-x="872" 
d="M538 517l-61 -224h76l244 224h102l-291 -259l121 -188h79l-56 -207h-70l37 137h-29l-145 229h-85l-60 -229h-77l62 229h-75l-254 -229h-101l305 268l-156 249h85l136 -224h77l59 224h77z" />
    <glyph glyph-name="uni0498" unicode="&#x498;" horiz-adv-x="672" 
d="M198 -146l40 139q-129 16 -227 109l53 54q103 -97 246 -97q84 0 140.5 38t56.5 104q0 54 -45.5 85.5t-137.5 31.5h-111l19 69h115q106 0 164 35.5t58 101.5q0 49 -42.5 83t-120.5 34q-113 0 -225 -71l-37 61q127 81 267 81q112 0 177 -50.5t65 -129.5q0 -74 -52.5 -121.5
t-132.5 -64.5q55 -18 88 -56t33 -90q0 -95 -81 -152.5t-197 -59.5l-35 -134h-78z" />
    <glyph glyph-name="uni0499" unicode="&#x499;" horiz-adv-x="562" 
d="M149 -137l37 130q-106 12 -189 76l42 53q91 -67 201 -67q71 0 112.5 26t41.5 69q0 81 -135 81h-108l16 61h110q75 0 117 25t42 68q0 36 -32 57t-90 21q-92 0 -189 -50l-31 57q109 58 224 58q94 0 146 -38.5t52 -97.5q0 -55 -38 -89t-99 -47q92 -31 92 -111
q0 -66 -59.5 -109.5t-158.5 -46.5l-32 -126h-72z" />
    <glyph glyph-name="uni049A" unicode="&#x49a;" horiz-adv-x="730" 
d="M802 700l-418 -346l202 -281h88l-60 -219h-76l40 146h-30l-231 324h-122l-86 -324h-79l188 700h79l-83 -308h111l365 308h112z" />
    <glyph glyph-name="uni049B" unicode="&#x49b;" horiz-adv-x="578" 
d="M17 0l138 517h77l-60 -223h80l256 223h105l-307 -261l131 -186h80l-56 -207h-70l37 137h-27l-158 228h-89l-60 -228h-77z" />
    <glyph glyph-name="uni049C" unicode="&#x49c;" horiz-adv-x="744" 
d="M650 0h-89l-171 318h-8l-56 -217h-61l58 217h-129l-85 -318h-79l188 700h79l-84 -313h128l60 222h61l-62 -222h5l318 313h102l-366 -352z" />
    <glyph glyph-name="uni049D" unicode="&#x49d;" horiz-adv-x="621" 
d="M513 0h-83l-110 231h-29l-41 -156h-54l42 156h-82l-62 -231h-77l139 517h77l-60 -222h82l42 154h53l-42 -154h23l228 222h98l-273 -257z" />
    <glyph glyph-name="uni04A0" unicode="&#x4a0;" horiz-adv-x="876" 
d="M186 0l168 628h-229l20 72h308l-83 -308h111l365 308h112l-418 -346l255 -354h-91l-231 324h-122l-86 -324h-79z" />
    <glyph glyph-name="uni04A1" unicode="&#x4a1;" horiz-adv-x="683" 
d="M128 0l120 449h-171l18 68h248l-60 -223h80l256 223h105l-307 -261l181 -256h-86l-158 228h-89l-60 -228h-77z" />
    <glyph glyph-name="uni04A2" unicode="&#x4a2;" horiz-adv-x="772" 
d="M30 0l188 700h79l-83 -311h399l83 311h80l-169 -627h76l-60 -219h-76l40 146h-79l85 315h-399l-85 -315h-79z" />
    <glyph glyph-name="uni04A3" unicode="&#x4a3;" horiz-adv-x="647" 
d="M613 517l-120 -447h63l-56 -207h-70l37 137h-69l61 226h-304l-61 -226h-77l138 517h77l-59 -221h305l58 221h77z" />
    <glyph glyph-name="uni04A4" unicode="&#x4a4;" horiz-adv-x="1038" 
d="M498 0l84 315h-388l-85 -315h-79l188 700h79l-84 -311h389l84 311h437l-20 -73h-357l-168 -627h-80z" />
    <glyph glyph-name="uni04A5" unicode="&#x4a5;" horiz-adv-x="857" 
d="M391 0l61 226h-297l-61 -226h-77l138 517h77l-58 -221h297l59 221h366l-18 -70h-291l-119 -447h-77z" />
    <glyph glyph-name="uni04AA" unicode="&#x4aa;" horiz-adv-x="735" 
d="M276 -146l41 140q-103 19 -167.5 94.5t-64.5 188.5q0 87 35 168.5t97 143.5q123 123 288 123q93 0 160 -40.5t104 -109.5l-68 -42q-35 59 -82.5 89t-120.5 30q-123 0 -219 -94q-52 -53 -81.5 -122.5t-29.5 -142.5q0 -100 61 -159.5t158 -59.5q119 0 217 95l53 -52
q-114 -114 -269 -117l-34 -133h-78z" />
    <glyph glyph-name="uni04AB" unicode="&#x4ab;" horiz-adv-x="562" 
d="M176 -137l38 133q-73 18 -119.5 75.5t-46.5 142.5q0 130 94 224q90 90 210 90q76 0 127 -34t79 -87l-62 -40q-55 93 -149 93q-82 0 -145 -65q-75 -75 -75 -179q0 -73 45 -116.5t109 -43.5q78 0 153 68l45 -50q-90 -85 -199 -86l-32 -125h-72z" />
    <glyph glyph-name="uni04AE" unicode="&#x4ae;" horiz-adv-x="663" 
d="M216 0l76 282l-173 418h88l140 -353l330 353h101l-410 -431l-72 -269h-80z" />
    <glyph glyph-name="uni04AF" unicode="&#x4af;" horiz-adv-x="566" 
d="M201 -160h-77l46 168l-82 509h81l58 -427l285 427h88l-355 -510z" />
    <glyph glyph-name="uni04B0" unicode="&#x4b0;" horiz-adv-x="663" 
d="M216 0l60 222h-180l17 64h177l-171 414h88l140 -353l330 353h101l-394 -414h183l-17 -64h-195l-59 -222h-80z" />
    <glyph glyph-name="uni04B1" unicode="&#x4b1;" horiz-adv-x="566" 
d="M600 517l-320 -461h147l-15 -56h-168l-43 -160h-77l43 160h-156l15 56h136l-74 461h81l58 -427l285 427h88z" />
    <glyph glyph-name="uni04B2" unicode="&#x4b2;" horiz-adv-x="727" 
d="M-31 0l359 362l-176 338h87l146 -286l279 286h102l-346 -349l144 -278h86l-60 -219h-76l40 146h-39l-152 299l-291 -299h-103z" />
    <glyph glyph-name="uni04B3" unicode="&#x4b3;" horiz-adv-x="573" 
d="M198 517l98 -197l197 197h97l-263 -256l99 -191h77l-56 -207h-70l37 137h-37l-103 210l-212 -210h-97l278 268l-130 249h85z" />
    <glyph glyph-name="uni04B6" unicode="&#x4b6;" horiz-adv-x="707" 
d="M443 0l69 262q-78 -15 -155 -15q-108 0 -172.5 43.5t-64.5 137.5q0 42 16 104l45 168h80l-48 -176q-13 -49 -13 -88q0 -59 45 -88t124 -29q83 0 164 19l98 362h79l-169 -627h76l-60 -219h-76l40 146h-78z" />
    <glyph glyph-name="uni04B7" unicode="&#x4b7;" horiz-adv-x="593" 
d="M559 517l-120 -447h63l-56 -207h-70l37 137h-69l47 172q-66 -12 -118 -12q-94 0 -145 36.5t-51 110.5q0 34 15 91l32 119h77l-35 -130q-12 -46 -12 -70q0 -87 131 -87q66 0 123 13l74 274h77z" />
    <glyph glyph-name="uni04B8" unicode="&#x4b8;" horiz-adv-x="691" 
d="M376 540h61l-60 -221q78 0 156 19l98 362h79l-188 -700h-79l69 262q-78 -15 -155 -15l-43 -165h-61l46 168q-83 10 -131 54t-48 124q0 42 16 104l45 168h80l-48 -176q-13 -49 -13 -88q0 -96 118 -114z" />
    <glyph glyph-name="uni04B9" unicode="&#x4b9;" horiz-adv-x="576" 
d="M333 386l-42 -155q55 0 118 15l73 271h77l-138 -517h-77l47 174q-60 -14 -119 -14l-28 -107h-53l29 110q-145 18 -145 144q0 34 16 88l33 122h77l-36 -133q-11 -42 -11 -67q0 -70 84 -84l41 153h54z" />
    <glyph glyph-name="uni04BA" unicode="&#x4ba;" horiz-adv-x="690" 
d="M297 700l-69 -262q78 15 155 15q108 0 172.5 -43.5t64.5 -137.5q0 -42 -16 -104l-45 -168h-80l48 176q13 49 13 88q0 59 -45 88t-124 29q-83 0 -164 -19l-98 -362h-79l188 700h79z" />
    <glyph glyph-name="uni04BB" unicode="&#x4bb;" horiz-adv-x="614" 
d="M17 0l196 730h77l-80 -297q82 95 180 95q75 0 119.5 -43.5t44.5 -116.5q0 -26 -12 -80l-77 -288h-77l79 293q7 30 7 58q0 51 -30.5 79.5t-84.5 28.5q-60 0 -113.5 -47t-73.5 -120l-78 -292h-77z" />
    <glyph glyph-name="uni04C0" unicode="&#x4c0;" horiz-adv-x="291" 
d="M37 0l188 700h79l-188 -700h-79z" />
    <glyph glyph-name="uni04C1" unicode="&#x4c1;" horiz-adv-x="1077" 
d="M701 700l-84 -308h89l346 308h106l-398 -347l229 -353h-88l-205 324h-97l-86 -324h-79l87 324h-88l-366 -324h-106l422 366l-217 334h90l194 -308h89l83 308h79zM679 760q-63 0 -95.5 30.5t-22.5 83.5h56q3 -52 75 -52q70 0 102 52h63q-18 -53 -67 -83.5t-111 -30.5z" />
    <glyph glyph-name="uni04C2" unicode="&#x4c2;" horiz-adv-x="860" 
d="M538 517l-61 -224h76l244 224h102l-291 -259l166 -258h-84l-145 229h-85l-60 -229h-77l62 229h-75l-254 -229h-101l305 268l-156 249h85l136 -224h77l59 224h77zM525 593q-65 0 -97 34t-24 91h56q0 -63 73 -63q69 0 108 63h60q-20 -57 -67 -91t-109 -34z" />
    <glyph glyph-name="uni04CF" unicode="&#x4cf;" horiz-adv-x="264" 
d="M24 0l196 730h77l-196 -730h-77z" />
    <glyph glyph-name="uni04D0" unicode="&#x4d0;" horiz-adv-x="761" 
d="M-40 0l508 705h76l130 -705h-81l-32 185h-382l-132 -185h-87zM229 257h319l-63 358zM527 770q-63 0 -95.5 30.5t-22.5 83.5h56q3 -52 75 -52q70 0 102 52h63q-18 -53 -67 -83.5t-111 -30.5z" />
    <glyph glyph-name="uni04D1" unicode="&#x4d1;" horiz-adv-x="576" 
d="M183 -11q-69 0 -116.5 38.5t-47.5 104.5q0 74 49 123q64 64 181 64q84 0 184 -28l3 12q7 26 7 48q0 105 -140 105q-68 0 -146 -27l-13 64q83 31 171 31q97 0 150 -42.5t53 -117.5q0 -33 -11 -71l-78 -293h-75l22 81q-80 -92 -193 -92zM207 49q67 0 126 43.5t77 110.5
l10 36q-80 23 -168 23q-79 0 -122 -43q-33 -31 -33 -78q0 -41 30 -66.5t80 -25.5zM367 593q-65 0 -97 34t-24 91h56q0 -63 73 -63q69 0 108 63h60q-20 -57 -67 -91t-109 -34z" />
    <glyph glyph-name="uni04D2" unicode="&#x4d2;" horiz-adv-x="761" 
d="M-40 0l508 705h76l130 -705h-81l-32 185h-382l-132 -185h-87zM229 257h319l-63 358zM385 772l25 90h93l-24 -90h-94zM572 772l25 90h93l-25 -90h-93z" />
    <glyph glyph-name="uni04D3" unicode="&#x4d3;" horiz-adv-x="576" 
d="M183 -11q-69 0 -116.5 38.5t-47.5 104.5q0 74 49 123q64 64 181 64q84 0 184 -28l3 12q7 26 7 48q0 105 -140 105q-68 0 -146 -27l-13 64q83 31 171 31q97 0 150 -42.5t53 -117.5q0 -33 -11 -71l-78 -293h-75l22 81q-80 -92 -193 -92zM207 49q67 0 126 43.5t77 110.5
l10 36q-80 23 -168 23q-79 0 -122 -43q-33 -31 -33 -78q0 -41 30 -66.5t80 -25.5zM227 595l26 95h90l-26 -95h-90zM404 595l26 95h89l-26 -95h-89z" />
    <glyph glyph-name="uni04D4" unicode="&#x4d4;" horiz-adv-x="1054" 
d="M-40 0l599 700h560l-20 -72h-409l-64 -239h364l-19 -72h-364l-66 -245h414l-19 -72h-493l50 185h-284l-158 -185h-91zM268 257h243l100 373h-25z" />
    <glyph glyph-name="uni04D5" unicode="&#x4d5;" horiz-adv-x="960" 
d="M190 -11q-74 0 -122.5 38t-48.5 105q0 74 49 123q64 64 181 64q84 0 184 -28l3 12q7 26 7 48q0 105 -140 105q-68 0 -146 -27l-13 64q83 31 171 31q76 0 125 -28.5t64 -80.5q41 52 97 82.5t119 30.5q94 0 146.5 -56.5t52.5 -141.5q0 -52 -17 -98h-406q-1 -7 -1 -21
q0 -71 42 -114t114 -43q85 0 160 61l40 -50q-91 -77 -202 -77q-74 0 -126.5 31.5t-77.5 87.5q-113 -118 -255 -118zM212 49q113 0 217 110q-6 32 -3 77q-78 26 -174 26q-79 0 -122 -43q-33 -31 -33 -78q0 -42 31 -67t84 -25zM572 401q-45 -44 -66 -111h334q4 18 4 40
q0 57 -33 95t-96 38q-81 0 -143 -62z" />
    <glyph glyph-name="uni04D6" unicode="&#x4d6;" horiz-adv-x="653" 
d="M482 760q-63 0 -95.5 30.5t-22.5 83.5h56q3 -52 75 -52q69 0 102 52h63q-18 -53 -67 -83.5t-111 -30.5zM30 0l188 700h501l-20 -72h-422l-64 -239h377l-20 -72h-376l-66 -245h427l-19 -72h-506z" />
    <glyph glyph-name="uni04D7" unicode="&#x4d7;" horiz-adv-x="589" 
d="M531 232h-405q-1 -7 -1 -21q0 -70 41.5 -113.5t111.5 -43.5q86 0 163 61l39 -50q-91 -77 -208 -77q-100 0 -162 61.5t-62 158.5q0 64 26 125.5t72 107.5q87 87 203 87q94 0 147 -56.5t53 -141.5q0 -49 -18 -98zM201 401q-44 -44 -65 -111h333q5 15 5 40q0 57 -33 95
t-96 38q-80 0 -144 -62zM394 593q-65 0 -97 34t-24 91h56q0 -63 73 -63q70 0 108 63h60q-20 -57 -67 -91t-109 -34z" />
    <glyph glyph-name="uni04D8" unicode="&#x4d8;" horiz-adv-x="803" 
d="M87 256q0 61 24 131h572q1 10 1 30q0 102 -60 162t-164 60q-119 0 -238 -89l-42 61q135 100 283 100q136 0 218.5 -80t82.5 -215q0 -85 -35 -169t-95 -142q-122 -117 -278 -117q-129 0 -199 75.5t-70 192.5zM573 150q72 70 98 168h-497q-7 -24 -7 -65q0 -84 48.5 -138
t148.5 -54q118 0 209 89z" />
    <glyph glyph-name="uni04D9" unicode="&#x4d9;" horiz-adv-x="589" 
d="M42 187q0 52 17 98h406q0 3 0.5 10t0.5 11q0 70 -41.5 113.5t-111.5 43.5q-88 0 -163 -61l-40 50q91 77 209 77q100 0 162 -61.5t62 -158.5q0 -64 -26 -125.5t-72 -107.5q-87 -87 -203 -87q-94 0 -147 56.5t-53 141.5zM389 116q47 47 65 111h-333q-4 -18 -4 -40
q0 -57 33 -95t96 -38q81 0 143 62z" />
    <glyph glyph-name="uni04DC" unicode="&#x4dc;" horiz-adv-x="1077" 
d="M701 700l-84 -308h89l346 308h106l-398 -347l229 -353h-88l-205 324h-97l-86 -324h-79l87 324h-88l-366 -324h-106l422 366l-217 334h90l194 -308h89l83 308h79zM536 762l25 90h93l-24 -90h-94zM723 762l25 90h93l-25 -90h-93z" />
    <glyph glyph-name="uni04DD" unicode="&#x4dd;" horiz-adv-x="860" 
d="M538 517l-61 -224h76l244 224h102l-291 -259l166 -258h-84l-145 229h-85l-60 -229h-77l62 229h-75l-254 -229h-101l305 268l-156 249h85l136 -224h77l59 224h77zM385 595l26 95h90l-26 -95h-90zM562 595l26 95h89l-26 -95h-89z" />
    <glyph glyph-name="uni04DE" unicode="&#x4de;" horiz-adv-x="672" 
d="M301 772l25 90h93l-24 -90h-94zM488 772l25 90h93l-25 -90h-93zM181 570l-37 61q127 81 267 81q112 0 177 -50.5t65 -129.5q0 -74 -52.5 -121.5t-132.5 -64.5q55 -18 88 -56t33 -90q0 -96 -82.5 -154t-199.5 -58q-175 0 -296 114l53 54q103 -97 246 -97q84 0 140.5 38
t56.5 104q0 54 -45.5 85.5t-137.5 31.5h-111l19 69h115q106 0 164 35.5t58 101.5q0 49 -42.5 83t-120.5 34q-113 0 -225 -71z" />
    <glyph glyph-name="uni04DF" unicode="&#x4df;" horiz-adv-x="562" 
d="M211 595l26 95h90l-26 -95h-90zM388 595l26 95h89l-26 -95h-89zM242 -11q-140 0 -245 80l42 53q91 -67 201 -67q71 0 112.5 26t41.5 69q0 81 -135 81h-108l16 61h110q75 0 117 25t42 68q0 36 -32 57t-90 21q-92 0 -189 -50l-31 57q109 58 224 58q94 0 146 -38.5t52 -97.5
q0 -55 -38 -89t-99 -47q92 -31 92 -111q0 -68 -63 -112t-166 -44z" />
    <glyph glyph-name="uni04E2" unicode="&#x4e2;" horiz-adv-x="789" 
d="M361 780l17 64h329l-17 -64h-329zM727 700h81l-188 -700h-79l153 570l-594 -570h-70l188 700h79l-150 -558z" />
    <glyph glyph-name="uni04E3" unicode="&#x4e3;" horiz-adv-x="635" 
d="M249 615l17 63h319l-17 -63h-319zM538 517h80l-138 -517h-77l107 400l-415 -400h-78l138 517h77l-107 -399z" />
    <glyph glyph-name="uni04E4" unicode="&#x4e4;" horiz-adv-x="789" 
d="M380 759l25 90h93l-24 -90h-94zM567 759l25 90h93l-25 -90h-93zM727 700h81l-188 -700h-79l153 570l-594 -570h-70l188 700h79l-150 -558z" />
    <glyph glyph-name="uni04E5" unicode="&#x4e5;" horiz-adv-x="635" 
d="M270 595l26 95h90l-26 -95h-90zM447 595l26 95h89l-26 -95h-89zM538 517h80l-138 -517h-77l107 400l-415 -400h-78l138 517h77l-107 -399z" />
    <glyph glyph-name="uni04E6" unicode="&#x4e6;" horiz-adv-x="842" 
d="M406 772l25 90h93l-24 -90h-94zM593 772l25 90h93l-25 -90h-93zM496 712q134 0 220.5 -87t86.5 -216q0 -84 -34 -163.5t-93 -139.5q-121 -119 -281 -119q-134 0 -220.5 87t-86.5 217q0 84 34 163t94 139q119 119 280 119zM400 60q122 0 214 92q50 50 78 117t28 137
q0 101 -63 167t-166 66q-124 0 -214 -92q-50 -49 -78 -116t-28 -138q0 -101 63 -167t166 -66z" />
    <glyph glyph-name="uni04E7" unicode="&#x4e7;" horiz-adv-x="637" 
d="M270 595l26 95h90l-26 -95h-90zM447 595l26 95h89l-26 -95h-89zM284 -12q-105 0 -170 65t-65 167q0 126 93 217q91 91 211 91q106 0 171 -65t65 -166q0 -123 -93 -218q-91 -91 -212 -91zM289 57q83 0 147 64q74 74 74 173q0 78 -44.5 122t-117.5 44q-82 0 -147 -65
q-74 -74 -74 -173q0 -77 44.5 -121t117.5 -44z" />
    <glyph glyph-name="uni04E8" unicode="&#x4e8;" horiz-adv-x="841" 
d="M495 712q134 0 220 -87t86 -216q0 -84 -33.5 -163.5t-93.5 -139.5q-119 -119 -280 -119q-134 0 -220 87t-86 217q0 84 34 163t93 139q121 119 280 119zM615 151q71 71 95 166h-542v-24q0 -102 63.5 -168.5t167.5 -66.5q125 0 216 93zM490 642q-121 0 -216 -93
q-68 -68 -93 -161h540q1 6 1 18q0 102 -63.5 169t-168.5 67z" />
    <glyph glyph-name="uni04E9" unicode="&#x4e9;" horiz-adv-x="636" 
d="M283 -12q-105 0 -169.5 65t-64.5 167q0 125 92 217q91 91 212 91q105 0 169.5 -65t64.5 -166q0 -124 -92 -218q-93 -91 -212 -91zM289 54q84 0 150 66q46 45 65 109h-381v-5v-2q0 -78 45.5 -123t120.5 -45zM197 397q-46 -46 -64 -105h380v1v1q0 79 -45.5 124t-120.5 45
q-84 0 -150 -66z" />
    <glyph glyph-name="uni04EE" unicode="&#x4ee;" horiz-adv-x="705" 
d="M795 700l-587 -700h-94l205 244l-176 456h84l148 -394l326 394h94zM305 780l17 64h329l-17 -64h-329z" />
    <glyph glyph-name="uni04EF" unicode="&#x4ef;" horiz-adv-x="574" 
d="M181 0l-94 517h81l71 -431l277 431h88l-354 -534q-54 -79 -103 -112.5t-109 -33.5q-61 0 -113 36l42 57q35 -27 79 -27q34 0 65.5 22t69.5 75zM199 615l17 63h319l-17 -63h-319z" />
    <glyph glyph-name="uni04F0" unicode="&#x4f0;" horiz-adv-x="705" 
d="M795 700l-587 -700h-94l205 244l-176 456h84l148 -394l326 394h94zM323 759l25 90h93l-24 -90h-94zM510 759l25 90h93l-25 -90h-93z" />
    <glyph glyph-name="uni04F1" unicode="&#x4f1;" horiz-adv-x="574" 
d="M181 0l-94 517h81l71 -431l277 431h88l-354 -534q-54 -79 -103 -112.5t-109 -33.5q-61 0 -113 36l42 57q35 -27 79 -27q34 0 65.5 22t69.5 75zM220 595l26 95h90l-26 -95h-90zM397 595l26 95h89l-26 -95h-89z" />
    <glyph glyph-name="uni04F2" unicode="&#x4f2;" horiz-adv-x="705" 
d="M795 700l-587 -700h-94l205 244l-176 456h84l148 -394l326 394h94zM486 759l135 129l77 -36l-140 -93h-72zM331 759l135 129l77 -36l-140 -93h-72z" />
    <glyph glyph-name="uni04F3" unicode="&#x4f3;" horiz-adv-x="574" 
d="M181 0l-94 517h81l71 -431l277 431h88l-354 -534q-54 -79 -103 -112.5t-109 -33.5q-61 0 -113 36l42 57q35 -27 79 -27q34 0 65.5 22t69.5 75zM214 595l135 145l64 -37l-137 -108h-62zM378 595l135 145l65 -37l-139 -108h-61z" />
    <glyph glyph-name="uni04F4" unicode="&#x4f4;" horiz-adv-x="691" 
d="M443 0l69 262q-78 -15 -155 -15q-108 0 -172.5 43.5t-64.5 137.5q0 42 16 104l45 168h80l-48 -176q-13 -49 -13 -88q0 -59 45 -88t124 -29q83 0 164 19l98 362h79l-188 -700h-79zM310 759l25 90h93l-24 -90h-94zM497 759l25 90h93l-25 -90h-93z" />
    <glyph glyph-name="uni04F5" unicode="&#x4f5;" horiz-adv-x="576" 
d="M215 595l26 95h90l-26 -95h-90zM392 595l26 95h89l-26 -95h-89zM559 517l-138 -517h-77l47 172q-66 -12 -118 -12q-94 0 -145 36.5t-51 110.5q0 34 15 91l32 119h77l-35 -130q-12 -46 -12 -70q0 -87 131 -87q66 0 123 13l74 274h77z" />
    <glyph glyph-name="uni04F8" unicode="&#x4f8;" horiz-adv-x="938" 
d="M30 0l188 700h79l-68 -253h139q138 0 201 -65q50 -50 50 -128q0 -99 -66 -163q-90 -91 -283 -91h-240zM537 250q0 50 -31 82q-45 43 -146 43h-150l-81 -303h150q146 0 213 65q45 44 45 113zM690 0l188 700h79l-188 -700h-79zM445 759l25 90h93l-24 -90h-94zM632 759
l25 90h93l-25 -90h-93z" />
    <glyph glyph-name="uni04F9" unicode="&#x4f9;" horiz-adv-x="784" 
d="M502 190q0 -89 -72 -139.5t-187 -50.5h-226l138 517h77l-47 -178h117q99 0 149.5 -40t50.5 -109zM424 185q0 89 -127 89h-130l-56 -208h142q78 0 124.5 32t46.5 87zM552 0l138 517h77l-139 -517h-76zM343 595l26 95h90l-26 -95h-90zM520 595l26 95h89l-26 -95h-89z" />
    <glyph glyph-name="baht" unicode="&#xe3f;" horiz-adv-x="634" 
d="M21 0l188 700h213q4 0 13 -0.5t14 -0.5l34 80h61l-39 -89q62 -16 94 -55.5t32 -97.5q0 -73 -50 -121.5t-134 -65.5q56 -13 88 -49t32 -93q0 -92 -79 -150t-215 -58h-59l-49 -118h-61l49 118h-132zM494 211q0 109 -147 112l-108 -256h45q99 0 154.5 38t55.5 106zM197 383
h121l106 250h-5h-155zM556 527q0 81 -81 100l-102 -244q86 4 134.5 42.5t48.5 101.5zM112 67h74l107 256h-113z" />
    <glyph glyph-name="Wgrave" unicode="&#x1e80;" horiz-adv-x="1083" 
d="M625 762l-90 93l79 36l66 -129h-55zM206 -5l-61 705h82l44 -583l347 585h65l37 -585l356 583h89l-439 -705h-69l-40 565l-343 -565h-68z" />
    <glyph glyph-name="wgrave" unicode="&#x1e81;" horiz-adv-x="848" 
d="M137 -4l-41 521h78l27 -412l250 414h64l29 -414l249 412h80l-322 -521h-68l-30 408l-249 -408h-67zM467 595l-83 108l81 37l56 -145h-54z" />
    <glyph glyph-name="Wacute" unicode="&#x1e82;" horiz-adv-x="1083" 
d="M626 762l135 129l78 -36l-139 -93h-74zM206 -5l-61 705h82l44 -583l347 585h65l37 -585l356 583h89l-439 -705h-69l-40 565l-343 -565h-68z" />
    <glyph glyph-name="wacute" unicode="&#x1e83;" horiz-adv-x="848" 
d="M465 595l134 145l80 -37l-142 -108h-72zM137 -4l-41 521h78l27 -412l250 414h64l29 -414l249 412h80l-322 -521h-68l-30 408l-249 -408h-67z" />
    <glyph glyph-name="Wdieresis" unicode="&#x1e84;" horiz-adv-x="1083" 
d="M525 762l25 90h93l-24 -90h-94zM712 762l25 90h93l-25 -90h-93zM206 -5l-61 705h82l44 -583l347 585h65l37 -585l356 583h89l-439 -705h-69l-40 565l-343 -565h-68z" />
    <glyph glyph-name="wdieresis" unicode="&#x1e85;" horiz-adv-x="848" 
d="M371 595l26 95h90l-26 -95h-90zM548 595l26 95h89l-26 -95h-89zM137 -4l-41 521h78l27 -412l250 414h64l29 -414l249 412h80l-322 -521h-68l-30 408l-249 -408h-67z" />
    <glyph glyph-name="Ygrave" unicode="&#x1ef2;" horiz-adv-x="663" 
d="M216 0l76 282l-173 418h88l140 -353l330 353h101l-410 -431l-72 -269h-80zM410 759l-90 93l79 36l66 -129h-55z" />
    <glyph glyph-name="ygrave" unicode="&#x1ef3;" horiz-adv-x="574" 
d="M181 0l-94 517h81l71 -431l277 431h88l-354 -534q-54 -79 -103 -112.5t-109 -33.5q-61 0 -113 36l42 57q35 -27 79 -27q34 0 65.5 22t69.5 75zM318 595l-83 108l81 37l56 -145h-54z" />
    <glyph glyph-name="enspace" unicode="&#x2002;" horiz-adv-x="500" 
 />
    <glyph glyph-name="emspace" unicode="&#x2003;" horiz-adv-x="1000" 
 />
    <glyph glyph-name="threeperemspace" unicode="&#x2004;" horiz-adv-x="333" 
 />
    <glyph glyph-name="fourperemspace" unicode="&#x2005;" horiz-adv-x="250" 
 />
    <glyph glyph-name="figurespace" unicode="&#x2007;" horiz-adv-x="600" 
 />
    <glyph glyph-name="thinspace" unicode="&#x2009;" horiz-adv-x="133" 
 />
    <glyph glyph-name="hairspace" unicode="&#x200a;" horiz-adv-x="75" 
 />
    <glyph glyph-name="endash" unicode="&#x2013;" horiz-adv-x="529" 
d="M66 262l20 77h399l-20 -77h-399z" />
    <glyph glyph-name="emdash" unicode="&#x2014;" horiz-adv-x="899" 
d="M66 262l20 77h769l-20 -77h-769z" />
    <glyph glyph-name="quoteleft" unicode="&#x2018;" horiz-adv-x="246" 
d="M131 478l24 91q18 64 51 94.5t95 41.5l7 -35q-81 -20 -93 -87h36l-28 -105h-92z" />
    <glyph glyph-name="quoteright" unicode="&#x2019;" horiz-adv-x="246" 
d="M123 474l-8 34q80 19 93 87h-36l28 105h92l-24 -90q-18 -64 -51 -94.5t-94 -41.5z" />
    <glyph glyph-name="quotesinglbase" unicode="&#x201a;" horiz-adv-x="246" 
d="M-42 -121l-8 34q82 21 94 87h-36l28 105h92l-24 -90q-19 -64 -51.5 -94.5t-94.5 -41.5z" />
    <glyph glyph-name="quotedblleft" unicode="&#x201c;" horiz-adv-x="446" 
d="M131 478l24 90q18 64 51 94.5t95 41.5l7 -34q-81 -21 -93 -87h36l-28 -105h-92zM331 478l24 90q18 64 51 94.5t95 41.5l7 -34q-81 -21 -93 -87h36l-28 -105h-92z" />
    <glyph glyph-name="quotedblright" unicode="&#x201d;" horiz-adv-x="446" 
d="M123 474l-8 34q80 19 93 87h-36l28 105h92l-24 -90q-18 -64 -51 -94.5t-94 -41.5zM323 474l-8 34q80 19 93 87h-36l28 105h92l-24 -90q-18 -64 -51 -94.5t-94 -41.5z" />
    <glyph glyph-name="quotedblbase" unicode="&#x201e;" horiz-adv-x="447" 
d="M-42 -121l-8 34q82 21 94 87h-36l28 105h92l-24 -90q-19 -64 -51.5 -94.5t-94.5 -41.5zM159 -121l-8 34q82 21 94 87h-37l29 105h92l-25 -90q-18 -64 -51 -94.5t-94 -41.5z" />
    <glyph glyph-name="dagger" unicode="&#x2020;" horiz-adv-x="411" 
d="M159 238l81 282l-125 -8l15 55l120 -8l30 141h61l-47 -141l125 8l-15 -55l-122 8l-68 -282h-55z" />
    <glyph glyph-name="daggerdbl" unicode="&#x2021;" horiz-adv-x="431" 
d="M102 0l46 141l-125 -8l15 55l121 -8l40 170l51 170l-125 -8l15 55l120 -8l30 141h61l-47 -141l125 8l-15 -55l-121 8l-39 -170l-52 -170l125 8l-14 -55l-121 8l-29 -141h-61z" />
    <glyph glyph-name="bullet" unicode="&#x2022;" horiz-adv-x="478" 
d="M278 488q48 0 78 -30t30 -80q0 -67 -49 -118q-46 -44 -101 -44q-48 0 -78 30t-30 81q0 70 49 117q42 44 101 44z" />
    <glyph glyph-name="ellipsis" unicode="&#x2026;" horiz-adv-x="725" 
d="M8 0l28 104h90l-28 -104h-90zM248 0l28 104h91l-28 -104h-91zM488 0l28 104h91l-28 -104h-91z" />
    <glyph glyph-name="perthousand" unicode="&#x2030;" horiz-adv-x="1226" 
d="M64 0l339 350l340 350h79l-340 -350l-339 -350h-79zM232 346q-62 0 -101.5 42t-39.5 104q0 94 66 162q54 54 125 54q63 0 102.5 -42t39.5 -104q0 -95 -67 -162q-54 -54 -125 -54zM237 401q41 0 75 34q50 50 50 122q0 44 -22.5 70t-61.5 26q-41 0 -75 -34
q-50 -50 -50 -122q0 -44 22 -70t62 -26zM603 -8q-62 0 -101.5 42t-39.5 104q0 94 66 162q54 54 126 54q62 0 101.5 -42t39.5 -104q0 -94 -66 -162q-54 -54 -126 -54zM608 47q41 0 75 34q50 50 50 122q0 44 -22.5 70t-61.5 26q-41 0 -75 -34q-50 -50 -50 -122q0 -44 22.5 -70
t61.5 -26zM992 -8q-62 0 -101.5 42t-39.5 104q0 94 66 162q54 54 126 54q62 0 101.5 -42t39.5 -104q0 -94 -66 -162q-54 -54 -126 -54zM997 47q41 0 75 34q50 50 50 122q0 44 -22.5 70t-61.5 26q-41 0 -75 -34q-50 -50 -50 -122q0 -44 22.5 -70t61.5 -26z" />
    <glyph glyph-name="guilsinglleft" unicode="&#x2039;" horiz-adv-x="328" 
d="M153 40l-108 212l2 8l225 215l47 -41l-185 -187l79 -178z" />
    <glyph glyph-name="guilsinglright" unicode="&#x203a;" horiz-adv-x="328" 
d="M175 474l108 -212l-2 -8l-225 -215l-47 41l185 187l-79 178z" />
    <glyph glyph-name="fraction" unicode="&#x2044;" horiz-adv-x="100" 
d="M-310 0l342 359l320 341h59l-343 -359l-319 -341h-59z" />
    <glyph glyph-name="zero.sup" unicode="&#x2070;" 
d="M454 692q0 -60 -24 -123t-66 -104q-51 -51 -111 -51q-53 0 -84.5 35t-31.5 94t24.5 122.5t65.5 104.5q49 51 111 51q53 0 84.5 -35t31.5 -94zM192 546q0 -84 66 -84q35 0 66 31q34 33 55 91.5t21 104.5q0 40 -17 62t-49 22q-36 0 -67 -31q-34 -33 -54.5 -91t-20.5 -105z
" />
    <glyph glyph-name="four.sup" unicode="&#x2074;" 
d="M296 423l23 88h-189l1 48l258 258h61l-71 -262h54l-11 -44h-54l-24 -88h-48zM185 554h146l53 200z" />
    <glyph glyph-name="five.sup" unicode="&#x2075;" 
d="M263 414q-93 0 -140 68l40 30q38 -51 102 -51q46 0 75 25t29 64q0 31 -22.5 48.5t-59.5 17.5q-39 0 -77 -20l-34 26l64 189h223l-14 -50h-178l-40 -115q28 14 68 14q57 0 90.5 -29t33.5 -79q0 -58 -44 -98t-116 -40z" />
    <glyph glyph-name="six.sup" unicode="&#x2076;" 
d="M259 415q-59 0 -93.5 35.5t-34.5 103.5q0 58 23 115.5t62 96.5q55 55 127 55q70 0 112 -50l-32 -36q-33 39 -83 39q-51 0 -90 -39q-42 -44 -61 -113q38 50 104 50q47 0 79 -29t32 -80q0 -58 -42.5 -103t-102.5 -45zM260 459q39 0 66 29.5t27 68.5q0 33 -19.5 52.5
t-52.5 19.5q-40 0 -70 -28q-27 -29 -27 -67q0 -34 20.5 -54.5t55.5 -20.5z" />
    <glyph glyph-name="seven.sup" unicode="&#x2077;" 
d="M145 422l255 339h-207l13 50h267l-10 -40l-258 -349h-60z" />
    <glyph glyph-name="eight.sup" unicode="&#x2078;" 
d="M269 414q-62 0 -103 30t-41 75q0 46 30.5 74.5t79.5 37.5q-53 25 -53 81q0 46 40.5 77.5t101.5 31.5q58 0 95 -29t37 -74q0 -39 -26.5 -65.5t-67.5 -35.5q62 -26 62 -88q0 -49 -43.5 -82t-111.5 -33zM271 457q45 0 73 21t28 54q0 30 -25.5 49.5t-67.5 19.5
q-46 0 -74.5 -21t-28.5 -54q0 -30 26.5 -49.5t68.5 -19.5zM314 643q43 0 67.5 20t24.5 50q0 28 -23 46.5t-59 18.5q-40 0 -65.5 -19.5t-25.5 -50.5q0 -29 22.5 -47t58.5 -18z" />
    <glyph glyph-name="nine.sup" unicode="&#x2079;" 
d="M250 414q-74 0 -119 56l32 35q40 -44 90 -44q51 0 91 40t59 110q-14 -20 -41.5 -36t-62.5 -16q-47 0 -79 30t-32 81q0 58 41.5 104t101.5 46q59 0 94.5 -36t35.5 -103q0 -59 -22.5 -116t-60.5 -95q-56 -56 -128 -56zM312 602q40 0 68 28t28 69q0 35 -21 56.5t-56 21.5
q-40 -1 -66 -31.5t-26 -69.5q0 -34 19.5 -54t53.5 -20z" />
    <glyph glyph-name="zero.inf" unicode="&#x2080;" 
d="M306 136q0 -60 -24 -123t-66 -104q-51 -51 -111 -51q-53 0 -84.5 35t-31.5 94t24.5 122.5t65.5 104.5q49 51 111 51q53 0 84.5 -35t31.5 -94zM44 -10q0 -84 66 -84q35 0 66 31q34 33 55 91.5t21 104.5q0 40 -17 62t-49 22q-36 0 -67 -31q-34 -33 -54.5 -91t-20.5 -105z
" />
    <glyph glyph-name="one.inf" unicode="&#x2081;" horiz-adv-x="325" 
d="M55 -132l90 336l-94 -32l-2 47l121 43h42l-105 -394h-52z" />
    <glyph glyph-name="two.inf" unicode="&#x2082;" 
d="M-43 -132l11 44l213 159q65 48 65 89q0 27 -19.5 42.5t-50.5 15.5q-52 0 -106 -54l-32 32q62 69 141 69q54 0 87 -28t33 -72q0 -34 -20.5 -63.5t-68.5 -63.5l-167 -122h205l-13 -48h-278z" />
    <glyph glyph-name="three.inf" unicode="&#x2083;" 
d="M109 -142q-96 0 -138 71l38 29q38 -53 99 -53q44 0 72.5 22t28.5 56q0 64 -92 64h-20l-10 31l157 129h-187l14 48h255l-11 -41l-160 -129q47 -4 77.5 -28.5t30.5 -68.5q0 -55 -45.5 -92.5t-108.5 -37.5z" />
    <glyph glyph-name="four.inf" unicode="&#x2084;" 
d="M148 -133l23 88h-189l1 48l258 258h61l-71 -262h54l-11 -44h-54l-24 -88h-48zM37 -2h146l53 200z" />
    <glyph glyph-name="five.inf" unicode="&#x2085;" 
d="M114 -142q-93 0 -140 68l40 30q38 -51 102 -51q46 0 75 25t29 64q0 31 -22.5 48.5t-59.5 17.5q-39 0 -77 -20l-34 26l64 189h223l-14 -50h-178l-40 -115q28 14 68 14q57 0 90.5 -29t33.5 -79q0 -58 -44 -98t-116 -40z" />
    <glyph glyph-name="six.inf" unicode="&#x2086;" 
d="M111 -141q-59 0 -93.5 35.5t-34.5 103.5q0 58 23 115.5t62 96.5q55 55 127 55q70 0 112 -50l-32 -36q-33 39 -83 39q-51 0 -90 -39q-42 -44 -61 -113q38 50 104 50q47 0 79 -29t32 -80q0 -58 -42.5 -103t-102.5 -45zM112 -97q39 0 66 29.5t27 68.5q0 33 -19.5 52.5
t-52.5 19.5q-40 0 -70 -28q-27 -29 -27 -67q0 -34 20.5 -54.5t55.5 -20.5z" />
    <glyph glyph-name="seven.inf" unicode="&#x2087;" 
d="M7 -134l255 339h-207l13 50h267l-10 -40l-258 -349h-60z" />
    <glyph glyph-name="eight.inf" unicode="&#x2088;" 
d="M121 -142q-62 0 -103 30t-41 75q0 46 30.5 74.5t79.5 37.5q-53 25 -53 81q0 46 40.5 77.5t101.5 31.5q58 0 95 -29t37 -74q0 -39 -26.5 -65.5t-67.5 -35.5q62 -26 62 -88q0 -49 -43.5 -82t-111.5 -33zM123 -99q45 0 73 21t28 54q0 30 -25.5 49.5t-67.5 19.5
q-46 0 -74.5 -21t-28.5 -54q0 -30 26.5 -49.5t68.5 -19.5zM166 87q43 0 67.5 20t24.5 50q0 28 -23 46.5t-59 18.5q-40 0 -65.5 -19.5t-25.5 -50.5q0 -29 22.5 -47t58.5 -18z" />
    <glyph glyph-name="nine.inf" unicode="&#x2089;" 
d="M102 -142q-74 0 -119 56l32 35q40 -44 90 -44q51 0 91 40t59 110q-14 -20 -41.5 -36t-62.5 -16q-47 0 -79 30t-32 81q0 58 41.5 104t101.5 46q59 0 94.5 -36t35.5 -103q0 -59 -22.5 -116t-60.5 -95q-56 -56 -128 -56zM164 46q40 0 68 28t28 69q0 35 -21 56.5t-56 21.5
q-40 -1 -66 -31.5t-26 -69.5q0 -34 19.5 -54t53.5 -20z" />
    <glyph glyph-name="colonmonetary" unicode="&#x20a1;" horiz-adv-x="605" 
d="M600 779h53l-57 -135q26 -19 49 -48l-47 -53q-20 24 -33 35l-217 -514q71 5 144 62l35 -54q-92 -73 -204 -74l-48 -116h-53l50 120q-47 8 -83 28l-62 -148h-53l73 176q-89 76 -89 215q0 96 34.5 182t94.5 147q97 97 231 100l33 77h53l-34 -81q48 -8 84 -27zM214 96
q39 -25 87 -31l227 541q-41 24 -87 28zM135 271q0 -90 45 -143l212 507q-84 -9 -148 -73q-52 -52 -81.5 -130.5t-27.5 -160.5z" />
    <glyph glyph-name="naira" unicode="&#x20a6;" horiz-adv-x="825" 
d="M773 227h-101l-60 -227h-88l-80 227h-235l-60 -227h-74l60 227h-100l16 56h99l37 138h-99l15 56h99l60 223h96l77 -223h230l60 223h74l-60 -223h101l-15 -56h-101l-37 -138h101zM261 422l-38 -140h205l-49 140h-118zM451 422l48 -140h115l37 140h-200zM312 610l-37 -135
h85l-47 135h-1zM563 100h2l34 129h-81z" />
    <glyph glyph-name="rupee" unicode="&#x20a8;" horiz-adv-x="1081" 
d="M931 139q0 28 -20.5 48t-75.5 41q-73 29 -106.5 60t-33.5 82q0 67 53 112.5t137 45.5q102 0 185 -67l-43 -53q-73 58 -148 58q-50 0 -80 -25t-30 -58q0 -28 21 -47t78 -43q72 -29 104.5 -61t32.5 -81q0 -71 -56 -116.5t-136 -45.5q-126 0 -216 87l46 50q79 -75 175 -75
q45 0 79 25t34 63zM432 0l-108 269h-165l-72 -269h-75l188 700h198q109 0 168.5 -52t59.5 -137q0 -95 -64.5 -156.5t-161.5 -78.5l116 -276h-84zM178 336h143q100 0 164 44t64 130q0 57 -39 89t-112 32h-142z" />
    <glyph glyph-name="won" unicode="&#x20a9;" horiz-adv-x="1105" 
d="M1058 229h-177l-127 -232h-93l-6 232h-222l-129 -232h-92l-4 232h-176l15 56h160l-2 133h-122l15 56h106l-3 226h81l-1 -226h213l126 228h95l2 -228h215l119 226h89l-124 -226h108l-15 -56h-124l-73 -133h161zM537 419l-75 -136h193l-3 136h-115zM278 419l-2 -134h116
l72 134h-186zM718 419l2 -134h115l69 134h-186zM275 78h5l81 151h-85zM724 78h4l78 151h-85zM644 612l-76 -138h83l-2 138h-5z" />
    <glyph glyph-name="sheqel" unicode="&#x20aa;" horiz-adv-x="623" 
d="M3 0l138 517h151q144 0 144 -109q0 -27 -9 -60l-44 -165h-54l38 144q8 32 8 52q0 72 -94 72h-93l-121 -451h-64zM360 0q-167 0 -151 167l17 175h52l-14 -154q-5 -67 18 -94.5t79 -27.5h73l121 451h64l-138 -517h-121z" />
    <glyph glyph-name="Euro" unicode="&#x20ac;" horiz-adv-x="694" 
d="M78 408l17 62h72q36 85 95 143q97 99 232 99q89 0 146 -43.5t82 -116.5l-68 -31q-26 59 -64.5 89t-104.5 30q-91 0 -163 -72q-45 -45 -68 -98h273l-17 -62h-279q-17 -52 -21 -108h272l-17 -63h-255q6 -81 51 -129t119 -48q103 0 185 90l53 -46q-101 -116 -240 -116
q-106 0 -174.5 67t-75.5 182h-95l17 63h78q5 58 19 108h-69z" />
    <glyph glyph-name="peso" unicode="&#x20b1;" horiz-adv-x="724" 
d="M749 443h-87q-15 -65 -61 -113q-94 -94 -280 -94h-113l-63 -236h-80l119 443h-98l15 55h98l54 202h166q135 0 200 -65q50 -50 50 -132v-5h95zM224 304h101q147 0 215 68q30 30 42 73h-320zM312 630l-37 -135h314v5q0 53 -32 85q-45 45 -139 45h-106z" />
    <glyph glyph-name="hryvnia" unicode="&#x20b4;" horiz-adv-x="635" 
d="M568 223l-301 45q-60 -35 -82.5 -64t-22.5 -64q0 -38 31 -60.5t89 -22.5q92 0 201 61l31 -64q-121 -66 -236 -66q-99 0 -150 41.5t-51 106.5q0 81 87 147l-110 17l18 47l153 -23q1 0 3 2l128 73l-249 38l17 47l301 -45q100 58 100 122q0 37 -30 59t-88 22q-85 0 -179 -55
l-32 63q112 62 218 62q97 0 146 -41.5t49 -104.5q0 -77 -82 -142l112 -17l-18 -47l-155 23l-4 -2l-127 -74l251 -37z" />
    <glyph glyph-name="numero" unicode="&#x2116;" horiz-adv-x="1123" 
d="M21 0l186 700h72l210 -563l150 563h75l-187 -700h-63l-215 577l-153 -577h-75zM917 282q-72 0 -113.5 46t-41.5 122q0 53 20.5 104.5t53.5 84.5q67 65 144 65q72 0 113.5 -46.5t41.5 -122.5q0 -53 -20.5 -104.5t-53.5 -84.5q-64 -64 -144 -64zM920 336q50 0 91 41
q28 28 44 70.5t16 86.5q0 52 -24.5 83.5t-69.5 31.5q-50 0 -91 -41q-27 -28 -43.5 -70.5t-16.5 -86.5q0 -52 24.5 -83.5t69.5 -31.5zM691 144l15 51h332l-15 -51h-332z" />
    <glyph glyph-name="published" unicode="&#x2117;" horiz-adv-x="830" 
d="M369 543h121q62 0 98.5 -27.5t36.5 -81.5q0 -64 -50 -100.5t-134 -36.5h-83l-33 -125h-56zM568 432q0 61 -79 61h-79l-39 -146h74q123 0 123 85zM478 712q144 0 232.5 -90.5t88.5 -227.5q0 -81 -31 -157t-88 -133q-116 -116 -279 -116q-144 0 -232.5 90.5t-88.5 227.5
q0 81 31 157t88 133q116 116 279 116zM403 19q145 0 249 104q112 112 112 271q0 122 -77.5 204.5t-211.5 82.5q-145 0 -249 -104q-112 -112 -112 -270q0 -123 78 -205.5t211 -82.5z" />
    <glyph glyph-name="servicemark" unicode="&#x2120;" horiz-adv-x="707" 
d="M204 387q-83 0 -129 59l32 26q43 -48 101 -48q31 0 51 15t20 38q0 17 -12.5 28t-48.5 25q-45 17 -65 35.5t-20 47.5q0 32 25 59q35 33 94 33q69 0 109 -47l-30 -29q-36 39 -85 39q-30 0 -49 -14.5t-19 -34.5q0 -17 14.5 -29t52.5 -26q41 -15 59.5 -33.5t18.5 -47.5
q0 -36 -27 -63q-33 -33 -92 -33zM375 392l87 308h42l65 -169l154 169h51l-87 -308h-43l67 236l-155 -167h-5l-65 167l-67 -236h-44z" />
    <glyph glyph-name="trademark" unicode="&#x2122;" horiz-adv-x="693" 
d="M150 392l74 266h-98l12 42h241l-12 -42h-98l-75 -266h-44zM361 392l87 308h42l65 -169l154 169h51l-87 -308h-43l67 236l-155 -167h-5l-65 167l-67 -236h-44z" />
    <glyph glyph-name="Omega" unicode="&#x2126;" horiz-adv-x="864" 
d="M502 639q-133 0 -219 -86q-88 -88 -88 -223q0 -142 126 -264l-18 -66h-293l19 70l209 -1q-125 123 -125 271q0 154 106 258q114 114 289 114q144 0 228.5 -77.5t84.5 -205.5q0 -206 -252 -360l202 1l-19 -70h-307l19 66q132 76 202.5 161t72.5 192q2 98 -61.5 159
t-175.5 61z" />
    <glyph glyph-name="onethird" unicode="&#x2153;" horiz-adv-x="825" 
d="M555 -10q-96 0 -138 71l38 29q38 -53 99 -53q44 0 72.5 22t28.5 56q0 64 -92 64h-20l-10 31l157 129h-187l14 48h255l-11 -41l-160 -129q47 -4 77.5 -28.5t30.5 -68.5q0 -55 -45.5 -92.5t-108.5 -37.5zM147 313l89 336l-93 -32l-2 47l121 42h41l-105 -393h-51zM17 0
l342 359l320 341h59l-343 -359l-319 -341h-59z" />
    <glyph glyph-name="twothirds" unicode="&#x2154;" horiz-adv-x="900" 
d="M630 -10q-96 0 -138 71l38 29q38 -53 99 -53q44 0 72.5 22t28.5 56q0 64 -92 64h-20l-10 31l157 129h-187l14 48h255l-11 -41l-160 -129q47 -4 77.5 -28.5t30.5 -68.5q0 -55 -45.5 -92.5t-108.5 -37.5zM42 313l11 44l213 159q33 24 48.5 44.5t15.5 44.5q0 27 -19 42.5
t-51 15.5q-51 0 -105 -54l-33 32q64 69 142 69q54 0 87 -28t33 -72q0 -34 -21 -63.5t-69 -63.5l-166 -123h204l-12 -47h-278zM90 0l342 359l320 341h59l-343 -359l-319 -341h-59z" />
    <glyph glyph-name="onefifth" unicode="&#x2155;" horiz-adv-x="825" 
d="M559 -10q-93 0 -140 68l40 30q37 -51 102 -51q46 0 75 25t29 64q0 31 -22.5 48.5t-59.5 17.5q-39 0 -77 -20l-34 26l64 189h223l-14 -50h-178l-40 -115q28 14 68 14q57 0 90.5 -29t33.5 -79q0 -58 -44 -98t-116 -40zM147 313l89 336l-93 -32l-2 47l121 42h41l-105 -393
h-51zM22 0l342 359l320 341h59l-343 -359l-319 -341h-59z" />
    <glyph glyph-name="twofifths" unicode="&#x2156;" horiz-adv-x="900" 
d="M42 313l11 44l213 159q33 24 48.5 44.5t15.5 44.5q0 27 -19 42.5t-51 15.5q-51 0 -105 -54l-33 32q64 69 142 69q54 0 87 -28t33 -72q0 -34 -21 -63.5t-69 -63.5l-166 -123h204l-12 -47h-278zM100 0l342 359l320 341h59l-343 -359l-319 -341h-59zM634 -10q-93 0 -140 68
l40 30q38 -51 102 -51q46 0 75 25t29 64q0 31 -22.5 48.5t-59.5 17.5q-39 0 -77 -20l-34 26l64 189h223l-14 -50h-178l-40 -115q28 14 68 14q57 0 90.5 -29t33.5 -79q0 -58 -44 -98t-116 -40z" />
    <glyph glyph-name="threefifths" unicode="&#x2157;" horiz-adv-x="900" 
d="M634 -10q-93 0 -140 68l40 30q38 -51 102 -51q46 0 75 25t29 64q0 31 -22.5 48.5t-59.5 17.5q-39 0 -77 -20l-34 26l64 189h223l-14 -50h-178l-40 -115q28 14 68 14q57 0 90.5 -29t33.5 -79q0 -58 -44 -98t-116 -40zM85 0l342 359l320 341h59l-343 -359l-319 -341h-59z
M194 303q-98 0 -138 71l37 29q37 -53 100 -53q44 0 72.5 22t28.5 56q0 64 -93 64h-19l-10 31l156 129h-187l14 48h256l-12 -41l-160 -129q47 -4 77.5 -28.5t30.5 -68.5q0 -55 -45 -92.5t-108 -37.5z" />
    <glyph glyph-name="fourfifths" unicode="&#x2158;" horiz-adv-x="900" 
d="M232 311l23 88h-189l2 48l258 258h60l-70 -262h54l-12 -44h-54l-23 -88h-49zM634 -10q-93 0 -140 68l40 30q38 -51 102 -51q46 0 75 25t29 64q0 31 -22.5 48.5t-59.5 17.5q-39 0 -77 -20l-34 26l64 189h223l-14 -50h-178l-40 -115q28 14 68 14q57 0 90.5 -29t33.5 -79
q0 -58 -44 -98t-116 -40zM100 0l342 359l320 341h59l-343 -359l-319 -341h-59zM122 443h145l54 199z" />
    <glyph glyph-name="onesixth" unicode="&#x2159;" horiz-adv-x="825" 
d="M556 -9q-59 0 -93.5 35.5t-34.5 103.5q0 58 23 115.5t62 96.5q55 55 127 55q70 0 112 -50l-32 -36q-33 39 -83 39q-51 0 -90 -39q-42 -44 -61 -113q38 50 104 50q47 0 79 -29t32 -80q0 -58 -42.5 -103t-102.5 -45zM30 0l342 359l320 341h59l-343 -359l-319 -341h-59z
M147 313l89 336l-93 -32l-2 47l121 42h41l-105 -393h-51zM557 35q39 0 66 29.5t27 68.5q0 33 -19.5 52.5t-52.5 19.5q-40 0 -70 -28q-27 -29 -27 -67q0 -34 20.5 -54.5t55.5 -20.5z" />
    <glyph glyph-name="fivesixths" unicode="&#x215a;" horiz-adv-x="900" 
d="M631 -9q-59 0 -93.5 35.5t-34.5 103.5q0 58 23 115.5t62 96.5q55 55 127 55q70 0 112 -50l-32 -36q-33 39 -83 39q-51 0 -90 -39q-42 -44 -61 -113q38 50 104 50q47 0 79 -29t32 -80q0 -58 -42.5 -103t-102.5 -45zM199 303q-95 0 -140 68l40 30q36 -51 101 -51
q46 0 75 25t29 64q0 31 -22.5 48.5t-58.5 17.5q-41 0 -77 -21l-35 27l64 189h223l-13 -50h-179l-40 -115q28 14 68 14q56 0 90 -29.5t34 -78.5q0 -57 -44 -97.5t-115 -40.5zM90 0l342 359l320 341h59l-343 -359l-319 -341h-59zM632 35q39 0 66 29.5t27 68.5q0 33 -19.5 52.5
t-52.5 19.5q-40 0 -70 -28q-27 -29 -27 -67q0 -34 20.5 -54.5t55.5 -20.5z" />
    <glyph glyph-name="oneeighth" unicode="&#x215b;" horiz-adv-x="825" 
d="M567 -10q-62 0 -103 30t-41 75q0 46 30.5 74.5t79.5 37.5q-53 25 -53 81q0 46 40.5 77.5t101.5 31.5q58 0 95 -29t37 -74q0 -39 -26.5 -65.5t-67.5 -35.5q62 -26 62 -88q0 -49 -43.5 -82t-111.5 -33zM569 33q45 0 73 21t28 54q0 30 -25.5 49.5t-67.5 19.5
q-46 0 -74.5 -21t-28.5 -54q0 -30 26.5 -49.5t68.5 -19.5zM612 219q43 0 67.5 20t24.5 50q0 28 -23 46.5t-59 18.5q-40 0 -65.5 -19.5t-25.5 -50.5q0 -29 22.5 -47t58.5 -18zM147 313l89 336l-93 -32l-2 47l121 42h41l-105 -393h-51zM28 0l342 359l320 341h59l-343 -359
l-319 -341h-59z" />
    <glyph glyph-name="threeeighths" unicode="&#x215c;" horiz-adv-x="900" 
d="M642 -10q-62 0 -103 30t-41 75q0 46 30.5 74.5t79.5 37.5q-53 25 -53 81q0 46 40.5 77.5t101.5 31.5q58 0 95 -29t37 -74q0 -39 -26.5 -65.5t-67.5 -35.5q62 -26 62 -88q0 -49 -43.5 -82t-111.5 -33zM644 33q45 0 73 21t28 54q0 30 -25.5 49.5t-67.5 19.5
q-46 0 -74.5 -21t-28.5 -54q0 -30 26.5 -49.5t68.5 -19.5zM687 219q43 0 67.5 20t24.5 50q0 28 -23 46.5t-59 18.5q-40 0 -65.5 -19.5t-25.5 -50.5q0 -29 22.5 -47t58.5 -18zM90 0l342 359l320 341h59l-343 -359l-319 -341h-59zM194 303q-98 0 -138 71l37 29q37 -53 100 -53
q44 0 72.5 22t28.5 56q0 64 -93 64h-19l-10 31l156 129h-187l14 48h256l-12 -41l-160 -129q47 -4 77.5 -28.5t30.5 -68.5q0 -55 -45 -92.5t-108 -37.5z" />
    <glyph glyph-name="fiveeighths" unicode="&#x215d;" horiz-adv-x="900" 
d="M642 -10q-62 0 -103 30t-41 75q0 46 30.5 74.5t79.5 37.5q-53 25 -53 81q0 46 40.5 77.5t101.5 31.5q58 0 95 -29t37 -74q0 -39 -26.5 -65.5t-67.5 -35.5q62 -26 62 -88q0 -49 -43.5 -82t-111.5 -33zM644 33q45 0 73 21t28 54q0 30 -25.5 49.5t-67.5 19.5
q-46 0 -74.5 -21t-28.5 -54q0 -30 26.5 -49.5t68.5 -19.5zM687 219q43 0 67.5 20t24.5 50q0 28 -23 46.5t-59 18.5q-40 0 -65.5 -19.5t-25.5 -50.5q0 -29 22.5 -47t58.5 -18zM199 303q-95 0 -140 68l40 30q36 -51 101 -51q46 0 75 25t29 64q0 31 -22.5 48.5t-58.5 17.5
q-41 0 -77 -21l-35 27l64 189h223l-13 -50h-179l-40 -115q28 14 68 14q56 0 90 -29.5t34 -78.5q0 -57 -44 -97.5t-115 -40.5zM90 0l342 359l320 341h59l-343 -359l-319 -341h-59z" />
    <glyph glyph-name="seveneighths" unicode="&#x215e;" horiz-adv-x="900" 
d="M642 -10q-62 0 -103 30t-41 75q0 46 30.5 74.5t79.5 37.5q-53 25 -53 81q0 46 40.5 77.5t101.5 31.5q58 0 95 -29t37 -74q0 -39 -26.5 -65.5t-67.5 -35.5q62 -26 62 -88q0 -49 -43.5 -82t-111.5 -33zM644 33q45 0 73 21t28 54q0 30 -25.5 49.5t-67.5 19.5
q-46 0 -74.5 -21t-28.5 -54q0 -30 26.5 -49.5t68.5 -19.5zM687 219q43 0 67.5 20t24.5 50q0 28 -23 46.5t-59 18.5q-40 0 -65.5 -19.5t-25.5 -50.5q0 -29 22.5 -47t58.5 -18zM102 311l255 339h-208l14 50h267l-10 -40l-258 -349h-60zM60 0l342 359l320 341h59l-343 -359
l-319 -341h-59z" />
    <glyph glyph-name="Delta" unicode="&#x2206;" horiz-adv-x="763" 
d="M545 705l132 -647l-23 -58h-675l9 58l478 647h79zM486 612l-396 -540h501z" />
    <glyph glyph-name="minus" unicode="&#x2212;" horiz-adv-x="625" 
d="M84 315l19 74h490l-20 -74h-489z" />
    <glyph glyph-name="Q.alt" horiz-adv-x="842" 
d="M496 712q134 0 220.5 -87t86.5 -216q0 -84 -34 -163.5t-94 -139.5l-10 -10l69 -79l-62 -46l-64 81q-97 -65 -213 -65q-134 0 -220.5 87t-86.5 217q0 84 34 163t94 139q119 119 280 119zM400 60q85 0 162 49l-109 130l62 47l102 -131q49 50 76 116t27 135q0 101 -63 167
t-166 66q-124 0 -214 -92q-50 -49 -78 -116t-28 -138q0 -101 63 -167t166 -66z" />
    <glyph glyph-name="a.alt" horiz-adv-x="661" 
d="M256 -12q-89 0 -147 61t-58 158q0 141 96 237q84 84 194 84q139 0 194 -128l31 117h77l-138 -517h-77l24 88q-89 -100 -196 -100zM278 56q84 0 153 69q77 77 77 175q0 68 -45 114t-115 46q-82 0 -142 -60q-74 -72 -74 -186q0 -72 40 -115t106 -43z" />
    <glyph glyph-name="uni039E.alt" horiz-adv-x="715" 
d="M669 388l-19 -71h-238l-65 -245h269l-19 -72h-617l19 72h270l66 245h-238l20 71h237l65 240h-265l19 72h607l-19 -72h-265l-65 -240h238z" />
    <glyph glyph-name="uni0424.bgr" horiz-adv-x="932" 
d="M329 -100l28 103q-123 19 -195.5 99.5t-73.5 197.5q0 160 115 273q130 129 331 129h10l26 98h80l-27 -104q122 -19 195 -99.5t73 -196.5q0 -161 -114 -273q-131 -129 -331 -129h-11l-26 -98h-80zM170 300q1 -90 56 -152t152 -75l150 557h-3q-159 0 -261 -102
q-94 -94 -94 -228zM809 400q0 89 -55 151t-152 75l-150 -556h2q160 0 262 102q93 93 93 228z" />
    <glyph glyph-name="uni0432.bgr" horiz-adv-x="637" 
d="M308 -12q-115 0 -180 56.5t-65 155.5q0 34 16 100l52 195q29 107 90 168q74 74 190 74q97 0 153 -51t56 -128q0 -78 -53 -131t-143 -70q138 -44 138 -164q0 -89 -70 -147t-184 -58zM310 56q79 0 126 40.5t47 99.5q0 61 -52 99t-154 38h-112l-13 -49q-13 -50 -13 -80
q0 -69 44.5 -108.5t126.5 -39.5zM206 485l-25 -91h125q135 0 195 62q40 40 40 97q0 52 -35.5 84.5t-96.5 32.5q-80 0 -133 -53q-47 -47 -70 -132z" />
    <glyph glyph-name="uni0433.bgr" horiz-adv-x="510" 
d="M110 122q0 -67 102 -67q91 0 193 48l25 -61q-115 -52 -222 -52q-82 0 -128 34t-46 95q0 62 46 101t160 73q102 30 133.5 52t31.5 55q0 61 -95 61q-77 0 -168 -44l-25 62q102 47 194 47q84 0 127 -34t43 -93q0 -63 -47 -99t-165 -70q-95 -28 -127 -52.5t-32 -55.5z" />
    <glyph glyph-name="uni0434.bgr" horiz-adv-x="659" 
d="M240 -162q-71 0 -138 24t-115 66l48 54q91 -78 204 -78q94 0 145 53q41 40 65 124l14 52q-91 -93 -198 -93q-86 0 -148 53t-62 142q0 120 87 207q86 86 203 86q132 0 190 -124l30 113h77l-118 -443q-30 -109 -84 -163q-73 -73 -200 -73zM287 106q90 0 158 68
q63 63 63 140q0 60 -43.5 103t-115.5 43q-86 0 -149 -63q-64 -64 -64 -152q0 -66 44 -102.5t107 -36.5z" />
    <glyph glyph-name="uni0436.bgr" horiz-adv-x="860" 
d="M595 730l-118 -437h76l244 224h102l-291 -259l166 -258h-84l-145 229h-85l-60 -229h-77l62 229h-75l-254 -229h-101l305 268l-156 249h85l136 -224h77l116 437h77z" />
    <glyph glyph-name="uni0438.bgr" horiz-adv-x="614" 
d="M224 -11q-75 0 -120 43.5t-45 116.5q0 30 13 80l76 288h77l-78 -293q-8 -27 -8 -58q0 -51 31 -79.5t85 -28.5q61 0 114 47t73 121l78 291h77l-139 -517h-76l22 84q-84 -95 -180 -95z" />
    <glyph glyph-name="uni0439.bgr" horiz-adv-x="614" 
d="M224 -11q-75 0 -120 43.5t-45 116.5q0 30 13 80l76 288h77l-78 -293q-8 -27 -8 -58q0 -51 31 -79.5t85 -28.5q61 0 114 47t73 121l78 291h77l-139 -517h-76l22 84q-84 -95 -180 -95zM394 593q-65 0 -97 34t-24 91h56q0 -63 73 -63q70 0 108 63h60q-20 -57 -67 -91
t-109 -34z" />
    <glyph glyph-name="uni043A.bgr" horiz-adv-x="572" 
d="M487 0h-86l-158 228h-89l-60 -228h-77l196 730h77l-118 -436h80l256 223h105l-307 -261z" />
    <glyph glyph-name="uni043F.bgr" horiz-adv-x="614" 
d="M17 0l138 517h77l-22 -84q82 95 180 95q75 0 119.5 -43.5t44.5 -116.5q0 -26 -12 -80l-77 -288h-77l79 293q7 30 7 58q0 51 -30.5 79.5t-84.5 28.5q-60 0 -113.5 -47t-73.5 -120l-78 -292h-77z" />
    <glyph glyph-name="uni0442.bgr" horiz-adv-x="952" 
d="M17 0l138 517h77l-22 -84q41 47 80 71t92 24q61 0 98 -33.5t49 -83.5q76 117 208 117q70 0 114 -44t44 -116q0 -22 -15 -80l-76 -288h-77l78 293q8 27 8 58q0 50 -28.5 79t-78.5 29q-57 0 -108.5 -47.5t-70.5 -119.5l-78 -292h-76l78 293q8 27 8 58q0 50 -29 79t-79 29
q-57 0 -108.5 -47.5t-70.5 -119.5l-78 -292h-77z" />
    <glyph glyph-name="uni0446.bgr" horiz-adv-x="630" 
d="M224 -11q-75 0 -120 43.5t-45 116.5q0 30 13 80l76 288h77l-78 -293q-8 -27 -8 -58q0 -51 31 -79.5t85 -28.5q61 0 114 47t73 121l78 291h77l-120 -447h61l-56 -207h-70l37 137h-67l22 84q-84 -95 -180 -95z" />
    <glyph glyph-name="uni0448.bgr" horiz-adv-x="953" 
d="M935 517l-138 -517h-77l23 84q-41 -46 -80.5 -70.5t-91.5 -24.5q-61 0 -98.5 33.5t-48.5 83.5q-76 -117 -208 -117q-70 0 -114 44t-44 116q0 26 14 80l76 288h77l-78 -293q-8 -27 -8 -58q0 -50 29 -79t79 -29q57 0 108.5 48t70.5 120l77 291h77l-78 -293q-8 -27 -8 -58
q0 -50 28.5 -79t78.5 -29q57 0 108.5 48t70.5 120l78 291h77z" />
    <glyph glyph-name="uni0449.bgr" horiz-adv-x="969" 
d="M935 517l-120 -447h61l-56 -207h-70l37 137h-67l23 84q-41 -46 -80.5 -70.5t-91.5 -24.5q-61 0 -98.5 33.5t-48.5 83.5q-76 -117 -208 -117q-70 0 -114 44t-44 116q0 26 14 80l76 288h77l-78 -293q-8 -27 -8 -58q0 -50 29 -79t79 -29q57 0 108.5 48t70.5 120l77 291h77
l-78 -293q-8 -27 -8 -58q0 -50 28.5 -79t78.5 -29q57 0 108.5 48t70.5 120l78 291h77z" />
    <glyph glyph-name="uni044E.bgr" horiz-adv-x="862" 
d="M513 -12q-102 0 -165 65.5t-63 167.5v5h-130l-61 -226h-77l196 730h77l-116 -434h121q23 83 85 145q87 87 204 87q103 0 166 -65t63 -167q0 -125 -95 -220q-86 -88 -205 -88zM517 57q80 0 142 62q75 75 75 174q0 78 -42 122.5t-111 44.5q-80 0 -143 -63q-74 -76 -74 -174
q0 -78 41.5 -122t111.5 -44z" />
    <glyph glyph-name="aacute.alt" horiz-adv-x="661" 
d="M368 595l134 145l80 -37l-142 -108h-72zM256 -12q-89 0 -147 61t-58 158q0 141 96 237q84 84 194 84q139 0 194 -128l31 117h77l-138 -517h-77l24 88q-89 -100 -196 -100zM278 56q84 0 153 69q77 77 77 175q0 68 -45 114t-115 46q-82 0 -142 -60q-74 -72 -74 -186
q0 -72 40 -115t106 -43z" />
    <glyph glyph-name="abreve.alt" horiz-adv-x="661" 
d="M256 -12q-89 0 -147 61t-58 158q0 141 96 237q84 84 194 84q139 0 194 -128l31 117h77l-138 -517h-77l24 88q-89 -100 -196 -100zM278 56q84 0 153 69q77 77 77 175q0 68 -45 114t-115 46q-82 0 -142 -60q-74 -72 -74 -186q0 -72 40 -115t106 -43zM413 593q-65 0 -97 34
t-24 91h56q0 -63 73 -63q70 0 108 63h60q-20 -57 -67 -91t-109 -34z" />
    <glyph glyph-name="acircumflex.alt" horiz-adv-x="661" 
d="M263 595l141 131h68l71 -131h-62l-54 67l-96 -67h-68zM256 -12q-89 0 -147 61t-58 158q0 141 96 237q84 84 194 84q139 0 194 -128l31 117h77l-138 -517h-77l24 88q-89 -100 -196 -100zM278 56q84 0 153 69q77 77 77 175q0 68 -45 114t-115 46q-82 0 -142 -60
q-74 -72 -74 -186q0 -72 40 -115t106 -43z" />
    <glyph glyph-name="adieresis.alt" horiz-adv-x="661" 
d="M274 595l26 95h90l-26 -95h-90zM451 595l26 95h89l-26 -95h-89zM256 -12q-89 0 -147 61t-58 158q0 141 96 237q84 84 194 84q139 0 194 -128l31 117h77l-138 -517h-77l24 88q-89 -100 -196 -100zM278 56q84 0 153 69q77 77 77 175q0 68 -45 114t-115 46q-82 0 -142 -60
q-74 -72 -74 -186q0 -72 40 -115t106 -43z" />
    <glyph glyph-name="agrave.alt" horiz-adv-x="661" 
d="M256 -12q-89 0 -147 61t-58 158q0 141 96 237q84 84 194 84q139 0 194 -128l31 117h77l-138 -517h-77l24 88q-89 -100 -196 -100zM278 56q84 0 153 69q77 77 77 175q0 68 -45 114t-115 46q-82 0 -142 -60q-74 -72 -74 -186q0 -72 40 -115t106 -43zM370 595l-83 108l81 37
l56 -145h-54z" />
    <glyph glyph-name="amacron.alt" horiz-adv-x="661" 
d="M256 -12q-89 0 -147 61t-58 158q0 141 96 237q84 84 194 84q139 0 194 -128l31 117h77l-138 -517h-77l24 88q-89 -100 -196 -100zM278 56q84 0 153 69q77 77 77 175q0 68 -45 114t-115 46q-82 0 -142 -60q-74 -72 -74 -186q0 -72 40 -115t106 -43zM254 615l17 63h319
l-17 -63h-319z" />
    <glyph glyph-name="aogonek.alt" horiz-adv-x="661" 
d="M489 -120l-11 -44q-5 -1 -14 -1q-108 6 -108 66q0 48 72 99l24 88q-89 -100 -196 -100q-89 0 -147 61t-58 158q0 141 96 237q84 84 194 84q139 0 194 -128l31 117h77l-138 -517h-9q-71 -51 -71 -84q0 -16 14.5 -24t49.5 -12zM278 56q84 0 153 69q77 77 77 175
q0 68 -45 114t-115 46q-82 0 -142 -60q-74 -72 -74 -186q0 -72 40 -115t106 -43z" />
    <glyph glyph-name="aring.alt" horiz-adv-x="661" 
d="M547 707q0 -46 -36 -80t-85 -34q-45 0 -74 27t-29 68q0 46 36 80t85 34q45 0 74 -27t29 -68zM365 690q0 -26 17 -43t45 -17q31 0 54.5 22.5t23.5 52.5q0 27 -17 43.5t-45 16.5q-32 0 -55 -22.5t-23 -52.5zM256 -12q-89 0 -147 61t-58 158q0 141 96 237q84 84 194 84
q139 0 194 -128l31 117h77l-138 -517h-77l24 88q-89 -100 -196 -100zM278 56q84 0 153 69q77 77 77 175q0 68 -45 114t-115 46q-82 0 -142 -60q-74 -72 -74 -186q0 -72 40 -115t106 -43z" />
    <glyph glyph-name="aring.alt2" horiz-adv-x="576" 
d="M354 0l22 81q-80 -92 -193 -92q-69 0 -116.5 38.5t-47.5 104.5q0 74 49 123q64 64 181 64q84 0 184 -28l3 12q7 26 7 48q0 105 -140 105q-68 0 -146 -27l-13 64q67 25 131 29q-22 25 -22 61q0 45 36 79t85 34q45 0 73.5 -27t28.5 -68q0 -61 -58 -94q100 -37 100 -143
q0 -33 -11 -71l-78 -293h-75zM357 524q31 0 54.5 22.5t23.5 52.5q0 27 -17 43.5t-46 16.5q-31 0 -54 -22.5t-23 -52.5q0 -27 16.5 -43.5t45.5 -16.5zM207 49q67 0 126 43.5t77 110.5l10 36q-80 23 -168 23q-79 0 -122 -43q-33 -31 -33 -78q0 -41 30 -66.5t80 -25.5z" />
    <glyph glyph-name="aringacute.alt" horiz-adv-x="661" 
d="M436 831l131 126l74 -37l-137 -89h-68zM547 707q0 -46 -36 -80t-85 -34q-45 0 -74 27t-29 68q0 46 36 80t85 34q45 0 74 -27t29 -68zM365 690q0 -26 17 -43t45 -17q31 0 54.5 22.5t23.5 52.5q0 27 -17 43.5t-45 16.5q-32 0 -55 -22.5t-23 -52.5zM256 -12q-89 0 -147 61
t-58 158q0 141 96 237q84 84 194 84q139 0 194 -128l31 117h77l-138 -517h-77l24 88q-89 -100 -196 -100zM278 56q84 0 153 69q77 77 77 175q0 68 -45 114t-115 46q-82 0 -142 -60q-74 -72 -74 -186q0 -72 40 -115t106 -43z" />
    <glyph glyph-name="aringacute.alt2" horiz-adv-x="576" 
d="M368 734l132 126l74 -38l-137 -88h-69zM354 0l22 81q-80 -92 -193 -92q-69 0 -116.5 38.5t-47.5 104.5q0 74 49 123q64 64 181 64q84 0 184 -28l3 12q7 26 7 48q0 105 -140 105q-68 0 -146 -27l-13 64q67 25 131 29q-22 25 -22 61q0 45 36 79t85 34q45 0 73.5 -27
t28.5 -68q0 -61 -58 -94q100 -37 100 -143q0 -33 -11 -71l-78 -293h-75zM357 524q31 0 54.5 22.5t23.5 52.5q0 27 -17 43.5t-46 16.5q-31 0 -54 -22.5t-23 -52.5q0 -27 16.5 -43.5t45.5 -16.5zM207 49q67 0 126 43.5t77 110.5l10 36q-80 23 -168 23q-79 0 -122 -43
q-33 -31 -33 -78q0 -41 30 -66.5t80 -25.5z" />
    <glyph glyph-name="atilde.alt" horiz-adv-x="661" 
d="M256 -12q-89 0 -147 61t-58 158q0 141 96 237q84 84 194 84q139 0 194 -128l31 117h77l-138 -517h-77l24 88q-89 -100 -196 -100zM278 56q84 0 153 69q77 77 77 175q0 68 -45 114t-115 46q-82 0 -142 -60q-74 -72 -74 -186q0 -72 40 -115t106 -43zM546 713l47 -13
q-25 -58 -50 -81.5t-61 -23.5q-23 0 -69 21q-40 19 -57 19q-19 0 -32 -10.5t-29 -38.5l-47 14q25 57 50 80.5t61 23.5q23 0 69 -21q40 -19 57 -19q19 0 32 10.5t29 38.5z" />
    <glyph glyph-name="i.dot" horiz-adv-x="264" 
d="M24 0l139 517h77l-139 -517h-77zM188 630l23 85h88l-23 -85h-88z" />
    <glyph glyph-name="uni0386.calt" horiz-adv-x="761" 
d="M-40 0l508 705h76l130 -705h-81l-32 185h-382l-132 -185h-87zM229 257h319l-63 358z" />
    <glyph glyph-name="uni0388.calt" horiz-adv-x="653" 
d="M30 0l188 700h501l-20 -72h-422l-64 -239h377l-20 -72h-376l-66 -245h427l-19 -72h-506z" />
    <glyph glyph-name="uni0389.calt" horiz-adv-x="756" 
d="M30 0l188 700h79l-83 -311h399l83 311h80l-188 -700h-80l85 315h-399l-85 -315h-79z" />
    <glyph glyph-name="uni038A.calt" horiz-adv-x="291" 
d="M37 0l188 700h79l-188 -700h-79z" />
    <glyph glyph-name="uni038C.calt" horiz-adv-x="842" 
d="M496 712q134 0 220.5 -87t86.5 -216q0 -84 -34 -163.5t-93 -139.5q-121 -119 -281 -119q-134 0 -220.5 87t-86.5 217q0 84 34 163t94 139q119 119 280 119zM400 60q122 0 214 92q50 50 78 117t28 137q0 101 -63 167t-166 66q-124 0 -214 -92q-50 -49 -78 -116t-28 -138
q0 -101 63 -167t166 -66z" />
    <glyph glyph-name="uni038E.calt" horiz-adv-x="663" 
d="M216 0l76 282l-173 418h88l140 -353l330 353h101l-410 -431l-72 -269h-80z" />
    <glyph glyph-name="uni038F.calt" horiz-adv-x="864" 
d="M502 639q-133 0 -219 -86q-88 -88 -88 -223q0 -142 126 -264l-18 -66h-293l19 70l209 -1q-125 123 -125 271q0 154 106 258q114 114 289 114q144 0 228.5 -77.5t84.5 -205.5q0 -206 -252 -360l202 1l-19 -70h-307l19 66q132 76 202.5 161t72.5 192q2 98 -61.5 159
t-175.5 61z" />
    <glyph glyph-name="uni0399.calt" horiz-adv-x="291" 
d="M37 0l188 700h79l-188 -700h-79zM141 762l25 90h93l-24 -90h-94zM328 762l25 90h93l-25 -90h-93z" />
    <glyph glyph-name="uni03A5.calt" horiz-adv-x="663" 
d="M216 0l76 282l-173 418h88l140 -353l330 353h101l-410 -431l-72 -269h-80zM310 759l25 90h93l-24 -90h-94zM497 759l25 90h93l-25 -90h-93z" />
    <glyph glyph-name="uni0431.srb" horiz-adv-x="619" 
d="M283 -12q-106 0 -171 63.5t-65 161.5q0 109 77 188q84 84 213 84h1l-37 31q-46 35 -65 61.5t-19 57.5q0 42 34.5 68.5t96.5 26.5h291l-19 -68l-272 1q-56 0 -56 -36q0 -14 11 -27.5t42 -39.5l104 -88q63 -51 92 -100.5t29 -113.5q0 -46 -19.5 -96t-57.5 -88
q-86 -86 -210 -86zM287 56q85 0 147 61q27 27 42.5 67t15.5 78q0 72 -43 117t-116 45q-87 0 -148 -61q-60 -57 -60 -148q0 -72 45 -115.5t117 -43.5z" />
    <glyph glyph-name="three.alt" horiz-adv-x="606" 
d="M259 -12q-91 0 -156 35.5t-101 92.5l63 43q70 -99 199 -99q80 0 131 40t51 97q0 61 -51.5 91.5t-136.5 30.5h-43l18 68h51q106 0 167.5 37t61.5 102q0 52 -40.5 82.5t-103.5 30.5q-96 0 -181 -70l-46 52q103 90 232 90q96 0 159 -48.5t63 -127.5q0 -73 -51.5 -120
t-144.5 -65q56 -18 92 -56.5t36 -96.5q0 -89 -77 -149t-192 -60z" />
    <glyph glyph-name="registered.alt" horiz-adv-x="830" 
d="M478 712q144 0 232.5 -90.5t88.5 -227.5q0 -81 -31 -157t-88 -133q-116 -116 -279 -116q-144 0 -232.5 90.5t-88.5 227.5q0 81 31 157t88 133q116 116 279 116zM403 19q145 0 249 104q112 112 112 271q0 122 -77.5 204.5t-211.5 82.5q-145 0 -249 -104
q-112 -112 -112 -270q0 -123 78 -205.5t211 -82.5zM343 315l-38 -140h-54l99 371h143q71 0 105 -34q26 -26 26 -67q0 -46 -33 -81q-32 -32 -92 -43l73 -146h-62l-69 140h-98zM356 364h94q71 0 99 30q19 19 19 47q0 23 -12 35q-22 20 -72 20h-93z" />
    <glyph glyph-name="one.sup_alt" 
d="M126 424l12 45h108l78 291l-109 -36l-2 47l137 47h41l-93 -349h106l-12 -45h-266z" />
    <glyph glyph-name="one.inf_alt" 
d="M-22 -132l12 45h108l78 291l-109 -36l-2 47l137 47h41l-93 -349h106l-12 -45h-266z" />
    <glyph glyph-name="zero.num" 
d="M400 581q0 -60 -24 -123t-66 -104q-49 -51 -111 -51q-53 0 -84 35t-31 94q0 60 24 123t66 104q51 51 111 51q52 0 83.5 -35t31.5 -94zM138 435q0 -84 66 -84q36 0 67 31q33 33 54 91t21 105q0 84 -66 84q-36 0 -67 -31q-33 -33 -54 -91.5t-21 -104.5z" />
    <glyph glyph-name="one.num" horiz-adv-x="325" 
d="M150 313l89 336l-93 -32l-2 47l121 42h41l-105 -393h-51z" />
    <glyph glyph-name="one.num_alt" 
d="M73 313l12 45h108l78 291l-110 -36l-1 47l137 46h41l-93 -348h106l-12 -45h-266z" />
    <glyph glyph-name="two.num" 
d="M52 313l11 44l213 159q33 24 48.5 44.5t15.5 44.5q0 27 -19 42.5t-51 15.5q-51 0 -105 -54l-33 32q64 69 142 69q54 0 87 -28t33 -72q0 -34 -21 -63.5t-69 -63.5l-166 -123h204l-12 -47h-278z" />
    <glyph glyph-name="three.num" 
d="M204 303q-98 0 -138 71l37 29q37 -53 100 -53q44 0 72.5 22t28.5 56q0 64 -93 64h-19l-10 31l156 129h-187l14 48h256l-12 -41l-160 -129q47 -4 77.5 -28.5t30.5 -68.5q0 -55 -45 -92.5t-108 -37.5z" />
    <glyph glyph-name="four.num" 
d="M242 311l23 88h-189l2 48l258 258h60l-70 -262h54l-12 -44h-54l-23 -88h-49zM132 443h145l54 199z" />
    <glyph glyph-name="five.num" 
d="M209 303q-95 0 -140 68l40 30q36 -51 101 -51q46 0 75 25t29 64q0 31 -22.5 48.5t-58.5 17.5q-41 0 -77 -21l-35 27l64 189h223l-13 -50h-179l-40 -115q28 14 68 14q56 0 90 -29.5t34 -78.5q0 -57 -44 -97.5t-115 -40.5z" />
    <glyph glyph-name="six.num" 
d="M205 304q-59 0 -93 36t-34 103q0 58 23 115.5t62 96.5q55 55 126 55q69 0 113 -50l-32 -36q-35 39 -83 39q-51 0 -90 -39q-42 -44 -61 -113q38 50 104 50q47 0 79 -29.5t32 -79.5q0 -58 -43 -103t-103 -45zM207 347q39 0 65.5 29.5t26.5 68.5q0 33 -19.5 53t-52.5 20
q-39 0 -69 -28q-27 -27 -27 -67q0 -34 20.5 -55t55.5 -21z" />
    <glyph glyph-name="seven.num" 
d="M102 311l255 339h-208l14 50h267l-10 -40l-258 -349h-60z" />
    <glyph glyph-name="eight.num" 
d="M216 303q-62 0 -103 30t-41 75q0 46 30.5 74.5t79.5 37.5q-53 25 -53 80q0 46 40 78t102 32q58 0 95 -29t37 -74q0 -39 -26.5 -66t-67.5 -36q62 -24 62 -87q0 -49 -43.5 -82t-111.5 -33zM218 346q44 0 72.5 21.5t28.5 53.5q0 30 -26 49.5t-68 19.5q-45 0 -73.5 -21
t-29.5 -54q0 -29 27 -49t69 -20zM261 532q42 0 67 20t25 50q0 28 -23 46.5t-59 18.5q-40 0 -65.5 -19.5t-25.5 -50.5q-1 -29 22 -47t59 -18z" />
    <glyph glyph-name="nine.num" 
d="M195 303q-72 0 -119 56l32 35q41 -44 90 -44q51 0 91 40q40 38 59 110q-14 -20 -41.5 -36t-62.5 -16q-46 0 -78.5 30t-32.5 81q0 58 41.5 104t101.5 46q59 0 94.5 -36t35.5 -103q0 -59 -22 -116t-60 -95q-58 -56 -129 -56zM257 491q42 0 68 28q28 26 28 69q0 35 -20.5 56
t-55.5 21q-40 0 -66 -30.5t-26 -69.5q0 -34 19 -54t53 -20z" />
    <glyph glyph-name="zero.den" 
d="M317 268q0 -60 -24 -123t-66 -104q-51 -51 -111 -51q-53 0 -84.5 35t-31.5 94t24.5 122.5t65.5 104.5q49 51 111 51q53 0 84.5 -35t31.5 -94zM55 122q0 -84 66 -84q35 0 66 31q34 33 55 91.5t21 104.5q0 40 -17 62t-49 22q-36 0 -67 -31q-34 -33 -54.5 -91t-20.5 -105z
" />
    <glyph glyph-name="one.den" horiz-adv-x="325" 
d="M66 0l90 336l-94 -32l-2 47l121 43h42l-105 -394h-52z" />
    <glyph glyph-name="one.den_alt" 
d="M-11 0l12 45h108l78 291l-109 -36l-2 47l137 47h41l-93 -349h106l-12 -45h-266z" />
    <glyph glyph-name="two.den" 
d="M-32 0l11 44l213 159q65 48 65 89q0 27 -19.5 42.5t-50.5 15.5q-52 0 -106 -54l-32 32q62 69 141 69q54 0 87 -28t33 -72q0 -34 -20.5 -63.5t-68.5 -63.5l-167 -122h205l-13 -48h-278z" />
    <glyph glyph-name="three.den" 
d="M120 -10q-96 0 -138 71l38 29q38 -53 99 -53q44 0 72.5 22t28.5 56q0 64 -92 64h-20l-10 31l157 129h-187l14 48h255l-11 -41l-160 -129q47 -4 77.5 -28.5t30.5 -68.5q0 -55 -45.5 -92.5t-108.5 -37.5z" />
    <glyph glyph-name="four.den" 
d="M158 -1l23 88h-189l1 48l258 258h61l-71 -262h54l-11 -44h-54l-24 -88h-48zM47 130h146l53 200z" />
    <glyph glyph-name="five.den" 
d="M124 -10q-93 0 -140 68l40 30q37 -51 102 -51q46 0 75 25t29 64q0 31 -22.5 48.5t-59.5 17.5q-39 0 -77 -20l-34 26l64 189h223l-14 -50h-178l-40 -115q28 14 68 14q57 0 90.5 -29t33.5 -79q0 -58 -44 -98t-116 -40z" />
    <glyph glyph-name="six.den" 
d="M121 -9q-59 0 -93.5 35.5t-34.5 103.5q0 58 23 115.5t62 96.5q55 55 127 55q70 0 112 -50l-32 -36q-33 39 -83 39q-51 0 -90 -39q-42 -44 -61 -113q38 50 104 50q47 0 79 -29t32 -80q0 -58 -42.5 -103t-102.5 -45zM122 35q39 0 66 29.5t27 68.5q0 33 -19.5 52.5
t-52.5 19.5q-40 0 -70 -28q-27 -29 -27 -67q0 -34 20.5 -54.5t55.5 -20.5z" />
    <glyph glyph-name="seven.den" 
d="M18 -2l255 339h-207l13 50h267l-10 -40l-258 -349h-60z" />
    <glyph glyph-name="eight.den" 
d="M132 -10q-62 0 -103 30t-41 75q0 46 30.5 74.5t79.5 37.5q-53 25 -53 81q0 46 40.5 77.5t101.5 31.5q58 0 95 -29t37 -74q0 -39 -26.5 -65.5t-67.5 -35.5q62 -26 62 -88q0 -49 -43.5 -82t-111.5 -33zM134 33q45 0 73 21t28 54q0 30 -25.5 49.5t-67.5 19.5
q-46 0 -74.5 -21t-28.5 -54q0 -30 26.5 -49.5t68.5 -19.5zM177 219q43 0 67.5 20t24.5 50q0 28 -23 46.5t-59 18.5q-40 0 -65.5 -19.5t-25.5 -50.5q0 -29 22.5 -47t58.5 -18z" />
    <glyph glyph-name="nine.den" 
d="M112 -10q-74 0 -119 56l32 35q40 -44 90 -44q51 0 91 40t59 110q-14 -20 -41.5 -36t-62.5 -16q-47 0 -79 30t-32 81q0 58 41.5 104t101.5 46q59 0 94.5 -36t35.5 -103q0 -59 -22.5 -116t-60.5 -95q-56 -56 -128 -56zM174 178q40 0 68 28t28 69q0 35 -21 56.5t-56 21.5
q-40 -1 -66 -31.5t-26 -69.5q0 -34 19.5 -54t53.5 -20z" />
    <glyph glyph-name="onehalf.alt" horiz-adv-x="900" 
d="M68 313l12 45h108l78 291l-110 -36l-1 47l137 46h41l-93 -348h106l-12 -45h-266zM478 0l11 44l213 159q65 48 65 89q0 27 -19.5 42.5t-50.5 15.5q-52 0 -106 -54l-32 32q62 69 141 69q54 0 87 -28t33 -72q0 -34 -20.5 -63.5t-68.5 -63.5l-167 -122h205l-13 -48h-278z
M110 0l342 359l320 341h59l-343 -359l-319 -341h-59z" />
    <glyph glyph-name="onethird.alt" horiz-adv-x="900" 
d="M68 313l12 45h108l78 291l-110 -36l-1 47l137 46h41l-93 -348h106l-12 -45h-266zM630 -10q-96 0 -138 71l38 29q38 -53 99 -53q44 0 72.5 22t28.5 56q0 64 -92 64h-20l-10 31l157 129h-187l14 48h255l-11 -41l-160 -129q47 -4 77.5 -28.5t30.5 -68.5q0 -55 -45.5 -92.5
t-108.5 -37.5zM100 0l342 359l320 341h59l-343 -359l-319 -341h-59z" />
    <glyph glyph-name="onequarter.alt" horiz-adv-x="900" 
d="M658 -1l23 88h-189l1 48l258 258h61l-71 -262h54l-11 -44h-54l-24 -88h-48zM115 0l342 359l320 341h59l-343 -359l-319 -341h-59zM68 313l12 45h108l78 291l-110 -36l-1 47l137 46h41l-93 -348h106l-12 -45h-266zM547 130h146l53 200z" />
    <glyph glyph-name="onefifth.alt" horiz-adv-x="900" 
d="M68 313l12 45h108l78 291l-110 -36l-1 47l137 46h41l-93 -348h106l-12 -45h-266zM634 -10q-93 0 -140 68l40 30q38 -51 102 -51q46 0 75 25t29 64q0 31 -22.5 48.5t-59.5 17.5q-39 0 -77 -20l-34 26l64 189h223l-14 -50h-178l-40 -115q28 14 68 14q57 0 90.5 -29
t33.5 -79q0 -58 -44 -98t-116 -40zM105 0l342 359l320 341h59l-343 -359l-319 -341h-59z" />
    <glyph glyph-name="onesixth.alt" horiz-adv-x="900" 
d="M631 -9q-59 0 -93.5 35.5t-34.5 103.5q0 58 23 115.5t62 96.5q55 55 127 55q70 0 112 -50l-32 -36q-33 39 -83 39q-51 0 -90 -39q-42 -44 -61 -113q38 50 104 50q47 0 79 -29t32 -80q0 -58 -42.5 -103t-102.5 -45zM105 0l342 359l320 341h59l-343 -359l-319 -341h-59z
M68 313l12 45h108l78 291l-110 -36l-1 47l137 46h41l-93 -348h106l-12 -45h-266zM632 35q39 0 66 29.5t27 68.5q0 33 -19.5 52.5t-52.5 19.5q-40 0 -70 -28q-27 -29 -27 -67q0 -34 20.5 -54.5t55.5 -20.5z" />
    <glyph glyph-name="oneeighth.alt" horiz-adv-x="900" 
d="M68 313l12 45h108l78 291l-110 -36l-1 47l137 46h41l-93 -348h106l-12 -45h-266zM642 -10q-62 0 -103 30t-41 75q0 46 30.5 74.5t79.5 37.5q-53 25 -53 81q0 46 40.5 77.5t101.5 31.5q58 0 95 -29t37 -74q0 -39 -26.5 -65.5t-67.5 -35.5q62 -26 62 -88q0 -49 -43.5 -82
t-111.5 -33zM644 33q45 0 73 21t28 54q0 30 -25.5 49.5t-67.5 19.5q-46 0 -74.5 -21t-28.5 -54q0 -30 26.5 -49.5t68.5 -19.5zM687 219q43 0 67.5 20t24.5 50q0 28 -23 46.5t-59 18.5q-40 0 -65.5 -19.5t-25.5 -50.5q0 -29 22.5 -47t58.5 -18zM105 0l342 359l320 341h59
l-343 -359l-319 -341h-59z" />
    <glyph glyph-name="zero.tab" horiz-adv-x="600" 
d="M566 475q0 -111 -41 -221.5t-112 -181.5q-82 -84 -185 -84q-92 0 -143.5 62.5t-51.5 174.5q0 111 41 221.5t112 181.5q84 84 186 84q92 0 143 -62.5t51 -174.5zM110 227q0 -84 32 -127t92 -43q66 0 123 57q59 60 96 163.5t37 195.5q0 84 -32 127t-92 43q-66 0 -123 -57
q-60 -60 -96.5 -163t-36.5 -196z" />
    <glyph glyph-name="one.tab" horiz-adv-x="600" 
d="M-5 0l18 69h206l146 547l-199 -64l-3 71l247 82h56l-170 -636h187l-18 -69h-470z" />
    <glyph glyph-name="two.tab" horiz-adv-x="600" 
d="M-42 0l16 61l394 307q58 46 85 83t27 80q0 48 -36.5 78t-97.5 30q-100 0 -198 -103l-50 51q116 123 252 123q94 0 152.5 -48.5t58.5 -125.5q0 -60 -36 -109.5t-114 -109.5l-317 -245h374l-19 -72h-491z" />
    <glyph glyph-name="three.tab" horiz-adv-x="600" 
d="M228 -12q-87 0 -149 34.5t-95 93.5l60 44q62 -101 187 -101q80 0 134.5 44.5t54.5 111.5q0 58 -49 87t-131 29h-29l-15 48l289 250h-351l20 71h455l-17 -65l-288 -246q84 -4 141 -48t57 -120q0 -100 -80.5 -166.5t-193.5 -66.5z" />
    <glyph glyph-name="three.tab_alt" horiz-adv-x="600" 
d="M228 -12q-90 0 -155 35t-100 92l62 43q68 -99 199 -99q80 0 130.5 40.5t50.5 97.5q0 61 -51.5 92t-136.5 31h-42l18 67h51q106 0 168 37t62 102q0 52 -41 83t-104 31q-97 0 -182 -69l-44 51q104 89 231 89q96 0 159.5 -48.5t63.5 -127.5q0 -73 -52.5 -120t-146.5 -65
q56 -18 92 -56.5t36 -96.5q0 -89 -77 -149t-191 -60z" />
    <glyph glyph-name="four.tab" horiz-adv-x="600" 
d="M303 0l43 163h-344l1 71l468 470h93l-128 -477h99l-18 -64h-98l-44 -163h-72zM85 227h278l104 386z" />
    <glyph glyph-name="five.tab" horiz-adv-x="600" 
d="M233 -12q-81 0 -144 33.5t-99 87.5l59 45q68 -97 190 -97q89 0 143.5 50.5t54.5 123.5q0 62 -42.5 96.5t-112.5 34.5q-74 0 -145 -37l-45 35l115 340h390l-20 -73h-322l-77 -223q50 25 120 25q101 0 161 -52t60 -142q0 -103 -79 -175t-207 -72z" />
    <glyph glyph-name="six.tab" horiz-adv-x="600" 
d="M264 -12q-94 0 -156 62q-67 65 -67 190q0 103 40.5 203t109.5 169q100 100 221 100q119 0 191 -82l-47 -54q-61 66 -147 66q-91 0 -166 -75q-44 -44 -74.5 -105t-39.5 -117q30 43 82 71t118 28q87 0 143 -53t56 -140q0 -104 -77 -183.5t-187 -79.5zM268 54q75 0 128.5 57
t53.5 133q0 61 -36 98t-105 37q-78 0 -135 -55q-51 -51 -51 -121q0 -68 42 -108.5t103 -40.5z" />
    <glyph glyph-name="seven.tab" horiz-adv-x="600" 
d="M62 0l446 627h-385l20 73h478l-17 -60l-450 -640h-92z" />
    <glyph glyph-name="eight.tab" horiz-adv-x="600" 
d="M252 -10q-107 0 -177 52.5t-70 132.5q0 78 55 130t140 67q-42 19 -67.5 55t-25.5 85q0 81 69 139.5t173 58.5q99 0 163 -50t64 -129q0 -69 -47 -118t-119 -64q46 -19 78 -58.5t32 -93.5q0 -87 -76.5 -147t-191.5 -60zM256 55q81 0 133 41t52 104q0 53 -47.5 89.5
t-124.5 36.5q-81 0 -133 -42.5t-52 -100.5q-1 -58 46.5 -93t125.5 -35zM331 389q77 0 122.5 40.5t45.5 96.5q0 51 -42 84.5t-107 33.5q-73 0 -119.5 -39t-47.5 -96q0 -52 41.5 -86t106.5 -34z" />
    <glyph glyph-name="nine.tab" horiz-adv-x="600" 
d="M187 -12q-123 0 -198 87l46 54q68 -71 155 -71q91 0 165 74q44 43 73 102.5t39 115.5q-30 -44 -81 -73t-116 -29q-89 0 -145 54.5t-56 143.5q0 102 77.5 184t187.5 82q94 0 155 -61q67 -67 67 -191q0 -104 -40 -204.5t-109 -168.5q-99 -99 -220 -99zM289 313q78 0 132 54
q53 51 53 126q0 71 -42 111.5t-104 40.5q-75 0 -128.5 -58.5t-53.5 -134.5q0 -63 36.5 -101t106.5 -38z" />
    <glyph glyph-name="dollar.tab" horiz-adv-x="600" 
d="M393 764h62l-20 -73q86 -17 160 -82l-46 -55q-58 55 -137 73l-68 -247q83 -31 121.5 -71.5t38.5 -102.5q0 -90 -72 -148t-185 -58h-7l-28 -98h-62l29 103q-125 20 -206 108l49 51q69 -78 179 -95l71 260q-88 32 -128 71.5t-40 101.5q0 85 68.5 141.5t171.5 56.5
q5 0 15 -0.5t15 -0.5zM183 512q0 -37 24.5 -62.5t85.5 -50.5l65 235q-6 1 -18 1q-69 0 -113 -35.5t-44 -87.5zM425 197q0 35 -22 61.5t-78 50.5l-68 -244q71 0 119.5 36t48.5 96z" />
    <glyph glyph-name="sterling.tab" horiz-adv-x="600" 
d="M-32 0l12 44l84 21l62 234h-79l19 67h79l31 119q26 102 77 155q68 68 166 68q107 0 172 -98l-58 -45q-52 71 -119 71q-60 0 -104 -44q-38 -37 -60 -117l-29 -109h260l-19 -67h-259l-61 -230h332l-19 -69h-487z" />
    <glyph glyph-name="Euro.tab" horiz-adv-x="600" 
d="M53 408l16 58h75q37 95 102 160q84 86 190 86q63 0 107.5 -32t68.5 -85l-57 -38q-44 87 -127 87q-66 0 -126 -60q-45 -43 -78 -118h229l-16 -58h-234q-16 -51 -22 -110h227l-15 -58h-215v-1q0 -90 38 -136.5t104 -46.5q72 0 136 64l42 -50q-84 -82 -186 -82
q-93 0 -151.5 64.5t-59.5 187.5h-93l16 58h79q6 56 21 110h-71z" />
    <glyph glyph-name="yen.tab" horiz-adv-x="600" 
d="M64 268l15 57h158l-130 375h84l109 -341l293 341h96l-335 -375h152l-15 -57h-176l-26 -100h176l-16 -57h-176l-29 -111h-75l29 111h-176l16 57h175l26 100h-175z" />
    <glyph glyph-name="cent.tab" horiz-adv-x="600" 
d="M488 706l-38 -96q92 -27 131 -109l-56 -37q-37 65 -101 85l-158 -397q16 -2 27 -2q92 0 171 69l43 -49q-91 -84 -216 -84q-23 0 -46 3l-39 -95h-65l46 112q-62 26 -98 79.5t-36 123.5q0 129 92 223q92 90 220 90q4 0 12.5 -0.5t13.5 -0.5l33 85h64zM128 311
q0 -104 86 -145l155 392h-8q-93 0 -160 -67q-73 -73 -73 -180z" />
    <glyph glyph-name="numbersign.tab" horiz-adv-x="600" 
d="M11 244h106l69 216h-99l13 65h107l57 175h63l-57 -175h173l56 175h63l-57 -175h97l-13 -65h-105l-69 -216h98l-13 -65h-106l-58 -179h-63l58 179h-173l-57 -179h-63l58 179h-98zM249 461l-70 -218h172l71 218h-173z" />
    <glyph glyph-name="paragraph.tab" horiz-adv-x="600" 
d="M314 0l66 249h-34q-141 0 -205 64q-48 48 -48 127q0 100 68 168q92 92 278 92h143l-188 -700h-80z" />
    <glyph glyph-name="section.tab" horiz-adv-x="600" 
d="M246 -10q-125 0 -209 78l47 50q28 -26 73.5 -45t95.5 -19q44 0 72.5 18.5t28.5 48.5q0 27 -27.5 47t-92.5 43q-94 34 -136.5 65t-42.5 80q0 56 49 90.5t129 38.5q-65 35 -65 93q0 59 52.5 96t130.5 37q63 0 119 -22.5t91 -56.5l-47 -51q-28 27 -74 46.5t-96 19.5
q-44 0 -72.5 -18.5t-28.5 -48.5q0 -27 27 -47t93 -44q94 -33 136.5 -64t42.5 -80q0 -56 -49 -90.5t-129 -38.5q65 -35 65 -93q0 -59 -52.5 -96t-130.5 -37zM352 256q50 0 83.5 22.5t33.5 54.5q0 27 -26.5 47.5t-88.5 42.5q-68 22 -109 22q-50 0 -83.5 -23t-33.5 -55
q0 -27 26.5 -47t88.5 -42t109 -22z" />
    </font>
</defs>
</svg>
