<svg xmlns="http://www.w3.org/2000/svg">
<defs>
<font id="GTAmericaMono-Light" horiz-adv-x="620">
  <font-face font-family="GT America Mono" font-weight="300" font-stretch="normal" units-per-em="1000" panose-1="0 0 4 0 0 0 0 0 0 0" ascent="800" descent="-200" x-height="500" cap-height="710" bbox="-491 -238 1157 916" underline-thickness="50" underline-position="-100" stemh="58" stemv="70" unicode-range="U+000D-FB02"/>

<glyph glyph-name="fi" unicode="fi" horiz-adv-x="1240" d="M320 500h194v-57h-194v-443h-70v443h-156v57h156v61c0 111 60 167 181 167c25 0 52 -3 83 -9v-62c-34 5 -62 7 -83 7c-81 0 -111 -28 -111 -108v-56zM891 721h102v-121h-102v121zM1157 0h-407v58h164v384h-151v58h221v-442h173v-58z"/>
    <glyph glyph-name="fl" unicode="fl" horiz-adv-x="1240" d="M320 500h194v-57h-194v-443h-70v443h-156v57h156v61c0 111 60 167 181 167c25 0 52 -3 83 -9v-62c-34 5 -62 7 -83 7c-81 0 -111 -28 -111 -108v-56zM1157 0h-407v58h163v609h-153v58h222v-667h175v-58z"/>
    <glyph glyph-name=".notdef" d="M610 710v-47h-174v-47h174v-48h-174v-47h174v-48h-174v-47h174v-47h-174v-48h174v-47h-600v426h600zM62 652l-5 15l13 9h-16l-5 15l-4 -15h-16l13 -9l-5 -15l12 9zM136 691l-4 -15h-16l13 -9l-5 -15l12 10l13 -10l-5 15l12 9h-15zM223 691l-4 -15h-16l13 -9l-5 -15l12 10 l13 -10l-5 15l12 9h-15zM310 691l-5 -15h-15l13 -9l-5 -15l12 10l13 -10l-5 15l12 9h-15zM410 652l-5 15l12 9h-15l-5 15l-5 -15h-15l12 -9l-4 -15l12 10zM93 647l-5 -15h-15l12 -9l-4 -14l12 9l12 -9l-4 14l12 9h-15zM366 609l-5 14l13 9h-16l-4 15l-5 -15h-15l12 -9 l-5 -14l13 9zM183 364h80v93h94v80h-94v94h-80v-94h-93v-80h93v-93zM62 565l-5 15l13 9h-16l-5 14l-4 -14h-16l13 -9l-5 -15l12 9zM136 603l-4 -14h-16l13 -9l-5 -15l12 9l13 -9l-5 15l12 9h-15zM310 603l-5 -14h-15l13 -9l-5 -15l12 9l13 -9l-5 15l12 9h-15zM410 565l-5 15 l12 9h-15l-5 14l-5 -14h-15l12 -9l-4 -15l12 9zM62 478l-5 14l13 10h-16l-5 14l-4 -14h-16l13 -10l-5 -14l12 9zM410 478l-5 14l12 10h-15l-5 14l-5 -14h-15l12 -10l-4 -14l12 9zM62 391l-5 14l13 9h-16l-5 15l-4 -15h-16l13 -9l-5 -14l12 9zM149 391l-5 14l12 9h-15l-5 15 l-4 -15h-16l13 -9l-5 -14l12 9zM323 391l-5 14l12 9h-15l-5 15l-5 -15h-15l13 -9l-5 -14l12 9zM410 391l-5 14l12 9h-15l-5 15l-5 -15h-15l12 -9l-4 -14l12 9zM93 356l12 -9l-4 15l12 9h-15l-5 14l-5 -14h-15l12 -9l-4 -15zM354 356l12 -9l-5 15l13 9h-16l-4 14l-5 -14h-15 l12 -9l-5 -15zM49 312l13 -9l-5 15l13 9h-16l-5 15l-4 -15h-16l13 -9l-5 -15zM136 312l13 -9l-5 15l12 9h-15l-5 15l-4 -15h-16l13 -9l-5 -15zM223 312l13 -9l-5 15l12 9h-15l-5 15l-4 -15h-16l13 -9l-5 -15zM310 312l13 -9l-5 15l12 9h-15l-5 15l-5 -15h-15l13 -9l-5 -15z M397 312l13 -9l-5 15l12 9h-15l-5 15l-5 -15h-15l12 -9l-4 -15zM609 189h-599v48h599v-48zM610 95h-600v47h600v-47zM610 0h-600v47h600v-47z"/>
    <glyph glyph-name="null" horiz-adv-x="0"/>
    <glyph glyph-name="null" horiz-adv-x="0"/>
    <glyph glyph-name="nonmarkingreturn" horiz-adv-x="333"/>
    <glyph glyph-name="CR" unicode="&#xD;" horiz-adv-x="0"/>
    <glyph glyph-name="space" unicode=" "/>
    <glyph glyph-name="exclam" unicode="!" d="M338 225h-57l-13 485h83zM251 122h118v-122h-118v122z"/>
    <glyph glyph-name="quotedbl" unicode="&quot;" d="M234 398h-49l-35 312h119zM436 398h-49l-35 312h119z"/>
    <glyph glyph-name="numbersign" unicode="#" d="M565 485v-57h-117l-30 -161h113v-57h-124l-39 -210h-67l39 210h-121l-39 -210h-67l39 210h-105v57h116l30 161h-106v57h117l38 206h67l-38 -206h121l38 206h67l-38 -206h106zM230 267h121l30 161h-121z"/>
    <glyph glyph-name="dollar" unicode="$" d="M553 183c0 -111 -77 -193 -218 -198v-92h-39v93c-140 8 -214 96 -229 220l73 14c13 -96 63 -163 156 -174v278l-37 10c-105 28 -170 92 -170 192c0 51 19 94 57 129c37 34 87 52 150 55v90h39v-91c120 -8 199 -72 208 -201l-73 -20c-6 98 -51 152 -135 161v-263l38 -10 c52 -13 88 -28 124 -56c36 -29 56 -76 56 -137zM285 399l11 -3v254c-93 -4 -137 -57 -137 -122s47 -110 126 -129zM335 314v-269c98 5 147 47 147 127c0 45 -14 79 -41 99c-28 20 -52 29 -93 40z"/>
    <glyph glyph-name="percent" unicode="%" d="M139 -14h-59l389 744h59zM161 383c-80 0 -132 63 -132 166c0 99 52 162 131 162c77 0 131 -65 131 -165c0 -99 -53 -163 -130 -163zM161 432c44 0 73 43 73 114c0 72 -29 116 -74 116c-47 0 -76 -44 -76 -113c0 -75 29 -117 77 -117zM461 0c-80 0 -132 62 -132 165 c0 99 52 163 131 163c77 0 131 -66 131 -166c0 -99 -53 -162 -130 -162zM461 49c45 0 73 42 73 113c0 73 -27 117 -74 117s-75 -44 -75 -113c0 -75 28 -117 76 -117z"/>
    <glyph glyph-name="ampersand" unicode="&amp;" d="M578 63c10 0 18 1 24 3v-65c-12 -3 -24 -5 -35 -5c-41 0 -77 20 -110 61l-7 9c-51 -55 -117 -83 -198 -83c-139 0 -213 78 -213 194c0 103 55 164 147 215c-33 41 -51 62 -71 112c-11 25 -16 49 -16 73c0 91 69 150 164 150c89 0 158 -52 158 -144 c0 -73 -45 -137 -135 -194l-9 -6l172 -209c23 54 36 123 38 208l62 -8c-3 -101 -23 -185 -59 -250l8 -10c26 -34 53 -51 80 -51zM261 672c-57 0 -95 -32 -95 -91c0 -48 26 -90 78 -157l8 5c72 52 102 93 102 149c0 61 -34 94 -93 94zM262 43c64 0 114 23 151 69l-191 236 c-80 -52 -113 -92 -113 -164c0 -95 61 -141 153 -141z"/>
    <glyph glyph-name="quotesingle" unicode="'" d="M334 398h-49l-35 312h119z"/>
    <glyph glyph-name="parenleft" unicode="(" d="M499 -98l-44 -37c-77 51 -136 118 -178 200c-43 82 -64 168 -64 259c0 89 21 175 64 256c42 81 101 146 178 197l44 -37c-147 -117 -211 -245 -211 -416c0 -172 64 -301 211 -422z"/>
    <glyph glyph-name="parenright" unicode=")" d="M165 -135l-44 37c147 121 211 250 211 422c0 171 -64 299 -211 416l44 37c77 -51 136 -116 179 -197c42 -81 63 -167 63 -256c0 -91 -21 -177 -63 -259c-43 -82 -102 -149 -179 -200z"/>
    <glyph glyph-name="asterisk" unicode="*" d="M398 315l-92 155l-90 -157l-70 48l115 134l-160 37l29 78l151 -72l-22 172h90l-20 -172l157 74l29 -80l-169 -40l118 -131z"/>
    <glyph glyph-name="plus" unicode="+" d="M344 359h201v-60h-201v-208h-69v208h-200v60h200v197h69v-197z"/>
    <glyph glyph-name="comma" unicode="," d="M274 -151l-21 39c53 24 68 52 68 112h-72v122h123v-122c0 -77 -27 -122 -98 -151z"/>
    <glyph glyph-name="hyphen" unicode="-" d="M165 245v66h289v-66h-289z"/>
    <glyph glyph-name="period" unicode="." d="M248 122h123v-122h-123v122z"/>
    <glyph glyph-name="slash" unicode="/" d="M483 760l-282 -877h-65l282 877h65z"/>
    <glyph glyph-name="zero" unicode="0" d="M63 347c1 242 83 363 247 363s246 -121 247 -363c-1 -241 -83 -362 -247 -362s-246 121 -247 362zM310 648c-112 0 -173 -88 -174 -301c0 -65 6 -121 19 -166l288 390c-29 51 -73 77 -133 77zM310 47c115 0 173 100 174 300c0 70 -7 128 -20 173l-289 -391 c28 -55 73 -82 135 -82z"/>
    <glyph glyph-name="one" unicode="1" d="M364 695v-629h176v-66h-443v66h197v505c-30 -41 -82 -61 -157 -61h-31v66h25c95 0 155 47 175 119h58z"/>
    <glyph glyph-name="two" unicode="2" d="M532 0h-453v61c90 68 174 140 252 216c81 79 113 142 113 225c0 91 -52 144 -141 144s-142 -53 -142 -136c0 -15 3 -36 8 -64l-74 7c-5 19 -7 38 -7 58c0 121 82 199 219 199c135 0 214 -76 214 -207c0 -89 -48 -179 -143 -270c-70 -67 -137 -123 -201 -167h355v-66z"/>
    <glyph glyph-name="three" unicode="3" d="M310 -15c-71 0 -127 20 -170 59s-65 90 -67 153l73 9c4 -97 65 -159 166 -159c103 0 160 53 160 148c0 81 -58 136 -158 136h-47v61h42c89 0 139 53 139 129c0 81 -48 127 -139 127c-97 0 -155 -64 -155 -169l-69 14c0 133 88 217 228 217c132 0 209 -72 209 -189 c0 -73 -51 -135 -124 -151c92 -15 148 -80 148 -175c0 -128 -92 -210 -236 -210z"/>
    <glyph glyph-name="four" unicode="4" d="M446 0h-70v182h-326v51l318 462h78v-455h119v-58h-119v-182zM123 240h253v284c0 32 1 63 2 93h-1c-11 -25 -29 -55 -53 -92l-152 -218c-21 -32 -38 -54 -49 -67z"/>
    <glyph glyph-name="five" unicode="5" d="M306 -15c-120 0 -208 71 -225 184l76 9c16 -80 68 -130 152 -130c99 0 159 66 159 178c0 111 -54 184 -155 184c-80 0 -131 -48 -150 -124l-71 8l40 401h376v-64h-320l-27 -259c35 67 92 100 171 100c129 0 209 -94 209 -242c0 -73 -21 -132 -64 -177s-100 -68 -171 -68z "/>
    <glyph glyph-name="six" unicode="6" d="M329 464c65 0 116 -22 155 -65s58 -101 58 -173c0 -71 -20 -129 -61 -174s-96 -67 -163 -67c-161 0 -247 117 -247 349c0 239 89 376 253 376c115 0 188 -61 209 -174l-74 -15c-17 85 -62 127 -136 127c-119 0 -180 -108 -180 -304c31 77 101 120 186 120zM319 47 c92 0 150 71 150 178c0 108 -60 177 -153 177c-84 0 -148 -57 -169 -158c15 -121 76 -197 172 -197z"/>
    <glyph glyph-name="seven" unicode="7" d="M290 0h-80v9c-1 214 81 420 244 618h-368v68h452v-59c-163 -177 -247 -398 -248 -621v-15z"/>
    <glyph glyph-name="eight" unicode="8" d="M394 373c104 -37 150 -91 150 -191c0 -120 -90 -197 -231 -197c-145 0 -237 74 -237 193c0 96 48 158 143 187c-81 33 -119 85 -119 169c0 53 19 95 58 128c39 32 89 48 152 48c127 0 209 -68 209 -175c0 -85 -42 -139 -125 -162zM174 534c0 -67 36 -105 116 -130l36 -11 c89 32 119 70 119 139c0 76 -52 122 -137 122c-83 0 -134 -45 -134 -120zM313 44c99 0 158 51 158 138c0 73 -40 115 -125 142l-61 18c-95 -31 -135 -77 -135 -153c0 -88 63 -145 163 -145z"/>
    <glyph glyph-name="nine" unicode="9" d="M297 710c166 0 249 -117 249 -351c0 -113 -20 -204 -60 -272s-101 -102 -184 -102c-123 0 -198 65 -219 182l74 15c16 -90 65 -135 146 -135c116 0 170 116 170 311v13c-32 -73 -99 -112 -180 -112c-65 0 -117 20 -158 60c-41 39 -62 94 -62 164c0 66 20 120 61 163 s95 64 163 64zM300 321c41 0 78 14 110 43c31 28 51 64 58 109c-15 104 -67 175 -172 175c-91 0 -149 -67 -149 -164c0 -100 61 -163 153 -163z"/>
    <glyph glyph-name="colon" unicode=":" d="M248 500h123v-122h-123v122zM248 122h123v-122h-123v122z"/>
    <glyph glyph-name="semicolon" unicode=";" d="M248 500h123v-122h-123v122zM274 -151l-21 39c53 24 68 52 68 112h-72v122h123v-122c0 -77 -27 -122 -98 -151z"/>
    <glyph glyph-name="less" unicode="&lt;" d="M542 152v-67l-465 212v58l465 212v-65l-387 -175z"/>
    <glyph glyph-name="equal" unicode="=" d="M545 389h-470v65h470v-65zM545 204h-470v65h470v-65z"/>
    <glyph glyph-name="greater" unicode="&gt;" d="M542 297l-465 -212v67l387 175l-387 175v65l465 -212v-58z"/>
    <glyph glyph-name="question" unicode="?" d="M174 476l-75 9c-2 10 -3 23 -3 40c0 124 80 202 215 202c139 0 212 -66 212 -177c0 -62 -29 -118 -88 -168l-51 -44c-31 -26 -46 -59 -46 -99v-15h-70v35c0 40 12 70 60 113l49 42c45 41 68 86 68 136c0 68 -47 115 -134 115c-88 0 -141 -49 -141 -148c0 -19 1 -32 4 -41 zM247 122h119v-122h-119v122z"/>
    <glyph glyph-name="at" unicode="@" d="M330 -94c-168 0 -269 105 -269 278v185c0 88 24 159 71 212s109 79 186 79c74 0 133 -24 177 -72c43 -49 65 -114 65 -196v-123c0 -109 -33 -164 -98 -164c-41 0 -68 23 -75 62c-19 -39 -60 -64 -105 -64c-61 0 -104 40 -104 100c0 57 36 91 109 103c37 7 59 10 94 15v10 c0 63 -18 88 -65 88s-72 -24 -73 -71h-54c1 75 51 121 130 121c80 0 116 -47 116 -150v-104c0 -43 11 -65 34 -65c27 0 40 33 40 99v136c0 143 -73 229 -194 229c-127 0 -203 -92 -203 -241v-192c0 -139 86 -227 221 -227c45 0 90 11 135 33l16 -41 c-47 -27 -99 -40 -154 -40zM296 149c49 0 86 41 86 97v34l-80 -16c-45 -8 -68 -28 -68 -60c0 -33 25 -55 62 -55z"/>
    <glyph glyph-name="A" unicode="A" d="M584 0h-76l-69 212h-258l-69 -212h-75l230 710h87zM208 296l-6 -18h216l-6 18c-39 121 -73 236 -101 345h-2c-19 -79 -53 -194 -101 -345z"/>
    <glyph glyph-name="B" unicode="B" d="M93 710h221c181 0 228 -102 228 -186c0 -75 -42 -136 -126 -155c92 -13 145 -78 145 -173c0 -53 -18 -99 -53 -138s-93 -58 -173 -58h-242v710zM313 646h-143v-251h146c99 0 148 41 148 123c0 85 -50 128 -151 128zM337 332h-167v-268h159c112 0 154 58 154 138 c0 77 -46 130 -146 130z"/>
    <glyph glyph-name="C" unicode="C" d="M309 -17c-164 0 -248 122 -248 337v72c0 213 90 335 254 335c146 0 227 -84 243 -251l-77 -11c-8 127 -64 196 -167 196c-117 0 -175 -88 -175 -265v-72c0 -180 61 -275 176 -275c101 0 156 65 167 195l76 -15c-16 -149 -98 -246 -249 -246z"/>
    <glyph glyph-name="D" unicode="D" d="M272 0h-189v710h192c96 0 170 -32 223 -96s79 -149 79 -256c0 -106 -27 -192 -82 -258c-55 -67 -130 -100 -223 -100zM159 646v-582h113c71 0 126 28 166 84c40 55 60 125 60 210s-19 155 -57 208c-39 53 -94 80 -166 80h-116z"/>
    <glyph glyph-name="E" unicode="E" d="M110 710h408v-66h-332v-248h315v-64h-315v-266h339v-66h-415v710z"/>
    <glyph glyph-name="F" unicode="F" d="M122 710h422v-66h-346v-248h322v-66h-322v-330h-76v710z"/>
    <glyph glyph-name="G" unicode="G" d="M296 -17c-77 0 -135 30 -175 91c-41 60 -61 140 -61 241v86c0 207 90 326 251 326c80 0 140 -29 173 -76c32 -47 46 -90 53 -141l-75 -10c-4 43 -18 81 -43 113s-62 48 -110 48c-111 0 -170 -77 -170 -272v-62c0 -185 56 -277 169 -277c125 0 166 124 166 215v41h-184v62 h254v-368h-53l-12 120c-33 -91 -94 -137 -183 -137z"/>
    <glyph glyph-name="H" unicode="H" d="M457 710h77v-710h-77v331h-294v-331h-77v710h77v-315h294v315z"/>
    <glyph glyph-name="I" unicode="I" d="M530 710v-62h-182v-586h182v-62h-440v62h181v586h-181v62h440z"/>
    <glyph glyph-name="J" unicode="J" d="M515 710v-490c0 -148 -84 -237 -225 -237c-76 0 -133 24 -171 71s-57 107 -57 178l75 23c0 -129 55 -206 156 -206c97 0 146 62 146 187v474h76z"/>
    <glyph glyph-name="K" unicode="K" d="M569 0h-89l-206 378l-109 -132v-246h-76v710h76v-370l291 370h90l-219 -277z"/>
    <glyph glyph-name="L" unicode="L" d="M120 0v710h76v-644h350v-66h-426z"/>
    <glyph glyph-name="M" unicode="M" d="M425 478l-80 -303h-70l-81 303c-11 43 -22 97 -32 164h-5c1 -64 2 -126 2 -185v-457h-73v710h112l91 -371c8 -29 14 -54 18 -77h6c4 23 10 48 18 77l91 371h112v-710h-73v457c0 59 1 121 2 185h-5c-9 -61 -20 -115 -33 -164z"/>
    <glyph glyph-name="N" unicode="N" d="M187 710l240 -519c15 -36 25 -63 30 -81h2c-1 16 -2 40 -2 73v527h77v-710h-91l-250 541c-17 39 -27 64 -30 76h-2c1 -14 2 -34 2 -61v-556h-77v710h101z"/>
    <glyph glyph-name="O" unicode="O" d="M498 71c-43 -59 -105 -88 -188 -88s-145 29 -188 88s-64 142 -64 249v70c0 215 87 337 252 337s252 -122 252 -337v-70c0 -107 -21 -190 -64 -249zM181 116c28 -45 71 -67 129 -67s101 22 130 67c28 44 42 112 42 204v70c0 184 -56 271 -172 271s-172 -87 -172 -271v-70 c0 -92 14 -160 43 -204z"/>
    <glyph glyph-name="P" unicode="P" d="M328 297h-137v-297h-76v710h226c88 0 153 -26 185 -69s45 -85 45 -136s-14 -96 -49 -138s-103 -70 -194 -70zM191 646v-286h139c131 0 161 79 161 144c0 39 -11 72 -34 100s-63 42 -119 42h-147z"/>
    <glyph glyph-name="Q" unicode="Q" d="M562 390v-70c0 -173 -52 -280 -156 -320c27 -38 63 -57 108 -57c13 0 28 2 45 7v-70c-23 -5 -43 -7 -59 -7c-72 0 -128 43 -156 112c-15 -1 -26 -2 -34 -2c-165 0 -252 122 -252 337v70c0 215 87 337 252 337s252 -122 252 -337zM181 116c28 -45 71 -67 129 -67 s101 22 130 67c28 44 42 112 42 204v70c0 184 -56 271 -172 271s-172 -87 -172 -271v-70c0 -92 14 -160 43 -204z"/>
    <glyph glyph-name="R" unicode="R" d="M567 0h-85l-170 305h-145v-305h-77v710h223c149 0 234 -74 234 -203c0 -97 -58 -168 -157 -191zM310 646h-143v-280h143c101 0 157 49 157 140s-54 140 -157 140z"/>
    <glyph glyph-name="S" unicode="S" d="M317 -17c-157 0 -242 92 -257 224l74 14c15 -103 73 -174 182 -174c91 0 157 38 157 126c0 48 -12 81 -39 102c-27 20 -48 28 -88 40l-93 25c-114 31 -171 95 -171 192c0 55 21 102 62 139s94 56 159 56c137 0 230 -63 241 -204l-73 -20c-7 107 -63 160 -166 160 c-99 0 -145 -53 -145 -124c0 -64 46 -109 118 -130l92 -24c113 -31 181 -81 181 -201c0 -58 -20 -106 -60 -144c-41 -38 -99 -57 -174 -57z"/>
    <glyph glyph-name="T" unicode="T" d="M44 644v66h531v-66h-227v-644h-77v644h-227z"/>
    <glyph glyph-name="U" unicode="U" d="M75 228v482h76v-482c0 -111 57 -179 162 -179c104 0 155 66 155 179v482h77v-482c0 -149 -79 -245 -232 -245c-155 0 -238 97 -238 245z"/>
    <glyph glyph-name="V" unicode="V" d="M124 710l171 -588c3 -11 8 -28 13 -52h4c3 11 7 29 13 52l169 588h81l-219 -710h-93l-218 710h79z"/>
    <glyph glyph-name="W" unicode="W" d="M211 0h-99l-66 710h76l38 -525c4 -53 6 -93 6 -119h8c3 35 10 76 21 125l79 347h72l79 -347c11 -49 18 -90 21 -125h8c0 26 2 66 6 119l38 525h76l-66 -710h-99l-74 329c-11 52 -18 98 -21 137h-8c-3 -39 -10 -85 -21 -137z"/>
    <glyph glyph-name="X" unicode="X" d="M128 0h-87l224 374l-200 336h86l123 -223c17 -30 28 -56 34 -77h3c5 19 16 44 34 76l120 224h87l-197 -343l224 -367h-91l-148 262c-16 29 -26 52 -31 70h-3c-5 -18 -15 -42 -32 -73z"/>
    <glyph glyph-name="Y" unicode="Y" d="M581 710l-232 -425v-285h-77v285l-233 425h85l186 -360l186 360h85z"/>
    <glyph glyph-name="Z" unicode="Z" d="M72 0v70l379 574h-365v66h446v-70l-380 -574h394v-66h-474z"/>
    <glyph glyph-name="bracketleft" unicode="[" d="M477 -114h-267v871h267v-58h-204v-755h204v-58z"/>
    <glyph glyph-name="backslash" unicode="\" d="M483 -117h-65l-282 877h65z"/>
    <glyph glyph-name="bracketright" unicode="]" d="M410 757v-871h-267v58h204v755h-204v58h267z"/>
    <glyph glyph-name="asciicircum" unicode="^" d="M136 448l148 262h51l148 -262h-64l-109 186l-109 -186h-65z"/>
    <glyph glyph-name="underscore" unicode="_" d="M0 -176v58h620v-58h-620z"/>
    <glyph glyph-name="grave" unicode="`" d="M307 720l94 -142h-63l-119 142h88z"/>
    <glyph glyph-name="a" unicode="a" d="M493 304v-129c0 -80 5 -138 15 -175h-74c-4 38 -6 71 -7 100c-33 -75 -91 -112 -175 -112c-99 0 -166 59 -166 146c0 49 21 86 62 111c31 20 85 34 162 43l112 13v9c0 101 -35 144 -118 144c-79 0 -123 -41 -128 -110h-74c8 107 83 168 207 168c127 0 184 -64 184 -208z M423 218v32l-132 -17c-93 -13 -131 -41 -131 -96c0 -56 40 -91 104 -91c96 0 159 69 159 172z"/>
    <glyph glyph-name="b" unicode="b" d="M115 725h69v-327c27 69 90 114 162 114c64 0 114 -24 151 -72c37 -49 55 -112 55 -189c0 -79 -19 -143 -56 -191s-88 -72 -153 -72c-72 0 -138 43 -162 112l-13 -100h-53v725zM183 261v-24c0 -111 56 -187 145 -187c95 0 150 78 150 201c0 121 -53 199 -148 199 c-91 0 -147 -76 -147 -189z"/>
    <glyph glyph-name="c" unicode="c" d="M310 -12c-73 0 -128 25 -167 74s-59 112 -59 191c0 156 80 259 228 259c112 0 189 -66 200 -178l-71 -8c-11 80 -57 125 -134 125c-97 0 -151 -77 -151 -197c0 -125 54 -204 154 -204c77 0 123 47 135 128l67 -10c-17 -108 -86 -180 -202 -180z"/>
    <glyph glyph-name="d" unicode="d" d="M432 409v316h70v-725h-66v106c-30 -79 -85 -118 -166 -118c-63 0 -113 24 -150 72s-56 112 -56 191c0 78 20 141 59 189s92 72 158 72c71 0 126 -39 151 -103zM433 240v21c0 113 -57 189 -146 189c-93 0 -149 -75 -149 -199c0 -62 13 -111 39 -147s62 -54 107 -54 s82 17 109 52s40 81 40 138z"/>
    <glyph glyph-name="e" unicode="e" d="M516 235h-360v-2c0 -109 61 -183 158 -183c66 0 113 34 141 103l60 -30c-38 -90 -105 -135 -201 -135c-149 0 -229 102 -229 271c0 77 20 138 61 184c40 46 94 69 162 69c144 0 209 -99 209 -246c0 -7 -1 -24 -1 -31zM305 457c-46 0 -82 -16 -108 -48 c-27 -33 -40 -71 -41 -116h289c1 95 -45 164 -140 164z"/>
    <glyph glyph-name="f" unicode="f" d="M320 500h194v-57h-194v-443h-70v443h-156v57h156v61c0 111 60 167 181 167c25 0 52 -3 83 -9v-62c-34 5 -62 7 -83 7c-81 0 -111 -28 -111 -108v-56z"/>
    <glyph glyph-name="g" unicode="g" d="M524 516c-40 0 -67 -17 -81 -52c33 -31 49 -70 49 -119c0 -101 -75 -169 -184 -169c-37 0 -68 7 -94 21c-28 -12 -42 -31 -42 -56c0 -35 30 -56 85 -56h135c101 0 159 -48 159 -132c0 -103 -88 -160 -240 -160c-140 0 -225 50 -225 131c0 55 33 94 88 113 c-43 15 -64 44 -64 87c0 45 24 77 71 95c-35 29 -52 70 -52 122c0 101 74 171 182 171c37 0 69 -8 98 -23c17 59 56 89 118 89c11 0 20 -1 27 -3v-62c-12 2 -22 3 -30 3zM308 230c69 0 118 48 118 115s-47 113 -115 113c-69 0 -116 -48 -116 -116c0 -67 46 -112 113 -112z M378 24h-123c-10 0 -23 1 -39 2c-41 -16 -61 -44 -61 -83c0 -61 55 -92 164 -92c108 0 162 32 162 95c0 52 -34 78 -103 78z"/>
    <glyph glyph-name="h" unicode="h" d="M176 725v-328c24 71 87 115 163 115c52 0 94 -15 125 -44c33 -32 50 -86 50 -161v-307h-70v304c0 97 -41 146 -122 146c-50 0 -87 -19 -110 -57c-24 -38 -36 -81 -36 -130v-263h-70v725h70z"/>
    <glyph glyph-name="i" unicode="i" d="M271 721h102v-121h-102v121zM537 0h-407v58h164v384h-151v58h221v-442h173v-58z"/>
    <glyph glyph-name="j" unicode="j" d="M317 721h102v-121h-102v121zM111 -183v62c43 -11 81 -16 114 -16c80 0 116 34 116 127v452h-190v58h260v-515c0 -116 -55 -186 -176 -186c-43 0 -85 6 -124 18z"/>
    <glyph glyph-name="k" unicode="k" d="M543 0h-86l-162 260l-106 -104v-156h-69v725h69v-487l249 262h91l-185 -190z"/>
    <glyph glyph-name="l" unicode="l" d="M537 0h-407v58h163v609h-153v58h222v-667h175v-58z"/>
    <glyph glyph-name="m" unicode="m" d="M116 500v-89c20 65 61 101 112 101c52 0 89 -37 104 -97c23 61 67 97 120 97c69 0 117 -51 117 -154v-358h-70v351c0 66 -23 99 -68 99c-60 0 -88 -47 -88 -115v-335h-68v350c0 67 -23 100 -68 100c-60 0 -87 -56 -87 -128v-322h-70v500h66z"/>
    <glyph glyph-name="n" unicode="n" d="M172 500v-110c28 76 87 122 171 122c51 0 92 -14 121 -43c33 -32 50 -86 50 -162v-307h-70v304c0 97 -39 146 -117 146c-114 0 -151 -106 -151 -187v-263h-70v500h66z"/>
    <glyph glyph-name="o" unicode="o" d="M477 59c-42 -47 -98 -71 -167 -71s-125 24 -166 72c-42 48 -63 111 -63 190c0 80 21 144 63 191c41 47 97 71 166 71s125 -24 167 -71c41 -47 62 -111 62 -191s-21 -144 -62 -191zM197 103c27 -36 65 -54 113 -54s86 18 114 54c27 35 41 84 41 147s-14 112 -41 148 c-28 35 -66 53 -114 53s-86 -18 -113 -53c-28 -36 -42 -85 -42 -148s14 -112 42 -147z"/>
    <glyph glyph-name="p" unicode="p" d="M115 500h66v-106c27 67 92 118 164 118c64 0 115 -24 152 -72c37 -49 55 -112 55 -189c0 -79 -19 -143 -57 -191s-90 -72 -155 -72c-68 0 -133 43 -156 106v-289h-69v695zM183 262v-22c0 -113 56 -190 147 -190c93 0 148 77 148 201c0 121 -53 199 -146 199 c-89 0 -149 -77 -149 -188z"/>
    <glyph glyph-name="q" unicode="q" d="M436 410l14 90h55v-695h-69v295c-27 -68 -91 -112 -164 -112c-63 0 -112 24 -149 73c-37 48 -55 111 -55 190c0 77 19 140 58 189c39 48 91 72 156 72c68 0 131 -42 154 -102zM437 237v26c0 112 -59 187 -151 187c-91 0 -144 -78 -144 -199c0 -123 56 -201 141 -201 c96 0 154 75 154 187z"/>
    <glyph glyph-name="r" unicode="r" d="M217 500v-148c37 99 125 158 224 158c33 0 62 -4 87 -11v-65c-25 7 -54 11 -89 11c-63 0 -115 -23 -157 -69c-43 -46 -64 -109 -64 -189v-187h-70v500h69z"/>
    <glyph glyph-name="s" unicode="s" d="M321 -12c-117 0 -194 55 -210 155l71 12c11 -71 62 -109 142 -109c71 0 113 35 113 86c0 47 -25 68 -81 79l-97 19c-87 17 -130 62 -130 137c0 85 73 145 185 145c111 0 183 -50 192 -138l-69 -15c-11 64 -54 96 -127 96c-68 0 -112 -32 -112 -85c0 -42 27 -69 82 -80 l98 -19c86 -17 129 -61 129 -133c0 -91 -70 -150 -186 -150z"/>
    <glyph glyph-name="t" unicode="t" d="M235 443h-145v57h145v132l70 30v-162h197v-57h-197v-280c0 -70 35 -105 104 -105c32 0 63 3 93 9v-64c-35 -8 -66 -12 -93 -12c-112 0 -174 63 -174 163v289z"/>
    <glyph glyph-name="u" unicode="u" d="M437 0v103c-23 -63 -85 -115 -160 -115c-53 0 -96 15 -127 44c-31 31 -47 84 -47 159v309h72v-308c0 -96 39 -144 117 -144c67 0 113 49 129 102c8 26 12 54 12 84v266h70v-500h-66z"/>
    <glyph glyph-name="v" unicode="v" d="M348 0h-77l-204 500h74l142 -358c12 -31 20 -55 25 -70h4c8 28 16 51 23 70l145 358h72z"/>
    <glyph glyph-name="w" unicode="w" d="M135 0l-104 500h73l63 -358c3 -16 8 -53 11 -68h6c5 29 10 55 15 78l75 348h71l75 -348c5 -23 10 -49 15 -78h6c3 15 8 52 11 68l63 358h73l-104 -500h-86l-76 345c-3 14 -6 39 -10 74h-6c-1 -28 -4 -53 -9 -74l-76 -345h-86z"/>
    <glyph glyph-name="x" unicode="x" d="M453 0l-144 210l-143 -210h-83l184 259l-171 241h82l133 -195l127 195h85l-169 -246l182 -254h-83z"/>
    <glyph glyph-name="y" unicode="y" d="M86 500h79l153 -419l148 419h74l-199 -532c-44 -121 -100 -169 -185 -169c-16 0 -31 1 -44 4v62c17 -1 30 -2 37 -2c63 0 97 32 122 104l13 37z"/>
    <glyph glyph-name="z" unicode="z" d="M106 0v54l301 387h-290v59h374v-52l-299 -388h313v-60h-399z"/>
    <glyph glyph-name="braceleft" unicode="{" d="M479 -114h-73c-105 0 -175 55 -175 147v159c0 67 -11 97 -79 97v66c35 0 56 7 65 21c9 13 13 37 13 72v162c0 92 70 147 175 147h74v-58h-74c-68 0 -110 -36 -110 -107v-138c0 -62 -9 -112 -62 -131c48 -20 61 -66 61 -137v-135c0 -71 44 -107 112 -107h73v-58z"/>
    <glyph glyph-name="bar" unicode="|" d="M340 -117h-60v877h60v-877z"/>
    <glyph glyph-name="braceright" unicode="}" d="M214 -114h-73v58h73c68 0 112 36 112 107v135c0 71 13 117 61 137c-53 19 -62 69 -62 131v138c0 71 -42 107 -110 107h-74v58h74c105 0 175 -55 175 -147v-162c0 -35 4 -59 13 -72c9 -14 30 -21 65 -21v-66c-68 0 -79 -30 -79 -97v-159c0 -92 -70 -147 -175 -147z"/>
    <glyph glyph-name="asciitilde" unicode="~" d="M214 379c79 3 143 -85 196 -82c39 0 65 26 77 78l56 -12c-20 -87 -74 -128 -135 -128c-78 -3 -138 85 -192 82c-43 0 -69 -22 -79 -67l-60 6c15 81 70 123 137 123z"/>
    <glyph glyph-name="uni00A0" unicode=" "/>
    <glyph glyph-name="exclamdown" unicode="¡" d="M369 515v-122h-118v122h118zM268 -195l13 485h57l13 -485h-83z"/>
    <glyph glyph-name="cent" unicode="¢" d="M339 450v-399c67 7 107 49 118 128l67 -10c-16 -103 -78 -173 -185 -180v-78h-42v78c-131 12 -202 115 -202 264c0 145 70 246 202 258v83h42v-82c104 -7 174 -70 185 -178l-72 -8c-8 73 -48 116 -113 124zM167 254c0 -115 46 -190 130 -202v398 c-84 -11 -130 -84 -130 -196z"/>
    <glyph glyph-name="sterling" unicode="£" d="M502 164l65 -12c-12 -117 -81 -167 -165 -167c-23 0 -55 5 -94 14c-40 9 -75 14 -106 14c-48 0 -99 -7 -152 -20l-16 52c96 31 144 94 144 191c0 31 -3 65 -9 101h-111v53h100c-10 46 -15 85 -15 117c0 129 79 203 195 203c105 0 170 -57 189 -160l-72 -17 c-13 77 -53 116 -118 116c-69 0 -117 -44 -117 -139c0 -33 5 -73 15 -120h172v-53h-162c5 -29 8 -58 8 -87c0 -89 -35 -150 -104 -184c25 6 52 9 82 9c23 0 52 -4 87 -11s63 -11 84 -11c53 0 92 34 100 111z"/>
    <glyph glyph-name="currency" unicode="¤" d="M531 303c0 -59 -17 -109 -50 -151l53 -56l-34 -31l-53 55c-37 -29 -81 -43 -134 -43c-54 0 -100 15 -138 46l-55 -59l-34 31l56 61c-31 41 -47 90 -47 147c0 58 16 107 48 148l-57 61l34 30l56 -58c38 30 84 45 137 45c51 0 96 -14 133 -42l54 56l34 -31l-54 -57 c34 -41 51 -92 51 -152zM203 182c29 -31 66 -46 110 -46s81 15 110 46c29 30 43 70 43 121s-14 91 -43 122c-29 30 -66 45 -110 45s-81 -15 -110 -45c-29 -31 -44 -71 -44 -122s15 -91 44 -121z"/>
    <glyph glyph-name="yen" unicode="¥" d="M483 695h83l-218 -369h186v-50h-187v-81h187v-50h-187v-145h-74v145h-191v50h191v81h-191v50h190l-219 369h83l173 -303z"/>
    <glyph glyph-name="brokenbar" unicode="¦" d="M280 760h59v-378h-59v378zM280 261h59v-378h-59v378z"/>
    <glyph glyph-name="section" unicode="§" d="M443 182c33 -28 50 -62 50 -101c0 -95 -80 -150 -196 -150c-112 0 -186 62 -195 157l70 14c13 -68 61 -110 134 -110c67 0 114 31 114 82c0 23 -7 42 -21 57c-14 14 -42 30 -85 49l-82 37c-92 40 -132 87 -132 156c0 56 27 97 80 123c-31 28 -46 63 -46 104 c0 92 78 147 187 147c105 0 170 -53 183 -144l-69 -15c-12 69 -53 103 -123 103c-63 0 -104 -32 -104 -84c0 -48 19 -72 94 -104l80 -36c97 -43 141 -89 141 -160c0 -57 -27 -98 -80 -125zM281 270l81 -39c6 -3 20 -10 42 -22c29 25 44 54 44 85c3 23 -9 44 -18 58 c-5 8 -25 22 -32 27s-35 20 -43 24c-5 2 -49 24 -55 26l-70 34l-12 6c-29 -24 -43 -51 -43 -82c0 -53 26 -78 106 -117z"/>
    <glyph glyph-name="dieresis" unicode="¨" d="M166 721h101v-118h-101v118zM353 721h100v-118h-100v118z"/>
    <glyph glyph-name="copyright" unicode="©" d="M486 57c-45 -50 -104 -75 -176 -75s-131 25 -176 75s-68 123 -68 218v158c0 95 23 168 68 218c45 49 104 74 176 74s131 -25 176 -74c45 -50 68 -123 68 -218v-158c0 -95 -23 -168 -68 -218zM165 86c37 -43 86 -64 145 -64s108 21 145 64c37 42 56 105 56 189v158 c0 168 -82 252 -201 252s-201 -84 -201 -252v-158c0 -84 19 -147 56 -189zM315 142c-88 0 -132 56 -132 167v95c0 109 44 164 132 164c76 0 117 -54 120 -137v-4l-58 -3v4c-3 60 -24 90 -64 90c-45 0 -71 -29 -71 -114v-95c0 -85 25 -117 72 -117c41 0 62 40 65 88v2l57 -8 v-2c-4 -72 -42 -130 -121 -130z"/>
    <glyph glyph-name="ordfeminine" unicode="ª" d="M463 534v-102c0 -55 3 -95 10 -122h-64c-4 42 -6 65 -6 70c-24 -53 -68 -79 -133 -79c-73 0 -123 42 -123 105c0 69 55 99 152 111l100 12c0 79 -21 109 -84 109c-58 0 -88 -26 -90 -78h-67c7 79 65 124 160 124c99 0 145 -47 145 -150zM400 461v31l-91 -11 c-68 -9 -96 -30 -96 -69c0 -41 29 -66 77 -66c65 0 110 47 110 115z"/>
    <glyph glyph-name="guillemotleft" unicode="«" d="M316 67h-76l-168 208l173 207h74l-168 -206zM537 67h-76l-168 208l173 207h74l-168 -206z"/>
    <glyph glyph-name="logicalnot" unicode="¬" d="M81 301v66h458v-236h-66v170h-392z"/>
    <glyph glyph-name="registered" unicode="®" d="M134 651c45 49 104 74 176 74s131 -25 176 -74c45 -50 68 -123 68 -218v-158c0 -95 -23 -168 -68 -218s-104 -75 -176 -75s-131 25 -176 75s-68 123 -68 218v158c0 95 23 168 68 218zM511 275v158c0 168 -82 252 -201 252s-201 -84 -201 -252v-158 c0 -168 82 -253 201 -253s201 85 201 253zM437 446c0 -55 -26 -91 -78 -108l87 -182h-61l-78 175h-56v-175h-55v406h113c89 0 128 -48 128 -116zM251 515v-137h48c55 0 83 23 83 69c0 45 -27 68 -80 68h-51z"/>
    <glyph glyph-name="overscore" unicode="¯" d="M454 602h-288v57h288v-57z"/>
    <glyph glyph-name="degree" unicode="°" d="M465 558c0 -44 -15 -81 -44 -112c-30 -31 -67 -47 -111 -47c-43 0 -80 15 -110 46s-45 68 -45 113s15 83 45 114c30 30 67 45 110 45s80 -15 110 -46s45 -68 45 -113zM213 558c0 -59 42 -103 97 -103c56 0 97 46 97 103c0 60 -41 103 -97 103c-55 0 -97 -43 -97 -103z "/>
    <glyph glyph-name="plusminus" unicode="±" d="M345 533v-172h200v-60h-200v-169h-70v169h-200v60h200v172h70zM545 0h-470v65h470v-65z"/>
    <glyph glyph-name="acute" unicode="´" d="M282 578h-63l94 142h88z"/>
    <glyph glyph-name="uni00B5" unicode="µ" d="M433 234v266h70v-500h-66v103c-23 -63 -85 -115 -160 -115c-41 0 -76 9 -104 26v-209h-70v695h72v-308c0 -96 39 -144 117 -144c67 0 113 49 129 102c8 26 12 54 12 84z"/>
    <glyph glyph-name="paragraph" unicode="¶" d="M277 -100v461c-154 0 -231 59 -231 178c3 134 110 184 236 181h292v-44h-104v-776h-51v776h-91v-776h-51z"/>
    <glyph glyph-name="middot" unicode="·" d="M351 423h123v-122h-123v122z"/>
    <glyph glyph-name="cedilla" unicode="¸" d="M238 -79l45 84h45l-37 -61c10 8 24 12 42 12c41 0 72 -28 72 -69c0 -51 -46 -87 -99 -87c-45 0 -76 18 -91 55l48 15c7 -21 22 -31 44 -31c24 0 44 16 44 44s-19 42 -42 42c-15 0 -28 -5 -37 -15z"/>
    <glyph glyph-name="ordmasculine" unicode="º" d="M438 353c-33 -35 -75 -52 -128 -52s-95 17 -128 52c-33 34 -49 81 -49 140s16 106 49 140s75 51 128 51s95 -17 128 -51c32 -34 48 -81 48 -140s-16 -106 -48 -140zM310 350c68 0 111 52 111 143c0 89 -43 142 -111 142c-69 0 -112 -53 -112 -142s43 -143 112 -143z"/>
    <glyph glyph-name="guillemotright" unicode="»" d="M152 68h-76l165 209l-168 206h74l173 -207zM380 67h-76l165 209l-168 206h74l173 -207z"/>
    <glyph glyph-name="onequarter" unicode="¼" horiz-adv-x="1240" d="M351 -17l516 744h71l-515 -744h-72zM322 374h106v-43h-276v43h112v266c-17 -19 -67 -37 -99 -37h-8v51h6c43 0 95 24 110 55h49v-335zM1022 378v-241h66v-44h-66v-93h-55v93h-199v42l189 243h65zM814 137h153v193z"/>
    <glyph glyph-name="onehalf" unicode="½" horiz-adv-x="1240" d="M340 -17l516 744h71l-515 -744h-72zM323 374h106v-43h-276v43h112v266c-17 -19 -67 -37 -99 -37h-8v51h6c43 0 95 24 110 55h49v-335zM886 46h202v-46h-280v44c139 97 208 159 208 223c0 49 -24 73 -73 73c-47 0 -74 -26 -74 -70c0 -9 1 -18 3 -26l-59 5 c-1 13 -2 21 -2 24c0 68 52 114 132 114c84 0 131 -42 131 -117s-72 -144 -188 -224z"/>
    <glyph glyph-name="threequarters" unicode="¾" horiz-adv-x="1240" d="M341 -17l516 744h71l-515 -744h-72zM283 504v39h26c41 0 74 20 74 64c0 41 -28 65 -71 65c-49 0 -77 -32 -74 -81l-61 5c-1 75 48 122 135 122c80 0 130 -39 130 -104c0 -48 -30 -81 -78 -88c55 -3 89 -39 89 -94c0 -65 -55 -109 -138 -109c-87 0 -139 46 -140 119l61 4 c-1 -45 30 -79 79 -79c45 0 77 24 77 69s-26 68 -79 68h-30zM1066 137v-44h-66v-93h-55v93h-199v42l189 243h65v-241h66zM792 137h153v193z"/>
    <glyph glyph-name="questiondown" unicode="¿" d="M372 397h-119v122h119v-122zM445 43l75 -9c2 -10 3 -23 3 -40c0 -124 -80 -202 -215 -202c-139 0 -212 66 -212 177c0 62 29 118 88 168l51 44c31 26 46 59 46 99v15h70v-35c0 -40 -12 -70 -60 -113l-49 -42c-45 -41 -68 -86 -68 -136c0 -68 47 -115 134 -115 c88 0 141 49 141 148c0 19 -1 32 -4 41z"/>
    <glyph glyph-name="Agrave" unicode="À" d="M268 884l75 -107h-67l-101 107h93zM584 0h-76l-69 212h-258l-69 -212h-75l230 710h87zM208 296l-6 -18h216l-6 18c-39 121 -73 236 -101 345h-2c-19 -79 -53 -194 -101 -345z"/>
    <glyph glyph-name="Aacute" unicode="Á" d="M352 884h93l-101 -107h-67zM584 0h-76l-69 212h-258l-69 -212h-75l230 710h87zM208 296l-6 -18h216l-6 18c-39 121 -73 236 -101 345h-2c-19 -79 -53 -194 -101 -345z"/>
    <glyph glyph-name="Acircumflex" unicode="Â" d="M380 776l-72 74l-69 -74h-72l101 108h83l102 -108h-73zM584 0h-76l-69 212h-258l-69 -212h-75l230 710h87zM208 296l-6 -18h216l-6 18c-39 121 -73 236 -101 345h-2c-19 -79 -53 -194 -101 -345z"/>
    <glyph glyph-name="Atilde" unicode="Ã" d="M232 832c-31 0 -49 -18 -56 -54l-50 8c11 68 57 100 112 100c25 0 52 -10 82 -29c29 -19 53 -29 70 -29c31 0 49 18 54 53l50 -8c-9 -65 -50 -100 -110 -100c-26 0 -53 10 -81 30c-29 19 -52 29 -71 29zM584 0h-76l-69 212h-258l-69 -212h-75l230 710h87zM208 296l-6 -18 h216l-6 18c-39 121 -73 236 -101 345h-2c-19 -79 -53 -194 -101 -345z"/>
    <glyph glyph-name="Adieresis" unicode="Ä" d="M153 884h93v-110h-93v110zM374 884h93v-110h-93v110zM584 0h-76l-69 212h-258l-69 -212h-75l230 710h87zM208 296l-6 -18h216l-6 18c-39 121 -73 236 -101 345h-2c-19 -79 -53 -194 -101 -345z"/>
    <glyph glyph-name="Aring" unicode="Å" d="M381 760c-18 -17 -42 -26 -71 -26s-53 9 -71 26c-36 35 -36 95 0 130c18 17 42 26 71 26s53 -9 71 -26c36 -35 36 -95 0 -130zM347 862c-19 20 -55 20 -74 0s-19 -54 0 -74c19 -21 55 -21 74 0c19 20 19 54 0 74zM584 0h-76l-69 212h-258l-69 -212h-75l230 710h87z M208 296l-6 -18h216l-6 18c-39 121 -73 236 -101 345h-2c-19 -79 -53 -194 -101 -345z"/>
    <glyph glyph-name="AE" unicode="Æ" d="M352 332v-266h216v-66h-289v171h-136l-48 -171h-75l213 710h328v-66h-209v-248h192v-64h-192zM279 656l-119 -424h119v424z"/>
    <glyph glyph-name="Ccedilla" unicode="Ç" d="M315 49c101 0 156 65 167 195l76 -15c-15 -144 -91 -238 -231 -246l-24 -39c10 8 24 12 42 12c41 0 72 -28 72 -69c0 -51 -46 -87 -99 -87c-45 0 -76 18 -91 55l48 15c7 -21 22 -31 44 -31c24 0 44 16 44 44s-19 42 -42 42c-15 0 -28 -5 -37 -15l-34 11l34 63 c-148 12 -223 132 -223 336v72c0 213 90 335 254 335c146 0 227 -84 243 -251l-77 -11c-8 127 -64 196 -167 196c-117 0 -175 -88 -175 -265v-72c0 -180 61 -275 176 -275z"/>
    <glyph glyph-name="Egrave" unicode="È" d="M268 884l75 -107h-67l-101 107h93zM110 710h408v-66h-332v-248h315v-64h-315v-266h339v-66h-415v710z"/>
    <glyph glyph-name="Eacute" unicode="É" d="M344 777h-67l75 107h93zM110 710h408v-66h-332v-248h315v-64h-315v-266h339v-66h-415v710z"/>
    <glyph glyph-name="Ecircumflex" unicode="Ê" d="M351 884l102 -108h-73l-72 74l-69 -74h-72l101 108h83zM110 710h408v-66h-332v-248h315v-64h-315v-266h339v-66h-415v710z"/>
    <glyph glyph-name="Edieresis" unicode="Ë" d="M153 884h93v-110h-93v110zM374 884h93v-110h-93v110zM110 710h408v-66h-332v-248h315v-64h-315v-266h339v-66h-415v710z"/>
    <glyph glyph-name="Igrave" unicode="Ì" d="M268 884l75 -107h-67l-101 107h93zM530 710v-62h-182v-586h182v-62h-440v62h181v586h-181v62h440z"/>
    <glyph glyph-name="Iacute" unicode="Í" d="M352 884h93l-101 -107h-67zM530 710v-62h-182v-586h182v-62h-440v62h181v586h-181v62h440z"/>
    <glyph glyph-name="Icircumflex" unicode="Î" d="M380 776l-72 74l-69 -74h-72l101 108h83l102 -108h-73zM530 710v-62h-182v-586h182v-62h-440v62h181v586h-181v62h440z"/>
    <glyph glyph-name="Idieresis" unicode="Ï" d="M153 884h93v-110h-93v110zM374 884h93v-110h-93v110zM530 710v-62h-182v-586h182v-62h-440v62h181v586h-181v62h440z"/>
    <glyph glyph-name="Eth" unicode="Ð" d="M83 710h192c96 0 170 -32 223 -96s79 -149 79 -256c0 -106 -27 -192 -82 -258c-55 -67 -130 -100 -223 -100h-189v337h-83v59h83v314zM159 64h113c71 0 126 28 166 84c40 55 60 125 60 210s-19 155 -57 208c-39 53 -94 80 -166 80h-116v-250h169v-59h-169v-273z"/>
    <glyph glyph-name="Ntilde" unicode="Ñ" d="M238 886c25 0 52 -10 82 -29c29 -19 53 -29 70 -29c31 0 49 18 54 53l50 -8c-9 -65 -50 -100 -110 -100c-26 0 -53 10 -81 30c-29 19 -52 29 -71 29c-31 0 -49 -18 -56 -54l-50 8c11 68 57 100 112 100zM187 710l240 -519c15 -36 25 -63 30 -81h2c-1 16 -2 40 -2 73v527 h77v-710h-91l-250 541c-17 39 -27 64 -30 76h-2c1 -14 2 -34 2 -61v-556h-77v710h101z"/>
    <glyph glyph-name="Ograve" unicode="Ò" d="M268 884l75 -107h-67l-101 107h93zM498 71c-43 -59 -105 -88 -188 -88s-145 29 -188 88s-64 142 -64 249v70c0 215 87 337 252 337s252 -122 252 -337v-70c0 -107 -21 -190 -64 -249zM181 116c28 -45 71 -67 129 -67s101 22 130 67c28 44 42 112 42 204v70 c0 184 -56 271 -172 271s-172 -87 -172 -271v-70c0 -92 14 -160 43 -204z"/>
    <glyph glyph-name="Oacute" unicode="Ó" d="M344 777h-67l75 107h93zM498 71c-43 -59 -105 -88 -188 -88s-145 29 -188 88s-64 142 -64 249v70c0 215 87 337 252 337s252 -122 252 -337v-70c0 -107 -21 -190 -64 -249zM181 116c28 -45 71 -67 129 -67s101 22 130 67c28 44 42 112 42 204v70c0 184 -56 271 -172 271 s-172 -87 -172 -271v-70c0 -92 14 -160 43 -204z"/>
    <glyph glyph-name="Ocircumflex" unicode="Ô" d="M351 884l102 -108h-73l-72 74l-69 -74h-72l101 108h83zM498 71c-43 -59 -105 -88 -188 -88s-145 29 -188 88s-64 142 -64 249v70c0 215 87 337 252 337s252 -122 252 -337v-70c0 -107 -21 -190 -64 -249zM181 116c28 -45 71 -67 129 -67s101 22 130 67 c28 44 42 112 42 204v70c0 184 -56 271 -172 271s-172 -87 -172 -271v-70c0 -92 14 -160 43 -204z"/>
    <glyph glyph-name="Otilde" unicode="Õ" d="M238 886c25 0 52 -10 82 -29c29 -19 53 -29 70 -29c31 0 49 18 54 53l50 -8c-9 -65 -50 -100 -110 -100c-26 0 -53 10 -81 30c-29 19 -52 29 -71 29c-31 0 -49 -18 -56 -54l-50 8c11 68 57 100 112 100zM498 71c-43 -59 -105 -88 -188 -88s-145 29 -188 88 s-64 142 -64 249v70c0 215 87 337 252 337s252 -122 252 -337v-70c0 -107 -21 -190 -64 -249zM181 116c28 -45 71 -67 129 -67s101 22 130 67c28 44 42 112 42 204v70c0 184 -56 271 -172 271s-172 -87 -172 -271v-70c0 -92 14 -160 43 -204z"/>
    <glyph glyph-name="Odieresis" unicode="Ö" d="M153 884h93v-110h-93v110zM374 884h93v-110h-93v110zM498 71c-43 -59 -105 -88 -188 -88s-145 29 -188 88s-64 142 -64 249v70c0 215 87 337 252 337s252 -122 252 -337v-70c0 -107 -21 -190 -64 -249zM181 116c28 -45 71 -67 129 -67s101 22 130 67c28 44 42 112 42 204 v70c0 184 -56 271 -172 271s-172 -87 -172 -271v-70c0 -92 14 -160 43 -204z"/>
    <glyph glyph-name="multiply" unicode="×" d="M500 565l48 -47l-191 -191l191 -190l-47 -48l-191 191l-191 -191l-47 47l191 191l-191 191l47 47l191 -190z"/>
    <glyph glyph-name="Oslash" unicode="Ø" d="M559 712l-54 -84c38 -57 57 -137 57 -238v-70c0 -215 -87 -337 -252 -337c-73 0 -131 23 -174 70l-51 -80l-44 23l65 101c-32 56 -48 130 -48 223v70c0 215 87 337 252 337c67 0 121 -20 162 -59l44 68zM138 390v-70c0 -57 6 -106 17 -146l277 431c-27 37 -68 56 -122 56 c-116 0 -172 -87 -172 -271zM482 320v70c0 67 -8 122 -23 165l-281 -436c29 -47 73 -70 132 -70c116 0 172 87 172 271z"/>
    <glyph glyph-name="Ugrave" unicode="Ù" d="M268 884l75 -107h-67l-101 107h93zM75 228v482h76v-482c0 -111 57 -179 162 -179c104 0 155 66 155 179v482h77v-482c0 -149 -79 -245 -232 -245c-155 0 -238 97 -238 245z"/>
    <glyph glyph-name="Uacute" unicode="Ú" d="M344 777h-67l75 107h93zM75 228v482h76v-482c0 -111 57 -179 162 -179c104 0 155 66 155 179v482h77v-482c0 -149 -79 -245 -232 -245c-155 0 -238 97 -238 245z"/>
    <glyph glyph-name="Ucircumflex" unicode="Û" d="M351 884l102 -108h-73l-72 74l-69 -74h-72l101 108h83zM75 228v482h76v-482c0 -111 57 -179 162 -179c104 0 155 66 155 179v482h77v-482c0 -149 -79 -245 -232 -245c-155 0 -238 97 -238 245z"/>
    <glyph glyph-name="Udieresis" unicode="Ü" d="M153 884h93v-110h-93v110zM374 884h93v-110h-93v110zM75 228v482h76v-482c0 -111 57 -179 162 -179c104 0 155 66 155 179v482h77v-482c0 -149 -79 -245 -232 -245c-155 0 -238 97 -238 245z"/>
    <glyph glyph-name="Yacute" unicode="Ý" d="M344 777h-67l75 107h93zM581 710l-232 -425v-285h-77v285l-233 425h85l186 -360l186 360h85z"/>
    <glyph glyph-name="Thorn" unicode="Þ" d="M330 203h-153v-203h-74v710h74v-122h153c165 0 219 -99 219 -192c0 -79 -48 -193 -219 -193zM326 525h-149v-259h149c53 0 91 13 114 40s35 57 35 90c0 72 -45 129 -149 129z"/>
    <glyph glyph-name="germandbls" unicode="ß" d="M295 -5h-37v59h37c117 0 177 58 177 154s-59 163 -191 168h-9v55h10c101 4 142 55 142 123c0 71 -42 120 -119 120c-80 0 -120 -51 -120 -154v-520h-70v515c0 127 61 214 192 214c59 0 105 -16 140 -48s52 -72 52 -120c0 -77 -52 -136 -125 -152 c100 -16 173 -82 173 -197c0 -136 -99 -217 -252 -217z"/>
    <glyph glyph-name="agrave" unicode="à" d="M245 720l94 -142h-63l-119 142h88zM493 304v-129c0 -80 5 -138 15 -175h-74c-4 38 -6 71 -7 100c-33 -75 -91 -112 -175 -112c-99 0 -166 59 -166 146c0 49 21 86 62 111c31 20 85 34 162 43l112 13v9c0 101 -35 144 -118 144c-79 0 -123 -41 -128 -110h-74 c8 107 83 168 207 168c127 0 184 -64 184 -208zM423 218v32l-132 -17c-93 -13 -131 -41 -131 -96c0 -56 40 -91 104 -91c96 0 159 69 159 172z"/>
    <glyph glyph-name="aacute" unicode="á" d="M338 578h-63l94 142h88zM493 304v-129c0 -80 5 -138 15 -175h-74c-4 38 -6 71 -7 100c-33 -75 -91 -112 -175 -112c-99 0 -166 59 -166 146c0 49 21 86 62 111c31 20 85 34 162 43l112 13v9c0 101 -35 144 -118 144c-79 0 -123 -41 -128 -110h-74c8 107 83 168 207 168 c127 0 184 -64 184 -208zM423 218v32l-132 -17c-93 -13 -131 -41 -131 -96c0 -56 40 -91 104 -91c96 0 159 69 159 172z"/>
    <glyph glyph-name="acircumflex" unicode="â" d="M345 720l106 -142h-70l-74 99l-74 -99h-70l106 142h76zM493 304v-129c0 -80 5 -138 15 -175h-74c-4 38 -6 71 -7 100c-33 -75 -91 -112 -175 -112c-99 0 -166 59 -166 146c0 49 21 86 62 111c31 20 85 34 162 43l112 13v9c0 101 -35 144 -118 144 c-79 0 -123 -41 -128 -110h-74c8 107 83 168 207 168c127 0 184 -64 184 -208zM423 218v32l-132 -17c-93 -13 -131 -41 -131 -96c0 -56 40 -91 104 -91c96 0 159 69 159 172z"/>
    <glyph glyph-name="atilde" unicode="ã" d="M234 718c27 0 55 -11 84 -34s51 -34 66 -34c24 0 46 22 53 62l50 -7c-16 -77 -57 -112 -109 -112c-24 0 -50 11 -77 34c-27 22 -50 33 -68 33c-29 0 -52 -23 -57 -59l-51 8c12 73 60 109 109 109zM493 304v-129c0 -80 5 -138 15 -175h-74c-4 38 -6 71 -7 100 c-33 -75 -91 -112 -175 -112c-99 0 -166 59 -166 146c0 49 21 86 62 111c31 20 85 34 162 43l112 13v9c0 101 -35 144 -118 144c-79 0 -123 -41 -128 -110h-74c8 107 83 168 207 168c127 0 184 -64 184 -208zM423 218v32l-132 -17c-93 -13 -131 -41 -131 -96 c0 -56 40 -91 104 -91c96 0 159 69 159 172z"/>
    <glyph glyph-name="adieresis" unicode="ä" d="M163 721h101v-118h-101v118zM350 721h100v-118h-100v118zM493 304v-129c0 -80 5 -138 15 -175h-74c-4 38 -6 71 -7 100c-33 -75 -91 -112 -175 -112c-99 0 -166 59 -166 146c0 49 21 86 62 111c31 20 85 34 162 43l112 13v9c0 101 -35 144 -118 144 c-79 0 -123 -41 -128 -110h-74c8 107 83 168 207 168c127 0 184 -64 184 -208zM423 218v32l-132 -17c-93 -13 -131 -41 -131 -96c0 -56 40 -91 104 -91c96 0 159 69 159 172z"/>
    <glyph glyph-name="aring" unicode="å" d="M383 583c-19 -19 -45 -28 -76 -28s-56 9 -75 28s-29 42 -29 71s10 53 29 72s44 28 75 28s56 -9 75 -28s29 -43 29 -72s-9 -52 -28 -71zM267 613c20 -22 60 -22 80 0s20 60 0 83s-60 23 -80 0s-20 -61 0 -83zM493 304v-129c0 -80 5 -138 15 -175h-74c-4 38 -6 71 -7 100 c-33 -75 -91 -112 -175 -112c-99 0 -166 59 -166 146c0 49 21 86 62 111c31 20 85 34 162 43l112 13v9c0 101 -35 144 -118 144c-79 0 -123 -41 -128 -110h-74c8 107 83 168 207 168c127 0 184 -64 184 -208zM423 218v32l-132 -17c-93 -13 -131 -41 -131 -96 c0 -56 40 -91 104 -91c96 0 159 69 159 172z"/>
    <glyph glyph-name="ae" unicode="æ" d="M520 161v14l68 -12v-4c0 -103 -61 -170 -158 -170c-61 0 -105 25 -132 75c-24 -45 -73 -75 -129 -75c-80 0 -137 51 -137 139s41 129 142 148l102 18v56c0 71 -28 106 -83 106s-83 -37 -83 -101v-17h-69v3c0 112 61 169 152 169c57 0 98 -18 121 -54c27 36 66 54 117 54 c99 0 155 -67 155 -190v-74h-242v-84c0 -73 35 -114 87 -114c53 0 89 44 89 113zM516 293v35c0 83 -29 124 -86 124s-86 -41 -86 -123v-36h172zM182 43c51 0 94 45 94 118v87l-78 -15c-65 -12 -96 -37 -96 -97c0 -61 32 -93 80 -93z"/>
    <glyph glyph-name="ccedilla" unicode="ç" d="M310 50c77 0 123 47 135 128l67 -10c-16 -103 -80 -173 -187 -180l-27 -44c10 8 24 12 42 12c41 0 72 -28 72 -69c0 -51 -46 -87 -99 -87c-45 0 -76 18 -91 55l48 15c7 -21 22 -31 44 -31c24 0 44 16 44 44s-19 42 -42 42c-15 0 -28 -5 -37 -15l-34 11l37 68 c-128 13 -198 117 -198 264c0 156 80 259 228 259c112 0 189 -66 200 -178l-71 -8c-11 80 -57 125 -134 125c-97 0 -151 -77 -151 -197c0 -125 54 -204 154 -204z"/>
    <glyph glyph-name="egrave" unicode="è" d="M248 720l94 -142h-63l-119 142h88zM516 235h-360v-2c0 -109 61 -183 158 -183c66 0 113 34 141 103l60 -30c-38 -90 -105 -135 -201 -135c-149 0 -229 102 -229 271c0 77 20 138 61 184c40 46 94 69 162 69c144 0 209 -99 209 -246c0 -7 -1 -24 -1 -31zM305 457 c-46 0 -82 -16 -108 -48c-27 -33 -40 -71 -41 -116h289c1 95 -45 164 -140 164z"/>
    <glyph glyph-name="eacute" unicode="é" d="M372 720h88l-119 -142h-63zM516 235h-360v-2c0 -109 61 -183 158 -183c66 0 113 34 141 103l60 -30c-38 -90 -105 -135 -201 -135c-149 0 -229 102 -229 271c0 77 20 138 61 184c40 46 94 69 162 69c144 0 209 -99 209 -246c0 -7 -1 -24 -1 -31zM305 457 c-46 0 -82 -16 -108 -48c-27 -33 -40 -71 -41 -116h289c1 95 -45 164 -140 164z"/>
    <glyph glyph-name="ecircumflex" unicode="ê" d="M384 578l-74 99l-74 -99h-70l106 142h76l106 -142h-70zM516 235h-360v-2c0 -109 61 -183 158 -183c66 0 113 34 141 103l60 -30c-38 -90 -105 -135 -201 -135c-149 0 -229 102 -229 271c0 77 20 138 61 184c40 46 94 69 162 69c144 0 209 -99 209 -246 c0 -7 -1 -24 -1 -31zM305 457c-46 0 -82 -16 -108 -48c-27 -33 -40 -71 -41 -116h289c1 95 -45 164 -140 164z"/>
    <glyph glyph-name="edieresis" unicode="ë" d="M166 721h101v-118h-101v118zM353 721h100v-118h-100v118zM516 235h-360v-2c0 -109 61 -183 158 -183c66 0 113 34 141 103l60 -30c-38 -90 -105 -135 -201 -135c-149 0 -229 102 -229 271c0 77 20 138 61 184c40 46 94 69 162 69c144 0 209 -99 209 -246 c0 -7 -1 -24 -1 -31zM305 457c-46 0 -82 -16 -108 -48c-27 -33 -40 -71 -41 -116h289c1 95 -45 164 -140 164z"/>
    <glyph glyph-name="igrave" unicode="ì" d="M260 720l94 -142h-63l-119 142h88zM537 0h-407v58h164v384h-151v58h221v-442h173v-58z"/>
    <glyph glyph-name="iacute" unicode="í" d="M353 578h-63l94 142h88zM537 0h-407v58h164v384h-151v58h221v-442h173v-58z"/>
    <glyph glyph-name="icircumflex" unicode="î" d="M360 720l106 -142h-70l-74 99l-74 -99h-70l106 142h76zM537 0h-407v58h164v384h-151v58h221v-442h173v-58z"/>
    <glyph glyph-name="idieresis" unicode="ï" d="M178 721h101v-118h-101v118zM365 721h100v-118h-100v118zM537 0h-407v58h164v384h-151v58h221v-442h173v-58z"/>
    <glyph glyph-name="eth" unicode="ð" d="M476 627l-66 -20c76 -93 114 -210 114 -350c0 -77 -20 -142 -61 -193s-95 -77 -162 -77c-136 0 -218 102 -218 263c0 77 19 140 57 188c38 47 90 71 155 71c59 0 104 -27 134 -80c-17 60 -45 112 -84 157l-175 -54l-17 45l153 47c-30 25 -64 44 -102 55l43 44 c49 -17 92 -43 127 -78l86 27zM193 107c23 -39 60 -58 110 -58s87 19 111 56s36 86 36 145c0 120 -46 200 -147 200c-97 0 -145 -83 -145 -200c0 -57 12 -105 35 -143z"/>
    <glyph glyph-name="ntilde" unicode="ñ" d="M237 718c27 0 55 -11 84 -34s51 -34 66 -34c24 0 46 22 53 62l50 -7c-16 -77 -57 -112 -109 -112c-23 0 -49 11 -77 34c-28 22 -51 33 -68 33c-29 0 -52 -23 -57 -59l-51 8c12 73 60 109 109 109zM172 500v-110c28 76 87 122 171 122c51 0 92 -14 121 -43 c33 -32 50 -86 50 -162v-307h-70v304c0 97 -39 146 -117 146c-114 0 -151 -106 -151 -187v-263h-70v500h66z"/>
    <glyph glyph-name="ograve" unicode="ò" d="M248 720l94 -142h-63l-119 142h88zM477 59c-42 -47 -98 -71 -167 -71s-125 24 -166 72c-42 48 -63 111 -63 190c0 80 21 144 63 191c41 47 97 71 166 71s125 -24 167 -71c41 -47 62 -111 62 -191s-21 -144 -62 -191zM197 103c27 -36 65 -54 113 -54s86 18 114 54 c27 35 41 84 41 147s-14 112 -41 148c-28 35 -66 53 -114 53s-86 -18 -113 -53c-28 -36 -42 -85 -42 -148s14 -112 42 -147z"/>
    <glyph glyph-name="oacute" unicode="ó" d="M341 578h-63l94 142h88zM477 59c-42 -47 -98 -71 -167 -71s-125 24 -166 72c-42 48 -63 111 -63 190c0 80 21 144 63 191c41 47 97 71 166 71s125 -24 167 -71c41 -47 62 -111 62 -191s-21 -144 -62 -191zM197 103c27 -36 65 -54 113 -54s86 18 114 54 c27 35 41 84 41 147s-14 112 -41 148c-28 35 -66 53 -114 53s-86 -18 -113 -53c-28 -36 -42 -85 -42 -148s14 -112 42 -147z"/>
    <glyph glyph-name="ocircumflex" unicode="ô" d="M348 720l106 -142h-70l-74 99l-74 -99h-70l106 142h76zM477 59c-42 -47 -98 -71 -167 -71s-125 24 -166 72c-42 48 -63 111 -63 190c0 80 21 144 63 191c41 47 97 71 166 71s125 -24 167 -71c41 -47 62 -111 62 -191s-21 -144 -62 -191zM197 103c27 -36 65 -54 113 -54 s86 18 114 54c27 35 41 84 41 147s-14 112 -41 148c-28 35 -66 53 -114 53s-86 -18 -113 -53c-28 -36 -42 -85 -42 -148s14 -112 42 -147z"/>
    <glyph glyph-name="otilde" unicode="õ" d="M237 718c27 0 55 -11 84 -34s51 -34 66 -34c24 0 46 22 53 62l50 -7c-16 -77 -57 -112 -109 -112c-23 0 -49 11 -77 34c-28 22 -51 33 -68 33c-29 0 -52 -23 -57 -59l-51 8c12 73 60 109 109 109zM477 59c-42 -47 -98 -71 -167 -71s-125 24 -166 72 c-42 48 -63 111 -63 190c0 80 21 144 63 191c41 47 97 71 166 71s125 -24 167 -71c41 -47 62 -111 62 -191s-21 -144 -62 -191zM197 103c27 -36 65 -54 113 -54s86 18 114 54c27 35 41 84 41 147s-14 112 -41 148c-28 35 -66 53 -114 53s-86 -18 -113 -53 c-28 -36 -42 -85 -42 -148s14 -112 42 -147z"/>
    <glyph glyph-name="odieresis" unicode="ö" d="M166 721h101v-118h-101v118zM353 721h100v-118h-100v118zM477 59c-42 -47 -98 -71 -167 -71s-125 24 -166 72c-42 48 -63 111 -63 190c0 80 21 144 63 191c41 47 97 71 166 71s125 -24 167 -71c41 -47 62 -111 62 -191s-21 -144 -62 -191zM197 103c27 -36 65 -54 113 -54 s86 18 114 54c27 35 41 84 41 147s-14 112 -41 148c-28 35 -66 53 -114 53s-86 -18 -113 -53c-28 -36 -42 -85 -42 -148s14 -112 42 -147z"/>
    <glyph glyph-name="divide" unicode="÷" d="M344 482c-18 -17 -49 -17 -67 0s-18 51 -1 68c17 16 51 16 68 0c17 -17 18 -51 0 -68zM545 296h-470v62h470v-62zM344 104c-30 -28 -81 -8 -81 34c0 28 20 47 47 47c43 5 62 -54 34 -81z"/>
    <glyph glyph-name="oslash" unicode="ø" d="M527 486l-43 -54c37 -47 55 -108 55 -182c0 -80 -21 -144 -62 -191c-42 -47 -98 -71 -167 -71c-55 0 -103 16 -142 48l-38 -48l-36 27l43 53c-37 48 -56 109 -56 182c0 80 21 144 63 191c41 47 97 71 166 71c55 0 102 -16 142 -47l37 47zM155 250c0 -51 9 -92 27 -125 l228 288c-27 25 -60 38 -100 38c-96 0 -155 -76 -155 -201zM310 49c96 0 155 76 155 201c0 51 -9 92 -27 125l-229 -287c27 -26 61 -39 101 -39z"/>
    <glyph glyph-name="ugrave" unicode="ù" d="M242 720l94 -142h-63l-119 142h88zM437 0v103c-23 -63 -85 -115 -160 -115c-53 0 -96 15 -127 44c-31 31 -47 84 -47 159v309h72v-308c0 -96 39 -144 117 -144c67 0 113 49 129 102c8 26 12 54 12 84v266h70v-500h-66z"/>
    <glyph glyph-name="uacute" unicode="ú" d="M335 578h-63l94 142h88zM437 0v103c-23 -63 -85 -115 -160 -115c-53 0 -96 15 -127 44c-31 31 -47 84 -47 159v309h72v-308c0 -96 39 -144 117 -144c67 0 113 49 129 102c8 26 12 54 12 84v266h70v-500h-66z"/>
    <glyph glyph-name="ucircumflex" unicode="û" d="M342 720l106 -142h-70l-74 99l-74 -99h-70l106 142h76zM437 0v103c-23 -63 -85 -115 -160 -115c-53 0 -96 15 -127 44c-31 31 -47 84 -47 159v309h72v-308c0 -96 39 -144 117 -144c67 0 113 49 129 102c8 26 12 54 12 84v266h70v-500h-66z"/>
    <glyph glyph-name="udieresis" unicode="ü" d="M160 721h101v-118h-101v118zM347 721h100v-118h-100v118zM437 0v103c-23 -63 -85 -115 -160 -115c-53 0 -96 15 -127 44c-31 31 -47 84 -47 159v309h72v-308c0 -96 39 -144 117 -144c67 0 113 49 129 102c8 26 12 54 12 84v266h70v-500h-66z"/>
    <glyph glyph-name="yacute" unicode="ý" d="M341 578h-63l94 142h88zM86 500h79l153 -419l148 419h74l-199 -532c-44 -121 -100 -169 -185 -169c-16 0 -31 1 -44 4v62c17 -1 30 -2 37 -2c63 0 97 32 122 104l13 37z"/>
    <glyph glyph-name="thorn" unicode="þ" d="M115 725h69v-328c33 77 88 115 164 115c63 0 112 -25 149 -74c37 -50 55 -113 55 -188c0 -76 -18 -139 -55 -188c-37 -50 -87 -75 -150 -75c-73 0 -132 39 -163 107v-289h-69v920zM183 263v-25c0 -115 55 -189 147 -189c45 0 81 19 108 57s40 86 40 144s-13 106 -39 144 c-27 37 -63 56 -109 56c-91 0 -147 -76 -147 -187z"/>
    <glyph glyph-name="ydieresis" unicode="ÿ" d="M166 721h101v-118h-101v118zM353 721h100v-118h-100v118zM86 500h79l153 -419l148 419h74l-199 -532c-44 -121 -100 -169 -185 -169c-16 0 -31 1 -44 4v62c17 -1 30 -2 37 -2c63 0 97 32 122 104l13 37z"/>
    <glyph glyph-name="Amacron" unicode="Ā" d="M152 836h316v-57h-316v57zM584 0h-76l-69 212h-258l-69 -212h-75l230 710h87zM208 296l-6 -18h216l-6 18c-39 121 -73 236 -101 345h-2c-19 -79 -53 -194 -101 -345z"/>
    <glyph glyph-name="amacron" unicode="ā" d="M451 602h-288v57h288v-57zM493 304v-129c0 -80 5 -138 15 -175h-74c-4 38 -6 71 -7 100c-33 -75 -91 -112 -175 -112c-99 0 -166 59 -166 146c0 49 21 86 62 111c31 20 85 34 162 43l112 13v9c0 101 -35 144 -118 144c-79 0 -123 -41 -128 -110h-74c8 107 83 168 207 168 c127 0 184 -64 184 -208zM423 218v32l-132 -17c-93 -13 -131 -41 -131 -96c0 -56 40 -91 104 -91c96 0 159 69 159 172z"/>
    <glyph glyph-name="Abreve" unicode="Ă" d="M310 769c-80 0 -145 40 -157 115h65c7 -37 41 -64 92 -64c49 0 86 27 93 64h64c-12 -75 -76 -115 -157 -115zM584 0h-76l-69 212h-258l-69 -212h-75l230 710h87zM208 296l-6 -18h216l-6 18c-39 121 -73 236 -101 345h-2c-19 -79 -53 -194 -101 -345z"/>
    <glyph glyph-name="abreve" unicode="ă" d="M157 720h60c3 -56 39 -97 90 -97s87 41 90 97h60c-7 -99 -69 -147 -150 -147s-145 48 -150 147zM493 304v-129c0 -80 5 -138 15 -175h-74c-4 38 -6 71 -7 100c-33 -75 -91 -112 -175 -112c-99 0 -166 59 -166 146c0 49 21 86 62 111c31 20 85 34 162 43l112 13v9 c0 101 -35 144 -118 144c-79 0 -123 -41 -128 -110h-74c8 107 83 168 207 168c127 0 184 -64 184 -208zM423 218v32l-132 -17c-93 -13 -131 -41 -131 -96c0 -56 40 -91 104 -91c96 0 159 69 159 172z"/>
    <glyph glyph-name="Aogonek" unicode="Ą" d="M569 -108l46 -16c-11 -52 -50 -79 -105 -79c-49 0 -92 34 -92 86c0 50 31 89 94 117h-4l-69 212h-258l-69 -212h-75l230 710h87l230 -710c-80 -28 -112 -69 -112 -108c0 -31 18 -52 45 -52s45 23 52 52zM208 296l-6 -18h216l-6 18c-39 121 -73 236 -101 345h-2 c-19 -79 -53 -194 -101 -345z"/>
    <glyph glyph-name="aogonek" unicode="ą" d="M493 -108l46 -16c-11 -52 -50 -79 -105 -79c-49 0 -92 34 -92 86c0 50 31 89 94 117h-2c-4 38 -6 71 -7 100c-33 -75 -91 -112 -175 -112c-99 0 -166 59 -166 146c0 49 21 86 62 111c31 20 85 34 162 43l112 13v9c0 101 -35 144 -118 144c-79 0 -123 -41 -128 -110h-74 c8 107 83 168 207 168c127 0 184 -64 184 -208v-129c0 -80 5 -138 15 -175c-80 -28 -112 -69 -112 -108c0 -31 18 -52 45 -52s45 23 52 52zM423 218v32l-132 -17c-93 -13 -131 -41 -131 -96c0 -56 40 -91 104 -91c96 0 159 69 159 172z"/>
    <glyph glyph-name="Cacute" unicode="Ć" d="M344 777h-67l75 107h93zM309 -17c-164 0 -248 122 -248 337v72c0 213 90 335 254 335c146 0 227 -84 243 -251l-77 -11c-8 127 -64 196 -167 196c-117 0 -175 -88 -175 -265v-72c0 -180 61 -275 176 -275c101 0 156 65 167 195l76 -15c-16 -149 -98 -246 -249 -246z"/>
    <glyph glyph-name="cacute" unicode="ć" d="M341 578h-63l94 142h88zM310 -12c-73 0 -128 25 -167 74s-59 112 -59 191c0 156 80 259 228 259c112 0 189 -66 200 -178l-71 -8c-11 80 -57 125 -134 125c-97 0 -151 -77 -151 -197c0 -125 54 -204 154 -204c77 0 123 47 135 128l67 -10c-17 -108 -86 -180 -202 -180z "/>
    <glyph glyph-name="Ccircumflex" unicode="Ĉ" d="M351 884l102 -108h-73l-72 74l-69 -74h-72l101 108h83zM309 -17c-164 0 -248 122 -248 337v72c0 213 90 335 254 335c146 0 227 -84 243 -251l-77 -11c-8 127 -64 196 -167 196c-117 0 -175 -88 -175 -265v-72c0 -180 61 -275 176 -275c101 0 156 65 167 195l76 -15 c-16 -149 -98 -246 -249 -246z"/>
    <glyph glyph-name="ccircumflex" unicode="ĉ" d="M348 720l106 -142h-70l-74 99l-74 -99h-70l106 142h76zM310 -12c-73 0 -128 25 -167 74s-59 112 -59 191c0 156 80 259 228 259c112 0 189 -66 200 -178l-71 -8c-11 80 -57 125 -134 125c-97 0 -151 -77 -151 -197c0 -125 54 -204 154 -204c77 0 123 47 135 128l67 -10 c-17 -108 -86 -180 -202 -180z"/>
    <glyph glyph-name="Cdotaccent" unicode="Ċ" d="M259 884h102v-110h-102v110zM309 -17c-164 0 -248 122 -248 337v72c0 213 90 335 254 335c146 0 227 -84 243 -251l-77 -11c-8 127 -64 196 -167 196c-117 0 -175 -88 -175 -265v-72c0 -180 61 -275 176 -275c101 0 156 65 167 195l76 -15c-16 -149 -98 -246 -249 -246z "/>
    <glyph glyph-name="cdotaccent" unicode="ċ" d="M259 721h102v-121h-102v121zM310 -12c-73 0 -128 25 -167 74s-59 112 -59 191c0 156 80 259 228 259c112 0 189 -66 200 -178l-71 -8c-11 80 -57 125 -134 125c-97 0 -151 -77 -151 -197c0 -125 54 -204 154 -204c77 0 123 47 135 128l67 -10 c-17 -108 -86 -180 -202 -180z"/>
    <glyph glyph-name="Ccaron" unicode="Č" d="M269 776l-102 108h73l72 -74l69 74h72l-101 -108h-83zM309 -17c-164 0 -248 122 -248 337v72c0 213 90 335 254 335c146 0 227 -84 243 -251l-77 -11c-8 127 -64 196 -167 196c-117 0 -175 -88 -175 -265v-72c0 -180 61 -275 176 -275c101 0 156 65 167 195l76 -15 c-16 -149 -98 -246 -249 -246z"/>
    <glyph glyph-name="ccaron" unicode="č" d="M272 578l-106 142h70l74 -99l74 99h70l-106 -142h-76zM310 -12c-73 0 -128 25 -167 74s-59 112 -59 191c0 156 80 259 228 259c112 0 189 -66 200 -178l-71 -8c-11 80 -57 125 -134 125c-97 0 -151 -77 -151 -197c0 -125 54 -204 154 -204c77 0 123 47 135 128l67 -10 c-17 -108 -86 -180 -202 -180z"/>
    <glyph glyph-name="Dcaron" unicode="Ď" d="M255 776l-102 108h73l72 -74l69 74h72l-101 -108h-83zM272 0h-189v710h192c96 0 170 -32 223 -96s79 -149 79 -256c0 -106 -27 -192 -82 -258c-55 -67 -130 -100 -223 -100zM159 646v-582h113c71 0 126 28 166 84c40 55 60 125 60 210s-19 155 -57 208 c-39 53 -94 80 -166 80h-116z"/>
    <glyph glyph-name="dcaron" unicode="ď" d="M227 -10c-59 0 -107 24 -142 72s-53 112 -53 191s19 142 56 190c37 47 87 71 149 71c69 0 123 -39 147 -103v316h70v-725h-66v106c-29 -79 -83 -118 -161 -118zM525 545l-18 32c33 15 40 32 40 69h-42v79h80v-72c0 -54 -20 -90 -60 -108zM240 52c89 0 146 77 146 190v21 c0 113 -55 189 -143 189c-87 0 -137 -75 -137 -199s50 -201 134 -201z"/>
    <glyph glyph-name="Dcroat" unicode="Đ" d="M83 710h192c96 0 170 -32 223 -96s79 -149 79 -256c0 -106 -27 -192 -82 -258c-55 -67 -130 -100 -223 -100h-189v337h-83v59h83v314zM159 64h113c71 0 126 28 166 84c40 55 60 125 60 210s-19 155 -57 208c-39 53 -94 80 -166 80h-116v-250h169v-59h-169v-273z"/>
    <glyph glyph-name="dslash" unicode="đ" d="M502 624h65v-43h-65v-581h-66v106c-30 -79 -85 -118 -166 -118c-63 0 -113 24 -150 72s-56 112 -56 191c0 78 20 141 59 189s92 72 158 72c71 0 126 -39 151 -103v172h-278v43h278v101h70v-101zM433 240v21c0 113 -57 189 -146 189c-93 0 -149 -75 -149 -199 c0 -62 13 -111 39 -147s62 -54 107 -54s82 17 109 52s40 81 40 138z"/>
    <glyph glyph-name="Emacron" unicode="Ē" d="M468 779h-316v57h316v-57zM110 710h408v-66h-332v-248h315v-64h-315v-266h339v-66h-415v710z"/>
    <glyph glyph-name="emacron" unicode="ē" d="M166 659h288v-57h-288v57zM516 235h-360v-2c0 -109 61 -183 158 -183c66 0 113 34 141 103l60 -30c-38 -90 -105 -135 -201 -135c-149 0 -229 102 -229 271c0 77 20 138 61 184c40 46 94 69 162 69c144 0 209 -99 209 -246c0 -7 -1 -24 -1 -31zM305 457 c-46 0 -82 -16 -108 -48c-27 -33 -40 -71 -41 -116h289c1 95 -45 164 -140 164z"/>
    <glyph glyph-name="Ebreve" unicode="Ĕ" d="M153 884h65c7 -37 41 -64 92 -64c49 0 86 27 93 64h64c-12 -75 -76 -115 -157 -115c-80 0 -145 40 -157 115zM110 710h408v-66h-332v-248h315v-64h-315v-266h339v-66h-415v710z"/>
    <glyph glyph-name="ebreve" unicode="ĕ" d="M413 610c-28 -25 -62 -37 -103 -37s-75 12 -103 37c-29 24 -44 61 -47 110h60c3 -56 39 -97 90 -97s87 41 90 97h60c-3 -49 -19 -86 -47 -110zM516 235h-360v-2c0 -109 61 -183 158 -183c66 0 113 34 141 103l60 -30c-38 -90 -105 -135 -201 -135 c-149 0 -229 102 -229 271c0 77 20 138 61 184c40 46 94 69 162 69c144 0 209 -99 209 -246c0 -7 -1 -24 -1 -31zM305 457c-46 0 -82 -16 -108 -48c-27 -33 -40 -71 -41 -116h289c1 95 -45 164 -140 164z"/>
    <glyph glyph-name="Edotaccent" unicode="Ė" d="M259 884h102v-110h-102v110zM110 710h408v-66h-332v-248h315v-64h-315v-266h339v-66h-415v710z"/>
    <glyph glyph-name="edotaccent" unicode="ė" d="M259 721h102v-121h-102v121zM516 235h-360v-2c0 -109 61 -183 158 -183c66 0 113 34 141 103l60 -30c-38 -90 -105 -135 -201 -135c-149 0 -229 102 -229 271c0 77 20 138 61 184c40 46 94 69 162 69c144 0 209 -99 209 -246c0 -7 -1 -24 -1 -31zM305 457 c-46 0 -82 -16 -108 -48c-27 -33 -40 -71 -41 -116h289c1 95 -45 164 -140 164z"/>
    <glyph glyph-name="Eogonek" unicode="Ę" d="M510 -108l46 -16c-11 -52 -50 -79 -105 -79c-49 0 -92 34 -92 86c0 50 31 89 94 117h-343v710h408v-66h-332v-248h315v-64h-315v-266h339v-66c-80 -28 -112 -69 -112 -108c0 -31 18 -52 45 -52s45 23 52 52z"/>
    <glyph glyph-name="eogonek" unicode="ę" d="M516 235h-360v-2c0 -109 61 -183 158 -183c66 0 113 34 141 103l60 -30c-27 -65 -71 -106 -130 -125c-77 -28 -107 -69 -107 -106c0 -31 18 -52 45 -52s45 23 52 52l46 -16c-11 -52 -50 -79 -105 -79c-49 0 -92 34 -92 86c0 43 24 79 71 106c-137 8 -210 109 -210 270 c0 77 20 138 61 184c40 46 94 69 162 69c144 0 209 -99 209 -246c0 -7 -1 -24 -1 -31zM305 457c-46 0 -82 -16 -108 -48c-27 -33 -40 -71 -41 -116h289c1 95 -45 164 -140 164z"/>
    <glyph glyph-name="Ecaron" unicode="Ě" d="M269 776l-102 108h73l72 -74l69 74h72l-101 -108h-83zM110 710h408v-66h-332v-248h315v-64h-315v-266h339v-66h-415v710z"/>
    <glyph glyph-name="ecaron" unicode="ě" d="M454 720l-106 -142h-76l-106 142h70l74 -99l74 99h70zM516 235h-360v-2c0 -109 61 -183 158 -183c66 0 113 34 141 103l60 -30c-38 -90 -105 -135 -201 -135c-149 0 -229 102 -229 271c0 77 20 138 61 184c40 46 94 69 162 69c144 0 209 -99 209 -246c0 -7 -1 -24 -1 -31 zM305 457c-46 0 -82 -16 -108 -48c-27 -33 -40 -71 -41 -116h289c1 95 -45 164 -140 164z"/>
    <glyph glyph-name="Gcircumflex" unicode="Ĝ" d="M351 884l102 -108h-73l-72 74l-69 -74h-72l101 108h83zM296 -17c-77 0 -135 30 -175 91c-41 60 -61 140 -61 241v86c0 207 90 326 251 326c80 0 140 -29 173 -76c32 -47 46 -90 53 -141l-75 -10c-4 43 -18 81 -43 113s-62 48 -110 48c-111 0 -170 -77 -170 -272v-62 c0 -185 56 -277 169 -277c125 0 166 124 166 215v41h-184v62h254v-368h-53l-12 120c-33 -91 -94 -137 -183 -137z"/>
    <glyph glyph-name="gcircumflex" unicode="ĝ" d="M381 595l-71 86l-71 -86h-73l106 125h76l106 -125h-73zM524 516c-40 0 -67 -17 -81 -52c33 -31 49 -70 49 -119c0 -101 -75 -169 -184 -169c-37 0 -68 7 -94 21c-28 -12 -42 -31 -42 -56c0 -35 30 -56 85 -56h135c101 0 159 -48 159 -132c0 -103 -88 -160 -240 -160 c-140 0 -225 50 -225 131c0 55 33 94 88 113c-43 15 -64 44 -64 87c0 45 24 77 71 95c-35 29 -52 70 -52 122c0 101 74 171 182 171c37 0 69 -8 98 -23c17 59 56 89 118 89c11 0 20 -1 27 -3v-62c-12 2 -22 3 -30 3zM308 230c69 0 118 48 118 115s-47 113 -115 113 c-69 0 -116 -48 -116 -116c0 -67 46 -112 113 -112zM378 24h-123c-10 0 -23 1 -39 2c-41 -16 -61 -44 -61 -83c0 -61 55 -92 164 -92c108 0 162 32 162 95c0 52 -34 78 -103 78z"/>
    <glyph glyph-name="Gbreve" unicode="Ğ" d="M153 884h65c7 -37 41 -64 92 -64c49 0 86 27 93 64h64c-12 -75 -76 -115 -157 -115c-80 0 -145 40 -157 115zM296 -17c-77 0 -135 30 -175 91c-41 60 -61 140 -61 241v86c0 207 90 326 251 326c80 0 140 -29 173 -76c32 -47 46 -90 53 -141l-75 -10c-4 43 -18 81 -43 113 s-62 48 -110 48c-111 0 -170 -77 -170 -272v-62c0 -185 56 -277 169 -277c125 0 166 124 166 215v41h-184v62h254v-368h-53l-12 120c-33 -91 -94 -137 -183 -137z"/>
    <glyph glyph-name="gbreve" unicode="ğ" d="M413 610c-28 -25 -62 -37 -103 -37s-75 12 -103 37c-29 24 -44 61 -47 110h60c3 -56 39 -97 90 -97s87 41 90 97h60c-3 -49 -19 -86 -47 -110zM524 516c-40 0 -67 -17 -81 -52c33 -31 49 -70 49 -119c0 -101 -75 -169 -184 -169c-37 0 -68 7 -94 21 c-28 -12 -42 -31 -42 -56c0 -35 30 -56 85 -56h135c101 0 159 -48 159 -132c0 -103 -88 -160 -240 -160c-140 0 -225 50 -225 131c0 55 33 94 88 113c-43 15 -64 44 -64 87c0 45 24 77 71 95c-35 29 -52 70 -52 122c0 101 74 171 182 171c37 0 69 -8 98 -23 c17 59 56 89 118 89c11 0 20 -1 27 -3v-62c-12 2 -22 3 -30 3zM308 230c69 0 118 48 118 115s-47 113 -115 113c-69 0 -116 -48 -116 -116c0 -67 46 -112 113 -112zM378 24h-123c-10 0 -23 1 -39 2c-41 -16 -61 -44 -61 -83c0 -61 55 -92 164 -92c108 0 162 32 162 95 c0 52 -34 78 -103 78z"/>
    <glyph glyph-name="Gdotaccent" unicode="Ġ" d="M259 884h102v-110h-102v110zM296 -17c-77 0 -135 30 -175 91c-41 60 -61 140 -61 241v86c0 207 90 326 251 326c80 0 140 -29 173 -76c32 -47 46 -90 53 -141l-75 -10c-4 43 -18 81 -43 113s-62 48 -110 48c-111 0 -170 -77 -170 -272v-62c0 -185 56 -277 169 -277 c125 0 166 124 166 215v41h-184v62h254v-368h-53l-12 120c-33 -91 -94 -137 -183 -137z"/>
    <glyph glyph-name="gdotaccent" unicode="ġ" d="M259 721h102v-121h-102v121zM524 516c-40 0 -67 -17 -81 -52c33 -31 49 -70 49 -119c0 -101 -75 -169 -184 -169c-37 0 -68 7 -94 21c-28 -12 -42 -31 -42 -56c0 -35 30 -56 85 -56h135c101 0 159 -48 159 -132c0 -103 -88 -160 -240 -160c-140 0 -225 50 -225 131 c0 55 33 94 88 113c-43 15 -64 44 -64 87c0 45 24 77 71 95c-35 29 -52 70 -52 122c0 101 74 171 182 171c37 0 69 -8 98 -23c17 59 56 89 118 89c11 0 20 -1 27 -3v-62c-12 2 -22 3 -30 3zM308 230c69 0 118 48 118 115s-47 113 -115 113c-69 0 -116 -48 -116 -116 c0 -67 46 -112 113 -112zM378 24h-123c-10 0 -23 1 -39 2c-41 -16 -61 -44 -61 -83c0 -61 55 -92 164 -92c108 0 162 32 162 95c0 52 -34 78 -103 78z"/>
    <glyph glyph-name="Gcommaaccent" unicode="Ģ" d="M296 -17c-77 0 -135 30 -175 91c-41 60 -61 140 -61 241v86c0 207 90 326 251 326c80 0 140 -29 173 -76c32 -47 46 -90 53 -141l-75 -10c-4 43 -18 81 -43 113s-62 48 -110 48c-111 0 -170 -77 -170 -272v-62c0 -185 56 -277 169 -277c125 0 166 124 166 215v41h-184v62 h254v-368h-53l-12 120c-33 -91 -94 -137 -183 -137zM272 -213l-19 31c37 12 55 30 55 53h-56v87h101v-64c0 -55 -18 -87 -81 -107z"/>
    <glyph glyph-name="gcommaaccent" unicode="ģ" d="M303 666h56v-87h-101v64c0 55 18 87 81 107l19 -31c-37 -12 -55 -30 -55 -53zM524 516c-40 0 -67 -17 -81 -52c33 -31 49 -70 49 -119c0 -101 -75 -169 -184 -169c-37 0 -68 7 -94 21c-28 -12 -42 -31 -42 -56c0 -35 30 -56 85 -56h135c101 0 159 -48 159 -132 c0 -103 -88 -160 -240 -160c-140 0 -225 50 -225 131c0 55 33 94 88 113c-43 15 -64 44 -64 87c0 45 24 77 71 95c-35 29 -52 70 -52 122c0 101 74 171 182 171c37 0 69 -8 98 -23c17 59 56 89 118 89c11 0 20 -1 27 -3v-62c-12 2 -22 3 -30 3zM308 230c69 0 118 48 118 115 s-47 113 -115 113c-69 0 -116 -48 -116 -116c0 -67 46 -112 113 -112zM378 24h-123c-10 0 -23 1 -39 2c-41 -16 -61 -44 -61 -83c0 -61 55 -92 164 -92c108 0 162 32 162 95c0 52 -34 78 -103 78z"/>
    <glyph glyph-name="Hcircumflex" unicode="Ĥ" d="M351 884l102 -108h-73l-72 74l-69 -74h-72l101 108h83zM457 710h77v-710h-77v331h-294v-331h-77v710h77v-315h294v315z"/>
    <glyph glyph-name="hcircumflex" unicode="ĥ" d="M183 884l102 -108h-73l-72 74l-69 -74h-72l101 108h83zM176 725v-328c24 71 87 115 163 115c52 0 94 -15 125 -44c33 -32 50 -86 50 -161v-307h-70v304c0 97 -41 146 -122 146c-50 0 -87 -19 -110 -57c-24 -38 -36 -81 -36 -130v-263h-70v725h70z"/>
    <glyph glyph-name="Hbar" unicode="Ħ" d="M534 577h65v-49h-65v-528h-77v331h-294v-331h-77v528h-65v49h65v133h77v-133h294v133h77v-133zM163 395h294v133h-294v-133z"/>
    <glyph glyph-name="hbar" unicode="ħ" d="M464 468c33 -32 50 -86 50 -161v-307h-70v304c0 97 -41 146 -122 146c-50 0 -87 -19 -110 -57c-24 -38 -36 -81 -36 -130v-263h-70v581h-106v43h106v101h70v-101h243v-43h-243v-184c24 71 87 115 163 115c52 0 94 -15 125 -44z"/>
    <glyph glyph-name="Itilde" unicode="Ĩ" d="M237 832c-33 0 -54 -18 -63 -54l-49 9c11 68 58 100 114 100c24 0 50 -10 79 -31s51 -32 68 -32c34 0 54 19 60 58l48 -8c-9 -68 -52 -104 -113 -104c-25 0 -50 10 -77 31s-50 31 -67 31zM530 710v-62h-182v-586h182v-62h-440v62h181v586h-181v62h440z"/>
    <glyph glyph-name="itilde" unicode="ĩ" d="M249 718c27 0 55 -11 84 -34s51 -34 66 -34c24 0 46 22 53 62l50 -7c-16 -77 -57 -112 -109 -112c-23 0 -49 11 -77 34c-28 22 -51 33 -68 33c-29 0 -52 -23 -57 -59l-51 8c12 73 60 109 109 109zM537 0h-407v58h164v384h-151v58h221v-442h173v-58z"/>
    <glyph glyph-name="Imacron" unicode="Ī" d="M152 836h316v-57h-316v57zM530 710v-62h-182v-586h182v-62h-440v62h181v586h-181v62h440z"/>
    <glyph glyph-name="imacron" unicode="ī" d="M466 602h-288v57h288v-57zM537 0h-407v58h164v384h-151v58h221v-442h173v-58z"/>
    <glyph glyph-name="Ibreve" unicode="Ĭ" d="M310 769c-80 0 -145 40 -157 115h65c7 -37 41 -64 92 -64c49 0 86 27 93 64h64c-12 -75 -76 -115 -157 -115zM530 710v-62h-182v-586h182v-62h-440v62h181v586h-181v62h440z"/>
    <glyph glyph-name="ibreve" unicode="ĭ" d="M172 720h60c3 -56 39 -97 90 -97s87 41 90 97h60c-7 -99 -69 -147 -150 -147s-145 48 -150 147zM537 0h-407v58h164v384h-151v58h221v-442h173v-58z"/>
    <glyph glyph-name="Iogonek" unicode="Į" d="M515 -108l46 -16c-11 -52 -50 -79 -105 -79c-49 0 -92 34 -92 86c0 50 31 89 94 117h-368v62h181v586h-181v62h440v-62h-182v-586h182v-62c-80 -28 -112 -69 -112 -108c0 -31 18 -52 45 -52s45 23 52 52z"/>
    <glyph glyph-name="iogonek" unicode="į" d="M271 721h102v-121h-102v121zM522 -108l46 -16c-11 -52 -50 -79 -105 -79c-49 0 -92 34 -92 86c0 50 31 89 94 117h-335v58h164v384h-151v58h221v-442h173v-58c-80 -28 -112 -69 -112 -108c0 -31 18 -52 45 -52s45 23 52 52z"/>
    <glyph glyph-name="Idot" unicode="İ" d="M259 884h102v-110h-102v110zM530 710v-62h-182v-586h182v-62h-440v62h181v586h-181v62h440z"/>
    <glyph glyph-name="dotlessi" unicode="ı" d="M537 0h-407v58h164v384h-151v58h221v-442h173v-58z"/>
    <glyph glyph-name="IJ" unicode="Ĳ" d="M103 710h76v-710h-76v710zM249 6v63c25 -7 55 -10 89 -10c77 0 116 30 116 123v528h76v-535c0 -112 -62 -182 -190 -182c-37 0 -67 4 -91 13z"/>
    <glyph glyph-name="ij" unicode="ĳ" d="M219 604h-101v121h101v-121zM505 604h-101v121h101v-121zM204 0h-70v500h70v-500zM336 -202c-35 0 -66 3 -93 9v61c41 -4 69 -6 83 -6c63 0 96 30 96 119v519h69v-523c0 -111 -51 -179 -155 -179z"/>
    <glyph glyph-name="Jcircumflex" unicode="Ĵ" d="M519 884l102 -108h-73l-72 74l-69 -74h-72l101 108h83zM515 710v-490c0 -148 -84 -237 -225 -237c-76 0 -133 24 -171 71s-57 107 -57 178l75 23c0 -129 55 -206 156 -206c97 0 146 62 146 187v474h76z"/>
    <glyph glyph-name="jcircumflex" unicode="ĵ" d="M413 719l106 -142h-70l-74 99l-74 -99h-70l106 142h76zM111 -183v62c43 -11 81 -16 114 -16c80 0 116 34 116 127v452h-190v58h260v-515c0 -116 -55 -186 -176 -186c-43 0 -85 6 -124 18z"/>
    <glyph glyph-name="Kcommaaccent" unicode="Ķ" d="M546 710l-219 -277l242 -433h-89l-206 378l-109 -132v-246h-76v710h76v-370l291 370h90zM316 -129h-56v87h101v-64c0 -55 -18 -87 -81 -107l-19 31c37 12 55 30 55 53z"/>
    <glyph glyph-name="kcommaaccent" unicode="ķ" d="M529 500l-185 -190l199 -310h-86l-162 260l-106 -104v-156h-69v725h69v-487l249 262h91zM316 -129h-56v87h101v-64c0 -55 -18 -87 -81 -107l-19 31c37 12 55 30 55 53z"/>
    <glyph glyph-name="kgreenlandic" unicode="ĸ" d="M543 0h-86l-168 269l-100 -96v-173h-69v500h69v-244l248 244h92l-190 -182z"/>
    <glyph glyph-name="Lacute" unicode="Ĺ" d="M193 777h-67l75 107h93zM120 0v710h76v-644h350v-66h-426z"/>
    <glyph glyph-name="lacute" unicode="ĺ" d="M362 777h-67l75 107h93zM537 0h-407v58h163v609h-153v58h222v-667h175v-58z"/>
    <glyph glyph-name="Lcommaaccent" unicode="Ļ" d="M321 545l-18 32c33 15 40 32 40 69h-42v79h80v-72c0 -54 -20 -90 -60 -108zM120 0v710h76v-644h350v-66h-426z"/>
    <glyph glyph-name="lcommaaccent" unicode="ļ" d="M537 0h-407v58h163v609h-153v58h222v-667h175v-58zM280 -213l-19 31c37 12 55 30 55 53h-56v87h101v-64c0 -55 -18 -87 -81 -107z"/>
    <glyph glyph-name="Lcaron" unicode="Ľ" d="M120 0v710h76v-644h350v-66h-426zM280 -213l-19 31c37 12 55 30 55 53h-56v87h101v-64c0 -55 -18 -87 -81 -107z"/>
    <glyph glyph-name="lcaron" unicode="ľ" d="M537 0h-407v58h163v609h-153v58h222v-667h175v-58zM525 545l-18 32c33 15 40 32 40 69h-42v79h80v-72c0 -54 -20 -90 -60 -108z"/>
    <glyph glyph-name="Ldot" unicode="Ŀ" d="M120 0v710h76v-644h350v-66h-426zM327 500h123v-122h-123v122z"/>
    <glyph glyph-name="ldot" unicode="ŀ" d="M537 0h-407v58h163v609h-153v58h222v-667h175v-58zM417 423h85v-122h-85v122z"/>
    <glyph glyph-name="Lslash" unicode="Ł" d="M196 346v-280h350v-66h-426v299l-104 -65v65l104 65v346h76v-299l194 121v-65z"/>
    <glyph glyph-name="lslash" unicode="ł" d="M362 390v-332h175v-58h-407v58h163v286l-121 -80v62l121 80v261h-153v58h222v-273l121 80v-62z"/>
    <glyph glyph-name="Nacute" unicode="Ń" d="M344 777h-67l75 107h93zM187 710l240 -519c15 -36 25 -63 30 -81h2c-1 16 -2 40 -2 73v527h77v-710h-91l-250 541c-17 39 -27 64 -30 76h-2c1 -14 2 -34 2 -61v-556h-77v710h101z"/>
    <glyph glyph-name="nacute" unicode="ń" d="M341 578h-63l94 142h88zM172 500v-110c28 76 87 122 171 122c51 0 92 -14 121 -43c33 -32 50 -86 50 -162v-307h-70v304c0 97 -39 146 -117 146c-114 0 -151 -106 -151 -187v-263h-70v500h66z"/>
    <glyph glyph-name="Ncommaaccent" unicode="Ņ" d="M187 710l240 -519c15 -36 25 -63 30 -81h2c-1 16 -2 40 -2 73v527h77v-710h-91l-250 541c-17 39 -27 64 -30 76h-2c1 -14 2 -34 2 -61v-556h-77v710h101zM280 -213l-19 31c37 12 55 30 55 53h-56v87h101v-64c0 -55 -18 -87 -81 -107z"/>
    <glyph glyph-name="ncommaaccent" unicode="ņ" d="M172 500v-110c28 76 87 122 171 122c51 0 92 -14 121 -43c33 -32 50 -86 50 -162v-307h-70v304c0 97 -39 146 -117 146c-114 0 -151 -106 -151 -187v-263h-70v500h66zM280 -213l-19 31c37 12 55 30 55 53h-56v87h101v-64c0 -55 -18 -87 -81 -107z"/>
    <glyph glyph-name="Ncaron" unicode="Ň" d="M269 776l-102 108h73l72 -74l69 74h72l-101 -108h-83zM187 710l240 -519c15 -36 25 -63 30 -81h2c-1 16 -2 40 -2 73v527h77v-710h-91l-250 541c-17 39 -27 64 -30 76h-2c1 -14 2 -34 2 -61v-556h-77v710h101z"/>
    <glyph glyph-name="ncaron" unicode="ň" d="M272 578l-106 142h70l74 -99l74 99h70l-106 -142h-76zM172 500v-110c28 76 87 122 171 122c51 0 92 -14 121 -43c33 -32 50 -86 50 -162v-307h-70v304c0 97 -39 146 -117 146c-114 0 -151 -106 -151 -187v-263h-70v500h66z"/>
    <glyph glyph-name="napostrophe" unicode="ŉ" d="M172 500v-110c28 76 87 122 171 122c51 0 92 -14 121 -43c33 -32 50 -86 50 -162v-307h-70v304c0 97 -39 146 -117 146c-114 0 -151 -106 -151 -187v-263h-70v500h66zM280 -213l-19 31c37 12 55 30 55 53h-56v87h101v-64c0 -55 -18 -87 -81 -107z"/>
    <glyph glyph-name="Eng" unicode="Ŋ" d="M270 -206v68c21 -4 48 -6 80 -6c69 0 103 40 103 120v21l-258 548c-15 33 -25 59 -30 76h-2c1 -14 2 -34 2 -61v-560h-72v710h100l232 -500c15 -35 25 -63 30 -82h2c-1 32 -2 57 -2 74v508h72v-726c0 -143 -74 -197 -179 -197c-33 0 -59 2 -78 7z"/>
    <glyph glyph-name="eng" unicode="ŋ" d="M464 469c33 -32 50 -86 50 -162v-347c0 -108 -41 -162 -122 -162c-21 0 -41 2 -58 6v60c24 -2 38 -3 42 -3c48 0 68 27 68 90v353c0 97 -39 146 -117 146c-114 0 -151 -106 -151 -187v-263h-70v500h66v-110c28 76 87 122 171 122c51 0 92 -14 121 -43z"/>
    <glyph glyph-name="Omacron" unicode="Ō" d="M468 779h-316v57h316v-57zM498 71c-43 -59 -105 -88 -188 -88s-145 29 -188 88s-64 142 -64 249v70c0 215 87 337 252 337s252 -122 252 -337v-70c0 -107 -21 -190 -64 -249zM181 116c28 -45 71 -67 129 -67s101 22 130 67c28 44 42 112 42 204v70 c0 184 -56 271 -172 271s-172 -87 -172 -271v-70c0 -92 14 -160 43 -204z"/>
    <glyph glyph-name="omacron" unicode="ō" d="M454 602h-288v57h288v-57zM477 59c-42 -47 -98 -71 -167 -71s-125 24 -166 72c-42 48 -63 111 -63 190c0 80 21 144 63 191c41 47 97 71 166 71s125 -24 167 -71c41 -47 62 -111 62 -191s-21 -144 -62 -191zM197 103c27 -36 65 -54 113 -54s86 18 114 54 c27 35 41 84 41 147s-14 112 -41 148c-28 35 -66 53 -114 53s-86 -18 -113 -53c-28 -36 -42 -85 -42 -148s14 -112 42 -147z"/>
    <glyph glyph-name="Obreve" unicode="Ŏ" d="M153 884h65c7 -37 41 -64 92 -64c49 0 86 27 93 64h64c-12 -75 -76 -115 -157 -115c-80 0 -145 40 -157 115zM498 71c-43 -59 -105 -88 -188 -88s-145 29 -188 88s-64 142 -64 249v70c0 215 87 337 252 337s252 -122 252 -337v-70c0 -107 -21 -190 -64 -249zM181 116 c28 -45 71 -67 129 -67s101 22 130 67c28 44 42 112 42 204v70c0 184 -56 271 -172 271s-172 -87 -172 -271v-70c0 -92 14 -160 43 -204z"/>
    <glyph glyph-name="obreve" unicode="ŏ" d="M160 720h60c3 -56 39 -97 90 -97s87 41 90 97h60c-7 -99 -69 -147 -150 -147s-145 48 -150 147zM477 59c-42 -47 -98 -71 -167 -71s-125 24 -166 72c-42 48 -63 111 -63 190c0 80 21 144 63 191c41 47 97 71 166 71s125 -24 167 -71c41 -47 62 -111 62 -191 s-21 -144 -62 -191zM197 103c27 -36 65 -54 113 -54s86 18 114 54c27 35 41 84 41 147s-14 112 -41 148c-28 35 -66 53 -114 53s-86 -18 -113 -53c-28 -36 -42 -85 -42 -148s14 -112 42 -147z"/>
    <glyph glyph-name="Ohungarumlaut" unicode="Ő" d="M269 777h-69l62 107h75zM420 777h-70l62 107h76zM498 71c-43 -59 -105 -88 -188 -88s-145 29 -188 88s-64 142 -64 249v70c0 215 87 337 252 337s252 -122 252 -337v-70c0 -107 -21 -190 -64 -249zM181 116c28 -45 71 -67 129 -67s101 22 130 67c28 44 42 112 42 204v70 c0 184 -56 271 -172 271s-172 -87 -172 -271v-70c0 -92 14 -160 43 -204z"/>
    <glyph glyph-name="ohungarumlaut" unicode="ő" d="M270 578h-69l85 142h75zM419 578h-69l85 142h75zM477 59c-42 -47 -98 -71 -167 -71s-125 24 -166 72c-42 48 -63 111 -63 190c0 80 21 144 63 191c41 47 97 71 166 71s125 -24 167 -71c41 -47 62 -111 62 -191s-21 -144 -62 -191zM197 103c27 -36 65 -54 113 -54 s86 18 114 54c27 35 41 84 41 147s-14 112 -41 148c-28 35 -66 53 -114 53s-86 -18 -113 -53c-28 -36 -42 -85 -42 -148s14 -112 42 -147z"/>
    <glyph glyph-name="OE" unicode="Œ" d="M352 332v-266h216v-66h-307c-70 0 -124 23 -163 70s-59 112 -59 195v182c0 90 20 157 61 201c37 41 89 62 158 62h303v-66h-209v-248h192v-64h-192zM253 64h26v582h-29c-45 0 -79 -17 -102 -50s-35 -82 -35 -149v-182c0 -66 12 -116 37 -150c24 -34 58 -51 103 -51z"/>
    <glyph glyph-name="oe" unicode="œ" d="M516 161v14l68 -12v-11c0 -100 -65 -164 -157 -164c-51 0 -91 19 -120 57c-27 -38 -66 -57 -117 -57c-95 0 -154 63 -154 183v147c0 128 51 192 154 192c53 0 92 -19 117 -56c28 37 68 56 120 56c99 0 156 -67 156 -187v-77h-243v-83c0 -73 34 -116 87 -116s89 43 89 114 zM427 453c-58 0 -87 -41 -87 -124v-36h173v38c0 81 -29 122 -86 122zM190 48c53 0 82 35 82 124v157c0 81 -27 121 -82 121c-56 0 -84 -41 -84 -124v-153c0 -83 28 -125 84 -125z"/>
    <glyph glyph-name="Racute" unicode="Ŕ" d="M351 884h93l-101 -107h-67zM567 0h-85l-170 305h-145v-305h-77v710h223c149 0 234 -74 234 -203c0 -97 -58 -168 -157 -191zM310 646h-143v-280h143c101 0 157 49 157 140s-54 140 -157 140z"/>
    <glyph glyph-name="racute" unicode="ŕ" d="M341 578h-63l94 142h88zM217 500v-148c37 99 125 158 224 158c33 0 62 -4 87 -11v-65c-25 7 -54 11 -89 11c-63 0 -115 -23 -157 -69c-43 -46 -64 -109 -64 -189v-187h-70v500h69z"/>
    <glyph glyph-name="Rcommaaccent" unicode="Ŗ" d="M390 316l177 -316h-85l-170 305h-145v-305h-77v710h223c149 0 234 -74 234 -203c0 -97 -58 -168 -157 -191zM310 646h-143v-280h143c101 0 157 49 157 140s-54 140 -157 140zM315 -129h-56v87h101v-64c0 -55 -18 -87 -81 -107l-19 31c37 12 55 30 55 53z"/>
    <glyph glyph-name="rcommaaccent" unicode="ŗ" d="M217 500v-148c37 99 125 158 224 158c33 0 62 -4 87 -11v-65c-25 7 -54 11 -89 11c-63 0 -115 -23 -157 -69c-43 -46 -64 -109 -64 -189v-187h-70v500h69zM153 -213l-19 31c37 12 55 30 55 53h-56v87h101v-64c0 -55 -18 -87 -81 -107z"/>
    <glyph glyph-name="Rcaron" unicode="Ř" d="M452 884l-101 -108h-83l-102 108h73l72 -74l69 74h72zM567 0h-85l-170 305h-145v-305h-77v710h223c149 0 234 -74 234 -203c0 -97 -58 -168 -157 -191zM310 646h-143v-280h143c101 0 157 49 157 140s-54 140 -157 140z"/>
    <glyph glyph-name="rcaron" unicode="ř" d="M272 578l-106 142h70l74 -99l74 99h70l-106 -142h-76zM217 500v-148c37 99 125 158 224 158c33 0 62 -4 87 -11v-65c-25 7 -54 11 -89 11c-63 0 -115 -23 -157 -69c-43 -46 -64 -109 -64 -189v-187h-70v500h69z"/>
    <glyph glyph-name="Sacute" unicode="Ś" d="M344 777h-67l75 107h93zM317 -17c-157 0 -242 92 -257 224l74 14c15 -103 73 -174 182 -174c91 0 157 38 157 126c0 48 -12 81 -39 102c-27 20 -48 28 -88 40l-93 25c-114 31 -171 95 -171 192c0 55 21 102 62 139s94 56 159 56c137 0 230 -63 241 -204l-73 -20 c-7 107 -63 160 -166 160c-99 0 -145 -53 -145 -124c0 -64 46 -109 118 -130l92 -24c113 -31 181 -81 181 -201c0 -58 -20 -106 -60 -144c-41 -38 -99 -57 -174 -57z"/>
    <glyph glyph-name="sacute" unicode="ś" d="M343 578h-63l94 142h88zM321 -12c-117 0 -194 55 -210 155l71 12c11 -71 62 -109 142 -109c71 0 113 35 113 86c0 47 -25 68 -81 79l-97 19c-87 17 -130 62 -130 137c0 85 73 145 185 145c111 0 183 -50 192 -138l-69 -15c-11 64 -54 96 -127 96c-68 0 -112 -32 -112 -85 c0 -42 27 -69 82 -80l98 -19c86 -17 129 -61 129 -133c0 -91 -70 -150 -186 -150z"/>
    <glyph glyph-name="Scircumflex" unicode="Ŝ" d="M351 884l102 -108h-73l-72 74l-69 -74h-72l101 108h83zM317 -17c-157 0 -242 92 -257 224l74 14c15 -103 73 -174 182 -174c91 0 157 38 157 126c0 48 -12 81 -39 102c-27 20 -48 28 -88 40l-93 25c-114 31 -171 95 -171 192c0 55 21 102 62 139s94 56 159 56 c137 0 230 -63 241 -204l-73 -20c-7 107 -63 160 -166 160c-99 0 -145 -53 -145 -124c0 -64 46 -109 118 -130l92 -24c113 -31 181 -81 181 -201c0 -58 -20 -106 -60 -144c-41 -38 -99 -57 -174 -57z"/>
    <glyph glyph-name="scircumflex" unicode="ŝ" d="M350 720l106 -142h-70l-74 99l-74 -99h-70l106 142h76zM321 -12c-117 0 -194 55 -210 155l71 12c11 -71 62 -109 142 -109c71 0 113 35 113 86c0 47 -25 68 -81 79l-97 19c-87 17 -130 62 -130 137c0 85 73 145 185 145c111 0 183 -50 192 -138l-69 -15 c-11 64 -54 96 -127 96c-68 0 -112 -32 -112 -85c0 -42 27 -69 82 -80l98 -19c86 -17 129 -61 129 -133c0 -91 -70 -150 -186 -150z"/>
    <glyph glyph-name="Scedilla" unicode="Ş" d="M551 184c0 -105 -69 -186 -196 -199l-25 -41c10 8 24 12 42 12c41 0 72 -28 72 -69c0 -51 -46 -87 -99 -87c-45 0 -76 18 -91 55l48 15c7 -21 22 -31 44 -31c24 0 44 16 44 44s-19 42 -42 42c-15 0 -28 -5 -37 -15l-34 11l33 62c-153 3 -235 95 -250 224l74 14 c15 -103 73 -174 182 -174c91 0 157 38 157 126c0 48 -12 81 -39 102c-27 20 -48 28 -88 40l-93 25c-114 31 -171 95 -171 192c0 55 21 102 62 139s94 56 159 56c137 0 230 -63 241 -204l-73 -20c-7 107 -63 160 -166 160c-99 0 -145 -53 -145 -124c0 -64 46 -109 118 -130 l92 -24c113 -31 181 -81 181 -201z"/>
    <glyph glyph-name="scedilla" unicode="ş" d="M507 138c0 -81 -57 -140 -156 -149l-28 -45c10 8 24 12 42 12c41 0 72 -28 72 -69c0 -51 -46 -87 -99 -87c-45 0 -76 18 -91 55l48 15c7 -21 22 -31 44 -31c24 0 44 16 44 44s-19 42 -42 42c-15 0 -28 -5 -37 -15l-34 11l36 67c-109 5 -180 60 -195 155l71 12 c11 -71 62 -109 142 -109c71 0 113 35 113 86c0 47 -25 68 -81 79l-97 19c-87 17 -130 62 -130 137c0 85 73 145 185 145c111 0 183 -50 192 -138l-69 -15c-11 64 -54 96 -127 96c-68 0 -112 -32 -112 -85c0 -42 27 -69 82 -80l98 -19c86 -17 129 -61 129 -133z"/>
    <glyph glyph-name="Scaron" unicode="Š" d="M269 776l-102 108h73l72 -74l69 74h72l-101 -108h-83zM317 -17c-157 0 -242 92 -257 224l74 14c15 -103 73 -174 182 -174c91 0 157 38 157 126c0 48 -12 81 -39 102c-27 20 -48 28 -88 40l-93 25c-114 31 -171 95 -171 192c0 55 21 102 62 139s94 56 159 56 c137 0 230 -63 241 -204l-73 -20c-7 107 -63 160 -166 160c-99 0 -145 -53 -145 -124c0 -64 46 -109 118 -130l92 -24c113 -31 181 -81 181 -201c0 -58 -20 -106 -60 -144c-41 -38 -99 -57 -174 -57z"/>
    <glyph glyph-name="scaron" unicode="š" d="M274 578l-106 142h70l74 -99l74 99h70l-106 -142h-76zM321 -12c-117 0 -194 55 -210 155l71 12c11 -71 62 -109 142 -109c71 0 113 35 113 86c0 47 -25 68 -81 79l-97 19c-87 17 -130 62 -130 137c0 85 73 145 185 145c111 0 183 -50 192 -138l-69 -15 c-11 64 -54 96 -127 96c-68 0 -112 -32 -112 -85c0 -42 27 -69 82 -80l98 -19c86 -17 129 -61 129 -133c0 -91 -70 -150 -186 -150z"/>
    <glyph glyph-name="uni0162" unicode="Ţ" d="M348 644v-644h-17l-34 -56c10 8 24 12 42 12c41 0 72 -28 72 -69c0 -51 -46 -87 -99 -87c-45 0 -76 18 -91 55l48 15c7 -21 22 -31 44 -31c24 0 44 16 44 44s-19 42 -42 42c-15 0 -28 -5 -37 -15l-34 11l42 79h-15v644h-227v66h531v-66h-227z"/>
    <glyph glyph-name="uni0163" unicode="ţ" d="M502 500v-57h-197v-280c0 -70 35 -105 104 -105c32 0 63 3 93 9v-64c-33 -8 -63 -12 -88 -12l-29 -47c10 8 24 12 42 12c41 0 72 -28 72 -69c0 -51 -46 -87 -99 -87c-45 0 -76 18 -91 55l48 15c7 -21 22 -31 44 -31c24 0 44 16 44 44s-19 42 -42 42c-15 0 -28 -5 -37 -15 l-34 11l39 73c-88 13 -136 72 -136 160v289h-145v57h145v132l70 30v-162h197z"/>
    <glyph glyph-name="Tcaron" unicode="Ť" d="M268 776l-102 108h73l72 -74l69 74h72l-101 -108h-83zM44 644v66h531v-66h-227v-644h-77v644h-227z"/>
    <glyph glyph-name="tcaron" unicode="ť" d="M487 545l-18 32c33 15 40 32 40 69h-42v79h80v-72c0 -54 -20 -90 -60 -108zM235 443h-145v57h145v132l70 30v-162h197v-57h-197v-280c0 -70 35 -105 104 -105c32 0 63 3 93 9v-64c-35 -8 -66 -12 -93 -12c-112 0 -174 63 -174 163v289z"/>
    <glyph glyph-name="Tbar" unicode="Ŧ" d="M575 710v-66h-227v-192h197v-49h-197v-403h-77v403h-197v49h197v192h-227v66h531z"/>
    <glyph glyph-name="tbar" unicode="ŧ" d="M502 500v-57h-197v-138h197v-58h-197v-84c0 -70 35 -105 104 -105c32 0 63 3 93 9v-64c-35 -8 -66 -12 -93 -12c-112 0 -174 63 -174 163v93h-144v58h144v138h-145v57h145v132l70 30v-162h197z"/>
    <glyph glyph-name="Utilde" unicode="Ũ" d="M238 886c25 0 52 -10 82 -29c29 -19 53 -29 70 -29c31 0 49 18 54 53l50 -8c-9 -65 -50 -100 -110 -100c-26 0 -53 10 -81 30c-29 19 -52 29 -71 29c-31 0 -49 -18 -56 -54l-50 8c11 68 57 100 112 100zM75 228v482h76v-482c0 -111 57 -179 162 -179 c104 0 155 66 155 179v482h77v-482c0 -149 -79 -245 -232 -245c-155 0 -238 97 -238 245z"/>
    <glyph glyph-name="utilde" unicode="ũ" d="M231 718c27 0 55 -11 84 -34s51 -34 66 -34c24 0 46 22 53 62l50 -7c-16 -77 -57 -112 -109 -112c-23 0 -49 11 -77 34c-28 22 -51 33 -68 33c-29 0 -52 -23 -57 -59l-51 8c12 73 60 109 109 109zM437 0v103c-23 -63 -85 -115 -160 -115c-53 0 -96 15 -127 44 c-31 31 -47 84 -47 159v309h72v-308c0 -96 39 -144 117 -144c67 0 113 49 129 102c8 26 12 54 12 84v266h70v-500h-66z"/>
    <glyph glyph-name="Umacron" unicode="Ū" d="M468 779h-316v57h316v-57zM75 228v482h76v-482c0 -111 57 -179 162 -179c104 0 155 66 155 179v482h77v-482c0 -149 -79 -245 -232 -245c-155 0 -238 97 -238 245z"/>
    <glyph glyph-name="umacron" unicode="ū" d="M448 602h-288v57h288v-57zM437 0v103c-23 -63 -85 -115 -160 -115c-53 0 -96 15 -127 44c-31 31 -47 84 -47 159v309h72v-308c0 -96 39 -144 117 -144c67 0 113 49 129 102c8 26 12 54 12 84v266h70v-500h-66z"/>
    <glyph glyph-name="Ubreve" unicode="Ŭ" d="M153 884h65c7 -37 41 -64 92 -64c49 0 86 27 93 64h64c-12 -75 -76 -115 -157 -115c-80 0 -145 40 -157 115zM75 228v482h76v-482c0 -111 57 -179 162 -179c104 0 155 66 155 179v482h77v-482c0 -149 -79 -245 -232 -245c-155 0 -238 97 -238 245z"/>
    <glyph glyph-name="ubreve" unicode="ŭ" d="M154 720h60c3 -56 39 -97 90 -97s87 41 90 97h60c-7 -99 -69 -147 -150 -147s-145 48 -150 147zM437 0v103c-23 -63 -85 -115 -160 -115c-53 0 -96 15 -127 44c-31 31 -47 84 -47 159v309h72v-308c0 -96 39 -144 117 -144c67 0 113 49 129 102c8 26 12 54 12 84v266h70 v-500h-66z"/>
    <glyph glyph-name="Uring" unicode="Ů" d="M381 760c-18 -17 -42 -26 -71 -26s-53 9 -71 26c-36 35 -36 95 0 130c18 17 42 26 71 26s53 -9 71 -26c36 -35 36 -95 0 -130zM273 788c19 -21 55 -21 74 0c19 20 19 54 0 74s-55 20 -74 0s-19 -54 0 -74zM75 228v482h76v-482c0 -111 57 -179 162 -179 c104 0 155 66 155 179v482h77v-482c0 -149 -79 -245 -232 -245c-155 0 -238 97 -238 245z"/>
    <glyph glyph-name="uring" unicode="ů" d="M380 583c-19 -19 -45 -28 -76 -28s-56 9 -75 28s-29 42 -29 71s10 53 29 72s44 28 75 28s56 -9 75 -28s29 -43 29 -72s-9 -52 -28 -71zM264 613c20 -22 60 -22 80 0s20 60 0 83s-60 23 -80 0s-20 -61 0 -83zM437 0v103c-23 -63 -85 -115 -160 -115c-53 0 -96 15 -127 44 c-31 31 -47 84 -47 159v309h72v-308c0 -96 39 -144 117 -144c67 0 113 49 129 102c8 26 12 54 12 84v266h70v-500h-66z"/>
    <glyph glyph-name="Uhungarumlaut" unicode="Ű" d="M269 777h-69l62 107h75zM420 777h-70l62 107h76zM75 228v482h76v-482c0 -111 57 -179 162 -179c104 0 155 66 155 179v482h77v-482c0 -149 -79 -245 -232 -245c-155 0 -238 97 -238 245z"/>
    <glyph glyph-name="uhungarumlaut" unicode="ű" d="M264 578h-69l85 142h75zM413 578h-69l85 142h75zM437 0v103c-23 -63 -85 -115 -160 -115c-53 0 -96 15 -127 44c-31 31 -47 84 -47 159v309h72v-308c0 -96 39 -144 117 -144c67 0 113 49 129 102c8 26 12 54 12 84v266h70v-500h-66z"/>
    <glyph glyph-name="Uogonek" unicode="Ų" d="M468 228v482h77v-482c0 -120 -52 -207 -153 -235c-62 -26 -93 -60 -93 -101c0 -31 18 -52 45 -52s45 23 52 52l46 -16c-11 -52 -50 -79 -105 -79c-49 0 -92 34 -92 86c0 41 21 74 62 100c-151 3 -232 100 -232 245v482h76v-482c0 -111 57 -179 162 -179 c104 0 155 66 155 179z"/>
    <glyph glyph-name="uogonek" unicode="ų" d="M488 -108l46 -16c-11 -52 -50 -79 -105 -79c-49 0 -92 34 -92 86s33 92 99 119h1v101c-23 -63 -85 -115 -160 -115c-53 0 -96 15 -127 44c-31 31 -47 84 -47 159v309h72v-308c0 -96 39 -144 117 -144c67 0 113 49 129 102c8 26 12 54 12 84v266h70v-500 c-80 -28 -112 -69 -112 -108c0 -31 18 -52 45 -52s45 23 52 52z"/>
    <glyph glyph-name="Wcircumflex" unicode="Ŵ" d="M351 884l102 -108h-73l-72 74l-69 -74h-72l101 108h83zM211 0h-99l-66 710h76l38 -525c4 -53 6 -93 6 -119h8c3 35 10 76 21 125l79 347h72l79 -347c11 -49 18 -90 21 -125h8c0 26 2 66 6 119l38 525h76l-66 -710h-99l-74 329c-11 52 -18 98 -21 137h-8 c-3 -39 -10 -85 -21 -137z"/>
    <glyph glyph-name="wcircumflex" unicode="ŵ" d="M348 720l106 -142h-70l-74 99l-74 -99h-70l106 142h76zM135 0l-104 500h73l63 -358c3 -16 8 -53 11 -68h6c5 29 10 55 15 78l75 348h71l75 -348c5 -23 10 -49 15 -78h6c3 15 8 52 11 68l63 358h73l-104 -500h-86l-76 345c-3 14 -6 39 -10 74h-6c-1 -28 -4 -53 -9 -74 l-76 -345h-86z"/>
    <glyph glyph-name="Ycircumflex" unicode="Ŷ" d="M351 884l102 -108h-73l-72 74l-69 -74h-72l101 108h83zM581 710l-232 -425v-285h-77v285l-233 425h85l186 -360l186 360h85z"/>
    <glyph glyph-name="ycircumflex" unicode="ŷ" d="M348 720l106 -142h-70l-74 99l-74 -99h-70l106 142h76zM86 500h79l153 -419l148 419h74l-199 -532c-44 -121 -100 -169 -185 -169c-16 0 -31 1 -44 4v62c17 -1 30 -2 37 -2c63 0 97 32 122 104l13 37z"/>
    <glyph glyph-name="Ydieresis" unicode="Ÿ" d="M153 884h93v-110h-93v110zM374 884h93v-110h-93v110zM581 710l-232 -425v-285h-77v285l-233 425h85l186 -360l186 360h85z"/>
    <glyph glyph-name="Zacute" unicode="Ź" d="M344 777h-67l75 107h93zM72 0v70l379 574h-365v66h446v-70l-380 -574h394v-66h-474z"/>
    <glyph glyph-name="zacute" unicode="ź" d="M341 578h-63l94 142h88zM106 0v54l301 387h-290v59h374v-52l-299 -388h313v-60h-399z"/>
    <glyph glyph-name="Zdotaccent" unicode="Ż" d="M259 884h102v-110h-102v110zM72 0v70l379 574h-365v66h446v-70l-380 -574h394v-66h-474z"/>
    <glyph glyph-name="zdotaccent" unicode="ż" d="M259 721h102v-121h-102v121zM106 0v54l301 387h-290v59h374v-52l-299 -388h313v-60h-399z"/>
    <glyph glyph-name="Zcaron" unicode="Ž" d="M269 776l-102 108h73l72 -74l69 74h72l-101 -108h-83zM72 0v70l379 574h-365v66h446v-70l-380 -574h394v-66h-474z"/>
    <glyph glyph-name="zcaron" unicode="ž" d="M272 578l-106 142h70l74 -99l74 99h70l-106 -142h-76zM106 0v54l301 387h-290v59h374v-52l-299 -388h313v-60h-399z"/>
    <glyph glyph-name="florin" unicode="ƒ" d="M429 650c-65 0 -83 -36 -94 -116l-13 -106h117v-54h-124l-67 -524h-71l67 524h-99v54h106l11 89c8 67 16 100 39 139s63 55 127 55c20 0 36 -2 47 -6v-60c-13 3 -29 5 -46 5z"/>
    <glyph glyph-name="AEacute" unicode="Ǽ" d="M455 884h93l-101 -107h-67zM352 332v-266h216v-66h-289v171h-136l-48 -171h-75l213 710h328v-66h-209v-248h192v-64h-192zM279 656l-119 -424h119v424z"/>
    <glyph glyph-name="aeacute" unicode="ǽ" d="M372 720h88l-119 -142h-63zM520 161v14l68 -12v-4c0 -103 -61 -170 -158 -170c-61 0 -105 25 -132 75c-24 -45 -73 -75 -129 -75c-80 0 -137 51 -137 139s41 129 142 148l102 18v56c0 71 -28 106 -83 106s-83 -37 -83 -101v-17h-69v3c0 112 61 169 152 169 c57 0 98 -18 121 -54c27 36 66 54 117 54c99 0 155 -67 155 -190v-74h-242v-84c0 -73 35 -114 87 -114c53 0 89 44 89 113zM516 293v35c0 83 -29 124 -86 124s-86 -41 -86 -123v-36h172zM182 43c51 0 94 45 94 118v87l-78 -15c-65 -12 -96 -37 -96 -97c0 -61 32 -93 80 -93z "/>
    <glyph glyph-name="Oslashacute" unicode="Ǿ" d="M352 884h93l-101 -107h-67zM559 712l-54 -84c38 -57 57 -137 57 -238v-70c0 -215 -87 -337 -252 -337c-73 0 -131 23 -174 70l-51 -80l-44 23l65 101c-32 56 -48 130 -48 223v70c0 215 87 337 252 337c67 0 121 -20 162 -59l44 68zM138 390v-70c0 -57 6 -106 17 -146 l277 431c-27 37 -68 56 -122 56c-116 0 -172 -87 -172 -271zM482 320v70c0 67 -8 122 -23 165l-281 -436c29 -47 73 -70 132 -70c116 0 172 87 172 271z"/>
    <glyph glyph-name="oslashacute" unicode="ǿ" d="M372 720h88l-119 -142h-63zM527 486l-43 -54c37 -47 55 -108 55 -182c0 -80 -21 -144 -62 -191c-42 -47 -98 -71 -167 -71c-55 0 -103 16 -142 48l-38 -48l-36 27l43 53c-37 48 -56 109 -56 182c0 80 21 144 63 191c41 47 97 71 166 71c55 0 102 -16 142 -47l37 47z M155 250c0 -51 9 -92 27 -125l228 288c-27 25 -60 38 -100 38c-96 0 -155 -76 -155 -201zM310 49c96 0 155 76 155 201c0 51 -9 92 -27 125l-229 -287c27 -26 61 -39 101 -39z"/>
    <glyph glyph-name="Scommaaccent" unicode="Ș" d="M317 -17c-157 0 -242 92 -257 224l74 14c15 -103 73 -174 182 -174c91 0 157 38 157 126c0 48 -12 81 -39 102c-27 20 -48 28 -88 40l-93 25c-114 31 -171 95 -171 192c0 55 21 102 62 139s94 56 159 56c137 0 230 -63 241 -204l-73 -20c-7 107 -63 160 -166 160 c-99 0 -145 -53 -145 -124c0 -64 46 -109 118 -130l92 -24c113 -31 181 -81 181 -201c0 -58 -20 -106 -60 -144c-41 -38 -99 -57 -174 -57zM312 -213l-19 31c37 12 55 30 55 53h-56v87h101v-64c0 -55 -18 -87 -81 -107z"/>
    <glyph glyph-name="scommaaccent" unicode="ș" d="M321 -12c-117 0 -194 55 -210 155l71 12c11 -71 62 -109 142 -109c71 0 113 35 113 86c0 47 -25 68 -81 79l-97 19c-87 17 -130 62 -130 137c0 85 73 145 185 145c111 0 183 -50 192 -138l-69 -15c-11 64 -54 96 -127 96c-68 0 -112 -32 -112 -85c0 -42 27 -69 82 -80 l98 -19c86 -17 129 -61 129 -133c0 -91 -70 -150 -186 -150zM305 -213l-19 31c37 12 55 30 55 53h-56v87h101v-64c0 -55 -18 -87 -81 -107z"/>
    <glyph glyph-name="uni021A" unicode="Ț" d="M44 644v66h531v-66h-227v-644h-77v644h-227zM279 -213l-19 31c37 12 55 30 55 53h-56v87h101v-64c0 -55 -18 -87 -81 -107z"/>
    <glyph glyph-name="uni021B" unicode="ț" d="M235 443h-145v57h145v132l70 30v-162h197v-57h-197v-280c0 -70 35 -105 104 -105c32 0 63 3 93 9v-64c-35 -8 -66 -12 -93 -12c-112 0 -174 63 -174 163v289zM367 -213l-19 31c37 12 55 30 55 53h-56v87h101v-64c0 -55 -18 -87 -81 -107z"/>
    <glyph glyph-name="uni0237" unicode="ȷ" d="M111 -183v62c43 -11 81 -16 114 -16c80 0 116 34 116 127v452h-190v58h260v-515c0 -116 -55 -186 -176 -186c-43 0 -85 6 -124 18z"/>
    <glyph glyph-name="uni0243" unicode="Ƀ" d="M540 193c0 -92 -51 -170 -172 -189v-111h-45v107h-12h-67v-107h-45v107h-119v695h119v90h45v-90h48c14 0 24 0 31 -1v91h45v-97c109 -21 153 -91 153 -170c0 -77 -42 -139 -126 -159c92 -13 145 -75 145 -166zM292 631h-140v-246h142c99 0 149 42 149 127 c0 79 -50 119 -151 119zM152 64h153c112 0 157 55 157 135c0 73 -46 123 -147 123h-163v-258z"/>
    <glyph glyph-name="circumflex" unicode="ˆ" d="M348 720l106 -142h-70l-74 99l-74 -99h-70l106 142h76z"/>
    <glyph glyph-name="caron" unicode="ˇ" d="M272 578l-106 142h70l74 -99l74 99h70l-106 -142h-76z"/>
    <glyph glyph-name="breve" unicode="˘" d="M160 720h60c3 -56 39 -97 90 -97s87 41 90 97h60c-7 -99 -69 -147 -150 -147s-145 48 -150 147z"/>
    <glyph glyph-name="dotaccent" unicode="˙" d="M259 721h102v-121h-102v121z"/>
    <glyph glyph-name="ring" unicode="˚" d="M386 583c-19 -19 -45 -28 -76 -28s-56 9 -75 28s-29 42 -29 71s10 53 29 72s44 28 75 28s56 -9 75 -28s29 -43 29 -72s-9 -52 -28 -71zM270 613c20 -22 60 -22 80 0s20 60 0 83s-60 23 -80 0s-20 -61 0 -83z"/>
    <glyph glyph-name="ogonek" unicode="˛" d="M362 -108l46 -16c-11 -52 -50 -79 -105 -79c-49 0 -92 34 -92 86s33 92 99 119l67 -2c-80 -28 -112 -69 -112 -108c0 -31 18 -52 45 -52s45 23 52 52z"/>
    <glyph glyph-name="tilde" unicode="˜" d="M238 718c27 0 55 -11 84 -34s51 -34 66 -34c24 0 46 22 53 62l50 -7c-16 -77 -57 -112 -109 -112c-24 0 -50 11 -77 34c-27 22 -50 33 -68 33c-29 0 -52 -23 -57 -59l-51 8c12 73 60 109 109 109z"/>
    <glyph glyph-name="hungarumlaut" unicode="˝" d="M224 578h-69l85 142h75zM373 578h-69l85 142h75z"/>
    <glyph glyph-name="gravecomb" unicode="̀" horiz-adv-x="0" d="M-315 720l94 -142h-63l-119 142h88z"/>
    <glyph glyph-name="acutecomb" unicode="́" horiz-adv-x="0" d="M-338 578h-63l94 142h88z"/>
    <glyph glyph-name="uni0302" unicode="̂" horiz-adv-x="0" d="M-272 720l106 -142h-70l-74 99l-74 -99h-70l106 142h76z"/>
    <glyph glyph-name="tildecomb" unicode="̃" horiz-adv-x="0" d="M-382 718c27 0 54 -11 83 -34s52 -34 67 -34c24 0 46 22 53 62l50 -7c-16 -77 -57 -112 -109 -112c-24 0 -50 11 -77 34c-27 22 -50 33 -68 33c-29 0 -52 -23 -57 -59l-51 8c12 73 60 109 109 109z"/>
    <glyph glyph-name="uni0304" unicode="̄" horiz-adv-x="0" d="M-166 602h-288v57h288v-57z"/>
    <glyph glyph-name="uni0306" unicode="̆" horiz-adv-x="0" d="M-460 720h60c3 -56 39 -97 90 -97s87 41 90 97h60c-7 -99 -69 -147 -150 -147s-145 48 -150 147z"/>
    <glyph glyph-name="uni0307" unicode="̇" horiz-adv-x="0" d="M-361 721h102v-121h-102v121z"/>
    <glyph glyph-name="uni0308" unicode="̈" horiz-adv-x="0" d="M-454 721h101v-118h-101v118zM-267 721h100v-118h-100v118z"/>
    <glyph glyph-name="uni030A" unicode="̊" horiz-adv-x="0" d="M-235 583c-19 -19 -44 -28 -75 -28s-57 9 -76 28s-28 42 -28 71s10 53 29 72s44 28 75 28s56 -9 75 -28s29 -43 29 -72s-10 -52 -29 -71zM-350 613c20 -22 60 -22 80 0s20 60 0 83s-60 23 -80 0s-20 -61 0 -83z"/>
    <glyph glyph-name="uni030B" unicode="̋" horiz-adv-x="0" d="M-389 578h-69l85 142h75zM-240 578h-69l85 142h75z"/>
    <glyph glyph-name="uni030C" unicode="̌" horiz-adv-x="0" d="M-348 578l-106 142h70l74 -99l74 99h70l-106 -142h-76z"/>
    <glyph glyph-name="uni0312" unicode="̒" horiz-adv-x="0" d="M-281 750l19 -31c-37 -12 -55 -30 -55 -53h56v-87h-101v64c0 55 18 87 81 107z"/>
    <glyph glyph-name="uni0326" unicode="̦" horiz-adv-x="0" d="M-339 -213l-19 31c37 12 55 30 55 53h-56v87h101v-64c0 -55 -18 -87 -81 -107z"/>
    <glyph glyph-name="uni0327" unicode="̧" horiz-adv-x="0" d="M-382 -79l45 84h45l-37 -61c10 8 24 12 42 12c41 0 72 -28 72 -69c0 -51 -46 -87 -99 -87c-45 0 -76 18 -91 55l48 15c7 -21 22 -31 44 -31c24 0 44 16 44 44s-19 42 -42 42c-15 0 -28 -5 -37 -15z"/>
    <glyph glyph-name="uni0328" unicode="̨" horiz-adv-x="0" d="M-258 -108l46 -16c-11 -52 -50 -79 -105 -79c-49 0 -92 34 -92 86s33 92 99 119l67 -2c-80 -28 -112 -69 -112 -108c0 -31 18 -52 45 -52s45 23 52 52z"/>
    <glyph glyph-name="uni0394" unicode="Δ" d="M552 0h-484l202 710h83zM457 62l-147 566l-151 -566h298z"/>
    <glyph glyph-name="uni03A9" unicode="Ω" d="M546 65v-65h-189l-12 208c92 23 134 110 134 230c0 65 -14 119 -42 162c-29 43 -71 64 -126 64c-53 0 -95 -22 -124 -65s-44 -97 -44 -162c0 -113 52 -205 133 -229l-12 -208h-189v65h127l7 101c-41 18 -75 52 -101 102c-27 49 -40 106 -40 170c0 85 23 155 68 209 c45 53 104 80 176 80c73 0 132 -26 175 -79s65 -122 65 -208c0 -148 -47 -239 -140 -274l8 -101h126z"/>
    <glyph glyph-name="uni03BC" unicode="μ" d="M433 234v266h70v-500h-66v103c-23 -63 -85 -115 -160 -115c-41 0 -76 9 -104 26v-209h-70v695h72v-308c0 -96 39 -144 117 -144c67 0 113 49 129 102c8 26 12 54 12 84z"/>
    <glyph glyph-name="pi" unicode="π" d="M554 60v-61c-10 -4 -23 -6 -40 -6c-81 0 -106 48 -106 124v327h-195v-444h-69v444h-79v56h490v-56h-78v-327c0 -41 16 -61 47 -61c7 0 17 1 30 4z"/>
    <glyph glyph-name="uni0E3F" unicode="฿" d="M394 356c91 -13 144 -75 144 -166c0 -90 -53 -190 -225 -190h-8v-107h-46v107h-178v695h178v91h46v-91c77 -2 132 -20 165 -55s49 -76 49 -123c0 -76 -42 -140 -125 -161zM259 633h-108v-251h108v251zM445 511c0 78 -47 119 -140 122v-251c93 2 140 45 140 129zM151 320 v-258h108v258h-108zM305 62h3c104 0 156 45 156 134c0 75 -46 124 -147 124h-12v-258z"/>
    <glyph glyph-name="Wgrave" unicode="Ẁ" d="M268 884l75 -107h-67l-101 107h93zM211 0h-99l-66 710h76l38 -525c4 -53 6 -93 6 -119h8c3 35 10 76 21 125l79 347h72l79 -347c11 -49 18 -90 21 -125h8c0 26 2 66 6 119l38 525h76l-66 -710h-99l-74 329c-11 52 -18 98 -21 137h-8c-3 -39 -10 -85 -21 -137z"/>
    <glyph glyph-name="wgrave" unicode="ẁ" d="M248 720l94 -142h-63l-119 142h88zM135 0l-104 500h73l63 -358c3 -16 8 -53 11 -68h6c5 29 10 55 15 78l75 348h71l75 -348c5 -23 10 -49 15 -78h6c3 15 8 52 11 68l63 358h73l-104 -500h-86l-76 345c-3 14 -6 39 -10 74h-6c-1 -28 -4 -53 -9 -74l-76 -345h-86z"/>
    <glyph glyph-name="Wacute" unicode="Ẃ" d="M344 777h-67l75 107h93zM211 0h-99l-66 710h76l38 -525c4 -53 6 -93 6 -119h8c3 35 10 76 21 125l79 347h72l79 -347c11 -49 18 -90 21 -125h8c0 26 2 66 6 119l38 525h76l-66 -710h-99l-74 329c-11 52 -18 98 -21 137h-8c-3 -39 -10 -85 -21 -137z"/>
    <glyph glyph-name="wacute" unicode="ẃ" d="M341 578h-63l94 142h88zM135 0l-104 500h73l63 -358c3 -16 8 -53 11 -68h6c5 29 10 55 15 78l75 348h71l75 -348c5 -23 10 -49 15 -78h6c3 15 8 52 11 68l63 358h73l-104 -500h-86l-76 345c-3 14 -6 39 -10 74h-6c-1 -28 -4 -53 -9 -74l-76 -345h-86z"/>
    <glyph glyph-name="Wdieresis" unicode="Ẅ" d="M153 884h93v-110h-93v110zM374 884h93v-110h-93v110zM211 0h-99l-66 710h76l38 -525c4 -53 6 -93 6 -119h8c3 35 10 76 21 125l79 347h72l79 -347c11 -49 18 -90 21 -125h8c0 26 2 66 6 119l38 525h76l-66 -710h-99l-74 329c-11 52 -18 98 -21 137h-8 c-3 -39 -10 -85 -21 -137z"/>
    <glyph glyph-name="wdieresis" unicode="ẅ" d="M166 721h101v-118h-101v118zM353 721h100v-118h-100v118zM135 0l-104 500h73l63 -358c3 -16 8 -53 11 -68h6c5 29 10 55 15 78l75 348h71l75 -348c5 -23 10 -49 15 -78h6c3 15 8 52 11 68l63 358h73l-104 -500h-86l-76 345c-3 14 -6 39 -10 74h-6c-1 -28 -4 -53 -9 -74 l-76 -345h-86z"/>
    <glyph glyph-name="Ygrave" unicode="Ỳ" d="M268 884l75 -107h-67l-101 107h93zM581 710l-232 -425v-285h-77v285l-233 425h85l186 -360l186 360h85z"/>
    <glyph glyph-name="ygrave" unicode="ỳ" d="M248 720l94 -142h-63l-119 142h88zM86 500h79l153 -419l148 419h74l-199 -532c-44 -121 -100 -169 -185 -169c-16 0 -31 1 -44 4v62c17 -1 30 -2 37 -2c63 0 97 32 122 104l13 37z"/>
    <glyph glyph-name="endash" unicode="–" d="M104 252v53h412v-53h-412z"/>
    <glyph glyph-name="emdash" unicode="—" d="M40 252v53h539v-53h-539z"/>
    <glyph glyph-name="quoteleft" unicode="‘" d="M346 732l21 -39c-53 -24 -68 -52 -68 -112h72v-122h-123v122c0 77 27 122 98 151z"/>
    <glyph glyph-name="quoteright" unicode="’" d="M271 437l-21 39c53 24 68 52 68 112h-72v122h123v-122c0 -77 -27 -122 -98 -151z"/>
    <glyph glyph-name="quotesinglbase" unicode="‚" d="M274 -151l-21 39c53 24 68 52 68 112h-72v122h123v-122c0 -77 -27 -122 -98 -151z"/>
    <glyph glyph-name="quotedblleft" unicode="“" d="M235 733l21 -39c-53 -24 -68 -52 -68 -112h72v-122h-123v122c0 77 27 122 98 151zM460 733l21 -39c-53 -24 -68 -52 -68 -112h72v-122h-123v122c0 77 27 122 98 151z"/>
    <glyph glyph-name="quotedblright" unicode="”" d="M160 437l-21 39c53 24 68 52 68 112h-72v122h123v-122c0 -77 -27 -122 -98 -151zM385 437l-21 39c53 24 68 52 68 112h-72v122h123v-122c0 -77 -27 -122 -98 -151z"/>
    <glyph glyph-name="quotedblbase" unicode="„" d="M161 -152l-21 39c53 24 68 52 68 112h-72v122h123v-122c0 -77 -27 -122 -98 -151zM386 -152l-21 39c53 24 68 52 68 112h-72v122h123v-122c0 -77 -27 -122 -98 -151z"/>
    <glyph glyph-name="dagger" unicode="†" d="M481 442h-137v-542h-69v542h-136v58h136v220h69v-220h137v-58z"/>
    <glyph glyph-name="daggerdbl" unicode="‡" d="M481 500v-58h-137v-264h135v-58h-135v-220h-69v220h-136v58h136v264h-136v58h136v220h69v-220h137z"/>
    <glyph glyph-name="bullet" unicode="•" d="M309 428c49 0 83 -32 83 -83c0 -48 -34 -80 -83 -80c-48 0 -82 32 -82 80c0 49 34 83 82 83z"/>
    <glyph glyph-name="ellipsis" unicode="…" d="M42 120h123v-120h-123v120zM248 120h123v-120h-123v120zM454 120h123v-120h-123v120z"/>
    <glyph glyph-name="perthousand" unicode="‰" d="M152 428c-69 0 -117 54 -117 141s48 141 117 141c71 0 118 -54 118 -141s-47 -141 -118 -141zM46 243l483 431v-65l-483 -429v63zM152 664c-40 0 -64 -35 -64 -95s24 -95 64 -95c41 0 65 35 65 95s-24 95 -65 95zM462 282c71 0 117 -54 117 -141s-46 -141 -117 -141 c-39 0 -70 15 -91 46c-21 -31 -52 -46 -91 -46c-71 0 -118 54 -118 141s47 141 118 141c39 0 70 -15 91 -46c21 31 52 46 91 46zM233 71c23 -33 71 -33 94 0c11 17 17 40 17 70s-6 53 -17 70c-23 33 -71 33 -94 0c-11 -17 -17 -40 -17 -70s6 -53 17 -70zM462 46 c40 0 64 35 64 95s-24 95 -64 95c-41 0 -65 -35 -65 -95s24 -95 65 -95z"/>
    <glyph glyph-name="guilsinglleft" unicode="‹" d="M420 67h-76l-168 208l173 207h74l-168 -206z"/>
    <glyph glyph-name="guilsinglright" unicode="›" d="M444 275l-168 -208h-76l165 209l-168 206h74z"/>
    <glyph glyph-name="fraction" unicode="⁄" horiz-adv-x="137" d="M-225 -17l516 744h71l-515 -744h-72z"/>
    <glyph glyph-name="uni20A9" unicode="₩" d="M579 455v-47h-43l-10 -84h53v-46h-58l-31 -278h-95l-38 278h-95l-38 -278h-95l-31 278h-58v46h53l-10 84h-43v47h38l-27 240h62l24 -240h98l34 240h81l34 -240h98l24 240h62l-27 -240h38zM301 561l-15 -106h47l-15 106c-3 27 -5 48 -6 65h-5c-1 -17 -3 -38 -6 -65z M228 408h-86l9 -84h65zM280 408l-12 -84h83l-12 84h-59zM403 324h65l9 84h-86zM188 126l22 152h-54l15 -152c3 -25 5 -45 6 -58h3c5 37 8 57 8 58zM448 126l15 152h-54l22 -152c0 -1 3 -21 8 -58h4c1 24 3 43 5 58z"/>
    <glyph glyph-name="Euro" unicode="€" d="M541 167l60 -24c-41 -105 -117 -158 -226 -158c-149 0 -244 105 -268 278h-89v51h84c-1 9 -1 22 -1 41s0 34 1 43h-84v50h90c25 168 123 262 271 262c107 0 178 -52 215 -155l-65 -23c-27 75 -78 113 -154 113c-103 0 -169 -66 -190 -197h273v-50h-279 c-1 -14 -1 -70 0 -84h279v-51h-273c21 -139 92 -213 192 -213c77 0 131 39 164 117z"/>
    <glyph glyph-name="uni20B9" unicode="₹" d="M66 695h487v-54h-229c46 -25 72 -66 79 -123h150v-51h-150c-7 -82 -55 -176 -230 -176h-14l250 -291h-89l-254 302v46h102c98 0 152 40 161 119h-263v51h262c-9 73 -59 123 -159 123h-103v54z"/>
    <glyph glyph-name="uni20BA" unicode="₺" d="M484 239l67 -15c-30 -149 -116 -224 -258 -224h-147v278l-77 -23v56l77 23v89l-77 -23v56l77 23v216h74v-193l227 69v-56l-227 -69v-89l227 69v-56l-227 -69v-235h62c107 0 174 58 202 173z"/>
    <glyph glyph-name="uni20BD" unicode="₽" d="M326 292h-121v-97h167v-51h-167v-144h-74v144h-71v51h71v97h-70v54h70v349h195c182 1 234 -110 234 -199c0 -92 -52 -204 -234 -204zM323 629h-118v-283h118c57 0 98 15 123 44s38 63 38 102c0 37 -13 69 -38 96s-66 41 -123 41z"/>
    <glyph glyph-name="uni2105" unicode="℅" d="M288 610l-56 -7c-4 48 -30 76 -70 76c-53 0 -80 -38 -80 -113c0 -78 27 -117 81 -117c40 0 65 27 70 70l56 -8c-13 -71 -61 -111 -126 -111c-85 0 -137 61 -137 166c0 101 52 162 136 162c69 0 121 -43 126 -118zM53 -14l444 742h59l-444 -742h-59zM594 150 c0 -101 -53 -162 -134 -162c-85 0 -136 60 -136 165c0 103 51 163 135 163c81 0 135 -62 135 -166zM379 153c0 -77 27 -116 81 -116c51 0 76 38 76 113c0 76 -28 117 -77 117c-51 0 -80 -41 -80 -114z"/>
    <glyph glyph-name="uni2113" unicode="ℓ" d="M311 263v-120c0 -57 26 -86 78 -86c15 0 34 2 55 7v-64c-22 -6 -46 -9 -73 -9c-96 0 -130 54 -130 153v77c-34 -17 -63 -30 -88 -41l-24 52c49 21 86 40 112 55v294c0 103 54 150 125 150c81 0 124 -57 124 -148c0 -131 -60 -238 -179 -320zM311 595v-259 c73 61 109 140 109 237c0 75 -19 102 -56 102c-35 0 -53 -27 -53 -80z"/>
    <glyph glyph-name="uni2116" unicode="№" d="M94 710l134 -476l30 -120h3c-7 71 -11 133 -11 184v412h59v-710h-72l-140 496c-15 58 -25 95 -29 112h-3c7 -63 11 -127 11 -191v-417h-59v710h77zM376 445v75c0 97 38 146 114 146c75 0 112 -48 112 -144v-80c0 -91 -44 -141 -112 -141c-69 0 -114 52 -114 144zM544 443 v85c0 57 -18 86 -54 86c-37 0 -56 -30 -56 -89v-82c0 -59 19 -89 56 -89c36 0 54 30 54 89z"/>
    <glyph glyph-name="trademark" unicode="™" d="M172 319h-55v344h-81v47h221v-47h-85v-344zM346 319h-49v391h80l50 -268c4 -21 8 -46 12 -75h2c4 29 8 54 12 75l50 268h80v-391h-49v290v54h-1c-1 -9 -3 -23 -6 -40l-61 -304h-53l-60 304c-3 16 -5 29 -6 40h-1v-54v-290z"/>
    <glyph glyph-name="uni2126" unicode="Ω" d="M546 65v-65h-189l-12 208c92 23 134 110 134 230c0 65 -14 119 -42 162c-29 43 -71 64 -126 64c-53 0 -95 -22 -124 -65s-44 -97 -44 -162c0 -113 52 -205 133 -229l-12 -208h-189v65h127l7 101c-41 18 -75 52 -101 102c-27 49 -40 106 -40 170c0 85 23 155 68 209 c45 53 104 80 176 80c73 0 132 -26 175 -79s65 -122 65 -208c0 -148 -47 -239 -140 -274l8 -101h126z"/>
    <glyph glyph-name="estimated" unicode="℮" d="M328 31c76 0 143 42 174 134l47 -21c-37 -105 -121 -161 -229 -161c-83 0 -147 34 -191 102c-44 67 -66 158 -66 272c0 111 22 199 67 264c44 65 108 97 192 97c163 0 234 -108 234 -361h-359v-266c35 -40 78 -60 131 -60zM430 404v230c-26 24 -62 36 -108 36 c-51 0 -93 -16 -125 -48v-218h233z"/>
    <glyph glyph-name="uni2153" unicode="⅓" horiz-adv-x="1240" d="M335 -17l516 744h71l-515 -744h-72zM322 374h106v-43h-276v43h112v266c-17 -19 -67 -37 -99 -37h-8v51h6c43 0 95 24 110 55h49v-335zM998 195c55 -3 89 -39 89 -94c0 -65 -55 -109 -138 -109c-87 0 -139 46 -140 119l61 4c-1 -45 30 -79 79 -79c45 0 77 24 77 69 s-26 68 -79 68h-30v39h26c41 0 74 20 74 64c0 41 -28 65 -71 65c-49 0 -77 -32 -74 -81l-61 5c-1 75 48 122 135 122c80 0 130 -39 130 -104c0 -48 -30 -81 -78 -88z"/>
    <glyph glyph-name="uni2154" unicode="⅔" horiz-adv-x="1240" d="M329 -17l516 744h71l-515 -744h-72zM162 331v44c139 97 208 159 208 223c0 49 -24 73 -73 73c-47 0 -74 -26 -74 -70c0 -9 1 -18 3 -26l-59 5c-1 13 -2 21 -2 24c0 68 52 114 132 114c84 0 131 -42 131 -117s-72 -144 -188 -224h202v-46h-280zM907 173v39h26 c41 0 74 20 74 64c0 41 -28 65 -71 65c-49 0 -77 -32 -74 -81l-61 5c-1 75 48 122 135 122c80 0 130 -39 130 -104c0 -48 -30 -81 -78 -88c55 -3 89 -39 89 -94c0 -65 -55 -109 -138 -109c-87 0 -139 46 -140 119l61 4c-1 -45 30 -79 79 -79c45 0 77 24 77 69s-26 68 -79 68 h-30z"/>
    <glyph glyph-name="oneeighth" unicode="⅛" horiz-adv-x="1240" d="M334 -17l516 744h71l-515 -744h-72zM329 374h106v-43h-276v43h112v266c-17 -19 -67 -37 -99 -37h-8v51h6c43 0 95 24 110 55h49v-335zM979 208c66 -15 99 -51 99 -109c0 -67 -57 -107 -149 -107s-146 39 -146 104c0 49 30 80 91 93c-55 14 -82 46 -82 96 c0 60 55 102 135 102c81 0 135 -35 135 -94c0 -43 -28 -72 -83 -85zM850 284c0 -36 25 -52 72 -63l26 -6c44 13 60 33 60 68c0 39 -30 63 -81 63c-48 0 -77 -23 -77 -62zM931 35c55 0 89 25 89 66c0 45 -28 61 -81 73l-28 6c-47 -14 -70 -39 -70 -76c0 -44 33 -69 90 -69z "/>
    <glyph glyph-name="threeeighths" unicode="⅜" horiz-adv-x="1240" d="M333 -17l516 744h71l-515 -744h-72zM443 432c0 -65 -55 -109 -138 -109c-87 0 -139 46 -140 119l61 4c-1 -45 30 -79 79 -79c45 0 77 24 77 69s-26 68 -79 68h-30v39h26c41 0 74 20 74 64c0 41 -28 65 -71 65c-49 0 -77 -32 -74 -81l-61 5c-1 75 48 122 135 122 c80 0 130 -39 130 -104c0 -48 -30 -81 -78 -88c55 -3 89 -39 89 -94zM976 208c66 -15 99 -51 99 -109c0 -67 -57 -107 -149 -107s-146 39 -146 104c0 49 30 80 91 93c-55 14 -82 46 -82 96c0 60 55 102 135 102c81 0 135 -35 135 -94c0 -43 -28 -72 -83 -85zM847 284 c0 -36 25 -52 72 -63l26 -6c44 13 60 33 60 68c0 39 -30 63 -81 63c-48 0 -77 -23 -77 -62zM928 35c55 0 89 25 89 66c0 45 -28 61 -81 73l-28 6c-47 -14 -70 -39 -70 -76c0 -44 33 -69 90 -69z"/>
    <glyph glyph-name="fiveeighths" unicode="⅝" horiz-adv-x="1240" d="M333 -17l516 744h71l-515 -744h-72zM444 459c0 -87 -55 -136 -144 -136c-75 0 -131 42 -138 103l54 6c8 -40 41 -65 85 -65c53 0 87 35 87 91c0 51 -31 83 -82 83c-43 0 -74 -22 -85 -61l-49 6l22 223h230v-46h-189l-14 -136c21 39 56 58 103 58c73 0 120 -49 120 -126z M978 208c66 -15 99 -51 99 -109c0 -67 -57 -107 -149 -107s-146 39 -146 104c0 49 30 80 91 93c-55 14 -82 46 -82 96c0 60 55 102 135 102c81 0 135 -35 135 -94c0 -43 -28 -72 -83 -85zM849 284c0 -36 25 -52 72 -63l26 -6c44 13 60 33 60 68c0 39 -30 63 -81 63 c-48 0 -77 -23 -77 -62zM930 35c55 0 89 25 89 66c0 45 -28 61 -81 73l-28 6c-47 -14 -70 -39 -70 -76c0 -44 33 -69 90 -69z"/>
    <glyph glyph-name="seveneighths" unicode="⅞" horiz-adv-x="1240" d="M281 -17l516 744h71l-515 -744h-72zM308 331h-64v4c-1 120 53 241 140 325h-213v49h268v-48c-79 -76 -128 -195 -131 -330zM967 208c66 -15 99 -51 99 -109c0 -67 -57 -107 -149 -107s-146 39 -146 104c0 49 30 80 91 93c-55 14 -82 46 -82 96c0 60 55 102 135 102 c81 0 135 -35 135 -94c0 -43 -28 -72 -83 -85zM838 284c0 -36 25 -52 72 -63l26 -6c44 13 60 33 60 68c0 39 -30 63 -81 63c-48 0 -77 -23 -77 -62zM919 35c55 0 89 25 89 66c0 45 -28 61 -81 73l-28 6c-47 -14 -70 -39 -70 -76c0 -44 33 -69 90 -69z"/>
    <glyph glyph-name="arrowleft" unicode="←" d="M560 353v-46h-363v-90l-150 113l150 113v-90h363z"/>
    <glyph glyph-name="arrowup" unicode="↑" d="M334 -35h-48v634h-89l113 151l113 -151h-89v-634z"/>
    <glyph glyph-name="arrowright" unicode="→" d="M60 307v46h363v90l150 -113l-150 -113v90h-363z"/>
    <glyph glyph-name="arrowdown" unicode="↓" d="M286 745h48v-634h89l-113 -151l-113 151h89v634z"/>
    <glyph glyph-name="arrowboth" unicode="↔" d="M413 217v90h-216v-90l-150 113l150 113v-90h216v90l150 -113z"/>
    <glyph glyph-name="arrowupdn" unicode="↕" d="M423 111l-113 -151l-113 151h89v488h-89l113 151l113 -151h-89v-488h89z"/>
    <glyph glyph-name="uni2196" unicode="↖" d="M511 235l-365 364l-74 -74v185h185l-75 -75l365 -365z"/>
    <glyph glyph-name="uni2197" unicode="↗" d="M548 526l-74 74l-365 -364l-36 35l365 365l-75 75h185v-185z"/>
    <glyph glyph-name="uni2198" unicode="↘" d="M109 486l365 -364l74 74v-185h-185l75 75l-365 365z"/>
    <glyph glyph-name="uni2199" unicode="↙" d="M71 196l74 -74l365 364l36 -35l-365 -365l75 -75h-185v185z"/>
    <glyph glyph-name="uni21A9" unicode="↩" d="M199 307v-90l-151 113l151 113v-90h139c101 0 158 50 158 142c0 91 -58 138 -159 138h-92v47h102c127 0 202 -66 202 -185s-74 -188 -201 -188h-149z"/>
    <glyph glyph-name="uni21AA" unicode="↪" d="M572 330l-151 -113v90h-149c-127 0 -201 69 -201 188s75 185 202 185h102v-47h-92c-101 0 -159 -47 -159 -138c0 -92 57 -142 158 -142h139v90z"/>
    <glyph glyph-name="uni21B0" unicode="↰" d="M521 0h-49v577h-274v-90l-151 113l151 113v-90h323v-623z"/>
    <glyph glyph-name="uni21B1" unicode="↱" d="M148 577v-577h-49v623h323v90l151 -113l-151 -113v90h-274z"/>
    <glyph glyph-name="uni21B2" unicode="↲" d="M497 133v577h49v-623h-323v-90l-151 113l151 113v-90h274z"/>
    <glyph glyph-name="uni21B3" unicode="↳" d="M99 710h49v-577h274v90l151 -113l-151 -113v90h-323v623z"/>
    <glyph glyph-name="uni21B4" unicode="↴" d="M469 -12l-112 150h88v525h-385v47h434v-572h88z"/>
    <glyph glyph-name="uni21B5" unicode="↵" d="M524 411v-59h88l-112 -151l-113 151h83v56c0 187 -54 268 -162 268c-69 0 -115 -33 -140 -98l-47 20c36 84 98 126 187 126c141 0 216 -108 216 -313zM310 33c69 0 115 32 140 97l47 -19c-35 -85 -98 -127 -187 -127c-141 0 -215 109 -215 312v57h-88l113 150l113 -150 h-85v-54c0 -184 54 -266 162 -266z"/>
    <glyph glyph-name="uni21C4" unicode="⇄" d="M501 469v-46h-304v-90l-150 113l150 113v-90h304zM120 191v46h303v90l150 -113l-150 -113v90h-303z"/>
    <glyph glyph-name="uni21C5" unicode="⇅" d="M426 750l113 -151h-89v-537h-48v537h-89zM194 -40l-113 151h89v541h48v-541h89z"/>
    <glyph glyph-name="partialdiff" unicode="∂" d="M279 721c183 0 273 -144 273 -385c0 -111 -23 -197 -68 -259c-45 -63 -107 -94 -184 -94c-68 0 -124 23 -167 68c-44 45 -66 103 -66 173c0 68 21 124 62 168c41 43 93 65 157 65c85 0 150 -34 195 -101c0 189 -67 303 -202 303c-29 0 -57 -5 -86 -16l-19 58 c33 13 68 20 105 20zM184 94c31 -34 70 -51 119 -51s90 19 124 58c33 38 51 97 54 176c-42 80 -102 120 -180 120c-103 0 -163 -70 -163 -173c0 -53 15 -96 46 -130z"/>
    <glyph glyph-name="emptyset" unicode="∅" d="M503 543l34 -30l-55 -59c33 -41 50 -91 50 -150c0 -67 -20 -121 -61 -163s-95 -63 -161 -63c-54 0 -100 15 -139 44l-54 -58l-34 31l55 59c-33 41 -50 91 -50 150c0 67 21 121 62 163s95 63 160 63c54 0 100 -15 139 -44zM153 304c0 -39 10 -73 29 -103l225 239 c-27 21 -59 31 -97 31c-93 0 -157 -68 -157 -167zM467 304c0 40 -10 74 -29 103l-224 -239c27 -21 59 -31 96 -31c93 0 157 68 157 167z"/>
    <glyph glyph-name="uni2206" unicode="∆" d="M552 0h-484l202 710h83zM457 62l-147 566l-151 -566h298z"/>
    <glyph glyph-name="product" unicode="∏" d="M540 -88h-71v727h-318v-727h-71v793h460v-793z"/>
    <glyph glyph-name="summation" unicode="∑" d="M555 -88h-491v52l286 363l-273 327v51h466v-63h-372l267 -315l-284 -352h401v-63z"/>
    <glyph glyph-name="minus" unicode="−" d="M545 296h-470v65h470v-65z"/>
    <glyph glyph-name="radical" unicode="√" d="M46 239v57h133l92 -293l235 731h68l-270 -828h-66l-111 333h-81z"/>
    <glyph glyph-name="infinity" unicode="∞" d="M432 463c73 0 125 -54 125 -134c0 -39 -12 -71 -37 -96s-54 -38 -88 -38c-48 0 -94 38 -123 85c-36 -57 -78 -86 -125 -86c-64 0 -121 51 -121 134c0 79 54 134 123 134c48 0 96 -32 123 -80c35 54 76 81 123 81zM190 254c39 0 63 28 90 76c-27 49 -58 73 -93 73 c-36 0 -66 -24 -66 -75c0 -48 34 -74 69 -74zM430 253c36 0 68 30 68 75c0 49 -29 75 -68 75c-40 0 -61 -24 -92 -73c29 -51 59 -77 92 -77z"/>
    <glyph glyph-name="integral" unicode="∫" d="M100 -115v60c7 -1 17 -1 28 -1c112 0 148 41 148 161v393c0 143 67 215 200 215c13 0 27 -1 43 -3v-60c-17 2 -32 3 -43 3c-95 0 -129 -52 -129 -163v-393c0 -141 -63 -214 -219 -213c-11 0 -21 0 -28 1z"/>
    <glyph glyph-name="approxequal" unicode="≈" d="M421 369c-25 0 -61 8 -106 25c-46 17 -81 25 -106 25c-49 0 -105 -17 -134 -40v65c27 23 81 40 126 40c30 0 67 -8 110 -25s77 -25 102 -25c49 0 104 17 132 40v-65c-24 -23 -77 -40 -124 -40zM421 184c-25 0 -61 8 -106 25c-46 17 -81 25 -106 25 c-49 0 -105 -17 -134 -40v65c27 23 81 40 126 40c30 0 67 -8 110 -25s77 -25 102 -25c49 0 104 17 132 40v-65c-24 -23 -77 -40 -124 -40z"/>
    <glyph glyph-name="notequal" unicode="≠" d="M545 454v-65h-188l-46 -120h234v-65h-259l-50 -132h-47l50 132h-164v65h189l46 120h-235v65h260l49 128h47l-49 -128h163z"/>
    <glyph glyph-name="lessequal" unicode="≤" d="M552 200v-67l-465 212v58l465 212v-65l-387 -175zM71 0v62h460v-62h-460z"/>
    <glyph glyph-name="greaterequal" unicode="≥" d="M542 345l-465 -212v67l387 175l-387 175v65l465 -212v-58zM98 62h460v-62h-460v62z"/>
    <glyph glyph-name="uni2460" unicode="①" d="M309 -17c-85 0 -153 28 -205 84c-52 55 -78 131 -78 228v120c0 97 26 173 78 229c52 55 120 83 205 83s154 -28 206 -83c52 -56 78 -132 78 -229v-120c0 -97 -26 -174 -78 -229s-121 -83 -206 -83zM137 95c43 -48 101 -72 172 -72s129 24 173 72c43 47 65 113 65 198v124 c0 84 -22 150 -65 198c-44 48 -102 72 -173 72s-129 -24 -172 -72s-65 -114 -65 -198v-124c0 -85 22 -151 65 -198zM213 225v-45h195v45h-71v306h-41c-9 -31 -35 -51 -68 -51h-5v-49h7c27 0 45 8 56 25v-231h-73z"/>
    <glyph glyph-name="uni2461" unicode="②" d="M309 -17c-85 0 -153 28 -205 84c-52 55 -78 131 -78 228v120c0 97 26 173 78 229c52 55 120 83 205 83s154 -28 206 -83c52 -56 78 -132 78 -229v-120c0 -97 -26 -174 -78 -229s-121 -83 -206 -83zM137 95c43 -48 101 -72 172 -72s129 24 173 72c43 47 65 113 65 198v124 c0 84 -22 150 -65 198c-44 48 -102 72 -173 72s-129 -24 -172 -72s-65 -114 -65 -198v-124c0 -85 22 -151 65 -198zM408 175h-196v36c50 57 86 102 107 135s32 67 32 102c0 31 -14 47 -42 47s-42 -16 -42 -47c0 -14 0 -25 1 -32l-52 4c-1 6 -1 15 -1 26c0 55 33 88 96 88 c62 0 93 -29 93 -88c0 -49 -29 -105 -59 -144c-15 -19 -40 -49 -75 -88h138v-39z"/>
    <glyph glyph-name="uni2462" unicode="③" d="M309 -17c-85 0 -153 28 -205 84c-52 55 -78 131 -78 228v120c0 97 26 173 78 229c52 55 120 83 205 83s154 -28 206 -83c52 -56 78 -132 78 -229v-120c0 -97 -26 -174 -78 -229s-121 -83 -206 -83zM137 95c43 -48 101 -72 172 -72s129 24 173 72c43 47 65 113 65 198v124 c0 84 -22 150 -65 198c-44 48 -102 72 -173 72s-129 -24 -172 -72s-65 -114 -65 -198v-124c0 -85 22 -151 65 -198zM310 172c-67 0 -97 29 -97 112l52 4c0 -60 14 -78 45 -78c29 0 44 22 44 65c0 52 -16 67 -51 67h-15v37h15c32 0 48 22 48 67c0 37 -14 55 -42 55 s-42 -17 -42 -76l-52 5c0 79 33 108 94 108c63 0 94 -31 94 -92c0 -48 -19 -76 -56 -84c40 -7 59 -31 59 -87c0 -69 -32 -103 -96 -103z"/>
    <glyph glyph-name="uni2463" unicode="④" d="M309 -17c-85 0 -153 28 -205 84c-52 55 -78 131 -78 228v120c0 97 26 173 78 229c52 55 120 83 205 83s154 -28 206 -83c52 -56 78 -132 78 -229v-120c0 -97 -26 -174 -78 -229s-121 -83 -206 -83zM137 95c43 -48 101 -72 172 -72s129 24 173 72c43 47 65 113 65 198v124 c0 84 -22 150 -65 198c-44 48 -102 72 -173 72s-129 -24 -172 -72s-65 -114 -65 -198v-124c0 -85 22 -151 65 -198zM415 300v-38h-42v-82h-49v82h-126v36l115 233h60v-231h42zM324 300v179l-85 -179h85z"/>
    <glyph glyph-name="uni2464" unicode="⑤" d="M309 -17c-85 0 -153 28 -205 84c-52 55 -78 131 -78 228v120c0 97 26 173 78 229c52 55 120 83 205 83s154 -28 206 -83c52 -56 78 -132 78 -229v-120c0 -97 -26 -174 -78 -229s-121 -83 -206 -83zM137 95c43 -48 101 -72 172 -72s129 24 173 72c43 47 65 113 65 198v124 c0 84 -22 150 -65 198c-44 48 -102 72 -173 72s-129 -24 -172 -72s-65 -114 -65 -198v-124c0 -85 22 -151 65 -198zM308 176c-64 0 -96 35 -96 105l51 5c0 -55 16 -73 45 -73c31 0 45 23 45 88c0 60 -14 81 -43 81c-27 0 -43 -15 -46 -46l-48 4l10 194h165v-39h-124l-5 -111 c10 23 31 35 64 35c53 0 78 -34 78 -118c0 -88 -31 -125 -96 -125z"/>
    <glyph glyph-name="uni2465" unicode="⑥" d="M309 727c85 0 154 -28 206 -83c52 -56 78 -132 78 -229v-120c0 -97 -26 -174 -78 -229s-121 -83 -206 -83s-153 28 -205 84c-52 55 -78 131 -78 228v120c0 97 26 173 78 229c52 55 120 83 205 83zM547 293v124c0 84 -22 150 -65 198c-44 48 -102 72 -173 72 s-129 -24 -172 -72s-65 -114 -65 -198v-124c0 -85 22 -151 65 -198c43 -48 101 -72 172 -72s129 24 173 72c43 47 65 113 65 198zM327 416c55 0 80 -32 80 -121c0 -82 -32 -123 -96 -123c-71 0 -99 42 -99 178c0 72 8 121 24 148s41 40 76 40c61 0 92 -30 92 -91l-52 -6 c0 41 -14 61 -41 61c-31 0 -44 -22 -47 -115c13 19 34 29 63 29zM311 209c29 0 44 22 44 86c0 63 -15 83 -44 83c-23 0 -39 -12 -47 -36c1 -54 5 -90 12 -107s18 -26 35 -26z"/>
    <glyph glyph-name="uni2466" unicode="⑦" d="M309 -17c-85 0 -153 28 -205 84c-52 55 -78 131 -78 228v120c0 97 26 173 78 229c52 55 120 83 205 83s154 -28 206 -83c52 -56 78 -132 78 -229v-120c0 -97 -26 -174 -78 -229s-121 -83 -206 -83zM137 95c43 -48 101 -72 172 -72s129 24 173 72c43 47 65 113 65 198v124 c0 84 -22 150 -65 198c-44 48 -102 72 -173 72s-129 -24 -172 -72s-65 -114 -65 -198v-124c0 -85 22 -151 65 -198zM354 490h-137v41h186v-35c-55 -82 -83 -180 -83 -295v-21h-53v9c0 113 29 214 87 301z"/>
    <glyph glyph-name="uni2467" unicode="⑧" d="M309 727c85 0 154 -28 206 -83c52 -56 78 -132 78 -229v-120c0 -97 -26 -174 -78 -229s-121 -83 -206 -83s-153 28 -205 84c-52 55 -78 131 -78 228v120c0 97 26 173 78 229c52 55 120 83 205 83zM547 293v124c0 84 -22 150 -65 198c-44 48 -102 72 -173 72 s-129 -24 -172 -72s-65 -114 -65 -198v-124c0 -85 22 -151 65 -198c43 -48 101 -72 172 -72s129 24 173 72c43 47 65 113 65 198zM353 368c36 -13 54 -37 54 -94c0 -67 -33 -101 -98 -101s-97 34 -97 101c0 44 18 72 54 85c-33 13 -49 44 -49 91c0 59 36 88 92 88 c61 0 91 -29 91 -88c0 -47 -15 -69 -47 -82zM309 505c-28 0 -42 -18 -42 -55c0 -45 12 -58 41 -67l8 -3c24 8 34 26 34 70c0 41 -14 55 -41 55zM310 208c29 0 44 22 44 66c0 48 -10 58 -42 69l-9 3c-26 -8 -39 -32 -39 -72c0 -49 15 -66 46 -66z"/>
    <glyph glyph-name="uni2468" unicode="⑨" d="M309 727c85 0 154 -28 206 -83c52 -56 78 -132 78 -229v-120c0 -97 -26 -174 -78 -229s-121 -83 -206 -83s-153 28 -205 84c-52 55 -78 131 -78 228v120c0 97 26 173 78 229c52 55 120 83 205 83zM547 293v124c0 84 -22 150 -65 198c-44 48 -102 72 -173 72 s-129 -24 -172 -72s-65 -114 -65 -198v-124c0 -85 22 -151 65 -198c43 -48 101 -72 172 -72s129 24 173 72c43 47 65 113 65 198zM309 538c36 0 61 -13 76 -38s22 -75 22 -148c0 -71 -8 -118 -23 -143s-40 -37 -75 -37c-61 0 -92 32 -93 97l52 5c0 -44 14 -66 42 -66 c16 0 27 8 34 25c7 16 10 50 11 101c-13 -18 -33 -27 -61 -27c-55 0 -81 32 -81 112c0 79 32 119 96 119zM309 344c24 0 39 11 46 34c-1 101 -15 125 -46 125s-45 -20 -45 -84c0 -50 15 -75 45 -75z"/>
    <glyph glyph-name="uni24EA" unicode="⓪" d="M309 -17c-85 0 -153 28 -205 84c-52 55 -78 131 -78 228v120c0 97 26 173 78 229c52 55 120 83 205 83s154 -28 206 -83c52 -56 78 -132 78 -229v-120c0 -97 -26 -174 -78 -229s-121 -83 -206 -83zM137 95c43 -48 101 -72 172 -72s129 24 173 72c43 47 65 113 65 198v124 c0 84 -22 150 -65 198c-44 48 -102 72 -173 72s-129 -24 -172 -72s-65 -114 -65 -198v-124c0 -85 22 -151 65 -198zM385 211c-17 -26 -42 -39 -75 -39s-58 13 -75 39s-25 74 -25 144c0 71 8 119 25 145s42 39 75 39s58 -13 75 -39s25 -74 25 -145c0 -70 -8 -118 -25 -144z M285 219c22 -12 58 -22 66 41c4 22 6 54 6 95s-2 73 -6 95c-5 22 -10 36 -16 42c-22 13 -58 21 -65 -42c-5 -22 -7 -54 -7 -95s2 -73 7 -95c4 -22 9 -36 15 -41z"/>
    <glyph glyph-name="uni24FF" unicode="⓿" d="M309 -17c-85 0 -153 28 -205 84c-52 55 -78 131 -78 228v120c0 97 26 173 78 229c52 55 120 83 205 83s154 -28 206 -83s78 -132 78 -229v-120c0 -97 -26 -174 -78 -229s-121 -83 -206 -83zM235 211c17 -26 42 -39 75 -39s58 13 75 39s25 74 25 144c0 71 -8 119 -25 145 s-42 39 -75 39s-58 -13 -75 -39s-25 -74 -25 -145c0 -70 8 -118 25 -144zM335 219c-22 -12 -58 -22 -65 41c-5 22 -7 54 -7 95s2 73 7 95c4 22 9 36 15 42c22 13 58 21 66 -42c4 -22 6 -54 6 -95s-2 -73 -6 -95c-5 -22 -10 -36 -16 -41z"/>
    <glyph glyph-name="lozenge" unicode="◊" d="M544 355l-203 -372h-63l-202 372l202 372h62zM472 355l-163 303l-161 -303l161 -303z"/>
    <glyph glyph-name="circle" unicode="○" d="M486 57c-45 -50 -104 -75 -176 -75s-131 25 -176 75s-68 123 -68 218v158c0 95 23 168 68 218c45 49 104 74 176 74s131 -25 176 -74c45 -50 68 -123 68 -218v-158c0 -95 -23 -168 -68 -218zM165 86c37 -43 86 -64 145 -64s108 21 145 64c37 42 56 105 56 189v158 c0 168 -82 252 -201 252s-201 -84 -201 -252v-158c0 -84 19 -147 56 -189z"/>
    <glyph glyph-name="uni25CF" unicode="●" d="M553 435v-158c0 -96 -23 -169 -68 -219c-45 -51 -104 -76 -177 -76c-144 0 -242 103 -242 295v158c0 96 23 168 68 217s103 73 174 73c145 0 245 -99 245 -290z"/>
    <glyph glyph-name="uni2776" unicode="❶" d="M309 -17c-85 0 -153 28 -205 84c-52 55 -78 131 -78 228v120c0 97 26 173 78 229c52 55 120 83 205 83s154 -28 206 -83s78 -132 78 -229v-120c0 -97 -26 -174 -78 -229s-121 -83 -206 -83zM213 225v-45h195v45h-71v306h-41c-9 -31 -35 -51 -68 -51h-5v-49h7 c27 0 45 8 56 25v-231h-73z"/>
    <glyph glyph-name="uni2777" unicode="❷" d="M309 -17c-85 0 -153 28 -205 84c-52 55 -78 131 -78 228v120c0 97 26 173 78 229c52 55 120 83 205 83s154 -28 206 -83s78 -132 78 -229v-120c0 -97 -26 -174 -78 -229s-121 -83 -206 -83zM212 211v-36h196v39h-138c35 39 60 69 75 88s28 42 41 68c12 26 18 51 18 76 c0 59 -31 88 -93 88c-63 0 -96 -33 -96 -88c0 -11 0 -20 1 -26l52 -4c-1 7 -1 18 -1 32c0 31 14 47 42 47s42 -16 42 -47c0 -35 -11 -69 -32 -102s-57 -78 -107 -135z"/>
    <glyph glyph-name="uni2778" unicode="❸" d="M309 -17c-85 0 -153 28 -205 84c-52 55 -78 131 -78 228v120c0 97 26 173 78 229c52 55 120 83 205 83s154 -28 206 -83s78 -132 78 -229v-120c0 -97 -26 -174 -78 -229s-121 -83 -206 -83zM310 172c64 0 96 34 96 103c0 56 -19 80 -59 87c37 8 56 36 56 84 c0 61 -31 92 -94 92c-61 0 -94 -29 -94 -108l52 -5c0 59 14 76 42 76s42 -18 42 -55c0 -45 -16 -67 -48 -67h-15v-37h15c35 0 51 -15 51 -67c0 -43 -15 -65 -44 -65c-31 0 -45 18 -45 78l-52 -4c0 -83 30 -112 97 -112z"/>
    <glyph glyph-name="uni2779" unicode="❹" d="M309 -17c-85 0 -153 28 -205 84c-52 55 -78 131 -78 228v120c0 97 26 173 78 229c52 55 120 83 205 83s154 -28 206 -83s78 -132 78 -229v-120c0 -97 -26 -174 -78 -229s-121 -83 -206 -83zM324 262v-82h49v82h42v38h-42v231h-60l-115 -233v-36h126zM324 300h-85l85 179 v-179z"/>
    <glyph glyph-name="uni277A" unicode="❺" d="M309 -17c-85 0 -153 28 -205 84c-52 55 -78 131 -78 228v120c0 97 26 173 78 229c52 55 120 83 205 83s154 -28 206 -83s78 -132 78 -229v-120c0 -97 -26 -174 -78 -229s-121 -83 -206 -83zM308 176c65 0 96 37 96 125c0 84 -25 118 -78 118c-33 0 -54 -12 -64 -35l5 111 h124v39h-165l-10 -194l48 -4c3 31 19 46 46 46c29 0 43 -21 43 -81c0 -65 -14 -88 -45 -88c-29 0 -45 18 -45 73l-51 -5c0 -70 32 -105 96 -105z"/>
    <glyph glyph-name="uni277B" unicode="❻" d="M309 -17c-85 0 -153 28 -205 84c-52 55 -78 131 -78 228v120c0 97 26 173 78 229c52 55 120 83 205 83s154 -28 206 -83s78 -132 78 -229v-120c0 -97 -26 -174 -78 -229s-121 -83 -206 -83zM311 172c64 0 96 41 96 123c0 89 -25 121 -80 121c-30 0 -51 -10 -63 -31 c3 95 16 117 47 117c27 0 41 -20 41 -61l52 6c0 61 -31 91 -92 91c-35 0 -60 -13 -76 -40s-24 -76 -24 -148c0 -136 28 -178 99 -178zM311 209c-17 0 -28 9 -35 26s-11 53 -12 106c8 25 24 37 47 37c29 0 44 -20 44 -83c0 -64 -15 -86 -44 -86z"/>
    <glyph glyph-name="uni277C" unicode="❼" d="M309 -17c-85 0 -153 28 -205 84c-52 55 -78 131 -78 228v120c0 97 26 173 78 229c52 55 120 83 205 83s154 -28 206 -83s78 -132 78 -229v-120c0 -97 -26 -174 -78 -229s-121 -83 -206 -83zM267 180h53c0 132 22 224 83 316v35h-186v-41h137c-58 -87 -87 -191 -87 -310z "/>
    <glyph glyph-name="uni277D" unicode="❽" d="M309 -17c-85 0 -153 28 -205 84c-52 55 -78 131 -78 228v120c0 97 26 173 78 229c52 55 120 83 205 83s154 -28 206 -83s78 -132 78 -229v-120c0 -97 -26 -174 -78 -229s-121 -83 -206 -83zM309 173c65 0 98 34 98 101c0 57 -18 81 -54 94c32 13 47 35 47 82 c0 59 -30 88 -91 88c-56 0 -92 -29 -92 -88c0 -47 16 -77 49 -91c-36 -12 -54 -40 -54 -85c0 -67 32 -101 97 -101zM316 380l-8 3c-29 9 -41 22 -41 67c0 37 14 55 42 55c27 0 41 -14 41 -55c0 -38 -11 -61 -34 -70zM310 208c-31 0 -46 17 -46 66c0 47 12 63 39 72l9 -3 c28 -9 42 -16 42 -69c0 -44 -15 -66 -44 -66z"/>
    <glyph glyph-name="uni277E" unicode="❾" d="M309 -17c-85 0 -153 28 -205 84c-52 55 -78 131 -78 228v120c0 97 26 173 78 229c52 55 120 83 205 83s154 -28 206 -83s78 -132 78 -229v-120c0 -97 -26 -174 -78 -229s-121 -83 -206 -83zM309 172c35 0 60 12 75 37s23 72 23 143c0 73 -7 123 -22 148s-40 38 -76 38 c-64 0 -96 -40 -96 -119c0 -80 26 -112 81 -112c28 0 48 9 61 28c-1 -103 -13 -127 -45 -127c-28 0 -42 22 -42 66l-52 -5c1 -65 32 -97 93 -97zM309 344c-30 0 -45 25 -45 75c0 64 14 84 45 84c15 0 27 -8 34 -24s11 -49 12 -100c-8 -23 -23 -35 -46 -35z"/>
    <glyph glyph-name="uniE000" unicode="" d="M186 138h88l-112 -150l-113 150h88v572h434v-47h-385v-525z"/>
    <glyph glyph-name="uniF8FF" unicode="" d="M610 710v-47h-174v-47h174v-48h-174v-47h174v-48h-174v-47h174v-47h-174v-48h174v-47h-600v426h600zM62 652l-5 15l13 9h-16l-5 15l-4 -15h-16l13 -9l-5 -15l12 9zM136 691l-4 -15h-16l13 -9l-5 -15l12 10l13 -10l-5 15l12 9h-15zM223 691l-4 -15h-16l13 -9l-5 -15l12 10 l13 -10l-5 15l12 9h-15zM310 691l-5 -15h-15l13 -9l-5 -15l12 10l13 -10l-5 15l12 9h-15zM410 652l-5 15l12 9h-15l-5 15l-5 -15h-15l12 -9l-4 -15l12 10zM93 647l-5 -15h-15l12 -9l-4 -14l12 9l12 -9l-4 14l12 9h-15zM366 609l-5 14l13 9h-16l-4 15l-5 -15h-15l12 -9 l-5 -14l13 9zM183 364h80v93h94v80h-94v94h-80v-94h-93v-80h93v-93zM62 565l-5 15l13 9h-16l-5 14l-4 -14h-16l13 -9l-5 -15l12 9zM136 603l-4 -14h-16l13 -9l-5 -15l12 9l13 -9l-5 15l12 9h-15zM310 603l-5 -14h-15l13 -9l-5 -15l12 9l13 -9l-5 15l12 9h-15zM410 565l-5 15 l12 9h-15l-5 14l-5 -14h-15l12 -9l-4 -15l12 9zM62 478l-5 14l13 10h-16l-5 14l-4 -14h-16l13 -10l-5 -14l12 9zM410 478l-5 14l12 10h-15l-5 14l-5 -14h-15l12 -10l-4 -14l12 9zM62 391l-5 14l13 9h-16l-5 15l-4 -15h-16l13 -9l-5 -14l12 9zM149 391l-5 14l12 9h-15l-5 15 l-4 -15h-16l13 -9l-5 -14l12 9zM323 391l-5 14l12 9h-15l-5 15l-5 -15h-15l13 -9l-5 -14l12 9zM410 391l-5 14l12 9h-15l-5 15l-5 -15h-15l12 -9l-4 -14l12 9zM93 356l12 -9l-4 15l12 9h-15l-5 14l-5 -14h-15l12 -9l-4 -15zM354 356l12 -9l-5 15l13 9h-16l-4 14l-5 -14h-15 l12 -9l-5 -15zM49 312l13 -9l-5 15l13 9h-16l-5 15l-4 -15h-16l13 -9l-5 -15zM136 312l13 -9l-5 15l12 9h-15l-5 15l-4 -15h-16l13 -9l-5 -15zM223 312l13 -9l-5 15l12 9h-15l-5 15l-4 -15h-16l13 -9l-5 -15zM310 312l13 -9l-5 15l12 9h-15l-5 15l-5 -15h-15l13 -9l-5 -15z M397 312l13 -9l-5 15l12 9h-15l-5 15l-5 -15h-15l12 -9l-4 -15zM609 189h-599v48h599v-48zM610 95h-600v47h600v-47zM610 0h-600v47h600v-47z"/>
    <glyph glyph-name="uni00A40301" d="M512 777h-67l75 107h93zM515 710v-490c0 -148 -84 -237 -225 -237c-76 0 -133 24 -171 71s-57 107 -57 178l75 23c0 -129 55 -206 156 -206c97 0 146 62 146 187v474h76z"/>
    <glyph glyph-name="i.loclTRK" d="M271 721h102v-121h-102v121zM537 0h-407v58h164v384h-151v58h221v-442h173v-58z"/>
    <glyph glyph-name="uni006A0301" d="M399 578h-63l94 142h88zM111 -183v62c43 -11 81 -16 114 -16c80 0 116 34 116 127v452h-190v58h260v-515c0 -116 -55 -186 -176 -186c-43 0 -85 6 -124 18z"/>
    <glyph glyph-name="uni0243.case" d="M540 197c0 -95 -51 -174 -172 -193v-113h-45v109h-12h-67v-109h-45v109h-119v709h119v92h45v-92h48c14 0 24 0 31 -1v93h45v-99c116 -25 156 -103 153 -173c0 -79 -42 -142 -126 -163c92 -13 145 -77 145 -169zM292 645h-140v-252h142c99 0 149 43 149 130 c0 81 -50 122 -151 122zM152 65h153c112 0 157 55 157 138c0 76 -46 125 -147 125h-163v-263z"/>
    <glyph glyph-name="g.ss01" d="M294 -207c-125 0 -195 51 -208 153h72c13 -63 59 -94 138 -94c94 0 141 53 141 158v98c-25 -75 -83 -118 -162 -118c-61 0 -111 25 -150 74s-59 112 -59 191c0 76 20 138 60 186c40 47 91 71 153 71c76 0 133 -39 160 -108l16 96h52v-490c0 -145 -71 -217 -213 -217z M289 50c44 0 80 18 108 54c27 36 41 82 41 139v25c0 109 -59 182 -148 182c-92 0 -150 -75 -150 -195c0 -124 60 -205 149 -205z"/>
    <glyph glyph-name="gbreve.ss01" d="M160 720h60c3 -56 39 -97 90 -97s87 41 90 97h60c-7 -99 -69 -147 -150 -147s-145 48 -150 147zM294 -207c-125 0 -195 51 -208 153h72c13 -63 59 -94 138 -94c94 0 141 53 141 158v98c-25 -75 -83 -118 -162 -118c-61 0 -111 25 -150 74s-59 112 -59 191 c0 76 20 138 60 186c40 47 91 71 153 71c76 0 133 -39 160 -108l16 96h52v-490c0 -145 -71 -217 -213 -217zM289 50c44 0 80 18 108 54c27 36 41 82 41 139v25c0 109 -59 182 -148 182c-92 0 -150 -75 -150 -195c0 -124 60 -205 149 -205z"/>
    <glyph glyph-name="gcircumflex.ss01" d="M348 720l106 -142h-70l-74 99l-74 -99h-70l106 142h76zM294 -207c-125 0 -195 51 -208 153h72c13 -63 59 -94 138 -94c94 0 141 53 141 158v98c-25 -75 -83 -118 -162 -118c-61 0 -111 25 -150 74s-59 112 -59 191c0 76 20 138 60 186c40 47 91 71 153 71 c76 0 133 -39 160 -108l16 96h52v-490c0 -145 -71 -217 -213 -217zM289 50c44 0 80 18 108 54c27 36 41 82 41 139v25c0 109 -59 182 -148 182c-92 0 -150 -75 -150 -195c0 -124 60 -205 149 -205z"/>
    <glyph glyph-name="gcommaaccent.ss01" d="M339 750l19 -31c-37 -12 -55 -30 -55 -53h56v-87h-101v64c0 55 18 87 81 107zM294 -207c-125 0 -195 51 -208 153h72c13 -63 59 -94 138 -94c94 0 141 53 141 158v98c-25 -75 -83 -118 -162 -118c-61 0 -111 25 -150 74s-59 112 -59 191c0 76 20 138 60 186 c40 47 91 71 153 71c76 0 133 -39 160 -108l16 96h52v-490c0 -145 -71 -217 -213 -217zM289 50c44 0 80 18 108 54c27 36 41 82 41 139v25c0 109 -59 182 -148 182c-92 0 -150 -75 -150 -195c0 -124 60 -205 149 -205z"/>
    <glyph glyph-name="gdotaccent.ss01" d="M259 721h102v-121h-102v121zM294 -207c-125 0 -195 51 -208 153h72c13 -63 59 -94 138 -94c94 0 141 53 141 158v98c-25 -75 -83 -118 -162 -118c-61 0 -111 25 -150 74s-59 112 -59 191c0 76 20 138 60 186c40 47 91 71 153 71c76 0 133 -39 160 -108l16 96h52v-490 c0 -145 -71 -217 -213 -217zM289 50c44 0 80 18 108 54c27 36 41 82 41 139v25c0 109 -59 182 -148 182c-92 0 -150 -75 -150 -195c0 -124 60 -205 149 -205z"/>
    <glyph glyph-name="g.sups.ss01" d="M314 159c-98 0 -152 38 -163 113h62c11 -46 45 -69 102 -69c69 0 104 37 104 111v72c-17 -51 -62 -80 -125 -80c-92 0 -156 77 -156 190s63 188 158 188c61 0 107 -28 126 -79l8 70h51v-353c0 -109 -56 -163 -167 -163zM312 351c63 0 108 56 108 133v22 c0 77 -43 131 -107 131c-68 0 -109 -54 -109 -142c0 -89 41 -144 108 -144z"/>
    <glyph glyph-name="a.sups" d="M463 534v-102c0 -55 3 -95 10 -122h-64c-4 42 -6 65 -6 70c-24 -53 -68 -79 -133 -79c-73 0 -123 42 -123 105c0 69 55 99 152 111l100 12c0 79 -21 109 -84 109c-58 0 -88 -26 -90 -78h-67c7 79 65 124 160 124c99 0 145 -47 145 -150zM400 461v31l-91 -11 c-68 -9 -96 -30 -96 -69c0 -41 29 -66 77 -66c65 0 110 47 110 115z"/>
    <glyph glyph-name="b.sups" d="M140 839h63v-233c17 48 65 78 124 78c96 0 153 -76 153 -191c0 -116 -57 -192 -156 -192c-57 0 -107 30 -124 79l-6 -70h-54v529zM201 502v-20c0 -76 42 -133 106 -133c68 0 108 56 108 144c0 87 -39 143 -107 143c-64 0 -107 -57 -107 -134z"/>
    <glyph glyph-name="c.sups" d="M318 301c-112 0 -175 78 -175 193c0 113 61 190 177 190c87 0 147 -49 156 -130l-62 -8c-7 59 -40 88 -99 88c-71 0 -109 -54 -109 -138c0 -88 39 -144 111 -144c57 0 91 34 99 90l61 -11c-13 -76 -68 -130 -159 -130z"/>
    <glyph glyph-name="d.sups" d="M416 609v230h64v-529h-61v74c-17 -51 -63 -83 -126 -83c-95 0 -153 75 -153 191s61 192 160 192c57 0 100 -28 116 -75zM418 483v18c0 79 -41 135 -105 135c-68 0 -108 -55 -108 -143c0 -89 39 -144 106 -144c64 0 107 55 107 134z"/>
    <glyph glyph-name="e.sups" d="M477 501c0 -9 0 -15 -1 -19h-270v-1c1 -80 44 -131 113 -130c50 0 85 25 105 76l50 -21c-24 -65 -79 -105 -154 -105c-115 0 -177 72 -177 195c0 115 66 188 171 188c111 0 163 -72 163 -183zM205 521h207c1 71 -31 119 -100 119c-68 0 -108 -54 -107 -119z"/>
    <glyph glyph-name="f.sups" d="M329 675h143v-46h-143v-319h-63v319h-118v46h118v43c0 82 48 123 144 123c21 0 42 -2 62 -5v-49c-20 3 -39 4 -56 4c-63 0 -87 -21 -87 -76v-40z"/>
    <glyph glyph-name="g.sups" d="M263 377l105 -1c80 0 123 -37 123 -98c0 -77 -70 -119 -189 -119c-111 0 -174 36 -174 96c0 39 24 64 72 76c-35 13 -53 35 -53 67c0 33 19 56 57 69c-33 21 -49 53 -49 94c0 75 62 123 147 123c29 0 55 -5 77 -16c14 40 46 60 95 60c4 0 9 -1 14 -2v-48 c-14 2 -21 3 -22 3c-29 0 -49 -10 -61 -29c29 -23 44 -53 44 -90s-14 -67 -42 -89s-63 -33 -106 -33c-27 0 -51 5 -74 14c-17 -9 -26 -22 -26 -38c0 -26 21 -39 62 -39zM302 644c-51 0 -85 -34 -85 -83s33 -81 84 -81c49 0 85 33 85 81c0 51 -35 83 -84 83zM187 268 c0 -45 40 -67 121 -67s121 23 121 68c0 36 -25 54 -75 54l-105 1c-7 0 -13 0 -17 1c-30 -9 -45 -28 -45 -57z"/>
    <glyph glyph-name="h.sups" d="M214 839v-238c19 52 65 83 125 83c38 0 68 -10 91 -31c25 -23 38 -63 38 -120v-223h-62v218c0 69 -30 104 -89 104c-67 0 -103 -56 -103 -123v-199h-63v529h63z"/>
    <glyph glyph-name="i.sups" d="M261 837h81v-99h-81v99zM468 310h-317v48h125v269h-114v48h175v-317h131v-48z"/>
    <glyph glyph-name="j.sups" d="M350 837h81v-99h-81v99zM189 177v51c31 -8 58 -12 81 -12c61 0 92 30 92 90v321h-146v48h209v-375c0 -85 -47 -135 -143 -135c-37 0 -68 4 -93 12z"/>
    <glyph glyph-name="k.sups" d="M475 310h-73l-119 189l-76 -75v-114h-62v529h62v-352l184 188h75l-138 -139z"/>
    <glyph glyph-name="l.sups" d="M468 310h-317v48h122v434h-113v47h176v-481h132v-48z"/>
    <glyph glyph-name="m.sups" d="M166 675v-62c13 47 42 71 85 71c41 0 67 -22 77 -65c17 43 47 65 91 65c52 0 86 -37 86 -117v-257h-56v251c0 50 -17 75 -50 75c-40 0 -62 -36 -62 -77v-249h-55v249c0 51 -17 77 -50 77c-41 0 -61 -45 -61 -94v-232h-57v365h52z"/>
    <glyph glyph-name="n.sups" d="M211 675v-76c23 57 66 85 130 85c37 0 67 -10 89 -30c25 -25 38 -66 38 -121v-223h-62v218c0 69 -29 104 -87 104c-69 0 -105 -56 -105 -123v-199h-63v365h60z"/>
    <glyph glyph-name="o.sups" d="M438 353c-33 -35 -75 -52 -128 -52s-95 17 -128 52c-33 34 -49 81 -49 140s16 106 49 140s75 51 128 51s95 -17 128 -51c32 -34 48 -81 48 -140s-16 -106 -48 -140zM310 350c68 0 111 52 111 143c0 89 -43 142 -111 142c-69 0 -112 -53 -112 -142s43 -143 112 -143z"/>
    <glyph glyph-name="p.sups" d="M140 675h60v-74c19 48 69 83 126 83c97 0 154 -76 154 -191c0 -116 -58 -192 -157 -192c-55 0 -103 30 -120 74v-207h-63v507zM201 500v-15c0 -80 42 -136 107 -136c67 0 107 56 107 144s-38 143 -106 143c-65 0 -108 -57 -108 -136z"/>
    <glyph glyph-name="q.sups" d="M417 609l8 66h55v-507h-64v214c-17 -49 -66 -81 -125 -81c-93 0 -151 76 -151 191s60 192 157 192c57 0 104 -30 120 -75zM418 481v21c0 79 -42 134 -107 134c-68 0 -106 -56 -106 -143c0 -88 40 -144 104 -144c65 0 109 56 109 132z"/>
    <glyph glyph-name="r.sups" d="M224 675v-121c28 85 97 128 170 128c27 0 48 -3 63 -9v-56c-23 6 -45 9 -68 9c-45 0 -84 -16 -116 -49s-48 -77 -48 -133v-134h-62v365h61z"/>
    <glyph glyph-name="s.sups" d="M318 301c-90 0 -145 37 -164 110l47 23c15 -58 55 -87 121 -87c53 0 84 22 84 61c0 36 -19 53 -70 60l-58 8c-71 10 -107 44 -107 101c0 67 55 107 144 107c84 0 134 -33 149 -98l-45 -25c-13 51 -48 77 -107 77c-52 0 -82 -21 -82 -57c0 -31 23 -49 68 -56l63 -9 c69 -11 104 -45 104 -103c0 -71 -55 -112 -147 -112z"/>
    <glyph glyph-name="t.sups" d="M260 630h-106v45h106v95l60 25v-120h145v-45h-145v-198c0 -49 33 -75 86 -75c23 0 43 1 59 4v-49c-25 -5 -49 -8 -71 -8c-85 0 -134 43 -134 120v206z"/>
    <glyph glyph-name="u.sups" d="M406 310v70c-19 -44 -66 -79 -125 -79c-39 0 -70 10 -91 31c-25 23 -37 61 -37 114v229h63v-223c0 -67 29 -101 87 -101c65 0 101 58 101 119v205h62v-365h-60z"/>
    <glyph glyph-name="v.sups" d="M347 310h-71l-152 365h67l102 -259c5 -13 11 -30 18 -50h2c3 12 9 29 17 50l103 259h63z"/>
    <glyph glyph-name="w.sups" d="M177 310l-79 365h59l48 -259l7 -49h4c1 5 6 35 10 52l56 256h56l56 -256c3 -17 6 -34 9 -52h4l8 49l48 259h59l-79 -365h-68l-57 255c-4 19 -6 35 -6 49h-4c-1 -18 -4 -34 -7 -49l-57 -255h-67z"/>
    <glyph glyph-name="x.sups" d="M414 310l-106 149l-106 -149h-70l140 191l-130 174h72l97 -135l95 135h71l-129 -176l139 -189h-73z"/>
    <glyph glyph-name="y.sups" d="M135 675h69l111 -306l105 306h65l-144 -386c-35 -92 -78 -126 -153 -126c-15 0 -27 1 -37 4v50c10 -3 21 -4 34 -4c43 0 73 25 90 75l8 22z"/>
    <glyph glyph-name="z.sups" d="M157 310v42l220 275h-211v48h286v-41l-218 -275h228v-49h-305z"/>
    <glyph glyph-name="zero.case" d="M62 355c0 248 83 372 248 372s248 -124 248 -372c0 -247 -83 -370 -248 -370s-248 123 -248 370zM310 663c-113 0 -176 -88 -176 -308c0 -67 6 -124 19 -171l292 399c-27 53 -72 80 -135 80zM310 49c113 0 176 86 176 306c0 71 -6 128 -19 171l-292 -399 c29 -52 74 -78 135 -78z"/>
    <glyph glyph-name="one.case" d="M357 710v-642h177v-68h-437v68h190v525c-12 -17 -35 -31 -70 -44s-65 -19 -90 -19h-28v66h19c35 0 72 12 110 35s62 50 71 79h58z"/>
    <glyph glyph-name="two.case" d="M79 0v61c107 95 189 174 248 238c42 46 71 86 88 119s25 68 25 107c0 85 -49 140 -137 140c-83 0 -142 -52 -143 -145c0 -10 2 -28 5 -55l-73 6c-3 16 -5 34 -5 53c-1 62 20 111 61 148s92 55 155 55c132 0 212 -78 212 -199c0 -45 -9 -87 -28 -125s-56 -87 -110 -147 c-25 -30 -91 -93 -198 -190h352v-66h-452z"/>
    <glyph glyph-name="three.case" d="M263 338v62h42c33 0 64 11 93 34c28 22 42 55 42 98c0 85 -55 132 -140 132c-92 0 -146 -67 -146 -176l-69 14c0 136 83 225 220 225c124 0 209 -72 209 -195c0 -75 -54 -138 -125 -154c93 -13 149 -82 149 -177c0 -66 -22 -118 -66 -157c-45 -39 -101 -59 -169 -59 s-123 20 -164 61c-42 41 -64 93 -66 156l72 8c3 -96 66 -162 158 -162c97 0 161 49 161 152c0 47 -25 138 -154 138h-47z"/>
    <glyph glyph-name="four.case" d="M565 245v-59h-119v-186h-70v186h-326v52l318 472h78v-465h119zM127 245h249v377c-5 -11 -15 -26 -28 -47s-21 -34 -23 -38l-153 -223c-7 -10 -38 -58 -45 -69z"/>
    <glyph glyph-name="five.case" d="M126 710h381v-65h-324l-29 -280c31 69 94 109 171 109c65 0 116 -22 155 -66s58 -102 58 -174c0 -74 -21 -134 -62 -180c-42 -46 -98 -69 -167 -69c-117 0 -208 67 -228 178l76 9c15 -75 74 -124 153 -124c93 0 154 69 154 186c0 101 -48 177 -148 177 c-91 0 -139 -58 -155 -125l-73 7z"/>
    <glyph glyph-name="six.case" d="M331 474c65 0 118 -22 158 -66c39 -44 59 -103 59 -176s-21 -133 -63 -178c-42 -46 -97 -69 -165 -69c-164 0 -249 122 -249 359c0 245 92 383 255 383c117 0 191 -64 212 -181l-74 -15c-17 89 -64 134 -139 134c-119 0 -182 -108 -182 -312c31 76 100 121 188 121z M321 47c93 0 153 72 153 184c0 111 -61 181 -156 181c-87 0 -148 -59 -171 -160c15 -128 78 -205 174 -205z"/>
    <glyph glyph-name="seven.case" d="M458 645h-372v65h452v-59c-71 -78 -129 -174 -173 -287c-45 -114 -69 -235 -72 -364h-80c5 114 29 229 73 345c44 115 101 215 172 300z"/>
    <glyph glyph-name="eight.case" d="M397 382c111 -37 157 -99 157 -200c0 -120 -94 -197 -241 -197c-152 0 -247 74 -247 193c0 102 51 167 152 196c-89 36 -128 90 -128 177c0 53 20 95 61 128c40 32 93 48 159 48c133 0 219 -68 219 -175c0 -88 -44 -145 -132 -170zM164 551c0 -69 38 -112 126 -137 l36 -11c96 33 129 73 129 146c0 76 -55 122 -147 122c-89 0 -144 -45 -144 -120zM187 83c31 -26 73 -39 126 -39s94 12 124 37c29 24 44 58 44 101c0 77 -40 124 -135 152l-61 18c-101 -33 -145 -83 -145 -164c0 -44 16 -79 47 -105z"/>
    <glyph glyph-name="nine.case" d="M303 727c165 0 248 -119 248 -358c0 -256 -84 -384 -251 -384c-121 0 -200 69 -217 192l74 15c13 -97 61 -145 144 -145c128 0 177 114 177 321v11c-32 -73 -99 -110 -182 -110c-66 0 -120 20 -161 61c-41 40 -62 96 -62 168c0 66 21 121 63 164s98 65 167 65zM303 331 c42 0 79 14 112 43c32 28 52 64 59 109c-16 121 -73 182 -172 182c-95 0 -155 -67 -155 -166c0 -104 63 -168 156 -168z"/>
    <glyph glyph-name="zero.osf" d="M310 550c79 0 141 -26 187 -78s69 -121 69 -207c0 -85 -23 -152 -68 -203c-46 -51 -108 -77 -187 -77c-80 0 -143 26 -188 77c-46 51 -69 120 -69 207c0 85 23 153 69 204c45 51 108 77 187 77zM310 487c-115 0 -184 -85 -184 -220c0 -53 10 -99 31 -136l269 315 c-31 27 -69 41 -116 41zM311 46c113 0 183 85 183 217c0 58 -12 106 -35 143l-270 -315c31 -30 72 -45 122 -45z"/>
    <glyph glyph-name="one.osf" d="M370 535v-472h177v-63h-437v63h190v356c-11 -17 -33 -31 -64 -43c-31 -13 -59 -19 -83 -19h-35v67h26c33 0 68 11 103 34c35 22 56 48 65 77h58z"/>
    <glyph glyph-name="two.osf" d="M540 0h-466v45c60 34 129 77 207 129c111 75 153 127 153 203c0 68 -48 111 -123 111c-84 0 -137 -49 -137 -129c0 -17 1 -29 4 -38l-75 8c-1 16 -2 26 -2 30c0 57 19 104 58 139s89 52 151 52c121 0 197 -64 197 -168c0 -61 -29 -119 -87 -172 c-43 -40 -116 -89 -221 -147h341v-63z"/>
    <glyph glyph-name="three.osf" d="M313 -165c-143 0 -232 78 -236 209l72 8c4 -100 64 -155 167 -155c99 0 159 57 159 140c0 84 -58 140 -159 140h-47v61h42c89 0 140 52 140 125c0 77 -50 125 -138 125c-97 0 -156 -63 -156 -168l-69 14c0 132 90 216 230 216c129 0 207 -72 207 -187 c0 -71 -51 -132 -124 -147c92 -15 148 -82 148 -179c0 -58 -22 -106 -65 -145c-43 -38 -100 -57 -171 -57z"/>
    <glyph glyph-name="four.osf" d="M454 -150h-70v187h-334v51l323 447h81v-440h119v-58h-119v-187zM124 95h260v256c0 49 1 86 2 111h-2c-22 -38 -44 -72 -65 -101l-130 -183c-29 -39 -50 -66 -65 -83z"/>
    <glyph glyph-name="five.osf" d="M307 -165c-120 0 -209 71 -226 184l76 9c15 -79 73 -130 152 -130c100 0 159 74 159 182c0 109 -56 179 -145 179c-80 4 -141 -48 -160 -124l-71 8l40 392h388v-64h-330l-30 -250c37 67 95 100 174 100c129 0 207 -90 207 -237c0 -71 -21 -131 -63 -178 c-43 -47 -100 -71 -171 -71z"/>
    <glyph glyph-name="six.osf" d="M329 464c65 0 116 -22 155 -65s58 -101 58 -173c0 -71 -20 -129 -61 -174s-96 -67 -163 -67c-161 0 -247 117 -247 349c0 239 89 376 253 376c115 0 188 -61 209 -174l-74 -15c-17 85 -62 127 -136 127c-119 0 -180 -108 -180 -304c31 77 101 120 186 120zM319 47 c92 0 150 71 150 178c0 108 -60 177 -153 177c-84 0 -148 -57 -169 -158c15 -121 76 -197 172 -197z"/>
    <glyph glyph-name="seven.osf" d="M291 -150h-80v9c0 211 81 413 243 608h-368v68h452v-59c-163 -176 -247 -391 -247 -611v-15z"/>
    <glyph glyph-name="eight.osf" d="M394 373c104 -37 150 -91 150 -191c0 -120 -90 -197 -231 -197c-145 0 -237 74 -237 193c0 96 48 158 143 187c-81 33 -119 85 -119 169c0 53 19 95 58 128c39 32 89 48 152 48c127 0 209 -68 209 -175c0 -85 -42 -139 -125 -162zM174 534c0 -67 36 -105 116 -130l36 -11 c89 32 119 70 119 139c0 76 -52 122 -137 122c-83 0 -134 -45 -134 -120zM313 44c99 0 158 51 158 138c0 73 -40 115 -125 142l-61 18c-95 -31 -135 -77 -135 -153c0 -88 63 -145 163 -145z"/>
    <glyph glyph-name="nine.osf" d="M294 550c165 0 248 -117 248 -351c0 -110 -20 -198 -59 -265c-40 -66 -101 -99 -184 -99c-123 0 -197 63 -220 182l74 15c17 -90 66 -135 147 -135c113 0 169 100 169 301v13c-32 -73 -99 -112 -180 -112c-65 0 -117 20 -158 60c-41 39 -61 94 -61 164 c0 66 20 120 61 163s95 64 163 64zM296 161c81 0 152 61 169 149c-15 105 -67 178 -172 178c-91 0 -150 -67 -150 -164c0 -100 62 -163 153 -163z"/>
    <glyph glyph-name="zero.subs" d="M311 378c124 0 189 -92 189 -265c0 -180 -60 -264 -189 -264c-127 0 -191 88 -191 265c0 176 64 264 191 264zM311 326c-85 0 -125 -67 -125 -212c0 -48 4 -87 13 -117l208 271c-20 39 -52 58 -96 58zM311 -99c85 0 123 64 123 212c0 49 -4 88 -13 118l-208 -271 c19 -39 52 -59 98 -59z"/>
    <glyph glyph-name="one.subs" d="M347 367v-454h134v-53h-342v53h143v364c-10 -11 -28 -22 -54 -31c-27 -10 -50 -15 -70 -15h-16v58h12c27 0 54 8 83 24c29 15 47 33 55 54h55z"/>
    <glyph glyph-name="two.subs" d="M134 -140v52c85 65 150 122 196 171c49 52 74 100 74 145c0 61 -37 97 -98 97c-63 0 -101 -38 -101 -99c0 -12 1 -25 4 -38l-66 6c-3 13 -4 25 -4 36c0 89 67 148 167 148c104 0 165 -54 165 -147c0 -57 -23 -104 -87 -171c-37 -40 -92 -88 -164 -144h266v-56h-352z"/>
    <glyph glyph-name="three.subs" d="M273 97v49h33c55 0 98 33 98 89c0 59 -38 90 -95 90c-69 0 -108 -44 -105 -116l-66 8c-1 99 64 161 173 161c97 0 160 -50 160 -137c0 -59 -38 -103 -97 -115c69 -5 114 -55 114 -126c0 -91 -70 -151 -177 -151c-109 0 -177 62 -180 158l67 6c1 -65 45 -111 113 -111 s109 35 109 100c0 55 -34 95 -109 95h-38z"/>
    <glyph glyph-name="four.subs" d="M510 39v-50h-87v-129h-62v129h-251v46l240 332h73v-328h87zM166 39h195v263c-9 -17 -20 -35 -34 -54l-125 -166c-15 -20 -27 -34 -36 -43z"/>
    <glyph glyph-name="five.subs" d="M170 367h292v-54h-244l-20 -190c27 51 70 77 131 77c96 0 158 -67 158 -171c0 -111 -68 -180 -179 -180c-97 0 -164 51 -176 132l65 8c11 -53 52 -87 112 -87c72 0 113 46 113 125c0 76 -40 120 -108 120c-55 0 -100 -33 -113 -84l-60 5z"/>
    <glyph glyph-name="six.subs" d="M333 201c96 0 159 -69 159 -174c0 -104 -68 -178 -172 -178c-123 0 -192 86 -192 257s69 272 194 272c93 0 146 -43 161 -130l-64 -11c-12 59 -45 89 -99 89c-84 0 -128 -79 -128 -212v-8c21 61 76 95 141 95zM320 -98c65 0 107 50 107 123c0 76 -42 124 -109 124 c-61 0 -110 -41 -123 -112c12 -84 54 -135 125 -135z"/>
    <glyph glyph-name="seven.subs" d="M416 311h-278v56h344v-53c-104 -107 -173 -273 -177 -454h-73v3c4 163 71 328 184 448z"/>
    <glyph glyph-name="eight.subs" d="M375 135c79 -24 119 -63 119 -142c0 -89 -71 -144 -184 -144s-184 54 -184 141c0 68 37 112 112 131c-64 21 -96 63 -96 125c0 79 66 132 166 132s165 -49 165 -126c0 -61 -33 -100 -98 -117zM207 246c0 -48 30 -73 91 -90l28 -8c63 21 85 48 85 96c0 53 -40 87 -104 87 c-61 0 -100 -33 -100 -85zM224 -73c21 -18 50 -27 87 -27s65 8 86 25s31 40 31 70c0 55 -34 84 -97 100l-43 11c-64 -21 -96 -56 -96 -107c0 -30 11 -54 32 -72z"/>
    <glyph glyph-name="nine.subs" d="M300 378c128 0 192 -86 192 -257c0 -169 -62 -272 -190 -272c-93 0 -151 47 -166 134l65 11c11 -61 46 -92 104 -92c83 0 123 78 123 207v25c-21 -57 -73 -88 -134 -88c-99 0 -167 64 -167 165c0 97 66 167 173 167zM304 97c60 0 108 41 121 105c-13 83 -55 124 -124 124 c-67 0 -109 -46 -109 -114c0 -69 45 -115 112 -115z"/>
    <glyph glyph-name="zero.dnom" d="M310 387c97 0 148 -68 148 -199c0 -133 -47 -196 -148 -196c-99 0 -149 66 -149 197c0 132 50 198 149 198zM310 344c-60 0 -90 -52 -90 -155c0 -34 3 -62 9 -84l152 192c-14 31 -38 47 -71 47zM310 35c63 0 88 44 88 153c0 31 -3 59 -8 82l-152 -190 c15 -30 39 -45 72 -45z"/>
    <glyph glyph-name="one.dnom" d="M342 378v-335h106v-43h-276v43h112v266c-17 -19 -67 -37 -99 -37h-8v51h6c43 0 95 24 110 55h49z"/>
    <glyph glyph-name="two.dnom" d="M170 0v44c139 97 208 159 208 223c0 49 -24 73 -73 73c-47 0 -74 -26 -74 -70c0 -9 1 -18 3 -26l-59 5c-1 13 -2 21 -2 24c0 68 52 114 132 114c84 0 131 -42 131 -117s-72 -144 -188 -224h202v-46h-280z"/>
    <glyph glyph-name="three.dnom" d="M279 173v39h26c41 0 74 20 74 64c0 41 -28 65 -71 65c-49 0 -77 -32 -74 -81l-61 5c-1 75 48 122 135 122c80 0 130 -39 130 -104c0 -48 -30 -81 -78 -88c55 -3 89 -39 89 -94c0 -65 -55 -109 -138 -109c-87 0 -139 46 -140 119l61 4c-1 -45 30 -79 79 -79 c45 0 77 24 77 69s-26 68 -79 68h-30z"/>
    <glyph glyph-name="four.dnom" d="M470 137v-44h-66v-93h-55v93h-199v42l189 243h65v-241h66zM196 137h153v193z"/>
    <glyph glyph-name="five.dnom" d="M201 378h230v-46h-189l-14 -136c21 39 56 58 103 58c73 0 120 -49 120 -126c0 -87 -55 -136 -144 -136c-75 0 -131 42 -138 103l54 6c8 -40 41 -65 85 -65c53 0 87 35 87 91c0 51 -31 83 -82 83c-43 0 -74 -22 -85 -61l-49 6z"/>
    <glyph glyph-name="six.dnom" d="M333 255c73 0 121 -49 121 -129c0 -77 -51 -134 -134 -134c-96 0 -154 64 -154 193c0 124 55 202 152 202c75 0 117 -34 128 -102l-56 -7c-7 43 -32 64 -75 64c-60 0 -94 -57 -94 -141v-24v-4c13 53 59 82 112 82zM317 36c49 0 81 36 81 87c0 56 -31 90 -79 90 c-47 0 -85 -31 -94 -82c10 -63 41 -95 92 -95z"/>
    <glyph glyph-name="seven.dnom" d="M389 329h-213v49h268v-48c-79 -76 -128 -195 -131 -330h-64v4c-1 120 53 241 140 325z"/>
    <glyph glyph-name="eight.dnom" d="M358 208c66 -15 99 -51 99 -109c0 -67 -57 -107 -149 -107s-146 39 -146 104c0 49 30 80 91 93c-55 14 -82 46 -82 96c0 60 55 102 135 102c81 0 135 -35 135 -94c0 -43 -28 -72 -83 -85zM229 284c0 -36 25 -52 72 -63l26 -6c44 13 60 33 60 68c0 39 -30 63 -81 63 c-48 0 -77 -23 -77 -62zM310 35c55 0 89 25 89 66c0 45 -28 61 -81 73l-28 6c-47 -14 -70 -39 -70 -76c0 -44 33 -69 90 -69z"/>
    <glyph glyph-name="zero.numr" d="M310 718c97 0 148 -68 148 -199c0 -133 -47 -196 -148 -196c-99 0 -149 66 -149 197c0 132 50 198 149 198zM310 675c-60 0 -90 -52 -90 -155c0 -34 3 -62 9 -84l152 192c-14 31 -38 47 -71 47zM310 366c63 0 88 44 88 153c0 31 -3 59 -8 82l-152 -190 c15 -30 39 -45 72 -45z"/>
    <glyph glyph-name="one.numr" d="M342 709v-335h106v-43h-276v43h112v266c-17 -19 -67 -37 -99 -37h-8v51h6c43 0 95 24 110 55h49z"/>
    <glyph glyph-name="two.numr" d="M170 331v44c139 97 208 159 208 223c0 49 -24 73 -73 73c-47 0 -74 -26 -74 -70c0 -9 1 -18 3 -26l-59 5c-1 13 -2 21 -2 24c0 68 52 114 132 114c84 0 131 -42 131 -117s-72 -144 -188 -224h202v-46h-280z"/>
    <glyph glyph-name="three.numr" d="M279 504v39h26c41 0 74 20 74 64c0 41 -28 65 -71 65c-49 0 -77 -32 -74 -81l-61 5c-1 75 48 122 135 122c80 0 130 -39 130 -104c0 -48 -30 -81 -78 -88c55 -3 89 -39 89 -94c0 -65 -55 -109 -138 -109c-87 0 -139 46 -140 119l61 4c-1 -45 30 -79 79 -79 c45 0 77 24 77 69s-26 68 -79 68h-30z"/>
    <glyph glyph-name="four.numr" d="M470 468v-44h-66v-93h-55v93h-199v42l189 243h65v-241h66zM196 468h153v193z"/>
    <glyph glyph-name="five.numr" d="M201 709h230v-46h-189l-14 -136c21 39 56 58 103 58c73 0 120 -49 120 -126c0 -87 -55 -136 -144 -136c-75 0 -131 42 -138 103l54 6c8 -40 41 -65 85 -65c53 0 87 35 87 91c0 51 -31 83 -82 83c-43 0 -74 -22 -85 -61l-49 6z"/>
    <glyph glyph-name="six.numr" d="M333 586c73 0 121 -49 121 -129c0 -77 -51 -134 -134 -134c-96 0 -154 64 -154 193c0 124 55 202 152 202c75 0 117 -34 128 -102l-56 -7c-7 43 -32 64 -75 64c-60 0 -94 -57 -94 -141v-24v-4c13 53 59 82 112 82zM317 367c49 0 81 36 81 87c0 56 -31 90 -79 90 c-47 0 -85 -31 -94 -82c10 -63 41 -95 92 -95z"/>
    <glyph glyph-name="seven.numr" d="M389 660h-213v49h268v-48c-79 -76 -128 -195 -131 -330h-64v4c-1 120 53 241 140 325z"/>
    <glyph glyph-name="eight.numr" d="M358 539c66 -15 99 -51 99 -109c0 -67 -57 -107 -149 -107s-146 39 -146 104c0 49 30 80 91 93c-55 14 -82 46 -82 96c0 60 55 102 135 102c81 0 135 -35 135 -94c0 -43 -28 -72 -83 -85zM229 615c0 -36 25 -52 72 -63l26 -6c44 13 60 33 60 68c0 39 -30 63 -81 63 c-48 0 -77 -23 -77 -62zM310 366c55 0 89 25 89 66c0 45 -28 61 -81 73l-28 6c-47 -14 -70 -39 -70 -76c0 -44 33 -69 90 -69z"/>
    <glyph glyph-name="nine.numr"/>
    <glyph glyph-name="zero.sups" d="M311 828c124 0 189 -92 189 -265c0 -180 -60 -264 -189 -264c-127 0 -191 88 -191 265c0 176 64 264 191 264zM311 776c-85 0 -125 -67 -125 -212c0 -48 4 -87 13 -117l208 271c-20 39 -52 58 -96 58zM311 351c85 0 123 64 123 212c0 49 -4 88 -13 118l-208 -271 c19 -39 52 -59 98 -59z"/>
    <glyph glyph-name="one.sups" d="M347 817v-454h134v-53h-342v53h143v364c-10 -11 -28 -22 -54 -31c-27 -10 -50 -15 -70 -15h-16v58h12c27 0 54 8 83 24c29 15 47 33 55 54h55z"/>
    <glyph glyph-name="two.sups" d="M134 310v52c85 65 150 122 196 171c49 52 74 100 74 145c0 61 -37 97 -98 97c-63 0 -101 -38 -101 -99c0 -12 1 -25 4 -38l-66 6c-3 13 -4 25 -4 36c0 89 67 148 167 148c104 0 165 -54 165 -147c0 -57 -23 -104 -87 -171c-37 -40 -92 -88 -164 -144h266v-56h-352z"/>
    <glyph glyph-name="three.sups" d="M273 547v49h33c55 0 98 33 98 89c0 59 -38 90 -95 90c-69 0 -108 -44 -105 -116l-66 8c-1 99 64 161 173 161c97 0 160 -50 160 -137c0 -59 -38 -103 -97 -115c69 -5 114 -55 114 -126c0 -91 -70 -151 -177 -151c-109 0 -177 62 -180 158l67 6c1 -65 45 -111 113 -111 s109 35 109 100c0 55 -34 95 -109 95h-38z"/>
    <glyph glyph-name="four.sups" d="M510 489v-50h-87v-129h-62v129h-251v46l240 332h73v-328h87zM166 489h195v263c-9 -17 -20 -35 -34 -54l-125 -166c-15 -20 -27 -34 -36 -43z"/>
    <glyph glyph-name="five.sups" d="M170 817h292v-54h-244l-20 -190c27 51 70 77 131 77c96 0 158 -67 158 -171c0 -111 -68 -180 -179 -180c-97 0 -164 51 -176 132l65 8c11 -53 52 -87 112 -87c72 0 113 46 113 125c0 76 -40 120 -108 120c-55 0 -100 -33 -113 -84l-60 5z"/>
    <glyph glyph-name="six.sups" d="M333 651c96 0 159 -69 159 -174c0 -104 -68 -178 -172 -178c-123 0 -192 86 -192 257s69 272 194 272c93 0 146 -43 161 -130l-64 -11c-12 59 -45 89 -99 89c-84 0 -128 -79 -128 -212v-8c21 61 76 95 141 95zM320 352c65 0 107 50 107 123c0 76 -42 124 -109 124 c-61 0 -110 -41 -123 -112c12 -84 54 -135 125 -135z"/>
    <glyph glyph-name="seven.sups" d="M416 761h-278v56h344v-53c-104 -107 -173 -273 -177 -454h-73v3c4 163 71 328 184 448z"/>
    <glyph glyph-name="eight.sups" d="M375 585c79 -24 119 -63 119 -142c0 -89 -71 -144 -184 -144s-184 54 -184 141c0 68 37 112 112 131c-64 21 -96 63 -96 125c0 79 66 132 166 132s165 -49 165 -126c0 -61 -33 -100 -98 -117zM207 696c0 -48 30 -73 91 -90l28 -8c63 21 85 48 85 96c0 53 -40 87 -104 87 c-61 0 -100 -33 -100 -85zM224 377c21 -18 50 -27 87 -27s65 8 86 25s31 40 31 70c0 55 -34 84 -97 100l-43 11c-64 -21 -96 -56 -96 -107c0 -30 11 -54 32 -72z"/>
    <glyph glyph-name="nine.sups" d="M300 828c128 0 192 -86 192 -257c0 -169 -62 -272 -190 -272c-93 0 -151 47 -166 134l65 11c11 -61 46 -92 104 -92c83 0 123 78 123 207v25c-21 -57 -73 -88 -134 -88c-99 0 -167 64 -167 165c0 97 66 167 173 167zM304 547c60 0 108 41 121 105 c-13 83 -55 124 -124 124c-67 0 -109 -46 -109 -114c0 -69 45 -115 112 -115z"/>
    <glyph glyph-name="backslash.case" d="M464 -25h-65l-244 760h65z"/>
    <glyph glyph-name="bullet.case" d="M309 438c49 0 83 -32 83 -83c0 -48 -34 -80 -83 -80c-48 0 -82 32 -82 80c0 49 34 83 82 83z"/>
    <glyph glyph-name="colon.case" d="M248 548h123v-122h-123v122zM248 122h123v-122h-123v122z"/>
    <glyph glyph-name="exclamdown.case" d="M369 710v-122h-118v122h118zM268 0l13 485h57l13 -485h-83z"/>
    <glyph glyph-name="questiondown.case" d="M372 588h-119v122h119v-122zM445 234l75 -9c2 -10 3 -23 3 -40c0 -124 -80 -202 -215 -202c-139 0 -212 66 -212 177c0 62 29 118 88 168l51 44c31 26 46 59 46 99v15h70v-35c0 -40 -12 -70 -60 -113l-49 -42c-45 -41 -68 -86 -68 -136c0 -68 47 -115 134 -115 c88 0 141 49 141 148c0 19 -1 32 -4 41z"/>
    <glyph glyph-name="semicolon.case" d="M248 548h123v-122h-123v122zM274 -151l-21 39c53 24 68 52 68 112h-72v122h123v-122c0 -77 -27 -122 -98 -151z"/>
    <glyph glyph-name="slash.case" d="M464 735l-244 -760h-65l244 760h65z"/>
    <glyph glyph-name="underscore.case" d="M0 -76v58h620v-58h-620z"/>
    <glyph glyph-name="asterisk.ss04" d="M310 710l30 -93h97l-79 -57l31 -93l-79 57l-79 -57l30 93l-79 57h97z"/>
    <glyph glyph-name="braceleft.case" d="M479 -73h-73c-105 0 -175 54 -175 145v150c0 67 -11 96 -79 96v65c35 0 56 7 65 21c9 13 13 37 13 72v152c0 91 70 146 175 146h74v-58h-74c-68 0 -110 -36 -110 -105v-129c0 -71 -13 -114 -62 -131c48 -19 61 -65 61 -136v-125c0 -69 44 -106 112 -106h73v-57z"/>
    <glyph glyph-name="braceright.case" d="M214 -73h-73v57h73c68 0 112 37 112 106v125c0 71 13 117 61 136c-49 17 -62 60 -62 131v129c0 69 -42 105 -110 105h-74v58h74c105 0 175 -55 175 -146v-152c0 -35 4 -59 13 -72c9 -14 30 -21 65 -21v-65c-68 0 -79 -29 -79 -96v-150c0 -91 -70 -145 -175 -145z"/>
    <glyph glyph-name="bracketleft.case" d="M477 -73h-267v847h267v-58h-204v-732h204v-57z"/>
    <glyph glyph-name="bracketright.case" d="M410 774v-847h-267v57h204v732h-204v58h267z"/>
    <glyph glyph-name="parenleft.case" d="M483 -40l-43 -35c-73 49 -132 111 -176 188c-44 76 -66 155 -66 236s22 160 66 235s103 136 176 184l43 -35c-140 -112 -210 -231 -210 -384s70 -273 210 -389z"/>
    <glyph glyph-name="parenright.case" d="M180 -75l-43 35c140 116 210 236 210 389s-70 272 -210 384l43 35c73 -48 132 -109 176 -184s66 -154 66 -235s-22 -160 -66 -236c-44 -77 -103 -139 -176 -188z"/>
    <glyph glyph-name="emdash.case" d="M40 334v53h539v-53h-539z"/>
    <glyph glyph-name="endash.case" d="M104 334v53h412v-53h-412z"/>
    <glyph glyph-name="hyphen.case" d="M165 327v66h289v-66h-289z"/>
    <glyph glyph-name="guillemotleft.case" d="M316 136h-76l-168 208l173 207h74l-168 -206zM514 136h-76l-168 208l173 207h74l-168 -206z"/>
    <glyph glyph-name="guillemotright.case" d="M159 136h-76l165 209l-168 206h74l173 -207zM357 136h-76l165 209l-168 206h74l173 -207z"/>
    <glyph glyph-name="guilsinglleft.case" d="M420 136h-76l-168 208l173 207h74l-168 -206z"/>
    <glyph glyph-name="guilsinglright.case" d="M444 344l-168 -208h-76l165 209l-168 206h74z"/>
    <glyph glyph-name="parenleft.subs" d="M529 -207l-47 -31c-112 79 -176 205 -176 336s63 253 178 328l44 -29c-105 -83 -153 -176 -153 -299s47 -217 154 -305z"/>
    <glyph glyph-name="parenright.subs" d="M139 -237l-43 28c108 89 154 184 154 308c0 123 -48 215 -153 300l41 26c113 -75 176 -197 176 -326s-63 -257 -175 -336z"/>
    <glyph glyph-name="parenleft.sups" d="M524 241l-43 -28c-112 79 -175 207 -175 336s63 251 176 326l41 -26c-105 -85 -153 -177 -153 -300c0 -124 46 -219 154 -308z"/>
    <glyph glyph-name="parenright.sups" d="M139 213l-43 28c108 89 154 184 154 308c0 123 -48 215 -153 300l41 26c113 -75 176 -197 176 -326s-63 -257 -175 -336z"/>
    <glyph glyph-name="uni0E3F.case" d="M394 363c91 -13 144 -76 144 -169c0 -92 -53 -194 -225 -194h-8v-109h-46v109h-178v710h178v92h46v-92c77 -2 132 -21 165 -56c33 -36 49 -78 49 -125c0 -79 -41 -143 -125 -166zM259 647h-108v-257h108v257zM445 522c0 80 -47 122 -140 125v-257c93 2 140 46 140 132z M151 327v-263h108v263h-108zM305 64h3c104 0 156 45 156 136c0 76 -46 127 -147 127h-12v-263z"/>
    <glyph glyph-name="uni20BA.case" d="M484 244l67 -15c-30 -153 -116 -229 -258 -229h-147v284l-77 -24v58l77 24v90l-77 -24v57l77 24v221h74v-198l227 71v-58l-227 -70v-90l227 70v-58l-227 -70v-240h62c107 0 174 59 202 177z"/>
    <glyph glyph-name="uni20BD.case" d="M326 298h-121v-99h167v-52h-167v-147h-74v147h-71v52h71v99h-70v55h70v357h195c87 0 153 -26 186 -68s48 -87 48 -136c0 -94 -52 -208 -234 -208zM323 643h-118v-290h118c57 0 98 15 123 45s38 65 38 104c0 38 -13 71 -38 99s-66 42 -123 42z"/>
    <glyph glyph-name="uni20B9.case" d="M66 710h487v-55h-229c46 -26 72 -68 79 -126h150v-52h-150c-6 -84 -55 -180 -230 -180h-14l250 -297h-89l-254 308v47h102c98 0 152 41 161 122h-263v52h262c-9 76 -59 126 -159 126h-103v55z"/>
    <glyph glyph-name="uni20A9.case" d="M579 462v-48h-44l-9 -84h53v-48h-58l-31 -282h-95l-38 282h-95l-38 -282h-95l-31 282h-58v48h53l-9 84h-44v48h38l-27 248h62l25 -248h96l35 248h81l35 -248h96l25 248h62l-27 -248h38zM301 574l-15 -112h47l-15 112c-3 27 -5 49 -6 66h-5c-1 -17 -3 -39 -6 -66zM228 414 h-86l9 -84h65zM280 414l-12 -84h83l-12 84h-59zM403 330h65l9 84h-86zM188 128l21 154h-53l15 -154c2 -14 4 -33 6 -58h3c3 25 6 44 8 58zM448 128l15 154h-53l21 -154c2 -14 5 -33 8 -58h4c0 7 3 38 5 58z"/>
    <glyph glyph-name="currency.case" d="M531 353c0 -59 -17 -109 -50 -151l53 -56l-34 -31l-53 55c-37 -29 -81 -43 -134 -43c-54 0 -100 15 -138 46l-55 -59l-34 31l56 61c-31 41 -47 90 -47 147c0 58 16 107 48 148l-57 61l34 30l56 -58c38 30 84 45 137 45c51 0 96 -14 133 -42l54 56l34 -31l-54 -57 c34 -41 51 -92 51 -152zM203 232c29 -31 66 -46 110 -46s81 15 110 46c29 30 43 70 43 121s-14 91 -43 122c-29 30 -66 45 -110 45s-81 -15 -110 -45c-29 -31 -44 -71 -44 -122s15 -91 44 -121z"/>
    <glyph glyph-name="dollar.case" d="M553 187c0 -113 -77 -197 -218 -202v-94h-39v95c-140 9 -216 99 -229 224l73 15c13 -99 64 -168 156 -179v285l-37 10c-104 28 -170 93 -170 196c0 53 19 97 57 132c37 35 87 53 150 56v91h39v-92c120 -8 199 -73 208 -205l-73 -20c-6 100 -51 155 -135 164v-269l38 -10 c56 -15 100 -36 132 -64c32 -29 48 -73 48 -133zM285 407l11 -3v260c-93 -5 -137 -57 -137 -125c0 -67 47 -112 126 -132zM335 321v-276c88 4 147 44 147 131s-49 121 -134 142z"/>
    <glyph glyph-name="Euro.case" d="M544 170l55 -37c-41 -95 -120 -148 -223 -148c-149 0 -242 107 -266 284h-89v52h84c-1 9 -1 22 -1 41c0 20 0 35 1 44h-84v52h90c25 172 122 267 274 267c99 0 170 -46 213 -137l-59 -44c-32 77 -85 115 -160 115c-103 0 -171 -69 -192 -201h273v-52h-279 c-1 -9 -1 -24 -1 -43s0 -33 1 -42h279v-52h-274c21 -141 91 -219 191 -219c68 0 130 40 167 120z"/>
    <glyph glyph-name="florin.case" d="M429 663c-67 0 -83 -37 -94 -118l-13 -108h117v-55h-124l-67 -535h-71l67 535h-99v55h106l11 91c8 68 16 102 39 142s64 57 127 57c19 0 34 -2 47 -7v-62c-13 3 -29 5 -46 5z"/>
    <glyph glyph-name="sterling.case" d="M511 168l66 -13c-13 -119 -82 -170 -166 -170c-23 0 -55 5 -94 14c-40 9 -75 14 -106 14c-48 0 -99 -7 -152 -20l-16 53c96 32 144 97 144 195c0 33 -3 67 -9 103h-111v54h100c-10 46 -15 86 -15 119c0 132 80 208 195 208c105 0 169 -59 189 -163l-72 -17 c-13 78 -53 117 -118 117c-71 0 -117 -45 -117 -142c0 -33 5 -73 15 -122h172v-54h-162c5 -29 8 -58 8 -89c0 -90 -34 -153 -103 -188c21 6 48 9 82 9c23 0 51 -4 86 -11s63 -11 84 -11c53 0 92 34 100 114z"/>
    <glyph glyph-name="yen.case" d="M483 710h83l-218 -377h186v-51h-187v-83h187v-51h-187v-148h-74v148h-191v51h191v83h-191v51h190l-219 377h83l173 -309z"/>
    <glyph glyph-name="plus.case" d="M344 402h201v-60h-201v-208h-69v208h-200v60h200v197h69v-197z"/>
    <glyph glyph-name="minus.case" d="M545 341h-470v65h470v-65z"/>
    <glyph glyph-name="multiply.case" d="M500 608l48 -47l-191 -191l191 -190l-47 -48l-191 191l-191 -191l-47 47l191 191l-191 191l47 47l191 -190z"/>
    <glyph glyph-name="divide.case" d="M344 529c-18 -17 -49 -17 -67 0s-18 51 -1 68c17 16 51 16 68 0c17 -17 18 -51 0 -68zM545 343h-470v62h470v-62zM344 151c-30 -28 -81 -8 -81 34c0 28 20 47 47 47c43 5 62 -54 34 -81z"/>
    <glyph glyph-name="equal.case" d="M545 433h-470v65h470v-65zM545 248h-470v65h470v-65z"/>
    <glyph glyph-name="notequal.case" d="M545 498v-65h-188l-46 -120h234v-65h-259l-50 -132h-47l50 132h-164v65h189l46 120h-235v65h260l49 128h47l-49 -128h163z"/>
    <glyph glyph-name="greater.case" d="M515 344l-465 -212v67l387 175l-387 175v65l465 -212v-58z"/>
    <glyph glyph-name="less.case" d="M561 199v-67l-465 212v58l465 212v-65l-387 -175z"/>
    <glyph glyph-name="plusminus.case" d="M345 633v-172h200v-60h-200v-169h-70v169h-200v60h200v172h70zM545 100h-470v65h470v-65z"/>
    <glyph glyph-name="approxequal.case" d="M421 419c-25 0 -61 8 -106 25c-46 17 -81 25 -106 25c-49 0 -105 -17 -134 -40v65c27 23 81 40 126 40c30 0 67 -8 110 -25s77 -25 102 -25c49 0 104 17 132 40v-65c-24 -23 -77 -40 -124 -40zM421 234c-25 0 -61 8 -106 25c-46 17 -81 25 -106 25 c-49 0 -105 -17 -134 -40v65c27 23 81 40 126 40c30 0 67 -8 110 -25s77 -25 102 -25c49 0 104 17 132 40v-65c-24 -23 -77 -40 -124 -40z"/>
    <glyph glyph-name="logicalnot.case" d="M91 345v66h458v-236h-66v170h-392z"/>
    <glyph glyph-name="infinity.case" d="M432 505c73 0 125 -54 125 -134c0 -39 -12 -71 -37 -96s-54 -38 -88 -38c-48 0 -94 38 -123 85c-36 -57 -78 -86 -125 -86c-64 0 -121 51 -121 134c0 79 55 135 123 135c48 0 96 -33 123 -81c35 54 76 81 123 81zM190 296c39 0 63 28 90 76c-27 49 -58 73 -93 73 c-36 0 -66 -24 -66 -75c0 -47 36 -74 69 -74zM430 296c36 0 68 29 68 74c0 49 -29 75 -68 75c-40 0 -61 -24 -92 -73c29 -51 59 -76 92 -76z"/>
    <glyph glyph-name="integral.case" d="M100 -15v60c7 -1 17 -1 28 -1c112 0 148 41 148 161v297c0 135 60 215 200 214c18 0 32 -1 43 -2v-60c-17 2 -32 3 -43 3c-95 0 -129 -52 -129 -163v-297c0 -141 -63 -214 -219 -213c-11 0 -21 0 -28 1z"/>
    <glyph glyph-name="carriagereturn.alt" d="M456 201l-113 151h83v58c0 184 -54 266 -161 266s-161 -89 -161 -266v-109c0 -188 54 -268 163 -268c68 0 114 32 139 97l47 -19c-35 -85 -97 -127 -186 -127c-141 0 -216 107 -216 314v112c0 204 75 314 214 314c140 0 215 -110 215 -311v-61h88z"/>
    <glyph glyph-name="arrowright.case" d="M60 336v46h363v90l150 -113l-150 -113v90h-363z"/>
    <glyph glyph-name="arrowleft.case" d="M560 382v-46h-363v-90l-150 113l150 113v-90h363z"/>
    <glyph glyph-name="arrowright.ss03.case" d="M489 330h-450v58h450l-223 217l40 41l288 -287l-288 -288l-41 41z"/>
    <glyph glyph-name="arrowleft.ss03.case" d="M581 330h-450l224 -218l-41 -41l-288 288l288 287l40 -41l-223 -217h450v-58z"/>
    <glyph glyph-name="arrowup.ss03" d="M280 -35v681l-218 -225l-39 42l288 287l286 -287l-40 -42l-217 225v-681h-60z"/>
    <glyph glyph-name="uni2197.ss03" d="M491 303l4 313l-382 -383l-41 42l383 383l-313 -4v56h406v-407h-57z"/>
    <glyph glyph-name="arrowright.ss03" d="M265 83l224 218h-450v58h450l-223 217l40 41l288 -287l-288 -288z"/>
    <glyph glyph-name="uni2198.ss03" d="M113 465l382 -383l-4 313h57v-407h-406v56l313 -4l-383 383z"/>
    <glyph glyph-name="arrowdown.ss03" d="M64 289l218 -225v681h60v-681l217 225l40 -42l-286 -287l-288 287z"/>
    <glyph glyph-name="uni2199.ss03" d="M129 395l-4 -313l382 383l41 -42l-383 -383l313 4v-56h-406v407h57z"/>
    <glyph glyph-name="arrowleft.ss03" d="M581 301h-450l224 -218l-41 -41l-288 288l288 287l40 -41l-223 -217h450v-58z"/>
    <glyph glyph-name="uni2196.ss03" d="M507 233l-382 383l4 -313h-57v407h406v-56l-313 4l383 -383z"/>
    <glyph glyph-name="at.case" d="M329 -17c-168 0 -269 105 -269 278v185c0 88 24 159 71 212s109 79 186 79c74 0 133 -24 177 -72c43 -49 65 -114 65 -196v-123c0 -109 -33 -164 -98 -164c-41 0 -68 23 -75 62c-19 -39 -60 -64 -105 -64c-61 0 -104 40 -104 100c0 57 36 91 109 103c37 7 59 10 94 15v10 c0 63 -18 88 -65 88s-72 -24 -73 -71h-54c1 75 51 121 130 121c80 0 116 -47 116 -150v-104c0 -43 11 -65 34 -65c27 0 40 33 40 99v136c0 143 -73 229 -194 229c-127 0 -203 -92 -203 -241v-192c0 -139 86 -227 221 -227c45 0 90 11 135 33l16 -41 c-47 -27 -99 -40 -154 -40zM295 226c49 0 86 41 86 97v34l-80 -16c-45 -8 -68 -28 -68 -60c0 -33 25 -55 62 -55z"/>
    <glyph glyph-name="section.case" d="M445 213c32 -25 48 -55 48 -91c0 -88 -80 -140 -196 -140c-112 0 -186 56 -195 143l70 13c13 -60 61 -97 134 -97c67 0 114 28 114 73c0 41 -21 62 -106 94l-82 32c-93 36 -132 78 -132 143c0 53 26 90 78 113c-29 25 -44 57 -44 96c0 84 78 135 187 135 c107 0 170 -47 183 -130l-69 -15c-13 61 -54 91 -123 91c-63 0 -104 -28 -104 -75c0 -43 19 -63 94 -92l80 -31c97 -39 141 -81 141 -146c0 -55 -26 -93 -78 -116zM281 293l81 -34c13 -5 27 -12 42 -20c29 21 44 47 44 76c0 28 -11 50 -35 67c-25 16 -49 28 -93 45 c-9 3 -15 6 -20 8l-70 30l-11 5c-29 -19 -44 -44 -44 -74c0 -47 26 -68 106 -103z"/>
    <glyph glyph-name="bar.case" d="M278 725h63v-743h-63v743z"/>
    <glyph glyph-name="brokenbar.case" d="M278 725h63v-293h-63v293zM278 311h63v-329h-63v329z"/>
    <glyph glyph-name="plus.subs" d="M339 126h148v-52h-148v-149h-58v149h-148v52h148v142h58v-142z"/>
    <glyph glyph-name="minus.subs" d="M488 74h-356v52h356v-52z"/>
    <glyph glyph-name="multiply.subs" d="M452 275l40 -38l-142 -138l142 -137l-40 -40l-142 138l-143 -138l-39 39l142 138l-142 138l39 38l143 -138z"/>
    <glyph glyph-name="divide.subs" d="M338 207c-24 -24 -67 -6 -67 26c-4 50 82 52 77 0c0 -11 -3 -19 -10 -26zM488 74h-356v51h356v-51zM338 -64c-14 -14 -41 -14 -56 0s-15 41 0 55c15 15 42 15 56 0c14 -14 14 -41 0 -55z"/>
    <glyph glyph-name="plus.sups" d="M336 574h151v-48h-151v-151h-53v151h-150v48h150v144h53v-144z"/>
    <glyph glyph-name="minus.sups" d="M488 526h-356v49h356v-49z"/>
    <glyph glyph-name="multiply.sups" d="M453 724l37 -36l-143 -139l143 -139l-36 -37l-144 140l-144 -140l-36 36l143 139l-144 140l37 36l144 -140z"/>
    <glyph glyph-name="divide.sups" d="M310 648c-50 -5 -50 77 0 73c21 0 37 -14 37 -37c0 -21 -16 -36 -37 -36zM488 526h-356v47h356v-47zM310 377c-23 0 -38 14 -38 37c0 21 15 36 38 36c48 5 48 -77 0 -73z"/>
    <glyph glyph-name="carontopcomb" d="M525 545l-18 32c33 15 40 32 40 69h-42v79h80v-72c0 -54 -20 -90 -60 -108z"/>
  </font>
</defs>
</svg>
