<svg xmlns="http://www.w3.org/2000/svg">
<defs>
<font id="GTAmerica-Medium" horiz-adv-x="620">
  <font-face font-family="GT America Medium" font-weight="500" font-stretch="normal" units-per-em="1000" panose-1="0 0 6 0 0 0 0 0 0 0" ascent="800" descent="-200" x-height="500" cap-height="710" bbox="-435 -240 1200.02 959" underline-thickness="50" underline-position="-250" unicode-range="U+000D-FB02"/>

<glyph glyph-name="fi" unicode="fi" horiz-adv-x="647" d="M225 500h121v-87h-121v-413h-120v413h-86v87h86v64q0 78 45 122.5t125 44.5q34 0 71 -8v-93q-33 5 -51 5q-70 0 -70 -79v-56zM572 583h-130v125h130v-125zM568 0h-120v500h120v-500z"/>
    <glyph glyph-name="fl" unicode="fl" horiz-adv-x="657" d="M225 500h121v-87h-121v-413h-120v413h-86v87h86v64q0 78 45 122.5t125 44.5q34 0 71 -8v-93q-33 5 -51 5q-70 0 -70 -79v-56zM453 725h120v-725h-120v725z"/>
    <glyph glyph-name="g_g.liga" unicode="gg" horiz-adv-x="1053" d="M372 493q12 42 44.5 66.5t82.5 24.5q13 0 28 -3v-89q-30 5 -44 5q-43 0 -64 -33q54 -46 54 -121q0 -77 -56 -123t-149 -46q-56 0 -100 18q-26 -15 -26 -38q0 -47 77 -47h98q90 0 135 -38.5t45 -106.5q0 -78 -63.5 -123.5t-180.5 -45.5q-103 0 -165 32t-62 91q0 73 91 101 q-73 25 -73 94q0 75 81 105q-62 47 -62 127q0 77 56 123t149 46q57 0 104 -19zM992 499q-43 0 -67 -35q55 -46 55 -121q0 -77 -56.5 -123.5t-149.5 -46.5q-52 0 -93 15q-21 -14 -21 -34q0 -48 84 -48h105q90 0 134.5 -38t44.5 -107q0 -76 -66 -122t-184 -46q-100 0 -164 30 q-64 31 -64 93q0 35 23.5 61t64.5 39q-76 24 -76 94q0 71 73 102q-66 47 -66 131q0 77 56 123t149 46q60 0 105 -19q25 90 129 90q14 0 28 -3v-86q-30 5 -44 5zM202 273q26 -26 66 -26q41 0 67 26q25 25 25 70t-25 70q-26 26 -67 26q-40 0 -66 -26t-26 -70t26 -70zM708 273 q26 -27 66 -27q42 0 67 27q25 25 25 70t-25 70q-26 26 -67 26q-40 0 -66 -26t-26 -70t26 -70zM303 4l-101 1q-8 0 -40 2q-37 -21 -37 -60q0 -76 139 -76q125 0 125 72q0 61 -86 61zM835 3l-108 1q-7 0 -39 2q-38 -20 -38 -60q0 -75 139 -75q132 0 132 72q0 32 -20.5 46 t-65.5 14z"/>
    <glyph glyph-name=".notdef" horiz-adv-x="1018" d="M998 710v-47h-552v-47h552v-48h-552v-47h552v-48h-552v-47h552v-47h-552v-48h552v-47h-978v426h978zM72 652l-5 15l13 9h-16l-5 15l-4 -15h-16l13 -9l-5 -15l12 9zM146 691l-4 -15h-16l13 -9l-5 -15l12 10l13 -10l-5 15l12 9h-15zM233 691l-4 -15h-16l13 -9l-5 -15l12 10 l13 -10l-5 15l12 9h-15zM320 691l-5 -15h-15l13 -9l-5 -15l12 10l13 -10l-5 15l12 9h-15zM420 652l-5 15l12 9h-15l-5 15l-5 -15h-15l12 -9l-4 -15l12 10zM103 647l-5 -15h-15l12 -9l-4 -14l12 9l12 -9l-4 14l12 9h-15zM376 609l-5 14l13 9h-16l-4 15l-5 -15h-15l12 -9 l-5 -14l13 9zM193 364h80v93h94v80h-94v94h-80v-94h-93v-80h93v-93zM72 565l-5 15l13 9h-16l-5 14l-4 -14h-16l13 -9l-5 -15l12 9zM146 603l-4 -14h-16l13 -9l-5 -15l12 9l13 -9l-5 15l12 9h-15zM320 603l-5 -14h-15l13 -9l-5 -15l12 9l13 -9l-5 15l12 9h-15zM420 565l-5 15 l12 9h-15l-5 14l-5 -14h-15l12 -9l-4 -15l12 9zM72 478l-5 14l13 10h-16l-5 14l-4 -14h-16l13 -10l-5 -14l12 9zM420 478l-5 14l12 10h-15l-5 14l-5 -14h-15l12 -10l-4 -14l12 9zM72 391l-5 14l13 9h-16l-5 15l-4 -15h-16l13 -9l-5 -14l12 9zM159 391l-5 14l12 9h-15l-5 15 l-4 -15h-16l13 -9l-5 -14l12 9zM333 391l-5 14l12 9h-15l-5 15l-5 -15h-15l13 -9l-5 -14l12 9zM420 391l-5 14l12 9h-15l-5 15l-5 -15h-15l12 -9l-4 -14l12 9zM103 356l12 -9l-4 15l12 9h-15l-5 14l-5 -14h-15l12 -9l-4 -15zM364 356l12 -9l-5 15l13 9h-16l-4 14l-5 -14h-15 l12 -9l-5 -15zM59 312l13 -9l-5 15l13 9h-16l-5 15l-4 -15h-16l13 -9l-5 -15zM146 312l13 -9l-5 15l12 9h-15l-5 15l-4 -15h-16l13 -9l-5 -15zM233 312l13 -9l-5 15l12 9h-15l-5 15l-4 -15h-16l13 -9l-5 -15zM320 312l13 -9l-5 15l12 9h-15l-5 15l-5 -15h-15l13 -9l-5 -15z M407 312l13 -9l-5 15l12 9h-15l-5 15l-5 -15h-15l12 -9l-4 -15zM997 189h-977v48h977v-48zM998 95h-978v47h978v-47zM998 0h-978v47h978v-47z"/>
    <glyph glyph-name=".null" horiz-adv-x="0"/>
    <glyph glyph-name="nonmarkingreturn" horiz-adv-x="333"/>
    <glyph glyph-name="null" horiz-adv-x="0"/>
    <glyph glyph-name="null" horiz-adv-x="0"/>
    <glyph glyph-name="CR" unicode="&#xD;" horiz-adv-x="0"/>
    <glyph glyph-name="space" unicode=" " horiz-adv-x="254"/>
    <glyph glyph-name="exclam" unicode="!" horiz-adv-x="319" d="M205 205h-91l-26 520h143zM91 128h137v-128h-137v128z"/>
    <glyph glyph-name="quotedbl" unicode="&quot;" horiz-adv-x="429" d="M164 430h-82l-18 280h118zM348 430h-82l-18 280h118z"/>
    <glyph glyph-name="numbersign" unicode="#" horiz-adv-x="604" d="M594 504v-87h-121l-26 -139h113v-87h-129l-36 -191h-99l36 191h-121l-36 -191h-99l36 191h-102v87h118l26 139h-104v87h120l35 190h99l-35 -190h121l35 190h99l-35 -190h105zM227 278h121l26 139h-121z"/>
    <glyph glyph-name="dollar" unicode="$" horiz-adv-x="614" d="M583 191q0 -87 -66 -143t-178 -63v-92h-62v92q-99 7 -167 53.5t-95 127.5l106 48q46 -115 156 -130v232l-27 6q-102 22 -150.5 71t-48.5 129q0 79 61.5 129.5t164.5 57.5v91h62v-91q170 -14 229 -155l-100 -55q-38 97 -129 114v-200l25 -6q115 -24 167 -75t52 -141z M168 525q0 -37 25 -59.5t84 -38.5v189q-52 -3 -80.5 -26.5t-28.5 -64.5zM339 302v-220q60 5 92.5 32.5t32.5 72.5q0 47 -28 72.5t-97 42.5z"/>
    <glyph glyph-name="percent" unicode="%" horiz-adv-x="823" d="M199 351q-84 0 -134 50.5t-50 135.5q0 83 50 133.5t133 50.5q82 0 132.5 -51t49.5 -135q1 -83 -49 -133.5t-132 -50.5zM232 -15h-94l452 731h92zM199 427q40 0 64 28.5t24 79.5q0 53 -24 81t-65 28t-65 -28q-25 -28 -25 -79q0 -53 24 -81.5t67 -28.5zM626 -14 q-84 0 -134 50.5t-50 135.5q0 83 50 133.5t133 50.5q82 0 132.5 -51t49.5 -135q1 -83 -49 -133.5t-132 -50.5zM626 62q40 0 64 28.5t24 79.5q0 52 -24 81q-24 28 -65 28t-65 -28q-25 -28 -25 -79q0 -53 24 -81.5t67 -28.5z"/>
    <glyph glyph-name="ampersand" unicode="&amp;" horiz-adv-x="670" d="M622 95q25 0 35 2v-96q-29 -7 -55 -7q-78 0 -140 57q-86 -68 -197 -68t-179 54q-67 54 -67 144q0 62 33.5 108t111.5 91q-85 100 -85 181t52 128.5t140 47.5t140 -44.5t52 -120.5q0 -108 -117 -179l-31 -20l152 -167q40 75 49 188l99 -19q-10 -142 -79 -245 q38 -35 86 -35zM273 654q-77 0 -79 -87q0 -30 14.5 -58.5t51.5 -73.5l25 14q69 41 69 118q0 41 -21 64t-60 23zM142 189q0 -48 39.5 -80t99.5 -32q66 0 118 42l-177 195q-46 -30 -63 -57t-17 -68z"/>
    <glyph glyph-name="quotesingle" unicode="'" horiz-adv-x="246" d="M164 430h-82l-18 280h118z"/>
    <glyph glyph-name="parenleft" unicode="(" horiz-adv-x="329" d="M322 -98l-89 -42q-84 98 -130 219t-46 249q0 259 177 454l88 -41q-78 -100 -113.5 -199t-35.5 -216q0 -227 149 -424z"/>
    <glyph glyph-name="parenright" unicode=")" horiz-adv-x="329" d="M96 -140l-89 42q149 197 149 424q0 117 -35.5 216t-113.5 199l88 41q177 -195 177 -454q0 -128 -46 -249t-130 -219z"/>
    <glyph glyph-name="asterisk" unicode="*" horiz-adv-x="352" d="M309 663l31 -89l-120 -21l87 -84l-76 -56l-55 108l-55 -108l-75 56l86 85l-119 20l30 89l106 -57l-20 119h94l-20 -119z"/>
    <glyph glyph-name="plus" unicode="+" horiz-adv-x="566" d="M332 373h187v-87h-187v-197h-99v197h-186v87h186v185h99v-185z"/>
    <glyph glyph-name="comma" unicode="," horiz-adv-x="270" d="M97 -147l-27 54q38 15 51.5 34t13.5 56v3h-71v139h142v-131q0 -63 -24.5 -98.5t-84.5 -56.5z"/>
    <glyph glyph-name="hyphen" unicode="-" horiz-adv-x="401" d="M47 225v106h307v-106h-307z"/>
    <glyph glyph-name="period" unicode="." horiz-adv-x="270" d="M64 139h142v-139h-142v139z"/>
    <glyph glyph-name="slash" unicode="/" horiz-adv-x="477" d="M433 760l-282 -877h-107l282 877h107z"/>
    <glyph glyph-name="zero" unicode="0" horiz-adv-x="650" d="M534 81q-74 -96 -209 -96t-208 96q-74 97 -74 266q0 172 74 267.5t208 95.5q135 0 209 -95.5t74 -267.5q0 -169 -74 -266zM208 152q40 -69 117 -69t118 69q40 68 40 195t-40.5 196t-117.5 69t-117 -68.5t-40 -196.5q0 -127 40 -195z"/>
    <glyph glyph-name="one" unicode="1" horiz-adv-x="417" d="M308 0h-124v514q-15 -20 -48 -31t-68 -11h-32v111h20q117 1 150 112h102v-695z"/>
    <glyph glyph-name="two" unicode="2" horiz-adv-x="563" d="M520 0h-488v94q135 87 243 191q59 54 83 101t24 105q0 57 -28 88q-28 30 -81 30t-83 -30q-30 -31 -30 -83q0 -32 7 -61l-124 12q-7 25 -7 55q0 96 65.5 152t177.5 56q111 0 172.5 -55.5t61.5 -157.5q0 -137 -142 -266q-78 -70 -172 -128h321v-103z"/>
    <glyph glyph-name="three" unicode="3" horiz-adv-x="584" d="M289 -15q-115 0 -186 60q-71 59 -72 159l122 13q2 -63 39.5 -98.5t99.5 -35.5q60 0 91.5 30t31.5 87q0 112 -139 112h-39v90h36q59 0 90.5 28t31.5 80q0 49 -29.5 76t-83.5 27q-59 0 -90.5 -37t-31.5 -105l-120 20q0 101 67 160t182 59q110 0 170.5 -49.5t60.5 -136.5 q0 -59 -35.5 -102.5t-96.5 -57.5q154 -25 154 -168q0 -98 -68 -154.5t-185 -56.5z"/>
    <glyph glyph-name="four" unicode="4" horiz-adv-x="612" d="M577 258v-92h-109v-166h-120v166h-323v83l307 446h136v-437h109zM351 258v229q0 52 2 92h-2q-12 -31 -45 -81l-110 -164q-38 -57 -57 -76h212z"/>
    <glyph glyph-name="five" unicode="5" horiz-adv-x="579" d="M286 -15q-99 0 -165 51t-80 138l123 17q10 -50 42 -78t82 -28q61 0 95 38t34 106q0 70 -33.5 111t-92.5 41q-97 0 -124 -101l-113 11l42 404h409v-101h-318l-23 -200q50 81 160 81q100 0 158 -64.5t58 -176.5q0 -113 -69 -181q-70 -68 -185 -68z"/>
    <glyph glyph-name="six" unicode="6" horiz-adv-x="587" d="M337 466q98 0 156 -63.5t58 -171.5q0 -111 -67 -178q-68 -68 -175 -68q-129 0 -197.5 90t-68.5 259q0 178 71.5 277t200.5 99q195 0 227 -177l-119 -22q-21 102 -110 102q-71 0 -110 -61.5t-41 -178.5q52 93 175 93zM308 82q57 0 90 39t33 107q0 66 -34 105t-92 39 q-51 0 -88 -32t-53 -89q8 -78 46.5 -123.5t97.5 -45.5z"/>
    <glyph glyph-name="seven" unicode="7" horiz-adv-x="512" d="M259 0h-135v11q0 297 244 577h-344v107h473v-95q-238 -257 -238 -579v-21z"/>
    <glyph glyph-name="eight" unicode="8" horiz-adv-x="602" d="M423 378q75 -28 109.5 -73t34.5 -116q0 -93 -72 -148q-74 -56 -193 -56q-121 0 -193 54q-73 52 -73 142q0 134 138 176q-115 49 -115 167q0 84 66 135t173 51q110 0 175 -48t65 -129q0 -115 -115 -155zM297 623q-55 0 -86.5 -26t-31.5 -72q0 -40 27 -66t87 -43l37 -11 q48 20 68.5 47t20.5 68q0 49 -32 76t-90 27zM303 78q65 0 102 30t37 83q0 43 -27.5 71t-89.5 47l-61 18q-55 -22 -79 -52t-24 -77q0 -54 39 -87t103 -33z"/>
    <glyph glyph-name="nine" unicode="9" horiz-adv-x="588" d="M282 710q264 0 264 -350q0 -178 -66.5 -276.5t-197.5 -98.5q-100 0 -160.5 47.5t-76.5 136.5l119 23q21 -109 122 -109q138 0 140 254q-50 -84 -163 -84q-103 0 -165 60.5t-62 164.5q0 103 67 167q68 65 179 65zM282 348q49 0 89 31t54 79q-6 72 -41.5 114.5t-100.5 42.5 q-58 0 -93 -37t-35 -98q0 -59 35.5 -95.5t91.5 -36.5z"/>
    <glyph glyph-name="colon" unicode=":" horiz-adv-x="270" d="M64 500h142v-139h-142v139zM64 139h142v-139h-142v139z"/>
    <glyph glyph-name="semicolon" unicode=";" horiz-adv-x="270" d="M64 500h142v-139h-142v139zM97 -147l-27 54q38 15 51.5 34t13.5 56v3h-71v139h142v-131q0 -63 -24.5 -98.5t-84.5 -56.5z"/>
    <glyph glyph-name="less" unicode="&lt;" d="M524 179v-100l-468 202v90l468 202v-98l-355 -148z"/>
    <glyph glyph-name="equal" unicode="=" horiz-adv-x="566" d="M519 378h-472v93h472v-93zM519 187h-472v93h472v-93z"/>
    <glyph glyph-name="greater" unicode="&gt;" d="M564 281l-468 -202v100l355 148l-355 148v98l468 -202v-90z"/>
    <glyph glyph-name="question" unicode="?" horiz-adv-x="497" d="M298 199h-118v45q0 70 60 122l50 43q65 54 65 123q0 45 -29 71.5t-79 26.5q-54 0 -85.5 -31t-31.5 -85q0 -24 6 -52l-120 12q-6 28 -6 56q0 90 63.5 143.5t175.5 53.5q111 0 172 -49t61 -139q0 -95 -94 -177l-48 -42q-42 -37 -42 -92v-29zM308 0h-136v128h136v-128z"/>
    <glyph glyph-name="at" unicode="@" horiz-adv-x="834" d="M427 -102q-179 0 -283 103q-106 102 -106 275q0 170 107 277t284 107q173 0 270 -99q98 -101 98 -265q0 -104 -45 -165.5t-121 -61.5q-96 0 -119 77q-19 -38 -56 -59.5t-84 -21.5q-63 0 -103 34t-40 87q0 56 39.5 87.5t125.5 44.5l109 16v12q0 47 -17 66t-58 19 q-75 0 -81 -70h-103q4 66 54 105.5t132 39.5q87 0 128.5 -40.5t41.5 -127.5v-125q0 -43 11 -61.5t36 -18.5q36 0 57.5 43.5t21.5 117.5q0 144 -76.5 224t-219.5 80q-150 0 -234 -87q-85 -88 -85 -235q0 -142 90 -228q89 -86 236 -86q95 0 184 39l28 -56q-96 -47 -222 -47z M400 139q47 0 75.5 29.5t28.5 79.5v23l-77 -11q-49 -7 -70.5 -23t-21.5 -45q0 -23 18.5 -38t46.5 -15z"/>
    <glyph glyph-name="A" unicode="A" horiz-adv-x="702" d="M685 0h-131l-64 187h-278l-64 -187h-131l264 710h140zM329 525l-83 -240h210l-83 240q-13 39 -21 76h-2q-8 -37 -21 -76z"/>
    <glyph glyph-name="B" unicode="B" horiz-adv-x="669" d="M482 369q67 -11 104.5 -56t37.5 -116q0 -83 -59 -140q-58 -57 -179 -57h-298v710h281q121 0 179 -53q57 -54 57 -133q0 -56 -32 -98t-91 -57zM348 612h-131v-202h131q124 0 124 100q0 47 -30.5 74.5t-93.5 27.5zM217 98h145q64 0 97 30t33 81q0 49 -31.5 77.5t-91.5 28.5 h-152v-217z"/>
    <glyph glyph-name="C" unicode="C" horiz-adv-x="705" d="M370 -17q-162 0 -247 103q-85 101 -85 270t89 270t245 101q128 0 205 -67t92 -185l-132 -19q-9 78 -53 121.5t-116 43.5q-92 0 -144.5 -71t-52.5 -193q0 -119 53 -193q52 -73 147 -73q68 0 112.5 42.5t58.5 118.5l128 -26q-25 -115 -101 -179t-199 -64z"/>
    <glyph glyph-name="D" unicode="D" horiz-adv-x="725" d="M342 0h-254v710h256q156 0 250 -97t94 -255q0 -160 -94 -258q-94 -100 -252 -100zM217 609v-508h121q99 0 158 74q57 73 57 183q0 111 -56 182q-55 69 -157 69h-123z"/>
    <glyph glyph-name="E" unicode="E" horiz-adv-x="614" d="M217 314v-213h339v-101h-468v710h461v-101h-332v-195h315v-100h-315z"/>
    <glyph glyph-name="F" unicode="F" horiz-adv-x="583" d="M549 710v-102h-332v-197h315v-102h-315v-309h-129v710h461z"/>
    <glyph glyph-name="G" unicode="G" horiz-adv-x="732" d="M351 -17q-145 0 -229 102t-84 269q0 168 91 271q90 102 247 102q139 0 211 -72q64 -64 78 -144l-128 -22q-11 61 -51.5 98.5t-111.5 37.5q-95 0 -149.5 -73t-54.5 -197q0 -123 53.5 -195.5t151.5 -72.5q50 0 88 18.5t57 49.5q36 58 36 115v13h-192v99h309v-382h-92 l-11 109q-25 -58 -83.5 -92t-135.5 -34z"/>
    <glyph glyph-name="H" unicode="H" horiz-adv-x="753" d="M536 710h129v-710h-129v310h-319v-310h-129v710h129v-297h319v297z"/>
    <glyph glyph-name="I" unicode="I" horiz-adv-x="305" d="M217 710v-710h-129v710h129z"/>
    <glyph glyph-name="J" unicode="J" horiz-adv-x="406" d="M331 710v-513q0 -108 -57.5 -160t-161.5 -52q-68 0 -93 7v112q27 -5 76 -5q53 0 80 27t27 90v494h129z"/>
    <glyph glyph-name="K" unicode="K" horiz-adv-x="690" d="M673 0h-149l-212 333l-95 -107v-226h-129v710h129v-332l284 332h154l-255 -286l-1 -1z"/>
    <glyph glyph-name="L" unicode="L" horiz-adv-x="545" d="M527 0h-439v710h129v-604h310v-106z"/>
    <glyph glyph-name="M" unicode="M" horiz-adv-x="895" d="M201 0h-113v710h180l161 -494q15 -47 18 -76h2q4 30 18 77l159 493h181v-710h-118v518q0 49 4 78h-3q-4 -32 -18 -75l-168 -521h-115l-170 521q-13 35 -18 75h-4q4 -28 4 -78v-518z"/>
    <glyph glyph-name="N" unicode="N" horiz-adv-x="752" d="M205 0h-117v710h148l267 -465q30 -53 44 -91h2q-2 70 -2 92v464h117v-710h-145l-271 467q-27 50 -43 89h-2q2 -36 2 -94v-462z"/>
    <glyph glyph-name="O" unicode="O" horiz-adv-x="748" d="M374 -17q-152 0 -244 101t-92 271q0 172 91 272t245 100t245 -100t91 -272q0 -171 -91 -271q-92 -101 -245 -101zM374 87q96 0 149 71t53 197t-53 197t-149 71q-95 0 -148.5 -71t-53.5 -197q0 -124 53.5 -196t148.5 -72z"/>
    <glyph glyph-name="P" unicode="P" horiz-adv-x="634" d="M88 710h281q113 0 181 -59q67 -58 67 -157q0 -101 -67 -160t-182 -59h-151v-275h-129v710zM217 373h128q63 0 99.5 32t36.5 87t-36.5 87t-99.5 32h-128v-238z"/>
    <glyph glyph-name="Q" unicode="Q" horiz-adv-x="748" d="M511 8q41 -45 117 -45q25 0 54 7v-105q-39 -6 -72 -6q-155 0 -209 125q-6 -1 -27 -1q-152 0 -244 101t-92 271q0 172 91 272t245 100t245 -100t91 -272q0 -127 -52.5 -217.5t-146.5 -129.5zM172 355q0 -124 53.5 -196t148.5 -72q96 0 149 71t53 197t-53 197t-149 71 q-95 0 -148.5 -71t-53.5 -197z"/>
    <glyph glyph-name="R" unicode="R" horiz-adv-x="678" d="M640 0h-142l-156 285h-125v-285h-129v710h286q125 0 185.5 -56.5t60.5 -156.5q0 -70 -38 -122.5t-111 -72.5zM352 612h-135v-231h135q133 0 133 116q0 115 -133 115z"/>
    <glyph glyph-name="S" unicode="S" horiz-adv-x="619" d="M313 -17q-120 0 -197 53t-101 146l110 48q45 -144 192 -144q63 0 102 26.5t39 76.5q0 48 -27.5 72t-92.5 37l-99 21q-186 37 -186 204q0 93 71 149q70 55 189 55q107 0 178.5 -44t94.5 -129l-103 -54q-36 129 -176 129q-58 0 -93.5 -25.5t-35.5 -70.5q0 -43 25.5 -67.5 t84.5 -37.5l103 -22q98 -21 146.5 -69.5t48.5 -135.5q0 -95 -71 -157q-70 -61 -202 -61z"/>
    <glyph glyph-name="T" unicode="T" horiz-adv-x="577" d="M9 710h559v-105h-215v-605h-129v605h-215v105z"/>
    <glyph glyph-name="U" unicode="U" horiz-adv-x="721" d="M75 248v462h129v-455q0 -76 41 -119.5t115 -43.5q75 0 116 43.5t41 119.5v455h129v-462q0 -123 -76 -194t-210 -71t-209.5 71t-75.5 194z"/>
    <glyph glyph-name="V" unicode="V" horiz-adv-x="639" d="M393 0h-147l-242 710h137l152 -492q17 -54 25 -97h4q6 36 24 97l152 492h138z"/>
    <glyph glyph-name="W" unicode="W" horiz-adv-x="936" d="M341 0h-150l-169 710h131l108 -520q5 -22 6 -48h3q2 26 8 48l125 520h130l125 -520q6 -22 8 -48h3q1 26 6 48l108 520h131l-169 -710h-150l-119 520q-4 24 -6 42h-4q-2 -18 -6 -42z"/>
    <glyph glyph-name="X" unicode="X" horiz-adv-x="668" d="M155 0h-143l242 372l-223 338h147l134 -217q19 -34 22 -44h2q4 16 22 43l135 218h141l-221 -347l243 -363h-148l-147 232q-27 43 -31 55h-2q-5 -16 -29 -54z"/>
    <glyph glyph-name="Y" unicode="Y" horiz-adv-x="605" d="M368 0h-131v271l-239 439h140l145 -283q15 -28 19 -46h2q4 19 18 46l145 283h140l-239 -439v-271z"/>
    <glyph glyph-name="Z" unicode="Z" horiz-adv-x="587" d="M35 0v104l372 502h-358v104h502v-104l-372 -503h387v-103h-531z"/>
    <glyph glyph-name="bracketleft" unicode="[" horiz-adv-x="345" d="M314 -114h-226v871h226v-89h-117v-692h117v-90z"/>
    <glyph glyph-name="backslash" unicode="\" horiz-adv-x="477" d="M433 -117h-107l-282 877h107z"/>
    <glyph glyph-name="bracketright" unicode="]" horiz-adv-x="345" d="M257 757v-871h-226v90h117v692h-117v89h226z"/>
    <glyph glyph-name="asciicircum" unicode="^" horiz-adv-x="431" d="M20 447l148 262h95l148 -262h-102l-93 178l-94 -178h-102z"/>
    <glyph glyph-name="underscore" unicode="_" horiz-adv-x="447" d="M0 -167v74h447v-74h-447z"/>
    <glyph glyph-name="grave" unicode="`" horiz-adv-x="600" d="M144 723l100 -149h-98l-128 149h126z"/>
    <glyph glyph-name="a" unicode="a" horiz-adv-x="555" d="M206 -12q-77 0 -123.5 40.5t-46.5 107.5q0 76 61 113q49 28 163 45l106 13v13q0 56 -22.5 81.5t-70.5 25.5q-44 0 -69.5 -22.5t-28.5 -65.5h-123q6 80 65 126.5t156 46.5q111 0 162.5 -49.5t51.5 -158.5v-149q0 -103 15 -155h-120q-6 34 -8 86q-18 -46 -62.5 -72 t-105.5 -26zM245 73q56 0 90 36t34 96v32l-113 -17q-96 -16 -96 -78q0 -32 22.5 -50.5t62.5 -18.5z"/>
    <glyph glyph-name="b" unicode="b" horiz-adv-x="599" d="M354 -12q-53 0 -94.5 25t-61.5 68l-12 -81h-101v725h120v-303q21 42 61 66t93 24q91 0 146 -72q55 -73 55 -190t-56 -190q-57 -72 -150 -72zM316 80q56 0 87.5 45t31.5 125q0 79 -31 124.5t-88 45.5q-53 0 -83.5 -41.5t-30.5 -112.5v-34q0 -70 30 -111t84 -41z"/>
    <glyph glyph-name="c" unicode="c" horiz-adv-x="540" d="M283 -12q-112 0 -178 72q-67 70 -67 190q0 122 66 192t180 70q93 0 151 -47.5t69 -132.5l-117 -19q-6 51 -33.5 78t-72.5 27q-56 0 -88 -44t-32 -121q0 -81 32 -125.5t90 -44.5q91 0 108 107l113 -23q-13 -83 -72.5 -131t-148.5 -48z"/>
    <glyph glyph-name="d" unicode="d" horiz-adv-x="599" d="M241 -12q-91 0 -146 72q-56 73 -56 189t59 190q58 73 152 73q100 0 144 -83v296h120v-725h-113v90q-45 -102 -160 -102zM282 80q53 0 84 41.5t31 111.5v32q0 73 -31 114t-85 41q-55 0 -86 -44.5t-31 -124.5t31.5 -125.5t86.5 -45.5z"/>
    <glyph glyph-name="e" unicode="e" horiz-adv-x="548" d="M505 275v-55h-351q1 -63 37.5 -100.5t95.5 -37.5q87 0 122 83l92 -42q-28 -65 -84.5 -100t-133.5 -35q-115 0 -180 67.5t-65 189.5q0 124 63.5 195.5t175.5 71.5q109 0 168.5 -61.5t59.5 -175.5zM154 299h233v8q0 61 -29 93t-83 32q-57 0 -88 -34.5t-33 -98.5z"/>
    <glyph glyph-name="f" unicode="f" horiz-adv-x="368" d="M225 500h121v-87h-121v-413h-120v413h-86v87h86v64q0 78 45 122.5t125 44.5q34 0 71 -8v-93q-33 5 -51 5q-70 0 -70 -79v-56z"/>
    <glyph glyph-name="g" unicode="g" horiz-adv-x="550" d="M493 496q-49 0 -72 -32q53 -47 53 -120q0 -76 -56 -123.5t-149 -47.5q-57 0 -101 18q-25 -13 -25 -38q0 -46 77 -46h130q87 0 132 -37t45 -107q0 -81 -68 -125.5t-199 -44.5q-117 0 -175.5 34.5t-58.5 94.5q0 69 83 98q-63 26 -63 90q0 74 78 106q-61 48 -61 128 q0 76 56 122t150 46q59 0 105 -20q27 92 132 92q14 0 27 -3v-90q-25 5 -40 5zM269 246q41 0 66.5 27t25.5 70q0 44 -25 70q-26 26 -67 26t-67 -26q-25 -26 -25 -69t25 -70.5t67 -27.5zM332 4l-130 1q-8 0 -40 2q-37 -22 -37 -63q0 -73 144 -73q150 0 150 72q0 61 -87 61z "/>
    <glyph glyph-name="h" unicode="h" horiz-adv-x="598" d="M205 0h-120v725h120v-317q45 106 161 106q81 0 123 -51.5t42 -151.5v-311h-121v301q0 116 -92 116q-54 0 -83.5 -39.5t-29.5 -112.5v-265z"/>
    <glyph glyph-name="i" unicode="i" horiz-adv-x="279" d="M204 583h-130v125h130v-125zM200 0h-120v500h120v-500z"/>
    <glyph glyph-name="j" unicode="j" horiz-adv-x="280" d="M205 583h-130v125h130v-125zM44 -202q-46 0 -68 6v92q12 0 28.5 -1t17.5 -1q33 0 46 18.5t13 65.5v522h120v-531q0 -84 -37 -127.5t-120 -43.5z"/>
    <glyph glyph-name="k" unicode="k" horiz-adv-x="566" d="M554 0h-139l-136 226l-74 -77v-149h-120v725h120v-447l195 222h146l-183 -196z"/>
    <glyph glyph-name="l" unicode="l" horiz-adv-x="289" d="M85 725h120v-725h-120v725z"/>
    <glyph glyph-name="m" unicode="m" horiz-adv-x="860" d="M80 0v500h114v-89q44 102 148 102q106 0 142 -102q50 102 156 102q72 0 112.5 -49t40.5 -137v-327h-120v308q0 108 -82 108q-46 0 -70.5 -32t-24.5 -92v-292h-120v311q0 105 -81 105q-45 0 -70 -33.5t-25 -93.5v-289h-120z"/>
    <glyph glyph-name="n" unicode="n" horiz-adv-x="593" d="M200 0h-120v500h114v-97q51 110 166 110q166 0 166 -203v-310h-121v298q0 118 -93 118q-53 0 -82.5 -40t-29.5 -111v-265z"/>
    <glyph glyph-name="o" unicode="o" horiz-adv-x="566" d="M461 58q-67 -70 -178 -70q-110 0 -177 70q-68 70 -68 193q0 122 68 192q68 69 177 69q111 0 178 -69q67 -68 67 -192q0 -125 -67 -193zM283 79q58 0 90 44t32 128q0 170 -122 170q-60 0 -91 -43q-32 -44 -32 -127q0 -84 32 -128t91 -44z"/>
    <glyph glyph-name="p" unicode="p" horiz-adv-x="594" d="M200 -195h-120v695h114v-87q46 99 160 99q90 0 146 -71q55 -71 55 -190q0 -121 -57 -191q-57 -72 -150 -72q-102 0 -148 84v-267zM313 80q54 0 85.5 45.5t31.5 125.5t-30 125q-32 44 -86 44t-86 -41q-31 -41 -31 -117v-25q0 -72 31.5 -114.5t84.5 -42.5z"/>
    <glyph glyph-name="q" unicode="q" horiz-adv-x="594" d="M514 -195h-120v277q-45 -94 -153 -94q-91 0 -146 72q-56 71 -56 189t59 191q58 72 153 72q105 0 149 -89l16 77h98v-695zM281 80q53 0 84.5 40.5t31.5 110.5v37q0 70 -31.5 111t-85.5 41q-53 0 -85 -44q-31 -44 -31 -125t31 -125q31 -46 86 -46z"/>
    <glyph glyph-name="r" unicode="r" horiz-adv-x="384" d="M192 500v-121q43 133 159 133q11 0 14 -1v-115h-16q-66 0 -104 -35q-45 -43 -45 -152v-209h-120v500h112z"/>
    <glyph glyph-name="s" unicode="s" horiz-adv-x="500" d="M259 -12q-86 0 -146.5 35.5t-83.5 100.5l89 40q36 -88 143 -88q44 0 69 17t25 45q0 26 -16.5 39t-55.5 19l-88 16q-143 26 -143 146q0 70 55 112t148 42q80 0 136.5 -30.5t74.5 -84.5l-83 -45q-39 73 -134 73q-87 0 -87 -60q0 -24 16 -37.5t50 -19.5l98 -18 q138 -24 138 -144q0 -72 -55 -115t-150 -43z"/>
    <glyph glyph-name="t" unicode="t" horiz-adv-x="373" d="M101 413h-90v87h90v126l120 48v-174h122v-87h-122v-239q0 -79 73 -79q25 0 49 6v-101q-44 -9 -82 -9q-84 0 -122 41t-38 123v258z"/>
    <glyph glyph-name="u" unicode="u" horiz-adv-x="586" d="M237 -12q-169 0 -169 191v321h120v-303q0 -113 88 -113q50 0 80 38t30 101v277h121v-500h-114v93q-18 -47 -60.5 -76t-95.5 -29z"/>
    <glyph glyph-name="v" unicode="v" horiz-adv-x="500" d="M315 0h-130l-178 500h126l98 -317q9 -35 18 -74h3q8 40 18 74l97 317h126z"/>
    <glyph glyph-name="w" unicode="w" horiz-adv-x="753" d="M280 0h-122l-137 500h118l77 -333q8 -41 9 -54h2q6 36 11 54l82 333h113l83 -333q10 -50 10 -54h2q6 37 9 54l78 333h118l-138 -500h-122l-86 330q-8 29 -9 49h-2q-7 -38 -9 -49z"/>
    <glyph glyph-name="x" unicode="x" horiz-adv-x="527" d="M143 0h-131l181 259l-169 241h137l77 -122q22 -36 27 -51h1q5 16 26 51l74 122h134l-166 -243l181 -257h-137l-89 135q-23 35 -27 52h-2q-4 -15 -28 -52z"/>
    <glyph glyph-name="y" unicode="y" horiz-adv-x="511" d="M97 -201q-28 0 -56 5v94q31 -3 46 -3q42 0 66.5 19t38.5 61l10 30l-195 495h132l109 -327q9 -26 15 -59h2q2 19 15 59l99 327h125l-188 -528q-33 -93 -84.5 -133t-134.5 -40z"/>
    <glyph glyph-name="z" unicode="z" horiz-adv-x="468" d="M29 0v79l257 330h-246v91h387v-76l-252 -331h267v-93h-413z"/>
    <glyph glyph-name="braceleft" unicode="{" horiz-adv-x="368" d="M337 -115h-58q-77 0 -116.5 38t-39.5 110v149q0 56 -15.5 79.5t-59.5 24.5v86q46 1 60 22t14 78v147q0 67 45 107.5t122 40.5h45v-85h-22q-38 0 -58.5 -22t-20.5 -62v-119q0 -63 -19 -99t-65 -50q45 -15 64 -53.5t19 -102.5v-123q0 -81 74 -81h31v-85z"/>
    <glyph glyph-name="bar" unicode="|" horiz-adv-x="254" d="M169 -117h-84v877h84v-877z"/>
    <glyph glyph-name="braceright" unicode="}" horiz-adv-x="368" d="M89 -115h-58v85h31q74 0 74 81v123q0 64 19 102.5t64 53.5q-46 14 -65 50t-19 99v119q0 40 -20.5 62t-58.5 22h-22v85h45q77 0 122 -40.5t45 -107.5v-147q0 -57 14 -78t60 -22v-86q-44 -1 -59.5 -24.5t-15.5 -79.5v-149q0 -72 -39.5 -110t-116.5 -38z"/>
    <glyph glyph-name="asciitilde" unicode="~" d="M409 220q-35 -1 -74.5 19.5t-71.5 41t-52 19.5q-57 0 -76 -69l-79 16q15 66 55.5 101.5t98.5 35.5q35 1 74.5 -19.5t72 -41t52.5 -18.5q55 0 75 68l80 -16q-16 -65 -56.5 -101t-98.5 -36z"/>
    <glyph glyph-name="uni00A0" unicode=" " horiz-adv-x="254"/>
    <glyph glyph-name="exclamdown" unicode="¡" horiz-adv-x="319" d="M228 580v-128h-137v128h137zM88 -145l26 520h91l26 -520h-143z"/>
    <glyph glyph-name="cent" unicode="¢" horiz-adv-x="554" d="M315 425v-348q86 12 100 104l102 -21q-14 -75 -67 -120t-135 -51v-83h-59v84q-102 10 -160 79t-58 181q0 114 57 182t161 78v84h59v-83q85 -5 138.5 -51t64.5 -123l-105 -17q-15 91 -98 105zM147 251q0 -153 109 -173v346q-52 -10 -80.5 -55t-28.5 -118z"/>
    <glyph glyph-name="sterling" unicode="£" horiz-adv-x="630" d="M511 183l110 -19q-12 -84 -61.5 -131.5t-124.5 -47.5q-47 0 -115 13t-125 13q-74 0 -156 -19l-25 77q141 43 141 177q0 41 -7 80h-106v69h92q-12 61 -12 100q0 100 60 157.5t165 57.5q94 0 151.5 -42t74.5 -122l-117 -27q-19 97 -108 97q-104 0 -104 -118q0 -47 13 -103 h183v-69h-170q4 -33 4 -62q0 -119 -100 -168q29 8 74 8q37 0 86 -7q56 -8 86 -8q38 0 62 24.5t29 69.5z"/>
    <glyph glyph-name="currency" unicode="¤" horiz-adv-x="557" d="M511 303q0 -83 -45 -144l54 -60l-55 -51l-56 60q-53 -35 -126 -35q-76 0 -132 37l-58 -63l-55 51l58 65q-43 58 -43 140q0 81 44 142l-59 64l55 51l59 -63q56 37 131 37q69 0 124 -33l58 60l55 -51l-56 -61q47 -62 47 -146zM189 202q37 -39 94 -39t93 39t36 101t-36 101 t-93 39t-94 -39q-38 -40 -38 -101t38 -101z"/>
    <glyph glyph-name="yen" unicode="¥" horiz-adv-x="562" d="M427 695h136l-214 -365h165v-65h-172v-50h172v-64h-172v-151h-122v151h-172v64h172v50h-172v65h165l-215 365h137l99 -183q29 -55 46 -100h2q17 45 46 100z"/>
    <glyph glyph-name="brokenbar" unicode="¦" horiz-adv-x="253" d="M85 760h84v-376h-84v376zM85 263h84v-380h-84v380z"/>
    <glyph glyph-name="section" unicode="§" horiz-adv-x="498" d="M410 181q42 -39 42 -104q0 -77 -56.5 -120t-155.5 -43q-87 0 -145.5 36t-79.5 102l83 44q34 -93 147 -93q93 0 93 66q0 25 -16 40.5t-60 32.5l-110 42q-130 47 -130 154q0 74 69 109q-50 41 -50 110q0 74 54.5 116t147.5 42q77 0 131 -32t75 -90l-85 -47q-29 83 -123 83 q-41 0 -64 -16.5t-23 -45.5q0 -28 17 -43.5t67 -34.5l105 -37q124 -43 124 -154q0 -74 -57 -117zM239 262l86 -31l23 -9q18 21 18 50q0 32 -21 51.5t-81 43.5l-101 40q-2 2 -11 5q-25 -21 -25 -54q0 -32 22 -50q20 -19 90 -46z"/>
    <glyph glyph-name="dieresis" unicode="¨" horiz-adv-x="600" d="M167 585h-117v117h117v-117zM378 585h-117v117h117v-117z"/>
    <glyph glyph-name="copyright" unicode="©" horiz-adv-x="820" d="M674 86q-107 -103 -264 -103t-264 103q-108 102 -108 269q0 168 108 270q106 102 264 102q157 0 265 -102q107 -102 107 -270q0 -167 -108 -269zM410 36q131 0 222 88q91 87 91 231t-91 232q-92 87 -222 87q-132 0 -222 -87q-91 -88 -91 -232t91 -231q89 -88 222 -88z M414 142q-88 0 -139.5 57.5t-51.5 155.5t51.5 155.5t140.5 57.5q72 0 118 -38t51 -101l-86 -13q-4 37 -26.5 59t-58.5 22q-48 0 -76 -38.5t-28 -103.5t28.5 -103t77.5 -38q33 0 56.5 21.5t28.5 57.5l85 -15q-12 -63 -58 -99.5t-113 -36.5z"/>
    <glyph glyph-name="ordfeminine" unicode="ª" horiz-adv-x="448" d="M162 301q-57 0 -92 29.5t-35 77.5q0 52 36.5 77.5t115.5 35.5l97 14v11q0 71 -64 71q-65 0 -70 -62h-104q4 61 50 95t124 34q88 0 128.5 -36t40.5 -115v-116q0 -68 10 -107h-102q-4 28 -6 64q-14 -34 -48.5 -53.5t-80.5 -19.5zM201 365q39 0 63 23.5t24 61.5v37l-72 -11 q-78 -14 -78 -60q0 -23 17 -37t46 -14z"/>
    <glyph glyph-name="guillemotleft" unicode="«" horiz-adv-x="534" d="M304 67h-113l-167 209l169 207h112l-164 -207zM514 67h-113l-167 209l169 207h112l-164 -207z"/>
    <glyph glyph-name="logicalnot" unicode="¬" d="M65 289v91h469v-253h-93v162h-376z"/>
    <glyph glyph-name="registered" unicode="®" horiz-adv-x="820" d="M146 625q106 102 264 102q157 0 265 -102q107 -102 107 -270q0 -167 -108 -269q-107 -103 -264 -103t-264 103q-108 102 -108 269q0 168 108 270zM410 36q131 0 222 88q91 87 91 231t-91 232q-92 87 -222 87q-132 0 -222 -87q-91 -88 -91 -232t91 -231q89 -88 222 -88z M572 440q0 -40 -22 -69.5t-62 -42.5l98 -172h-92l-87 163h-56v-163h-83v406h159q70 0 107.5 -31.5t37.5 -90.5zM418 497h-67v-115h67q70 0 70 58q0 57 -70 57z"/>
    <glyph glyph-name="overscore" unicode="¯" horiz-adv-x="600" d="M369 603h-319v81h319v-81z"/>
    <glyph glyph-name="degree" unicode="°" horiz-adv-x="413" d="M207 357q-79 0 -132 50q-52 49 -52 130q0 82 52 131t132 49q79 0 131 -49t52 -131q0 -81 -52 -130q-53 -50 -131 -50zM138 464q27 -28 69 -28t69 28t27 73t-27 72.5t-69 27.5q-43 0 -70 -27.5t-27 -72.5t28 -73z"/>
    <glyph glyph-name="plusminus" unicode="±" d="M358 534v-158h189v-87h-189v-153h-99v153h-186v87h186v158h99zM547 0h-474v92h474v-92z"/>
    <glyph glyph-name="acute" unicode="´" horiz-adv-x="600" d="M147 574h-98l100 149h126z"/>
    <glyph glyph-name="uni00B5" unicode="µ" horiz-adv-x="598" d="M398 223v277h121v-500h-114v93q-18 -47 -60.5 -76t-95.5 -29q-32 0 -62 8v-191h-107v695h120v-303q0 -113 88 -113q50 0 80 38t30 101z"/>
    <glyph glyph-name="paragraph" unicode="¶" horiz-adv-x="681" d="M281 -99v454q-231 0 -231 182q0 97 67 140q65 43 169 43h323v-65h-87v-754h-74v754h-93v-754h-74z"/>
    <glyph glyph-name="middot" unicode="·" horiz-adv-x="270" d="M64 407h142v-139h-142v139z"/>
    <glyph glyph-name="cedilla" unicode="¸" horiz-adv-x="600" d="M80 -77l41 84h64l-34 -55q17 14 48 14q38 0 60 -21.5t22 -60.5q0 -42 -31.5 -65.5t-85.5 -23.5q-89 0 -113 63l70 16q11 -27 40 -27q19 0 30 11t11 29q0 17 -10.5 27.5t-28.5 10.5q-21 0 -34 -15z"/>
    <glyph glyph-name="ordmasculine" unicode="º" horiz-adv-x="452" d="M363 352q-53 -51 -137 -51t-137 51q-53 50 -53 141q0 89 52 140t138 51q85 0 137 -51t52 -140q0 -92 -52 -141zM226 373q86 0 86 120q0 119 -86 119t-86 -119q0 -120 86 -120z"/>
    <glyph glyph-name="guillemotright" unicode="»" horiz-adv-x="534" d="M300 276l-167 -209h-113l163 209l-164 207h112zM510 276l-167 -209h-113l163 209l-164 207h112z"/>
    <glyph glyph-name="onequarter" unicode="¼" horiz-adv-x="791" d="M195 -17h-90l438 744h89zM197 325h-82v271q-26 -25 -74 -25h-15v76h10q72 0 94 64h67v-386zM770 148v-62h-61v-86h-82v86h-191v59l180 241h93v-238h61zM627 148v160l-118 -160h118z"/>
    <glyph glyph-name="onehalf" unicode="½" horiz-adv-x="832" d="M195 -17h-90l438 744h89zM197 325h-82v271q-26 -25 -74 -25h-15v76h10q72 0 94 64h67v-386zM799 0h-302v62q113 65 160.5 110t47.5 96q0 59 -59 59q-63 0 -63 -59q0 -10 5 -30l-87 7q-3 15 -3 31q0 55 40.5 87t110.5 32q68 0 106.5 -31.5t38.5 -89.5q0 -117 -182 -207 h187v-67z"/>
    <glyph glyph-name="threequarters" unicode="¾" horiz-adv-x="893" d="M297 -17h-90l438 744h89zM184 317q-72 0 -114 33.5t-43 91.5l85 8q0 -32 19.5 -50t53.5 -18q66 0 66 57q0 51 -75 51h-31v61h29q32 0 49.5 14t17.5 38q0 52 -61 52q-31 0 -49 -18.5t-18 -51.5l-83 10q0 57 42 91t113 34q68 0 105.5 -28.5t37.5 -78.5q0 -33 -22 -57 t-59 -31q93 -13 93 -93q0 -53 -42.5 -84t-113.5 -31zM872 148v-62h-61v-86h-82v86h-191v59l180 241h93v-238h61zM729 148v160l-118 -160h118z"/>
    <glyph glyph-name="questiondown" unicode="¿" horiz-adv-x="497" d="M189 580h136v-128h-136v128zM199 381h118v-45q0 -70 -60 -122l-50 -43q-65 -54 -65 -123q0 -45 29 -71.5t79 -26.5q54 0 85.5 31t31.5 85q0 24 -6 52l120 -12q6 -28 6 -56q0 -90 -63.5 -143.5t-175.5 -53.5q-111 0 -172 49t-61 139q0 95 94 177l48 42q42 37 42 92v29z "/>
    <glyph glyph-name="Agrave" unicode="À" horiz-adv-x="702" d="M304 866l93 -113h-99l-109 113h115zM685 0h-131l-64 187h-278l-64 -187h-131l264 710h140zM329 525l-83 -240h210l-83 240q-13 39 -21 76h-2q-8 -37 -21 -76z"/>
    <glyph glyph-name="Aacute" unicode="Á" horiz-adv-x="702" d="M395 866h115l-109 -113h-99zM685 0h-131l-64 187h-278l-64 -187h-131l264 710h140zM329 525l-83 -240h210l-83 240q-13 39 -21 76h-2q-8 -37 -21 -76z"/>
    <glyph glyph-name="Acircumflex" unicode="Â" horiz-adv-x="702" d="M416 753l-65 73l-66 -73h-103l101 113h136l101 -113h-104zM685 0h-131l-64 187h-278l-64 -187h-131l264 710h140zM329 525l-83 -240h210l-83 240q-13 39 -21 76h-2q-8 -37 -21 -76z"/>
    <glyph glyph-name="Atilde" unicode="Ã" horiz-adv-x="702" d="M283 800q-34 0 -48 -50l-67 19q9 51 39.5 79t76.5 28q38 0 77 -27q38 -28 58 -28q34 0 48 50l67 -19q-9 -51 -39.5 -79t-76.5 -28q-39 0 -77 28q-39 27 -58 27zM685 0h-131l-64 187h-278l-64 -187h-131l264 710h140zM329 525l-83 -240h210l-83 240q-13 39 -21 76h-2 q-8 -37 -21 -76z"/>
    <glyph glyph-name="Adieresis" unicode="Ä" horiz-adv-x="702" d="M182 859h114v-106h-114v106zM407 859h114v-106h-114v106zM685 0h-131l-64 187h-278l-64 -187h-131l264 710h140zM329 525l-83 -240h210l-83 240q-13 39 -21 76h-2q-8 -37 -21 -76z"/>
    <glyph glyph-name="Aring" unicode="Å" horiz-adv-x="702" d="M350 741q-52 0 -84.5 30t-32.5 79t32.5 79t84.5 30q53 0 85.5 -30t32.5 -79t-32.5 -79t-85.5 -30zM388 889q-15 15 -38 15t-37 -15q-15 -15 -15 -39t15 -39q14 -15 37 -15t38 15q14 15 14 39t-14 39zM685 0h-131l-64 187h-278l-64 -187h-131l264 710h140zM329 525 l-83 -240h210l-83 240q-13 39 -21 76h-2q-8 -37 -21 -76z"/>
    <glyph glyph-name="AE" unicode="Æ" horiz-adv-x="959" d="M584 314v-213h318v-101h-447v166h-244l-90 -166h-133l413 710h494v-101h-311v-195h294v-100h-294zM455 614l-190 -350h190v350z"/>
    <glyph glyph-name="Ccedilla" unicode="Ç" horiz-adv-x="705" d="M542 252l128 -26q-24 -108 -94.5 -172t-181.5 -70l-20 -32q17 14 48 14q38 0 60 -21.5t22 -60.5q0 -42 -31.5 -65.5t-85.5 -23.5q-89 0 -113 63l70 16q10 -27 40 -27q19 0 30 11t11 29q0 17 -10.5 27.5t-28.5 10.5q-20 0 -34 -15l-49 13l30 62q-144 12 -219 113 q-76 100 -76 258q0 169 89 270t245 101q128 0 205 -67t92 -185l-132 -19q-9 78 -53 121.5t-116 43.5q-92 0 -144.5 -71t-52.5 -193q0 -119 53 -193q52 -73 147 -73q68 0 112.5 42.5t58.5 118.5z"/>
    <glyph glyph-name="Egrave" unicode="È" horiz-adv-x="614" d="M279 866l93 -113h-99l-109 113h115zM217 314v-213h339v-101h-468v710h461v-101h-332v-195h315v-100h-315z"/>
    <glyph glyph-name="Eacute" unicode="É" horiz-adv-x="614" d="M370 866h115l-109 -113h-99zM217 314v-213h339v-101h-468v710h461v-101h-332v-195h315v-100h-315z"/>
    <glyph glyph-name="Ecircumflex" unicode="Ê" horiz-adv-x="614" d="M391 753l-65 73l-66 -73h-103l101 113h136l101 -113h-104zM217 314v-213h339v-101h-468v710h461v-101h-332v-195h315v-100h-315z"/>
    <glyph glyph-name="Edieresis" unicode="Ë" horiz-adv-x="614" d="M157 859h114v-106h-114v106zM382 859h114v-106h-114v106zM217 314v-213h339v-101h-468v710h461v-101h-332v-195h315v-100h-315z"/>
    <glyph glyph-name="Igrave" unicode="Ì" horiz-adv-x="305" d="M134 866l66 -113h-95l-82 113h111zM217 710v-710h-129v710h129z"/>
    <glyph glyph-name="Iacute" unicode="Í" horiz-adv-x="305" d="M201 753h-95l66 113h111zM217 710v-710h-129v710h129z"/>
    <glyph glyph-name="Icircumflex" unicode="Î" horiz-adv-x="305" d="M221 866l72 -113h-98l-42 73l-43 -73h-97l72 113h136zM217 710v-710h-129v710h129z"/>
    <glyph glyph-name="Idieresis" unicode="Ï" horiz-adv-x="305" d="M128 753h-111v106h111v-106zM289 753h-111v106h111v-106zM217 710v-710h-129v710h129z"/>
    <glyph glyph-name="Eth" unicode="Ð" horiz-adv-x="725" d="M88 710h256q156 0 250 -97t94 -255q0 -160 -94 -258q-94 -100 -252 -100h-254v329h-81v82h81v299zM217 101h121q99 0 158 74q57 73 57 183q0 111 -56 182q-55 69 -157 69h-123v-198h160v-82h-160v-228z"/>
    <glyph glyph-name="Ntilde" unicode="Ñ" horiz-adv-x="752" d="M443 745q-39 0 -77 28q-39 27 -58 27q-34 0 -48 -50l-67 19q9 51 39.5 79t76.5 28q38 0 77 -27q38 -28 58 -28q34 0 48 50l67 -19q-9 -51 -39.5 -79t-76.5 -28zM205 0h-117v710h148l267 -465q30 -53 44 -91h2q-2 70 -2 92v464h117v-710h-145l-271 467q-27 50 -43 89h-2 q2 -36 2 -94v-462z"/>
    <glyph glyph-name="Ograve" unicode="Ò" horiz-adv-x="748" d="M327 866l93 -113h-99l-109 113h115zM374 -17q-152 0 -244 101t-92 271q0 172 91 272t245 100t245 -100t91 -272q0 -171 -91 -271q-92 -101 -245 -101zM374 87q96 0 149 71t53 197t-53 197t-149 71q-95 0 -148.5 -71t-53.5 -197q0 -124 53.5 -196t148.5 -72z"/>
    <glyph glyph-name="Oacute" unicode="Ó" horiz-adv-x="748" d="M424 753h-99l93 113h115zM374 -17q-152 0 -244 101t-92 271q0 172 91 272t245 100t245 -100t91 -272q0 -171 -91 -271q-92 -101 -245 -101zM374 87q96 0 149 71t53 197t-53 197t-149 71q-95 0 -148.5 -71t-53.5 -197q0 -124 53.5 -196t148.5 -72z"/>
    <glyph glyph-name="Ocircumflex" unicode="Ô" horiz-adv-x="748" d="M442 866l101 -113h-104l-65 73l-66 -73h-103l101 113h136zM374 -17q-152 0 -244 101t-92 271q0 172 91 272t245 100t245 -100t91 -272q0 -171 -91 -271q-92 -101 -245 -101zM374 87q96 0 149 71t53 197t-53 197t-149 71q-95 0 -148.5 -71t-53.5 -197q0 -124 53.5 -196 t148.5 -72z"/>
    <glyph glyph-name="Otilde" unicode="Õ" horiz-adv-x="748" d="M441 745q-39 0 -77 28q-39 27 -58 27q-34 0 -48 -50l-67 19q9 51 39.5 79t76.5 28q38 0 77 -27q38 -28 58 -28q34 0 48 50l67 -19q-9 -51 -39.5 -79t-76.5 -28zM374 -17q-152 0 -244 101t-92 271q0 172 91 272t245 100t245 -100t91 -272q0 -171 -91 -271 q-92 -101 -245 -101zM374 87q96 0 149 71t53 197t-53 197t-149 71q-95 0 -148.5 -71t-53.5 -197q0 -124 53.5 -196t148.5 -72z"/>
    <glyph glyph-name="Odieresis" unicode="Ö" horiz-adv-x="748" d="M319 753h-114v106h114v-106zM544 753h-114v106h114v-106zM374 -17q-152 0 -244 101t-92 271q0 172 91 272t245 100t245 -100t91 -272q0 -171 -91 -271q-92 -101 -245 -101zM374 87q96 0 149 71t53 197t-53 197t-149 71q-95 0 -148.5 -71t-53.5 -197q0 -124 53.5 -196 t148.5 -72z"/>
    <glyph glyph-name="multiply" unicode="×" d="M491 577l69 -68l-182 -182l182 -181l-68 -69l-182 182l-182 -182l-68 68l182 182l-182 182l68 68l182 -181z"/>
    <glyph glyph-name="Oslash" unicode="Ø" horiz-adv-x="748" d="M676 687l-52 -66q86 -101 86 -266q0 -171 -91 -271q-92 -101 -245 -101q-118 0 -200 61l-47 -61l-54 39l52 67q-87 99 -87 266q0 172 91 272t245 100q119 0 201 -61l47 60zM172 355q0 -95 33 -163l298 382q-50 49 -129 49q-95 0 -148.5 -71t-53.5 -197zM374 87 q96 0 149 71t53 197q0 96 -32 162l-298 -381q50 -49 128 -49z"/>
    <glyph glyph-name="Ugrave" unicode="Ù" horiz-adv-x="721" d="M313 866l93 -113h-99l-109 113h115zM75 248v462h129v-455q0 -76 41 -119.5t115 -43.5q75 0 116 43.5t41 119.5v455h129v-462q0 -123 -76 -194t-210 -71t-209.5 71t-75.5 194z"/>
    <glyph glyph-name="Uacute" unicode="Ú" horiz-adv-x="721" d="M410 753h-99l93 113h115zM75 248v462h129v-455q0 -76 41 -119.5t115 -43.5q75 0 116 43.5t41 119.5v455h129v-462q0 -123 -76 -194t-210 -71t-209.5 71t-75.5 194z"/>
    <glyph glyph-name="Ucircumflex" unicode="Û" horiz-adv-x="721" d="M428 866l101 -113h-104l-65 73l-66 -73h-103l101 113h136zM75 248v462h129v-455q0 -76 41 -119.5t115 -43.5q75 0 116 43.5t41 119.5v455h129v-462q0 -123 -76 -194t-210 -71t-209.5 71t-75.5 194z"/>
    <glyph glyph-name="Udieresis" unicode="Ü" horiz-adv-x="721" d="M305 753h-114v106h114v-106zM530 753h-114v106h114v-106zM75 248v462h129v-455q0 -76 41 -119.5t115 -43.5q75 0 116 43.5t41 119.5v455h129v-462q0 -123 -76 -194t-210 -71t-209.5 71t-75.5 194z"/>
    <glyph glyph-name="Yacute" unicode="Ý" horiz-adv-x="605" d="M353 753h-99l93 113h115zM368 0h-131v271l-239 439h140l145 -283q15 -28 19 -46h2q4 19 18 46l145 283h140l-239 -439v-271z"/>
    <glyph glyph-name="Thorn" unicode="Þ" horiz-adv-x="600" d="M217 580h133q107 0 170 -55.5t63 -150.5t-64 -151.5t-171 -56.5h-131v-166h-129v710h129v-130zM217 264h111q55 0 87 29t32 79t-32 79t-87 29h-111v-216z"/>
    <glyph glyph-name="germandbls" unicode="ß" horiz-adv-x="594" d="M78 0v511q0 110 57.5 168t167.5 58q102 0 157.5 -44.5t55.5 -127.5q0 -67 -37.5 -111t-103.5 -52q91 -8 138.5 -56.5t47.5 -132.5q0 -106 -64 -163t-183 -57q-35 0 -59 4v90q23 -3 46 -3q67 0 102 34.5t35 99.5q0 128 -158 133h-32v90h33q113 5 113 115q0 45 -25.5 70 t-70.5 25q-100 0 -100 -129v-522h-120z"/>
    <glyph glyph-name="agrave" unicode="à" horiz-adv-x="555" d="M223 723l100 -149h-98l-128 149h126zM206 -12q-77 0 -123.5 40.5t-46.5 107.5q0 76 61 113q49 28 163 45l106 13v13q0 56 -22.5 81.5t-70.5 25.5q-44 0 -69.5 -22.5t-28.5 -65.5h-123q6 80 65 126.5t156 46.5q111 0 162.5 -49.5t51.5 -158.5v-149q0 -103 15 -155h-120 q-6 34 -8 86q-18 -46 -62.5 -72t-105.5 -26zM245 73q56 0 90 36t34 96v32l-113 -17q-96 -16 -96 -78q0 -32 22.5 -50.5t62.5 -18.5z"/>
    <glyph glyph-name="aacute" unicode="á" horiz-adv-x="555" d="M326 574h-98l100 149h126zM206 -12q-77 0 -123.5 40.5t-46.5 107.5q0 76 61 113q49 28 163 45l106 13v13q0 56 -22.5 81.5t-70.5 25.5q-44 0 -69.5 -22.5t-28.5 -65.5h-123q6 80 65 126.5t156 46.5q111 0 162.5 -49.5t51.5 -158.5v-149q0 -103 15 -155h-120q-6 34 -8 86 q-18 -46 -62.5 -72t-105.5 -26zM245 73q56 0 90 36t34 96v32l-113 -17q-96 -16 -96 -78q0 -32 22.5 -50.5t62.5 -18.5z"/>
    <glyph glyph-name="acircumflex" unicode="â" horiz-adv-x="555" d="M337 723l107 -149h-96l-72 102l-71 -102h-97l108 149h121zM206 -12q-77 0 -123.5 40.5t-46.5 107.5q0 76 61 113q49 28 163 45l106 13v13q0 56 -22.5 81.5t-70.5 25.5q-44 0 -69.5 -22.5t-28.5 -65.5h-123q6 80 65 126.5t156 46.5q111 0 162.5 -49.5t51.5 -158.5v-149 q0 -103 15 -155h-120q-6 34 -8 86q-18 -46 -62.5 -72t-105.5 -26zM245 73q56 0 90 36t34 96v32l-113 -17q-96 -16 -96 -78q0 -32 22.5 -50.5t62.5 -18.5z"/>
    <glyph glyph-name="atilde" unicode="ã" horiz-adv-x="555" d="M350 578q-36 0 -83.5 33.5t-64.5 33.5q-19 0 -30.5 -13.5t-19.5 -43.5l-67 18q9 57 40 88.5t79 31.5q36 0 83.5 -33t64.5 -33q19 0 30.5 13t19.5 44l67 -19q-9 -57 -40 -88.5t-79 -31.5zM206 -12q-77 0 -123.5 40.5t-46.5 107.5q0 76 61 113q49 28 163 45l106 13v13 q0 56 -22.5 81.5t-70.5 25.5q-44 0 -69.5 -22.5t-28.5 -65.5h-123q6 80 65 126.5t156 46.5q111 0 162.5 -49.5t51.5 -158.5v-149q0 -103 15 -155h-120q-6 34 -8 86q-18 -46 -62.5 -72t-105.5 -26zM245 73q56 0 90 36t34 96v32l-113 -17q-96 -16 -96 -78q0 -32 22.5 -50.5 t62.5 -18.5z"/>
    <glyph glyph-name="adieresis" unicode="ä" horiz-adv-x="555" d="M229 585h-117v117h117v-117zM440 585h-117v117h117v-117zM206 -12q-77 0 -123.5 40.5t-46.5 107.5q0 76 61 113q49 28 163 45l106 13v13q0 56 -22.5 81.5t-70.5 25.5q-44 0 -69.5 -22.5t-28.5 -65.5h-123q6 80 65 126.5t156 46.5q111 0 162.5 -49.5t51.5 -158.5v-149 q0 -103 15 -155h-120q-6 34 -8 86q-18 -46 -62.5 -72t-105.5 -26zM245 73q56 0 90 36t34 96v32l-113 -17q-96 -16 -96 -78q0 -32 22.5 -50.5t62.5 -18.5z"/>
    <glyph glyph-name="aring" unicode="å" horiz-adv-x="555" d="M361 583q-32 -31 -85 -31t-85 31q-33 30 -33 78q0 49 33 79.5t85 30.5t85 -30.5t33 -79.5q0 -48 -33 -78zM239 623q16 -14 37 -14.5t37.5 15t14.5 37.5q3 33 -24.5 47t-55 0t-24.5 -47q0 -23 15 -38zM206 -12q-77 0 -123.5 40.5t-46.5 107.5q0 76 61 113q49 28 163 45 l106 13v13q0 56 -22.5 81.5t-70.5 25.5q-44 0 -69.5 -22.5t-28.5 -65.5h-123q6 80 65 126.5t156 46.5q111 0 162.5 -49.5t51.5 -158.5v-149q0 -103 15 -155h-120q-6 34 -8 86q-18 -46 -62.5 -72t-105.5 -26zM245 73q56 0 90 36t34 96v32l-113 -17q-96 -16 -96 -78 q0 -32 22.5 -50.5t62.5 -18.5z"/>
    <glyph glyph-name="ae" unicode="æ" horiz-adv-x="853" d="M811 265v-44h-332q1 -63 35 -101t89 -38q79 0 111 83l93 -42q-27 -65 -81 -100t-128 -35q-134 0 -193 105q-26 -51 -77.5 -78t-118.5 -27q-80 0 -126.5 39t-46.5 108q0 127 180 150l144 17v16q0 107 -95 107q-90 0 -95 -86h-120q6 81 62 127t152 46q114 0 164 -71 q59 71 166 71q103 0 160 -65t57 -182zM479 300h212q1 62 -25.5 97t-74.5 35q-49 0 -80 -36t-32 -96zM363 205v26l-103 -13q-53 -7 -76.5 -26t-23.5 -55q0 -28 22.5 -46t57.5 -18q53 0 88 34t35 98z"/>
    <glyph glyph-name="ccedilla" unicode="ç" horiz-adv-x="540" d="M283 83q91 0 108 107l113 -23q-13 -77 -64.5 -124t-131.5 -54l-23 -37q17 14 48 14q38 0 60 -21.5t22 -60.5q0 -42 -31.5 -65.5t-85.5 -23.5q-89 0 -113 63l70 16q11 -27 40 -27q19 0 30 11t11 29q0 17 -10.5 27.5t-28.5 10.5q-21 0 -34 -15l-49 13l33 67 q-96 12 -152.5 82t-56.5 178q0 122 66 192t180 70q93 0 151 -47.5t69 -132.5l-117 -19q-6 51 -33.5 78t-72.5 27q-56 0 -88 -44t-32 -121q0 -81 32 -125.5t90 -44.5z"/>
    <glyph glyph-name="egrave" unicode="è" horiz-adv-x="548" d="M219 723l100 -149h-98l-128 149h126zM505 275v-55h-351q1 -63 37.5 -100.5t95.5 -37.5q87 0 122 83l92 -42q-28 -65 -84.5 -100t-133.5 -35q-115 0 -180 67.5t-65 189.5q0 124 63.5 195.5t175.5 71.5q109 0 168.5 -61.5t59.5 -175.5zM154 299h233v8q0 61 -29 93t-83 32 q-57 0 -88 -34.5t-33 -98.5z"/>
    <glyph glyph-name="eacute" unicode="é" horiz-adv-x="548" d="M324 723h126l-128 -149h-98zM505 275v-55h-351q1 -63 37.5 -100.5t95.5 -37.5q87 0 122 83l92 -42q-28 -65 -84.5 -100t-133.5 -35q-115 0 -180 67.5t-65 189.5q0 124 63.5 195.5t175.5 71.5q109 0 168.5 -61.5t59.5 -175.5zM154 299h233v8q0 61 -29 93t-83 32 q-57 0 -88 -34.5t-33 -98.5z"/>
    <glyph glyph-name="ecircumflex" unicode="ê" horiz-adv-x="548" d="M344 574l-72 102l-71 -102h-97l108 149h121l107 -149h-96zM505 275v-55h-351q1 -63 37.5 -100.5t95.5 -37.5q87 0 122 83l92 -42q-28 -65 -84.5 -100t-133.5 -35q-115 0 -180 67.5t-65 189.5q0 124 63.5 195.5t175.5 71.5q109 0 168.5 -61.5t59.5 -175.5zM154 299h233v8 q0 61 -29 93t-83 32q-57 0 -88 -34.5t-33 -98.5z"/>
    <glyph glyph-name="edieresis" unicode="ë" horiz-adv-x="548" d="M108 702h117v-117h-117v117zM319 702h117v-117h-117v117zM505 275v-55h-351q1 -63 37.5 -100.5t95.5 -37.5q87 0 122 83l92 -42q-28 -65 -84.5 -100t-133.5 -35q-115 0 -180 67.5t-65 189.5q0 124 63.5 195.5t175.5 71.5q109 0 168.5 -61.5t59.5 -175.5zM154 299h233v8 q0 61 -29 93t-83 32q-57 0 -88 -34.5t-33 -98.5z"/>
    <glyph glyph-name="igrave" unicode="ì" horiz-adv-x="279" d="M115 723l71 -149h-98l-89 149h116zM200 0h-120v500h120v-500z"/>
    <glyph glyph-name="iacute" unicode="í" horiz-adv-x="279" d="M190 574h-98l71 149h116zM200 0h-120v500h120v-500z"/>
    <glyph glyph-name="icircumflex" unicode="î" horiz-adv-x="279" d="M201 723l77 -149h-91l-47 103l-46 -103h-92l78 149h121zM200 0h-120v500h120v-500z"/>
    <glyph glyph-name="idieresis" unicode="ï" horiz-adv-x="279" d="M117 585h-111v117h111v-117zM274 585h-111v117h111v-117zM200 0h-120v500h120v-500z"/>
    <glyph glyph-name="eth" unicode="ð" horiz-adv-x="554" d="M466 651l-61 -22q121 -145 121 -357q0 -130 -69 -206q-69 -78 -181 -78q-111 0 -174 69.5t-63 192.5q0 121 58 191.5t157 70.5q89 0 128 -76h2q-23 83 -86 154l-114 -42l-18 44l95 34q-36 32 -84 58l93 56q57 -31 101 -73l78 28zM281 80q59 0 91.5 45t32.5 127t-32 126.5 t-91 44.5q-56 0 -87.5 -45t-31.5 -126q0 -80 31.5 -126t86.5 -46z"/>
    <glyph glyph-name="ntilde" unicode="ñ" horiz-adv-x="593" d="M390 578q-36 0 -83.5 33.5t-64.5 33.5q-19 0 -30.5 -13.5t-19.5 -43.5l-67 18q9 57 40 88.5t79 31.5q36 0 83.5 -33t64.5 -33q19 0 30.5 13t19.5 44l67 -19q-9 -57 -40 -88.5t-79 -31.5zM200 0h-120v500h114v-97q51 110 166 110q166 0 166 -203v-310h-121v298 q0 118 -93 118q-53 0 -82.5 -40t-29.5 -111v-265z"/>
    <glyph glyph-name="ograve" unicode="ò" horiz-adv-x="566" d="M230 723l100 -149h-98l-128 149h126zM461 58q-67 -70 -178 -70q-110 0 -177 70q-68 70 -68 193q0 122 68 192q68 69 177 69q111 0 178 -69q67 -68 67 -192q0 -125 -67 -193zM283 79q58 0 90 44t32 128q0 170 -122 170q-60 0 -91 -43q-32 -44 -32 -127q0 -84 32 -128 t91 -44z"/>
    <glyph glyph-name="oacute" unicode="ó" horiz-adv-x="566" d="M333 574h-98l100 149h126zM461 58q-67 -70 -178 -70q-110 0 -177 70q-68 70 -68 193q0 122 68 192q68 69 177 69q111 0 178 -69q67 -68 67 -192q0 -125 -67 -193zM283 79q58 0 90 44t32 128q0 170 -122 170q-60 0 -91 -43q-32 -44 -32 -127q0 -84 32 -128t91 -44z"/>
    <glyph glyph-name="ocircumflex" unicode="ô" horiz-adv-x="566" d="M344 723l107 -149h-96l-72 102l-71 -102h-97l108 149h121zM461 58q-67 -70 -178 -70q-110 0 -177 70q-68 70 -68 193q0 122 68 192q68 69 177 69q111 0 178 -69q67 -68 67 -192q0 -125 -67 -193zM283 79q58 0 90 44t32 128q0 170 -122 170q-60 0 -91 -43 q-32 -44 -32 -127q0 -84 32 -128t91 -44z"/>
    <glyph glyph-name="otilde" unicode="õ" horiz-adv-x="566" d="M357 578q-36 0 -83.5 33.5t-64.5 33.5q-19 0 -30.5 -13.5t-19.5 -43.5l-67 18q9 57 40 88.5t79 31.5q36 0 83.5 -33t64.5 -33q19 0 30.5 13t19.5 44l67 -19q-9 -57 -40 -88.5t-79 -31.5zM461 58q-67 -70 -178 -70q-110 0 -177 70q-68 70 -68 193q0 122 68 192 q68 69 177 69q111 0 178 -69q67 -68 67 -192q0 -125 -67 -193zM283 79q58 0 90 44t32 128q0 170 -122 170q-60 0 -91 -43q-32 -44 -32 -127q0 -84 32 -128t91 -44z"/>
    <glyph glyph-name="odieresis" unicode="ö" horiz-adv-x="566" d="M236 585h-117v117h117v-117zM447 585h-117v117h117v-117zM461 58q-67 -70 -178 -70q-110 0 -177 70q-68 70 -68 193q0 122 68 192q68 69 177 69q111 0 178 -69q67 -68 67 -192q0 -125 -67 -193zM283 79q58 0 90 44t32 128q0 170 -122 170q-60 0 -91 -43q-32 -44 -32 -127 q0 -84 32 -128t91 -44z"/>
    <glyph glyph-name="divide" unicode="÷" horiz-adv-x="566" d="M324 467q-19 -16 -43 -17t-43 16.5t-17 42.5q0 27 17 43.5t43 16.5t42.5 -16.5t16.5 -43.5q0 -26 -16 -42zM519 282h-472v90h472v-90zM324 100q-17 -17 -43 -17t-43 17t-17 43.5t17 43.5q26 27 66 11.5t36 -55.5q0 -27 -16 -43z"/>
    <glyph glyph-name="oslash" unicode="ø" horiz-adv-x="566" d="M504 486l-39 -48q63 -69 63 -187q0 -125 -67 -193q-67 -70 -178 -70q-86 0 -145 42l-37 -46l-40 29l40 50q-63 69 -63 188q0 122 68 192q68 69 177 69q85 0 144 -41l36 45zM160 251q0 -57 15 -96l188 236q-30 30 -80 30q-60 0 -91.5 -43.5t-31.5 -126.5zM283 79 q58 0 90 44t32 128q0 54 -14 94l-188 -234q30 -32 80 -32z"/>
    <glyph glyph-name="ugrave" unicode="ù" horiz-adv-x="586" d="M234 723l100 -149h-98l-128 149h126zM237 -12q-169 0 -169 191v321h120v-303q0 -113 88 -113q50 0 80 38t30 101v277h121v-500h-114v93q-18 -47 -60.5 -76t-95.5 -29z"/>
    <glyph glyph-name="uacute" unicode="ú" horiz-adv-x="586" d="M337 574h-98l100 149h126zM237 -12q-169 0 -169 191v321h120v-303q0 -113 88 -113q50 0 80 38t30 101v277h121v-500h-114v93q-18 -47 -60.5 -76t-95.5 -29z"/>
    <glyph glyph-name="ucircumflex" unicode="û" horiz-adv-x="586" d="M348 723l107 -149h-96l-72 102l-71 -102h-97l108 149h121zM237 -12q-169 0 -169 191v321h120v-303q0 -113 88 -113q50 0 80 38t30 101v277h121v-500h-114v93q-18 -47 -60.5 -76t-95.5 -29z"/>
    <glyph glyph-name="udieresis" unicode="ü" horiz-adv-x="586" d="M240 585h-117v117h117v-117zM451 585h-117v117h117v-117zM237 -12q-169 0 -169 191v321h120v-303q0 -113 88 -113q50 0 80 38t30 101v277h121v-500h-114v93q-18 -47 -60.5 -76t-95.5 -29z"/>
    <glyph glyph-name="yacute" unicode="ý" horiz-adv-x="511" d="M309 574h-98l100 149h126zM97 -201q-28 0 -56 5v94q31 -3 46 -3q42 0 66.5 19t38.5 61l10 30l-195 495h132l109 -327q9 -26 15 -59h2q2 19 15 59l99 327h125l-188 -528q-33 -93 -84.5 -133t-134.5 -40z"/>
    <glyph glyph-name="thorn" unicode="þ" horiz-adv-x="599" d="M205 -195h-120v920h120v-300q49 87 155 87q91 0 146 -73q54 -74 54 -188q0 -116 -55 -189q-56 -74 -149 -74q-102 0 -151 81v-264zM319 80q53 0 84.5 47.5t31.5 123.5t-31.5 122.5t-85.5 46.5q-55 0 -85.5 -41.5t-30.5 -114.5v-29q0 -73 30.5 -114t86.5 -41z"/>
    <glyph glyph-name="ydieresis" unicode="ÿ" horiz-adv-x="511" d="M212 585h-117v117h117v-117zM423 585h-117v117h117v-117zM97 -201q-28 0 -56 5v94q31 -3 46 -3q42 0 66.5 19t38.5 61l10 30l-195 495h132l109 -327q9 -26 15 -59h2q2 19 15 59l99 327h125l-188 -528q-33 -93 -84.5 -133t-134.5 -40z"/>
    <glyph glyph-name="Amacron" unicode="Ā" horiz-adv-x="702" d="M187 844h328v-81h-328v81zM685 0h-131l-64 187h-278l-64 -187h-131l264 710h140zM329 525l-83 -240h210l-83 240q-13 39 -21 76h-2q-8 -37 -21 -76z"/>
    <glyph glyph-name="amacron" unicode="ā" horiz-adv-x="555" d="M435 603h-319v81h319v-81zM206 -12q-77 0 -123.5 40.5t-46.5 107.5q0 76 61 113q49 28 163 45l106 13v13q0 56 -22.5 81.5t-70.5 25.5q-44 0 -69.5 -22.5t-28.5 -65.5h-123q6 80 65 126.5t156 46.5q111 0 162.5 -49.5t51.5 -158.5v-149q0 -103 15 -155h-120q-6 34 -8 86 q-18 -46 -62.5 -72t-105.5 -26zM245 73q56 0 90 36t34 96v32l-113 -17q-96 -16 -96 -78q0 -32 22.5 -50.5t62.5 -18.5z"/>
    <glyph glyph-name="Abreve" unicode="Ă" horiz-adv-x="702" d="M351 748q-73 0 -114.5 30.5t-46.5 87.5h86q7 -52 75 -52q69 0 76 52h86q-5 -57 -46.5 -87.5t-115.5 -30.5zM685 0h-131l-64 187h-278l-64 -187h-131l264 710h140zM329 525l-83 -240h210l-83 240q-13 39 -21 76h-2q-8 -37 -21 -76z"/>
    <glyph glyph-name="abreve" unicode="ă" horiz-adv-x="555" d="M115 723h86q5 -84 75 -84q72 0 76 84h86q-4 -77 -47 -115.5t-115 -38.5q-71 0 -114 39t-47 115zM206 -12q-77 0 -123.5 40.5t-46.5 107.5q0 76 61 113q49 28 163 45l106 13v13q0 56 -22.5 81.5t-70.5 25.5q-44 0 -69.5 -22.5t-28.5 -65.5h-123q6 80 65 126.5t156 46.5 q111 0 162.5 -49.5t51.5 -158.5v-149q0 -103 15 -155h-120q-6 34 -8 86q-18 -46 -62.5 -72t-105.5 -26zM245 73q56 0 90 36t34 96v32l-113 -17q-96 -16 -96 -78q0 -32 22.5 -50.5t62.5 -18.5z"/>
    <glyph glyph-name="Aogonek" unicode="Ą" horiz-adv-x="702" d="M628 -96l63 -21q-29 -86 -118 -86q-52 0 -81.5 24t-29.5 66q0 71 92 113l-64 187h-278l-64 -187h-131l264 710h140l264 -710h-36q-55 -15 -82 -42.5t-27 -59.5q0 -39 39 -39q33 0 49 45zM329 525l-83 -240h210l-83 240q-13 39 -21 76h-2q-8 -37 -21 -76z"/>
    <glyph glyph-name="aogonek" unicode="ą" horiz-adv-x="555" d="M456 -96l63 -21q-29 -86 -118 -86q-52 0 -81.5 24t-29.5 66q0 71 92 113q-6 34 -8 86q-18 -46 -62.5 -72t-105.5 -26q-77 0 -123.5 40.5t-46.5 107.5q0 76 61 113q49 28 163 45l106 13v13q0 56 -22.5 81.5t-70.5 25.5q-44 0 -69.5 -22.5t-28.5 -65.5h-123q6 80 65 126.5 t156 46.5q111 0 162.5 -49.5t51.5 -158.5v-149q0 -103 15 -155h-25q-55 -15 -82 -42.5t-27 -59.5q0 -39 39 -39q33 0 49 45zM369 205v32l-113 -17q-96 -16 -96 -78q0 -32 22.5 -50.5t62.5 -18.5q56 0 90 36t34 96z"/>
    <glyph glyph-name="Cacute" unicode="Ć" horiz-adv-x="705" d="M418 753h-99l93 113h115zM370 -17q-162 0 -247 103q-85 101 -85 270t89 270t245 101q128 0 205 -67t92 -185l-132 -19q-9 78 -53 121.5t-116 43.5q-92 0 -144.5 -71t-52.5 -193q0 -119 53 -193q52 -73 147 -73q68 0 112.5 42.5t58.5 118.5l128 -26q-25 -115 -101 -179 t-199 -64z"/>
    <glyph glyph-name="cacute" unicode="ć" horiz-adv-x="540" d="M323 574h-98l100 149h126zM283 -12q-112 0 -178 72q-67 70 -67 190q0 122 66 192t180 70q93 0 151 -47.5t69 -132.5l-117 -19q-6 51 -33.5 78t-72.5 27q-56 0 -88 -44t-32 -121q0 -81 32 -125.5t90 -44.5q91 0 108 107l113 -23q-13 -83 -72.5 -131t-148.5 -48z"/>
    <glyph glyph-name="Ccircumflex" unicode="Ĉ" horiz-adv-x="705" d="M436 866l101 -113h-104l-65 73l-66 -73h-103l101 113h136zM370 -17q-162 0 -247 103q-85 101 -85 270t89 270t245 101q128 0 205 -67t92 -185l-132 -19q-9 78 -53 121.5t-116 43.5q-92 0 -144.5 -71t-52.5 -193q0 -119 53 -193q52 -73 147 -73q68 0 112.5 42.5 t58.5 118.5l128 -26q-25 -115 -101 -179t-199 -64z"/>
    <glyph glyph-name="ccircumflex" unicode="ĉ" horiz-adv-x="540" d="M334 723l107 -149h-96l-72 102l-71 -102h-97l108 149h121zM283 -12q-112 0 -178 72q-67 70 -67 190q0 122 66 192t180 70q93 0 151 -47.5t69 -132.5l-117 -19q-6 51 -33.5 78t-72.5 27q-56 0 -88 -44t-32 -121q0 -81 32 -125.5t90 -44.5q91 0 108 107l113 -23 q-13 -83 -72.5 -131t-148.5 -48z"/>
    <glyph glyph-name="Cdotaccent" unicode="Ċ" horiz-adv-x="705" d="M434 753h-133v112h133v-112zM370 -17q-162 0 -247 103q-85 101 -85 270t89 270t245 101q128 0 205 -67t92 -185l-132 -19q-9 78 -53 121.5t-116 43.5q-92 0 -144.5 -71t-52.5 -193q0 -119 53 -193q52 -73 147 -73q68 0 112.5 42.5t58.5 118.5l128 -26q-25 -115 -101 -179 t-199 -64z"/>
    <glyph glyph-name="cdotaccent" unicode="ċ" horiz-adv-x="540" d="M337 583h-130v125h130v-125zM283 -12q-112 0 -178 72q-67 70 -67 190q0 122 66 192t180 70q93 0 151 -47.5t69 -132.5l-117 -19q-6 51 -33.5 78t-72.5 27q-56 0 -88 -44t-32 -121q0 -81 32 -125.5t90 -44.5q91 0 108 107l113 -23q-13 -83 -72.5 -131t-148.5 -48z"/>
    <glyph glyph-name="Ccaron" unicode="Č" horiz-adv-x="705" d="M433 861h104l-101 -113h-136l-101 113h103l66 -73zM370 -17q-162 0 -247 103q-85 101 -85 270t89 270t245 101q128 0 205 -67t92 -185l-132 -19q-9 78 -53 121.5t-116 43.5q-92 0 -144.5 -71t-52.5 -193q0 -119 53 -193q52 -73 147 -73q68 0 112.5 42.5t58.5 118.5 l128 -26q-25 -115 -101 -179t-199 -64z"/>
    <glyph glyph-name="ccaron" unicode="č" horiz-adv-x="540" d="M212 569l-107 149h96l72 -102l71 102h97l-108 -149h-121zM283 -12q-112 0 -178 72q-67 70 -67 190q0 122 66 192t180 70q93 0 151 -47.5t69 -132.5l-117 -19q-6 51 -33.5 78t-72.5 27q-56 0 -88 -44t-32 -121q0 -81 32 -125.5t90 -44.5q91 0 108 107l113 -23 q-13 -83 -72.5 -131t-148.5 -48z"/>
    <glyph glyph-name="Dcaron" unicode="Ď" horiz-adv-x="725" d="M408 861h104l-101 -113h-136l-101 113h103l66 -73zM342 0h-254v710h256q156 0 250 -97t94 -255q0 -160 -94 -258q-94 -100 -252 -100zM217 609v-508h121q99 0 158 74q57 73 57 183q0 111 -56 182q-55 69 -157 69h-123z"/>
    <glyph glyph-name="dcaron" unicode="ď" horiz-adv-x="640" d="M241 -12q-91 0 -146 72q-56 73 -56 189t59 190q58 73 152 73q100 0 144 -83v296h120v-725h-113v90q-45 -102 -160 -102zM592 526l-21 42q27 6 37.5 16t10.5 30h-58v96h113v-84q0 -82 -82 -100zM282 80q53 0 84 41.5t31 111.5v32q0 73 -31 114t-85 41q-55 0 -86 -44.5 t-31 -124.5t31.5 -125.5t86.5 -45.5z"/>
    <glyph glyph-name="Dcroat" unicode="Đ" horiz-adv-x="725" d="M88 710h256q156 0 250 -97t94 -255q0 -160 -94 -258q-94 -100 -252 -100h-254v329h-81v82h81v299zM217 101h121q99 0 158 74q57 73 57 183q0 111 -56 182q-55 69 -157 69h-123v-198h160v-82h-160v-228z"/>
    <glyph glyph-name="dslash" unicode="đ" horiz-adv-x="599" d="M514 641h89v-54h-89v-587h-113v90q-45 -102 -160 -102q-91 0 -146 72q-56 73 -56 189t59 190q58 73 152 73q100 0 144 -83v158h-168v54h168v84h120v-84zM397 233v32q0 73 -31 114t-85 41q-55 0 -86 -44.5t-31 -124.5t31.5 -125.5t86.5 -45.5q53 0 84 41.5t31 111.5z"/>
    <glyph glyph-name="Emacron" unicode="Ē" horiz-adv-x="614" d="M162 844h328v-81h-328v81zM217 314v-213h339v-101h-468v710h461v-101h-332v-195h315v-100h-315z"/>
    <glyph glyph-name="emacron" unicode="ē" horiz-adv-x="548" d="M112 684h319v-81h-319v81zM505 275v-55h-351q1 -63 37.5 -100.5t95.5 -37.5q87 0 122 83l92 -42q-28 -65 -84.5 -100t-133.5 -35q-115 0 -180 67.5t-65 189.5q0 124 63.5 195.5t175.5 71.5q109 0 168.5 -61.5t59.5 -175.5zM154 299h233v8q0 61 -29 93t-83 32 q-57 0 -88 -34.5t-33 -98.5z"/>
    <glyph glyph-name="Ebreve" unicode="Ĕ" horiz-adv-x="614" d="M326 748q-73 0 -114.5 30.5t-46.5 87.5h86q7 -52 75 -52q69 0 76 52h86q-5 -57 -46.5 -87.5t-115.5 -30.5zM217 314v-213h339v-101h-468v710h461v-101h-332v-195h315v-100h-315z"/>
    <glyph glyph-name="ebreve" unicode="ĕ" horiz-adv-x="548" d="M272 569q-71 0 -114 39t-47 115h86q5 -84 75 -84q72 0 76 84h86q-4 -77 -47 -115.5t-115 -38.5zM505 275v-55h-351q1 -63 37.5 -100.5t95.5 -37.5q87 0 122 83l92 -42q-28 -65 -84.5 -100t-133.5 -35q-115 0 -180 67.5t-65 189.5q0 124 63.5 195.5t175.5 71.5 q109 0 168.5 -61.5t59.5 -175.5zM154 299h233v8q0 61 -29 93t-83 32q-57 0 -88 -34.5t-33 -98.5z"/>
    <glyph glyph-name="Edotaccent" unicode="Ė" horiz-adv-x="614" d="M259 865h133v-112h-133v112zM217 314v-213h339v-101h-468v710h461v-101h-332v-195h315v-100h-315z"/>
    <glyph glyph-name="edotaccent" unicode="ė" horiz-adv-x="548" d="M206 708h130v-125h-130v125zM505 275v-55h-351q1 -63 37.5 -100.5t95.5 -37.5q87 0 122 83l92 -42q-28 -65 -84.5 -100t-133.5 -35q-115 0 -180 67.5t-65 189.5q0 124 63.5 195.5t175.5 71.5q109 0 168.5 -61.5t59.5 -175.5zM154 299h233v8q0 61 -29 93t-83 32 q-57 0 -88 -34.5t-33 -98.5z"/>
    <glyph glyph-name="Eogonek" unicode="Ę" horiz-adv-x="614" d="M535 -96l63 -21q-29 -86 -118 -86q-52 0 -81.5 24t-29.5 66q0 71 92 113h-373v710h461v-101h-332v-195h315v-100h-315v-213h339v-101q-55 -15 -82 -42.5t-27 -59.5q0 -39 39 -39q32 0 49 45z"/>
    <glyph glyph-name="eogonek" unicode="ę" horiz-adv-x="548" d="M505 275v-55h-351q1 -63 37.5 -100.5t95.5 -37.5q87 0 122 83l92 -42q-43 -102 -151 -127q-95 -33 -95 -98q0 -39 39 -39q32 0 49 45l63 -21q-29 -86 -118 -86q-52 0 -81.5 24t-29.5 66q0 62 71 103q-100 10 -155 76t-55 179q0 124 63.5 195.5t175.5 71.5 q109 0 168.5 -61.5t59.5 -175.5zM154 299h233v8q0 61 -29 93t-83 32q-57 0 -88 -34.5t-33 -98.5z"/>
    <glyph glyph-name="Ecaron" unicode="Ě" horiz-adv-x="614" d="M495 861l-101 -113h-136l-101 113h103l66 -73l65 73h104zM217 314v-213h339v-101h-468v710h461v-101h-332v-195h315v-100h-315z"/>
    <glyph glyph-name="ecaron" unicode="ě" horiz-adv-x="548" d="M440 718l-108 -149h-121l-107 149h96l72 -102l71 102h97zM505 275v-55h-351q1 -63 37.5 -100.5t95.5 -37.5q87 0 122 83l92 -42q-28 -65 -84.5 -100t-133.5 -35q-115 0 -180 67.5t-65 189.5q0 124 63.5 195.5t175.5 71.5q109 0 168.5 -61.5t59.5 -175.5zM154 299h233v8 q0 61 -29 93t-83 32q-57 0 -88 -34.5t-33 -98.5z"/>
    <glyph glyph-name="Gcircumflex" unicode="Ĝ" horiz-adv-x="732" d="M437 866l101 -113h-104l-65 73l-66 -73h-103l101 113h136zM351 -17q-145 0 -229 102t-84 269q0 168 91 271q90 102 247 102q139 0 211 -72q64 -64 78 -144l-128 -22q-11 61 -51.5 98.5t-111.5 37.5q-95 0 -149.5 -73t-54.5 -197q0 -123 53.5 -195.5t151.5 -72.5 q50 0 88 18.5t57 49.5q36 58 36 115v13h-192v99h309v-382h-92l-11 109q-25 -58 -83.5 -92t-135.5 -34z"/>
    <glyph glyph-name="gcircumflex" unicode="ĝ" horiz-adv-x="550" d="M345 592l-72 87l-71 -87h-97l108 131h121l107 -131h-96zM493 496q-49 0 -72 -32q53 -47 53 -120q0 -76 -56 -123.5t-149 -47.5q-57 0 -101 18q-25 -13 -25 -38q0 -46 77 -46h130q87 0 132 -37t45 -107q0 -81 -68 -125.5t-199 -44.5q-117 0 -175.5 34.5t-58.5 94.5 q0 69 83 98q-63 26 -63 90q0 74 78 106q-61 48 -61 128q0 76 56 122t150 46q59 0 105 -20q27 92 132 92q14 0 27 -3v-90q-25 5 -40 5zM269 246q41 0 66.5 27t25.5 70q0 44 -25 70q-26 26 -67 26t-67 -26q-25 -26 -25 -69t25 -70.5t67 -27.5zM332 4l-130 1q-8 0 -40 2 q-37 -22 -37 -63q0 -73 144 -73q150 0 150 72q0 61 -87 61z"/>
    <glyph glyph-name="Gbreve" unicode="Ğ" horiz-adv-x="732" d="M208 866h86q7 -52 75 -52q69 0 76 52h86q-5 -57 -46.5 -87.5t-115.5 -30.5q-73 0 -114.5 30.5t-46.5 87.5zM351 -17q-145 0 -229 102t-84 269q0 168 91 271q90 102 247 102q139 0 211 -72q64 -64 78 -144l-128 -22q-11 61 -51.5 98.5t-111.5 37.5q-95 0 -149.5 -73 t-54.5 -197q0 -123 53.5 -195.5t151.5 -72.5q50 0 88 18.5t57 49.5q36 58 36 115v13h-192v99h309v-382h-92l-11 109q-25 -58 -83.5 -92t-135.5 -34z"/>
    <glyph glyph-name="gbreve" unicode="ğ" horiz-adv-x="550" d="M273 569q-71 0 -114 39t-47 115h86q5 -84 75 -84q71 0 76 84h86q-4 -77 -47 -115.5t-115 -38.5zM493 496q-49 0 -72 -32q53 -47 53 -120q0 -76 -56 -123.5t-149 -47.5q-57 0 -101 18q-25 -13 -25 -38q0 -46 77 -46h130q87 0 132 -37t45 -107q0 -81 -68 -125.5t-199 -44.5 q-117 0 -175.5 34.5t-58.5 94.5q0 69 83 98q-63 26 -63 90q0 74 78 106q-61 48 -61 128q0 76 56 122t150 46q59 0 105 -20q27 92 132 92q14 0 27 -3v-90q-25 5 -40 5zM269 246q41 0 66.5 27t25.5 70q0 44 -25 70q-26 26 -67 26t-67 -26q-25 -26 -25 -69t25 -70.5t67 -27.5z M332 4l-130 1q-8 0 -40 2q-37 -22 -37 -63q0 -73 144 -73q150 0 150 72q0 61 -87 61z"/>
    <glyph glyph-name="Gdotaccent" unicode="Ġ" horiz-adv-x="732" d="M435 753h-133v112h133v-112zM351 -17q-145 0 -229 102t-84 269q0 168 91 271q90 102 247 102q139 0 211 -72q64 -64 78 -144l-128 -22q-11 61 -51.5 98.5t-111.5 37.5q-95 0 -149.5 -73t-54.5 -197q0 -123 53.5 -195.5t151.5 -72.5q50 0 88 18.5t57 49.5q36 58 36 115v13 h-192v99h309v-382h-92l-11 109q-25 -58 -83.5 -92t-135.5 -34z"/>
    <glyph glyph-name="gdotaccent" unicode="ġ" horiz-adv-x="550" d="M207 708h130v-125h-130v125zM493 496q-49 0 -72 -32q53 -47 53 -120q0 -76 -56 -123.5t-149 -47.5q-57 0 -101 18q-25 -13 -25 -38q0 -46 77 -46h130q87 0 132 -37t45 -107q0 -81 -68 -125.5t-199 -44.5q-117 0 -175.5 34.5t-58.5 94.5q0 69 83 98q-63 26 -63 90 q0 74 78 106q-61 48 -61 128q0 76 56 122t150 46q59 0 105 -20q27 92 132 92q14 0 27 -3v-90q-25 5 -40 5zM269 246q41 0 66.5 27t25.5 70q0 44 -25 70q-26 26 -67 26t-67 -26q-25 -26 -25 -69t25 -70.5t67 -27.5zM332 4l-130 1q-8 0 -40 2q-37 -22 -37 -63q0 -73 144 -73 q150 0 150 72q0 61 -87 61z"/>
    <glyph glyph-name="Gcommaaccent" unicode="Ģ" horiz-adv-x="732" d="M351 -17q-145 0 -229 102t-84 269q0 168 91 271q90 102 247 102q139 0 211 -72q64 -64 78 -144l-128 -22q-11 61 -51.5 98.5t-111.5 37.5q-95 0 -149.5 -73t-54.5 -197q0 -123 53.5 -195.5t151.5 -72.5q50 0 88 18.5t57 49.5q36 58 36 115v13h-192v99h309v-382h-92 l-11 109q-25 -58 -83.5 -92t-135.5 -34zM346 -238l-24 44q29 8 39 19.5t10 35.5h-58v96h113v-84q0 -88 -80 -111z"/>
    <glyph glyph-name="gcommaaccent" unicode="ģ" horiz-adv-x="550" d="M273 670h58v-96h-113v84q0 88 80 111l24 -44q-29 -8 -39 -19.5t-10 -35.5zM493 496q-49 0 -72 -32q53 -47 53 -120q0 -76 -56 -123.5t-149 -47.5q-57 0 -101 18q-25 -13 -25 -38q0 -46 77 -46h130q87 0 132 -37t45 -107q0 -81 -68 -125.5t-199 -44.5q-117 0 -175.5 34.5 t-58.5 94.5q0 69 83 98q-63 26 -63 90q0 74 78 106q-61 48 -61 128q0 76 56 122t150 46q59 0 105 -20q27 92 132 92q14 0 27 -3v-90q-25 5 -40 5zM269 246q41 0 66.5 27t25.5 70q0 44 -25 70q-26 26 -67 26t-67 -26q-25 -26 -25 -69t25 -70.5t67 -27.5zM332 4l-130 1 q-8 0 -40 2q-37 -22 -37 -63q0 -73 144 -73q150 0 150 72q0 61 -87 61z"/>
    <glyph glyph-name="Hcircumflex" unicode="Ĥ" horiz-adv-x="753" d="M445 866l101 -113h-104l-65 73l-66 -73h-103l101 113h136zM536 710h129v-710h-129v310h-319v-310h-129v710h129v-297h319v297z"/>
    <glyph glyph-name="hcircumflex" unicode="ĥ" horiz-adv-x="598" d="M213 866l101 -113h-104l-65 73l-66 -73h-103l101 113h136zM205 0h-120v725h120v-317q45 106 161 106q81 0 123 -51.5t42 -151.5v-311h-121v301q0 116 -92 116q-54 0 -83.5 -39.5t-29.5 -112.5v-265z"/>
    <glyph glyph-name="Hbar" unicode="Ħ" horiz-adv-x="753" d="M665 587h72v-64h-72v-523h-129v310h-319v-310h-129v523h-71v64h71v123h129v-123h319v123h129v-123zM217 413h319v110h-319v-110z"/>
    <glyph glyph-name="hbar" unicode="ħ" horiz-adv-x="585" d="M366 514q81 0 123 -51.5t42 -151.5v-311h-121v301q0 116 -92 116q-54 0 -83.5 -39.5t-29.5 -112.5v-265h-120v579h-85v54h85v92h120v-92h192v-54h-192v-171q45 106 161 106z"/>
    <glyph glyph-name="Itilde" unicode="Ĩ" horiz-adv-x="305" d="M216 748q-35 0 -69 28q-34 27 -50 27q-26 0 -29 -42l-65 18q2 46 26 73t63 27q34 0 69 -27q34 -28 50 -28q25 0 28 42l66 -18q-2 -46 -26 -73t-63 -27zM217 710v-710h-129v710h129z"/>
    <glyph glyph-name="itilde" unicode="ĩ" horiz-adv-x="279" d="M199 578q-21 0 -43 17t-38.5 33.5t-24.5 16.5q-21 0 -28 -54l-67 19q14 116 93 116q19 0 35.5 -10.5t26.5 -22.5t22 -22.5t21 -10.5q23 0 28 53l67 -18q-7 -56 -31 -86.5t-61 -30.5zM200 0h-120v500h120v-500z"/>
    <glyph glyph-name="Imacron" unicode="Ī" horiz-adv-x="305" d="M277 763h-249v81h249v-81zM217 710v-710h-129v710h129z"/>
    <glyph glyph-name="imacron" unicode="ī" horiz-adv-x="279" d="M260 603h-241v81h241v-81zM200 0h-120v500h120v-500z"/>
    <glyph glyph-name="Ibreve" unicode="Ĭ" horiz-adv-x="305" d="M16 866h85q2 -50 52 -50q51 0 53 50h85q-2 -56 -38 -87t-100 -31t-99.5 31t-37.5 87zM217 710v-710h-129v710h129z"/>
    <glyph glyph-name="ibreve" unicode="ĭ" horiz-adv-x="279" d="M15 723h84q0 -46 9.5 -65t31.5 -19t31.5 19t10.5 65h85q-3 -154 -127 -154t-125 154zM200 0h-120v500h120v-500z"/>
    <glyph glyph-name="Iogonek" unicode="Į" horiz-adv-x="305" d="M162 -96l63 -21q-29 -86 -118 -86q-52 0 -81.5 24t-29.5 66q0 71 92 113v710h129v-710h-34q-55 -15 -82 -42.5t-27 -59.5q0 -39 39 -39q33 0 49 45z"/>
    <glyph glyph-name="iogonek" unicode="į" horiz-adv-x="279" d="M74 708h130v-125h-130v125zM154 -96l63 -21q-29 -86 -118 -86q-52 0 -81.5 24t-29.5 66q0 71 92 113v500h120v-500h-25q-55 -15 -82 -42.5t-27 -59.5q0 -39 39 -39q33 0 49 45z"/>
    <glyph glyph-name="Idot" unicode="İ" horiz-adv-x="305" d="M219 753h-133v112h133v-112zM217 710v-710h-129v710h129z"/>
    <glyph glyph-name="dotlessi" unicode="ı" horiz-adv-x="279" d="M200 0h-120v500h120v-500z"/>
    <glyph glyph-name="IJ" unicode="Ĳ" horiz-adv-x="711" d="M217 710v-710h-129v710h129zM636 710v-513q0 -108 -57.5 -160t-161.5 -52q-68 0 -93 7v112q27 -5 76 -5q53 0 80 27t27 90v494h129z"/>
    <glyph glyph-name="ij" unicode="ĳ" horiz-adv-x="559" d="M204 583h-130v125h130v-125zM484 583h-130v125h130v-125zM200 0h-120v500h120v-500zM323 -202q-45 0 -68 6v92q12 0 28.5 -1t17.5 -1q33 0 46 18.5t13 65.5v522h120v-531q0 -84 -37 -127.5t-120 -43.5z"/>
    <glyph glyph-name="Jcircumflex" unicode="Ĵ" horiz-adv-x="406" d="M335 866l72 -113h-98l-42 73l-43 -73h-97l72 113h136zM331 710v-513q0 -108 -57.5 -160t-161.5 -52q-68 0 -93 7v112q27 -5 76 -5q53 0 80 27t27 90v494h129z"/>
    <glyph glyph-name="jcircumflex" unicode="ĵ" horiz-adv-x="280" d="M202 723l77 -149h-91l-47 103l-46 -103h-92l78 149h121zM44 -202q-46 0 -68 6v92q12 0 28.5 -1t17.5 -1q33 0 46 18.5t13 65.5v522h120v-531q0 -84 -37 -127.5t-120 -43.5z"/>
    <glyph glyph-name="Kcommaaccent" unicode="Ķ" horiz-adv-x="690" d="M400 424l-1 -1l274 -423h-149l-212 333l-95 -107v-226h-129v710h129v-332l284 332h154zM353 -139h-58v96h113v-84q0 -88 -80 -111l-24 44q29 8 39 19.5t10 35.5z"/>
    <glyph glyph-name="kcommaaccent" unicode="ķ" horiz-adv-x="566" d="M546 500l-183 -196l191 -304h-139l-136 226l-74 -77v-149h-120v725h120v-447l195 222h146zM293 -139h-58v96h113v-84q0 -88 -80 -111l-24 44q29 8 39 19.5t10 35.5z"/>
    <glyph glyph-name="kgreenlandic" unicode="ĸ" horiz-adv-x="561" d="M549 0h-139l-136 226l-74 -77v-149h-120v500h120v-222l195 222h146l-183 -196z"/>
    <glyph glyph-name="Lacute" unicode="Ĺ" horiz-adv-x="545" d="M203 753h-99l93 113h115zM527 0h-439v710h129v-604h310v-106z"/>
    <glyph glyph-name="lacute" unicode="ĺ" horiz-adv-x="289" d="M195 753h-99l93 113h115zM85 725h120v-725h-120v725z"/>
    <glyph glyph-name="Lcommaaccent" unicode="Ļ" horiz-adv-x="545" d="M527 0h-439v710h129v-604h310v-106zM284 -238l-24 44q29 8 39 19.5t10 35.5h-58v96h113v-84q0 -88 -80 -111z"/>
    <glyph glyph-name="lcommaaccent" unicode="ļ" horiz-adv-x="289" d="M85 725h120v-725h-120v725zM122 -238l-24 44q29 8 39 19.5t10 35.5h-58v96h113v-84q0 -88 -80 -111z"/>
    <glyph glyph-name="Lcaron" unicode="Ľ" horiz-adv-x="545" d="M527 0h-439v710h129v-604h310v-106zM317 526l-21 42q27 6 37.5 16t10.5 30h-58v96h113v-84q0 -82 -82 -100z"/>
    <glyph glyph-name="lcaron" unicode="ľ" horiz-adv-x="331" d="M85 725h120v-725h-120v725zM283 526l-21 42q27 6 37.5 16t10.5 30h-58v96h113v-84q0 -82 -82 -100z"/>
    <glyph glyph-name="Ldot" unicode="Ŀ" horiz-adv-x="545" d="M527 0h-439v710h129v-604h310v-106zM316 499h142v-139h-142v139z"/>
    <glyph glyph-name="ldot" unicode="ŀ" horiz-adv-x="408" d="M85 725h120v-725h-120v725zM278 499h142v-139h-142v139z"/>
    <glyph glyph-name="Lslash" unicode="Ł" horiz-adv-x="545" d="M217 324v-218h310v-106h-439v257l-87 -46v84l87 46v369h129v-301l198 104v-85z"/>
    <glyph glyph-name="lslash" unicode="ł" horiz-adv-x="289" d="M205 486l52 48v-69l-52 -48v-417h-120v306l-52 -48v69l52 48v350h120v-239z"/>
    <glyph glyph-name="Nacute" unicode="Ń" horiz-adv-x="752" d="M426 753h-99l93 113h115zM205 0h-117v710h148l267 -465q30 -53 44 -91h2q-2 70 -2 92v464h117v-710h-145l-271 467q-27 50 -43 89h-2q2 -36 2 -94v-462z"/>
    <glyph glyph-name="nacute" unicode="ń" horiz-adv-x="593" d="M366 574h-98l100 149h126zM200 0h-120v500h114v-97q51 110 166 110q166 0 166 -203v-310h-121v298q0 118 -93 118q-53 0 -82.5 -40t-29.5 -111v-265z"/>
    <glyph glyph-name="Ncommaaccent" unicode="Ņ" horiz-adv-x="752" d="M205 0h-117v710h148l267 -465q30 -53 44 -91h2q-2 70 -2 92v464h117v-710h-145l-271 467q-27 50 -43 89h-2q2 -36 2 -94v-462zM353 -238l-24 44q29 8 39 19.5t10 35.5h-58v96h113v-84q0 -88 -80 -111z"/>
    <glyph glyph-name="ncommaaccent" unicode="ņ" horiz-adv-x="593" d="M200 0h-120v500h114v-97q51 110 166 110q166 0 166 -203v-310h-121v298q0 118 -93 118q-53 0 -82.5 -40t-29.5 -111v-265zM274 -238l-24 44q29 8 39 19.5t10 35.5h-58v96h113v-84q0 -88 -80 -111z"/>
    <glyph glyph-name="Ncaron" unicode="Ň" horiz-adv-x="752" d="M441 861h104l-101 -113h-136l-101 113h103l66 -73zM205 0h-117v710h148l267 -465q30 -53 44 -91h2q-2 70 -2 92v464h117v-710h-145l-271 467q-27 50 -43 89h-2q2 -36 2 -94v-462z"/>
    <glyph glyph-name="ncaron" unicode="ň" horiz-adv-x="593" d="M255 569l-107 149h96l72 -102l71 102h97l-108 -149h-121zM200 0h-120v500h114v-97q51 110 166 110q166 0 166 -203v-310h-121v298q0 118 -93 118q-53 0 -82.5 -40t-29.5 -111v-265z"/>
    <glyph glyph-name="napostrophe" unicode="ŉ" horiz-adv-x="598" d="M55 526l-21 42q27 6 37.5 16t10.5 30h-58v96h113v-84q0 -82 -82 -100zM205 0h-120v500h114v-97q51 110 166 110q166 0 166 -203v-310h-121v298q0 118 -93 118q-53 0 -82.5 -40t-29.5 -111v-265z"/>
    <glyph glyph-name="Eng" unicode="Ŋ" horiz-adv-x="752" d="M547 246v464h117v-721q0 -197 -199 -197q-50 0 -93 8v104q35 -6 86 -6q88 0 88 83v19h-27l-271 467q-27 50 -43 89h-2q2 -36 2 -94v-462h-117v710h148l267 -465q30 -53 44 -91h2q-2 70 -2 92z"/>
    <glyph glyph-name="eng" unicode="ŋ" horiz-adv-x="593" d="M360 513q166 0 166 -203v-323q0 -96 -35.5 -142.5t-118.5 -46.5q-40 0 -70 6v92q42 -2 44 -2q33 0 46 19.5t13 67.5v317q0 118 -93 118q-53 0 -82.5 -40t-29.5 -111v-265h-120v500h114v-97q51 110 166 110z"/>
    <glyph glyph-name="Omacron" unicode="Ō" horiz-adv-x="748" d="M538 763h-328v81h328v-81zM374 -17q-152 0 -244 101t-92 271q0 172 91 272t245 100t245 -100t91 -272q0 -171 -91 -271q-92 -101 -245 -101zM374 87q96 0 149 71t53 197t-53 197t-149 71q-95 0 -148.5 -71t-53.5 -197q0 -124 53.5 -196t148.5 -72z"/>
    <glyph glyph-name="omacron" unicode="ō" horiz-adv-x="566" d="M442 603h-319v81h319v-81zM461 58q-67 -70 -178 -70q-110 0 -177 70q-68 70 -68 193q0 122 68 192q68 69 177 69q111 0 178 -69q67 -68 67 -192q0 -125 -67 -193zM283 79q58 0 90 44t32 128q0 170 -122 170q-60 0 -91 -43q-32 -44 -32 -127q0 -84 32 -128t91 -44z"/>
    <glyph glyph-name="Obreve" unicode="Ŏ" horiz-adv-x="748" d="M213 866h86q7 -52 75 -52q69 0 76 52h86q-5 -57 -46.5 -87.5t-115.5 -30.5q-73 0 -114.5 30.5t-46.5 87.5zM374 -17q-152 0 -244 101t-92 271q0 172 91 272t245 100t245 -100t91 -272q0 -171 -91 -271q-92 -101 -245 -101zM374 87q96 0 149 71t53 197t-53 197t-149 71 q-95 0 -148.5 -71t-53.5 -197q0 -124 53.5 -196t148.5 -72z"/>
    <glyph glyph-name="obreve" unicode="ŏ" horiz-adv-x="566" d="M122 723h86q5 -84 75 -84q71 0 76 84h86q-4 -77 -47 -115.5t-115 -38.5q-71 0 -114 39t-47 115zM461 58q-67 -70 -178 -70q-110 0 -177 70q-68 70 -68 193q0 122 68 192q68 69 177 69q111 0 178 -69q67 -68 67 -192q0 -125 -67 -193zM283 79q58 0 90 44t32 128 q0 170 -122 170q-60 0 -91 -43q-32 -44 -32 -127q0 -84 32 -128t91 -44z"/>
    <glyph glyph-name="Ohungarumlaut" unicode="Ő" horiz-adv-x="748" d="M342 754h-104l96 112h110zM509 754h-103l96 112h109zM374 -17q-152 0 -244 101t-92 271q0 172 91 272t245 100t245 -100t91 -272q0 -171 -91 -271q-92 -101 -245 -101zM374 87q96 0 149 71t53 197t-53 197t-149 71q-95 0 -148.5 -71t-53.5 -197q0 -124 53.5 -196 t148.5 -72z"/>
    <glyph glyph-name="ohungarumlaut" unicode="ő" horiz-adv-x="566" d="M247 574h-91l86 149h98zM409 574h-92l87 149h97zM461 58q-67 -70 -178 -70q-110 0 -177 70q-68 70 -68 193q0 122 68 192q68 69 177 69q111 0 178 -69q67 -68 67 -192q0 -125 -67 -193zM283 79q58 0 90 44t32 128q0 170 -122 170q-60 0 -91 -43q-32 -44 -32 -127 q0 -84 32 -128t91 -44z"/>
    <glyph glyph-name="OE" unicode="Œ" horiz-adv-x="991" d="M594 314v-213h339v-101h-542q-164 0 -258 97q-95 98 -95 259q0 164 94 259q95 95 258 95h536v-101h-332v-195h315v-100h-315zM399 101h66v508h-68q-107 0 -166.5 -68t-59.5 -185q0 -113 62 -184t166 -71z"/>
    <glyph glyph-name="oe" unicode="œ" horiz-adv-x="916" d="M873 275v-55h-351q1 -63 37.5 -100.5t95.5 -37.5q87 0 122 83l92 -42q-28 -65 -84.5 -100t-133.5 -35q-126 0 -190 79q-63 -79 -178 -79q-111 0 -178 72q-67 70 -67 190t67 191q66 71 178 71q117 0 179 -81q64 81 183 81q109 0 168.5 -61.5t59.5 -175.5zM522 299h233v8 q0 61 -29 93t-83 32q-57 0 -88 -34.5t-33 -98.5zM193 124q31 -45 90 -45t90 45q32 46 32 126t-32 126q-31 45 -90 45t-90 -45q-33 -45 -33 -126t33 -126z"/>
    <glyph glyph-name="Racute" unicode="Ŕ" horiz-adv-x="678" d="M370 866h115l-109 -113h-99zM640 0h-142l-156 285h-125v-285h-129v710h286q125 0 185.5 -56.5t60.5 -156.5q0 -70 -38 -122.5t-111 -72.5zM352 612h-135v-231h135q133 0 133 116q0 115 -133 115z"/>
    <glyph glyph-name="racute" unicode="ŕ" horiz-adv-x="384" d="M249 574h-98l100 149h126zM192 500v-121q43 133 159 133q11 0 14 -1v-115h-16q-66 0 -104 -35q-45 -43 -45 -152v-209h-120v500h112z"/>
    <glyph glyph-name="Rcommaaccent" unicode="Ŗ" horiz-adv-x="678" d="M471 302l169 -302h-142l-156 285h-125v-285h-129v710h286q125 0 185.5 -56.5t60.5 -156.5q0 -70 -38 -122.5t-111 -72.5zM352 612h-135v-231h135q133 0 133 116q0 115 -133 115zM344 -139h-58v96h113v-84q0 -88 -80 -111l-24 44q29 8 39 19.5t10 35.5z"/>
    <glyph glyph-name="rcommaaccent" unicode="ŗ" horiz-adv-x="384" d="M192 500v-121q43 133 159 133q11 0 14 -1v-115h-16q-66 0 -104 -35q-45 -43 -45 -152v-209h-120v500h112zM117 -238l-24 44q29 8 39 19.5t10 35.5h-58v96h113v-84q0 -88 -80 -111z"/>
    <glyph glyph-name="Rcaron" unicode="Ř" horiz-adv-x="678" d="M495 861l-101 -113h-136l-101 113h103l66 -73l65 73h104zM640 0h-142l-156 285h-125v-285h-129v710h286q125 0 185.5 -56.5t60.5 -156.5q0 -70 -38 -122.5t-111 -72.5zM352 612h-135v-231h135q133 0 133 116q0 115 -133 115z"/>
    <glyph glyph-name="rcaron" unicode="ř" horiz-adv-x="384" d="M138 569l-107 149h96l72 -102l71 102h97l-108 -149h-121zM192 500v-121q43 133 159 133q11 0 14 -1v-115h-16q-66 0 -104 -35q-45 -43 -45 -152v-209h-120v500h112z"/>
    <glyph glyph-name="Sacute" unicode="Ś" horiz-adv-x="619" d="M362 753h-99l93 113h115zM313 -17q-120 0 -197 53t-101 146l110 48q45 -144 192 -144q63 0 102 26.5t39 76.5q0 48 -27.5 72t-92.5 37l-99 21q-186 37 -186 204q0 93 71 149q70 55 189 55q107 0 178.5 -44t94.5 -129l-103 -54q-36 129 -176 129q-58 0 -93.5 -25.5 t-35.5 -70.5q0 -43 25.5 -67.5t84.5 -37.5l103 -22q98 -21 146.5 -69.5t48.5 -135.5q0 -95 -71 -157q-70 -61 -202 -61z"/>
    <glyph glyph-name="sacute" unicode="ś" horiz-adv-x="500" d="M299 574h-98l100 149h126zM259 -12q-86 0 -146.5 35.5t-83.5 100.5l89 40q36 -88 143 -88q44 0 69 17t25 45q0 26 -16.5 39t-55.5 19l-88 16q-143 26 -143 146q0 70 55 112t148 42q80 0 136.5 -30.5t74.5 -84.5l-83 -45q-39 73 -134 73q-87 0 -87 -60q0 -24 16 -37.5 t50 -19.5l98 -18q138 -24 138 -144q0 -72 -55 -115t-150 -43z"/>
    <glyph glyph-name="Scircumflex" unicode="Ŝ" horiz-adv-x="619" d="M380 866l101 -113h-104l-65 73l-66 -73h-103l101 113h136zM313 -17q-120 0 -197 53t-101 146l110 48q45 -144 192 -144q63 0 102 26.5t39 76.5q0 48 -27.5 72t-92.5 37l-99 21q-186 37 -186 204q0 93 71 149q70 55 189 55q107 0 178.5 -44t94.5 -129l-103 -54 q-36 129 -176 129q-58 0 -93.5 -25.5t-35.5 -70.5q0 -43 25.5 -67.5t84.5 -37.5l103 -22q98 -21 146.5 -69.5t48.5 -135.5q0 -95 -71 -157q-70 -61 -202 -61z"/>
    <glyph glyph-name="scircumflex" unicode="ŝ" horiz-adv-x="500" d="M310 723l107 -149h-96l-72 102l-71 -102h-97l108 149h121zM259 -12q-86 0 -146.5 35.5t-83.5 100.5l89 40q36 -88 143 -88q44 0 69 17t25 45q0 26 -16.5 39t-55.5 19l-88 16q-143 26 -143 146q0 70 55 112t148 42q80 0 136.5 -30.5t74.5 -84.5l-83 -45q-39 73 -134 73 q-87 0 -87 -60q0 -24 16 -37.5t50 -19.5l98 -18q138 -24 138 -144q0 -72 -55 -115t-150 -43z"/>
    <glyph glyph-name="Scedilla" unicode="Ş" horiz-adv-x="619" d="M288 428l103 -22q98 -21 146.5 -69.5t48.5 -135.5q0 -90 -62 -149t-174 -68l-20 -32q19 14 48 14q38 0 60 -21.5t22 -60.5q0 -42 -31.5 -65.5t-85.5 -23.5q-89 0 -113 63l70 16q10 -27 40 -27q19 0 30 11t11 29q0 17 -10.5 27.5t-28.5 10.5q-20 0 -34 -15l-49 13l30 61 q-110 5 -181 57.5t-93 140.5l110 48q45 -144 192 -144q63 0 102 26.5t39 76.5q0 48 -27.5 72t-92.5 37l-99 21q-186 37 -186 204q0 93 71 149q70 55 189 55q107 0 178.5 -44t94.5 -129l-103 -54q-36 129 -176 129q-58 0 -93.5 -25.5t-35.5 -70.5q0 -43 25.5 -67.5 t84.5 -37.5z"/>
    <glyph glyph-name="scedilla" unicode="ş" horiz-adv-x="500" d="M228 308l98 -18q138 -24 138 -144q0 -66 -46.5 -108t-128.5 -49l-23 -37q19 14 48 14q38 0 60 -21.5t22 -60.5q0 -42 -31.5 -65.5t-85.5 -23.5q-89 0 -113 63l70 16q10 -27 40 -27q19 0 30 11t11 29q0 17 -10.5 27.5t-28.5 10.5q-20 0 -34 -15l-49 13l32 66 q-155 13 -198 135l89 40q36 -88 143 -88q44 0 69 17t25 45q0 26 -16.5 39t-55.5 19l-88 16q-143 26 -143 146q0 70 55 112t148 42q80 0 136.5 -30.5t74.5 -84.5l-83 -45q-39 73 -134 73q-87 0 -87 -60q0 -24 16 -37.5t50 -19.5z"/>
    <glyph glyph-name="Scaron" unicode="Š" horiz-adv-x="619" d="M377 861h104l-101 -113h-136l-101 113h103l66 -73zM313 -17q-120 0 -197 53t-101 146l110 48q45 -144 192 -144q63 0 102 26.5t39 76.5q0 48 -27.5 72t-92.5 37l-99 21q-186 37 -186 204q0 93 71 149q70 55 189 55q107 0 178.5 -44t94.5 -129l-103 -54q-36 129 -176 129 q-58 0 -93.5 -25.5t-35.5 -70.5q0 -43 25.5 -67.5t84.5 -37.5l103 -22q98 -21 146.5 -69.5t48.5 -135.5q0 -95 -71 -157q-70 -61 -202 -61z"/>
    <glyph glyph-name="scaron" unicode="š" horiz-adv-x="500" d="M188 569l-107 149h96l72 -102l71 102h97l-108 -149h-121zM259 -12q-86 0 -146.5 35.5t-83.5 100.5l89 40q36 -88 143 -88q44 0 69 17t25 45q0 26 -16.5 39t-55.5 19l-88 16q-143 26 -143 146q0 70 55 112t148 42q80 0 136.5 -30.5t74.5 -84.5l-83 -45q-39 73 -134 73 q-87 0 -87 -60q0 -24 16 -37.5t50 -19.5l98 -18q138 -24 138 -144q0 -72 -55 -115t-150 -43z"/>
    <glyph glyph-name="uni0162" unicode="Ţ" horiz-adv-x="577" d="M353 605v-605h-34l-30 -48q19 14 48 14q38 0 60 -21.5t22 -60.5q0 -42 -31.5 -65.5t-85.5 -23.5q-89 0 -113 63l70 16q11 -27 40 -27q19 0 30 11t11 29q0 17 -10.5 27.5t-28.5 10.5q-21 0 -34 -15l-49 13l38 77h-32v605h-215v105h559v-105h-215z"/>
    <glyph glyph-name="uni0163" unicode="ţ" horiz-adv-x="373" d="M291 -34q38 0 60 -21.5t22 -60.5q0 -42 -31.5 -65.5t-85.5 -23.5q-89 0 -113 63l70 16q11 -27 40 -27q19 0 30 11t11 29q0 17 -10.5 27.5t-28.5 10.5q-21 0 -34 -15l-49 13l36 73q-107 23 -107 159v258h-90v87h90v126l120 48v-174h122v-87h-122v-239q0 -79 73 -79 q25 0 49 6v-101q-41 -9 -76 -9l-24 -39q17 14 48 14z"/>
    <glyph glyph-name="Tcaron" unicode="Ť" horiz-adv-x="577" d="M458 861l-101 -113h-136l-101 113h103l66 -73l65 73h104zM9 710h559v-105h-215v-605h-129v605h-215v105z"/>
    <glyph glyph-name="tcaron" unicode="ť" horiz-adv-x="376" d="M288 526l-21 42q27 6 37.5 16t10.5 30h-58v96h113v-84q0 -82 -82 -100zM101 413h-90v87h90v126l120 48v-174h122v-87h-122v-239q0 -79 73 -79q25 0 49 6v-101q-44 -9 -82 -9q-84 0 -122 41t-38 123v258z"/>
    <glyph glyph-name="Tbar" unicode="Ŧ" horiz-adv-x="577" d="M568 710v-105h-215v-154h164v-65h-164v-386h-129v386h-164v65h164v154h-215v105h559z"/>
    <glyph glyph-name="tbar" unicode="ŧ" horiz-adv-x="377" d="M343 500v-87h-122v-100h119v-77h-119v-62q0 -79 73 -79q25 0 49 6v-101q-44 -9 -82 -9q-84 0 -122 41t-38 123v81h-81v77h81v100h-90v87h90v126l120 48v-174h122z"/>
    <glyph glyph-name="Utilde" unicode="Ũ" horiz-adv-x="721" d="M427 745q-39 0 -77 28q-39 27 -58 27q-34 0 -48 -50l-67 19q9 51 39.5 79t76.5 28q38 0 77 -27q38 -28 58 -28q34 0 48 50l67 -19q-9 -51 -39.5 -79t-76.5 -28zM75 248v462h129v-455q0 -76 41 -119.5t115 -43.5q75 0 116 43.5t41 119.5v455h129v-462q0 -123 -76 -194 t-210 -71t-209.5 71t-75.5 194z"/>
    <glyph glyph-name="utilde" unicode="ũ" horiz-adv-x="586" d="M361 578q-36 0 -83.5 33.5t-64.5 33.5q-19 0 -30.5 -13.5t-19.5 -43.5l-67 18q9 57 40 88.5t79 31.5q36 0 83.5 -33t64.5 -33q19 0 30.5 13t19.5 44l67 -19q-9 -57 -40 -88.5t-79 -31.5zM237 -12q-169 0 -169 191v321h120v-303q0 -113 88 -113q50 0 80 38t30 101v277h121 v-500h-114v93q-18 -47 -60.5 -76t-95.5 -29z"/>
    <glyph glyph-name="Umacron" unicode="Ū" horiz-adv-x="721" d="M524 763h-328v81h328v-81zM75 248v462h129v-455q0 -76 41 -119.5t115 -43.5q75 0 116 43.5t41 119.5v455h129v-462q0 -123 -76 -194t-210 -71t-209.5 71t-75.5 194z"/>
    <glyph glyph-name="umacron" unicode="ū" horiz-adv-x="586" d="M446 603h-319v81h319v-81zM237 -12q-169 0 -169 191v321h120v-303q0 -113 88 -113q50 0 80 38t30 101v277h121v-500h-114v93q-18 -47 -60.5 -76t-95.5 -29z"/>
    <glyph glyph-name="Ubreve" unicode="Ŭ" horiz-adv-x="721" d="M199 866h86q7 -52 75 -52q69 0 76 52h86q-5 -57 -46.5 -87.5t-115.5 -30.5q-73 0 -114.5 30.5t-46.5 87.5zM75 248v462h129v-455q0 -76 41 -119.5t115 -43.5q75 0 116 43.5t41 119.5v455h129v-462q0 -123 -76 -194t-210 -71t-209.5 71t-75.5 194z"/>
    <glyph glyph-name="ubreve" unicode="ŭ" horiz-adv-x="586" d="M126 723h86q4 -84 75 -84t76 84h86q-4 -77 -47 -115.5t-115 -38.5q-71 0 -114 39t-47 115zM237 -12q-169 0 -169 191v321h120v-303q0 -113 88 -113q50 0 80 38t30 101v277h121v-500h-114v93q-18 -47 -60.5 -76t-95.5 -29z"/>
    <glyph glyph-name="Uring" unicode="Ů" horiz-adv-x="721" d="M359 741q-52 0 -84.5 30t-32.5 79t32.5 79t84.5 30q53 0 85.5 -30t32.5 -79t-32.5 -79t-85.5 -30zM322 811q14 -15 37 -15t38 15q14 15 14 39t-14 39q-15 15 -38 15t-37 -15q-15 -15 -15 -39t15 -39zM75 248v462h129v-455q0 -76 41 -119.5t115 -43.5q75 0 116 43.5 t41 119.5v455h129v-462q0 -123 -76 -194t-210 -71t-209.5 71t-75.5 194z"/>
    <glyph glyph-name="uring" unicode="ů" horiz-adv-x="586" d="M372 583q-32 -31 -85 -31t-85 31q-33 30 -33 78q0 49 33 79.5t85 30.5t85 -30.5t33 -79.5q0 -48 -33 -78zM250 623q16 -14 37 -14.5t37.5 15t14.5 37.5q3 33 -24.5 47t-55 0t-24.5 -47q0 -23 15 -38zM237 -12q-169 0 -169 191v321h120v-303q0 -113 88 -113q50 0 80 38 t30 101v277h121v-500h-114v93q-18 -47 -60.5 -76t-95.5 -29z"/>
    <glyph glyph-name="Uhungarumlaut" unicode="Ű" horiz-adv-x="721" d="M328 754h-104l96 112h110zM495 754h-103l96 112h109zM75 248v462h129v-455q0 -76 41 -119.5t115 -43.5q75 0 116 43.5t41 119.5v455h129v-462q0 -123 -76 -194t-210 -71t-209.5 71t-75.5 194z"/>
    <glyph glyph-name="uhungarumlaut" unicode="ű" horiz-adv-x="586" d="M251 574h-91l86 149h98zM413 574h-92l87 149h97zM237 -12q-169 0 -169 191v321h120v-303q0 -113 88 -113q50 0 80 38t30 101v277h121v-500h-114v93q-18 -47 -60.5 -76t-95.5 -29z"/>
    <glyph glyph-name="Uogonek" unicode="Ų" horiz-adv-x="721" d="M517 255v455h129v-462q0 -103 -55 -171t-156 -87q-79 -33 -79 -92q0 -39 39 -39q33 0 49 45l63 -21q-29 -86 -118 -86q-52 0 -81.5 24t-29.5 66q0 59 61 96q-125 6 -194.5 76.5t-69.5 188.5v462h129v-455q0 -76 41 -119.5t115 -43.5q75 0 116 43.5t41 119.5z"/>
    <glyph glyph-name="uogonek" unicode="ų" horiz-adv-x="586" d="M467 -96l63 -21q-29 -86 -118 -86q-52 0 -81.5 24t-29.5 66q0 71 92 113v93q-18 -47 -60.5 -76t-95.5 -29q-169 0 -169 191v321h120v-303q0 -113 88 -113q50 0 80 38t30 101v277h121v-500h-19q-55 -15 -82 -42.5t-27 -59.5q0 -39 39 -39q32 0 49 45z"/>
    <glyph glyph-name="Wcircumflex" unicode="Ŵ" horiz-adv-x="936" d="M536 866l101 -113h-104l-65 73l-66 -73h-103l101 113h136zM341 0h-150l-169 710h131l108 -520q5 -22 6 -48h3q2 26 8 48l125 520h130l125 -520q6 -22 8 -48h3q1 26 6 48l108 520h131l-169 -710h-150l-119 520q-4 24 -6 42h-4q-2 -18 -6 -42z"/>
    <glyph glyph-name="wcircumflex" unicode="ŵ" horiz-adv-x="753" d="M438 723l107 -149h-96l-72 102l-71 -102h-97l108 149h121zM280 0h-122l-137 500h118l77 -333q8 -41 9 -54h2q6 36 11 54l82 333h113l83 -333q10 -50 10 -54h2q6 37 9 54l78 333h118l-138 -500h-122l-86 330q-8 29 -9 49h-2q-7 -38 -9 -49z"/>
    <glyph glyph-name="Ycircumflex" unicode="Ŷ" horiz-adv-x="605" d="M371 866l101 -113h-104l-65 73l-66 -73h-103l101 113h136zM368 0h-131v271l-239 439h140l145 -283q15 -28 19 -46h2q4 19 18 46l145 283h140l-239 -439v-271z"/>
    <glyph glyph-name="ycircumflex" unicode="ŷ" horiz-adv-x="511" d="M320 723l107 -149h-96l-72 102l-71 -102h-97l108 149h121zM97 -201q-28 0 -56 5v94q31 -3 46 -3q42 0 66.5 19t38.5 61l10 30l-195 495h132l109 -327q9 -26 15 -59h2q2 19 15 59l99 327h125l-188 -528q-33 -93 -84.5 -133t-134.5 -40z"/>
    <glyph glyph-name="Ydieresis" unicode="Ÿ" horiz-adv-x="605" d="M248 753h-114v106h114v-106zM473 753h-114v106h114v-106zM368 0h-131v271l-239 439h140l145 -283q15 -28 19 -46h2q4 19 18 46l145 283h140l-239 -439v-271z"/>
    <glyph glyph-name="Zacute" unicode="Ź" horiz-adv-x="587" d="M348 753h-99l93 113h115zM35 0v104l372 502h-358v104h502v-104l-372 -503h387v-103h-531z"/>
    <glyph glyph-name="zacute" unicode="ź" horiz-adv-x="468" d="M286 574h-98l100 149h126zM29 0v79l257 330h-246v91h387v-76l-252 -331h267v-93h-413z"/>
    <glyph glyph-name="Zdotaccent" unicode="Ż" horiz-adv-x="587" d="M364 753h-133v112h133v-112zM35 0v104l372 502h-358v104h502v-104l-372 -503h387v-103h-531z"/>
    <glyph glyph-name="zdotaccent" unicode="ż" horiz-adv-x="468" d="M300 583h-130v125h130v-125zM29 0v79l257 330h-246v91h387v-76l-252 -331h267v-93h-413z"/>
    <glyph glyph-name="Zcaron" unicode="Ž" horiz-adv-x="587" d="M363 861h104l-101 -113h-136l-101 113h103l66 -73zM35 0v104l372 502h-358v104h502v-104l-372 -503h387v-103h-531z"/>
    <glyph glyph-name="zcaron" unicode="ž" horiz-adv-x="468" d="M175 569l-107 149h96l72 -102l71 102h97l-108 -149h-121zM29 0v79l257 330h-246v91h387v-76l-252 -331h267v-93h-413z"/>
    <glyph glyph-name="florin" unicode="ƒ" horiz-adv-x="437" d="M378 609q-47 0 -66 -23t-28 -82l-10 -76h117v-85h-128l-66 -493h-122l66 493h-108v85h119l8 58q17 116 59 167q42 53 148 53q34 0 61 -7l-1 -95q-27 5 -49 5z"/>
    <glyph glyph-name="AEacute" unicode="Ǽ" horiz-adv-x="959" d="M702 866h115l-109 -113h-99zM584 314v-213h318v-101h-447v166h-244l-90 -166h-133l413 710h494v-101h-311v-195h294v-100h-294zM455 614l-190 -350h190v350z"/>
    <glyph glyph-name="aeacute" unicode="ǽ" horiz-adv-x="853" d="M478 723h126l-128 -149h-98zM811 265v-44h-332q1 -63 35 -101t89 -38q79 0 111 83l93 -42q-27 -65 -81 -100t-128 -35q-134 0 -193 105q-26 -51 -77.5 -78t-118.5 -27q-80 0 -126.5 39t-46.5 108q0 127 180 150l144 17v16q0 107 -95 107q-90 0 -95 -86h-120q6 81 62 127 t152 46q114 0 164 -71q59 71 166 71q103 0 160 -65t57 -182zM479 300h212q1 62 -25.5 97t-74.5 35q-49 0 -80 -36t-32 -96zM363 205v26l-103 -13q-53 -7 -76.5 -26t-23.5 -55q0 -28 22.5 -46t57.5 -18q53 0 88 34t35 98z"/>
    <glyph glyph-name="Oslashacute" unicode="Ǿ" horiz-adv-x="748" d="M420 866h115l-109 -113h-99zM676 687l-52 -66q86 -101 86 -266q0 -171 -91 -271q-92 -101 -245 -101q-118 0 -200 61l-47 -61l-54 39l52 67q-87 99 -87 266q0 172 91 272t245 100q119 0 201 -61l47 60zM172 355q0 -95 33 -163l298 382q-50 49 -129 49q-95 0 -148.5 -71 t-53.5 -197zM374 87q96 0 149 71t53 197q0 96 -32 162l-298 -381q50 -49 128 -49z"/>
    <glyph glyph-name="oslashacute" unicode="ǿ" horiz-adv-x="566" d="M338 723h126l-128 -149h-98zM504 486l-39 -48q63 -69 63 -187q0 -125 -67 -193q-67 -70 -178 -70q-86 0 -145 42l-37 -46l-40 29l40 50q-63 69 -63 188q0 122 68 192q68 69 177 69q85 0 144 -41l36 45zM160 251q0 -57 15 -96l188 236q-30 30 -80 30q-60 0 -91.5 -43.5 t-31.5 -126.5zM283 79q58 0 90 44t32 128q0 54 -14 94l-188 -234q30 -32 80 -32z"/>
    <glyph glyph-name="Scommaaccent" unicode="Ș" horiz-adv-x="619" d="M313 -17q-120 0 -197 53t-101 146l110 48q45 -144 192 -144q63 0 102 26.5t39 76.5q0 48 -27.5 72t-92.5 37l-99 21q-186 37 -186 204q0 93 71 149q70 55 189 55q107 0 178.5 -44t94.5 -129l-103 -54q-36 129 -176 129q-58 0 -93.5 -25.5t-35.5 -70.5q0 -43 25.5 -67.5 t84.5 -37.5l103 -22q98 -21 146.5 -69.5t48.5 -135.5q0 -95 -71 -157q-70 -61 -202 -61zM307 -238l-24 44q29 8 39 19.5t10 35.5h-58v96h113v-84q0 -88 -80 -111z"/>
    <glyph glyph-name="scommaaccent" unicode="ș" horiz-adv-x="500" d="M259 -12q-86 0 -146.5 35.5t-83.5 100.5l89 40q36 -88 143 -88q44 0 69 17t25 45q0 26 -16.5 39t-55.5 19l-88 16q-143 26 -143 146q0 70 55 112t148 42q80 0 136.5 -30.5t74.5 -84.5l-83 -45q-39 73 -134 73q-87 0 -87 -60q0 -24 16 -37.5t50 -19.5l98 -18 q138 -24 138 -144q0 -72 -55 -115t-150 -43zM243 -238l-24 44q29 8 39 19.5t10 35.5h-58v96h113v-84q0 -88 -80 -111z"/>
    <glyph glyph-name="uni021A" unicode="Ț" horiz-adv-x="577" d="M9 710h559v-105h-215v-605h-129v605h-215v105zM291 -139h-58v96h113v-84q0 -88 -80 -111l-24 44q29 8 39 19.5t10 35.5z"/>
    <glyph glyph-name="uni021B" unicode="ț" horiz-adv-x="373" d="M101 413h-90v87h90v126l120 48v-174h122v-87h-122v-239q0 -79 73 -79q25 0 49 6v-101q-44 -9 -82 -9q-84 0 -122 41t-38 123v258zM220 -238l-24 44q29 8 39 19.5t10 35.5h-58v96h113v-84q0 -88 -80 -111z"/>
    <glyph glyph-name="uni0237" unicode="ȷ" horiz-adv-x="280" d="M44 -202q-46 0 -68 6v92q12 0 28.5 -1t17.5 -1q33 0 46 18.5t13 65.5v522h120v-531q0 -84 -37 -127.5t-120 -43.5z"/>
    <glyph glyph-name="uni0243" unicode="Ƀ" horiz-adv-x="658" d="M613 197q0 -81 -51 -134.5t-151 -61.5v-108h-56v107h-71v-107h-56v107h-140v695h140v90h56v-90h71v90h56v-92q93 -9 138 -56t45 -120q0 -58 -30.5 -98.5t-91.5 -55.5q69 -11 105 -54t36 -112zM340 601h-131v-202h131q126 0 126 104q0 98 -126 98zM209 94h146 q65 0 97.5 30.5t32.5 83.5q0 49 -31 77.5t-92 28.5h-153v-220z"/>
    <glyph glyph-name="circumflex" unicode="ˆ" horiz-adv-x="600" d="M275 723l107 -149h-96l-72 102l-71 -102h-97l108 149h121z"/>
    <glyph glyph-name="caron" unicode="ˇ" horiz-adv-x="600" d="M153 569l-107 149h96l72 -102l71 102h97l-108 -149h-121z"/>
    <glyph glyph-name="breve" unicode="˘" horiz-adv-x="600" d="M51 723h86q5 -84 75 -84q72 0 76 84h86q-4 -77 -47 -115.5t-115 -38.5q-71 0 -114 39t-47 115z"/>
    <glyph glyph-name="dotaccent" unicode="˙" horiz-adv-x="600" d="M179 583h-130v125h130v-125z"/>
    <glyph glyph-name="ring" unicode="˚" horiz-adv-x="600" d="M246 583q-32 -31 -85 -31t-85 31q-33 30 -33 78q0 49 33 79.5t85 30.5t85 -30.5t33 -79.5q0 -48 -33 -78zM124 623q16 -14 37 -14.5t37.5 15t14.5 37.5q3 33 -24.5 47t-55 0t-24.5 -47q0 -23 15 -38z"/>
    <glyph glyph-name="ogonek" unicode="˛" horiz-adv-x="600" d="M216 -96l63 -21q-29 -86 -118 -86q-52 0 -81.5 24t-29.5 66q0 71 92 113h95q-55 -15 -82 -42.5t-27 -59.5q0 -39 39 -39q32 0 49 45z"/>
    <glyph glyph-name="tilde" unicode="˜" horiz-adv-x="600" d="M317 578q-36 0 -83.5 33.5t-64.5 33.5q-19 0 -30.5 -13.5t-19.5 -43.5l-67 18q9 57 40 88.5t79 31.5q36 0 83.5 -33t64.5 -33q19 0 30.5 13t19.5 44l67 -19q-9 -57 -40 -88.5t-79 -31.5z"/>
    <glyph glyph-name="hungarumlaut" unicode="˝" horiz-adv-x="600" d="M160 574h-91l86 149h98zM322 574h-92l87 149h97z"/>
    <glyph glyph-name="gravecomb" unicode="̀" horiz-adv-x="0" d="M-131 723l100 -149h-98l-128 149h126z"/>
    <glyph glyph-name="acutecomb" unicode="́" horiz-adv-x="0" d="M-168 574h-98l100 149h126z"/>
    <glyph glyph-name="uni0302" unicode="̂" horiz-adv-x="0" d="M-153 723l107 -149h-96l-72 102l-71 -102h-97l108 149h121z"/>
    <glyph glyph-name="tildecomb" unicode="̃" horiz-adv-x="0" d="M-170 578q-36 0 -83.5 33.5t-64.5 33.5q-19 0 -30.5 -13.5t-19.5 -43.5l-67 18q9 57 40 88.5t79 31.5q36 0 83.5 -33t64.5 -33q19 0 30.5 13t19.5 44l67 -19q-9 -57 -40 -88.5t-79 -31.5z"/>
    <glyph glyph-name="uni0304" unicode="̄" horiz-adv-x="0" d="M-43 603h-319v81h319v-81z"/>
    <glyph glyph-name="uni0306" unicode="̆" horiz-adv-x="0" d="M-374 723h86q5 -84 75 -84q71 0 76 84h86q-4 -77 -47 -115.5t-115 -38.5q-71 0 -114 39t-47 115z"/>
    <glyph glyph-name="uni0307" unicode="̇" horiz-adv-x="0" d="M-49 583h-130v125h130v-125z"/>
    <glyph glyph-name="uni0308" unicode="̈" horiz-adv-x="0" d="M-256 585h-117v117h117v-117zM-45 585h-117v117h117v-117z"/>
    <glyph glyph-name="uni030A" unicode="̊" horiz-adv-x="0" d="M-76 583q-32 -31 -85 -31t-85 31q-33 30 -33 78q0 49 33 79.5t85 30.5t85 -30.5t33 -79.5q0 -48 -33 -78zM-199 623q17 -14 38 -14.5t37.5 15t14.5 37.5q3 33 -24.5 47t-55 0t-24.5 -47q0 -22 14 -38z"/>
    <glyph glyph-name="uni030B" unicode="̋" horiz-adv-x="0" d="M-323 574h-91l86 149h98zM-161 574h-92l87 149h97z"/>
    <glyph glyph-name="uni030C" unicode="̌" horiz-adv-x="0" d="M-275 569l-107 149h96l72 -102l71 102h97l-108 -149h-121z"/>
    <glyph glyph-name="uni0312" unicode="̒" horiz-adv-x="0" d="M-83 769l24 -44q-29 -8 -39 -19.5t-10 -35.5h58v-96h-113v84q0 88 80 111z"/>
    <glyph glyph-name="uni0326" unicode="̦" horiz-adv-x="0" d="M-130 -238l-24 44q29 8 39 19.5t10 35.5h-58v96h113v-84q0 -88 -80 -111z"/>
    <glyph glyph-name="uni0327" unicode="̧" horiz-adv-x="0" d="M-253 -77l41 84h64l-34 -55q19 14 48 14q38 0 60 -21.5t22 -60.5q0 -42 -31.5 -65.5t-85.5 -23.5q-89 0 -113 63l70 16q10 -27 40 -27q19 0 30 11t11 29q0 17 -10.5 27.5t-28.5 10.5q-20 0 -34 -15z"/>
    <glyph glyph-name="uni0328" unicode="̨" horiz-adv-x="0" d="M-119 -96l63 -21q-29 -86 -118 -86q-52 0 -81.5 24t-29.5 66q0 71 92 113h95q-55 -15 -82 -42.5t-27 -59.5q0 -39 39 -39q32 0 49 45z"/>
    <glyph glyph-name="uni0394" unicode="Δ" horiz-adv-x="627" d="M619 0h-610l239 710h135zM467 96l-153 485l-158 -485h311z"/>
    <glyph glyph-name="uni03A9" unicode="Ω" horiz-adv-x="658" d="M609 103v-103h-231l-16 246q69 13 106 62.5t37 128.5q0 86 -47.5 136.5t-128.5 50.5t-128.5 -50.5t-47.5 -136.5q0 -79 37 -128.5t106 -62.5l-16 -246h-231v103h142l6 78q-77 27 -120 95.5t-43 163.5q0 128 81 206t214 78q131 0 214 -78q81 -80 81 -206q0 -95 -43 -163.5 t-121 -95.5l7 -78h142z"/>
    <glyph glyph-name="uni03BC" unicode="μ" horiz-adv-x="598" d="M398 223v277h121v-500h-114v93q-18 -47 -60.5 -76t-95.5 -29q-32 0 -62 8v-191h-107v695h120v-303q0 -113 88 -113q50 0 80 38t30 101z"/>
    <glyph glyph-name="pi" unicode="π" horiz-adv-x="613" d="M580 91v-89q-32 -9 -61 -9q-73 0 -105.5 35.5t-32.5 106.5v279h-148v-414h-119v414h-81v86h548v-86h-81v-274q0 -52 48 -52q11 0 32 3z"/>
    <glyph glyph-name="uni0E3F" unicode="฿" horiz-adv-x="658" d="M472 363q68 -11 104.5 -53.5t36.5 -112.5q0 -93 -62.5 -145t-173.5 -52h-22v-107h-56v107h-211v695h211v91h56v-91h5q111 0 172.5 -47t61.5 -134q0 -58 -31.5 -97t-90.5 -54zM299 603h-93v-206h93v206zM469 503q0 94 -114 100v-206q114 6 114 106zM206 315v-223h93v223 h-93zM355 92h3q62 0 96 30t34 86q0 51 -32 79t-91 28h-10v-223z"/>
    <glyph glyph-name="Wgrave" unicode="Ẁ" horiz-adv-x="936" d="M421 866l93 -113h-99l-109 113h115zM341 0h-150l-169 710h131l108 -520q5 -22 6 -48h3q2 26 8 48l125 520h130l125 -520q6 -22 8 -48h3q1 26 6 48l108 520h131l-169 -710h-150l-119 520q-4 24 -6 42h-4q-2 -18 -6 -42z"/>
    <glyph glyph-name="wgrave" unicode="ẁ" horiz-adv-x="753" d="M324 723l100 -149h-98l-128 149h126zM280 0h-122l-137 500h118l77 -333q8 -41 9 -54h2q6 36 11 54l82 333h113l83 -333q10 -50 10 -54h2q6 37 9 54l78 333h118l-138 -500h-122l-86 330q-8 29 -9 49h-2q-7 -38 -9 -49z"/>
    <glyph glyph-name="Wacute" unicode="Ẃ" horiz-adv-x="936" d="M518 753h-99l93 113h115zM341 0h-150l-169 710h131l108 -520q5 -22 6 -48h3q2 26 8 48l125 520h130l125 -520q6 -22 8 -48h3q1 26 6 48l108 520h131l-169 -710h-150l-119 520q-4 24 -6 42h-4q-2 -18 -6 -42z"/>
    <glyph glyph-name="wacute" unicode="ẃ" horiz-adv-x="753" d="M427 574h-98l100 149h126zM280 0h-122l-137 500h118l77 -333q8 -41 9 -54h2q6 36 11 54l82 333h113l83 -333q10 -50 10 -54h2q6 37 9 54l78 333h118l-138 -500h-122l-86 330q-8 29 -9 49h-2q-7 -38 -9 -49z"/>
    <glyph glyph-name="Wdieresis" unicode="Ẅ" horiz-adv-x="936" d="M413 753h-114v106h114v-106zM638 753h-114v106h114v-106zM341 0h-150l-169 710h131l108 -520q5 -22 6 -48h3q2 26 8 48l125 520h130l125 -520q6 -22 8 -48h3q1 26 6 48l108 520h131l-169 -710h-150l-119 520q-4 24 -6 42h-4q-2 -18 -6 -42z"/>
    <glyph glyph-name="wdieresis" unicode="ẅ" horiz-adv-x="753" d="M330 585h-117v117h117v-117zM541 585h-117v117h117v-117zM280 0h-122l-137 500h118l77 -333q8 -41 9 -54h2q6 36 11 54l82 333h113l83 -333q10 -50 10 -54h2q6 37 9 54l78 333h118l-138 -500h-122l-86 330q-8 29 -9 49h-2q-7 -38 -9 -49z"/>
    <glyph glyph-name="Ygrave" unicode="Ỳ" horiz-adv-x="605" d="M256 866l93 -113h-99l-109 113h115zM368 0h-131v271l-239 439h140l145 -283q15 -28 19 -46h2q4 19 18 46l145 283h140l-239 -439v-271z"/>
    <glyph glyph-name="ygrave" unicode="ỳ" horiz-adv-x="511" d="M206 723l100 -149h-98l-128 149h126zM97 -201q-28 0 -56 5v94q31 -3 46 -3q42 0 66.5 19t38.5 61l10 30l-195 495h132l109 -327q9 -26 15 -59h2q2 19 15 59l99 327h125l-188 -528q-33 -93 -84.5 -133t-134.5 -40z"/>
    <glyph glyph-name="uni2002" unicode=" " horiz-adv-x="500"/>
    <glyph glyph-name="uni2003" unicode=" " horiz-adv-x="1000"/>
    <glyph glyph-name="uni2004" unicode=" " horiz-adv-x="0"/>
    <glyph glyph-name="uni2005" unicode=" " horiz-adv-x="250"/>
    <glyph glyph-name="uni2009" unicode=" " horiz-adv-x="135"/>
    <glyph glyph-name="uni200A" unicode=" " horiz-adv-x="75"/>
    <glyph glyph-name="endash" unicode="–" horiz-adv-x="563" d="M47 234v88h469v-88h-469z"/>
    <glyph glyph-name="emdash" unicode="—" horiz-adv-x="824" d="M47 234v88h730v-88h-730z"/>
    <glyph glyph-name="quoteleft" unicode="‘" horiz-adv-x="270" d="M173 729l27 -54q-38 -15 -51.5 -34t-13.5 -56v-3h71v-139h-142v131q0 63 24.5 98.5t84.5 56.5z"/>
    <glyph glyph-name="quoteright" unicode="’" horiz-adv-x="270" d="M97 424l-27 54q38 15 51.5 34t13.5 56v3h-71v139h142v-131q0 -63 -24.5 -98.5t-84.5 -56.5z"/>
    <glyph glyph-name="quotesinglbase" unicode="‚" horiz-adv-x="270" d="M97 -147l-27 54q38 15 51.5 34t13.5 56v3h-71v139h142v-131q0 -63 -24.5 -98.5t-84.5 -56.5z"/>
    <glyph glyph-name="quotedblleft" unicode="“" horiz-adv-x="459" d="M173 730l27 -54q-38 -15 -51.5 -34t-13.5 -56v-3h71v-139h-142v131q0 63 24.5 98.5t84.5 56.5zM362 730l27 -54q-38 -15 -51.5 -34t-13.5 -56v-3h71v-139h-142v131q0 63 24.5 98.5t84.5 56.5z"/>
    <glyph glyph-name="quotedblright" unicode="”" horiz-adv-x="459" d="M97 423l-27 54q38 15 51.5 34t13.5 56v3h-71v139h142v-131q0 -63 -24.5 -98.5t-84.5 -56.5zM286 423l-27 54q38 15 51.5 34t13.5 56v3h-71v139h142v-131q0 -63 -24.5 -98.5t-84.5 -56.5z"/>
    <glyph glyph-name="quotedblbase" unicode="„" horiz-adv-x="459" d="M97 -148l-27 54q38 15 51.5 34t13.5 56v3h-71v139h142v-131q0 -63 -24.5 -98.5t-84.5 -56.5zM286 -148l-27 54q38 15 51.5 34t13.5 56v3h-71v139h142v-131q0 -63 -24.5 -98.5t-84.5 -56.5z"/>
    <glyph glyph-name="dagger" unicode="†" horiz-adv-x="491" d="M430 419h-136v-519h-98v519h-135v81h135v220h98v-220h136v-81z"/>
    <glyph glyph-name="daggerdbl" unicode="‡" horiz-adv-x="491" d="M430 500v-81h-136v-219h135v-81h-135v-219h-98v219h-134v81h134v219h-135v81h135v220h98v-220h136z"/>
    <glyph glyph-name="bullet" unicode="•" horiz-adv-x="349" d="M174 234q-48 0 -79 30t-31 78q0 50 31 80.5t79 30.5q49 0 80 -30.5t31 -80.5q0 -48 -31 -78t-80 -30z"/>
    <glyph glyph-name="ellipsis" unicode="…" horiz-adv-x="834" d="M64 135h142v-135h-142v135zM346 135h142v-135h-142v135zM628 135h142v-135h-142v135z"/>
    <glyph glyph-name="perthousand" unicode="‰" horiz-adv-x="1216" d="M199 351q-84 0 -134 50.5t-50 135.5q0 83 50 133.5t133 50.5q82 0 132.5 -51t49.5 -135q1 -83 -49 -133.5t-132 -50.5zM232 -15h-94l452 731h92zM199 427q40 0 64 28.5t24 79.5q0 53 -24 81t-65 28t-65 -28q-25 -28 -25 -79q0 -53 24 -81.5t67 -28.5zM626 -14 q-84 0 -134 50.5t-50 135.5q0 83 50 133.5t133 50.5q82 0 132.5 -51t49.5 -135q1 -83 -49 -133.5t-132 -50.5zM1019 -14q-84 0 -134 50.5t-50 135.5q0 83 50 133.5t133 50.5q82 0 132.5 -51t49.5 -135q1 -83 -49 -133.5t-132 -50.5zM626 62q40 0 64 28.5t24 79.5 q0 52 -24 81q-24 28 -65 28t-65 -28q-25 -28 -25 -79q0 -53 24 -81.5t67 -28.5zM1019 62q40 0 64 28.5t24 79.5q0 52 -24 81q-24 28 -65 28t-65 -28q-25 -28 -25 -79q0 -53 24 -81.5t67 -28.5z"/>
    <glyph glyph-name="guilsinglleft" unicode="‹" horiz-adv-x="324" d="M304 67h-113l-167 209l169 207h112l-164 -207z"/>
    <glyph glyph-name="guilsinglright" unicode="›" horiz-adv-x="324" d="M300 276l-167 -209h-113l163 209l-164 207h112z"/>
    <glyph glyph-name="fraction" unicode="⁄" horiz-adv-x="197" d="M-75 -17h-90l438 744h89z"/>
    <glyph glyph-name="uni20A9" unicode="₩" horiz-adv-x="903" d="M762 695h119l-56 -238h56v-57h-70l-19 -82h89v-58h-103l-61 -260h-137l-57 260h-143l-57 -260h-137l-61 260h-103v58h89l-19 82h-70v57h56l-56 238h119l46 -238h151l55 238h116l56 -238h151zM429 486l-6 -29h57l-6 29q-14 60 -21 132h-4q-8 -76 -20 -132zM325 400h-127 l15 -82h92zM410 400l-18 -82h119l-18 82h-83zM597 318h93l15 82h-127zM276 191l16 69h-68l13 -66q13 -63 16 -112h3q6 44 20 109zM666 194l13 66h-68l16 -69q16 -69 19 -109h3q6 56 17 112z"/>
    <glyph glyph-name="Euro" unicode="€" horiz-adv-x="663" d="M540 188l106 -44q-78 -159 -274 -159q-125 0 -203 71.5t-102 198.5h-56v63h48q-1 9 -1 40q0 22 1 28h-48v63h54q21 125 101 193t209 68q195 0 265 -150l-107 -46q-51 95 -163 95q-72 0 -117.5 -41t-61.5 -119h296v-63h-303q-1 -6 -1 -27q0 -7 2 -41h302v-63h-293 q19 -81 66.5 -125t116.5 -44q109 0 163 102z"/>
    <glyph glyph-name="uni20B9" unicode="₹" horiz-adv-x="556" d="M67 695h482v-79h-175q50 -38 60 -105h115v-62h-113q-8 -78 -66.5 -125t-156.5 -53l225 -271h-138l-233 284v65h104q123 0 138 100h-242v62h241q-16 105 -136 105h-105v79z"/>
    <glyph glyph-name="uni20BA" unicode="₺" horiz-adv-x="572" d="M456 243l107 -20q-51 -223 -273 -223h-195v265l-71 -21v67l71 21v78l-71 -21v68l71 21v217h123v-181l226 66v-68l-226 -66v-78l226 66v-67l-226 -66v-203h56q77 0 119.5 37.5t62.5 107.5z"/>
    <glyph glyph-name="uni20BD" unicode="₽" horiz-adv-x="597" d="M326 273h-107v-79h150v-62h-150v-132h-123v132h-76v62h76v79h-76v85h76v337h236q114 0 181 -57t67 -152q0 -99 -68 -156t-186 -57zM314 599h-95v-241h95q63 0 99 32.5t36 89.5q0 55 -36.5 87t-98.5 32z"/>
    <glyph glyph-name="uni2105" unicode="℅" horiz-adv-x="875" d="M753 735l-538 -748h-101l538 748h101zM22 542q0 89 47.5 140.5t136.5 51.5q69 0 112.5 -36t50.5 -98l-92 -15q-10 70 -75 70q-41 0 -63 -30t-22 -82q0 -54 22.5 -85t64.5 -31q67 0 75 73l89 -18q-10 -62 -52.5 -98t-112.5 -36q-85 0 -133 53.5t-48 140.5zM801 41 q-50 -53 -132 -53q-81 0 -131 53q-49 52 -49 140t49 140t131 52q83 0 132 -52t49 -140t-49 -140zM755 181q0 54 -23 84.5t-63 30.5t-62.5 -30.5t-22.5 -84.5q0 -55 22.5 -85t62.5 -30q41 0 63.5 30t22.5 85z"/>
    <glyph glyph-name="uni2113" unicode="ℓ" horiz-adv-x="467" d="M217 242v-47q0 -57 21 -81.5t70 -24.5q30 0 61 7v-96q-41 -11 -91 -11q-95 0 -138 46t-43 139v11q-53 -20 -81 -29l-32 87q75 25 113 42v265q0 91 43.5 137t120.5 46q80 0 123 -45t43 -127q0 -197 -210 -319zM217 580v-228q92 72 92 199q0 52 -11.5 74t-36.5 22 q-44 0 -44 -67z"/>
    <glyph glyph-name="uni2116" unicode="№" horiz-adv-x="1234" d="M205 0h-117v710h148l267 -465q30 -53 44 -91h2q-2 70 -2 92v464h117v-710h-145l-271 467q-27 50 -43 89h-2q2 -36 2 -94v-462zM1127 239q-63 -65 -166 -65t-165 65q-63 64 -63 172q0 107 62 172q61 64 166 64q104 0 167 -64q62 -65 62 -172t-63 -172zM879 306 q30 -38 82 -38t82 38t30 105q0 66 -30 104.5t-82 38.5t-82 -38.5t-30 -104.5q0 -67 30 -105zM1190 0h-457v91h457v-91z"/>
    <glyph glyph-name="trademark" unicode="™" horiz-adv-x="879" d="M209 304h-81v338h-123v68h335v-68h-131v-338zM458 304h-75v406h115l91 -273q11 -35 12 -56h2q1 21 12 56l90 273h115v-406h-74v265q0 39 2 77h-1q-4 -19 -20 -69l-90 -273h-71l-89 273q-16 50 -20 69h-1q2 -38 2 -77v-265z"/>
    <glyph glyph-name="uni2126" unicode="Ω" horiz-adv-x="658" d="M609 103v-103h-231l-16 246q69 13 106 62.5t37 128.5q0 86 -47.5 136.5t-128.5 50.5t-128.5 -50.5t-47.5 -136.5q0 -79 37 -128.5t106 -62.5l-16 -246h-231v103h142l6 78q-77 27 -120 95.5t-43 163.5q0 128 81 206t214 78q131 0 214 -78q81 -80 81 -206q0 -95 -43 -163.5 t-121 -95.5l7 -78h142z"/>
    <glyph glyph-name="estimated" unicode="℮" horiz-adv-x="739" d="M702 389v-40h-499v-235q70 -59 181 -59q84 0 142 29.5t106 97.5l50 -39q-100 -157 -298 -157q-149 0 -247 92q-99 92 -99 273q0 173 98 269q98 95 242 95q147 0 236 -89q88 -88 88 -237zM545 412v184q-62 58 -172 58q-102 0 -170 -61v-181h342z"/>
    <glyph glyph-name="uni2153" unicode="⅓" horiz-adv-x="839" d="M195 -17h-90l438 744h89zM197 325h-82v271q-26 -25 -74 -25h-15v76h10q72 0 94 64h67v-386zM651 -8q-72 0 -114 33.5t-43 91.5l85 8q0 -32 19.5 -50t53.5 -18q66 0 66 57q0 51 -75 51h-31v61h29q32 0 49.5 14t17.5 38q0 52 -61 52q-31 0 -49 -18.5t-18 -51.5l-83 10 q0 57 42 91t113 34q68 0 105.5 -28.5t37.5 -78.5q0 -33 -22 -57t-59 -31q93 -14 93 -93q0 -53 -42.5 -84t-113.5 -31z"/>
    <glyph glyph-name="uni2154" unicode="⅔" horiz-adv-x="934" d="M290 -17h-90l438 744h89zM332 325h-302v62q113 65 160.5 110t47.5 96q0 59 -59 59q-63 0 -63 -59q0 -10 5 -30l-87 7q-3 15 -3 31q0 55 40.5 87t110.5 32q68 0 106.5 -31.5t38.5 -89.5q0 -117 -182 -207h187v-67zM746 -8q-72 0 -114 33.5t-43 91.5l85 8q0 -32 19.5 -50 t53.5 -18q66 0 66 57q0 51 -75 51h-31v61h29q32 0 49.5 14t17.5 38q0 52 -61 52q-31 0 -49 -18.5t-18 -51.5l-83 10q0 57 42 91t113 34q68 0 105.5 -28.5t37.5 -78.5q0 -33 -22 -57t-59 -31q93 -14 93 -93q0 -53 -42.5 -84t-113.5 -31z"/>
    <glyph glyph-name="oneeighth" unicode="⅛" horiz-adv-x="849" d="M105 -17l438 744h89l-437 -744h-90zM197 325h-82v271q-26 -25 -74 -25h-15v76h10q72 0 94 64h67v-386zM736 212q85 -28 85 -105q0 -52 -45 -83.5t-120 -31.5q-74 0 -117.5 29.5t-43.5 78.5q0 72 81 94q-69 29 -69 94q0 47 40.5 77t106.5 30q67 0 108 -26.5t41 -71.5 q0 -63 -67 -85zM654 337q-30 0 -48.5 -13t-18.5 -36q0 -38 68 -55l25 -6q43 18 43 57q0 25 -18.5 39t-50.5 14zM658 53q35 0 56 15t21 40q0 44 -70 60l-32 9q-52 -19 -52 -65q0 -27 20.5 -43t56.5 -16z"/>
    <glyph glyph-name="threeeighths" unicode="⅜" horiz-adv-x="951" d="M207 -17l438 744h89l-437 -744h-90zM340 432q0 -53 -42.5 -84t-113.5 -31q-72 0 -114 33.5t-43 91.5l85 8q0 -32 19.5 -50t53.5 -18q66 0 66 57q0 51 -75 51h-31v61h29q32 0 49.5 14t17.5 38q0 52 -61 52q-31 0 -49 -18.5t-18 -51.5l-83 10q0 57 42 91t113 34 q68 0 105.5 -28.5t37.5 -78.5q0 -33 -22 -57t-59 -31q93 -13 93 -93zM838 212q85 -28 85 -105q0 -52 -45 -83.5t-120 -31.5q-74 0 -117.5 29.5t-43.5 78.5q0 72 81 94q-69 29 -69 94q0 47 40.5 77t106.5 30q67 0 108 -26.5t41 -71.5q0 -63 -67 -85zM756 337q-30 0 -48.5 -13 t-18.5 -36q0 -38 68 -55l25 -6q43 18 43 57q0 25 -18.5 39t-50.5 14zM760 53q35 0 56 15t21 40q0 44 -70 60l-32 9q-52 -19 -52 -65q0 -27 20.5 -43t56.5 -16z"/>
    <glyph glyph-name="fiveeighths" unicode="⅝" horiz-adv-x="947" d="M203 -17l438 744h89l-437 -744h-90zM337 457q0 -65 -41.5 -102.5t-112.5 -37.5q-62 0 -102.5 28t-49.5 78l82 13q5 -25 23 -39.5t45 -14.5q34 0 53 19t19 53t-18 54.5t-51 20.5q-54 0 -69 -49l-75 6l26 225h250v-67h-190l-12 -96q30 41 94 41q60 0 94.5 -35.5t34.5 -96.5 zM834 212q85 -28 85 -105q0 -52 -45 -83.5t-120 -31.5q-74 0 -117.5 29.5t-43.5 78.5q0 72 81 94q-69 29 -69 94q0 47 40.5 77t106.5 30q67 0 108 -26.5t41 -71.5q0 -63 -67 -85zM752 337q-30 0 -48.5 -13t-18.5 -36q0 -38 68 -55l25 -6q43 18 43 57q0 25 -18.5 39t-50.5 14 zM756 53q35 0 56 15t21 40q0 44 -70 60l-32 9q-52 -19 -52 -65q0 -27 20.5 -43t56.5 -16z"/>
    <glyph glyph-name="seveneighths" unicode="⅞" horiz-adv-x="864" d="M120 -17l438 744h89l-437 -744h-90zM83 325v5q1 83 40 165t106 146h-204v70h289v-65q-137 -131 -138 -311v-10h-93zM751 212q85 -28 85 -105q0 -52 -45 -83.5t-120 -31.5q-74 0 -117.5 29.5t-43.5 78.5q0 72 81 94q-69 29 -69 94q0 47 40.5 77t106.5 30q67 0 108 -26.5 t41 -71.5q0 -63 -67 -85zM669 337q-30 0 -48.5 -13t-18.5 -36q0 -38 68 -55l25 -6q43 18 43 57q0 25 -18.5 39t-50.5 14zM673 53q35 0 56 15t21 40q0 44 -70 60l-32 9q-52 -19 -52 -65q0 -27 20.5 -43t56.5 -16z"/>
    <glyph glyph-name="arrowleft" unicode="←" horiz-adv-x="1052" d="M964 364v-68h-697v-100l-179 134l179 134v-100h697z"/>
    <glyph glyph-name="arrowup" unicode="↑" horiz-adv-x="445" d="M258 -35h-72v606h-98l134 179l135 -179h-99v-606z"/>
    <glyph glyph-name="arrowright" unicode="→" horiz-adv-x="1052" d="M88 296v68h697v100l179 -134l-179 -134v100h-697z"/>
    <glyph glyph-name="arrowdown" unicode="↓" horiz-adv-x="445" d="M187 745h72v-606h98l-134 -179l-135 179h99v606z"/>
    <glyph glyph-name="arrowboth" unicode="↔" horiz-adv-x="1052" d="M785 196v100h-518v-100l-179 134l179 134v-100h518v100l179 -134z"/>
    <glyph glyph-name="arrowupdn" unicode="↕" horiz-adv-x="445" d="M222 -40l-134 179h98v432h-98l134 179l135 -179h-99v-432h99z"/>
    <glyph glyph-name="uni2196" unicode="↖" horiz-adv-x="901" d="M763 -16l-589 589l-86 -89v226h219l-82 -86l588 -588z"/>
    <glyph glyph-name="uni2197" unicode="↗" horiz-adv-x="901" d="M813 485l-86 89l-589 -589l-50 52l588 588l-82 86h219v-226z"/>
    <glyph glyph-name="uni2198" unicode="↘" horiz-adv-x="901" d="M138 737l589 -589l86 89v-226h-219l82 86l-588 588z"/>
    <glyph glyph-name="uni2199" unicode="↙" horiz-adv-x="901" d="M88 237l86 -89l589 589l50 -52l-588 -588l82 -86h-219v226z"/>
    <glyph glyph-name="uni21A9" unicode="↩" horiz-adv-x="976" d="M267 296v-100l-179 134l179 134v-100h399q68 0 106.5 33.5t38.5 95.5t-38 95.5t-107 33.5h-223v68h234q99 0 155 -51.5t56 -144.5t-56.5 -145.5t-154.5 -52.5h-410z"/>
    <glyph glyph-name="uni21AA" unicode="↪" horiz-adv-x="976" d="M888 330l-179 -134v100h-410q-98 0 -154.5 52.5t-56.5 145.5t56 144.5t155 51.5h234v-68h-223q-69 0 -107 -33.5t-38 -95.5t38.5 -95.5t106.5 -33.5h399v100z"/>
    <glyph glyph-name="uni21B0" unicode="↰" horiz-adv-x="824" d="M736 0h-73v566h-396v-100l-179 134l179 134v-100h469v-634z"/>
    <glyph glyph-name="uni21B1" unicode="↱" horiz-adv-x="824" d="M161 566v-566h-73v634h469v100l179 -134l-179 -134v100h-396z"/>
    <glyph glyph-name="uni21B2" unicode="↲" horiz-adv-x="824" d="M663 144v566h73v-634h-469v-100l-179 134l179 134v-100h396z"/>
    <glyph glyph-name="uni21B3" unicode="↳" horiz-adv-x="824" d="M88 710h73v-566h396v100l179 -134l-179 -134v100h-469v634z"/>
    <glyph glyph-name="uni21B4" unicode="↴" horiz-adv-x="910" d="M88 716h637v-557h97l-134 -179l-134 179h98v489h-564v68z"/>
    <glyph glyph-name="uni21BB" unicode="↻" horiz-adv-x="1013" d="M925 367l-135 -179l-134 179h99q-4 126 -89 206q-86 78 -207 78q-125 0 -209 -81q-84 -83 -84 -215q0 -133 85 -215q84 -84 208 -84q63 0 122 25t102 70l47 -58q-110 -110 -271 -110q-154 0 -263 104q-108 104 -108 266q0 165 108 268q106 103 263 103q153 0 259 -99 t111 -258h96z"/>
    <glyph glyph-name="uni21C4" unicode="⇄" horiz-adv-x="1067" d="M907 480v-68h-640v-100l-179 134l179 134v-100h640zM161 248h639v100l179 -134l-179 -135v101h-639v68z"/>
    <glyph glyph-name="uni21C5" unicode="⇅" horiz-adv-x="682" d="M495 31h-72v540h-98l134 179l135 -179h-99v-540zM357 139l-135 -179l-134 179h98v543h72v-543h99z"/>
    <glyph glyph-name="partialdiff" unicode="∂" horiz-adv-x="622" d="M277 721q142 0 215.5 -97t73.5 -286q0 -171 -71 -263t-203 -92q-112 0 -180 66q-69 66 -69 176q0 105 63 169q61 64 166 64q113 0 175 -83q-4 244 -174 244q-60 0 -123 -31l-45 91q83 42 172 42zM299 76q68 0 107 50.5t41 140.5q-51 100 -147 100q-62 0 -98.5 -38 t-36.5 -103q0 -69 36 -109.5t98 -40.5z"/>
    <glyph glyph-name="emptyset" unicode="∅" horiz-adv-x="545" d="M465 555l42 -39l-55 -60q50 -64 50 -152q0 -102 -63 -166q-64 -64 -167 -64q-80 0 -136 40l-56 -61l-42 39l56 60q-51 62 -51 152q0 103 64 167t166 64q81 0 137 -40zM141 304q0 -44 20 -79l183 199q-29 20 -71 20q-59 0 -95.5 -39t-36.5 -101zM403 304q0 46 -19 78 l-183 -198q32 -20 71 -20q59 0 95 38.5t36 101.5z"/>
    <glyph glyph-name="uni2206" unicode="∆" horiz-adv-x="627" d="M619 0h-610l239 710h135zM467 96l-153 485l-158 -485h311z"/>
    <glyph glyph-name="product" unicode="∏" horiz-adv-x="671" d="M587 -88h-116v689h-270v-689h-116v793h502v-793z"/>
    <glyph glyph-name="summation" unicode="∑" horiz-adv-x="590" d="M545 -88h-495v92l263 323l-250 287v91h470v-98h-329l246 -280l-264 -317h359v-98z"/>
    <glyph glyph-name="minus" unicode="−" horiz-adv-x="566" d="M519 282h-472v92h472v-92z"/>
    <glyph glyph-name="radical" unicode="√" d="M41 238v93h149l79 -281l202 684h108l-254 -828h-110l-105 332h-69z"/>
    <glyph glyph-name="infinity" unicode="∞" d="M438 479q61 0 99 -41.5t38 -108.5q0 -66 -39 -109t-98 -43q-78 0 -128 80q-27 -41 -57 -60.5t-71 -19.5q-61 0 -98.5 41.5t-37.5 108.5q0 66 38.5 109t97.5 43q80 0 129 -79q49 79 127 79zM191 260q26 0 42.5 14.5t36.5 51.5q-19 37 -37.5 53.5t-43.5 16.5q-27 0 -42 -18 t-15 -50t15.5 -50t43.5 -18zM431 260q27 0 42.5 18t15.5 50q0 31 -16 49.5t-44 18.5q-26 0 -42.5 -14.5t-36.5 -51.5q19 -37 37.5 -53.5t43.5 -16.5z"/>
    <glyph glyph-name="integral" unicode="∫" d="M157 -116q-21 0 -45 3v92q18 -2 38 -2q60 0 83 26t23 92v417q0 97 50 150t148 52q27 0 60 -4v-92q-21 4 -50 4q-49 0 -70.5 -29t-21.5 -91v-418q0 -200 -215 -200z"/>
    <glyph glyph-name="approxequal" unicode="≈" d="M424 355q-42 0 -117 28q-77 28 -109 28q-73 0 -125 -43v95q20 18 55.5 29.5t69.5 11.5q49 0 121 -28t105 -28q71 0 123 43v-95q-18 -17 -53.5 -29t-69.5 -12zM424 164q-42 0 -117 28q-78 27 -109 27q-73 0 -125 -43v96q20 17 56 29t69 12q49 0 121 -28t105 -28 q74 0 123 43v-95q-18 -18 -53 -29.5t-70 -11.5z"/>
    <glyph glyph-name="notequal" unicode="≠" d="M519 471v-93h-165l-38 -98h203v-93h-240l-48 -124h-68l48 124h-164v93h201l38 98h-239v93h275l47 120h68l-47 -120h129z"/>
    <glyph glyph-name="lessequal" unicode="≤" d="M536 232v-100l-468 202v90l468 202v-98l-355 -148zM70 0v88h464v-88h-464z"/>
    <glyph glyph-name="greaterequal" unicode="≥" d="M552 334l-468 -202v100l355 148l-355 148v98l468 -202v-90zM86 88h464v-88h-464v88z"/>
    <glyph glyph-name="uni2460" unicode="①" horiz-adv-x="820" d="M674 86q-107 -103 -264 -103t-264 103q-108 102 -108 269q0 168 108 270q106 102 264 102q157 0 265 -102q107 -102 107 -270q0 -167 -108 -269zM410 36q131 0 222 88q91 87 91 231t-91 232q-92 87 -222 87q-132 0 -222 -87q-91 -88 -91 -232t91 -231q89 -88 222 -88z M464 162h-82v271q-26 -25 -74 -25h-15v76h10q72 0 94 64h67v-386z"/>
    <glyph glyph-name="uni2461" unicode="②" horiz-adv-x="820" d="M674 86q-107 -103 -264 -103t-264 103q-108 102 -108 269q0 168 108 270q106 102 264 102q157 0 265 -102q107 -102 107 -270q0 -167 -108 -269zM410 36q131 0 222 88q91 87 91 231t-91 232q-92 87 -222 87q-132 0 -222 -87q-91 -88 -91 -232t91 -231q89 -88 222 -88z M561 173h-302v62q113 65 160.5 110t47.5 96q0 59 -59 59q-63 0 -63 -59q0 -10 5 -30l-87 7q-3 15 -3 31q0 55 40.5 87t110.5 32q68 0 106.5 -31.5t38.5 -89.5q0 -117 -182 -207h187v-67z"/>
    <glyph glyph-name="uni2462" unicode="③" horiz-adv-x="820" d="M674 86q-107 -103 -264 -103t-264 103q-108 102 -108 269q0 168 108 270q106 102 264 102q157 0 265 -102q107 -102 107 -270q0 -167 -108 -269zM410 36q131 0 222 88q91 87 91 231t-91 232q-92 87 -222 87q-132 0 -222 -87q-91 -88 -91 -232t91 -231q89 -88 222 -88z M411 154q-72 0 -114 33.5t-43 91.5l85 8q0 -32 19.5 -50t53.5 -18q66 0 66 57q0 51 -75 51h-31v61h29q32 0 49.5 14t17.5 38q0 52 -61 52q-31 0 -49 -18.5t-18 -51.5l-83 10q0 57 42 91t113 34q68 0 105.5 -28.5t37.5 -78.5q0 -33 -22 -57t-59 -31q93 -14 93 -93 q0 -53 -42.5 -84t-113.5 -31z"/>
    <glyph glyph-name="uni2463" unicode="④" horiz-adv-x="820" d="M674 86q-107 -103 -264 -103t-264 103q-108 102 -108 269q0 168 108 270q106 102 264 102q157 0 265 -102q107 -102 107 -270q0 -167 -108 -269zM410 36q131 0 222 88q91 87 91 231t-91 232q-92 87 -222 87q-132 0 -222 -87q-91 -88 -91 -232t91 -231q89 -88 222 -88z M560 313v-62h-61v-86h-82v86h-191v59l180 241h93v-238h61zM417 313v160l-118 -160h118z"/>
    <glyph glyph-name="uni2464" unicode="⑤" horiz-adv-x="820" d="M674 86q-107 -103 -264 -103t-264 103q-108 102 -108 269q0 168 108 270q106 102 264 102q157 0 265 -102q107 -102 107 -270q0 -167 -108 -269zM410 36q131 0 222 88q91 87 91 231t-91 232q-92 87 -222 87q-132 0 -222 -87q-91 -88 -91 -232t91 -231q89 -88 222 -88z M409 158q-62 0 -102.5 28t-49.5 78l82 13q5 -25 23 -39.5t45 -14.5q34 0 53 19t19 53t-18 54.5t-51 20.5q-54 0 -69 -49l-75 6l26 225h250v-67h-190l-12 -96q30 41 94 41q60 0 94.5 -35.5t34.5 -96.5q0 -65 -41.5 -102.5t-112.5 -37.5z"/>
    <glyph glyph-name="uni2465" unicode="⑥" horiz-adv-x="820" d="M146 625q106 102 264 102q157 0 265 -102q107 -102 107 -270q0 -167 -108 -269q-107 -103 -264 -103t-264 103q-108 102 -108 269q0 168 108 270zM410 36q131 0 222 88q91 87 91 231t-91 232q-92 87 -222 87q-132 0 -222 -87q-91 -88 -91 -232t91 -231q89 -88 222 -88z M437 423q58 0 92 -35t34 -96t-41 -99.5t-107 -38.5q-78 0 -121 51t-43 144q0 97 43.5 152.5t121.5 55.5q123 0 141 -103l-80 -12q-11 50 -63 50q-39 0 -61 -32.5t-23 -94.5q30 58 107 58zM413 217q33 0 52 19.5t19 51.5q0 33 -19.5 53.5t-51.5 20.5q-57 0 -80 -57 q15 -88 80 -88z"/>
    <glyph glyph-name="uni2466" unicode="⑦" horiz-adv-x="820" d="M674 86q-107 -103 -264 -103t-264 103q-108 102 -108 269q0 168 108 270q106 102 264 102q157 0 265 -102q107 -102 107 -270q0 -167 -108 -269zM410 36q131 0 222 88q91 87 91 231t-91 232q-92 87 -222 87q-132 0 -222 -87q-91 -88 -91 -232t91 -231q89 -88 222 -88z M471 478h-204v70h289v-65q-137 -131 -138 -311v-10h-93v5q1 83 40 165t106 146z"/>
    <glyph glyph-name="uni2467" unicode="⑧" horiz-adv-x="820" d="M146 625q106 102 264 102q157 0 265 -102q107 -102 107 -270q0 -167 -108 -269q-107 -103 -264 -103t-264 103q-108 102 -108 269q0 168 108 270zM410 36q131 0 222 88q91 87 91 231t-91 232q-92 87 -222 87q-132 0 -222 -87q-91 -88 -91 -232t91 -231q89 -88 222 -88z M488 374q85 -28 85 -105q0 -52 -45 -83.5t-120 -31.5q-74 0 -117.5 29.5t-43.5 78.5q0 72 81 94q-69 28 -69 94q0 47 40.5 77t106.5 30q67 0 108 -26.5t41 -71.5q0 -63 -67 -85zM406 499q-30 0 -48.5 -13t-18.5 -36q0 -38 68 -55l25 -6q43 18 43 57q0 25 -18.5 39t-50.5 14z M410 215q35 0 56 15t21 40q0 44 -70 60l-32 9q-52 -19 -52 -65q0 -27 20.5 -43t56.5 -16z"/>
    <glyph glyph-name="uni2468" unicode="⑨" horiz-adv-x="820" d="M146 625q106 102 264 102q157 0 265 -102q107 -102 107 -270q0 -167 -108 -269q-107 -103 -264 -103t-264 103q-108 102 -108 269q0 168 108 270zM410 36q131 0 222 88q91 87 91 231t-91 232q-92 87 -222 87q-132 0 -222 -87q-91 -88 -91 -232t91 -231q89 -88 222 -88z M405 557q79 0 120.5 -50t41.5 -146q0 -207 -164 -207q-60 0 -97 26.5t-45 75.5l79 15q13 -52 68 -52q72 0 78 118q-38 -39 -97 -39q-61 0 -98 35t-37 91q0 60 41 96.5t110 36.5zM405 360q51 0 80 44q-11 90 -79 90q-33 0 -52.5 -18.5t-19.5 -48.5t19.5 -48.5t51.5 -18.5z "/>
    <glyph glyph-name="uni24EA" unicode="⓪" horiz-adv-x="820" d="M674 86q-107 -103 -264 -103t-264 103q-108 102 -108 269q0 168 108 270q106 102 264 102q157 0 265 -102q107 -102 107 -270q0 -167 -108 -269zM410 36q131 0 222 88q91 87 91 231t-91 232q-92 87 -222 87q-132 0 -222 -87q-91 -88 -91 -232t91 -231q89 -88 222 -88z M538 207q-45 -53 -127 -53t-127 53q-46 52 -46 148q0 95 45.5 148.5t126.5 53.5q82 0 127.5 -53.5t45.5 -149.5q0 -94 -45 -147zM411 220q85 0 85 134q0 66 -22.5 101.5t-63.5 35.5q-40 0 -62 -35.5t-22 -100.5q0 -135 85 -135z"/>
    <glyph glyph-name="uni24FF" unicode="⓿" horiz-adv-x="820" d="M674 86q-107 -103 -264 -103t-264 103q-108 102 -108 269t108 270q108 102 264 102t264 -102q108 -103 108 -270t-108 -269zM411 154q82 0 128 52.5t46 148.5t-46 149t-129 53q-82 0 -128 -53t-46 -149t46 -148.5t129 -52.5zM411 223q-82 0 -82 132q0 133 81 133 q82 0 82 -133q0 -132 -81 -132z"/>
    <glyph glyph-name="lozenge" unicode="◊" horiz-adv-x="558" d="M529 355l-201 -372h-100l-199 372l199 372h100zM421 355l-143 271l-140 -271l140 -271z"/>
    <glyph glyph-name="circle" unicode="○" horiz-adv-x="820" d="M674 86q-107 -103 -264 -103t-264 103q-108 102 -108 269q0 168 108 270q106 102 264 102q157 0 265 -102q107 -102 107 -270q0 -167 -108 -269zM410 36q131 0 222 88q91 87 91 231t-91 232q-92 87 -222 87q-132 0 -222 -87q-91 -88 -91 -232t91 -231q89 -88 222 -88z "/>
    <glyph glyph-name="uni25CF" unicode="●" horiz-adv-x="820" d="M674 86q-107 -103 -264 -103t-264 103q-108 102 -108 269t108 270q108 102 264 102t264 -102q108 -103 108 -270t-108 -269z"/>
    <glyph glyph-name="uni2776" unicode="❶" horiz-adv-x="820" d="M674 86q-107 -103 -264 -103t-264 103q-108 102 -108 269t108 270q108 102 264 102t264 -102q108 -103 108 -270t-108 -269zM379 429v-267h89v386h-72q-22 -63 -95 -63h-11v-81h15q49 0 74 25z"/>
    <glyph glyph-name="uni2777" unicode="❷" horiz-adv-x="820" d="M674 86q-107 -103 -264 -103t-264 103q-108 102 -108 269t108 270q108 102 264 102t264 -102q108 -103 108 -270t-108 -269zM256 238v-65h308v71h-185q180 87 180 204q0 57 -39 89t-109 32q-71 0 -112.5 -32.5t-41.5 -87.5q0 -17 3 -30l92 -9q-4 15 -4 31q0 27 15.5 42 t43.5 15q57 0 57 -58t-63 -106q-33 -27 -62 -45q-23 -15 -83 -51z"/>
    <glyph glyph-name="uni2778" unicode="❸" horiz-adv-x="820" d="M674 86q-107 -103 -264 -103t-264 103q-108 102 -108 269t108 270q108 102 264 102t264 -102q108 -103 108 -270t-108 -269zM296 188q41 -34 115 -34q73 0 116 31q42 31 42 84q0 79 -93 93q37 7 59.5 31t22.5 56q0 51 -38 79.5t-107 28.5q-72 0 -115 -34t-43 -90l89 -11 q0 32 17 50t47 18q27 0 42.5 -13.5t15.5 -37.5q0 -52 -65 -52h-22v-60h23q72 0 72 -51q0 -54 -62 -54q-32 0 -50.5 17.5t-19.5 48.5l-90 -8q1 -58 44 -92z"/>
    <glyph glyph-name="uni2779" unicode="❹" horiz-adv-x="820" d="M674 86q-107 -103 -264 -103t-264 103q-108 102 -108 269t108 270q108 102 264 102t264 -102q108 -103 108 -270t-108 -269zM418 254v-85h87v85h61v66h-61v235h-99l-180 -239v-62h192zM418 320h-114l114 153v-153z"/>
    <glyph glyph-name="uni277A" unicode="❺" horiz-adv-x="820" d="M674 86q-107 -103 -264 -103t-264 103q-108 102 -108 269t108 270q108 102 264 102t264 -102q108 -103 108 -270t-108 -269zM409 158q73 0 114.5 37.5t41.5 103.5q0 61 -34.5 96.5t-94.5 35.5q-66 0 -93 -39l12 90h189v70h-255l-25 -224l80 -7q13 46 66 46q31 0 49 -19 t18 -52q0 -32 -18.5 -50.5t-50.5 -18.5q-56 0 -66 52l-87 -14q8 -50 49.5 -78.5t104.5 -28.5z"/>
    <glyph glyph-name="uni277B" unicode="❻" horiz-adv-x="820" d="M674 86q-107 -103 -264 -103t-264 103q-108 102 -108 269t108 270q108 102 264 102t264 -102q108 -103 108 -270t-108 -269zM416 154q67 0 109 39t42 101q0 60 -34 94.5t-92 34.5q-82 0 -107 -58q2 125 81 125q49 0 60 -48l85 12q-19 103 -144 103q-78 0 -123 -56 t-45 -152q0 -93 44.5 -144t123.5 -51zM414 221q-63 0 -78 85q23 53 77 53q31 0 49.5 -19t18.5 -51q0 -31 -18 -49.5t-49 -18.5z"/>
    <glyph glyph-name="uni277C" unicode="❼" horiz-adv-x="820" d="M674 86q-107 -103 -264 -103t-264 103q-108 102 -108 269t108 270q108 102 264 102t264 -102q108 -103 108 -270t-108 -269zM322 162h99q1 100 33 175.5t103 141.5v69h-293v-74h205q-142 -130 -147 -312z"/>
    <glyph glyph-name="uni277D" unicode="❽" horiz-adv-x="820" d="M674 86q-107 -103 -264 -103t-264 103q-108 102 -108 269t108 270q108 102 264 102t264 -102q108 -103 108 -270t-108 -269zM409 154q76 0 121.5 31t45.5 83q0 80 -86 107q67 24 67 84q0 45 -41.5 71.5t-110.5 26.5q-67 0 -108.5 -30t-41.5 -78q0 -66 70 -94 q-81 -23 -81 -93q0 -49 45 -78.5t120 -29.5zM434 391l-26 6q-66 15 -66 53q0 22 17 34.5t47 12.5q31 0 48.5 -14t17.5 -38q0 -37 -38 -54zM464 233q-20 -14 -54.5 -14t-53.5 15q-20 15 -20 40q0 44 48 63l31 -8q69 -15 69 -58q0 -24 -20 -38z"/>
    <glyph glyph-name="uni277E" unicode="❾" horiz-adv-x="820" d="M674 86q-107 -103 -264 -103t-264 103q-108 102 -108 269t108 270q108 102 264 102t264 -102q108 -103 108 -270t-108 -269zM404 154q167 0 167 207q0 96 -42 146t-123 50q-69 0 -111 -36.5t-42 -96.5q0 -57 37 -91.5t99 -34.5q58 0 96 35q-9 -111 -76 -111q-54 0 -65 50 l-85 -15q9 -50 47 -76.5t98 -26.5zM406 362q-31 0 -49.5 18t-18.5 47t19 47t51 18q68 0 77 -89q-30 -41 -79 -41z"/>
    <glyph glyph-name="uniE000" unicode="" horiz-adv-x="910" d="M185 159v557h637v-68h-564v-489h98l-134 -179l-134 179h97z"/>
    <glyph glyph-name="uniF8FF" unicode="" horiz-adv-x="1018" d="M998 710v-47h-552v-47h552v-48h-552v-47h552v-48h-552v-47h552v-47h-552v-48h552v-47h-978v426h978zM72 652l-5 15l13 9h-16l-5 15l-4 -15h-16l13 -9l-5 -15l12 9zM146 691l-4 -15h-16l13 -9l-5 -15l12 10l13 -10l-5 15l12 9h-15zM233 691l-4 -15h-16l13 -9l-5 -15l12 10 l13 -10l-5 15l12 9h-15zM320 691l-5 -15h-15l13 -9l-5 -15l12 10l13 -10l-5 15l12 9h-15zM420 652l-5 15l12 9h-15l-5 15l-5 -15h-15l12 -9l-4 -15l12 10zM103 647l-5 -15h-15l12 -9l-4 -14l12 9l12 -9l-4 14l12 9h-15zM376 609l-5 14l13 9h-16l-4 15l-5 -15h-15l12 -9 l-5 -14l13 9zM193 364h80v93h94v80h-94v94h-80v-94h-93v-80h93v-93zM72 565l-5 15l13 9h-16l-5 14l-4 -14h-16l13 -9l-5 -15l12 9zM146 603l-4 -14h-16l13 -9l-5 -15l12 9l13 -9l-5 15l12 9h-15zM320 603l-5 -14h-15l13 -9l-5 -15l12 9l13 -9l-5 15l12 9h-15zM420 565l-5 15 l12 9h-15l-5 14l-5 -14h-15l12 -9l-4 -15l12 9zM72 478l-5 14l13 10h-16l-5 14l-4 -14h-16l13 -10l-5 -14l12 9zM420 478l-5 14l12 10h-15l-5 14l-5 -14h-15l12 -10l-4 -14l12 9zM72 391l-5 14l13 9h-16l-5 15l-4 -15h-16l13 -9l-5 -14l12 9zM159 391l-5 14l12 9h-15l-5 15 l-4 -15h-16l13 -9l-5 -14l12 9zM333 391l-5 14l12 9h-15l-5 15l-5 -15h-15l13 -9l-5 -14l12 9zM420 391l-5 14l12 9h-15l-5 15l-5 -15h-15l12 -9l-4 -14l12 9zM103 356l12 -9l-4 15l12 9h-15l-5 14l-5 -14h-15l12 -9l-4 -15zM364 356l12 -9l-5 15l13 9h-16l-4 14l-5 -14h-15 l12 -9l-5 -15zM59 312l13 -9l-5 15l13 9h-16l-5 15l-4 -15h-16l13 -9l-5 -15zM146 312l13 -9l-5 15l12 9h-15l-5 15l-4 -15h-16l13 -9l-5 -15zM233 312l13 -9l-5 15l12 9h-15l-5 15l-4 -15h-16l13 -9l-5 -15zM320 312l13 -9l-5 15l12 9h-15l-5 15l-5 -15h-15l13 -9l-5 -15z M407 312l13 -9l-5 15l12 9h-15l-5 15l-5 -15h-15l12 -9l-4 -15zM997 189h-977v48h977v-48zM998 95h-978v47h978v-47zM998 0h-978v47h978v-47z"/>
    <glyph glyph-name="uni00A40301" horiz-adv-x="406" d="M315 753h-95l66 113h111zM331 710v-513q0 -108 -57.5 -160t-161.5 -52q-68 0 -93 7v112q27 -5 76 -5q53 0 80 27t27 90v494h129z"/>
    <glyph glyph-name="i.loclTRK" horiz-adv-x="279" d="M204 583h-130v125h130v-125zM200 0h-120v500h120v-500z"/>
    <glyph glyph-name="uni006A0301" horiz-adv-x="280" d="M191 574h-98l71 149h116zM44 -202q-46 0 -68 6v92q12 0 28.5 -1t17.5 -1q33 0 46 18.5t13 65.5v522h120v-531q0 -84 -37 -127.5t-120 -43.5z"/>
    <glyph glyph-name="zero.zero" horiz-adv-x="650" d="M117 614q73 96 208 96t209 -96q74 -97 74 -267q0 -171 -74 -266.5t-209 -95.5q-134 0 -208 95.5t-74 266.5q0 170 74 267zM325 612q-77 0 -117 -68.5t-40 -196.5q0 -72 14 -130l257 331q-40 64 -114 64zM325 83q77 0 117.5 68.5t40.5 195.5q0 75 -15 131l-257 -332 q41 -63 114 -63z"/>
    <glyph glyph-name="zero.tf" d="M573 347q0 -362 -263 -362t-263 362q0 363 263 363t263 -363zM205 141q34 -61 105 -61q70 0 106 61q34 60 36 206q-1 143 -35.5 205.5t-106.5 62.5t-106.5 -62.5t-35.5 -205.5q2 -147 37 -206z"/>
    <glyph glyph-name="one.tf" d="M393 695v-591h165v-104h-474v104h186v414q-46 -46 -147 -46h-33v110h27q133 0 174 113h102z"/>
    <glyph glyph-name="two.tf" d="M542 0h-476v94q124 91 236 200q58 56 81.5 101.5t23.5 100.5q0 54 -28 83.5t-78 29.5q-51 0 -79.5 -29.5t-28.5 -80.5q0 -25 6 -57l-122 12q-5 25 -5 49q0 94 63 150.5t170 56.5q108 0 167.5 -55t59.5 -156q0 -127 -135 -256q-85 -78 -174 -140h319v-103z"/>
    <glyph glyph-name="three.tf" d="M312 -15q-116 0 -184 59.5t-70 159.5l123 13q2 -63 36.5 -98.5t95.5 -35.5q58 0 90 31t32 87q0 52 -34.5 81.5t-97.5 29.5h-39v90h37q55 0 84.5 29.5t29.5 79.5q0 49 -27.5 75.5t-78.5 26.5q-58 0 -90 -36.5t-32 -103.5l-119 19q0 101 66.5 159.5t180.5 58.5 q105 0 164.5 -51t59.5 -138q0 -54 -34 -97t-89 -57q69 -13 106.5 -58t37.5 -116q0 -93 -67 -150q-67 -58 -181 -58z"/>
    <glyph glyph-name="four.tf" d="M469 0h-114v166h-316v83l296 446h134v-437h107v-92h-107v-166zM148 258h207v228q0 36 2 96h-1q-14 -39 -46 -87l-119 -179q-31 -47 -43 -58z"/>
    <glyph glyph-name="five.tf" d="M304 -15q-98 0 -162.5 51t-76.5 138l120 17q9 -49 41.5 -77.5t82.5 -28.5q59 0 92.5 38t33.5 105q0 72 -32.5 112.5t-91.5 40.5q-97 0 -123 -101l-108 11l42 404h397v-101h-312l-23 -201q48 82 158 82q99 0 156 -64.5t57 -177.5q0 -112 -68 -180q-70 -68 -183 -68z"/>
    <glyph glyph-name="six.tf" d="M344 466q98 0 156 -64t58 -171q0 -111 -66 -178q-66 -68 -173 -68q-128 0 -195.5 89.5t-67.5 259.5q0 179 70.5 277.5t199.5 98.5q93 0 150.5 -45.5t72.5 -131.5l-119 -22q-20 102 -107 102q-70 0 -108 -61t-40 -178q50 92 169 92zM318 82q55 0 87.5 39.5t32.5 106.5 q0 66 -32.5 105t-88.5 39q-50 0 -87 -31.5t-53 -89.5q8 -79 45 -124t96 -45z"/>
    <glyph glyph-name="seven.tf" d="M315 0h-135v11q0 297 244 577h-351v107h480v-95q-238 -257 -238 -579v-21z"/>
    <glyph glyph-name="eight.tf" d="M425 380q73 -27 107 -72.5t34 -118.5q0 -93 -70 -148q-71 -56 -185 -56q-115 0 -186 54q-71 53 -71 142q0 136 134 175q-110 53 -110 168q0 83 64 135q64 51 167 51q105 0 166.5 -47.5t61.5 -129.5q0 -114 -112 -153zM306 623q-50 0 -79 -26.5t-29 -72.5q0 -39 25 -65 t79 -43l36 -10q45 20 64 46.5t19 67.5q0 49 -30.5 76t-84.5 27zM215 111q37 -33 98 -33q62 0 96 31q35 30 35 82q0 44 -26.5 72t-83.5 46l-60 18q-52 -22 -74.5 -52t-22.5 -77q0 -54 38 -87z"/>
    <glyph glyph-name="nine.tf" d="M295 710q130 0 196.5 -88.5t66.5 -261.5q0 -178 -66 -276.5t-196 -98.5q-98 0 -158 47t-75 137l119 23q19 -109 118 -109q136 0 138 251q-50 -81 -157 -81q-102 0 -165 60t-63 165q0 102 66 167q67 65 176 65zM300 348q48 0 86.5 31t50.5 78q-6 72 -40.5 115t-99.5 43 q-56 0 -90 -37t-34 -98q0 -60 35 -96t92 -36z"/>
    <glyph glyph-name="zero.tf.zero" d="M47 347q0 363 263 363t263 -363q0 -362 -263 -362t-263 362zM310 615q-72 0 -106.5 -62.5t-35.5 -205.5q0 -71 10 -127l243 325q-34 70 -111 70zM310 80q72 0 106.5 62t35.5 205q0 72 -10 128l-242 -325q33 -70 110 -70z"/>
    <glyph glyph-name="dollar.tf" d="M566 187q0 -93 -59.5 -145.5t-167.5 -56.5v-92h-45v93q-101 7 -164 60t-80 146l113 30q28 -124 131 -140v218l-40 10q-182 50 -182 205q0 87 59.5 138.5t162.5 56.5v90h45v-91q95 -6 153 -56.5t67 -137.5l-110 -32q-12 119 -110 134v-215l48 -13q94 -25 136.5 -72 t42.5 -130zM291 415l3 -1v205q-51 -3 -79.5 -28t-28.5 -69q0 -81 105 -107zM339 289v-210q111 5 111 99q0 44 -25.5 69.5t-82.5 40.5z"/>
    <glyph glyph-name="cent.tf" d="M340 423v-343q79 12 95 112l104 -20q-12 -78 -63.5 -127.5t-135.5 -55.5v-83h-50v83q-104 9 -159 82q-56 74 -56 181q0 111 56 180t159 79v83h50v-83q84 -5 137 -52t63 -128l-109 -16q-12 96 -91 108zM186 255q0 -73 27 -118.5t77 -55.5v342q-50 -10 -77 -54t-27 -114z "/>
    <glyph glyph-name="sterling.tf" d="M473 183l110 -19q-12 -87 -62 -133t-121 -46q-40 0 -96 13t-105 13q-72 0 -144 -19l-25 78q131 44 131 179q0 39 -7 77h-99v69h83q-17 70 -17 112q0 95 57.5 149t156.5 54q87 0 141.5 -42t71.5 -123l-114 -27q-18 99 -99 99q-95 0 -95 -107q0 -42 17 -115h158v-69h-144 q5 -35 5 -61q0 -121 -103 -170q23 6 66 6q31 0 74 -7q42 -7 72 -7q35 0 58.5 24t29.5 72z"/>
    <glyph glyph-name="florin.tf" d="M454 616q-41 0 -60 -23t-27 -82l-10 -77h102v-85h-113l-64 -499h-121l63 499h-95v85h105l8 62q15 119 61 166q47 48 144 48q33 0 56 -6v-93q-22 5 -49 5z"/>
    <glyph glyph-name="yen.tf" d="M447 695h134l-203 -364h163v-64h-170v-67h170v-64h-170v-136h-122v136h-170v64h170v67h-170v64h163l-203 364h134l112 -224q14 -27 24 -62h2q10 35 24 62z"/>
    <glyph glyph-name="Euro.tf" d="M491 182l102 -45q-29 -73 -90.5 -112.5t-147.5 -39.5q-115 0 -185 71.5t-88 200.5h-77v63h72v20v32v16h-72v63h77q17 125 90 192t192 67q172 0 227 -144l-103 -51q-42 99 -130 99q-130 0 -152 -163h229v-63h-233v-8v-44v-16h233v-63h-228q24 -174 150 -174q87 0 134 99z "/>
    <glyph glyph-name="percent.tf" d="M150 -16h-77l389 746h76zM161 390q-63 0 -100.5 44.5t-37.5 122.5q0 75 37.5 119.5t99.5 44.5q61 0 98.5 -46t37.5 -121q0 -74 -37.5 -119t-97.5 -45zM161 460q26 0 40.5 24.5t14.5 68.5v5q0 44 -15 69t-41 25q-27 0 -42 -24.5t-15 -67.5v-5q0 -95 58 -95zM462 -11 q-63 0 -100.5 44.5t-37.5 122.5q0 75 37.5 119.5t99.5 44.5q61 0 98.5 -46t37.5 -121t-37.5 -119.5t-97.5 -44.5zM462 59q26 0 40.5 24.5t14.5 68.5v5q0 44 -15 69t-41 25q-27 0 -42 -24.5t-15 -67.5v-5q0 -95 58 -95z"/>
    <glyph glyph-name="perthousand.tf" d="M250 463q-34 -39 -91 -39t-91 39q-35 40 -35 106q0 68 34 106.5t92 38.5q57 0 91 -38.5t34 -106.5t-34 -106zM53 258l490 400v-78l-490 -400v78zM109 574v-10q0 -77 50 -77q49 0 49 77v10q0 77 -49 77q-50 0 -50 -77zM461 277q58 0 92 -38t34 -106t-34 -106.5t-92 -38.5 q-52 0 -82 35q-30 -35 -83 -35q-57 0 -91 38.5t-34 106.5t33.5 106t91.5 38q53 0 83 -35q30 35 82 35zM346 128v9q0 78 -50 78q-49 0 -49 -78v-9q0 -77 49 -77q50 0 50 77zM511 128v9q0 78 -50 78q-49 0 -49 -78v-9q0 -77 49 -77q50 0 50 77z"/>
    <glyph glyph-name="uni0243.case" horiz-adv-x="658" d="M613 200q0 -83 -51 -137t-151 -62v-90h-56v89h-71v-89h-56v89h-140v710h140v81h56v-81h71v81h56v-83q92 -9 137.5 -57.5t45.5 -122.5q0 -124 -122 -158q69 -11 105 -55t36 -115zM340 615h-131v-208h131q126 0 126 107q0 101 -126 101zM209 94h146q65 0 97.5 31.5 t32.5 85.5q0 52 -31 81t-92 29h-153v-227z"/>
    <glyph glyph-name="uni0243.tf" d="M571 194q0 -82 -47 -131t-134 -60v-110h-55v107h-72v-107h-56v107h-122v695h122v90h56v-90h56h16v90h55v-96q163 -27 163 -175q0 -57 -33 -98.5t-93 -57.5q68 -10 106 -53.5t38 -110.5zM311 601h-106v-204h106q116 0 116 107q0 51 -28 74t-88 23zM205 94h119 q121 0 121 111q0 50 -29.5 77t-84.5 27h-126v-215z"/>
    <glyph glyph-name="uni0243.tf.tf.case" d="M571 202q0 -85 -47 -136t-134 -62v-97h-55v93h-72v-93h-56v93h-122v710h122v80h56v-80h56h16v80h55v-86q163 -28 163 -180q0 -57 -33 -99t-93 -58q68 -10 106 -53.5t38 -111.5zM311 615h-106v-209h106q116 0 116 108q0 54 -27.5 77.5t-88.5 23.5zM205 94h119 q121 0 121 119q0 50 -29.5 77.5t-84.5 27.5h-126v-224z"/>
    <glyph glyph-name="g.ss01" horiz-adv-x="594" d="M281 -207q-208 0 -226 168h120q13 -82 110 -82q56 0 83 31.5t27 98.5v86q-37 -99 -147 -99q-92 0 -150 73q-59 74 -59 189q0 114 60 184q58 70 153 70q105 0 148 -90l17 78h97v-488q0 -219 -233 -219zM281 83q52 0 84 43t32 113v35q0 66 -32 106t-83 40q-55 0 -86.5 -43 t-31.5 -121t32 -125.5t85 -47.5z"/>
    <glyph glyph-name="gbreve.ss01" horiz-adv-x="594" d="M139 723h86q5 -84 75 -84q72 0 76 84h86q-4 -77 -47 -115.5t-115 -38.5q-71 0 -114 39t-47 115zM281 -207q-208 0 -226 168h120q13 -82 110 -82q56 0 83 31.5t27 98.5v86q-37 -99 -147 -99q-92 0 -150 73q-59 74 -59 189q0 114 60 184q58 70 153 70q105 0 148 -90l17 78 h97v-488q0 -219 -233 -219zM281 83q52 0 84 43t32 113v35q0 66 -32 106t-83 40q-55 0 -86.5 -43t-31.5 -121t32 -125.5t85 -47.5z"/>
    <glyph glyph-name="gcircumflex.ss01" horiz-adv-x="594" d="M361 723l107 -149h-96l-72 102l-71 -102h-97l108 149h121zM281 -207q-208 0 -226 168h120q13 -82 110 -82q56 0 83 31.5t27 98.5v86q-37 -99 -147 -99q-92 0 -150 73q-59 74 -59 189q0 114 60 184q58 70 153 70q105 0 148 -90l17 78h97v-488q0 -219 -233 -219zM281 83 q52 0 84 43t32 113v35q0 66 -32 106t-83 40q-55 0 -86.5 -43t-31.5 -121t32 -125.5t85 -47.5z"/>
    <glyph glyph-name="gcommaaccent.ss01" horiz-adv-x="594" d="M325 769l24 -44q-29 -8 -39 -19.5t-10 -35.5h58v-96h-113v84q0 88 80 111zM281 -207q-208 0 -226 168h120q13 -82 110 -82q56 0 83 31.5t27 98.5v86q-37 -99 -147 -99q-92 0 -150 73q-59 74 -59 189q0 114 60 184q58 70 153 70q105 0 148 -90l17 78h97v-488 q0 -219 -233 -219zM281 83q52 0 84 43t32 113v35q0 66 -32 106t-83 40q-55 0 -86.5 -43t-31.5 -121t32 -125.5t85 -47.5z"/>
    <glyph glyph-name="gdotaccent.ss01" horiz-adv-x="594" d="M364 583h-130v125h130v-125zM281 -207q-208 0 -226 168h120q13 -82 110 -82q56 0 83 31.5t27 98.5v86q-37 -99 -147 -99q-92 0 -150 73q-59 74 -59 189q0 114 60 184q58 70 153 70q105 0 148 -90l17 78h97v-488q0 -219 -233 -219zM281 83q52 0 84 43t32 113v35 q0 66 -32 106t-83 40q-55 0 -86.5 -43t-31.5 -121t32 -125.5t85 -47.5z"/>
    <glyph glyph-name="g_g.liga.ss01" horiz-adv-x="1188" d="M281 -207q-208 0 -226 168h120q13 -82 110 -82q56 0 83 31.5t27 98.5v86q-37 -99 -147 -99q-92 0 -150 73q-59 74 -59 189q0 114 60 184q58 70 153 70q105 0 148 -90l17 78h97v-488q0 -219 -233 -219zM875 -207q-208 0 -226 168h120q13 -82 110 -82q56 0 83 31.5t27 98.5 v86q-37 -99 -147 -99q-92 0 -150 73q-59 74 -59 189q0 114 60 184q58 70 153 70q105 0 148 -90l17 78h97v-488q0 -219 -233 -219zM281 83q52 0 84 43t32 113v35q0 66 -32 106t-83 40q-55 0 -86.5 -43t-31.5 -121t32 -125.5t85 -47.5zM875 83q52 0 84 43t32 113v35 q0 66 -32 106t-83 40q-55 0 -86.5 -43t-31.5 -121t32 -125.5t85 -47.5z"/>
    <glyph glyph-name="g.sups.ss01" horiz-adv-x="478" d="M225 159q-163 0 -177 123h98q10 -60 81 -58q82 0 82 89v63q-29 -66 -113 -66q-70 0 -114 53q-45 53 -45 135q0 85 44 135.5t118 50.5q87 0 115 -67l8 58h91v-353q0 -163 -188 -163zM168 410q22 -33 59 -33q38 0 60 28q23 29 23 75v30q0 46 -22 74.5t-58 28.5 q-41 0 -63 -30.5t-22 -87.5q0 -53 23 -85z"/>
    <glyph glyph-name="a.sups" horiz-adv-x="448" d="M162 301q-57 0 -92 29.5t-35 77.5q0 52 36.5 77.5t115.5 35.5l97 14v11q0 71 -64 71q-65 0 -70 -62h-104q4 61 50 95t124 34q88 0 128.5 -36t40.5 -115v-116q0 -68 10 -107h-102q-4 28 -6 64q-14 -34 -48.5 -53.5t-80.5 -19.5zM201 365q39 0 63 23.5t24 61.5v37l-72 -11 q-78 -14 -78 -60q0 -23 17 -37t46 -14z"/>
    <glyph glyph-name="b.sups" horiz-adv-x="481" d="M288 301q-41 0 -72.5 17.5t-45.5 47.5l-6 -56h-93v529h104v-215q31 60 117 60q70 0 111 -52t41 -140q0 -87 -42 -139t-114 -52zM254 373q39 0 61 31t22 88t-22 88t-62 31q-37 0 -58.5 -28.5t-21.5 -75.5v-29q0 -49 21.5 -77t59.5 -28z"/>
    <glyph glyph-name="c.sups" horiz-adv-x="437" d="M228 301q-88 0 -140 52t-52 139q0 90 51.5 141t142.5 51q72 0 117 -34t55 -96l-98 -20q-4 35 -24 54t-53 19q-40 0 -62.5 -29.5t-22.5 -81.5q0 -56 23 -87t63 -31q31 0 51 19.5t25 54.5l98 -20q-11 -60 -58 -95.5t-116 -35.5z"/>
    <glyph glyph-name="d.sups" horiz-adv-x="481" d="M189 301q-69 0 -110.5 52.5t-41.5 137.5q0 87 43 140t115 53q84 0 112 -61v216h103v-529h-99v64q-14 -33 -47 -53t-75 -20zM229 373q36 0 57.5 28.5t21.5 74.5v30q0 50 -21 78t-59 28q-39 0 -61 -31t-22 -88q0 -55 22.5 -87.5t61.5 -32.5z"/>
    <glyph glyph-name="e.sups" horiz-adv-x="441" d="M401 497v-25h-264q1 -43 27 -68.5t70 -25.5q68 0 101 57l60 -45q-47 -89 -163 -89q-93 0 -144.5 50.5t-51.5 140.5q0 89 50.5 140.5t136.5 51.5q84 0 131 -49.5t47 -137.5zM137 530h164q0 43 -20 67.5t-58 24.5t-61.5 -25t-24.5 -67z"/>
    <glyph glyph-name="f.sups" horiz-adv-x="309" d="M193 675h90v-70h-90v-295h-104v295h-63v70h63v39q0 63 36 96.5t103 33.5q27 0 55 -7v-75q-13 4 -35 4q-55 0 -55 -55v-36z"/>
    <glyph glyph-name="g.sups" horiz-adv-x="446" d="M424 736v-72q-16 3 -31 3q-34 0 -53 -16q45 -35 45 -89q0 -56 -45 -89.5t-122 -33.5q-42 0 -78 11q-14 -8 -14 -22q0 -34 53 -34h107q135 0 135 -103q0 -63 -54.5 -97.5t-156.5 -34.5q-88 0 -135 23t-47 65q0 49 67 68q-53 18 -53 67q0 58 67 82q-58 34 -58 98 q0 56 45 89t122 33q47 0 86 -14q19 67 105 67q12 0 15 -1zM170 511q18 -20 48 -20t49 20q18 20 18 51t-18 50q-19 19 -49 19t-48 -19q-19 -19 -19 -50t19 -51zM275 305l-119 1q-22 0 -27 1q-18 -13 -18 -38q0 -55 104 -55q115 0 115 52q0 39 -55 39z"/>
    <glyph glyph-name="h.sups" horiz-adv-x="481" d="M175 310h-104v529h104v-225q33 71 123 71q124 0 124 -148v-227h-104v217q0 78 -65 78q-37 0 -57.5 -26t-20.5 -72v-197z"/>
    <glyph glyph-name="i.sups" horiz-adv-x="239" d="M174 727h-109v107h109v-107zM172 310h-105v365h105v-365z"/>
    <glyph glyph-name="j.sups" horiz-adv-x="242" d="M176 727h-108v107h108v-107zM39 163q-40 0 -53 4v75q18 -3 31 -3q28 0 40 14t12 50v372h106v-379q0 -68 -32 -100.5t-104 -32.5z"/>
    <glyph glyph-name="k.sups" horiz-adv-x="455" d="M440 310h-117l-97 158l-51 -51v-107h-104v529h104v-319l138 155h122l-137 -144z"/>
    <glyph glyph-name="l.sups" horiz-adv-x="245" d="M71 839h104v-529h-104v529z"/>
    <glyph glyph-name="m.sups" horiz-adv-x="687" d="M65 310v365h101v-61q31 70 116 70q82 0 108 -68q38 68 121 68q55 0 85.5 -35.5t30.5 -100.5v-238h-103v215q0 80 -60 80q-31 0 -48.5 -21.5t-17.5 -59.5v-214h-104v216q0 79 -57 79q-32 0 -49.5 -23t-17.5 -64v-208h-105z"/>
    <glyph glyph-name="n.sups" horiz-adv-x="476" d="M171 310h-106v365h101v-66q36 75 126 75q125 0 125 -149v-225h-105v211q0 84 -65 84q-37 0 -56.5 -25.5t-19.5 -71.5v-198z"/>
    <glyph glyph-name="o.sups" horiz-adv-x="452" d="M363 352q-53 -51 -137 -51t-137 51q-53 50 -53 141q0 89 52 140t138 51q85 0 137 -51t52 -140q0 -92 -52 -141zM226 373q86 0 86 120q0 119 -86 119t-86 -119q0 -120 86 -120z"/>
    <glyph glyph-name="p.sups" horiz-adv-x="476" d="M170 168h-105v507h100v-59q35 68 123 68q69 0 110 -52.5t41 -138.5q0 -88 -42.5 -140t-113.5 -52q-76 0 -113 57v-190zM190 404q21 -31 59 -31q37 0 60 32q22 31 22 88t-21 88t-61 31q-39 0 -60 -29.5t-21 -81.5v-19q0 -49 22 -78z"/>
    <glyph glyph-name="q.sups" horiz-adv-x="476" d="M410 168h-103v200q-31 -67 -119 -67q-68 0 -109.5 52t-41.5 138q0 88 43 140.5t115 52.5q87 0 116 -65l9 56h90v-507zM227 373q36 0 58.5 29t22.5 75v32q0 48 -21.5 75.5t-60.5 27.5q-38 0 -59.5 -31t-21.5 -88q0 -56 21.5 -88t60.5 -32z"/>
    <glyph glyph-name="r.sups" horiz-adv-x="324" d="M163 675v-90q30 99 126 99q7 0 9 -1v-99q-4 0 -12.5 0.5t-10.5 0.5q-46 0 -71 -22q-34 -30 -34 -95v-158h-105v365h98z"/>
    <glyph glyph-name="s.sups" horiz-adv-x="390" d="M200 301q-127 0 -176 88l57 49q41 -65 121 -65q65 0 65 40q0 19 -12.5 28.5t-44.5 13.5l-52 8q-114 19 -114 109q0 51 42.5 81.5t114.5 30.5q111 0 161 -69l-53 -51q-37 52 -112 52q-59 0 -59 -38q0 -30 50 -38l63 -10q108 -16 108 -111q0 -55 -42 -86.5t-117 -31.5z"/>
    <glyph glyph-name="t.sups" horiz-adv-x="310" d="M83 606h-66v69h66v89l103 39v-128h91v-69h-91v-160q0 -59 57 -59q1 0 34 3v-80q-32 -7 -62 -7q-132 0 -132 116v187z"/>
    <glyph glyph-name="u.sups" horiz-adv-x="473" d="M309 310v64q-14 -33 -46.5 -53t-74.5 -20q-129 0 -129 139v235h105v-217q0 -77 64 -77q35 0 55.5 23.5t20.5 60.5v210h104v-365h-99z"/>
    <glyph glyph-name="v.sups" horiz-adv-x="414" d="M264 310h-114l-134 365h107l71 -228q10 -40 12 -50h1q13 50 13 51l71 227h107z"/>
    <glyph glyph-name="w.sups" horiz-adv-x="598" d="M228 310h-100l-103 365h99l54 -232q6 -23 6 -36h2q5 30 7 36l62 232h87l63 -232q5 -18 7 -36h2q0 6 6 36l55 232h99l-103 -365h-100l-64 227q-5 16 -7 30h-1q-2 -14 -7 -30z"/>
    <glyph glyph-name="x.sups" horiz-adv-x="437" d="M129 310h-108l138 190l-129 175h117l52 -77q14 -22 20 -39h2q6 16 22 39l52 77h109l-126 -173l138 -192h-116l-62 89q-18 26 -23 40h-1q-6 -16 -22 -40z"/>
    <glyph glyph-name="y.sups" horiz-adv-x="416" d="M85 163q-26 0 -47 4v76q24 -4 39 -4q57 0 78 56l6 16l-145 364h114l73 -229q7 -25 11 -48h2q2 13 13 49l67 228h105l-136 -382q-25 -69 -67 -99.5t-113 -30.5z"/>
    <glyph glyph-name="z.sups" horiz-adv-x="380" d="M30 310v61l188 231h-178v73h302v-60l-186 -230h196v-75h-322z"/>
    <glyph glyph-name="zero.case" horiz-adv-x="650" d="M534 84q-74 -99 -209 -99t-208 99q-74 98 -74 272q0 175 74 273t208 98q135 0 209 -98t74 -273q0 -174 -74 -272zM208 155q40 -72 117 -72t118 72q40 70 40 201t-40 202q-41 71 -118 71q-76 0 -117 -71q-40 -70 -40 -202q0 -131 40 -201z"/>
    <glyph glyph-name="one.case" horiz-adv-x="411" d="M301 0h-123v528q-17 -18 -50 -29.5t-67 -11.5h-32v110h21q115 0 150 113h101v-710z"/>
    <glyph glyph-name="two.case" horiz-adv-x="563" d="M520 0h-488v94q132 87 243 192q59 59 83 107.5t24 107.5q0 60 -28.5 92.5t-80.5 32.5q-53 0 -83 -32t-30 -87q0 -32 7 -61l-124 12q-7 25 -7 55q0 98 65.5 156t177.5 58q111 0 172.5 -57.5t61.5 -162.5q0 -140 -142 -275q-65 -61 -172 -129h321v-103z"/>
    <glyph glyph-name="three.case" horiz-adv-x="583" d="M472 43q-67 -58 -184 -58q-115 0 -186 62q-72 62 -73 165l123 14q2 -67 39 -105t99 -38q123 0 123 122q0 116 -139 116h-38v91h35q60 0 91 29t31 83q0 50 -29.5 78t-82.5 28q-59 0 -91 -37.5t-32 -107.5l-119 20q0 103 67 162.5t181 59.5q110 0 171 -50t61 -139 q0 -61 -35.5 -105t-96.5 -59q153 -26 153 -173q0 -99 -68 -158z"/>
    <glyph glyph-name="four.case" horiz-adv-x="574" d="M562 266v-92h-109v-174h-120v174h-323v83l307 453h136v-444h109zM336 266v235q0 53 2 93h-2q-13 -32 -45 -82l-110 -169q-37 -53 -57 -77h212z"/>
    <glyph glyph-name="five.case" horiz-adv-x="579" d="M286 -15q-99 0 -165 53t-80 144l123 17q10 -53 42 -83.5t82 -30.5q61 0 95 39.5t34 109.5q0 73 -33.5 115t-92.5 42q-97 0 -124 -102l-113 11l42 410h409v-101h-318l-23 -206q49 82 160 82q100 0 158 -66t58 -180q0 -115 -69 -184q-69 -70 -185 -70z"/>
    <glyph glyph-name="six.case" horiz-adv-x="583" d="M333 477q98 0 157 -65q58 -65 58 -176q0 -113 -67 -181q-67 -70 -175 -70q-129 0 -198 92t-69 266q0 182 72 283t201 101q95 0 153 -47t74 -136l-120 -22q-21 108 -109 108q-71 0 -110.5 -63.5t-41.5 -184.5q51 95 175 95zM304 82q57 0 90.5 40.5t33.5 110.5 q0 68 -34.5 108.5t-92.5 40.5q-50 0 -86.5 -31.5t-54.5 -88.5q8 -84 46 -132t98 -48z"/>
    <glyph glyph-name="seven.case" horiz-adv-x="507" d="M258 0h-135v11q0 150 63 303t180 289h-344v107h473v-95q-116 -126 -176.5 -279t-60.5 -315v-21z"/>
    <glyph glyph-name="eight.case" horiz-adv-x="599" d="M420 388q144 -53 144 -197q0 -94 -72 -149q-74 -57 -193 -57q-121 0 -193 54q-73 54 -73 143q0 142 139 185q-116 54 -116 173q0 84 66 136q66 51 173 51q109 0 174.5 -48.5t65.5 -129.5q0 -121 -115 -161zM294 640q-55 0 -86.5 -26.5t-31.5 -72.5q0 -43 27 -70.5 t87 -44.5l36 -10q49 21 69.5 48.5t20.5 71.5q0 49 -32 76.5t-90 27.5zM300 78q65 0 102 30.5t37 83.5q0 47 -28 77.5t-89 48.5l-60 18q-56 -22 -80 -54t-24 -83q0 -55 39 -88t103 -33z"/>
    <glyph glyph-name="nine.case" horiz-adv-x="588" d="M282 727q264 0 264 -357q0 -385 -269 -385q-97 0 -158 50t-74 142l119 23q7 -55 37 -86t80 -31q76 0 110 65.5t35 197.5q-50 -84 -163 -84q-102 0 -164 62q-63 62 -63 168q0 103 67 169t179 66zM282 357q49 0 89 31.5t54 80.5q-6 74 -41.5 118.5t-100.5 44.5 q-58 0 -93 -38t-35 -100t35 -99.5t92 -37.5z"/>
    <glyph glyph-name="one.case.ss02" horiz-adv-x="532" d="M351 710v-606h166v-104h-475v104h186v429q-43 -46 -147 -46h-32v110h27q133 0 174 113h101z"/>
    <glyph glyph-name="zero.case.zero" horiz-adv-x="650" d="M117 629q74 98 208 98q135 0 209 -98t74 -273t-74.5 -273t-208.5 -98t-208 98t-74 273t74 273zM182 222l260 337q-40 70 -117 70q-76 0 -117 -71q-40 -70 -40 -202q0 -73 14 -134zM325 83q77 0 117.5 71t40.5 202q0 79 -13 130l-260 -335q41 -68 115 -68z"/>
    <glyph glyph-name="zero.osf" horiz-adv-x="611" d="M307 -15q-123 0 -197 78q-74 77 -74 208q0 126 74 203q73 76 196 76q122 0 195 -78q74 -79 74 -206q0 -128 -73 -204q-74 -77 -195 -77zM307 80q68 0 107.5 49.5t39.5 134.5q0 88 -40 138.5t-108 50.5q-69 0 -109 -49.5t-40 -134.5q0 -89 40 -139t110 -50z"/>
    <glyph glyph-name="one.osf" horiz-adv-x="566" d="M359 535v-435h170v-100h-468v100h180v275q-21 -23 -67 -36q-47 -15 -86 -15h-26v106h17q56 0 110 30q55 30 71 75h99z"/>
    <glyph glyph-name="two.osf" horiz-adv-x="576" d="M34 0v76q11 7 72 40q58 31 82 46q106 64 149 110q40 43 40 95q0 40 -25 63t-69 23q-48 0 -76 -26t-28 -70q0 -27 3 -44l-125 14q-3 24 -3 35q0 84 64 136t165 52q104 0 162 -46.5t58 -128.5t-76 -151q-65 -59 -198 -124h301v-100h-496z"/>
    <glyph glyph-name="three.osf" horiz-adv-x="589" d="M289 -165q-121 0 -189 57.5t-69 161.5l122 12q5 -134 138 -134q60 0 94.5 30t34.5 81q0 55 -36.5 84.5t-103.5 29.5h-42v90h40q58 0 90 27.5t32 77.5q0 48 -29.5 74.5t-83.5 26.5q-61 0 -94 -37t-33 -106l-120 19q1 102 68.5 161.5t182.5 59.5q111 0 172.5 -48.5 t61.5 -136.5q0 -56 -34 -98t-90 -56q68 -11 107 -57t39 -116q0 -92 -70 -147q-71 -56 -188 -56z"/>
    <glyph glyph-name="four.osf" horiz-adv-x="616" d="M472 -150h-120v172h-327v83l311 430h136v-421h109v-92h-109v-172zM140 114h212v204q0 77 1 102h-2q-11 -23 -43 -73l-122 -174q-36 -49 -46 -59z"/>
    <glyph glyph-name="five.osf" horiz-adv-x="593" d="M293 -165q-100 0 -168 47.5t-84 128.5l124 16q12 -45 46 -70.5t82 -25.5q63 0 99.5 40t36.5 109q0 61 -35.5 96.5t-94.5 35.5q-93 0 -128 -87l-114 9l45 401h408v-100h-313l-28 -215q48 88 165 88q98 0 160 -62q60 -63 60 -164q0 -110 -72 -179q-73 -68 -189 -68z"/>
    <glyph glyph-name="six.osf" horiz-adv-x="587" d="M337 466q98 0 156 -63.5t58 -171.5q0 -111 -67 -178q-68 -68 -175 -68q-129 0 -197.5 90t-68.5 259q0 178 71.5 277t200.5 99q195 0 227 -177l-119 -22q-21 102 -110 102q-71 0 -110 -61.5t-41 -178.5q52 93 175 93zM308 82q57 0 90 39t33 107q0 66 -34 105t-92 39 q-51 0 -88 -32t-53 -89q8 -78 46.5 -123.5t97.5 -45.5z"/>
    <glyph glyph-name="seven.osf" horiz-adv-x="519" d="M266 -150h-135v11q0 290 244 567h-351v107h480v-95q-238 -251 -238 -569v-21z"/>
    <glyph glyph-name="eight.osf" horiz-adv-x="602" d="M423 378q75 -28 109.5 -73t34.5 -116q0 -93 -72 -148q-74 -56 -193 -56q-121 0 -193 54q-73 52 -73 142q0 134 138 176q-115 49 -115 167q0 84 66 135t173 51q110 0 175 -48t65 -129q0 -115 -115 -155zM297 623q-55 0 -86.5 -26t-31.5 -72q0 -40 27 -66t87 -43l37 -11 q48 20 68.5 47t20.5 68q0 49 -32 76t-90 27zM303 78q65 0 102 30t37 83q0 43 -27.5 71t-89.5 47l-61 18q-55 -22 -79 -52t-24 -77q0 -54 39 -87t103 -33z"/>
    <glyph glyph-name="nine.osf" horiz-adv-x="596" d="M290 550q263 0 263 -348q0 -178 -70 -272.5t-203 -94.5q-202 0 -239 165l120 24q24 -96 124 -96q148 0 150 254q-54 -89 -173 -89q-104 0 -165 61t-61 164q0 105 70 169q69 63 184 63zM286 188q51 0 92.5 32t55.5 81q-17 154 -146 154q-60 0 -96 -37t-36 -98 q0 -59 36 -95.5t94 -36.5z"/>
    <glyph glyph-name="zero.osf.zero" horiz-adv-x="611" d="M306 550q122 0 195 -78q74 -79 74 -206q0 -128 -73 -204q-74 -77 -195 -77q-123 0 -197 78q-74 77 -74 208q0 126 74 203q73 76 196 76zM306 453q-69 0 -109 -49.5t-40 -134.5q0 -77 30 -124l206 279q-38 29 -87 29zM307 80q68 0 107.5 49.5t39.5 134.5q0 74 -28 121 l-205 -278q35 -27 86 -27z"/>
    <glyph glyph-name="one.ss02" horiz-adv-x="531" d="M351 695v-591h165v-104h-474v104h186v414q-46 -46 -147 -46h-33v110h27q133 0 174 113h102z"/>
    <glyph glyph-name="zero.tf.case" d="M573 356q0 -371 -263 -371t-263 371t263 371t263 -371zM205 143q35 -63 105 -63t106 63q34 61 36 213q-1 147 -35.5 211.5t-106.5 64.5t-106.5 -64.5t-35.5 -211.5q2 -152 37 -213z"/>
    <glyph glyph-name="one.tf.case" d="M393 710v-606h165v-104h-474v104h186v429q-47 -47 -147 -47h-33v110h27q133 0 174 114h102z"/>
    <glyph glyph-name="two.tf.case" d="M542 0h-476v94q118 86 236 201q58 59 81.5 106.5t23.5 105.5q0 57 -28 88t-78 31q-51 0 -79.5 -31t-28.5 -85q0 -26 6 -58l-122 12q-5 27 -5 49q0 98 62.5 156t170.5 58t167.5 -56.5t59.5 -160.5q0 -69 -32.5 -132.5t-102.5 -133.5q-75 -72 -174 -141h319v-103z"/>
    <glyph glyph-name="three.tf.case" d="M312 -15q-116 0 -184 61.5t-70 165.5l123 14q2 -67 36.5 -105t95.5 -38q58 0 90 32.5t32 91.5q0 53 -34.5 83.5t-97.5 30.5h-39v91h37q55 0 84.5 30.5t29.5 82.5q0 51 -27.5 78t-78.5 27q-58 0 -90 -38.5t-32 -108.5l-119 20q0 103 66.5 163.5t180.5 60.5q104 0 164 -52 t60 -140q0 -56 -34 -99.5t-89 -58.5q69 -14 106.5 -60t37.5 -118q0 -97 -67 -155q-68 -59 -181 -59z"/>
    <glyph glyph-name="four.tf.case" d="M469 0h-114v174h-316v83l296 453h134v-444h107v-92h-107v-174zM148 266h207v235q0 37 2 97h-1q-15 -41 -46 -88l-119 -185q-31 -47 -43 -59z"/>
    <glyph glyph-name="five.tf.case" d="M306 -15q-98 0 -163.5 53.5t-77.5 143.5l120 17q9 -52 42.5 -83t83.5 -31q60 0 92 39t32 109q0 75 -32 116.5t-92 41.5q-97 0 -123 -102l-108 10l42 411h397v-101h-312l-23 -207q50 83 158 83q100 0 156.5 -65.5t56.5 -181.5t-67 -184q-68 -69 -182 -69z"/>
    <glyph glyph-name="six.tf.case" d="M344 477q97 0 156 -65q58 -65 58 -175q0 -113 -65 -183q-65 -69 -174 -69q-128 0 -195.5 92t-67.5 266q0 183 70.5 283.5t199.5 100.5q93 0 150.5 -47t72.5 -136l-119 -22q-20 108 -107 108q-70 0 -108 -63t-40 -183q24 44 68.5 68.5t100.5 24.5zM318 82q56 0 88 40.5 t32 110.5q0 68 -32.5 108.5t-88.5 40.5q-50 0 -87 -32t-53 -90q7 -84 44 -131t97 -47z"/>
    <glyph glyph-name="seven.tf.case" d="M315 0h-135v11q0 150 63.5 303t180.5 289h-351v107h480v-95q-116 -126 -177 -279t-61 -315v-21z"/>
    <glyph glyph-name="eight.tf.case" d="M426 390q72 -27 106 -73t34 -119q0 -96 -70 -154q-71 -59 -185 -59q-115 0 -186 56t-71 148q0 135 133 177q-109 49 -109 169q0 87 64 139q65 53 167 53q103 0 165.5 -49.5t62.5 -133.5q0 -115 -111 -154zM306 640q-50 0 -79 -28t-29 -77q0 -80 104 -109l36 -10 q45 20 64 47t19 68q0 51 -30.5 80t-84.5 29zM215 113q38 -35 98 -35q61 0 96 33q35 32 35 88q0 86 -110 119l-60 18q-52 -21 -74.5 -51.5t-22.5 -78.5q0 -58 38 -93z"/>
    <glyph glyph-name="nine.tf.case" d="M295 726q130 0 196.5 -90t66.5 -266q0 -183 -66 -284t-196 -101q-98 0 -158 49.5t-75 142.5l119 23q20 -117 118 -117q136 0 138 261q-48 -82 -157 -82q-103 0 -165 61q-63 60 -63 165q0 104 66 172q66 66 176 66zM300 357q48 0 86.5 31t50.5 79q-6 75 -40.5 119.5 t-99.5 44.5q-56 0 -90 -38.5t-34 -102.5q0 -60 35 -96.5t92 -36.5z"/>
    <glyph glyph-name="zero.tf.case.zero" d="M47 356q0 371 263 371t263 -371t-263 -371t-263 371zM310 632q-72 0 -106.5 -64.5t-35.5 -211.5q0 -73 10 -130l245 329q-35 77 -113 77zM310 80q72 0 106.5 64.5t35.5 211.5q0 74 -9 126l-245 -327q34 -75 112 -75z"/>
    <glyph glyph-name="zero.tosf" d="M114 473q74 77 196 77t196 -78q74 -79 74 -207q0 -127 -73 -203q-74 -77 -196 -77q-123 0 -197 77t-74 206q0 128 74 205zM311 80q69 0 108.5 49t39.5 135q0 87 -40.5 138t-108.5 51q-69 0 -109 -49.5t-40 -136.5q0 -88 40 -137.5t110 -49.5z"/>
    <glyph glyph-name="one.tosf" d="M391 535v-437h169v-98h-468v98h182v278q-19 -21 -67 -37q-48 -15 -87 -15h-27v106h20q54 0 107 31q54 30 72 74h99z"/>
    <glyph glyph-name="two.tosf" d="M58 0v76q26 15 69 38q44 24 86 48q110 66 148 109q41 44 41 96q0 40 -25.5 63t-69.5 23q-48 0 -76 -25.5t-28 -68.5q0 -29 4 -44l-126 13q0 8 -0.5 16.5t-1 13t-0.5 5.5q0 83 64 135q62 52 165 52t161 -45.5t58 -127.5q0 -84 -76 -153q-60 -56 -198 -124h302v-100h-497z "/>
    <glyph glyph-name="three.tosf" d="M310 -165q-118 0 -184 56.5t-68 159.5l122 12q4 -132 131 -132q56 0 89.5 30t33.5 79q0 55 -34 86t-99 31h-42v90h40q55 0 85.5 29t30.5 77q0 47 -28 73.5t-79 26.5q-59 0 -90 -36t-31 -104l-119 19q0 102 65.5 160t178.5 58q108 0 167.5 -51t59.5 -142q0 -52 -34 -92 t-91 -54q70 -12 108 -58t38 -117q0 -86 -69 -144q-69 -57 -181 -57z"/>
    <glyph glyph-name="four.tosf" d="M474 -150h-114v172h-321v83l299 430h136v-421h109v-92h-109v-172zM150 114h210v221q0 43 2 89h-2q-16 -35 -44 -77l-115 -168q-30 -44 -51 -65z"/>
    <glyph glyph-name="five.tosf" d="M304 -165q-98 0 -162 51q-67 53 -77 137l120 15q9 -48 42 -76t80 -28q60 0 94 40.5t34 105.5q0 68 -31.5 106t-85.5 38q-47 3 -82.5 -24t-47.5 -73l-110 11l42 397h406v-101h-318l-24 -198q49 85 162 85q98 0 153.5 -63t55.5 -172q0 -110 -67 -180q-68 -71 -184 -71z"/>
    <glyph glyph-name="six.tosf" d="M344 466q98 0 156 -64t58 -171q0 -111 -66 -178q-66 -68 -173 -68q-128 0 -195.5 89.5t-67.5 259.5q0 179 70.5 277.5t199.5 98.5q93 0 150.5 -45.5t72.5 -131.5l-119 -22q-20 102 -107 102q-70 0 -108 -61t-40 -178q50 92 169 92zM318 82q55 0 87.5 39.5t32.5 106.5 q0 66 -32.5 105t-88.5 39q-50 0 -87 -31.5t-53 -89.5q8 -79 45 -124t96 -45z"/>
    <glyph glyph-name="seven.tosf" d="M315 -150h-135v11q0 290 244 567h-351v107h480v-95q-238 -254 -238 -569v-21z"/>
    <glyph glyph-name="eight.tosf" d="M425 380q73 -27 107 -72.5t34 -118.5q0 -93 -70 -148q-71 -56 -185 -56q-115 0 -186 54q-71 53 -71 142q0 136 134 175q-110 53 -110 168q0 83 64 135q64 51 167 51q105 0 166.5 -47.5t61.5 -129.5q0 -114 -112 -153zM306 623q-50 0 -79 -26.5t-29 -72.5q0 -39 25 -65 t79 -43l36 -10q45 20 64 46.5t19 67.5q0 49 -30.5 76t-84.5 27zM215 111q37 -33 98 -33q62 0 96 31q35 30 35 82q0 44 -26.5 72t-83.5 46l-60 18q-52 -22 -74.5 -52t-22.5 -77q0 -54 38 -87z"/>
    <glyph glyph-name="nine.tosf" d="M295 550q131 0 197 -89t66 -261q0 -174 -66 -269.5t-196 -95.5q-99 0 -158.5 46.5t-74.5 134.5l119 24q20 -107 118 -107q137 0 138 241q-46 -81 -157 -81q-103 0 -165.5 60t-62.5 165q0 104 67 168q65 64 175 64zM300 188q48 0 86.5 31t50.5 78q-6 72 -40.5 115 t-99.5 43q-56 0 -90 -37t-34 -98q0 -60 35 -96t92 -36z"/>
    <glyph glyph-name="zero.tosf.zero" d="M114 473q74 77 196 77t196 -78q74 -79 74 -207q0 -127 -73 -203q-74 -77 -196 -77q-123 0 -197 77t-74 206q0 128 74 205zM310 453q-69 0 -109 -49.5t-40 -136.5q0 -77 30 -123l207 280q-38 29 -88 29zM311 80q69 0 108.5 49t39.5 135q0 75 -29 122l-205 -280 q38 -26 86 -26z"/>
    <glyph glyph-name="zero.subs" horiz-adv-x="518" d="M421 -82q-59 -69 -162 -69q-104 0 -161 69q-58 70 -58 195q0 126 57.5 195.5t161.5 69.5t162 -70t58 -195t-58 -195zM177 -23q29 -47 82 -47t82 47t29 136q0 90 -28.5 137t-82.5 47t-82.5 -47t-28.5 -137q0 -89 29 -136z"/>
    <glyph glyph-name="one.subs" horiz-adv-x="338" d="M248 -140h-103v363q-31 -34 -96 -34h-18v95h12q92 0 121 83h84v-507z"/>
    <glyph glyph-name="two.subs" horiz-adv-x="458" d="M421 -140h-386v77q78 49 105 68q38 25 82 63q80 70 80 145q0 40 -20.5 61.5t-57.5 21.5q-39 0 -60.5 -21.5t-21.5 -59.5q0 -13 5 -41l-107 9q-4 25 -4 41q0 71 52 112.5t141 41.5q88 0 136 -41t48 -116q0 -152 -235 -278h243v-83z"/>
    <glyph glyph-name="three.subs" horiz-adv-x="469" d="M231 -151q-91 0 -144.5 44t-55.5 120l106 10q2 -44 27 -68.5t68 -24.5q88 0 88 79q0 74 -98 74h-32v70h29q42 0 65.5 19.5t23.5 54.5q0 34 -21 53t-59 19q-42 0 -64.5 -25t-22.5 -70l-104 12q0 75 52 118.5t143 43.5q88 0 135.5 -36.5t47.5 -103.5q0 -43 -28.5 -74.5 t-76.5 -40.5q57 -8 88.5 -39.5t31.5 -82.5q0 -70 -53.5 -111t-145.5 -41z"/>
    <glyph glyph-name="four.subs" horiz-adv-x="469" d="M446 53v-77h-79v-116h-102v116h-246v72l233 319h115v-314h79zM265 53v221l-154 -221h154z"/>
    <glyph glyph-name="five.subs" horiz-adv-x="465" d="M230 -151q-79 0 -130.5 37.5t-61.5 102.5l101 15q15 -73 90 -73q44 0 69.5 26.5t25.5 72.5t-24.5 73.5t-66.5 27.5q-34 0 -58 -18t-32 -49l-95 8l31 295h321v-82h-243l-16 -135q37 57 121 57q77 0 121.5 -46.5t44.5 -127.5q0 -85 -53.5 -134.5t-144.5 -49.5z"/>
    <glyph glyph-name="six.subs" horiz-adv-x="472" d="M276 203q75 0 118.5 -46t43.5 -126t-53 -131t-137 -51q-99 0 -155 67.5t-56 189.5q0 126 56 199t155 73q159 0 180 -131l-98 -16q-17 71 -84 71q-102 0 -108 -172q37 73 138 73zM246 -71q43 0 67.5 26.5t24.5 71.5t-26 72t-68 27q-75 0 -102 -77q16 -120 104 -120z"/>
    <glyph glyph-name="seven.subs" horiz-adv-x="415" d="M219 -140h-115v9q0 223 189 411h-266v87h370v-81q-178 -175 -178 -407v-19z"/>
    <glyph glyph-name="eight.subs" horiz-adv-x="480" d="M337 139q111 -37 111 -141q0 -68 -56.5 -108.5t-152.5 -40.5q-94 0 -150.5 38.5t-56.5 103.5q0 95 107 124q-91 36 -91 125q0 62 51 100t136 38q87 0 138 -34.5t51 -93.5q0 -82 -87 -111zM236 307q-41 0 -64.5 -18t-23.5 -49q0 -54 88 -75l32 -8q57 24 57 77 q0 34 -23.5 53.5t-65.5 19.5zM241 -75q46 0 73 21t27 56q0 59 -92 82l-39 10q-70 -25 -70 -88q0 -37 27 -59t74 -22z"/>
    <glyph glyph-name="nine.subs" horiz-adv-x="472" d="M228 378q101 0 154 -65t53 -192q0 -131 -52.5 -201.5t-156.5 -70.5q-77 0 -124.5 34.5t-57.5 98.5l98 17q15 -72 89 -72q97 0 103 170q-38 -56 -126 -56q-79 0 -126.5 45t-47.5 120q0 78 52.5 125t141.5 47zM228 117q34 0 62 16.5t42 45.5q-12 123 -103 123 q-43 0 -69 -25.5t-26 -67.5q0 -41 26 -66.5t68 -25.5z"/>
    <glyph glyph-name="zero.dnom" horiz-adv-x="411" d="M333 45q-45 -53 -127 -53t-127 53q-46 52 -46 148q0 95 45.5 148.5t126.5 53.5q82 0 127.5 -53.5t45.5 -149.5q0 -94 -45 -147zM206 58q85 0 85 134q0 66 -22.5 101.5t-63.5 35.5q-40 0 -62 -35.5t-22 -100.5q0 -135 85 -135z"/>
    <glyph glyph-name="one.dnom" horiz-adv-x="270" d="M197 0h-82v271q-26 -25 -74 -25h-15v76h10q72 0 94 64h67v-386z"/>
    <glyph glyph-name="two.dnom" horiz-adv-x="365" d="M332 0h-302v62q113 65 160.5 110t47.5 96q0 59 -59 59q-63 0 -63 -59q0 -10 5 -30l-87 7q-3 15 -3 31q0 55 40.5 87t110.5 32q68 0 106.5 -31.5t38.5 -89.5q0 -117 -182 -207h187v-67z"/>
    <glyph glyph-name="three.dnom" horiz-adv-x="372" d="M184 -8q-72 0 -114 33.5t-43 91.5l85 8q0 -32 19.5 -50t53.5 -18q66 0 66 57q0 51 -75 51h-31v61h29q32 0 49.5 14t17.5 38q0 52 -61 52q-31 0 -49 -18.5t-18 -51.5l-83 10q0 57 42 91t113 34q68 0 105.5 -28.5t37.5 -78.5q0 -33 -22 -57t-59 -31q93 -14 93 -93 q0 -53 -42.5 -84t-113.5 -31z"/>
    <glyph glyph-name="four.dnom" horiz-adv-x="374" d="M353 148v-62h-61v-86h-82v86h-191v59l180 241h93v-238h61zM210 148v160l-118 -160h118z"/>
    <glyph glyph-name="five.dnom" horiz-adv-x="368" d="M183 -8q-62 0 -102.5 28t-49.5 78l82 13q5 -25 23 -39.5t45 -14.5q34 0 53 19t19 53t-18 54.5t-51 20.5q-54 0 -69 -49l-75 6l26 225h250v-67h-190l-12 -96q30 41 94 41q60 0 94.5 -35.5t34.5 -96.5q0 -65 -41.5 -102.5t-112.5 -37.5z"/>
    <glyph glyph-name="six.dnom" horiz-adv-x="377" d="M219 261q58 0 92 -35t34 -96t-41 -99.5t-107 -38.5q-78 0 -121 51t-43 144q0 97 43.5 152.5t121.5 55.5q123 0 141 -103l-80 -12q-11 50 -63 50q-39 0 -61 -32.5t-23 -94.5q30 58 107 58zM195 55q33 0 52 19.5t19 51.5q0 33 -19.5 53.5t-51.5 20.5q-57 0 -80 -57 q15 -88 80 -88z"/>
    <glyph glyph-name="seven.dnom" horiz-adv-x="332" d="M229 316h-204v70h289v-65q-137 -131 -138 -311v-10h-93v5q1 83 40 165t106 146z"/>
    <glyph glyph-name="eight.dnom" horiz-adv-x="382" d="M269 212q85 -28 85 -105q0 -52 -45 -83.5t-120 -31.5q-74 0 -117.5 29.5t-43.5 78.5q0 72 81 94q-69 29 -69 94q0 47 40.5 77t106.5 30q67 0 108 -26.5t41 -71.5q0 -63 -67 -85zM187 337q-30 0 -48.5 -13t-18.5 -36q0 -38 68 -55l25 -6q43 18 43 57q0 25 -18.5 39 t-50.5 14zM191 53q35 0 56 15t21 40q0 44 -70 60l-32 9q-52 -19 -52 -65q0 -27 20.5 -43t56.5 -16z"/>
    <glyph glyph-name="nine.dnom" horiz-adv-x="377" d="M182 395q79 0 120.5 -50t41.5 -146q0 -207 -164 -207q-60 0 -97 26.5t-45 75.5l79 15q13 -52 68 -52q72 0 78 118q-38 -39 -97 -39q-61 0 -98 35t-37 91q0 60 41 96.5t110 36.5zM182 198q51 0 80 44q-10 90 -79 90q-33 0 -52.5 -18.5t-19.5 -48.5t19.5 -48.5t51.5 -18.5z "/>
    <glyph glyph-name="zero.numr" horiz-adv-x="411" d="M333 370q-45 -53 -127 -53t-127 53q-46 52 -46 148q0 95 45.5 148.5t126.5 53.5q82 0 127.5 -53.5t45.5 -149.5q0 -95 -45 -147zM206 383q85 0 85 134q0 66 -22.5 101.5t-63.5 35.5q-40 0 -62 -35.5t-22 -100.5q0 -135 85 -135z"/>
    <glyph glyph-name="one.numr" horiz-adv-x="270" d="M197 325h-82v271q-26 -25 -74 -25h-15v76h10q72 0 94 64h67v-386z"/>
    <glyph glyph-name="two.numr" horiz-adv-x="365" d="M332 325h-302v62q113 65 160.5 110t47.5 96q0 59 -59 59q-63 0 -63 -59q0 -10 5 -30l-87 7q-3 15 -3 31q0 55 40.5 87t110.5 32q68 0 106.5 -31.5t38.5 -89.5q0 -117 -182 -207h187v-67z"/>
    <glyph glyph-name="three.numr" horiz-adv-x="372" d="M184 317q-72 0 -114 33.5t-43 91.5l85 8q0 -32 19.5 -50t53.5 -18q66 0 66 57q0 51 -75 51h-31v61h29q32 0 49.5 14t17.5 38q0 52 -61 52q-31 0 -49 -18.5t-18 -51.5l-83 10q0 57 42 91t113 34q68 0 105.5 -28.5t37.5 -78.5q0 -33 -22 -57t-59 -31q93 -13 93 -93 q0 -53 -42.5 -84t-113.5 -31z"/>
    <glyph glyph-name="four.numr" horiz-adv-x="374" d="M353 473v-62h-61v-86h-82v86h-191v59l180 241h93v-238h61zM210 473v160l-118 -160h118z"/>
    <glyph glyph-name="five.numr" horiz-adv-x="368" d="M183 317q-62 0 -102.5 28t-49.5 78l82 13q5 -25 23 -39.5t45 -14.5q34 0 53 19t19 53t-18 54.5t-51 20.5q-54 0 -69 -49l-75 6l26 225h250v-67h-190l-12 -96q30 41 94 41q60 0 94.5 -35.5t34.5 -96.5q0 -65 -41.5 -102.5t-112.5 -37.5z"/>
    <glyph glyph-name="six.numr" horiz-adv-x="377" d="M219 586q58 0 92 -35t34 -96t-41 -99.5t-107 -38.5q-78 0 -121 51t-43 144q0 97 43.5 152.5t121.5 55.5q123 0 141 -103l-80 -12q-11 50 -63 50q-39 0 -61 -32.5t-23 -94.5q30 58 107 58zM195 380q33 0 52 19.5t19 51.5q0 33 -19.5 53.5t-51.5 20.5q-57 0 -80 -57 q15 -88 80 -88z"/>
    <glyph glyph-name="seven.numr" horiz-adv-x="332" d="M229 641h-204v70h289v-65q-137 -131 -138 -311v-10h-93v5q1 83 40 165t106 146z"/>
    <glyph glyph-name="eight.numr" horiz-adv-x="382" d="M269 537q85 -28 85 -105q0 -52 -45 -83.5t-120 -31.5q-74 0 -117.5 29.5t-43.5 78.5q0 71 81 94q-69 29 -69 94q0 47 40.5 77t106.5 30q67 0 108 -26.5t41 -71.5q0 -63 -67 -85zM187 662q-30 0 -48.5 -13t-18.5 -36q0 -38 68 -55l25 -6q43 18 43 57q0 25 -18.5 39 t-50.5 14zM191 378q35 0 56 15t21 40q0 44 -70 60l-32 9q-52 -19 -52 -65q0 -27 20.5 -43t56.5 -16z"/>
    <glyph glyph-name="nine.numr" horiz-adv-x="377" d="M182 720q79 0 120.5 -50t41.5 -146q0 -207 -164 -207q-60 0 -97 26.5t-45 75.5l79 15q13 -52 68 -52q72 0 78 118q-38 -39 -97 -39q-61 0 -98 35t-37 91q0 60 41 96.5t110 36.5zM182 523q51 0 80 44q-10 90 -79 90q-33 0 -52.5 -18.5t-19.5 -48.5t19.5 -48.5t51.5 -18.5z "/>
    <glyph glyph-name="zero.sups" horiz-adv-x="518" d="M421 369q-58 -70 -162 -70t-161 70q-58 68 -58 194t57.5 195.5t161.5 69.5t162 -70t58 -195q0 -126 -58 -194zM177 427q29 -47 82 -47t82 47t29 136q0 90 -28.5 137t-82.5 47t-82.5 -47t-28.5 -137q0 -89 29 -136z"/>
    <glyph glyph-name="one.sups" horiz-adv-x="338" d="M248 310h-103v363q-31 -34 -96 -34h-18v95h12q92 0 121 83h84v-507z"/>
    <glyph glyph-name="two.sups" horiz-adv-x="458" d="M421 310h-386v77q78 49 105 68q38 25 82 63q80 70 80 145q0 40 -20.5 61.5t-57.5 21.5q-39 0 -60.5 -21.5t-21.5 -59.5q0 -13 5 -41l-107 9q-4 25 -4 41q0 71 52 112.5t141 41.5q88 0 136 -41t48 -116q0 -152 -235 -278h243v-83z"/>
    <glyph glyph-name="three.sups" horiz-adv-x="469" d="M231 299q-91 0 -144.5 44t-55.5 120l106 10q2 -44 27 -68.5t68 -24.5q88 0 88 79q0 74 -98 74h-32v70h29q42 0 65.5 19.5t23.5 54.5q0 34 -21 53t-59 19q-42 0 -64.5 -25t-22.5 -70l-104 12q0 75 52 118.5t143 43.5q88 0 135.5 -36.5t47.5 -103.5q0 -43 -28.5 -74.5 t-76.5 -40.5q57 -8 88.5 -39.5t31.5 -82.5q0 -70 -53.5 -111t-145.5 -41z"/>
    <glyph glyph-name="four.sups" horiz-adv-x="469" d="M446 503v-77h-79v-116h-102v116h-246v72l233 319h115v-314h79zM265 503v221l-154 -221h154z"/>
    <glyph glyph-name="five.sups" horiz-adv-x="465" d="M230 299q-79 0 -130.5 37.5t-61.5 102.5l101 15q15 -73 90 -73q44 0 69.5 26.5t25.5 72.5t-24.5 73.5t-66.5 27.5q-34 0 -58 -18t-32 -49l-95 8l31 295h321v-82h-243l-16 -135q37 57 121 57q77 0 121.5 -46.5t44.5 -127.5q0 -85 -53.5 -134.5t-144.5 -49.5z"/>
    <glyph glyph-name="six.sups" horiz-adv-x="472" d="M276 653q75 0 118.5 -46t43.5 -126t-53 -131t-137 -51q-99 0 -155 67.5t-56 189.5q0 126 56 199t155 73q159 0 180 -131l-98 -16q-17 71 -84 71q-102 0 -108 -172q37 73 138 73zM246 379q43 0 67.5 26.5t24.5 71.5t-26 72t-68 27q-75 0 -102 -77q16 -120 104 -120z"/>
    <glyph glyph-name="seven.sups" horiz-adv-x="415" d="M219 310h-115v9q0 223 189 411h-266v87h370v-81q-178 -175 -178 -407v-19z"/>
    <glyph glyph-name="eight.sups" horiz-adv-x="480" d="M337 589q111 -37 111 -141q0 -68 -56.5 -108.5t-152.5 -40.5q-94 0 -150.5 38.5t-56.5 103.5q0 95 107 124q-91 36 -91 125q0 62 51 100t136 38q87 0 138 -34.5t51 -93.5q0 -82 -87 -111zM236 757q-41 0 -64.5 -18t-23.5 -49q0 -54 88 -75l32 -8q57 24 57 77 q0 34 -23.5 53.5t-65.5 19.5zM241 375q46 0 73 21t27 56q0 59 -92 82l-39 10q-70 -25 -70 -88q0 -37 27 -59t74 -22z"/>
    <glyph glyph-name="nine.sups" horiz-adv-x="472" d="M228 828q101 0 154 -65t53 -192q0 -131 -52.5 -201.5t-156.5 -70.5q-77 0 -124.5 34.5t-57.5 98.5l98 17q15 -72 89 -72q97 0 103 170q-38 -56 -126 -56q-79 0 -126.5 45t-47.5 120q0 78 52.5 125t141.5 47zM228 567q34 0 62 16.5t42 45.5q-12 123 -103 123 q-43 0 -69 -25.5t-26 -67.5q0 -41 26 -66.5t68 -25.5z"/>
    <glyph glyph-name="backslash.case" horiz-adv-x="477" d="M433 -86h-107l-282 877h107z"/>
    <glyph glyph-name="periodcentered.case" horiz-adv-x="270" d="M64 442h142v-139h-142v139z"/>
    <glyph glyph-name="bullet.case" horiz-adv-x="349" d="M174 264q-48 0 -79 30t-31 78q0 50 31 80.5t79 30.5q49 0 80 -30.5t31 -80.5q0 -48 -31 -78t-80 -30z"/>
    <glyph glyph-name="colon.case" horiz-adv-x="270" d="M64 550h142v-139h-142v139zM64 139h142v-139h-142v139z"/>
    <glyph glyph-name="exclamdown.case" horiz-adv-x="319" d="M228 725v-128h-137v128h137zM88 0l26 520h91l26 -520h-143z"/>
    <glyph glyph-name="questiondown.case" horiz-adv-x="497" d="M189 720h136v-128h-136v128zM199 521h118v-45q0 -70 -60 -122l-50 -43q-65 -54 -65 -123q0 -45 29 -71.5t79 -26.5q54 0 85.5 31t31.5 85q0 24 -6 52l120 -12q6 -29 6 -56q0 -90 -63.5 -143.5t-175.5 -53.5q-111 0 -172 49t-61 139q0 95 94 177l48 42q42 37 42 92v29z "/>
    <glyph glyph-name="semicolon.case" horiz-adv-x="270" d="M64 550h142v-139h-142v139zM97 -147l-27 54q38 15 51.5 34t13.5 56v3h-71v139h142v-131q0 -63 -24.5 -98.5t-84.5 -56.5z"/>
    <glyph glyph-name="slash.case" horiz-adv-x="477" d="M433 791l-282 -877h-107l282 877h107z"/>
    <glyph glyph-name="underscore.case" horiz-adv-x="447" d="M0 -91v74h447v-74h-447z"/>
    <glyph glyph-name="asterisk.ss04" horiz-adv-x="280" d="M141 710l30 -93h97l-79 -57l30 -93l-78 57l-79 -57l30 93l-79 57h96z"/>
    <glyph glyph-name="colon.tf" horiz-adv-x="310" d="M84 500h142v-139h-142v139zM84 139h142v-139h-142v139z"/>
    <glyph glyph-name="comma.tf" horiz-adv-x="310" d="M117 -147l-27 54q38 15 51.5 34t13.5 56v3h-71v139h142v-131q0 -63 -24.5 -98.5t-84.5 -56.5z"/>
    <glyph glyph-name="period.tf" horiz-adv-x="310" d="M84 139h142v-139h-142v139z"/>
    <glyph glyph-name="semicolon.tf" horiz-adv-x="310" d="M84 500h142v-139h-142v139zM117 -147l-27 54q38 15 51.5 34t13.5 56v3h-71v139h142v-131q0 -63 -24.5 -98.5t-84.5 -56.5z"/>
    <glyph glyph-name="slash.tf" d="M504 760l-282 -877h-107l282 877h107z"/>
    <glyph glyph-name="underscore.tf" d="M0 -167v74h620v-74h-620z"/>
    <glyph glyph-name="braceleft.case" horiz-adv-x="368" d="M337 -84h-58q-77 0 -116.5 38t-39.5 110v150q0 56 -15.5 79.5t-59.5 24.5v86q46 1 60 22t14 77v148q0 67 45 107t122 40h45v-85h-22q-38 0 -58.5 -22t-20.5 -62v-119q0 -64 -19 -100t-65 -48q45 -17 64 -55t19 -102v-122q0 -39 19 -60.5t55 -21.5h31v-85z"/>
    <glyph glyph-name="braceright.case" horiz-adv-x="368" d="M89 -84h-58v85h31q36 0 55 21.5t19 60.5v122q0 64 19 102t64 55q-46 12 -65 48t-19 100v119q0 40 -20.5 62t-58.5 22h-22v85h45q77 0 122 -40t45 -107v-148q0 -56 14 -77t60 -22v-86q-44 -1 -59.5 -24.5t-15.5 -79.5v-150q0 -72 -39.5 -110t-116.5 -38z"/>
    <glyph glyph-name="bracketleft.case" horiz-adv-x="345" d="M314 -77h-226v871h226v-89h-117v-692h117v-90z"/>
    <glyph glyph-name="bracketright.case" horiz-adv-x="345" d="M257 794v-871h-226v90h117v692h-117v89h226z"/>
    <glyph glyph-name="parenleft.case" horiz-adv-x="329" d="M322 -68l-89 -42q-84 98 -130 219t-46 249q0 259 177 454l88 -41q-78 -100 -113.5 -199t-35.5 -216q0 -227 149 -424z"/>
    <glyph glyph-name="parenright.case" horiz-adv-x="329" d="M96 -110l-89 42q149 197 149 424q0 117 -35.5 216t-113.5 199l88 41q177 -195 177 -454q0 -128 -46 -249t-130 -219z"/>
    <glyph glyph-name="parenleft.tf" d="M442 -98l-89 -42q-84 97 -129.5 218t-45.5 250q0 257 176 454l88 -41q-77 -100 -112.5 -199t-35.5 -216q0 -230 148 -424z"/>
    <glyph glyph-name="parenright.tf" d="M266 -140l-89 42q149 197 149 424q0 117 -35.5 216t-113.5 199l88 41q177 -195 177 -454q0 -128 -46 -249t-130 -219z"/>
    <glyph glyph-name="emdash.case" horiz-adv-x="824" d="M47 311v88h730v-88h-730z"/>
    <glyph glyph-name="endash.case" horiz-adv-x="563" d="M47 311v88h469v-88h-469z"/>
    <glyph glyph-name="hyphen.case" horiz-adv-x="401" d="M47 302v106h307v-106h-307z"/>
    <glyph glyph-name="hyphen.tf" d="M106 225v106h407v-106h-407z"/>
    <glyph glyph-name="guillemotleft.case" horiz-adv-x="534" d="M304 144h-113l-167 209l169 207h112l-164 -207zM514 144h-113l-167 209l169 207h112l-164 -207z"/>
    <glyph glyph-name="guillemotright.case" horiz-adv-x="534" d="M300 353l-167 -209h-113l163 209l-164 207h112zM510 353l-167 -209h-113l163 209l-164 207h112z"/>
    <glyph glyph-name="guilsinglleft.case" horiz-adv-x="324" d="M304 144h-113l-167 209l169 207h112l-164 -207z"/>
    <glyph glyph-name="guilsinglright.case" horiz-adv-x="324" d="M300 353l-167 -209h-113l163 209l-164 207h112z"/>
    <glyph glyph-name="parenleft.subs" horiz-adv-x="281" d="M274 -211l-79 -29q-131 148 -131 339q0 184 131 329l79 -28q-112 -136 -112 -301q0 -170 112 -310z"/>
    <glyph glyph-name="parenright.subs" horiz-adv-x="281" d="M86 -240l-79 30q112 139 112 309q0 165 -112 301l79 28q131 -145 131 -329q0 -191 -131 -339z"/>
    <glyph glyph-name="parenleft.sups" horiz-adv-x="281" d="M274 240l-79 -30q-131 148 -131 339q0 184 131 329l79 -28q-112 -136 -112 -301q0 -170 112 -309z"/>
    <glyph glyph-name="parenright.sups" horiz-adv-x="281" d="M86 210l-79 30q112 139 112 309q0 165 -112 301l79 28q131 -145 131 -329q0 -191 -131 -339z"/>
    <glyph glyph-name="uni0E3F.case" horiz-adv-x="658" d="M472 372q68 -11 104.5 -54t36.5 -113q0 -97 -62.5 -151t-173.5 -54h-22v-87h-56v87h-211v710h211v76h56v-76h5q111 0 172.5 -48.5t61.5 -137.5q0 -58 -32 -97.5t-90 -54.5zM299 617h-93v-210h93v210zM469 513q0 98 -114 104v-210q114 6 114 106zM206 324v-232h93v232h-93 zM355 92h3q62 0 96 32.5t34 91.5q0 51 -32.5 79.5t-90.5 28.5h-10v-232z"/>
    <glyph glyph-name="uni0E3F.tf" d="M425 358q66 -10 103.5 -53.5t37.5 -110.5q0 -94 -60.5 -144t-169.5 -50h-6v-107h-55v107h-189v695h189v91h55v-91q104 -2 161 -48.5t57 -132.5q0 -57 -32.5 -98t-90.5 -58zM275 393v215h-81v-215h81zM434 504q0 51 -25 75.5t-79 27.5v-213q104 9 104 110zM194 309v-222 h81v222h-81zM330 309v-222q122 3 122 118q0 50 -31 77t-89 27h-2z"/>
    <glyph glyph-name="uni0E3F.tf.tf.case" d="M425 367q67 -10 104 -53.5t37 -111.5q0 -98 -60.5 -150t-169.5 -52h-6v-93h-55v93h-189v710h189v80h55v-80q104 -2 161 -49.5t57 -136.5q0 -57 -32.5 -99t-90.5 -58zM275 402v220h-81v-220h81zM434 514q0 53 -25 78.5t-79 28.5v-218q104 9 104 111zM194 318v-231h81v231 h-81zM330 318v-231q122 3 122 126q0 50 -31 77.5t-89 27.5h-2z"/>
    <glyph glyph-name="uni20BA.case" horiz-adv-x="572" d="M456 243l107 -20q-51 -223 -273 -223h-195v265l-71 -21v67l71 21v78l-71 -21v68l71 21v232h123v-196l226 66v-68l-226 -66v-78l226 66v-67l-226 -66v-203h56q77 0 119.5 37.5t62.5 107.5z"/>
    <glyph glyph-name="uni20BA.tf" d="M469 243l107 -20q-49 -223 -259 -223h-179v266l-71 -21v68l71 21v78l-71 -21v67l71 21v216h120v-179l199 60v-67l-199 -60v-78l199 60v-68l-199 -60v-205h43q80 0 120 48q32 41 48 97z"/>
    <glyph glyph-name="uni20BA.tf.tf.case" d="M469 245l107 -21q-50 -224 -259 -224h-179v268l-71 -21v68l71 22v78l-71 -22v68l71 22v227h120v-191l199 61v-68l-199 -61v-78l199 61v-69l-199 -60v-207h43q71 0 109.5 38t58.5 109z"/>
    <glyph glyph-name="uni20BD.case" horiz-adv-x="597" d="M326 279h-107v-84h150v-62h-150v-133h-123v133h-76v62h76v84h-76v84h76v347h236q114 0 181 -57.5t67 -156.5q0 -100 -68 -158.5t-186 -58.5zM314 613h-95v-250h95q62 0 98.5 34.5t36.5 92.5t-36 90.5t-99 32.5z"/>
    <glyph glyph-name="uni20BD.tf" d="M343 273h-95v-79h146v-62h-146v-132h-121v132h-77v62h77v79h-76v84h76v338h216q67 0 116.5 -19t76 -51t38.5 -67t12 -73q0 -81 -50 -142q-59 -70 -193 -70zM328 599h-80v-242h80q68 0 102.5 35t34.5 90q0 51 -34.5 84t-102.5 33z"/>
    <glyph glyph-name="uni20BD.tf.tf.case" d="M343 278h-95v-83h146v-62h-146v-133h-121v133h-77v62h77v83h-76v85h76v347h216q115 0 179 -58.5t64 -154.5q0 -99 -64.5 -159t-178.5 -60zM328 613h-80v-250h80q62 0 99.5 36t37.5 94q0 56 -36 88t-101 32z"/>
    <glyph glyph-name="uni20B9.case" horiz-adv-x="556" d="M67 710h482v-79h-176q53 -42 62 -117h114v-62h-114q-10 -80 -68 -127t-154 -52l225 -273h-138l-233 286v65h104q119 0 137 101h-241v62h242q-7 56 -42 86.5t-95 30.5h-105v79z"/>
    <glyph glyph-name="uni20B9.tf" d="M88 695h481v-79h-190q47 -39 57 -105h133v-62h-132q-8 -80 -62.5 -127t-144.5 -50l228 -272h-143l-227 280v69h89q118 0 133 100h-222v62h221q-8 51 -43 78t-92 27h-86v79z"/>
    <glyph glyph-name="uni20B9.tf.tf.case" d="M88 710h481v-79h-192q51 -41 59 -117h133v-62h-133q-9 -81 -63 -128t-143 -50l228 -274h-143l-227 283v68h89q115 0 132 101h-221v62h222q-8 56 -43 86.5t-93 30.5h-86v79z"/>
    <glyph glyph-name="uni20A9.case" horiz-adv-x="903" d="M762 710h119l-58 -250h58v-58h-71l-19 -83h90v-57h-103l-61 -262h-137l-56 262h-145l-56 -262h-137l-61 262h-103v57h90l-19 83h-71v58h58l-58 250h119l47 -250h149l56 250h116l57 -250h149zM429 499l-8 -39h61l-8 39q-13 61 -21 134h-4q-7 -78 -20 -134zM323 402h-125 l16 -83h91zM408 402l-17 -83h121l-17 83h-87zM598 319h91l16 83h-126zM276 192l16 70h-68l13 -68q15 -90 16 -112h3q2 25 20 110zM666 194l13 68h-68l16 -70q16 -72 19 -110h3q5 55 17 112z"/>
    <glyph glyph-name="uni20A9.tf" d="M581 460v-57h-38l-8 -75h46v-57h-52l-28 -271h-123l-31 271h-74l-31 -271h-124l-28 271h-52v57h46l-8 75h-38v57h32l-24 235h88l17 -235h75l29 235h109l29 -235h75l17 235h88l-24 -235h32zM303 539l-9 -79h32l-9 79q-4 35 -5 70h-5q-2 -46 -4 -70zM219 403h-63l5 -75h49z M288 403l-9 -75h62l-9 75h-44zM409 328h49l6 75h-64zM188 144l15 127h-37l9 -127q3 -39 3 -55h4q0 1 2 23.5t4 31.5zM445 144l9 127h-38l16 -127q2 -16 3.5 -34t1.5 -21h4q0 24 4 55z"/>
    <glyph glyph-name="uni20A9.tf.tf.case" d="M581 463v-58h-39l-8 -75h47v-57h-52l-28 -273h-123l-30 273h-76l-30 -273h-124l-28 273h-52v57h47l-8 75h-39v58h33l-25 247h88l18 -247h74l29 247h109l30 -247h74l17 247h88l-25 -247h33zM303 554l-10 -91h34l-10 91q-4 36 -5 69h-5q-2 -47 -4 -69zM219 405h-63l6 -75 h48zM287 405l-9 -75h64l-9 75h-46zM410 330h48l5 75h-62zM188 144l15 129h-37l9 -128q3 -39 3 -56h4q0 23 6 55zM445 145l9 128h-37l15 -129q1 -12 2 -24.5t2 -20t1 -10.5h4q0 9 4 56z"/>
    <glyph glyph-name="currency.case" horiz-adv-x="557" d="M511 353q0 -83 -45 -144l54 -60l-55 -51l-56 60q-53 -35 -126 -35q-76 0 -132 37l-58 -63l-55 51l58 65q-43 58 -43 140q0 81 44 142l-59 64l55 51l59 -63q56 37 131 37q69 0 124 -33l58 60l55 -51l-56 -61q47 -62 47 -146zM189 252q37 -39 94 -39t93 39t36 101t-36 101 t-93 39t-94 -39q-38 -40 -38 -101t38 -101z"/>
    <glyph glyph-name="dollar.case" horiz-adv-x="614" d="M583 199q0 -89 -66 -148t-178 -66v-72h-62v72q-100 7 -167.5 55.5t-94.5 134.5l106 48q46 -124 156 -139v241l-27 6q-199 42 -199 202q0 82 61.5 134t164.5 59v73h62v-73q169 -15 229 -162l-100 -54q-38 100 -129 120v-208l25 -5q115 -25 167 -76t52 -142zM168 536 q0 -38 25 -61t84 -39v197q-52 -4 -80.5 -28.5t-28.5 -68.5zM339 311v-229q60 5 92.5 34t32.5 79q0 48 -28 73.5t-97 42.5z"/>
    <glyph glyph-name="Euro.case" horiz-adv-x="663" d="M540 196l106 -45q-81 -166 -274 -166q-123 0 -201.5 72t-102.5 200h-57v63h49q-2 40 -2 47q0 23 1 29h-48v64h54q21 128 101 197.5t209 69.5q194 0 265 -155l-107 -47q-51 101 -163 101q-72 0 -117.5 -42.5t-61.5 -123.5h296v-64h-303q-1 -6 -1 -28q0 -8 2 -48h302v-63 h-292q19 -81 66.5 -126t115.5 -45q52 0 94.5 28.5t68.5 81.5z"/>
    <glyph glyph-name="sterling.case" horiz-adv-x="630" d="M511 184l110 -19q-12 -84 -61 -132t-125 -48q-47 0 -115 13t-125 13q-74 0 -156 -19l-25 77q141 43 141 178q0 45 -6 81h-107v70h94q-14 75 -14 113q0 101 60 158.5t165 57.5q191 0 226 -165l-117 -27q-20 98 -108 98q-104 0 -104 -119q0 -40 14 -116h182v-70h-170 q4 -33 4 -62q0 -119 -100 -170q29 8 74 8q37 0 86 -7q56 -8 86 -8q38 0 62 24.5t29 70.5z"/>
    <glyph glyph-name="currency.tf.case" d="M543 353q0 -84 -46 -145l54 -59l-55 -51l-55 59q-55 -34 -127 -34q-76 0 -132 37l-58 -63l-55 51l58 64q-43 61 -43 141q0 81 44 142l-59 64l55 51l59 -63q56 37 131 37q70 0 125 -33l57 60l55 -51l-55 -60q47 -62 47 -147zM220 252q38 -39 94 -39t94 39q36 39 36 101 t-36 101q-38 39 -94 39t-94 -39q-37 -38 -37 -101t37 -101z"/>
    <glyph glyph-name="dollar.tf.case" d="M566 195q0 -96 -59.5 -151t-167.5 -59v-72h-45v73q-101 7 -164 62.5t-80 151.5l113 31q28 -133 131 -149v228l-40 10q-89 23 -135.5 76t-46.5 129q0 90 59.5 143.5t162.5 58.5v72h45v-73q95 -7 153 -59t67 -142l-110 -31q-12 123 -110 140v-222l48 -13q93 -25 136 -73 t43 -131zM291 424l3 -1v213q-51 -3 -79.5 -30t-28.5 -74q0 -81 105 -108zM339 298v-219q111 5 111 108q0 44 -25.5 69.5t-82.5 40.5z"/>
    <glyph glyph-name="Euro.tf.case" d="M491 190l102 -45q-29 -76 -90.5 -118t-147.5 -42q-115 0 -184.5 71.5t-87.5 202.5h-78v63h73q-1 6 -1 28v31v17h-72v63h77q17 128 90 197t192 69q172 0 227 -150l-103 -51q-40 105 -130 105q-129 0 -152 -170h229v-63h-233v-9v-43v-24h233v-63h-227q26 -176 149 -176 q89 0 134 107z"/>
    <glyph glyph-name="sterling.tf.case" d="M473 184l110 -19q-12 -88 -62 -134t-121 -46q-40 0 -96 13t-105 13q-72 0 -144 -19l-25 78q131 44 131 180q0 30 -6 78h-100v70h85q-19 76 -19 125q0 96 57.5 150t156.5 54q179 0 213 -166l-114 -27q-18 100 -99 100q-95 0 -95 -108q0 -46 18 -128h157v-70h-143 q4 -33 4 -61q0 -123 -103 -172q23 6 66 6q31 0 74 -7q42 -7 72 -7q35 0 58.5 24.5t29.5 72.5z"/>
    <glyph glyph-name="yen.tf.case" d="M447 710h134l-203 -366h163v-65h-170v-78h170v-65h-170v-136h-122v136h-170v65h170v78h-170v65h163l-203 366h134l112 -226q15 -28 24 -62h2q9 34 24 62z"/>
    <glyph glyph-name="yen.case" horiz-adv-x="562" d="M427 710h136l-214 -367h165v-65h-172v-61h172v-65h-172v-152h-122v152h-172v65h172v61h-172v65h165l-215 367h137l99 -185q29 -55 46 -100h2q17 45 46 100z"/>
    <glyph glyph-name="currency.tf" d="M543 303q0 -84 -46 -145l54 -59l-55 -51l-55 59q-55 -34 -127 -34q-76 0 -132 37l-58 -63l-55 51l58 64q-43 61 -43 141q0 81 44 142l-59 64l55 51l59 -63q56 37 131 37q70 0 125 -33l57 60l55 -51l-55 -60q47 -62 47 -147zM220 202q38 -39 94 -39t94 39q36 39 36 101 t-36 101q-38 39 -94 39t-94 -39q-37 -38 -37 -101t37 -101z"/>
    <glyph glyph-name="plus.case" horiz-adv-x="566" d="M332 423h187v-87h-187v-197h-99v197h-186v87h186v185h99v-185z"/>
    <glyph glyph-name="minus.case" horiz-adv-x="566" d="M519 332h-472v92h472v-92z"/>
    <glyph glyph-name="multiply.case" d="M491 627l69 -68l-182 -182l182 -181l-68 -69l-182 182l-182 -182l-68 68l182 182l-182 182l68 68l182 -181z"/>
    <glyph glyph-name="divide.case" horiz-adv-x="566" d="M324 517q-19 -16 -43 -17t-43 16.5t-17 42.5q0 27 17 43.5t43 16.5t42.5 -16.5t16.5 -43.5q0 -26 -16 -42zM519 332h-472v89h472v-89zM324 150q-17 -17 -43 -17t-43 17q-17 16 -17 43t17 44q19 15 43 16t42.5 -16.5t16.5 -43.5q0 -27 -16 -43z"/>
    <glyph glyph-name="equal.case" horiz-adv-x="566" d="M519 428h-472v93h472v-93zM519 237h-472v93h472v-93z"/>
    <glyph glyph-name="notequal.case" d="M519 521v-93h-165l-38 -98h203v-93h-240l-48 -124h-68l48 124h-164v93h201l38 98h-239v93h275l47 120h68l-47 -120h129z"/>
    <glyph glyph-name="greater.case" d="M564 331l-468 -202v100l355 148l-355 148v98l468 -202v-90z"/>
    <glyph glyph-name="less.case" d="M524 229v-100l-468 202v90l468 202v-98l-355 -148z"/>
    <glyph glyph-name="greaterequal.case" d="M552 384l-468 -202v100l355 148l-355 148v98l468 -202v-90zM86 138h464v-88h-464v88z"/>
    <glyph glyph-name="lessequal.case" d="M536 282v-100l-468 202v90l468 202v-98l-355 -148zM70 50v88h464v-88h-464z"/>
    <glyph glyph-name="plusminus.case" d="M358 584v-158h189v-87h-189v-153h-99v153h-186v87h186v158h99zM547 50h-474v92h474v-92z"/>
    <glyph glyph-name="approxequal.case" d="M424 405q-42 0 -117 28q-77 28 -109 28q-73 0 -125 -43v95q20 18 55.5 30t69.5 12q49 0 121 -28q75 -29 105 -29q71 0 123 44v-96q-18 -17 -53.5 -29t-69.5 -12zM424 213q-39 0 -117 29q-77 28 -109 28q-72 0 -125 -44v96q20 17 56 29t69 12q49 0 121 -28t105 -28 q74 0 123 43v-95q-18 -18 -53 -30t-70 -12z"/>
    <glyph glyph-name="asciitilde.case" d="M409 270q-35 -1 -74 19.5t-71.5 41t-52.5 19.5q-57 0 -76 -69l-79 16q15 66 55.5 101.5t98.5 35.5q35 1 74.5 -19.5t72 -41t52.5 -18.5q57 0 75 68l80 -16q-16 -65 -56.5 -101t-98.5 -36z"/>
    <glyph glyph-name="logicalnot.case" d="M65 339v91h469v-253h-93v162h-376z"/>
    <glyph glyph-name="infinity.case" d="M438 529q61 0 99 -41.5t38 -108.5q0 -66 -39 -109t-98 -43q-78 0 -128 80q-27 -41 -57 -60.5t-71 -19.5q-61 0 -98.5 41.5t-37.5 108.5q0 66 38.5 109t97.5 43q80 0 129 -79q49 79 127 79zM191 310q26 0 42.5 14.5t36.5 51.5q-19 37 -37.5 53.5t-43.5 16.5q-27 0 -42 -18 t-15 -50t15.5 -50t43.5 -18zM431 310q27 0 42.5 18t15.5 50q0 31 -16 49.5t-44 18.5q-26 0 -42.5 -14.5t-36.5 -51.5q19 -37 37.5 -53.5t43.5 -16.5z"/>
    <glyph glyph-name="emptyset.case" horiz-adv-x="545" d="M465 605l42 -39l-55 -60q50 -64 50 -152q0 -102 -63 -166q-64 -64 -167 -64q-80 0 -136 40l-56 -61l-42 39l56 60q-51 62 -51 152q0 103 64 167t166 64q81 0 137 -40zM141 354q0 -44 20 -79l183 199q-29 20 -71 20q-59 0 -95.5 -39t-36.5 -101zM403 354q0 46 -19 78 l-183 -198q32 -20 71 -20q59 0 95 38.5t36 101.5z"/>
    <glyph glyph-name="plus.tf.case" d="M359 423h187v-87h-187v-197h-99v197h-186v87h186v185h99v-185z"/>
    <glyph glyph-name="minus.tf.case" d="M546 332h-472v92h472v-92z"/>
    <glyph glyph-name="divide.tf.case" d="M351 517q-19 -16 -43 -17t-43 16.5t-17 42.5q0 27 17 43.5t43 16.5t42.5 -16.5t16.5 -43.5q0 -26 -16 -42zM546 332h-472v90h472v-90zM351 150q-17 -17 -43 -17t-43 17q-17 16 -17 43t17 44q19 15 43 16t42.5 -16.5t16.5 -43.5q0 -27 -16 -43z"/>
    <glyph glyph-name="equal.tf.case" d="M520 428h-472v93h472v-93zM520 237h-472v93h472v-93z"/>
    <glyph glyph-name="emptyset.tf.case" d="M502 605l43 -39l-56 -60q51 -62 51 -152q0 -102 -64 -166t-166 -64q-80 0 -136 40l-56 -61l-43 39l56 61q-50 62 -50 151q0 103 64 167t165 64q81 0 137 -40zM179 354q0 -43 20 -78l183 198q-32 20 -72 20q-58 0 -94.5 -39t-36.5 -101zM441 354q0 46 -19 78l-183 -198 q32 -20 71 -20q58 0 94.5 39t36.5 101z"/>
    <glyph glyph-name="plus.tf" d="M359 373h187v-87h-187v-197h-99v197h-186v87h186v185h99v-185z"/>
    <glyph glyph-name="minus.tf" d="M546 282h-472v92h472v-92z"/>
    <glyph glyph-name="divide.tf" d="M351 467q-19 -16 -43 -17t-43 16.5t-17 42.5q0 27 17 43.5t43 16.5t42.5 -16.5t16.5 -43.5q0 -26 -16 -42zM546 282h-472v90h472v-90zM351 100q-17 -17 -43 -17t-43 17t-17 43.5t17 43.5q26 27 66 11.5t36 -55.5q0 -27 -16 -43z"/>
    <glyph glyph-name="equal.tf" d="M520 378h-472v93h472v-93zM520 187h-472v93h472v-93z"/>
    <glyph glyph-name="emptyset.tf" d="M502 555l43 -39l-56 -60q51 -62 51 -152q0 -102 -64 -166t-166 -64q-80 0 -136 40l-56 -61l-43 39l56 61q-50 62 -50 151q0 103 64 167t165 64q81 0 137 -40zM179 304q0 -43 20 -78l183 198q-32 20 -72 20q-58 0 -94.5 -39t-36.5 -101zM441 304q0 46 -19 78l-183 -198 q32 -20 71 -20q58 0 94.5 39t36.5 101z"/>
    <glyph glyph-name="uni21BB.alt" horiz-adv-x="993" d="M860 367h95l-134 -179l-134 179h99q-2 129 -79 206q-79 78 -203 78q-129 0 -230 -92l-47 56q115 109 285 109q149 0 248 -99q98 -98 100 -258zM487 56q129 0 230 92l47 -56q-115 -109 -285 -109q-147 0 -247 98q-99 98 -101 256h-93l134 179l134 -179h-101 q1 -127 81 -204q79 -77 201 -77z"/>
    <glyph glyph-name="arrowup.ss03" horiz-adv-x="786" d="M342 -35v606l-188 -202l-66 76l306 305l304 -305l-64 -75l-191 201v-606h-101z"/>
    <glyph glyph-name="uni2197.ss03" horiz-adv-x="908" d="M722 275l5 272l-566 -572l-73 74l571 570l-274 -4v95h435v-435h-98z"/>
    <glyph glyph-name="arrowright.ss03" horiz-adv-x="1057" d="M588 91l202 190h-702v97h702l-201 192l74 65l306 -305l-306 -306z"/>
    <glyph glyph-name="uni2198.ss03" horiz-adv-x="908" d="M161 723l566 -572l-5 272h98v-435h-435v95l274 -4l-571 570z"/>
    <glyph glyph-name="arrowdown.ss03" horiz-adv-x="786" d="M154 341l188 -202v606h101v-606l191 201l64 -75l-304 -305l-306 305z"/>
    <glyph glyph-name="uni2199.ss03" horiz-adv-x="908" d="M186 423l-5 -272l566 572l73 -74l-571 -570l274 4v-95h-435v435h98z"/>
    <glyph glyph-name="arrowleft.ss03" horiz-adv-x="1057" d="M969 281h-702l202 -190l-75 -67l-306 306l306 305l74 -65l-201 -192h702v-97z"/>
    <glyph glyph-name="uni2196.ss03" horiz-adv-x="908" d="M747 -25l-566 572l5 -272h-98v435h435v-95l-274 4l571 -570z"/>
    <glyph glyph-name="at.case" horiz-adv-x="834" d="M427 -31q-179 0 -283 103q-106 102 -106 275q0 170 107 277t284 107q173 0 270 -99q98 -101 98 -265q0 -104 -45 -165.5t-121 -61.5q-96 0 -119 77q-19 -38 -56 -59.5t-84 -21.5q-63 0 -103 34t-40 87q0 56 39.5 87.5t125.5 44.5l109 16v12q0 47 -17 66t-58 19 q-75 0 -81 -70h-103q4 66 54 105.5t132 39.5q87 0 128.5 -40.5t41.5 -127.5v-125q0 -43 11 -61.5t36 -18.5q36 0 57.5 43.5t21.5 117.5q0 144 -76.5 224t-219.5 80q-150 0 -234 -87q-85 -88 -85 -235q0 -143 90 -228q89 -86 236 -86q95 0 184 39l28 -56q-96 -47 -222 -47z M400 210q47 0 75.5 29.5t28.5 79.5v23l-77 -11q-49 -7 -70.5 -23t-21.5 -45q0 -23 18.5 -38t46.5 -15z"/>
    <glyph glyph-name="section.case" horiz-adv-x="474" d="M389 233q46 -39 46 -102q0 -69 -52.5 -108.5t-143.5 -39.5q-85 0 -142.5 37t-75.5 102l88 43q35 -93 132 -93q79 0 79 56q0 23 -14.5 36.5t-56.5 29.5l-111 41q-123 47 -123 142q0 70 64 101q-49 42 -49 105q0 67 52.5 105.5t143.5 38.5q78 0 130.5 -32.5t70.5 -92.5 l-85 -44q-34 82 -119 82q-77 0 -77 -56q0 -23 15 -38t54 -30l114 -43q60 -22 87 -55t27 -84q0 -66 -54 -101zM188 322l124 -47q1 -1 6.5 -3t6.5 -2q15 15 15 43q0 27 -13.5 43.5t-47.5 29.5l-125 50l-14 6q-18 -15 -18 -45q0 -27 15 -44t51 -31z"/>
    <glyph glyph-name="bar.case" horiz-adv-x="254" d="M169 -86h-84v878h84v-878z"/>
    <glyph glyph-name="brokenbar.case" horiz-adv-x="253" d="M85 800h84v-376h-84v376zM85 303h84v-380h-84v380z"/>
    <glyph glyph-name="dagger.case" horiz-adv-x="491" d="M430 459h-136v-519h-98v519h-135v81h135v220h98v-220h136v-81z"/>
    <glyph glyph-name="daggerdbl.case" horiz-adv-x="491" d="M430 540v-81h-136v-219h135v-81h-135v-219h-98v219h-134v81h134v219h-135v81h135v220h98v-220h136z"/>
    <glyph glyph-name="bar.tf" horiz-adv-x="310" d="M197 -117h-85v877h85v-877z"/>
    <glyph glyph-name="plus.subs" horiz-adv-x="443" d="M258 134h141v-68h-141v-142h-74v142h-140v68h140v134h74v-134z"/>
    <glyph glyph-name="minus.subs" horiz-adv-x="443" d="M399 66h-355v68h355v-68z"/>
    <glyph glyph-name="multiply.subs" horiz-adv-x="485" d="M378 283l54 -51l-136 -133l136 -132l-53 -53l-136 133l-137 -133l-52 52l136 133l-136 133l52 51l137 -132z"/>
    <glyph glyph-name="divide.subs" horiz-adv-x="443" d="M253 196q-23 -22 -51.5 -9.5t-28.5 42.5q0 21 13 34t33 13q21 0 34 -13t13 -34q0 -20 -13 -33zM399 66h-355v67h355v-67zM253 -65q-23 -22 -51.5 -10t-28.5 43q0 21 13 33.5t33 12.5q21 0 34 -12.5t13 -33.5q0 -20 -13 -33z"/>
    <glyph glyph-name="plus.sups" horiz-adv-x="443" d="M258 584h141v-68h-141v-142h-74v142h-140v68h140v134h74v-134z"/>
    <glyph glyph-name="minus.sups" horiz-adv-x="443" d="M399 516h-355v68h355v-68z"/>
    <glyph glyph-name="multiply.sups" horiz-adv-x="485" d="M378 733l54 -51l-136 -133l136 -132l-53 -53l-136 133l-137 -133l-52 52l136 133l-136 133l52 51l137 -132z"/>
    <glyph glyph-name="divide.sups" horiz-adv-x="443" d="M253 647q-23 -21 -51.5 -9.5t-28.5 41.5q0 21 13 34t33 13q21 0 34 -13t13 -34q0 -20 -13 -32zM399 516h-355v67h355v-67zM253 385q-23 -22 -51.5 -10t-28.5 43q0 21 13 33.5t33 12.5q21 0 34 -12.5t13 -33.5q0 -20 -13 -33z"/>
    <glyph glyph-name="caronaccentcomb" horiz-adv-x="213" d="M81 526l-21 42q27 6 37.5 16t10.5 30h-58v96h113v-84q0 -82 -82 -100z"/>
    </font>
</defs>
</svg>
