<svg xmlns="http://www.w3.org/2000/svg">
<defs>
<font id="GTAmerica-Bold" horiz-adv-x="620">
  <font-face font-family="GT America Bold" font-weight="700" font-stretch="normal" units-per-em="1000" panose-1="0 0 8 0 0 0 0 0 0 0" ascent="800" descent="-200" x-height="500" cap-height="710" bbox="-459 -241 1286.02 979" underline-thickness="50" underline-position="-250" unicode-range="U+000D-FB02"/>

<glyph glyph-name="fi" unicode="fi" horiz-adv-x="686" d="M257 500h116v-107h-116v-393h-160v393h-80v107h80v47q0 89 50.5 136.5t145.5 47.5q43 0 80 -9v-115q-32 5 -49 5q-67 0 -67 -69v-43zM623 572h-167v146h167v-146zM619 0h-161v500h161v-500z"/>
    <glyph glyph-name="fl" unicode="fl" horiz-adv-x="696" d="M257 500h116v-107h-116v-393h-160v393h-80v107h80v47q0 89 50.5 136.5t145.5 47.5q43 0 80 -9v-115q-32 5 -49 5q-67 0 -67 -69v-43zM463 725h161v-725h-161v725z"/>
    <glyph glyph-name="g_g.liga" unicode="gg" horiz-adv-x="1104" d="M393 494q11 43 47 67t90 24q16 0 21 -1v-107q-26 6 -47 6q-34 0 -57 -18q60 -47 60 -121q0 -77 -62.5 -123t-166.5 -46q-59 0 -104 15q-14 -12 -14 -26q0 -42 69 -42h109q94 0 142.5 -39.5t48.5 -112.5q0 -84 -69.5 -130.5t-197.5 -46.5q-113 0 -177.5 30t-64.5 87 q0 64 91 92q-74 27 -74 96q0 81 91 112q-78 46 -78 134q0 77 62 122.5t166 45.5q66 0 115 -18zM1090 583v-105q-25 6 -47 6q-37 0 -62 -20q59 -45 59 -121q0 -77 -62 -122.5t-167 -45.5q-48 0 -92 11q-11 -9 -11 -22q0 -42 73 -42h113q94 0 142.5 -40t48.5 -112 q0 -82 -71.5 -129.5t-199.5 -47.5q-112 0 -177 30t-65 86q0 64 88 92q-75 27 -75 96q0 75 81 110q-84 47 -84 136q0 78 62 123.5t167 45.5q65 0 114 -18q28 91 144 91q11 0 21 -2zM278 257q35 0 56.5 24t21.5 63t-21.5 62.5t-56.5 23.5q-34 0 -55.5 -23.5t-21.5 -62.5 t21.5 -63t55.5 -24zM811 257q34 0 55.5 23.5t21.5 62.5t-21.5 63t-55.5 24q-35 0 -56 -23.5t-21 -63.5q0 -39 21 -62.5t56 -23.5zM323 -12l-128 1q-5 0 -37 2q-19 -19 -19 -46q0 -64 127 -64q129 0 129 59q0 48 -72 48zM879 -12l-132 1q-5 0 -35 2q-21 -20 -21 -46 q0 -64 127 -64q132 0 132 59q0 48 -71 48z"/>
    <glyph glyph-name=".notdef" horiz-adv-x="1018" d="M998 710v-47h-552v-47h552v-48h-552v-47h552v-48h-552v-47h552v-47h-552v-48h552v-47h-978v426h978zM72 652l-5 15l13 9h-16l-5 15l-4 -15h-16l13 -9l-5 -15l12 9zM146 691l-4 -15h-16l13 -9l-5 -15l12 10l13 -10l-5 15l12 9h-15zM233 691l-4 -15h-16l13 -9l-5 -15l12 10 l13 -10l-5 15l12 9h-15zM320 691l-5 -15h-15l13 -9l-5 -15l12 10l13 -10l-5 15l12 9h-15zM420 652l-5 15l12 9h-15l-5 15l-5 -15h-15l12 -9l-4 -15l12 10zM103 647l-5 -15h-15l12 -9l-4 -14l12 9l12 -9l-4 14l12 9h-15zM376 609l-5 14l13 9h-16l-4 15l-5 -15h-15l12 -9 l-5 -14l13 9zM193 364h80v93h94v80h-94v94h-80v-94h-93v-80h93v-93zM72 565l-5 15l13 9h-16l-5 14l-4 -14h-16l13 -9l-5 -15l12 9zM146 603l-4 -14h-16l13 -9l-5 -15l12 9l13 -9l-5 15l12 9h-15zM320 603l-5 -14h-15l13 -9l-5 -15l12 9l13 -9l-5 15l12 9h-15zM420 565l-5 15 l12 9h-15l-5 14l-5 -14h-15l12 -9l-4 -15l12 9zM72 478l-5 14l13 10h-16l-5 14l-4 -14h-16l13 -10l-5 -14l12 9zM420 478l-5 14l12 10h-15l-5 14l-5 -14h-15l12 -10l-4 -14l12 9zM72 391l-5 14l13 9h-16l-5 15l-4 -15h-16l13 -9l-5 -14l12 9zM159 391l-5 14l12 9h-15l-5 15 l-4 -15h-16l13 -9l-5 -14l12 9zM333 391l-5 14l12 9h-15l-5 15l-5 -15h-15l13 -9l-5 -14l12 9zM420 391l-5 14l12 9h-15l-5 15l-5 -15h-15l12 -9l-4 -14l12 9zM103 356l12 -9l-4 15l12 9h-15l-5 14l-5 -14h-15l12 -9l-4 -15zM364 356l12 -9l-5 15l13 9h-16l-4 14l-5 -14h-15 l12 -9l-5 -15zM59 312l13 -9l-5 15l13 9h-16l-5 15l-4 -15h-16l13 -9l-5 -15zM146 312l13 -9l-5 15l12 9h-15l-5 15l-4 -15h-16l13 -9l-5 -15zM233 312l13 -9l-5 15l12 9h-15l-5 15l-4 -15h-16l13 -9l-5 -15zM320 312l13 -9l-5 15l12 9h-15l-5 15l-5 -15h-15l13 -9l-5 -15z M407 312l13 -9l-5 15l12 9h-15l-5 15l-5 -15h-15l12 -9l-4 -15zM997 189h-977v48h977v-48zM998 95h-978v47h978v-47zM998 0h-978v47h978v-47z"/>
    <glyph glyph-name=".null" horiz-adv-x="0"/>
    <glyph glyph-name="nonmarkingreturn" horiz-adv-x="333"/>
    <glyph glyph-name="null" horiz-adv-x="0"/>
    <glyph glyph-name="null" horiz-adv-x="0"/>
    <glyph glyph-name="CR" unicode="&#xD;" horiz-adv-x="0"/>
    <glyph glyph-name="space" unicode=" " horiz-adv-x="247"/>
    <glyph glyph-name="exclam" unicode="!" horiz-adv-x="330" d="M229 232h-128l-27 493h182zM78 153h174v-153h-174v153z"/>
    <glyph glyph-name="quotedbl" unicode="&quot;" horiz-adv-x="458" d="M182 410h-107l-18 300h143zM383 410h-107l-18 300h143z"/>
    <glyph glyph-name="numbersign" unicode="#" horiz-adv-x="653" d="M643 519v-109h-128l-23 -125h117v-109h-137l-33 -176h-122l33 176h-115l-33 -176h-122l33 176h-103v109h123l23 125h-106v109h127l32 173h122l-32 -173h115l32 173h122l-32 -173h107zM255 285h115l23 125h-115z"/>
    <glyph glyph-name="dollar" unicode="$" horiz-adv-x="619" d="M599 200q0 -91 -69.5 -149t-188.5 -66v-92h-66v92q-98 6 -170 46.5t-107 108.5l121 83q54 -101 156 -117v198l-38 9q-200 45 -200 202q0 84 63.5 135.5t174.5 58.5v91h66v-91q156 -12 242 -129l-108 -88q-47 83 -134 101v-168l43 -10q114 -26 164.5 -76.5t50.5 -138.5z M180 522q0 -30 21 -49t74 -33v156q-45 -3 -70 -22t-25 -52zM341 289v-185q110 11 110 88q0 39 -25 60.5t-85 36.5z"/>
    <glyph glyph-name="percent" unicode="%" horiz-adv-x="875" d="M256 -14h-105l468 737h104zM208 341q-90 0 -144 52t-53 139q-1 86 53 137.5t144 51.5q89 0 143.5 -52t53.5 -138q1 -86 -53.5 -138t-143.5 -52zM208 431q38 0 59 25.5t21 74.5t-21 74.5t-59 25.5q-39 0 -60.5 -25.5t-21.5 -73.5q0 -101 82 -101zM668 -13q-90 0 -144 52 t-53 139q-1 86 53 137.5t144 51.5q89 0 143.5 -52t53.5 -138q1 -86 -53.5 -138t-143.5 -52zM668 77q38 0 59 25.5t21 74.5t-21 74.5t-59 25.5q-39 0 -60.5 -25.5t-21.5 -73.5q0 -101 82 -101z"/>
    <glyph glyph-name="ampersand" unicode="&amp;" horiz-adv-x="700" d="M657 117q23 0 31 2v-119q-34 -9 -67 -9q-81 0 -146 56q-91 -64 -207 -64q-117 0 -186.5 56t-69.5 149q0 61 33.5 106.5t110.5 87.5q-78 92 -78 173q0 85 56 133.5t154 48.5q97 0 154.5 -46t57.5 -123q0 -114 -144 -191l-4 -2l130 -136q32 72 44 166l125 -27 q-15 -134 -80 -231q35 -30 86 -30zM292 639q-32 0 -50.5 -19.5t-19.5 -56.5q0 -44 62 -115l7 4q71 35 71 109q0 37 -18 57.5t-52 20.5zM173 199q0 -44 35 -72.5t88 -28.5q55 0 99 31l-165 174q-57 -39 -57 -104z"/>
    <glyph glyph-name="quotesingle" unicode="'" horiz-adv-x="258" d="M182 410h-107l-18 300h143z"/>
    <glyph glyph-name="parenleft" unicode="(" horiz-adv-x="355" d="M351 -94l-120 -46q-177 201 -177 467q0 257 177 455l120 -46q-147 -186 -147 -410q0 -231 147 -420z"/>
    <glyph glyph-name="parenright" unicode=")" horiz-adv-x="355" d="M124 -140l-120 46q147 189 147 420q0 224 -147 410l120 46q177 -198 177 -455q0 -266 -177 -467z"/>
    <glyph glyph-name="asterisk" unicode="*" horiz-adv-x="381" d="M340 660l37 -111l-135 -19l100 -92l-94 -69l-57 121l-58 -121l-94 69l100 92l-135 19l37 111l116 -67l-25 132h117l-26 -132z"/>
    <glyph glyph-name="plus" unicode="+" horiz-adv-x="562" d="M338 381h180v-104h-180v-190h-115v190h-179v104h179v179h115v-179z"/>
    <glyph glyph-name="comma" unicode="," horiz-adv-x="285" d="M98 -155l-33 66q42 14 57 32.5t15 54.5v2h-80v164h171v-155q0 -64 -31 -103.5t-99 -60.5z"/>
    <glyph glyph-name="hyphen" unicode="-" horiz-adv-x="415" d="M44 210v136h327v-136h-327z"/>
    <glyph glyph-name="period" unicode="." horiz-adv-x="285" d="M57 164h171v-164h-171v164z"/>
    <glyph glyph-name="slash" unicode="/" horiz-adv-x="506" d="M464 760l-282 -877h-140l282 877h140z"/>
    <glyph glyph-name="zero" unicode="0" horiz-adv-x="667" d="M333 -15q-141 0 -220 95.5t-79 266.5q0 172 79 267.5t220 95.5q142 0 221 -95.5t79 -267.5q0 -171 -79 -266.5t-221 -95.5zM333 110q65 0 99.5 60.5t34.5 176.5t-34.5 177t-99.5 61q-64 0 -98.5 -61t-34.5 -177t34.5 -176.5t98.5 -60.5z"/>
    <glyph glyph-name="one" unicode="1" horiz-adv-x="438" d="M340 0h-161v477q-41 -38 -121 -38h-28v145h19q63 2 101 28t59 83h131v-695z"/>
    <glyph glyph-name="two" unicode="2" horiz-adv-x="587" d="M553 0h-524v118q164 99 251 180q51 47 73 89.5t22 93.5q0 49 -23 75.5t-67 26.5t-69 -26.5t-25 -73.5q0 -22 7 -57l-164 16q-6 27 -6 54q0 98 71.5 156t193.5 58q120 0 187 -57t67 -160q0 -134 -125 -247q-66 -58 -173 -118h304v-128z"/>
    <glyph glyph-name="three" unicode="3" horiz-adv-x="604" d="M299 -15q-125 0 -198.5 61t-75.5 165l163 15q1 -55 31 -86t81 -31q49 0 75 25t26 71q0 93 -120 93h-38v110h36q107 0 107 92q0 42 -24.5 65t-68.5 23q-49 0 -75.5 -32t-26.5 -90l-159 21q0 102 73 163q74 60 196 60q120 0 185.5 -50t65.5 -141q0 -58 -38 -101.5 t-101 -57.5q157 -22 157 -166q0 -97 -73 -152q-73 -57 -198 -57z"/>
    <glyph glyph-name="four" unicode="4" horiz-adv-x="643" d="M608 271v-118h-104v-153h-159v153h-320v109l301 433h178v-424h104zM351 271v200q0 43 2 77h-2q-10 -25 -40 -71l-99 -146q-30 -43 -46 -60h185z"/>
    <glyph glyph-name="five" unicode="5" horiz-adv-x="595" d="M294 -15q-108 0 -178 51.5t-85 141.5l157 25q8 -43 35.5 -67.5t69.5 -24.5q52 0 80.5 32t28.5 89q0 58 -28 93t-78 35q-83 0 -106 -83l-144 14l43 404h437v-128h-319l-19 -159q48 69 153 69q103 0 162 -64t59 -176q0 -117 -71.5 -184.5t-196.5 -67.5z"/>
    <glyph glyph-name="six" unicode="6" horiz-adv-x="607" d="M362 469q100 0 157.5 -62.5t57.5 -170.5q0 -110 -72 -181q-71 -70 -186 -70q-134 0 -209.5 92t-75.5 258q0 174 77 275q76 100 211 100q214 0 244 -182l-152 -24q-19 85 -95 85q-59 0 -93.5 -53t-36.5 -148q55 81 173 81zM316 107q50 0 78.5 32.5t28.5 89.5q0 55 -30 89 t-79 34q-88 0 -124 -95q7 -70 40 -110t86 -40z"/>
    <glyph glyph-name="seven" unicode="7" horiz-adv-x="536" d="M293 0h-176v12q0 292 244 549h-339v134h499v-124q-228 -237 -228 -546v-25z"/>
    <glyph glyph-name="eight" unicode="8" horiz-adv-x="630" d="M459 384q73 -28 107 -74t34 -117q0 -94 -78 -151q-80 -57 -209 -57t-205 54q-78 54 -78 142q0 127 133 167q-112 52 -112 169q0 87 71 140t186 53q119 0 189.5 -48t70.5 -129q0 -110 -109 -149zM309 601q-49 0 -76 -22t-27 -62q0 -66 109 -93l40 -11q60 31 60 97 q0 43 -28 67t-78 24zM228 131q32 -28 88 -28q54 0 88 26q32 26 32 68q0 38 -27 62.5t-85 40.5l-54 14q-75 -34 -75 -111q0 -45 33 -72z"/>
    <glyph glyph-name="nine" unicode="9" horiz-adv-x="608" d="M294 710q137 0 208.5 -89t71.5 -262q0 -180 -71.5 -277t-212.5 -97q-105 0 -169.5 48t-79.5 138l152 27q19 -88 105 -88q120 0 122 211q-48 -74 -156 -74q-107 0 -170.5 61t-63.5 164q0 106 72 172q70 66 192 66zM294 364q41 0 75.5 25t49.5 66q-3 62 -34.5 99.5 t-88.5 37.5q-51 0 -81.5 -31.5t-30.5 -83.5q0 -50 30.5 -81.5t79.5 -31.5z"/>
    <glyph glyph-name="colon" unicode=":" horiz-adv-x="285" d="M57 500h171v-164h-171v164zM57 164h171v-164h-171v164z"/>
    <glyph glyph-name="semicolon" unicode=";" horiz-adv-x="285" d="M57 500h171v-164h-171v164zM98 -155l-33 66q42 14 57 32.5t15 54.5v2h-80v164h171v-155q0 -64 -31 -103.5t-99 -60.5z"/>
    <glyph glyph-name="less" unicode="&lt;" d="M527 194v-121l-473 198v110l473 198v-119l-338 -133z"/>
    <glyph glyph-name="equal" unicode="=" horiz-adv-x="562" d="M518 372h-474v106h474v-106zM518 180h-474v106h474v-106z"/>
    <glyph glyph-name="greater" unicode="&gt;" d="M566 271l-473 -198v121l338 133l-338 133v119l473 -198v-110z"/>
    <glyph glyph-name="question" unicode="?" horiz-adv-x="530" d="M332 214h-156v48q0 66 64 115l51 39q60 46 60 109q0 38 -23.5 60t-64.5 22q-46 0 -72 -25t-26 -70q0 -30 6 -50l-154 13q-7 29 -7 58q0 88 68.5 141t185.5 53q119 0 185 -48.5t66 -136.5q0 -103 -94 -179l-46 -38q-24 -21 -33.5 -38t-9.5 -44v-29zM341 0h-172v153h172 v-153z"/>
    <glyph glyph-name="at" unicode="@" horiz-adv-x="842" d="M431 -102q-184 0 -293 103q-109 102 -109 275q0 170 111 277q112 107 291 107q175 0 279 -99q103 -99 103 -265q0 -106 -49 -168.5t-132 -62.5q-108 0 -134 78q-39 -80 -140 -80q-63 0 -102.5 35t-39.5 91q0 57 38 88.5t123 45.5l111 16v19q0 36 -14 52t-47 16 q-62 0 -65 -64h-133q3 70 57 111.5t142 41.5q187 0 187 -165v-140q0 -39 10 -56t34 -17q37 0 58 42t21 115q0 142 -80.5 221.5t-227.5 79.5q-150 0 -236 -86q-87 -87 -87 -233q0 -140 92 -226q91 -85 243 -85q99 0 183 40l28 -60q-96 -47 -222 -47zM405 153q39 0 62 24 t23 64v26l-62 -9q-77 -12 -77 -58q0 -20 15.5 -33.5t38.5 -13.5z"/>
    <glyph glyph-name="A" unicode="A" horiz-adv-x="736" d="M723 0h-170l-54 166h-262l-54 -166h-169l258 710h193zM341 483l-65 -198h184l-65 198q-17 54 -26 100h-2q-9 -46 -26 -100z"/>
    <glyph glyph-name="B" unicode="B" horiz-adv-x="681" d="M502 370q69 -11 107.5 -55.5t38.5 -114.5q0 -90 -63.5 -145t-177.5 -55h-333v710h320q114 0 175 -49.5t61 -133.5q0 -57 -34 -99t-94 -58zM349 591h-106v-173h106q52 0 78.5 23.5t26.5 63.5t-26.5 63t-78.5 23zM243 119h117q54 0 83 25.5t29 69.5q0 43 -28.5 67.5 t-79.5 24.5h-121v-187z"/>
    <glyph glyph-name="C" unicode="C" horiz-adv-x="717" d="M375 -17q-166 0 -256 100q-90 101 -90 271t94 271q93 102 254 102q133 0 216.5 -68t97.5 -187l-171 -30q-8 72 -46 110.5t-101 38.5q-80 0 -125.5 -63.5t-45.5 -172.5q0 -108 46.5 -171.5t129.5 -63.5q59 0 97 38.5t49 107.5l171 -37q-27 -116 -109.5 -181t-210.5 -65z "/>
    <glyph glyph-name="D" unicode="D" horiz-adv-x="737" d="M355 0h-281v710h283q159 0 255 -97q96 -98 96 -254q0 -161 -96 -260q-98 -99 -257 -99zM243 586v-462h105q87 0 137 68q49 67 49 167q0 103 -49 165t-135 62h-107z"/>
    <glyph glyph-name="E" unicode="E" horiz-adv-x="616" d="M243 301v-176h324v-125h-493v710h486v-125h-317v-160h300v-124h-300z"/>
    <glyph glyph-name="F" unicode="F" horiz-adv-x="587" d="M560 710v-128h-317v-164h299v-126h-299v-292h-169v710h486z"/>
    <glyph glyph-name="G" unicode="G" horiz-adv-x="744" d="M344 -17q-146 0 -230 101q-85 100 -85 270q0 168 95 271q94 102 257 102q133 0 212 -61t97 -157l-167 -31q-10 56 -46.5 89t-96.5 33q-84 0 -131 -65t-47 -179q0 -115 46.5 -179t133.5 -64q74 0 116 46q41 47 41 100v15h-175v121h329v-395h-120l-7 104q-27 -57 -84.5 -89 t-137.5 -32z"/>
    <glyph glyph-name="H" unicode="H" horiz-adv-x="759" d="M516 710h169v-710h-169v295h-273v-295h-169v710h169v-285h273v285z"/>
    <glyph glyph-name="I" unicode="I" horiz-adv-x="317" d="M243 710v-710h-169v710h169z"/>
    <glyph glyph-name="J" unicode="J" horiz-adv-x="419" d="M357 710v-501q0 -111 -61 -167t-174 -56q-66 0 -105 9v138q38 -5 68 -5q103 0 103 113v469h169z"/>
    <glyph glyph-name="K" unicode="K" horiz-adv-x="714" d="M701 0h-192l-185 303l-81 -94v-209h-169v710h169v-305l251 305h193l-248 -288z"/>
    <glyph glyph-name="L" unicode="L" horiz-adv-x="548" d="M531 0h-457v710h169v-573h288v-137z"/>
    <glyph glyph-name="M" unicode="M" horiz-adv-x="908" d="M218 0h-144v710h232l131 -435q11 -40 17 -86h2q4 43 18 88l125 433h235v-710h-154v484q0 48 4 80h-3q-3 -32 -15 -69l-143 -495h-142l-149 495q-10 30 -15 68h-3q4 -43 4 -79v-484z"/>
    <glyph glyph-name="N" unicode="N" horiz-adv-x="762" d="M229 0h-155v710h187l228 -405q34 -64 43 -92h2q0 6 -0.5 43t-0.5 48v406h155v-710h-180l-236 409q-34 65 -42 87h-2q0 -7 0.5 -45t0.5 -49v-402z"/>
    <glyph glyph-name="O" unicode="O" horiz-adv-x="758" d="M634 84q-95 -101 -255 -101t-255 101t-95 271q0 171 95 272q94 100 255 100t255 -100q95 -101 95 -272q0 -170 -95 -271zM249 179q46 -64 130 -64t130 64q46 62 46 176q0 113 -46 177q-47 63 -130 63t-130 -63q-47 -65 -47 -177q0 -111 47 -176z"/>
    <glyph glyph-name="P" unicode="P" horiz-adv-x="657" d="M74 710h315q116 0 186 -61q69 -61 69 -162q0 -106 -69.5 -167.5t-189.5 -61.5h-142v-258h-169v710zM243 376h105q56 0 87.5 28t31.5 78t-31 78t-88 28h-105v-212z"/>
    <glyph glyph-name="Q" unicode="Q" horiz-adv-x="758" d="M532 12q40 -37 112 -37q24 0 56 8v-131q-40 -6 -75 -6q-178 0 -232 137h-14q-160 0 -255 101t-95 271q0 171 95 272q94 100 255 100t255 -100q95 -101 95 -272q0 -125 -51.5 -214t-145.5 -129zM202 355q0 -112 47 -176t130 -64t129.5 63.5t46.5 176.5t-46.5 176.5 t-129.5 63.5t-130 -63.5t-47 -176.5z"/>
    <glyph glyph-name="R" unicode="R" horiz-adv-x="693" d="M664 0h-183l-136 272h-102v-272h-169v710h312q129 0 194.5 -57t65.5 -161q0 -69 -36.5 -120.5t-102.5 -74.5zM352 591h-109v-203h109q118 0 118 104q0 99 -118 99z"/>
    <glyph glyph-name="S" unicode="S" horiz-adv-x="626" d="M310 -17q-111 0 -192 43.5t-120 121.5l125 88q62 -122 193 -122q55 0 88.5 21t33.5 60q0 38 -22.5 57t-80.5 31l-95 20q-196 43 -196 213q0 98 74.5 154.5t202.5 56.5q98 0 172 -36t110 -105l-110 -93q-27 52 -74.5 80.5t-108.5 28.5q-50 0 -80 -19.5t-30 -53.5 t23.5 -53.5t79.5 -32.5l103 -22q100 -22 147 -72t47 -138q0 -104 -77 -166t-213 -62z"/>
    <glyph glyph-name="T" unicode="T" horiz-adv-x="594" d="M7 710h581v-134h-207v-576h-168v576h-206v134z"/>
    <glyph glyph-name="U" unicode="U" horiz-adv-x="726" d="M62 248v462h169v-455q0 -63 35 -99t97 -36t97 36t35 99v455h169v-462q0 -122 -80 -193q-80 -72 -221 -72t-221 72q-80 71 -80 193z"/>
    <glyph glyph-name="V" unicode="V" horiz-adv-x="677" d="M436 0h-195l-239 710h180l132 -458q17 -62 22 -98h4q6 41 23 98l132 458h180z"/>
    <glyph glyph-name="W" unicode="W" horiz-adv-x="963" d="M376 0h-188l-169 710h170l91 -461q5 -23 6 -59h3q1 27 8 59l100 461h169l101 -461q7 -32 8 -59h3q1 36 6 59l91 461h170l-169 -710h-189l-98 482q-4 20 -5 52h-4q-1 -28 -6 -52z"/>
    <glyph glyph-name="X" unicode="X" horiz-adv-x="699" d="M192 0h-183l235 369l-221 341h187l117 -199q13 -24 21 -45h2q6 20 21 45l120 199h183l-220 -351l237 -359h-190l-129 210q-22 32 -28 52h-2q-4 -18 -26 -51z"/>
    <glyph glyph-name="Y" unicode="Y" horiz-adv-x="636" d="M403 0h-170v257l-236 453h178l125 -262q12 -25 17 -52h2q5 27 17 52l124 262h179l-236 -453v-257z"/>
    <glyph glyph-name="Z" unicode="Z" horiz-adv-x="608" d="M35 0v122l342 457h-328v131h521v-122l-340 -458h355v-130h-550z"/>
    <glyph glyph-name="bracketleft" unicode="[" horiz-adv-x="359" d="M338 -114h-264v871h264v-112h-117v-647h117v-112z"/>
    <glyph glyph-name="backslash" unicode="\" horiz-adv-x="506" d="M464 -117h-140l-282 877h140z"/>
    <glyph glyph-name="bracketright" unicode="]" horiz-adv-x="359" d="M285 757v-871h-264v112h117v647h-117v112h264z"/>
    <glyph glyph-name="asciicircum" unicode="^" horiz-adv-x="466" d="M20 447l153 262h120l153 -262h-125l-88 164l-89 -164h-124z"/>
    <glyph glyph-name="underscore" unicode="_" horiz-adv-x="469" d="M0 -178v89h469v-89h-469z"/>
    <glyph glyph-name="grave" unicode="`" horiz-adv-x="600" d="M136 723l110 -156h-123l-138 156h151z"/>
    <glyph glyph-name="a" unicode="a" horiz-adv-x="573" d="M198 -12q-77 0 -124.5 40.5t-47.5 107.5q0 72 51 108t157 49l121 17v17q0 82 -74 82q-75 0 -80 -74h-159q6 83 69.5 130t170.5 47q121 0 177 -49.5t56 -157.5v-166q0 -89 14 -139h-156q-7 33 -8 79q-19 -42 -64 -66.5t-103 -24.5zM258 90q46 0 74 28t28 73v40l-86 -14 q-86 -17 -86 -69q0 -26 19 -42t51 -16z"/>
    <glyph glyph-name="b" unicode="b" horiz-adv-x="615" d="M376 -12q-51 0 -91 23.5t-60 64.5l-10 -76h-143v725h161v-293q44 80 148 80q91 0 147 -71q54 -72 54 -191t-56 -190q-56 -72 -150 -72zM322 99q46 0 70.5 39t24.5 112t-24.5 112t-71.5 38q-43 0 -67.5 -34.5t-24.5 -94.5v-42q0 -61 24.5 -95.5t68.5 -34.5z"/>
    <glyph glyph-name="c" unicode="c" horiz-adv-x="557" d="M292 -12q-119 0 -191 72q-72 70 -72 190q0 122 71 192t194 70q98 0 160.5 -46t76.5 -131l-151 -31q-14 90 -90 90q-46 0 -72 -37t-26 -102q0 -71 26 -109.5t73 -38.5q77 0 90 93l150 -33q-13 -82 -78 -130.5t-161 -48.5z"/>
    <glyph glyph-name="d" unicode="d" horiz-adv-x="615" d="M232 -12q-90 0 -145 72q-55 70 -55 188q0 119 58 192q57 72 151 72q104 0 141 -79v292h160v-725h-152v86q-19 -45 -61 -71.5t-97 -26.5zM295 99q41 0 65 34t24 93v43q0 63 -24 97.5t-67 34.5q-46 0 -71 -39t-25 -111q0 -71 26 -111.5t72 -40.5z"/>
    <glyph glyph-name="e" unicode="e" horiz-adv-x="562" d="M528 262v-48h-347q1 -51 32.5 -81t82.5 -30q75 0 109 70l118 -54q-30 -62 -90.5 -96.5t-138.5 -34.5q-124 0 -194.5 68t-70.5 189q0 123 69 195q67 72 185 72t181.5 -65.5t63.5 -184.5zM181 304h192v4q0 53 -24 81t-69 28q-46 0 -71.5 -29.5t-27.5 -83.5z"/>
    <glyph glyph-name="f" unicode="f" horiz-adv-x="391" d="M257 500h116v-107h-116v-393h-160v393h-80v107h80v47q0 89 50.5 136.5t145.5 47.5q43 0 80 -9v-115q-32 5 -49 5q-67 0 -67 -69v-43z"/>
    <glyph glyph-name="g" unicode="g" horiz-adv-x="573" d="M560 584v-107q-32 5 -46 5q-41 0 -65 -18q58 -45 58 -119q0 -77 -61.5 -123.5t-166.5 -46.5q-58 0 -103 15q-15 -10 -15 -27q0 -41 69 -41h140q184 0 184 -146q0 -87 -75 -135t-213 -48q-119 0 -182.5 32t-63.5 88q0 63 86 90q-68 27 -68 94q0 81 90 114q-78 47 -78 134 q0 76 62 121.5t167 45.5q65 0 115 -18q28 91 145 91q16 0 21 -1zM279 257q34 0 55.5 24.5t21.5 63.5q0 38 -21 61.5t-56 23.5t-56.5 -23.5t-21.5 -61.5q0 -39 21.5 -63.5t56.5 -24.5zM353 -12l-158 1q-6 0 -36 2q-20 -20 -20 -47q0 -63 134 -63q147 0 147 59q0 48 -67 48z "/>
    <glyph glyph-name="h" unicode="h" horiz-adv-x="614" d="M233 0h-161v725h161v-314q46 103 159 103q163 0 163 -203v-311h-160v295q0 96 -74 96q-88 0 -88 -122v-269z"/>
    <glyph glyph-name="i" unicode="i" horiz-adv-x="295" d="M232 572h-167v146h167v-146zM228 0h-161v500h161v-500z"/>
    <glyph glyph-name="j" unicode="j" horiz-adv-x="300" d="M237 572h-167v146h167v-146zM41 -202q-45 0 -75 6v115q22 -2 43 -2q36 0 50 18t14 66v499h160v-510q0 -98 -44.5 -145t-147.5 -47z"/>
    <glyph glyph-name="k" unicode="k" horiz-adv-x="594" d="M586 0h-179l-119 202l-55 -59v-143h-161v725h161v-421l162 196h186l-182 -199z"/>
    <glyph glyph-name="l" unicode="l" horiz-adv-x="305" d="M72 725h161v-725h-161v725z"/>
    <glyph glyph-name="m" unicode="m" horiz-adv-x="890" d="M67 0v500h154v-90q48 103 154 103q104 0 142 -104q53 104 160 104q73 0 113.5 -49t40.5 -137v-327h-160v293q0 97 -67 97q-75 0 -75 -103v-287h-160v294q0 96 -66 96q-36 0 -55.5 -27t-19.5 -77v-286h-161z"/>
    <glyph glyph-name="n" unicode="n" horiz-adv-x="609" d="M228 0h-161v500h154v-96q52 109 166 109q163 0 163 -203v-310h-160v288q0 102 -75 102q-42 0 -64.5 -31t-22.5 -89v-270z"/>
    <glyph glyph-name="o" unicode="o" horiz-adv-x="577" d="M288 -12q-114 0 -186 69q-73 69 -73 194t72 193q73 68 187 68t188 -68q72 -68 72 -193t-72 -194q-74 -69 -188 -69zM288 99q100 0 100 152q0 150 -100 150q-99 0 -99 -150q0 -74 25.5 -113t73.5 -39z"/>
    <glyph glyph-name="p" unicode="p" horiz-adv-x="610" d="M228 -195h-161v695h154v-80q48 92 156 92q90 0 146 -71q54 -71 54 -190q0 -120 -56 -191q-57 -72 -150 -72q-91 0 -143 75v-258zM318 99q44 0 69 41t25 111q0 72 -24.5 111t-70.5 39q-44 0 -68.5 -36t-24.5 -103v-28q0 -62 25.5 -98.5t68.5 -36.5z"/>
    <glyph glyph-name="q" unicode="q" horiz-adv-x="610" d="M542 -195h-160v273q-45 -90 -151 -90q-89 0 -144 72q-55 70 -55 188q0 122 58 193q59 71 153 71q108 0 147 -86l13 74h139v-695zM292 99q42 0 67 34.5t25 93.5v46q0 60 -24.5 94t-68.5 34q-45 0 -69.5 -39t-24.5 -111q0 -71 25 -111.5t70 -40.5z"/>
    <glyph glyph-name="r" unicode="r" horiz-adv-x="412" d="M218 500v-129q40 141 167 141h10v-153q-7 1 -30 1q-63 0 -97 -30q-40 -37 -40 -126v-204h-161v500h151z"/>
    <glyph glyph-name="s" unicode="s" horiz-adv-x="507" d="M262 -12q-174 0 -247 116l92 68q54 -75 157 -75q82 0 82 45q0 20 -15 29.5t-57 15.5l-78 14q-154 25 -154 153q0 72 59 115t161 43q76 0 135.5 -24.5t89.5 -68.5l-82 -74q-60 60 -153 60q-69 0 -69 -42q0 -18 12 -27t42 -14l99 -17q147 -24 147 -152q0 -76 -58.5 -120.5 t-162.5 -44.5z"/>
    <glyph glyph-name="t" unicode="t" horiz-adv-x="396" d="M92 393h-87v107h87v120l160 62v-182h119v-107h-119v-195q0 -76 73 -76q18 0 46 5v-127q-50 -10 -91 -10q-188 0 -188 170v233z"/>
    <glyph glyph-name="u" unicode="u" horiz-adv-x="603" d="M227 -12q-168 0 -168 188v324h160v-296q0 -94 72 -94q39 0 61.5 28t22.5 76v286h161v-500h-153v91q-18 -48 -60 -75.5t-96 -27.5z"/>
    <glyph glyph-name="v" unicode="v" horiz-adv-x="532" d="M353 0h-175l-174 500h165l81 -295q7 -23 15 -71h2q8 48 15 71l81 295h165z"/>
    <glyph glyph-name="w" unicode="w" horiz-adv-x="778" d="M305 0h-156l-134 500h153l63 -306q0 -1 1.5 -10.5t3.5 -20.5t2 -17h2q5 39 8 48l73 306h136l73 -306q6 -32 8 -48h2q5 40 7 48l62 306h153l-133 -500h-156l-76 295q-6 21 -7 42h-2q-1 -8 -7 -42z"/>
    <glyph glyph-name="x" unicode="x" horiz-adv-x="564" d="M174 0h-165l181 260l-170 240h178l61 -100q19 -32 24 -51h2q8 25 25 51l59 100h169l-167 -238l184 -262h-179l-73 114q-21 31 -26 52h-2q-6 -17 -27 -52z"/>
    <glyph glyph-name="y" unicode="y" horiz-adv-x="538" d="M102 -202q-14 0 -66 6v118q42 -5 56 -5q77 0 96 65l7 21l-191 497h174l88 -304q8 -31 11 -58h3q1 19 12 58l81 304h161l-179 -522q-33 -96 -92.5 -138t-160.5 -42z"/>
    <glyph glyph-name="z" unicode="z" horiz-adv-x="482" d="M22 0v94l238 293h-226v113h413v-91l-231 -294h246v-115h-440z"/>
    <glyph glyph-name="braceleft" unicode="{" horiz-adv-x="383" d="M362 -115h-72q-90 0 -133 38.5t-43 117.5v138q0 53 -17 74.5t-63 22.5v106q48 1 63.5 20.5t15.5 72.5v133q0 72 47.5 113t132.5 41h66v-112h-27q-72 0 -72 -76v-95q0 -66 -22 -101.5t-75 -47.5q52 -15 74 -52.5t22 -103.5v-106q0 -70 67 -70h36v-113z"/>
    <glyph glyph-name="bar" unicode="|" horiz-adv-x="245" d="M172 -117h-100v877h100v-877z"/>
    <glyph glyph-name="braceright" unicode="}" horiz-adv-x="383" d="M93 -115h-72v113h36q67 0 67 70v106q0 66 22 103.5t74 52.5q-53 12 -75 47.5t-22 101.5v95q0 76 -72 76h-27v112h66q85 0 132.5 -41t47.5 -113v-133q0 -53 15.5 -72.5t63.5 -20.5v-106q-46 -1 -63 -22.5t-17 -74.5v-138q0 -79 -43 -117.5t-133 -38.5z"/>
    <glyph glyph-name="asciitilde" unicode="~" d="M412 201q-36 -1 -76.5 19.5t-73 41t-52.5 19.5q-59 0 -75 -70l-90 22q16 69 59 107.5t103 38.5q36 1 76.5 -20t73 -42t52.5 -19q57 0 76 70l90 -21q-16 -69 -59 -107.5t-104 -38.5z"/>
    <glyph glyph-name="uni00A0" unicode=" " horiz-adv-x="247"/>
    <glyph glyph-name="exclamdown" unicode="¡" horiz-adv-x="330" d="M252 580v-153h-174v153h174zM74 -145l27 493h128l27 -493h-182z"/>
    <glyph glyph-name="cent" unicode="¢" horiz-adv-x="559" d="M319 408v-313q71 13 85 101l129 -28q-14 -77 -71 -124.5t-143 -54.5v-90h-59v90q-108 10 -169.5 79t-61.5 182t61 181.5t170 78.5v84h59v-83q90 -5 146 -52t69 -128l-131 -22q-13 85 -84 99zM166 250q0 -135 94 -154v312q-45 -10 -69.5 -51t-24.5 -107z"/>
    <glyph glyph-name="sterling" unicode="£" horiz-adv-x="655" d="M504 197l144 -23q-12 -88 -64.5 -138.5t-131.5 -50.5q-51 0 -122 13t-132 13q-76 0 -159 -19l-32 92q139 40 139 167q0 37 -6 68h-101v76h86q-12 49 -12 93q0 105 64 163.5t176 58.5q215 0 250 -179l-150 -33q-14 95 -96 95q-91 0 -91 -102q0 -36 12 -96h176v-76h-161 q3 -23 3 -48q0 -112 -100 -155q32 9 74 9q17 0 76 -7t76 -7q71 0 82 86z"/>
    <glyph glyph-name="currency" unicode="¤" horiz-adv-x="567" d="M538 507l-56 -62q43 -61 43 -142t-42 -140l55 -61l-72 -68l-58 62q-53 -29 -120 -29q-70 0 -126 32l-61 -66l-72 68l60 66q-39 58 -39 136q0 79 40 137l-61 66l72 68l62 -66q55 31 125 31q66 0 118 -28l60 64zM288 181q49 0 81.5 34t32.5 88t-32.5 88t-81.5 34 q-51 0 -84 -34t-33 -88t33 -88t84 -34z"/>
    <glyph glyph-name="yen" unicode="¥" horiz-adv-x="604" d="M430 695h177l-217 -378h159v-69h-168v-54h168v-69h-168v-125h-158v125h-167v69h167v54h-167v69h158l-217 378h177l85 -170q29 -60 42 -105h2q11 38 42 105z"/>
    <glyph glyph-name="brokenbar" unicode="¦" horiz-adv-x="244" d="M72 760h100v-375h-100v375zM72 264h100v-381h-100v381z"/>
    <glyph glyph-name="section" unicode="§" horiz-adv-x="492" d="M413 193q50 -44 50 -116q0 -80 -60 -124t-166 -44q-172 0 -239 116l89 76q51 -83 155 -83q74 0 74 48q0 20 -14.5 32t-55.5 26l-107 37q-131 47 -131 156q0 84 79 118q-57 43 -57 118q0 77 56.5 119.5t157.5 42.5q146 0 217 -95l-86 -79q-48 69 -132 69q-68 0 -68 -46 q0 -20 13 -31.5t50 -24.5l104 -34q130 -40 130 -156q0 -80 -59 -125zM226 268l102 -32l4 -1q18 17 18 45q0 25 -17.5 41t-65.5 35l-103 38q-26 -17 -26 -49q0 -27 18 -42.5t70 -34.5z"/>
    <glyph glyph-name="dieresis" unicode="¨" horiz-adv-x="600" d="M189 573h-139v133h139v-133zM409 573h-139v133h139v-133z"/>
    <glyph glyph-name="copyright" unicode="©" horiz-adv-x="801" d="M665 86q-107 -103 -264 -103t-264 103q-108 102 -108 269q0 168 108 270q107 102 264 102q156 0 264 -102q107 -102 107 -270q0 -167 -107 -269zM401 42q126 0 215 86q88 85 88 227t-88 227q-89 86 -215 86q-127 0 -216 -86q-88 -85 -88 -227t88 -227q89 -86 216 -86z M408 142q-92 0 -145 57.5t-53 156.5q0 98 53.5 155.5t144.5 57.5q78 0 125.5 -38t55.5 -106l-104 -19q-4 36 -24.5 57t-53.5 21q-43 0 -67.5 -34.5t-24.5 -93.5t25 -94t68 -35q30 0 51.5 21t26.5 55l103 -21q-13 -66 -61 -103t-120 -37z"/>
    <glyph glyph-name="ordfeminine" unicode="ª" horiz-adv-x="460" d="M155 301q-58 0 -93.5 30t-35.5 78q0 52 34 77t110 37l103 15v15q0 48 -48 48q-50 0 -54 -49h-134q5 63 55 97.5t134 34.5q95 0 139.5 -36.5t44.5 -114.5v-129q0 -63 10 -94h-132q-6 26 -6 57q-15 -31 -49 -48.5t-78 -17.5zM210 378q30 0 49 17.5t19 44.5v43l-51 -9 q-37 -6 -53.5 -18t-16.5 -35q0 -19 14.5 -31t38.5 -12z"/>
    <glyph glyph-name="guillemotleft" unicode="«" horiz-adv-x="569" d="M319 67h-139l-163 209l166 206h138l-163 -205zM550 67h-139l-163 209l166 206h138l-163 -205z"/>
    <glyph glyph-name="logicalnot" unicode="¬" d="M63 282v104h474v-264h-108v160h-366z"/>
    <glyph glyph-name="registered" unicode="®" horiz-adv-x="801" d="M401 727q156 0 264 -102q107 -102 107 -270q0 -167 -107 -269q-107 -103 -264 -103t-264 103q-108 102 -108 269q0 168 108 270q107 102 264 102zM401 42q126 0 215 86q88 85 88 227t-88 227q-89 86 -215 86q-127 0 -216 -86q-88 -85 -88 -227t88 -227q89 -86 216 -86z M576 433q0 -81 -81 -111l93 -167h-112l-81 155h-45v-155h-102v407h177q73 0 112 -33.5t39 -95.5zM406 487h-56v-107h56q65 0 65 53q0 54 -65 54z"/>
    <glyph glyph-name="overscore" unicode="¯" horiz-adv-x="600" d="M393 592h-343v96h343v-96z"/>
    <glyph glyph-name="degree" unicode="°" horiz-adv-x="416" d="M346 396q-55 -52 -138 -52q-84 0 -137 52q-54 51 -54 135q0 83 55 135q54 51 136 51t138 -51q54 -52 54 -135q0 -84 -54 -135zM208 431q43 0 70 27.5t27 72.5t-27.5 72.5t-69.5 27.5t-69 -27.5t-27 -72.5t27 -72.5t69 -27.5z"/>
    <glyph glyph-name="plusminus" unicode="±" d="M366 543v-154h183v-104h-183v-145h-114v145h-181v104h181v154h114zM549 0h-478v106h478v-106z"/>
    <glyph glyph-name="acute" unicode="´" horiz-adv-x="600" d="M172 567h-123l110 156h151z"/>
    <glyph glyph-name="uni00B5" unicode="µ" horiz-adv-x="612" d="M384 214v286h161v-500h-153v91q-18 -48 -60 -75.5t-96 -27.5q-20 0 -25 1v-184h-144v641h1v54h160v-296q0 -94 72 -94q39 0 61.5 28t22.5 76z"/>
    <glyph glyph-name="paragraph" unicode="¶" horiz-adv-x="708" d="M286 -99v447q-102 0 -166 43q-65 42 -65 143q1 66 34.5 109.5t84.5 60.5t117 16h332v-75h-74v-744h-84v744h-95v-744h-84z"/>
    <glyph glyph-name="middot" unicode="·" horiz-adv-x="285" d="M57 418h171v-164h-171v164z"/>
    <glyph glyph-name="cedilla" unicode="¸" horiz-adv-x="600" d="M83 -79l38 86h76l-32 -53q19 15 54 15q42 0 66.5 -22.5t24.5 -64.5q0 -45 -35 -70t-96 -25q-98 0 -127 65l84 21q10 -24 39 -24q18 0 29 10t11 27q0 16 -11 26t-28 10q-21 0 -33 -15z"/>
    <glyph glyph-name="ordmasculine" unicode="º" horiz-adv-x="459" d="M374 351q-58 -50 -145 -50q-88 0 -144 50t-56 143q0 90 55 140t145 50t145.5 -50t55.5 -140q0 -93 -56 -143zM163 494q0 -103 66 -103t66 103q0 100 -66 100t-66 -100z"/>
    <glyph glyph-name="guillemotright" unicode="»" horiz-adv-x="569" d="M321 276l-163 -209h-139l161 210l-163 205h138zM552 276l-163 -209h-139l161 210l-163 205h138z"/>
    <glyph glyph-name="onequarter" unicode="¼" horiz-adv-x="806" d="M212 -17h-108l444 744h106zM206 320h-97v256q-17 -13 -65 -13h-20v89h14q66 0 89 59h79v-391zM796 156v-73h-62v-83h-95v83h-188v67l172 241h111v-235h62zM639 156v144l-99 -144h99z"/>
    <glyph glyph-name="onehalf" unicode="½" horiz-adv-x="851" d="M212 -17h-108l444 744h106zM206 320h-97v256q-17 -13 -65 -13h-20v89h14q66 0 89 59h79v-391zM818 0h-307v74q107 62 153 104t46 91q0 51 -49 51q-23 0 -36.5 -13.5t-13.5 -36.5q0 -7 5 -32l-102 10q-3 17 -3 29q0 56 41.5 89.5t113.5 33.5q71 0 110 -32.5t39 -91.5 q0 -114 -167 -195h170v-81z"/>
    <glyph glyph-name="threequarters" unicode="¾" horiz-adv-x="906" d="M312 -17h-108l444 744h106zM185 311q-74 0 -118.5 34.5t-44.5 92.5l100 11q0 -29 17 -44.5t47 -15.5q54 0 54 48q0 45 -70 45h-22v72h23q59 0 59 47q0 42 -50 42q-56 0 -56 -66l-97 16q0 58 43 92.5t116 34.5q69 0 107.5 -28.5t38.5 -78.5q0 -32 -21 -56t-57 -33 q90 -16 90 -93q0 -55 -43 -87.5t-116 -32.5zM896 156v-73h-62v-83h-95v83h-188v67l172 241h111v-235h62zM739 156v144l-99 -144h99z"/>
    <glyph glyph-name="questiondown" unicode="¿" horiz-adv-x="530" d="M189 580h172v-153h-172v153zM198 366h156v-48q0 -66 -64 -115l-51 -39q-60 -47 -60 -109q0 -38 23.5 -60t64.5 -22q46 0 72 25t26 70q0 30 -6 50l154 -13q7 -29 7 -58q0 -88 -68.5 -141t-185.5 -53q-119 0 -185 48.5t-66 136.5q0 103 94 179l46 38q24 21 33.5 38t9.5 44 v29z"/>
    <glyph glyph-name="Agrave" unicode="À" horiz-adv-x="736" d="M324 871l99 -118h-122l-116 118h139zM723 0h-170l-54 166h-262l-54 -166h-169l258 710h193zM341 483l-65 -198h184l-65 198q-17 54 -26 100h-2q-9 -46 -26 -100z"/>
    <glyph glyph-name="Aacute" unicode="Á" horiz-adv-x="736" d="M405 871h139l-116 -118h-122zM723 0h-170l-54 166h-262l-54 -166h-169l258 710h193zM341 483l-65 -198h184l-65 198q-17 54 -26 100h-2q-9 -46 -26 -100z"/>
    <glyph glyph-name="Acircumflex" unicode="Â" horiz-adv-x="736" d="M435 753l-67 74l-67 -74h-124l106 118h169l106 -118h-123zM723 0h-170l-54 166h-262l-54 -166h-169l258 710h193zM341 483l-65 -198h184l-65 198q-17 54 -26 100h-2q-9 -46 -26 -100z"/>
    <glyph glyph-name="Atilde" unicode="Ã" horiz-adv-x="736" d="M335 788q-64 46 -88 -39l-78 27q10 55 43 85.5t82 30.5q37 0 84.5 -31t62.5 -31q18 0 29 12.5t19 41.5l77 -27q-10 -55 -42.5 -85t-81.5 -30q-46 0 -107 46zM723 0h-170l-54 166h-262l-54 -166h-169l258 710h193zM341 483l-65 -198h184l-65 198q-17 54 -26 100h-2 q-9 -46 -26 -100z"/>
    <glyph glyph-name="Adieresis" unicode="Ä" horiz-adv-x="736" d="M188 868h133v-115h-133v115zM415 868h133v-115h-133v115zM723 0h-170l-54 166h-262l-54 -166h-169l258 710h193zM341 483l-65 -198h184l-65 198q-17 54 -26 100h-2q-9 -46 -26 -100z"/>
    <glyph glyph-name="Aring" unicode="Å" horiz-adv-x="736" d="M460 777q-36 -33 -93 -33t-92 33q-35 32 -35 85t35 85t92 32q56 0 93 -32q35 -33 35 -85q0 -53 -35 -85zM405 900q-15 15 -38 15t-37 -15q-15 -15 -15 -38t15 -38q14 -15 37 -15t38 15q14 15 14 38t-14 38zM723 0h-170l-54 166h-262l-54 -166h-169l258 710h193zM341 483 l-65 -198h184l-65 198q-17 54 -26 100h-2q-9 -46 -26 -100z"/>
    <glyph glyph-name="AE" unicode="Æ" horiz-adv-x="997" d="M642 301v-176h306v-125h-474v156h-236l-83 -156h-168l408 710h546v-125h-299v-160h282v-124h-282zM474 602l-173 -326h173v326z"/>
    <glyph glyph-name="Ccedilla" unicode="Ç" horiz-adv-x="717" d="M524 266l171 -37q-24 -110 -100 -174t-193 -71l-18 -30q20 15 54 15q42 0 66.5 -22.5t24.5 -64.5q0 -45 -35 -70t-96 -25q-98 0 -127 65l84 21q11 -24 39 -24q18 0 29 10t11 27q0 16 -11 26t-28 10q-21 0 -33 -15l-60 14l28 64q-144 13 -222.5 111t-78.5 258 q0 170 94 271q93 102 254 102q133 0 216.5 -68t97.5 -187l-171 -30q-8 72 -46 110.5t-101 38.5q-80 0 -125.5 -63.5t-45.5 -172.5q0 -108 46.5 -171.5t129.5 -63.5q59 0 97 38.5t49 107.5z"/>
    <glyph glyph-name="Egrave" unicode="È" horiz-adv-x="616" d="M281 871l99 -118h-122l-116 118h139zM243 301v-176h324v-125h-493v710h486v-125h-317v-160h300v-124h-300z"/>
    <glyph glyph-name="Eacute" unicode="É" horiz-adv-x="616" d="M362 871h139l-116 -118h-122zM243 301v-176h324v-125h-493v710h486v-125h-317v-160h300v-124h-300z"/>
    <glyph glyph-name="Ecircumflex" unicode="Ê" horiz-adv-x="616" d="M392 753l-67 74l-67 -74h-124l106 118h169l106 -118h-123zM243 301v-176h324v-125h-493v710h486v-125h-317v-160h300v-124h-300z"/>
    <glyph glyph-name="Edieresis" unicode="Ë" horiz-adv-x="616" d="M145 868h133v-115h-133v115zM372 868h133v-115h-133v115zM243 301v-176h324v-125h-493v710h486v-125h-317v-160h300v-124h-300z"/>
    <glyph glyph-name="Igrave" unicode="Ì" horiz-adv-x="317" d="M143 871l75 -118h-120l-92 118h137zM243 710v-710h-169v710h169z"/>
    <glyph glyph-name="Iacute" unicode="Í" horiz-adv-x="317" d="M218 753h-120l75 118h137zM243 710v-710h-169v710h169z"/>
    <glyph glyph-name="Icircumflex" unicode="Î" horiz-adv-x="317" d="M243 871l72 -118h-115l-41 74l-41 -74h-115l71 118h169zM243 710v-710h-169v710h169z"/>
    <glyph glyph-name="Idieresis" unicode="Ï" horiz-adv-x="317" d="M138 753h-127v115h127v-115zM308 753h-127v115h127v-115zM243 710v-710h-169v710h169z"/>
    <glyph glyph-name="Eth" unicode="Ð" horiz-adv-x="737" d="M74 710h283q159 0 255 -97q96 -98 96 -254q0 -161 -96 -260q-98 -99 -257 -99h-281v322h-75v94h75v294zM243 124h105q87 0 137 68q49 67 49 167q0 103 -49 165t-135 62h-107v-170h142v-94h-142v-198z"/>
    <glyph glyph-name="Ntilde" unicode="Ñ" horiz-adv-x="762" d="M455 742q-37 0 -85 30.5t-62 30.5q-18 0 -29 -12.5t-19 -41.5l-78 27q10 55 43 85.5t82 30.5q37 0 84.5 -31t62.5 -31q18 0 29 12.5t19 41.5l77 -27q-10 -55 -42.5 -85t-81.5 -30zM229 0h-155v710h187l228 -405q34 -64 43 -92h2q0 6 -0.5 43t-0.5 48v406h155v-710h-180 l-236 409q-34 65 -42 87h-2q0 -7 0.5 -45t0.5 -49v-402z"/>
    <glyph glyph-name="Ograve" unicode="Ò" horiz-adv-x="758" d="M335 871l99 -118h-122l-116 118h139zM634 84q-95 -101 -255 -101t-255 101t-95 271q0 171 95 272q94 100 255 100t255 -100q95 -101 95 -272q0 -170 -95 -271zM249 179q46 -64 130 -64t130 64q46 62 46 176q0 113 -46 177q-47 63 -130 63t-130 -63q-47 -65 -47 -177 q0 -111 47 -176z"/>
    <glyph glyph-name="Oacute" unicode="Ó" horiz-adv-x="758" d="M439 753h-122l99 118h139zM634 84q-95 -101 -255 -101t-255 101t-95 271q0 171 95 272q94 100 255 100t255 -100q95 -101 95 -272q0 -170 -95 -271zM249 179q46 -64 130 -64t130 64q46 62 46 176q0 113 -46 177q-47 63 -130 63t-130 -63q-47 -65 -47 -177q0 -111 47 -176 z"/>
    <glyph glyph-name="Ocircumflex" unicode="Ô" horiz-adv-x="758" d="M463 871l106 -118h-123l-67 74l-67 -74h-124l106 118h169zM634 84q-95 -101 -255 -101t-255 101t-95 271q0 171 95 272q94 100 255 100t255 -100q95 -101 95 -272q0 -170 -95 -271zM249 179q46 -64 130 -64t130 64q46 62 46 176q0 113 -46 177q-47 63 -130 63t-130 -63 q-47 -65 -47 -177q0 -111 47 -176z"/>
    <glyph glyph-name="Otilde" unicode="Õ" horiz-adv-x="758" d="M453 742q-37 0 -85 30.5t-62 30.5q-18 0 -29 -12.5t-19 -41.5l-78 27q10 55 43 85.5t82 30.5q37 0 84.5 -31t62.5 -31q18 0 29 12.5t19 41.5l77 -27q-10 -55 -42.5 -85t-81.5 -30zM634 84q-95 -101 -255 -101t-255 101t-95 271q0 171 95 272q94 100 255 100t255 -100 q95 -101 95 -272q0 -170 -95 -271zM249 179q46 -64 130 -64t130 64q46 62 46 176q0 113 -46 177q-47 63 -130 63t-130 -63q-47 -65 -47 -177q0 -111 47 -176z"/>
    <glyph glyph-name="Odieresis" unicode="Ö" horiz-adv-x="758" d="M332 753h-133v115h133v-115zM559 753h-133v115h133v-115zM634 84q-95 -101 -255 -101t-255 101t-95 271q0 171 95 272q94 100 255 100t255 -100q95 -101 95 -272q0 -170 -95 -271zM249 179q46 -64 130 -64t130 64q46 62 46 176q0 113 -46 177q-47 63 -130 63t-130 -63 q-47 -65 -47 -177q0 -111 47 -176z"/>
    <glyph glyph-name="multiply" unicode="×" d="M486 584l82 -80l-177 -177l176 -176l-80 -82l-177 178l-177 -177l-80 80l177 177l-177 177l80 80l177 -176z"/>
    <glyph glyph-name="Oslash" unicode="Ø" horiz-adv-x="758" d="M686 692l-52 -66q95 -101 95 -271t-95 -271t-255 -101q-120 0 -205 58l-48 -62l-54 39l52 66q-95 101 -95 271q0 171 95 272q94 100 255 100q120 0 205 -58l48 62zM202 355q0 -79 26 -139l263 336q-44 43 -112 43q-83 0 -130 -63.5t-47 -176.5zM379 115q83 0 129.5 63.5 t46.5 176.5q0 81 -25 138l-263 -335q44 -43 112 -43z"/>
    <glyph glyph-name="Ugrave" unicode="Ù" horiz-adv-x="726" d="M319 871l99 -118h-122l-116 118h139zM62 248v462h169v-455q0 -63 35 -99t97 -36t97 36t35 99v455h169v-462q0 -122 -80 -193q-80 -72 -221 -72t-221 72q-80 71 -80 193z"/>
    <glyph glyph-name="Uacute" unicode="Ú" horiz-adv-x="726" d="M423 753h-122l99 118h139zM62 248v462h169v-455q0 -63 35 -99t97 -36t97 36t35 99v455h169v-462q0 -122 -80 -193q-80 -72 -221 -72t-221 72q-80 71 -80 193z"/>
    <glyph glyph-name="Ucircumflex" unicode="Û" horiz-adv-x="726" d="M447 871l106 -118h-123l-67 74l-67 -74h-124l106 118h169zM62 248v462h169v-455q0 -63 35 -99t97 -36t97 36t35 99v455h169v-462q0 -122 -80 -193q-80 -72 -221 -72t-221 72q-80 71 -80 193z"/>
    <glyph glyph-name="Udieresis" unicode="Ü" horiz-adv-x="726" d="M316 753h-133v115h133v-115zM543 753h-133v115h133v-115zM62 248v462h169v-455q0 -63 35 -99t97 -36t97 36t35 99v455h169v-462q0 -122 -80 -193q-80 -72 -221 -72t-221 72q-80 71 -80 193z"/>
    <glyph glyph-name="Yacute" unicode="Ý" horiz-adv-x="636" d="M378 753h-122l99 118h139zM403 0h-170v257l-236 453h178l125 -262q12 -25 17 -52h2q5 27 17 52l124 262h179l-236 -453v-257z"/>
    <glyph glyph-name="Thorn" unicode="Þ" horiz-adv-x="631" d="M243 593h126q113 0 181 -59q67 -58 67 -158q0 -103 -67.5 -163.5t-183.5 -60.5h-123v-152h-169v710h169v-117zM243 270h87q52 0 81 26.5t29 73.5q0 49 -28.5 75t-81.5 26h-87v-201z"/>
    <glyph glyph-name="germandbls" unicode="ß" horiz-adv-x="628" d="M69 0v494q0 243 249 243q114 0 175 -46t61 -133q0 -64 -38.5 -107.5t-104.5 -51.5q90 -8 138 -55.5t48 -129.5q0 -107 -66 -165.5t-187 -58.5q-20 0 -62 5v112q34 -2 37 -2q57 0 87.5 30.5t30.5 88.5q0 110 -136 113h-23v109h25q91 2 91 100q0 40 -20.5 61.5t-58.5 21.5 q-86 0 -86 -110v-519h-160z"/>
    <glyph glyph-name="agrave" unicode="à" horiz-adv-x="573" d="M237 723l110 -156h-123l-138 156h151zM198 -12q-77 0 -124.5 40.5t-47.5 107.5q0 72 51 108t157 49l121 17v17q0 82 -74 82q-75 0 -80 -74h-159q6 83 69.5 130t170.5 47q121 0 177 -49.5t56 -157.5v-166q0 -89 14 -139h-156q-7 33 -8 79q-19 -42 -64 -66.5t-103 -24.5z M258 90q46 0 74 28t28 73v40l-86 -14q-86 -17 -86 -69q0 -26 19 -42t51 -16z"/>
    <glyph glyph-name="aacute" unicode="á" horiz-adv-x="573" d="M348 567h-123l110 156h151zM198 -12q-77 0 -124.5 40.5t-47.5 107.5q0 72 51 108t157 49l121 17v17q0 82 -74 82q-75 0 -80 -74h-159q6 83 69.5 130t170.5 47q121 0 177 -49.5t56 -157.5v-166q0 -89 14 -139h-156q-7 33 -8 79q-19 -42 -64 -66.5t-103 -24.5zM258 90 q46 0 74 28t28 73v40l-86 -14q-86 -17 -86 -69q0 -26 19 -42t51 -16z"/>
    <glyph glyph-name="acircumflex" unicode="â" horiz-adv-x="573" d="M366 723l106 -156h-116l-70 105l-69 -105h-117l106 156h160zM198 -12q-77 0 -124.5 40.5t-47.5 107.5q0 72 51 108t157 49l121 17v17q0 82 -74 82q-75 0 -80 -74h-159q6 83 69.5 130t170.5 47q121 0 177 -49.5t56 -157.5v-166q0 -89 14 -139h-156q-7 33 -8 79 q-19 -42 -64 -66.5t-103 -24.5zM258 90q46 0 74 28t28 73v40l-86 -14q-86 -17 -86 -69q0 -26 19 -42t51 -16z"/>
    <glyph glyph-name="atilde" unicode="ã" horiz-adv-x="573" d="M364 568q-36 0 -86 34t-66 34q-18 0 -29.5 -13.5t-20.5 -44.5l-77 27q11 61 44 94t83 33q38 0 87.5 -33.5t65.5 -33.5q34 0 49 57l78 -27q-11 -61 -44 -94t-84 -33zM198 -12q-77 0 -124.5 40.5t-47.5 107.5q0 72 51 108t157 49l121 17v17q0 82 -74 82q-75 0 -80 -74h-159 q6 83 69.5 130t170.5 47q121 0 177 -49.5t56 -157.5v-166q0 -89 14 -139h-156q-7 33 -8 79q-19 -42 -64 -66.5t-103 -24.5zM258 90q46 0 74 28t28 73v40l-86 -14q-86 -17 -86 -69q0 -26 19 -42t51 -16z"/>
    <glyph glyph-name="adieresis" unicode="ä" horiz-adv-x="573" d="M245 573h-139v133h139v-133zM465 573h-139v133h139v-133zM198 -12q-77 0 -124.5 40.5t-47.5 107.5q0 72 51 108t157 49l121 17v17q0 82 -74 82q-75 0 -80 -74h-159q6 83 69.5 130t170.5 47q121 0 177 -49.5t56 -157.5v-166q0 -89 14 -139h-156q-7 33 -8 79 q-19 -42 -64 -66.5t-103 -24.5zM258 90q46 0 74 28t28 73v40l-86 -14q-86 -17 -86 -69q0 -26 19 -42t51 -16z"/>
    <glyph glyph-name="aring" unicode="å" horiz-adv-x="573" d="M286 548q-57 0 -92 32t-35 85t35 85.5t92 32.5q58 0 93 -32.5t35 -85.5t-35 -85t-93 -32zM249 627q14 -15 37 -15t38 15q14 15 14 38t-14 38q-15 15 -38 15t-37 -15q-15 -15 -15 -38t15 -38zM198 -12q-77 0 -124.5 40.5t-47.5 107.5q0 72 51 108t157 49l121 17v17 q0 82 -74 82q-75 0 -80 -74h-159q6 83 69.5 130t170.5 47q121 0 177 -49.5t56 -157.5v-166q0 -89 14 -139h-156q-7 33 -8 79q-19 -42 -64 -66.5t-103 -24.5zM258 90q46 0 74 28t28 73v40l-86 -14q-86 -17 -86 -69q0 -26 19 -42t51 -16z"/>
    <glyph glyph-name="ae" unicode="æ" horiz-adv-x="867" d="M833 259v-43h-327q1 -51 29.5 -82t75.5 -31q68 0 99 70l118 -54q-29 -62 -87 -96.5t-133 -34.5q-136 0 -200 94q-29 -45 -82 -69.5t-119 -24.5q-84 0 -132.5 40.5t-48.5 110.5q0 64 44.5 100.5t137.5 48.5l141 19v16q0 85 -75 85q-73 0 -77 -73h-158q6 83 67.5 130 t164.5 47q110 0 164 -60q63 60 165 60q111 0 172 -66.5t61 -186.5zM506 306h171q1 53 -20.5 82t-61.5 29q-41 0 -65 -29t-24 -81v-1zM354 191v37l-80 -13q-86 -14 -86 -70q0 -25 18.5 -40t48.5 -15q43 0 71 27t28 74z"/>
    <glyph glyph-name="ccedilla" unicode="ç" horiz-adv-x="557" d="M291 107q77 0 90 93l150 -33q-13 -77 -70.5 -124.5t-144.5 -53.5l-21 -35q19 15 54 15q42 0 66.5 -22.5t24.5 -64.5q0 -45 -35 -70t-96 -25q-98 0 -127 65l84 21q10 -24 39 -24q18 0 29 10t11 27q0 16 -11 26t-28 10q-21 0 -33 -15l-60 14l31 70q-99 14 -157 83.5 t-58 175.5q0 122 71 192t194 70q98 0 160.5 -46t76.5 -131l-151 -31q-14 90 -90 90q-46 0 -72 -37t-26 -102q0 -71 26 -109.5t73 -38.5z"/>
    <glyph glyph-name="egrave" unicode="è" horiz-adv-x="562" d="M231 723l110 -156h-123l-138 156h151zM528 262v-48h-347q1 -51 32.5 -81t82.5 -30q75 0 109 70l118 -54q-30 -62 -90.5 -96.5t-138.5 -34.5q-124 0 -194.5 68t-70.5 189q0 123 69 195q67 72 185 72t181.5 -65.5t63.5 -184.5zM181 304h192v4q0 53 -24 81t-69 28 q-46 0 -71.5 -29.5t-27.5 -83.5z"/>
    <glyph glyph-name="eacute" unicode="é" horiz-adv-x="562" d="M329 723h151l-138 -156h-123zM528 262v-48h-347q1 -51 32.5 -81t82.5 -30q75 0 109 70l118 -54q-30 -62 -90.5 -96.5t-138.5 -34.5q-124 0 -194.5 68t-70.5 189q0 123 69 195q67 72 185 72t181.5 -65.5t63.5 -184.5zM181 304h192v4q0 53 -24 81t-69 28q-46 0 -71.5 -29.5 t-27.5 -83.5z"/>
    <glyph glyph-name="ecircumflex" unicode="ê" horiz-adv-x="562" d="M350 567l-70 105l-69 -105h-117l106 156h160l106 -156h-116zM528 262v-48h-347q1 -51 32.5 -81t82.5 -30q75 0 109 70l118 -54q-30 -62 -90.5 -96.5t-138.5 -34.5q-124 0 -194.5 68t-70.5 189q0 123 69 195q67 72 185 72t181.5 -65.5t63.5 -184.5zM181 304h192v4 q0 53 -24 81t-69 28q-46 0 -71.5 -29.5t-27.5 -83.5z"/>
    <glyph glyph-name="edieresis" unicode="ë" horiz-adv-x="562" d="M100 706h139v-133h-139v133zM320 706h139v-133h-139v133zM528 262v-48h-347q1 -51 32.5 -81t82.5 -30q75 0 109 70l118 -54q-30 -62 -90.5 -96.5t-138.5 -34.5q-124 0 -194.5 68t-70.5 189q0 123 69 195q67 72 185 72t181.5 -65.5t63.5 -184.5zM181 304h192v4 q0 53 -24 81t-69 28q-46 0 -71.5 -29.5t-27.5 -83.5z"/>
    <glyph glyph-name="igrave" unicode="ì" horiz-adv-x="295" d="M124 723l82 -156h-123l-101 156h142zM228 0h-161v500h161v-500z"/>
    <glyph glyph-name="iacute" unicode="í" horiz-adv-x="295" d="M210 567h-123l82 156h142zM228 0h-161v500h161v-500z"/>
    <glyph glyph-name="icircumflex" unicode="î" horiz-adv-x="295" d="M228 723l76 -156h-111l-45 106l-44 -106h-112l76 156h160zM228 0h-161v500h161v-500z"/>
    <glyph glyph-name="idieresis" unicode="ï" horiz-adv-x="295" d="M126 573h-127v133h127v-133zM298 573h-128v133h128v-133zM228 0h-161v500h161v-500z"/>
    <glyph glyph-name="eth" unicode="ð" horiz-adv-x="581" d="M497 654l-55 -18q112 -140 112 -348q0 -140 -72.5 -220t-196.5 -80q-121 0 -187 68t-66 192q0 122 58 193q59 71 156 71q44 0 78.5 -22.5t53.5 -59.5h2q-21 83 -83 156l-101 -34l-16 44l82 28q-34 33 -70 57l136 59q48 -32 81 -67l73 25zM292 99q49 0 75.5 40t26.5 113 q0 71 -26.5 110.5t-73.5 39.5q-48 0 -74 -39t-26 -112q0 -70 26 -111t72 -41z"/>
    <glyph glyph-name="ntilde" unicode="ñ" horiz-adv-x="609" d="M398 568q-36 0 -86 34t-66 34q-18 0 -29.5 -13.5t-20.5 -44.5l-77 27q11 61 44 94t83 33q38 0 87.5 -33.5t65.5 -33.5q34 0 49 57l78 -27q-11 -61 -44 -94t-84 -33zM228 0h-161v500h154v-96q52 109 166 109q163 0 163 -203v-310h-160v288q0 102 -75 102q-42 0 -64.5 -31 t-22.5 -89v-270z"/>
    <glyph glyph-name="ograve" unicode="ò" horiz-adv-x="577" d="M239 723l110 -156h-123l-138 156h151zM288 -12q-114 0 -186 69q-73 69 -73 194t72 193q73 68 187 68t188 -68q72 -68 72 -193t-72 -194q-74 -69 -188 -69zM288 99q100 0 100 152q0 150 -100 150q-99 0 -99 -150q0 -74 25.5 -113t73.5 -39z"/>
    <glyph glyph-name="oacute" unicode="ó" horiz-adv-x="577" d="M350 567h-123l110 156h151zM288 -12q-114 0 -186 69q-73 69 -73 194t72 193q73 68 187 68t188 -68q72 -68 72 -193t-72 -194q-74 -69 -188 -69zM288 99q100 0 100 152q0 150 -100 150q-99 0 -99 -150q0 -74 25.5 -113t73.5 -39z"/>
    <glyph glyph-name="ocircumflex" unicode="ô" horiz-adv-x="577" d="M368 723l106 -156h-116l-70 105l-69 -105h-117l106 156h160zM288 -12q-114 0 -186 69q-73 69 -73 194t72 193q73 68 187 68t188 -68q72 -68 72 -193t-72 -194q-74 -69 -188 -69zM288 99q100 0 100 152q0 150 -100 150q-99 0 -99 -150q0 -74 25.5 -113t73.5 -39z"/>
    <glyph glyph-name="otilde" unicode="õ" horiz-adv-x="577" d="M366 568q-36 0 -86 34t-66 34q-18 0 -29.5 -13.5t-20.5 -44.5l-77 27q11 61 44 94t83 33q38 0 87.5 -33.5t65.5 -33.5q34 0 49 57l78 -27q-11 -61 -44 -94t-84 -33zM288 -12q-114 0 -186 69q-73 69 -73 194t72 193q73 68 187 68t188 -68q72 -68 72 -193t-72 -194 q-74 -69 -188 -69zM288 99q100 0 100 152q0 150 -100 150q-99 0 -99 -150q0 -74 25.5 -113t73.5 -39z"/>
    <glyph glyph-name="odieresis" unicode="ö" horiz-adv-x="577" d="M247 573h-139v133h139v-133zM467 573h-139v133h139v-133zM288 -12q-114 0 -186 69q-73 69 -73 194t72 193q73 68 187 68t188 -68q72 -68 72 -193t-72 -194q-74 -69 -188 -69zM288 99q100 0 100 152q0 150 -100 150q-99 0 -99 -150q0 -74 25.5 -113t73.5 -39z"/>
    <glyph glyph-name="divide" unicode="÷" horiz-adv-x="562" d="M328 455q-20 -19 -50 -19t-49 19t-19 49t19 49q29 31 75.5 14t42.5 -63q0 -30 -19 -49zM518 275h-474v105h474v-105zM278 80q-29 0 -48.5 19t-19.5 49q0 31 19 50t49 19q31 0 50 -18.5t19 -50.5q0 -30 -19.5 -49t-49.5 -19z"/>
    <glyph glyph-name="oslash" unicode="ø" horiz-adv-x="577" d="M512 490l-37 -45q73 -70 73 -194q0 -125 -72 -194q-74 -69 -188 -69q-86 0 -151 41l-37 -46l-36 26l38 47q-73 70 -73 195t72 193q73 68 187 68q88 0 151 -39l36 44zM189 251q0 -45 9 -76l159 196q-25 30 -69 30q-99 0 -99 -150zM288 99q100 0 100 152q0 45 -9 75 l-159 -196q25 -31 68 -31z"/>
    <glyph glyph-name="ugrave" unicode="ù" horiz-adv-x="603" d="M248 723l110 -156h-123l-138 156h151zM227 -12q-168 0 -168 188v324h160v-296q0 -94 72 -94q39 0 61.5 28t22.5 76v286h161v-500h-153v91q-18 -48 -60 -75.5t-96 -27.5z"/>
    <glyph glyph-name="uacute" unicode="ú" horiz-adv-x="603" d="M359 567h-123l110 156h151zM227 -12q-168 0 -168 188v324h160v-296q0 -94 72 -94q39 0 61.5 28t22.5 76v286h161v-500h-153v91q-18 -48 -60 -75.5t-96 -27.5z"/>
    <glyph glyph-name="ucircumflex" unicode="û" horiz-adv-x="603" d="M377 723l106 -156h-116l-70 105l-69 -105h-117l106 156h160zM227 -12q-168 0 -168 188v324h160v-296q0 -94 72 -94q39 0 61.5 28t22.5 76v286h161v-500h-153v91q-18 -48 -60 -75.5t-96 -27.5z"/>
    <glyph glyph-name="udieresis" unicode="ü" horiz-adv-x="603" d="M256 573h-139v133h139v-133zM476 573h-139v133h139v-133zM227 -12q-168 0 -168 188v324h160v-296q0 -94 72 -94q39 0 61.5 28t22.5 76v286h161v-500h-153v91q-18 -48 -60 -75.5t-96 -27.5z"/>
    <glyph glyph-name="yacute" unicode="ý" horiz-adv-x="538" d="M338 567h-123l110 156h151zM102 -202q-14 0 -66 6v118q42 -5 56 -5q77 0 96 65l7 21l-191 497h174l88 -304q8 -31 11 -58h3q1 19 12 58l81 304h161l-179 -522q-33 -96 -92.5 -138t-160.5 -42z"/>
    <glyph glyph-name="thorn" unicode="þ" horiz-adv-x="615" d="M233 -195h-161v920h161v-292q48 79 152 79q90 0 144 -72q53 -73 53 -189q0 -119 -55 -190q-55 -73 -150 -73q-99 0 -144 77v-260zM254 136q25 -37 69 -37q43 0 69 42q25 41 25 110t-25 109.5t-70 40.5t-69 -36t-24 -103v-28q0 -63 25 -98z"/>
    <glyph glyph-name="ydieresis" unicode="ÿ" horiz-adv-x="538" d="M235 573h-139v133h139v-133zM455 573h-139v133h139v-133zM102 -202q-14 0 -66 6v118q42 -5 56 -5q77 0 96 65l7 21l-191 497h174l88 -304q8 -31 11 -58h3q1 19 12 58l81 304h161l-179 -522q-33 -96 -92.5 -138t-160.5 -42z"/>
    <glyph glyph-name="Amacron" unicode="Ā" horiz-adv-x="736" d="M188 855h360v-97h-360v97zM723 0h-170l-54 166h-262l-54 -166h-169l258 710h193zM341 483l-65 -198h184l-65 198q-17 54 -26 100h-2q-9 -46 -26 -100z"/>
    <glyph glyph-name="amacron" unicode="ā" horiz-adv-x="573" d="M457 592h-343v96h343v-96zM198 -12q-77 0 -124.5 40.5t-47.5 107.5q0 72 51 108t157 49l121 17v17q0 82 -74 82q-75 0 -80 -74h-159q6 83 69.5 130t170.5 47q121 0 177 -49.5t56 -157.5v-166q0 -89 14 -139h-156q-7 33 -8 79q-19 -42 -64 -66.5t-103 -24.5zM258 90 q46 0 74 28t28 73v40l-86 -14q-86 -17 -86 -69q0 -26 19 -42t51 -16z"/>
    <glyph glyph-name="Abreve" unicode="Ă" horiz-adv-x="736" d="M491 780q-44 -32 -123 -32t-123 32q-45 31 -51 91h101q6 -48 73 -48q66 0 72 48h101q-6 -59 -50 -91zM723 0h-170l-54 166h-262l-54 -166h-169l258 710h193zM341 483l-65 -198h184l-65 198q-17 54 -26 100h-2q-9 -46 -26 -100z"/>
    <glyph glyph-name="abreve" unicode="ă" horiz-adv-x="573" d="M112 723h101q5 -81 73 -81q69 0 72 81h101q-4 -80 -49 -120.5t-124 -40.5t-124.5 40.5t-49.5 120.5zM198 -12q-77 0 -124.5 40.5t-47.5 107.5q0 72 51 108t157 49l121 17v17q0 82 -74 82q-75 0 -80 -74h-159q6 83 69.5 130t170.5 47q121 0 177 -49.5t56 -157.5v-166 q0 -89 14 -139h-156q-7 33 -8 79q-19 -42 -64 -66.5t-103 -24.5zM258 90q46 0 74 28t28 73v40l-86 -14q-86 -17 -86 -69q0 -26 19 -42t51 -16z"/>
    <glyph glyph-name="Aogonek" unicode="Ą" horiz-adv-x="736" d="M592 -131q30 0 56 41l67 -35q-43 -78 -132 -78q-58 0 -90 24.5t-32 68.5q0 71 92 110l-54 166h-262l-54 -166h-169l258 710h193l258 -710h-56q-56 -14 -84 -39t-28 -56q0 -36 37 -36zM341 483l-65 -198h184l-65 198q-17 54 -26 100h-2q-9 -46 -26 -100z"/>
    <glyph glyph-name="aogonek" unicode="ą" horiz-adv-x="573" d="M468 -90l67 -35q-43 -78 -132 -78q-58 0 -90 24.5t-32 68.5q0 71 92 110q-7 33 -8 79q-19 -42 -64 -66.5t-103 -24.5q-77 0 -124.5 40.5t-47.5 107.5q0 72 51 108t157 49l121 17v17q0 82 -74 82q-75 0 -80 -74h-159q6 83 69.5 130t170.5 47q121 0 177 -49.5t56 -157.5 v-166q0 -89 14 -139h-42q-56 -14 -84 -39t-28 -56q0 -36 37 -36q30 0 56 41zM360 191v40l-86 -14q-86 -17 -86 -69q0 -26 19 -42t51 -16q46 0 74 28t28 73z"/>
    <glyph glyph-name="Cacute" unicode="Ć" horiz-adv-x="717" d="M428 753h-122l99 118h139zM375 -17q-166 0 -256 100q-90 101 -90 271t94 271q93 102 254 102q133 0 216.5 -68t97.5 -187l-171 -30q-8 72 -46 110.5t-101 38.5q-80 0 -125.5 -63.5t-45.5 -172.5q0 -108 46.5 -171.5t129.5 -63.5q59 0 97 38.5t49 107.5l171 -37 q-27 -116 -109.5 -181t-210.5 -65z"/>
    <glyph glyph-name="cacute" unicode="ć" horiz-adv-x="557" d="M349 567h-123l110 156h151zM292 -12q-119 0 -191 72q-72 70 -72 190q0 122 71 192t194 70q98 0 160.5 -46t76.5 -131l-151 -31q-14 90 -90 90q-46 0 -72 -37t-26 -102q0 -71 26 -109.5t73 -38.5q77 0 90 93l150 -33q-13 -82 -78 -130.5t-161 -48.5z"/>
    <glyph glyph-name="Ccircumflex" unicode="Ĉ" horiz-adv-x="717" d="M452 871l106 -118h-123l-67 74l-67 -74h-124l106 118h169zM375 -17q-166 0 -256 100q-90 101 -90 271t94 271q93 102 254 102q133 0 216.5 -68t97.5 -187l-171 -30q-8 72 -46 110.5t-101 38.5q-80 0 -125.5 -63.5t-45.5 -172.5q0 -108 46.5 -171.5t129.5 -63.5 q59 0 97 38.5t49 107.5l171 -37q-27 -116 -109.5 -181t-210.5 -65z"/>
    <glyph glyph-name="ccircumflex" unicode="ĉ" horiz-adv-x="557" d="M367 723l106 -156h-116l-70 105l-69 -105h-117l106 156h160zM292 -12q-119 0 -191 72q-72 70 -72 190q0 122 71 192t194 70q98 0 160.5 -46t76.5 -131l-151 -31q-14 90 -90 90q-46 0 -72 -37t-26 -102q0 -71 26 -109.5t73 -38.5q77 0 90 93l150 -33q-13 -82 -78 -130.5 t-161 -48.5z"/>
    <glyph glyph-name="Cdotaccent" unicode="Ċ" horiz-adv-x="717" d="M450 753h-164v118h164v-118zM375 -17q-166 0 -256 100q-90 101 -90 271t94 271q93 102 254 102q133 0 216.5 -68t97.5 -187l-171 -30q-8 72 -46 110.5t-101 38.5q-80 0 -125.5 -63.5t-45.5 -172.5q0 -108 46.5 -171.5t129.5 -63.5q59 0 97 38.5t49 107.5l171 -37 q-27 -116 -109.5 -181t-210.5 -65z"/>
    <glyph glyph-name="cdotaccent" unicode="ċ" horiz-adv-x="557" d="M371 572h-167v146h167v-146zM292 -12q-119 0 -191 72q-72 70 -72 190q0 122 71 192t194 70q98 0 160.5 -46t76.5 -131l-151 -31q-14 90 -90 90q-46 0 -72 -37t-26 -102q0 -71 26 -109.5t73 -38.5q77 0 90 93l150 -33q-13 -82 -78 -130.5t-161 -48.5z"/>
    <glyph glyph-name="Ccaron" unicode="Č" horiz-adv-x="717" d="M435 866h123l-106 -118h-169l-106 118h124l67 -74zM375 -17q-166 0 -256 100q-90 101 -90 271t94 271q93 102 254 102q133 0 216.5 -68t97.5 -187l-171 -30q-8 72 -46 110.5t-101 38.5q-80 0 -125.5 -63.5t-45.5 -172.5q0 -108 46.5 -171.5t129.5 -63.5q59 0 97 38.5 t49 107.5l171 -37q-27 -116 -109.5 -181t-210.5 -65z"/>
    <glyph glyph-name="ccaron" unicode="č" horiz-adv-x="557" d="M207 562l-106 156h116l70 -105l69 105h117l-106 -156h-160zM292 -12q-119 0 -191 72q-72 70 -72 190q0 122 71 192t194 70q98 0 160.5 -46t76.5 -131l-151 -31q-14 90 -90 90q-46 0 -72 -37t-26 -102q0 -71 26 -109.5t73 -38.5q77 0 90 93l150 -33q-13 -82 -78 -130.5 t-161 -48.5z"/>
    <glyph glyph-name="Dcaron" unicode="Ď" horiz-adv-x="737" d="M416 866h123l-106 -118h-169l-106 118h124l67 -74zM355 0h-281v710h283q159 0 255 -97q96 -98 96 -254q0 -161 -96 -260q-98 -99 -257 -99zM243 586v-462h105q87 0 137 68q49 67 49 167q0 103 -49 165t-135 62h-107z"/>
    <glyph glyph-name="dcaron" unicode="ď" horiz-adv-x="691" d="M232 -12q-90 0 -145 72q-55 70 -55 188q0 119 58 192q57 72 151 72q104 0 141 -79v292h160v-725h-152v86q-19 -45 -61 -71.5t-97 -26.5zM626 521l-24 48q27 5 38 14t11 25h-65v102h132v-89q0 -83 -92 -100zM295 99q41 0 65 34t24 93v43q0 63 -24 97.5t-67 34.5 q-46 0 -71 -39t-25 -111q0 -71 26 -111.5t72 -40.5z"/>
    <glyph glyph-name="Dcroat" unicode="Đ" horiz-adv-x="737" d="M74 710h283q159 0 255 -97q96 -98 96 -254q0 -161 -96 -260q-98 -99 -257 -99h-281v322h-75v94h75v294zM243 124h105q87 0 137 68q49 67 49 167q0 103 -49 165t-135 62h-107v-170h142v-94h-142v-198z"/>
    <glyph glyph-name="dslash" unicode="đ" horiz-adv-x="615" d="M542 639h75v-57h-75v-582h-152v86q-19 -45 -61 -71.5t-97 -26.5q-90 0 -145 72q-55 70 -55 188q0 119 58 192q57 72 151 72q104 0 141 -79v149h-158v57h158v86h160v-86zM384 226v43q0 63 -24 97.5t-67 34.5q-46 0 -71 -39t-25 -111q0 -71 26 -111.5t72 -40.5q41 0 65 34 t24 93z"/>
    <glyph glyph-name="Emacron" unicode="Ē" horiz-adv-x="616" d="M145 855h360v-97h-360v97zM243 301v-176h324v-125h-493v710h486v-125h-317v-160h300v-124h-300z"/>
    <glyph glyph-name="emacron" unicode="ē" horiz-adv-x="562" d="M108 688h343v-96h-343v96zM528 262v-48h-347q1 -51 32.5 -81t82.5 -30q75 0 109 70l118 -54q-30 -62 -90.5 -96.5t-138.5 -34.5q-124 0 -194.5 68t-70.5 189q0 123 69 195q67 72 185 72t181.5 -65.5t63.5 -184.5zM181 304h192v4q0 53 -24 81t-69 28q-46 0 -71.5 -29.5 t-27.5 -83.5z"/>
    <glyph glyph-name="Ebreve" unicode="Ĕ" horiz-adv-x="616" d="M448 780q-44 -32 -123 -32t-123 32q-45 31 -51 91h101q6 -48 73 -48q66 0 72 48h101q-6 -59 -50 -91zM243 301v-176h324v-125h-493v710h486v-125h-317v-160h300v-124h-300z"/>
    <glyph glyph-name="ebreve" unicode="ĕ" horiz-adv-x="562" d="M403 602q-46 -40 -123 -40t-123 40q-47 39 -51 121h101q5 -81 73 -81q69 0 72 81h101q-5 -83 -50 -121zM528 262v-48h-347q1 -51 32.5 -81t82.5 -30q75 0 109 70l118 -54q-30 -62 -90.5 -96.5t-138.5 -34.5q-124 0 -194.5 68t-70.5 189q0 123 69 195q67 72 185 72 t181.5 -65.5t63.5 -184.5zM181 304h192v4q0 53 -24 81t-69 28q-46 0 -71.5 -29.5t-27.5 -83.5z"/>
    <glyph glyph-name="Edotaccent" unicode="Ė" horiz-adv-x="616" d="M243 871h164v-118h-164v118zM243 301v-176h324v-125h-493v710h486v-125h-317v-160h300v-124h-300z"/>
    <glyph glyph-name="edotaccent" unicode="ė" horiz-adv-x="562" d="M197 718h167v-146h-167v146zM528 262v-48h-347q1 -51 32.5 -81t82.5 -30q75 0 109 70l118 -54q-30 -62 -90.5 -96.5t-138.5 -34.5q-124 0 -194.5 68t-70.5 189q0 123 69 195q67 72 185 72t181.5 -65.5t63.5 -184.5zM181 304h192v4q0 53 -24 81t-69 28q-46 0 -71.5 -29.5 t-27.5 -83.5z"/>
    <glyph glyph-name="Eogonek" unicode="Ę" horiz-adv-x="616" d="M548 -90l67 -35q-43 -78 -132 -78q-58 0 -90 24.5t-32 68.5q0 71 92 110h-379v710h486v-125h-317v-160h300v-124h-300v-176h324v-125q-56 -14 -84 -39t-28 -56q0 -36 37 -36q30 0 56 41z"/>
    <glyph glyph-name="eogonek" unicode="ę" horiz-adv-x="562" d="M528 262v-48h-347q1 -51 32.5 -81t82.5 -30q75 0 109 70l118 -54q-44 -91 -144 -119h1q-56 -14 -84 -39t-28 -56q0 -36 37 -36q30 0 56 41l67 -35q-44 -78 -132 -78q-58 0 -90 24.5t-32 68.5q0 64 73 101q-103 13 -160.5 79.5t-57.5 174.5q0 123 69 195q67 72 185 72 t181.5 -65.5t63.5 -184.5zM181 304h192v4q0 53 -24 81t-69 28q-46 0 -71.5 -29.5t-27.5 -83.5z"/>
    <glyph glyph-name="Ecaron" unicode="Ě" horiz-adv-x="616" d="M515 866l-106 -118h-169l-106 118h124l67 -74l67 74h123zM243 301v-176h324v-125h-493v710h486v-125h-317v-160h300v-124h-300z"/>
    <glyph glyph-name="ecaron" unicode="ě" horiz-adv-x="562" d="M466 718l-106 -156h-160l-106 156h116l70 -105l69 105h117zM528 262v-48h-347q1 -51 32.5 -81t82.5 -30q75 0 109 70l118 -54q-30 -62 -90.5 -96.5t-138.5 -34.5q-124 0 -194.5 68t-70.5 189q0 123 69 195q67 72 185 72t181.5 -65.5t63.5 -184.5zM181 304h192v4 q0 53 -24 81t-69 28q-46 0 -71.5 -29.5t-27.5 -83.5z"/>
    <glyph glyph-name="Gcircumflex" unicode="Ĝ" horiz-adv-x="744" d="M457 871l106 -118h-123l-67 74l-67 -74h-124l106 118h169zM344 -17q-146 0 -230 101q-85 100 -85 270q0 168 95 271q94 102 257 102q133 0 212 -61t97 -157l-167 -31q-10 56 -46.5 89t-96.5 33q-84 0 -131 -65t-47 -179q0 -115 46.5 -179t133.5 -64q74 0 116 46 q41 47 41 100v15h-175v121h329v-395h-120l-7 104q-27 -57 -84.5 -89t-137.5 -32z"/>
    <glyph glyph-name="gcircumflex" unicode="ĝ" horiz-adv-x="573" d="M355 591l-70 88l-69 -88h-117l106 132h160l106 -132h-116zM560 584v-107q-32 5 -46 5q-41 0 -65 -18q58 -45 58 -119q0 -77 -61.5 -123.5t-166.5 -46.5q-58 0 -103 15q-15 -10 -15 -27q0 -41 69 -41h140q184 0 184 -146q0 -87 -75 -135t-213 -48q-119 0 -182.5 32 t-63.5 88q0 63 86 90q-68 27 -68 94q0 81 90 114q-78 47 -78 134q0 76 62 121.5t167 45.5q65 0 115 -18q28 91 145 91q16 0 21 -1zM279 257q34 0 55.5 24.5t21.5 63.5q0 38 -21 61.5t-56 23.5t-56.5 -23.5t-21.5 -61.5q0 -39 21.5 -63.5t56.5 -24.5zM353 -12l-158 1 q-6 0 -36 2q-20 -20 -20 -47q0 -63 134 -63q147 0 147 59q0 48 -67 48z"/>
    <glyph glyph-name="Gbreve" unicode="Ğ" horiz-adv-x="744" d="M199 871h101q6 -48 73 -48q66 0 72 48h101q-6 -60 -50.5 -91.5t-122.5 -31.5q-79 0 -123.5 32t-50.5 91zM344 -17q-146 0 -230 101q-85 100 -85 270q0 168 95 271q94 102 257 102q133 0 212 -61t97 -157l-167 -31q-10 56 -46.5 89t-96.5 33q-84 0 -131 -65t-47 -179 q0 -115 46.5 -179t133.5 -64q74 0 116 46q41 47 41 100v15h-175v121h329v-395h-120l-7 104q-27 -57 -84.5 -89t-137.5 -32z"/>
    <glyph glyph-name="gbreve" unicode="ğ" horiz-adv-x="573" d="M408 602q-46 -40 -123 -40t-123 40q-47 39 -51 121h101q5 -81 73 -81q69 0 72 81h101q-5 -83 -50 -121zM560 584v-107q-32 5 -46 5q-41 0 -65 -18q58 -45 58 -119q0 -77 -61.5 -123.5t-166.5 -46.5q-58 0 -103 15q-15 -10 -15 -27q0 -41 69 -41h140q184 0 184 -146 q0 -87 -75 -135t-213 -48q-119 0 -182.5 32t-63.5 88q0 63 86 90q-68 27 -68 94q0 81 90 114q-78 47 -78 134q0 76 62 121.5t167 45.5q65 0 115 -18q28 91 145 91q16 0 21 -1zM279 257q34 0 55.5 24.5t21.5 63.5q0 38 -21 61.5t-56 23.5t-56.5 -23.5t-21.5 -61.5 q0 -39 21.5 -63.5t56.5 -24.5zM353 -12l-158 1q-6 0 -36 2q-20 -20 -20 -47q0 -63 134 -63q147 0 147 59q0 48 -67 48z"/>
    <glyph glyph-name="Gdotaccent" unicode="Ġ" horiz-adv-x="744" d="M455 753h-164v118h164v-118zM344 -17q-146 0 -230 101q-85 100 -85 270q0 168 95 271q94 102 257 102q133 0 212 -61t97 -157l-167 -31q-10 56 -46.5 89t-96.5 33q-84 0 -131 -65t-47 -179q0 -115 46.5 -179t133.5 -64q74 0 116 46q41 47 41 100v15h-175v121h329v-395 h-120l-7 104q-27 -57 -84.5 -89t-137.5 -32z"/>
    <glyph glyph-name="gdotaccent" unicode="ġ" horiz-adv-x="573" d="M202 718h167v-146h-167v146zM560 584v-107q-32 5 -46 5q-41 0 -65 -18q58 -45 58 -119q0 -77 -61.5 -123.5t-166.5 -46.5q-58 0 -103 15q-15 -10 -15 -27q0 -41 69 -41h140q184 0 184 -146q0 -87 -75 -135t-213 -48q-119 0 -182.5 32t-63.5 88q0 63 86 90q-68 27 -68 94 q0 81 90 114q-78 47 -78 134q0 76 62 121.5t167 45.5q65 0 115 -18q28 91 145 91q16 0 21 -1zM279 257q34 0 55.5 24.5t21.5 63.5q0 38 -21 61.5t-56 23.5t-56.5 -23.5t-21.5 -61.5q0 -39 21.5 -63.5t56.5 -24.5zM353 -12l-158 1q-6 0 -36 2q-20 -20 -20 -47q0 -63 134 -63 q147 0 147 59q0 48 -67 48z"/>
    <glyph glyph-name="Gcommaaccent" unicode="Ģ" horiz-adv-x="744" d="M344 -17q-146 0 -230 101q-85 100 -85 270q0 168 95 271q94 102 257 102q133 0 212 -61t97 -157l-167 -31q-10 56 -46.5 89t-96.5 33q-84 0 -131 -65t-47 -179q0 -115 46.5 -179t133.5 -64q74 0 116 46q41 47 41 100v15h-175v121h329v-395h-120l-7 104q-27 -57 -84.5 -89 t-137.5 -32zM350 -240l-27 51q27 7 38 17t11 30h-65v102h132v-89q0 -93 -89 -111z"/>
    <glyph glyph-name="gcommaaccent" unicode="ģ" horiz-adv-x="573" d="M288 670h65v-102h-132v89q0 93 89 111l27 -51q-27 -7 -38 -17t-11 -30zM560 584v-107q-32 5 -46 5q-41 0 -65 -18q58 -45 58 -119q0 -77 -61.5 -123.5t-166.5 -46.5q-58 0 -103 15q-15 -10 -15 -27q0 -41 69 -41h140q184 0 184 -146q0 -87 -75 -135t-213 -48 q-119 0 -182.5 32t-63.5 88q0 63 86 90q-68 27 -68 94q0 81 90 114q-78 47 -78 134q0 76 62 121.5t167 45.5q65 0 115 -18q28 91 145 91q16 0 21 -1zM279 257q34 0 55.5 24.5t21.5 63.5q0 38 -21 61.5t-56 23.5t-56.5 -23.5t-21.5 -61.5q0 -39 21.5 -63.5t56.5 -24.5z M353 -12l-158 1q-6 0 -36 2q-20 -20 -20 -47q0 -63 134 -63q147 0 147 59q0 48 -67 48z"/>
    <glyph glyph-name="Hcircumflex" unicode="Ĥ" horiz-adv-x="759" d="M464 871l106 -118h-123l-67 74l-67 -74h-124l106 118h169zM516 710h169v-710h-169v295h-273v-295h-169v710h169v-285h273v285z"/>
    <glyph glyph-name="hcircumflex" unicode="ĥ" horiz-adv-x="614" d="M237 871l106 -118h-123l-67 74l-67 -74h-124l106 118h169zM233 0h-161v725h161v-314q46 103 159 103q163 0 163 -203v-311h-160v295q0 96 -74 96q-88 0 -88 -122v-269z"/>
    <glyph glyph-name="Hbar" unicode="Ħ" horiz-adv-x="759" d="M685 597h69v-69h-69v-528h-169v295h-273v-295h-169v528h-68v69h68v113h169v-113h273v113h169v-113zM243 425h273v103h-273v-103z"/>
    <glyph glyph-name="hbar" unicode="ħ" horiz-adv-x="605" d="M392 514q163 0 163 -203v-311h-160v295q0 96 -74 96q-88 0 -88 -122v-269h-161v579h-72v57h72v89h161v-89h180v-57h-180v-168q46 103 159 103z"/>
    <glyph glyph-name="Itilde" unicode="Ĩ" horiz-adv-x="317" d="M232 748q-33 0 -78.5 31t-56.5 31q-29 0 -32 -49l-75 27q4 51 29 80.5t67 29.5q33 0 78.5 -31t56.5 -31q29 0 32 49l75 -27q-3 -51 -28.5 -80.5t-67.5 -29.5zM243 710v-710h-169v710h169z"/>
    <glyph glyph-name="itilde" unicode="ĩ" horiz-adv-x="295" d="M212 568q-24 0 -48.5 17t-43 34t-27.5 17q-21 0 -29 -56l-77 27q8 59 34.5 92t66.5 33q24 0 48.5 -17t43 -33.5t27.5 -16.5q21 0 29 56l77 -28q-8 -59 -34.5 -92t-66.5 -33zM228 0h-161v500h161v-500z"/>
    <glyph glyph-name="Imacron" unicode="Ī" horiz-adv-x="317" d="M294 758h-271v97h271v-97zM243 710v-710h-169v710h169z"/>
    <glyph glyph-name="imacron" unicode="ī" horiz-adv-x="295" d="M276 592h-256v96h256v-96zM228 0h-161v500h161v-500z"/>
    <glyph glyph-name="Ibreve" unicode="Ĭ" horiz-adv-x="317" d="M7 871h101q2 -47 51 -47q48 0 50 47h101q-4 -59 -42.5 -91t-108.5 -32t-109 32t-43 91zM243 710v-710h-169v710h169z"/>
    <glyph glyph-name="ibreve" unicode="ĭ" horiz-adv-x="295" d="M8 723h99q0 -81 41 -81q38 0 40 81h99q-3 -161 -139 -161q-137 0 -140 161zM228 0h-161v500h161v-500z"/>
    <glyph glyph-name="Iogonek" unicode="Į" horiz-adv-x="317" d="M243 0h-55q-56 -14 -84 -39t-28 -56q0 -36 37 -36q30 0 56 41l67 -35q-44 -78 -132 -78q-58 0 -90 24.5t-32 68.5q0 71 92 110v710h169v-710z"/>
    <glyph glyph-name="iogonek" unicode="į" horiz-adv-x="295" d="M65 572v146h167v-146h-167zM106 -131q30 0 56 41l67 -35q-43 -78 -132 -78q-58 0 -90 24.5t-32 68.5q0 71 92 110v500h161v-500h-47q-56 -14 -84 -39t-28 -56q0 -36 37 -36z"/>
    <glyph glyph-name="Idot" unicode="İ" horiz-adv-x="317" d="M241 753h-164v118h164v-118zM243 710v-710h-169v710h169z"/>
    <glyph glyph-name="dotlessi" unicode="ı" horiz-adv-x="295" d="M228 0h-161v500h161v-500z"/>
    <glyph glyph-name="IJ" unicode="Ĳ" horiz-adv-x="736" d="M243 710v-710h-169v710h169zM674 710v-501q0 -111 -61 -167t-174 -56q-66 0 -105 9v138q38 -5 68 -5q103 0 103 113v469h169z"/>
    <glyph glyph-name="ij" unicode="ĳ" horiz-adv-x="595" d="M232 572h-167v146h167v-146zM532 572h-167v146h167v-146zM228 0h-161v500h161v-500zM336 -202q-45 0 -75 6v115q22 -2 43 -2q36 0 50 18t14 66v499h160v-510q0 -98 -44.5 -145t-147.5 -47z"/>
    <glyph glyph-name="Jcircumflex" unicode="Ĵ" horiz-adv-x="419" d="M357 871l72 -118h-115l-41 74l-41 -74h-115l71 118h169zM357 710v-501q0 -111 -61 -167t-174 -56q-66 0 -105 9v138q38 -5 68 -5q103 0 103 113v469h169z"/>
    <glyph glyph-name="jcircumflex" unicode="ĵ" horiz-adv-x="300" d="M233 723l76 -156h-111l-45 106l-44 -106h-112l76 156h160zM41 -202q-45 0 -75 6v115q22 -2 43 -2q36 0 50 18t14 66v499h160v-510q0 -98 -44.5 -145t-147.5 -47z"/>
    <glyph glyph-name="Kcommaaccent" unicode="Ķ" horiz-adv-x="714" d="M687 710l-248 -288l262 -422h-192l-185 303l-81 -94v-209h-169v710h169v-305l251 305h193zM358 -142h-65v102h132v-89q0 -93 -89 -111l-27 51q27 7 38 17t11 30z"/>
    <glyph glyph-name="kcommaaccent" unicode="ķ" horiz-adv-x="594" d="M581 500l-182 -199l187 -301h-179l-119 202l-55 -59v-143h-161v725h161v-421l162 196h186zM314 -142h-65v102h132v-89q0 -93 -89 -111l-27 51q27 7 38 17t11 30z"/>
    <glyph glyph-name="kgreenlandic" unicode="ĸ" horiz-adv-x="589" d="M581 0h-179l-119 202l-55 -59v-143h-161v500h161v-196l162 196h186l-182 -199z"/>
    <glyph glyph-name="Lacute" unicode="Ĺ" horiz-adv-x="548" d="M219 753h-122l99 118h139zM531 0h-457v710h169v-573h288v-137z"/>
    <glyph glyph-name="lacute" unicode="ĺ" horiz-adv-x="305" d="M213 753h-122l99 118h139zM72 725h161v-725h-161v725z"/>
    <glyph glyph-name="Lcommaaccent" unicode="Ļ" horiz-adv-x="548" d="M531 0h-457v710h169v-573h288v-137zM289 -240l-27 51q27 7 38 17t11 30h-65v102h132v-89q0 -93 -89 -111z"/>
    <glyph glyph-name="lcommaaccent" unicode="ļ" horiz-adv-x="305" d="M72 725h161v-725h-161v725zM130 -240l-27 51q27 7 38 17t11 30h-65v102h132v-89q0 -93 -89 -111z"/>
    <glyph glyph-name="Lcaron" unicode="Ľ" horiz-adv-x="548" d="M531 0h-457v710h169v-573h288v-137zM340 521l-24 48q27 5 38 14t11 25h-65v102h132v-89q0 -83 -92 -100z"/>
    <glyph glyph-name="lcaron" unicode="ľ" horiz-adv-x="382" d="M72 725h161v-725h-161v725zM317 521l-24 48q27 5 38 14t11 25h-65v102h132v-89q0 -83 -92 -100z"/>
    <glyph glyph-name="Ldot" unicode="Ŀ" horiz-adv-x="548" d="M531 0h-457v710h169v-573h288v-137zM324 500h171v-164h-171v164z"/>
    <glyph glyph-name="ldot" unicode="ŀ" horiz-adv-x="459" d="M72 725h161v-725h-161v725zM297 500h171v-164h-171v164z"/>
    <glyph glyph-name="Lslash" unicode="Ł" horiz-adv-x="548" d="M243 333v-196h288v-137h-457v243l-78 -41v96l78 41v371h169v-281l178 95v-96z"/>
    <glyph glyph-name="lslash" unicode="ł" horiz-adv-x="305" d="M233 505l54 49v-78l-54 -49v-427h-161v280l-54 -49v78l54 49v367h161v-220z"/>
    <glyph glyph-name="Nacute" unicode="Ń" horiz-adv-x="762" d="M441 753h-122l99 118h139zM229 0h-155v710h187l228 -405q34 -64 43 -92h2q0 6 -0.5 43t-0.5 48v406h155v-710h-180l-236 409q-34 65 -42 87h-2q0 -7 0.5 -45t0.5 -49v-402z"/>
    <glyph glyph-name="nacute" unicode="ń" horiz-adv-x="609" d="M382 567h-123l110 156h151zM228 0h-161v500h154v-96q52 109 166 109q163 0 163 -203v-310h-160v288q0 102 -75 102q-42 0 -64.5 -31t-22.5 -89v-270z"/>
    <glyph glyph-name="Ncommaaccent" unicode="Ņ" horiz-adv-x="762" d="M229 0h-155v710h187l228 -405q34 -64 43 -92h2q0 6 -0.5 43t-0.5 48v406h155v-710h-180l-236 409q-34 65 -42 87h-2q0 -7 0.5 -45t0.5 -49v-402zM358 -240l-27 51q27 7 38 17t11 30h-65v102h132v-89q0 -93 -89 -111z"/>
    <glyph glyph-name="ncommaaccent" unicode="ņ" horiz-adv-x="609" d="M228 0h-161v500h154v-96q52 109 166 109q163 0 163 -203v-310h-160v288q0 102 -75 102q-42 0 -64.5 -31t-22.5 -89v-270zM282 -240l-27 51q27 7 38 17t11 30h-65v102h132v-89q0 -93 -89 -111z"/>
    <glyph glyph-name="Ncaron" unicode="Ň" horiz-adv-x="762" d="M448 866h123l-106 -118h-169l-106 118h124l67 -74zM229 0h-155v710h187l228 -405q34 -64 43 -92h2q0 6 -0.5 43t-0.5 48v406h155v-710h-180l-236 409q-34 65 -42 87h-2q0 -7 0.5 -45t0.5 -49v-402z"/>
    <glyph glyph-name="ncaron" unicode="ň" horiz-adv-x="609" d="M240 562l-106 156h116l70 -105l69 105h117l-106 -156h-160zM228 0h-161v500h154v-96q52 109 166 109q163 0 163 -203v-310h-160v288q0 102 -75 102q-42 0 -64.5 -31t-22.5 -89v-270z"/>
    <glyph glyph-name="napostrophe" unicode="ŉ" d="M52 521l-24 48q27 5 38 14t11 25h-65v102h132v-89q0 -83 -92 -100zM238 0h-161v500h154v-96q52 109 166 109q163 0 163 -203v-310h-160v288q0 102 -75 102q-42 0 -64.5 -31t-22.5 -89v-270z"/>
    <glyph glyph-name="Eng" unicode="Ŋ" horiz-adv-x="762" d="M533 304v406h155v-718q0 -200 -209 -200q-55 0 -105 9v129q34 -6 87 -6q71 0 71 67v9h-24l-236 409q-34 65 -42 87h-2q0 -7 0.5 -45t0.5 -49v-402h-155v710h187l228 -405q34 -64 43 -92h2q0 6 -0.5 43t-0.5 48z"/>
    <glyph glyph-name="eng" unicode="ŋ" horiz-adv-x="609" d="M387 513q163 0 163 -203v-311q0 -104 -42 -152.5t-142 -48.5q-49 0 -82 6v115q30 -2 47 -2q33 0 46 18.5t13 66.5v286q0 102 -75 102q-42 0 -64.5 -31t-22.5 -89v-270h-161v500h154v-96q52 109 166 109z"/>
    <glyph glyph-name="Omacron" unicode="Ō" horiz-adv-x="758" d="M559 758h-360v97h360v-97zM634 84q-95 -101 -255 -101t-255 101t-95 271q0 171 95 272q94 100 255 100t255 -100q95 -101 95 -272q0 -170 -95 -271zM249 179q46 -64 130 -64t130 64q46 62 46 176q0 113 -46 177q-47 63 -130 63t-130 -63q-47 -65 -47 -177q0 -111 47 -176 z"/>
    <glyph glyph-name="omacron" unicode="ō" horiz-adv-x="577" d="M459 592h-343v96h343v-96zM288 -12q-114 0 -186 69q-73 69 -73 194t72 193q73 68 187 68t188 -68q72 -68 72 -193t-72 -194q-74 -69 -188 -69zM288 99q100 0 100 152q0 150 -100 150q-99 0 -99 -150q0 -74 25.5 -113t73.5 -39z"/>
    <glyph glyph-name="Obreve" unicode="Ŏ" horiz-adv-x="758" d="M205 871h101q6 -48 73 -48q66 0 72 48h101q-6 -60 -50.5 -91.5t-122.5 -31.5q-79 0 -123.5 32t-50.5 91zM634 84q-95 -101 -255 -101t-255 101t-95 271q0 171 95 272q94 100 255 100t255 -100q95 -101 95 -272q0 -170 -95 -271zM249 179q46 -64 130 -64t130 64 q46 62 46 176q0 113 -46 177q-47 63 -130 63t-130 -63q-47 -65 -47 -177q0 -111 47 -176z"/>
    <glyph glyph-name="obreve" unicode="ŏ" horiz-adv-x="577" d="M114 723h101q5 -81 73 -81q69 0 72 81h101q-4 -80 -49 -120.5t-124 -40.5t-124.5 40.5t-49.5 120.5zM288 -12q-114 0 -186 69q-73 69 -73 194t72 193q73 68 187 68t188 -68q72 -68 72 -193t-72 -194q-74 -69 -188 -69zM288 99q100 0 100 152q0 150 -100 150 q-99 0 -99 -150q0 -74 25.5 -113t73.5 -39z"/>
    <glyph glyph-name="Ohungarumlaut" unicode="Ő" horiz-adv-x="758" d="M350 754h-127l97 117h132zM534 754h-126l97 117h131zM634 84q-95 -101 -255 -101t-255 101t-95 271q0 171 95 272q94 100 255 100t255 -100q95 -101 95 -272q0 -170 -95 -271zM249 179q46 -64 130 -64t130 64q46 62 46 176q0 113 -46 177q-47 63 -130 63t-130 -63 q-47 -65 -47 -177q0 -111 47 -176z"/>
    <glyph glyph-name="ohungarumlaut" unicode="ő" horiz-adv-x="577" d="M257 567h-111l88 156h115zM429 567h-111l88 156h115zM288 -12q-114 0 -186 69q-73 69 -73 194t72 193q73 68 187 68t188 -68q72 -68 72 -193t-72 -194q-74 -69 -188 -69zM288 99q100 0 100 152q0 150 -100 150q-99 0 -99 -150q0 -74 25.5 -113t73.5 -39z"/>
    <glyph glyph-name="OE" unicode="Œ" horiz-adv-x="999" d="M626 301v-176h324v-125h-567q-164 0 -258 97q-96 96 -96 259q0 162 95 259q95 95 257 95h562v-125h-317v-160h300v-124h-300zM399 124h58v462h-60q-93 0 -144 -61.5t-51 -168.5q0 -105 53 -168.5t144 -63.5z"/>
    <glyph glyph-name="oe" unicode="œ" horiz-adv-x="921" d="M887 262v-48h-347q1 -51 32.5 -81t82.5 -30q75 0 109 70l118 -54q-30 -62 -90.5 -96.5t-138.5 -34.5q-123 0 -192 66q-66 -66 -173 -66q-118 0 -188 72q-71 73 -71 190q0 118 71 191q71 71 188 71q110 0 174 -67q68 67 180 67q118 0 181.5 -65.5t63.5 -184.5zM540 304 h192v4q0 53 -24 81t-69 28q-46 0 -71.5 -29.5t-27.5 -83.5zM288 99q48 0 74 39t26 112t-26 112t-74 39q-47 0 -73 -39t-26 -112t26 -112t73 -39z"/>
    <glyph glyph-name="Racute" unicode="Ŕ" horiz-adv-x="693" d="M367 871h139l-116 -118h-122zM664 0h-183l-136 272h-102v-272h-169v710h312q129 0 194.5 -57t65.5 -161q0 -69 -36.5 -120.5t-102.5 -74.5zM352 591h-109v-203h109q118 0 118 104q0 99 -118 99z"/>
    <glyph glyph-name="racute" unicode="ŕ" horiz-adv-x="412" d="M277 567h-123l110 156h151zM218 500v-129q40 141 167 141h10v-153q-7 1 -30 1q-63 0 -97 -30q-40 -37 -40 -126v-204h-161v500h151z"/>
    <glyph glyph-name="Rcommaaccent" unicode="Ŗ" horiz-adv-x="693" d="M507 297l157 -297h-183l-136 272h-102v-272h-169v710h312q129 0 194.5 -57t65.5 -161q0 -69 -36.5 -120.5t-102.5 -74.5zM352 591h-109v-203h109q118 0 118 104q0 99 -118 99zM352 -142h-65v102h132v-89q0 -93 -89 -111l-27 51q27 7 38 17t11 30z"/>
    <glyph glyph-name="rcommaaccent" unicode="ŗ" horiz-adv-x="412" d="M218 500v-129q40 141 167 141h10v-153q-7 1 -30 1q-63 0 -97 -30q-40 -37 -40 -126v-204h-161v500h151zM125 -240l-27 51q27 7 38 17t11 30h-65v102h132v-89q0 -93 -89 -111z"/>
    <glyph glyph-name="Rcaron" unicode="Ř" horiz-adv-x="693" d="M520 866l-106 -118h-169l-106 118h124l67 -74l67 74h123zM664 0h-183l-136 272h-102v-272h-169v710h312q129 0 194.5 -57t65.5 -161q0 -69 -36.5 -120.5t-102.5 -74.5zM352 591h-109v-203h109q118 0 118 104q0 99 -118 99z"/>
    <glyph glyph-name="rcaron" unicode="ř" horiz-adv-x="412" d="M135 562l-106 156h116l70 -105l69 105h117l-106 -156h-160zM218 500v-129q40 141 167 141h10v-153q-7 1 -30 1q-63 0 -97 -30q-40 -37 -40 -126v-204h-161v500h151z"/>
    <glyph glyph-name="Sacute" unicode="Ś" horiz-adv-x="626" d="M375 753h-122l99 118h139zM310 -17q-111 0 -192 43.5t-120 121.5l125 88q62 -122 193 -122q55 0 88.5 21t33.5 60q0 38 -22.5 57t-80.5 31l-95 20q-196 43 -196 213q0 98 74.5 154.5t202.5 56.5q98 0 172 -36t110 -105l-110 -93q-27 52 -74.5 80.5t-108.5 28.5 q-50 0 -80 -19.5t-30 -53.5t23.5 -53.5t79.5 -32.5l103 -22q100 -22 147 -72t47 -138q0 -104 -77 -166t-213 -62z"/>
    <glyph glyph-name="sacute" unicode="ś" horiz-adv-x="507" d="M315 567h-123l110 156h151zM262 -12q-174 0 -247 116l92 68q54 -75 157 -75q82 0 82 45q0 20 -15 29.5t-57 15.5l-78 14q-154 25 -154 153q0 72 59 115t161 43q76 0 135.5 -24.5t89.5 -68.5l-82 -74q-60 60 -153 60q-69 0 -69 -42q0 -18 12 -27t42 -14l99 -17 q147 -24 147 -152q0 -76 -58.5 -120.5t-162.5 -44.5z"/>
    <glyph glyph-name="Scircumflex" unicode="Ŝ" horiz-adv-x="626" d="M399 871l106 -118h-123l-67 74l-67 -74h-124l106 118h169zM310 -17q-111 0 -192 43.5t-120 121.5l125 88q62 -122 193 -122q55 0 88.5 21t33.5 60q0 38 -22.5 57t-80.5 31l-95 20q-196 43 -196 213q0 98 74.5 154.5t202.5 56.5q98 0 172 -36t110 -105l-110 -93 q-27 52 -74.5 80.5t-108.5 28.5q-50 0 -80 -19.5t-30 -53.5t23.5 -53.5t79.5 -32.5l103 -22q100 -22 147 -72t47 -138q0 -104 -77 -166t-213 -62z"/>
    <glyph glyph-name="scircumflex" unicode="ŝ" horiz-adv-x="507" d="M333 723l106 -156h-116l-70 105l-69 -105h-117l106 156h160zM262 -12q-174 0 -247 116l92 68q54 -75 157 -75q82 0 82 45q0 20 -15 29.5t-57 15.5l-78 14q-154 25 -154 153q0 72 59 115t161 43q76 0 135.5 -24.5t89.5 -68.5l-82 -74q-60 60 -153 60q-69 0 -69 -42 q0 -18 12 -27t42 -14l99 -17q147 -24 147 -152q0 -76 -58.5 -120.5t-162.5 -44.5z"/>
    <glyph glyph-name="Scedilla" unicode="Ş" horiz-adv-x="626" d="M303 443l103 -22q100 -22 147 -72t47 -138q0 -95 -64.5 -155.5t-180.5 -70.5l-19 -31q20 15 54 15q42 0 66.5 -22.5t24.5 -64.5q0 -45 -35 -70t-96 -25q-98 0 -127 65l84 21q11 -24 39 -24q18 0 29 10t11 27q0 16 -11 26t-28 10q-21 0 -33 -15l-60 14l28 63 q-101 5 -174.5 48t-109.5 116l125 88q62 -122 193 -122q55 0 88.5 21t33.5 60q0 38 -22.5 57t-80.5 31l-95 20q-196 43 -196 213q0 98 74.5 154.5t202.5 56.5q98 0 172 -36t110 -105l-110 -93q-27 52 -74.5 80.5t-108.5 28.5q-50 0 -80 -19.5t-30 -53.5t23.5 -53.5 t79.5 -32.5z"/>
    <glyph glyph-name="scedilla" unicode="ş" horiz-adv-x="507" d="M237 322l99 -17q147 -24 147 -152q0 -70 -50 -113.5t-139 -50.5l-21 -35q19 15 54 15q42 0 66.5 -22.5t24.5 -64.5q0 -45 -35 -70t-96 -25q-98 0 -127 65l84 21q10 -24 39 -24q18 0 29 10t11 27q0 16 -11 26t-28 10q-21 0 -33 -15l-60 14l30 69q-145 14 -206 114l92 68 q54 -75 157 -75q82 0 82 45q0 20 -15 29.5t-57 15.5l-78 14q-154 25 -154 153q0 72 59 115t161 43q76 0 135.5 -24.5t89.5 -68.5l-82 -74q-60 60 -153 60q-69 0 -69 -42q0 -18 12 -27t42 -14z"/>
    <glyph glyph-name="Scaron" unicode="Š" horiz-adv-x="626" d="M382 866h123l-106 -118h-169l-106 118h124l67 -74zM310 -17q-111 0 -192 43.5t-120 121.5l125 88q62 -122 193 -122q55 0 88.5 21t33.5 60q0 38 -22.5 57t-80.5 31l-95 20q-196 43 -196 213q0 98 74.5 154.5t202.5 56.5q98 0 172 -36t110 -105l-110 -93 q-27 52 -74.5 80.5t-108.5 28.5q-50 0 -80 -19.5t-30 -53.5t23.5 -53.5t79.5 -32.5l103 -22q100 -22 147 -72t47 -138q0 -104 -77 -166t-213 -62z"/>
    <glyph glyph-name="scaron" unicode="š" horiz-adv-x="507" d="M173 562l-106 156h116l70 -105l69 105h117l-106 -156h-160zM262 -12q-174 0 -247 116l92 68q54 -75 157 -75q82 0 82 45q0 20 -15 29.5t-57 15.5l-78 14q-154 25 -154 153q0 72 59 115t161 43q76 0 135.5 -24.5t89.5 -68.5l-82 -74q-60 60 -153 60q-69 0 -69 -42 q0 -18 12 -27t42 -14l99 -17q147 -24 147 -152q0 -76 -58.5 -120.5t-162.5 -44.5z"/>
    <glyph glyph-name="uni0162" unicode="Ţ" horiz-adv-x="594" d="M381 576v-576h-48l-28 -46q19 15 54 15q42 0 66.5 -22.5t24.5 -64.5q0 -45 -35 -70t-96 -25q-98 0 -127 65l84 21q10 -24 39 -24q18 0 29 10t11 27q0 16 -11 26t-28 10q-21 0 -33 -15l-60 14l35 79h-45v576h-206v134h581v-134h-207z"/>
    <glyph glyph-name="uni0163" unicode="ţ" horiz-adv-x="396" d="M313 -31q42 0 66.5 -22.5t24.5 -64.5q0 -45 -35 -70t-96 -25q-98 0 -127 65l84 21q10 -24 39 -24q18 0 29 10t11 27q0 16 -11 26t-28 10q-21 0 -33 -15l-60 14l34 76q-119 27 -119 163v233h-87v107h87v120l160 62v-182h119v-107h-119v-195q0 -76 73 -76q18 0 46 5v-127 q-50 -10 -90 -10l-22 -36q19 15 54 15z"/>
    <glyph glyph-name="Tcaron" unicode="Ť" horiz-adv-x="594" d="M488 866l-106 -118h-169l-106 118h124l67 -74l67 74h123zM7 710h581v-134h-207v-576h-168v576h-206v134z"/>
    <glyph glyph-name="tcaron" unicode="ť" horiz-adv-x="403" d="M322 521l-24 48q27 5 38 14t11 25h-65v102h132v-89q0 -83 -92 -100zM92 393h-87v107h87v120l160 62v-182h119v-107h-119v-195q0 -76 73 -76q18 0 46 5v-127q-50 -10 -91 -10q-188 0 -188 170v233z"/>
    <glyph glyph-name="Tbar" unicode="Ŧ" horiz-adv-x="594" d="M588 710v-134h-207v-122h171v-72h-171v-382h-168v382h-170v72h170v122h-206v134h581z"/>
    <glyph glyph-name="tbar" unicode="ŧ" horiz-adv-x="398" d="M371 500v-107h-119v-79h108v-84h-108v-32q0 -76 73 -76q18 0 46 5v-127q-50 -10 -91 -10q-188 0 -188 170v70h-72v84h72v79h-87v107h87v120l160 62v-182h119z"/>
    <glyph glyph-name="Utilde" unicode="Ũ" horiz-adv-x="726" d="M437 742q-37 0 -85 30.5t-62 30.5q-18 0 -29 -12.5t-19 -41.5l-78 27q10 55 43 85.5t82 30.5q37 0 84.5 -31t62.5 -31q18 0 29 12.5t19 41.5l77 -27q-10 -55 -42.5 -85t-81.5 -30zM62 248v462h169v-455q0 -63 35 -99t97 -36t97 36t35 99v455h169v-462q0 -122 -80 -193 q-80 -72 -221 -72t-221 72q-80 71 -80 193z"/>
    <glyph glyph-name="utilde" unicode="ũ" horiz-adv-x="603" d="M375 568q-28 0 -58 17t-54.5 34t-39.5 17q-18 0 -29.5 -13.5t-20.5 -44.5l-77 27q11 61 44 94t83 33q38 0 87.5 -33.5t65.5 -33.5q34 0 49 57l78 -27q-11 -61 -44 -94t-84 -33zM227 -12q-168 0 -168 188v324h160v-296q0 -94 72 -94q39 0 61.5 28t22.5 76v286h161v-500 h-153v91q-18 -48 -60 -75.5t-96 -27.5z"/>
    <glyph glyph-name="Umacron" unicode="Ū" horiz-adv-x="726" d="M543 758h-360v97h360v-97zM62 248v462h169v-455q0 -63 35 -99t97 -36t97 36t35 99v455h169v-462q0 -122 -80 -193q-80 -72 -221 -72t-221 72q-80 71 -80 193z"/>
    <glyph glyph-name="umacron" unicode="ū" horiz-adv-x="603" d="M468 592h-343v96h343v-96zM227 -12q-168 0 -168 188v324h160v-296q0 -94 72 -94q39 0 61.5 28t22.5 76v286h161v-500h-153v91q-18 -48 -60 -75.5t-96 -27.5z"/>
    <glyph glyph-name="Ubreve" unicode="Ŭ" horiz-adv-x="726" d="M189 871h101q6 -48 73 -48q66 0 72 48h101q-6 -60 -50.5 -91.5t-122.5 -31.5q-79 0 -123.5 32t-50.5 91zM62 248v462h169v-455q0 -63 35 -99t97 -36t97 36t35 99v455h169v-462q0 -122 -80 -193q-80 -72 -221 -72t-221 72q-80 71 -80 193z"/>
    <glyph glyph-name="ubreve" unicode="ŭ" horiz-adv-x="603" d="M123 723h101q5 -81 73 -81q69 0 72 81h101q-4 -80 -49 -120.5t-124 -40.5t-124.5 40.5t-49.5 120.5zM227 -12q-168 0 -168 188v324h160v-296q0 -94 72 -94q39 0 61.5 28t22.5 76v286h161v-500h-153v91q-18 -48 -60 -75.5t-96 -27.5z"/>
    <glyph glyph-name="Uring" unicode="Ů" horiz-adv-x="726" d="M455 777q-36 -33 -93 -33q-58 0 -92 33q-35 32 -35 85t35 85t92 32q56 0 93 -32q35 -33 35 -85q0 -53 -35 -85zM325 824q14 -15 37 -15t38 15q14 15 14 38t-14 38q-15 15 -38 15t-37 -15q-15 -15 -15 -38t15 -38zM62 248v462h169v-455q0 -63 35 -99t97 -36t97 36t35 99 v455h169v-462q0 -122 -80 -193q-80 -72 -221 -72t-221 72q-80 71 -80 193z"/>
    <glyph glyph-name="uring" unicode="ů" horiz-adv-x="603" d="M297 548q-57 0 -92 32t-35 85t35 85.5t92 32.5q58 0 93 -32.5t35 -85.5t-35 -85t-93 -32zM260 627q14 -15 37 -15t38 15q14 15 14 38t-14 38q-15 15 -38 15t-37 -15q-15 -15 -15 -38t15 -38zM227 -12q-168 0 -168 188v324h160v-296q0 -94 72 -94q39 0 61.5 28t22.5 76 v286h161v-500h-153v91q-18 -48 -60 -75.5t-96 -27.5z"/>
    <glyph glyph-name="Uhungarumlaut" unicode="Ű" horiz-adv-x="726" d="M334 754h-127l97 117h132zM518 754h-126l97 117h131zM62 248v462h169v-455q0 -63 35 -99t97 -36t97 36t35 99v455h169v-462q0 -122 -80 -193q-80 -72 -221 -72t-221 72q-80 71 -80 193z"/>
    <glyph glyph-name="uhungarumlaut" unicode="ű" horiz-adv-x="603" d="M266 567h-111l88 156h115zM438 567h-111l88 156h115zM227 -12q-168 0 -168 188v324h160v-296q0 -94 72 -94q39 0 61.5 28t22.5 76v286h161v-500h-153v91q-18 -48 -60 -75.5t-96 -27.5z"/>
    <glyph glyph-name="Uogonek" unicode="Ų" horiz-adv-x="726" d="M495 255v455h169v-462q0 -103 -57.5 -171t-162.5 -87q-79 -30 -79 -85q0 -36 37 -36q30 0 56 41l67 -35q-43 -78 -132 -78q-58 0 -90 24.5t-32 68.5q0 57 60 94q-126 8 -197.5 78.5t-71.5 185.5v462h169v-455q0 -63 35 -99t97 -36t97 36t35 99z"/>
    <glyph glyph-name="uogonek" unicode="ų" horiz-adv-x="603" d="M478 -90l67 -35q-43 -78 -132 -78q-58 0 -90 24.5t-32 68.5q0 71 92 110v91q-18 -48 -60 -75.5t-96 -27.5q-168 0 -168 188v324h160v-296q0 -94 72 -94q39 0 61.5 28t22.5 76v286h161v-500h-39q-56 -14 -84 -39t-28 -56q0 -36 37 -36q30 0 56 41z"/>
    <glyph glyph-name="Wcircumflex" unicode="Ŵ" horiz-adv-x="963" d="M566 871l106 -118h-123l-67 74l-67 -74h-124l106 118h169zM376 0h-188l-169 710h170l91 -461q5 -23 6 -59h3q1 27 8 59l100 461h169l101 -461q7 -32 8 -59h3q1 36 6 59l91 461h170l-169 -710h-189l-98 482q-4 20 -5 52h-4q-1 -28 -6 -52z"/>
    <glyph glyph-name="wcircumflex" unicode="ŵ" horiz-adv-x="778" d="M469 723l106 -156h-116l-70 105l-69 -105h-117l106 156h160zM305 0h-156l-134 500h153l63 -306q0 -1 1.5 -10.5t3.5 -20.5t2 -17h2q5 39 8 48l73 306h136l73 -306q6 -32 8 -48h2q5 40 7 48l62 306h153l-133 -500h-156l-76 295q-6 21 -7 42h-2q-1 -8 -7 -42z"/>
    <glyph glyph-name="Ycircumflex" unicode="Ŷ" horiz-adv-x="636" d="M402 871l106 -118h-123l-67 74l-67 -74h-124l106 118h169zM403 0h-170v257l-236 453h178l125 -262q12 -25 17 -52h2q5 27 17 52l124 262h179l-236 -453v-257z"/>
    <glyph glyph-name="ycircumflex" unicode="ŷ" horiz-adv-x="538" d="M356 723l106 -156h-116l-70 105l-69 -105h-117l106 156h160zM102 -202q-14 0 -66 6v118q42 -5 56 -5q77 0 96 65l7 21l-191 497h174l88 -304q8 -31 11 -58h3q1 19 12 58l81 304h161l-179 -522q-33 -96 -92.5 -138t-160.5 -42z"/>
    <glyph glyph-name="Ydieresis" unicode="Ÿ" horiz-adv-x="636" d="M271 753h-133v115h133v-115zM498 753h-133v115h133v-115zM403 0h-170v257l-236 453h178l125 -262q12 -25 17 -52h2q5 27 17 52l124 262h179l-236 -453v-257z"/>
    <glyph glyph-name="Zacute" unicode="Ź" horiz-adv-x="608" d="M368 753h-122l99 118h139zM35 0v122l342 457h-328v131h521v-122l-340 -458h355v-130h-550z"/>
    <glyph glyph-name="zacute" unicode="ź" horiz-adv-x="482" d="M306 567h-123l110 156h151zM22 0v94l238 293h-226v113h413v-91l-231 -294h246v-115h-440z"/>
    <glyph glyph-name="Zdotaccent" unicode="Ż" horiz-adv-x="608" d="M390 753h-164v118h164v-118zM35 0v122l342 457h-328v131h521v-122l-340 -458h355v-130h-550z"/>
    <glyph glyph-name="zdotaccent" unicode="ż" horiz-adv-x="482" d="M328 572h-167v146h167v-146zM22 0v94l238 293h-226v113h413v-91l-231 -294h246v-115h-440z"/>
    <glyph glyph-name="Zcaron" unicode="Ž" horiz-adv-x="608" d="M375 866h123l-106 -118h-169l-106 118h124l67 -74zM35 0v122l342 457h-328v131h521v-122l-340 -458h355v-130h-550z"/>
    <glyph glyph-name="zcaron" unicode="ž" horiz-adv-x="482" d="M164 562l-106 156h116l70 -105l69 105h117l-106 -156h-160zM22 0v94l238 293h-226v113h413v-91l-231 -294h246v-115h-440z"/>
    <glyph glyph-name="florin" unicode="ƒ" horiz-adv-x="459" d="M403 586q-44 0 -64 -22t-28 -77l-8 -59h105v-106h-119l-64 -472h-162l63 472h-102v106h116l6 45q16 123 71 179t168 56q30 0 65 -7l-1 -120q-33 5 -46 5z"/>
    <glyph glyph-name="AEacute" unicode="Ǽ" horiz-adv-x="997" d="M722 871h139l-116 -118h-122zM642 301v-176h306v-125h-474v156h-236l-83 -156h-168l408 710h546v-125h-299v-160h282v-124h-282zM474 602l-173 -326h173v326z"/>
    <glyph glyph-name="aeacute" unicode="ǽ" horiz-adv-x="867" d="M480 723h151l-138 -156h-123zM833 259v-43h-327q1 -51 29.5 -82t75.5 -31q68 0 99 70l118 -54q-29 -62 -87 -96.5t-133 -34.5q-136 0 -200 94q-29 -45 -82 -69.5t-119 -24.5q-84 0 -132.5 40.5t-48.5 110.5q0 64 44.5 100.5t137.5 48.5l141 19v16q0 85 -75 85 q-73 0 -77 -73h-158q6 83 67.5 130t164.5 47q110 0 164 -60q63 60 165 60q111 0 172 -66.5t61 -186.5zM506 306h171q1 53 -20.5 82t-61.5 29q-41 0 -65 -29t-24 -81v-1zM354 191v37l-80 -13q-86 -14 -86 -70q0 -25 18.5 -40t48.5 -15q43 0 71 27t28 74z"/>
    <glyph glyph-name="Oslashacute" unicode="Ǿ" horiz-adv-x="758" d="M419 871h139l-116 -118h-122zM686 692l-52 -66q95 -101 95 -271t-95 -271t-255 -101q-120 0 -205 58l-48 -62l-54 39l52 66q-95 101 -95 271q0 171 95 272q94 100 255 100q120 0 205 -58l48 62zM202 355q0 -79 26 -139l263 336q-44 43 -112 43q-83 0 -130 -63.5 t-47 -176.5zM379 115q83 0 129.5 63.5t46.5 176.5q0 81 -25 138l-263 -335q44 -43 112 -43z"/>
    <glyph glyph-name="oslashacute" unicode="ǿ" horiz-adv-x="577" d="M339 723h151l-138 -156h-123zM512 490l-37 -45q73 -70 73 -194q0 -125 -72 -194q-74 -69 -188 -69q-86 0 -151 41l-37 -46l-36 26l38 47q-73 70 -73 195t72 193q73 68 187 68q88 0 151 -39l36 44zM189 251q0 -45 9 -76l159 196q-25 30 -69 30q-99 0 -99 -150zM288 99 q100 0 100 152q0 45 -9 75l-159 -196q25 -31 68 -31z"/>
    <glyph glyph-name="Scommaaccent" unicode="Ș" horiz-adv-x="626" d="M310 -17q-111 0 -192 43.5t-120 121.5l125 88q62 -122 193 -122q55 0 88.5 21t33.5 60q0 38 -22.5 57t-80.5 31l-95 20q-196 43 -196 213q0 98 74.5 154.5t202.5 56.5q98 0 172 -36t110 -105l-110 -93q-27 52 -74.5 80.5t-108.5 28.5q-50 0 -80 -19.5t-30 -53.5 t23.5 -53.5t79.5 -32.5l103 -22q100 -22 147 -72t47 -138q0 -104 -77 -166t-213 -62zM306 -240l-27 51q27 7 38 17t11 30h-65v102h132v-89q0 -93 -89 -111z"/>
    <glyph glyph-name="scommaaccent" unicode="ș" horiz-adv-x="507" d="M262 -12q-174 0 -247 116l92 68q54 -75 157 -75q82 0 82 45q0 20 -15 29.5t-57 15.5l-78 14q-154 25 -154 153q0 72 59 115t161 43q76 0 135.5 -24.5t89.5 -68.5l-82 -74q-60 60 -153 60q-69 0 -69 -42q0 -18 12 -27t42 -14l99 -17q147 -24 147 -152q0 -76 -58.5 -120.5 t-162.5 -44.5zM243 -240l-27 51q27 7 38 17t11 30h-65v102h132v-89q0 -93 -89 -111z"/>
    <glyph glyph-name="uni021A" unicode="Ț" horiz-adv-x="594" d="M7 710h581v-134h-207v-576h-168v576h-206v134zM297 -142h-65v102h132v-89q0 -93 -89 -111l-27 51q27 7 38 17t11 30z"/>
    <glyph glyph-name="uni021B" unicode="ț" horiz-adv-x="396" d="M92 393h-87v107h87v120l160 62v-182h119v-107h-119v-195q0 -76 73 -76q18 0 46 5v-127q-50 -10 -91 -10q-188 0 -188 170v233zM229 -240l-27 51q27 7 38 17t11 30h-65v102h132v-89q0 -93 -89 -111z"/>
    <glyph glyph-name="uni0237" unicode="ȷ" horiz-adv-x="300" d="M41 -202q-45 0 -75 6v115q22 -2 43 -2q36 0 50 18t14 66v499h160v-510q0 -98 -44.5 -145t-147.5 -47z"/>
    <glyph glyph-name="uni0243" unicode="Ƀ" horiz-adv-x="663" d="M631 199q0 -84 -55.5 -137.5t-156.5 -60.5v-108h-59v107h-72v-107h-59v107h-155v695h155v90h59v-90h72v90h59v-91q96 -7 145 -52.5t49 -122.5q0 -58 -32.5 -99.5t-93.5 -56.5q69 -10 106.5 -53t37.5 -111zM446 497q0 85 -109 85h-106v-176h106q109 0 109 91zM231 112h120 q55 0 84 27t29 73q0 43 -28.5 68t-81.5 25h-123v-193z"/>
    <glyph glyph-name="circumflex" unicode="ˆ" horiz-adv-x="600" d="M308 723l106 -156h-116l-70 105l-69 -105h-117l106 156h160z"/>
    <glyph glyph-name="caron" unicode="ˇ" horiz-adv-x="600" d="M148 562l-106 156h116l70 -105l69 105h117l-106 -156h-160z"/>
    <glyph glyph-name="breve" unicode="˘" horiz-adv-x="600" d="M51 723h101q5 -81 73 -81q69 0 72 81h101q-4 -80 -49 -120.5t-124 -40.5t-124.5 40.5t-49.5 120.5z"/>
    <glyph glyph-name="dotaccent" unicode="˙" horiz-adv-x="600" d="M217 572h-167v146h167v-146z"/>
    <glyph glyph-name="ring" unicode="˚" horiz-adv-x="600" d="M165 548q-57 0 -92 32t-35 85t35 85.5t92 32.5q58 0 93 -32.5t35 -85.5t-35 -85t-93 -32zM128 627q14 -15 37 -15t38 15q14 15 14 38t-14 38q-15 15 -38 15t-37 -15q-15 -15 -15 -38t15 -38z"/>
    <glyph glyph-name="ogonek" unicode="˛" horiz-adv-x="600" d="M237 -90l67 -35q-44 -78 -132 -78q-58 0 -90 24.5t-32 68.5q0 71 92 110h114q-56 -14 -84 -39t-28 -56q0 -36 37 -36q30 0 56 41z"/>
    <glyph glyph-name="tilde" unicode="˜" horiz-adv-x="600" d="M330 568q-36 0 -86 34t-66 34q-18 0 -29.5 -13.5t-20.5 -44.5l-77 27q11 61 44 94t83 33q38 0 87.5 -33.5t65.5 -33.5q34 0 49 57l78 -27q-11 -61 -44 -94t-84 -33z"/>
    <glyph glyph-name="hungarumlaut" unicode="˝" horiz-adv-x="600" d="M185 567h-111l88 156h115zM357 567h-111l88 156h115z"/>
    <glyph glyph-name="gravecomb" unicode="̀" horiz-adv-x="0" d="M-142 723l110 -156h-123l-138 156h151z"/>
    <glyph glyph-name="acutecomb" unicode="́" horiz-adv-x="0" d="M-168 567h-123l110 156h151z"/>
    <glyph glyph-name="uni0302" unicode="̂" horiz-adv-x="0" d="M-148 723l106 -156h-116l-70 105l-69 -105h-117l106 156h160z"/>
    <glyph glyph-name="tildecomb" unicode="̃" horiz-adv-x="0" d="M-178 568q-36 0 -86 34t-66 34q-18 0 -29.5 -13.5t-20.5 -44.5l-77 27q11 61 44 94t83 33q37 0 87 -33.5t66 -33.5q34 0 49 57l78 -27q-11 -61 -44 -94t-84 -33z"/>
    <glyph glyph-name="uni0304" unicode="̄" horiz-adv-x="0" d="M-46 592h-343v96h343v-96z"/>
    <glyph glyph-name="uni0306" unicode="̆" horiz-adv-x="0" d="M-398 723h101q5 -81 73 -81q69 0 72 81h101q-4 -80 -49 -120.5t-124 -40.5t-124.5 40.5t-49.5 120.5z"/>
    <glyph glyph-name="uni0307" unicode="̇" horiz-adv-x="0" d="M-49 572h-167v146h167v-146z"/>
    <glyph glyph-name="uni0308" unicode="̈" horiz-adv-x="0" d="M-268 573h-139v133h139v-133zM-48 573h-139v133h139v-133z"/>
    <glyph glyph-name="uni030A" unicode="̊" horiz-adv-x="0" d="M-166 548q-57 0 -92 32t-35 85t35 85.5t92 32.5q58 0 93 -32.5t35 -85.5t-35 -85t-93 -32zM-204 627q15 -15 38 -15t37 15q15 15 15 38t-15 38q-14 15 -37 15t-38 -15q-14 -15 -14 -38t14 -38z"/>
    <glyph glyph-name="uni030B" unicode="̋" horiz-adv-x="0" d="M-348 567h-111l88 156h115zM-176 567h-111l88 156h115z"/>
    <glyph glyph-name="uni030C" unicode="̌" horiz-adv-x="0" d="M-308 562l-106 156h116l70 -105l69 105h117l-106 -156h-160z"/>
    <glyph glyph-name="uni0312" unicode="̒" horiz-adv-x="0" d="M-93 768l27 -51q-27 -7 -38 -17t-11 -30h65v-102h-132v89q0 93 89 111z"/>
    <glyph glyph-name="uni0326" unicode="̦" horiz-adv-x="0" d="M-139 -240l-27 51q27 7 38 17t11 30h-65v102h132v-89q0 -93 -89 -111z"/>
    <glyph glyph-name="uni0327" unicode="̧" horiz-adv-x="0" d="M-282 -79l38 86h76l-32 -53q20 15 54 15q42 0 66.5 -22.5t24.5 -64.5q0 -45 -35 -70t-96 -25q-98 0 -127 65l84 21q11 -24 39 -24q18 0 29 10t11 27q0 16 -11 26t-28 10q-21 0 -33 -15z"/>
    <glyph glyph-name="uni0328" unicode="̨" horiz-adv-x="0" d="M-129 -90l67 -35q-44 -78 -132 -78q-58 0 -90 24.5t-32 68.5q0 71 92 110h114q-56 -14 -84 -39t-28 -56q0 -36 37 -36q30 0 56 41z"/>
    <glyph glyph-name="uni0394" unicode="Δ" horiz-adv-x="670" d="M660 0h-651l239 710h176zM466 119l-131 429l-137 -429h268z"/>
    <glyph glyph-name="uni03A9" unicode="Ω" horiz-adv-x="682" d="M640 130v-130h-250l-17 270q119 23 119 165q0 74 -41 117.5t-110 43.5t-110 -43.5t-41 -117.5q0 -143 120 -165l-18 -270h-250v130h139l5 56q-74 27 -114 92.5t-40 159.5q0 129 85 208t224 79q140 0 225 -79t85 -208q0 -94 -40 -159.5t-114 -92.5l4 -56h139z"/>
    <glyph glyph-name="uni03BC" unicode="μ" horiz-adv-x="612" d="M384 214v286h161v-500h-153v91q-18 -48 -60 -75.5t-96 -27.5q-20 0 -25 1v-184h-144v641h1v54h160v-296q0 -94 72 -94q39 0 61.5 28t22.5 76z"/>
    <glyph glyph-name="pi" unicode="π" horiz-adv-x="640" d="M615 112v-106q-43 -12 -79 -12q-81 0 -118.5 38t-37.5 117v244h-119v-393h-157v393h-80v107h592v-107h-79v-235q0 -49 48 -49q12 0 30 3z"/>
    <glyph glyph-name="uni0E3F" unicode="฿" horiz-adv-x="663" d="M487 363q69 -10 106.5 -52.5t37.5 -111.5q0 -95 -63 -147t-175 -52h-33v-107h-58v107h-228v695h228v91h58v-91h21q111 0 171.5 -47t60.5 -136q0 -56 -33 -95t-93 -54zM302 585h-77v-182h77v182zM452 497q0 81 -92 87v-180q92 6 92 93zM225 308v-199h77v199h-77zM360 308 v-199q53 1 82 28t29 75q0 46 -29 71t-81 25h-1z"/>
    <glyph glyph-name="Wgrave" unicode="Ẁ" horiz-adv-x="963" d="M438 871l99 -118h-122l-116 118h139zM376 0h-188l-169 710h170l91 -461q5 -23 6 -59h3q1 27 8 59l100 461h169l101 -461q7 -32 8 -59h3q1 36 6 59l91 461h170l-169 -710h-189l-98 482q-4 20 -5 52h-4q-1 -28 -6 -52z"/>
    <glyph glyph-name="wgrave" unicode="ẁ" horiz-adv-x="778" d="M340 723l110 -156h-123l-138 156h151zM305 0h-156l-134 500h153l63 -306q0 -1 1.5 -10.5t3.5 -20.5t2 -17h2q5 39 8 48l73 306h136l73 -306q6 -32 8 -48h2q5 40 7 48l62 306h153l-133 -500h-156l-76 295q-6 21 -7 42h-2q-1 -8 -7 -42z"/>
    <glyph glyph-name="Wacute" unicode="Ẃ" horiz-adv-x="963" d="M542 753h-122l99 118h139zM376 0h-188l-169 710h170l91 -461q5 -23 6 -59h3q1 27 8 59l100 461h169l101 -461q7 -32 8 -59h3q1 36 6 59l91 461h170l-169 -710h-189l-98 482q-4 20 -5 52h-4q-1 -28 -6 -52z"/>
    <glyph glyph-name="wacute" unicode="ẃ" horiz-adv-x="778" d="M451 567h-123l110 156h151zM305 0h-156l-134 500h153l63 -306q0 -1 1.5 -10.5t3.5 -20.5t2 -17h2q5 39 8 48l73 306h136l73 -306q6 -32 8 -48h2q5 40 7 48l62 306h153l-133 -500h-156l-76 295q-6 21 -7 42h-2q-1 -8 -7 -42z"/>
    <glyph glyph-name="Wdieresis" unicode="Ẅ" horiz-adv-x="963" d="M435 753h-133v115h133v-115zM662 753h-133v115h133v-115zM376 0h-188l-169 710h170l91 -461q5 -23 6 -59h3q1 27 8 59l100 461h169l101 -461q7 -32 8 -59h3q1 36 6 59l91 461h170l-169 -710h-189l-98 482q-4 20 -5 52h-4q-1 -28 -6 -52z"/>
    <glyph glyph-name="wdieresis" unicode="ẅ" horiz-adv-x="778" d="M348 573h-139v133h139v-133zM568 573h-139v133h139v-133zM305 0h-156l-134 500h153l63 -306q0 -1 1.5 -10.5t3.5 -20.5t2 -17h2q5 39 8 48l73 306h136l73 -306q6 -32 8 -48h2q5 40 7 48l62 306h153l-133 -500h-156l-76 295q-6 21 -7 42h-2q-1 -8 -7 -42z"/>
    <glyph glyph-name="Ygrave" unicode="Ỳ" horiz-adv-x="636" d="M274 871l99 -118h-122l-116 118h139zM403 0h-170v257l-236 453h178l125 -262q12 -25 17 -52h2q5 27 17 52l124 262h179l-236 -453v-257z"/>
    <glyph glyph-name="ygrave" unicode="ỳ" horiz-adv-x="538" d="M227 723l110 -156h-123l-138 156h151zM102 -202q-14 0 -66 6v118q42 -5 56 -5q77 0 96 65l7 21l-191 497h174l88 -304q8 -31 11 -58h3q1 19 12 58l81 304h161l-179 -522q-33 -96 -92.5 -138t-160.5 -42z"/>
    <glyph glyph-name="uni2002" unicode=" " horiz-adv-x="500"/>
    <glyph glyph-name="uni2003" unicode=" " horiz-adv-x="1000"/>
    <glyph glyph-name="uni2004" unicode=" " horiz-adv-x="0"/>
    <glyph glyph-name="uni2005" unicode=" " horiz-adv-x="250"/>
    <glyph glyph-name="uni2009" unicode=" " horiz-adv-x="135"/>
    <glyph glyph-name="uni200A" unicode=" " horiz-adv-x="75"/>
    <glyph glyph-name="endash" unicode="–" horiz-adv-x="621" d="M44 221v114h534v-114h-534z"/>
    <glyph glyph-name="emdash" unicode="—" horiz-adv-x="857" d="M44 221v114h769v-114h-769z"/>
    <glyph glyph-name="quoteleft" unicode="‘" horiz-adv-x="285" d="M187 737l33 -66q-42 -14 -57 -32.5t-15 -54.5v-2h80v-164h-171v155q0 64 31 103.5t99 60.5z"/>
    <glyph glyph-name="quoteright" unicode="’" horiz-adv-x="285" d="M98 391l-33 66q42 14 57 32.5t15 54.5v2h-80v164h171v-155q0 -64 -31 -103.5t-99 -60.5z"/>
    <glyph glyph-name="quotesinglbase" unicode="‚" horiz-adv-x="285" d="M98 -155l-33 66q42 14 57 32.5t15 54.5v2h-80v164h171v-155q0 -64 -31 -103.5t-99 -60.5z"/>
    <glyph glyph-name="quotedblleft" unicode="“" horiz-adv-x="501" d="M187 737l33 -66q-42 -14 -57 -32.5t-15 -54.5v-2h80v-164h-171v155q0 64 31 103.5t99 60.5zM403 737l33 -66q-42 -14 -57 -32.5t-15 -54.5v-2h80v-164h-171v155q0 64 31 103.5t99 60.5z"/>
    <glyph glyph-name="quotedblright" unicode="”" horiz-adv-x="501" d="M98 392l-33 66q42 14 57 32.5t15 54.5v2h-80v164h171v-155q0 -64 -31 -103.5t-99 -60.5zM314 392l-33 66q42 14 57 32.5t15 54.5v2h-80v164h171v-155q0 -64 -31 -103.5t-99 -60.5z"/>
    <glyph glyph-name="quotedblbase" unicode="„" horiz-adv-x="501" d="M98 -154l-33 66q42 14 57 32.5t15 54.5v2h-80v164h171v-155q0 -64 -31 -103.5t-99 -60.5zM314 -154l-33 66q42 14 57 32.5t15 54.5v2h-80v164h171v-155q0 -64 -31 -103.5t-99 -60.5z"/>
    <glyph glyph-name="dagger" unicode="†" horiz-adv-x="494" d="M444 406h-140v-506h-114v506h-139v94h139v220h114v-220h140v-94z"/>
    <glyph glyph-name="daggerdbl" unicode="‡" horiz-adv-x="494" d="M444 500v-94h-140v-188h139v-94h-139v-224h-114v224h-139v94h139v188h-139v94h139v220h114v-220h140z"/>
    <glyph glyph-name="bullet" unicode="•" horiz-adv-x="373" d="M186 212q-56 0 -92.5 35.5t-36.5 91.5q0 57 36.5 93t92.5 36q57 0 93.5 -36t36.5 -93q0 -56 -36.5 -91.5t-93.5 -35.5z"/>
    <glyph glyph-name="ellipsis" unicode="…" horiz-adv-x="849" d="M57 160h171v-160h-171v160zM339 160h171v-160h-171v160zM621 160h171v-160h-171v160z"/>
    <glyph glyph-name="perthousand" unicode="‰" horiz-adv-x="1296" d="M256 -14h-105l468 737h104zM208 341q-90 0 -144 52t-53 139q-1 86 53 137.5t144 51.5q89 0 143.5 -52t53.5 -138q1 -86 -53.5 -138t-143.5 -52zM208 431q38 0 59 25.5t21 74.5t-21 74.5t-59 25.5q-39 0 -60.5 -25.5t-21.5 -73.5q0 -101 82 -101zM668 -13q-90 0 -144 52 t-53 139q-1 86 53 137.5t144 51.5q89 0 143.5 -52t53.5 -138q1 -86 -53.5 -138t-143.5 -52zM1089 -13q-90 0 -144 52t-53 139q-1 86 53 137.5t144 51.5q89 0 143.5 -52t53.5 -138q1 -86 -53.5 -138t-143.5 -52zM668 77q38 0 59 25.5t21 74.5t-21 74.5t-59 25.5 q-39 0 -60.5 -25.5t-21.5 -73.5q0 -101 82 -101zM1089 77q38 0 59 25.5t21 74.5t-21 74.5t-59 25.5q-39 0 -60.5 -25.5t-21.5 -73.5q0 -101 82 -101z"/>
    <glyph glyph-name="guilsinglleft" unicode="‹" horiz-adv-x="338" d="M319 67h-139l-163 209l166 206h138l-163 -205z"/>
    <glyph glyph-name="guilsinglright" unicode="›" horiz-adv-x="338" d="M321 276l-163 -209h-139l161 210l-163 205h138z"/>
    <glyph glyph-name="fraction" unicode="⁄" horiz-adv-x="211" d="M-62 -17h-108l444 744h106z"/>
    <glyph glyph-name="uni20A9" unicode="₩" horiz-adv-x="926" d="M908 457v-59h-74l-17 -79h91v-59h-105l-59 -260h-172l-49 260h-120l-49 -260h-172l-59 260h-104v59h91l-18 79h-73v59h60l-54 238h149l39 -238h127l48 238h151l48 -238h127l39 238h149l-54 -238h60zM445 486l-5 -29h46l-5 29q-10 49 -16 128h-3q-12 -101 -17 -128z M328 398h-106l13 -79h77zM429 398l-15 -79h98l-15 79h-68zM615 319h76l13 79h-105zM288 201l12 59h-55l9 -58q10 -60 13 -112h3q4 39 18 111zM672 202l10 58h-55l12 -59q14 -77 17 -111h3q3 52 13 112z"/>
    <glyph glyph-name="Euro" unicode="€" horiz-adv-x="680" d="M518 207l149 -41q-36 -88 -110.5 -134.5t-182.5 -46.5q-128 0 -210 70.5t-106 196.5h-53v67h45q-1 8 -1 36v24h-44v66h51q23 127 106.5 196t215.5 69q110 0 184 -46t100 -128l-148 -42q-34 91 -139 91q-124 0 -154 -140h239v-66h-248v-23q0 -29 1 -37h247v-67h-236 q17 -67 58 -104t98 -37q48 0 84.5 25.5t53.5 70.5z"/>
    <glyph glyph-name="uni20B9" unicode="₹" horiz-adv-x="573" d="M64 695h506v-95h-177q40 -37 50 -99h127v-63h-124q-6 -73 -58 -121t-139 -61l210 -256h-175l-220 271v73h83q116 0 131 94h-214v63h213q-17 99 -127 99h-86v95z"/>
    <glyph glyph-name="uni20BA" unicode="₺" horiz-adv-x="586" d="M447 245l137 -22q-51 -223 -273 -223h-223v260l-71 -21v68l71 21v78l-71 -21v69l71 21v220h161v-174l202 59v-68l-202 -59v-78l202 59v-69l-202 -59v-187h43q66 0 101 32t54 94z"/>
    <glyph glyph-name="uni20BD" unicode="₽" horiz-adv-x="624" d="M342 259h-96v-74h130v-63h-130v-122h-161v122h-83v63h83v74h-82v107h82v329h270q115 0 186 -59q69 -58 69 -156q0 -104 -70.5 -162.5t-197.5 -58.5zM322 580h-76v-214h76q54 0 84 28t30 79q0 50 -30 78.5t-84 28.5z"/>
    <glyph glyph-name="uni2105" unicode="℅" horiz-adv-x="875" d="M763 735l-538 -748h-121l538 748h121zM1 542q0 88 50 140t142 52q76 0 122.5 -36.5t54.5 -100.5l-115 -19q-8 63 -64 63q-34 0 -53 -26.5t-19 -71.5q0 -48 19 -75.5t55 -27.5q25 0 42 17t21 46l114 -22q-13 -62 -58.5 -98t-120.5 -36q-90 0 -140 54t-50 141zM815 40 q-53 -53 -139 -53t-139 53t-53 141q0 89 52.5 141t139.5 52t139 -52t52 -141t-52 -141zM748 181q0 48 -19.5 74.5t-52.5 26.5q-34 0 -54 -26.5t-20 -74.5t20 -75t54 -27q33 0 52.5 27t19.5 75z"/>
    <glyph glyph-name="uni2113" unicode="ℓ" horiz-adv-x="557" d="M267 212q4 -57 28.5 -79.5t81.5 -22.5q43 0 72 7v-117q-47 -14 -112 -14q-105 0 -161.5 40.5t-68.5 123.5l-75 -21l-35 112q57 15 107 33v239q0 109 54 165.5t154 56.5q99 0 154.5 -50.5t55.5 -142.5q0 -207 -255 -330zM266 560v-214q53 34 76.5 78.5t23.5 110.5 q0 50 -12.5 71.5t-39.5 21.5q-48 0 -48 -68z"/>
    <glyph glyph-name="uni2116" unicode="№" horiz-adv-x="1273" d="M229 0h-155v710h187l228 -405q34 -64 43 -92h2q0 6 -0.5 43t-0.5 48v406h155v-710h-180l-236 409q-34 65 -42 87h-2q0 -7 0.5 -45t0.5 -49v-402zM1170 241q-68 -66 -178 -66q-111 0 -177 66q-67 66 -67 177t67 177q66 66 177 66q110 0 178 -66q66 -66 66 -177t-66 -177z M992 289q44 0 69 34.5t25 94.5q0 59 -25 93.5t-69 34.5t-69 -34t-25 -94q0 -59 26 -94t68 -35zM1236 0h-488v105h488v-105z"/>
    <glyph glyph-name="trademark" unicode="™" horiz-adv-x="903" d="M226 304h-98v324h-123v82h350v-82h-129v-324zM487 304h-89v406h140l73 -243q9 -37 10 -63h3q1 26 10 63l72 243h140v-406h-89v238q0 44 2 88h-1q-11 -45 -19 -74l-75 -252h-84l-75 252q-13 43 -18 74h-2q2 -44 2 -88v-238z"/>
    <glyph glyph-name="uni2126" unicode="Ω" horiz-adv-x="682" d="M640 130v-130h-250l-17 270q119 23 119 165q0 74 -41 117.5t-110 43.5t-110 -43.5t-41 -117.5q0 -143 120 -165l-18 -270h-250v130h139l5 56q-74 27 -114 92.5t-40 159.5q0 129 85 208t224 79q140 0 225 -79t85 -208q0 -94 -40 -159.5t-114 -92.5l4 -56h139z"/>
    <glyph glyph-name="estimated" unicode="℮" horiz-adv-x="722" d="M693 386v-40h-479v-239q64 -46 161 -46q82 0 139.5 29.5t103.5 95.5l55 -43q-101 -158 -298 -158q-147 0 -247 92q-99 91 -99 274q0 173 98 269q98 95 242 95q147 0 236 -90q88 -91 88 -239zM516 413v190q-59 44 -152 44q-86 0 -150 -47v-187h302z"/>
    <glyph glyph-name="uni2153" unicode="⅓" horiz-adv-x="859" d="M212 -17h-108l444 744h106zM206 320h-97v256q-17 -13 -65 -13h-20v89h14q66 0 89 59h79v-391zM670 -9q-74 0 -118.5 34.5t-44.5 92.5l100 11q0 -29 17 -44.5t47 -15.5q54 0 54 48q0 45 -70 45h-22v72h23q59 0 59 47q0 42 -50 42q-56 0 -56 -66l-97 16q0 58 43 92.5 t116 34.5q69 0 107.5 -28.5t38.5 -78.5q0 -32 -21 -56t-57 -33q90 -16 90 -93q0 -55 -43 -87.5t-116 -32.5z"/>
    <glyph glyph-name="uni2154" unicode="⅔" horiz-adv-x="951" d="M304 -17h-108l444 744h106zM333 320h-307v74q107 62 153 104t46 91q0 51 -49 51q-23 0 -36.5 -13.5t-13.5 -36.5q0 -7 5 -32l-102 10q-3 16 -3 29q0 56 41.5 89.5t113.5 33.5q71 0 110 -32.5t39 -91.5q0 -114 -167 -195h170v-81zM762 -9q-74 0 -118.5 34.5t-44.5 92.5 l100 11q0 -29 17 -44.5t47 -15.5q54 0 54 48q0 45 -70 45h-22v72h23q59 0 59 47q0 42 -50 42q-56 0 -56 -66l-97 16q0 58 43 92.5t116 34.5q69 0 107.5 -28.5t38.5 -78.5q0 -32 -21 -56t-57 -33q90 -16 90 -93q0 -55 -43 -87.5t-116 -32.5z"/>
    <glyph glyph-name="oneeighth" unicode="⅛" horiz-adv-x="871" d="M104 -17l444 744h106l-442 -744h-108zM206 320h-97v256q-17 -13 -65 -13h-20v89h14q66 0 89 59h79v-391zM770 216q76 -31 76 -104q0 -54 -46.5 -87.5t-122.5 -33.5q-74 0 -120.5 31t-46.5 81q0 72 72 94q-59 30 -59 92q0 49 42 80t110 31q70 0 111.5 -27.5t41.5 -74.5 q0 -58 -58 -82zM675 331q-56 0 -56 -41q0 -32 60 -48l21 -5q32 17 32 49q0 21 -15 33t-42 12zM630 80q19 -15 48 -15.5t49.5 13.5t17.5 35q0 34 -59 51l-36 10q-39 -16 -39 -57q0 -24 19 -37z"/>
    <glyph glyph-name="threeeighths" unicode="⅜" horiz-adv-x="971" d="M204 -17l444 744h106l-442 -744h-108zM344 431q0 -55 -43 -87.5t-116 -32.5q-74 0 -118.5 34.5t-44.5 92.5l100 11q0 -29 17 -44.5t47 -15.5q54 0 54 48q0 45 -70 45h-22v72h23q59 0 59 47q0 42 -50 42q-56 0 -56 -66l-97 16q0 58 43 92.5t116 34.5q69 0 107.5 -28.5 t38.5 -78.5q0 -32 -21 -56t-57 -33q90 -16 90 -93zM870 216q76 -31 76 -104q0 -54 -46.5 -87.5t-122.5 -33.5q-74 0 -120.5 31t-46.5 81q0 72 72 94q-59 30 -59 92q0 49 42 80t110 31q70 0 111.5 -27.5t41.5 -74.5q0 -58 -58 -82zM775 331q-56 0 -56 -41q0 -32 60 -48l21 -5 q32 17 32 49q0 21 -15 33t-42 12zM730 80q19 -15 48 -15.5t49.5 13.5t17.5 35q0 34 -59 51l-36 10q-39 -16 -39 -57q0 -24 19 -37z"/>
    <glyph glyph-name="fiveeighths" unicode="⅝" horiz-adv-x="968" d="M201 -17l444 744h106l-442 -744h-108zM342 453q0 -65 -42.5 -103.5t-115.5 -38.5q-63 0 -104.5 29.5t-50.5 80.5l98 15q12 -46 57 -46q28 0 43.5 15.5t15.5 43.5q0 31 -15.5 49t-42.5 18q-43 0 -57 -41l-90 8l26 228h256v-80h-183l-11 -75q28 34 86 34q61 0 95.5 -36.5 t34.5 -100.5zM867 216q76 -31 76 -104q0 -54 -46.5 -87.5t-122.5 -33.5q-74 0 -120.5 31t-46.5 81q0 72 72 94q-59 30 -59 92q0 49 42 80t110 31q70 0 111.5 -27.5t41.5 -74.5q0 -58 -58 -82zM772 331q-56 0 -56 -41q0 -32 60 -48l21 -5q32 17 32 49q0 21 -15 33t-42 12z M727 80q19 -15 48 -15.5t49.5 13.5t17.5 35q0 34 -59 51l-36 10q-39 -16 -39 -57q0 -24 19 -37z"/>
    <glyph glyph-name="seveneighths" unicode="⅞" horiz-adv-x="877" d="M110 -17l444 744h106l-442 -744h-108zM179 320h-110v4q2 77 40 158q37 81 100 144h-191v85h293v-76q-131 -125 -132 -305v-10zM776 216q76 -31 76 -104q0 -54 -46.5 -87.5t-122.5 -33.5q-74 0 -120.5 31t-46.5 81q0 72 72 94q-59 30 -59 92q0 49 42 80t110 31 q70 0 111.5 -27.5t41.5 -74.5q0 -58 -58 -82zM681 331q-56 0 -56 -41q0 -32 60 -48l21 -5q32 17 32 49q0 21 -15 33t-42 12zM636 80q19 -15 48 -15.5t49.5 13.5t17.5 35q0 34 -59 51l-36 10q-39 -16 -39 -57q0 -24 19 -37z"/>
    <glyph glyph-name="arrowleft" unicode="←" horiz-adv-x="1025" d="M950 371v-82h-680v-106l-196 147l196 147v-106h680z"/>
    <glyph glyph-name="arrowup" unicode="↑" horiz-adv-x="443" d="M266 -35h-88v589h-104l148 196l147 -196h-103v-589z"/>
    <glyph glyph-name="arrowright" unicode="→" horiz-adv-x="1025" d="M75 289v82h680v106l196 -147l-196 -147v106h-680z"/>
    <glyph glyph-name="arrowdown" unicode="↓" horiz-adv-x="443" d="M177 745h88v-589h104l-148 -196l-147 196h103v589z"/>
    <glyph glyph-name="arrowboth" unicode="↔" horiz-adv-x="1025" d="M754 183v106h-484v-106l-196 147l196 147v-106h484v106l196 -147z"/>
    <glyph glyph-name="arrowupdn" unicode="↕" horiz-adv-x="443" d="M222 -40l-148 196h104v398h-104l148 196l147 -196h-103v-398h103z"/>
    <glyph glyph-name="uni2196" unicode="↖" horiz-adv-x="877" d="M744 -21l-576 576l-94 -98v253h240l-86 -93l575 -575z"/>
    <glyph glyph-name="uni2197" unicode="↗" horiz-adv-x="877" d="M803 458l-94 98l-576 -576l-59 63l575 575l-86 93h240v-253z"/>
    <glyph glyph-name="uni2198" unicode="↘" horiz-adv-x="877" d="M133 742l576 -576l94 98v-253h-240l86 93l-575 575z"/>
    <glyph glyph-name="uni2199" unicode="↙" horiz-adv-x="877" d="M74 264l94 -98l576 576l59 -63l-575 -575l86 -93h-240v253z"/>
    <glyph glyph-name="uni21A9" unicode="↩" horiz-adv-x="959" d="M270 289v-106l-196 147l196 147v-106h382q66 0 103 31.5t37 90.5t-37 90.5t-103 31.5h-223v82h234q104 0 163 -53t59 -150q0 -96 -59.5 -150.5t-162.5 -54.5h-393z"/>
    <glyph glyph-name="uni21AA" unicode="↪" horiz-adv-x="959" d="M885 330l-196 -147v106h-393q-103 0 -162.5 54.5t-59.5 150.5q0 97 59 150t163 53h234v-82h-223q-66 0 -103 -31.5t-37 -90.5t37 -90.5t103 -31.5h382v106z"/>
    <glyph glyph-name="uni21B0" unicode="↰" horiz-adv-x="811" d="M737 0h-88v559h-379v-106l-196 147l196 147v-106h467v-641z"/>
    <glyph glyph-name="uni21B1" unicode="↱" horiz-adv-x="811" d="M162 559v-559h-88v641h467v106l196 -147l-196 -147v106h-379z"/>
    <glyph glyph-name="uni21B2" unicode="↲" horiz-adv-x="811" d="M649 151v559h88v-641h-467v-106l-196 147l196 147v-106h379z"/>
    <glyph glyph-name="uni21B3" unicode="↳" horiz-adv-x="811" d="M74 710h88v-559h379v106l196 -147l-196 -147v106h-467v641z"/>
    <glyph glyph-name="uni21B4" unicode="↴" horiz-adv-x="895" d="M74 723h645v-557h102l-147 -196l-147 196h104v475h-557v82z"/>
    <glyph glyph-name="uni21BB" unicode="↻" horiz-adv-x="1006" d="M932 384l-147 -196l-148 196h105q-10 117 -92 189q-82 71 -196 71q-122 0 -204 -79t-82 -210q0 -130 82 -211t204 -81q131 0 223 98l57 -67q-115 -118 -280 -118q-159 0 -269 106q-111 105 -111 271q0 167 111 273q110 105 269 105q152 0 258 -96q108 -97 118 -251h102z "/>
    <glyph glyph-name="uni21C4" unicode="⇄" horiz-adv-x="1057" d="M901 487v-82h-631v-106l-196 147l196 147v-106h631zM158 254h629v107l196 -148l-196 -147v106h-629v82z"/>
    <glyph glyph-name="uni21C5" unicode="⇅" horiz-adv-x="686" d="M508 16h-88v538h-103l147 196l147 -196h-103v-538zM369 156l-147 -196l-148 196h104v545h88v-545h103z"/>
    <glyph glyph-name="partialdiff" unicode="∂" horiz-adv-x="643" d="M277 721q156 0 238 -97.5t82 -285.5q0 -172 -76.5 -263.5t-219.5 -91.5q-119 0 -192 65q-73 64 -73 178q0 106 64 170t171 64t169 -72q-8 200 -170 200q-60 0 -123 -33l-59 116q86 50 189 50zM311 99q59 0 93 45.5t36 124.5q-46 78 -127 78q-52 0 -83.5 -33t-31.5 -87 q0 -57 31.5 -92.5t81.5 -35.5z"/>
    <glyph glyph-name="emptyset" unicode="∅" horiz-adv-x="541" d="M466 563l46 -44l-56 -60q52 -62 52 -154q0 -105 -66 -171q-68 -66 -172 -66q-80 0 -138 39l-57 -61l-46 43l56 61q-52 62 -52 154q0 105 67 171q67 65 171 65q79 0 138 -39zM154 305q0 -37 15 -64l159 172q-26 14 -57 14q-51 0 -84 -34t-33 -88zM386 304q0 33 -14 63 l-159 -171q26 -14 57 -14q51 0 83.5 34t32.5 88z"/>
    <glyph glyph-name="uni2206" unicode="∆" horiz-adv-x="670" d="M660 0h-651l239 710h176zM466 119l-131 429l-137 -429h268z"/>
    <glyph glyph-name="product" unicode="∏" horiz-adv-x="674" d="M602 -88h-150v662h-229v-662h-151v793h530v-793z"/>
    <glyph glyph-name="summation" unicode="∑" horiz-adv-x="590" d="M545 -88h-495v126l246 289l-233 253v125h470v-122h-298l232 -256l-250 -293h328v-122z"/>
    <glyph glyph-name="minus" unicode="−" horiz-adv-x="562" d="M518 275h-474v107h474v-107z"/>
    <glyph glyph-name="radical" unicode="√" d="M30 243v120h164l79 -285l178 656h139l-243 -828h-146l-107 337h-64z"/>
    <glyph glyph-name="infinity" unicode="∞" d="M444 491q67 0 108 -44t41 -118q0 -71 -42 -118q-42 -46 -106 -46q-85 0 -135 80q-53 -80 -134 -80q-67 0 -108 44t-41 118q0 71 42 118q42 46 106 46q85 0 135 -80q53 80 134 80zM187 260q23 0 40 15t36 50q-35 71 -77 71q-26 0 -41 -17.5t-15 -50.5t15 -50.5t42 -17.5z M434 260q26 0 41 17.5t15 50.5t-15 50.5t-42 17.5q-23 0 -40 -15t-36 -50q35 -71 77 -71z"/>
    <glyph glyph-name="integral" unicode="∫" d="M165 -115q-21 0 -63 5v112q1 0 21 -1.5t27 -1.5q47 0 66.5 24t19.5 79v408q0 98 55 151.5t159 53.5q33 0 71 -5v-114q-19 4 -49 4q-45 0 -65 -24.5t-20 -78.5v-410q0 -97 -57 -150t-165 -52z"/>
    <glyph glyph-name="approxequal" unicode="≈" d="M427 345q-40 0 -121 32q-78 31 -111 31t-67.5 -13t-56.5 -34v112q20 19 55.5 31.5t68.5 12.5q50 0 125 -31q76 -32 107 -32q75 0 122 46v-112q-19 -19 -53.5 -31t-68.5 -12zM427 151q-40 0 -121 32q-78 31 -111 31q-34 0 -68 -13t-56 -33v112q20 19 55 31t69 12 q50 0 125 -31q76 -32 107 -32q72 0 122 47v-112q-19 -19 -53.5 -31.5t-68.5 -12.5z"/>
    <glyph glyph-name="notequal" unicode="≠" d="M518 478v-106h-159l-34 -86h193v-106h-234l-46 -117h-82l46 117h-158v106h199l34 86h-233v106h274l44 113h82l-44 -113h118z"/>
    <glyph glyph-name="lessequal" unicode="≤" d="M536 255v-121l-473 198v110l473 198v-119l-338 -133zM64 0v103h471v-103h-471z"/>
    <glyph glyph-name="greaterequal" unicode="≥" d="M557 332l-473 -198v121l338 133l-338 133v119l473 -198v-110zM85 103h471v-103h-471v103z"/>
    <glyph glyph-name="uni2460" unicode="①" horiz-adv-x="801" d="M665 86q-107 -103 -264 -103t-264 103q-108 102 -108 269q0 168 108 270q107 102 264 102q156 0 264 -102q107 -102 107 -270q0 -167 -107 -269zM401 42q126 0 215 86q88 85 88 227t-88 227q-89 86 -215 86q-127 0 -216 -86q-88 -85 -88 -227t88 -227q89 -86 216 -86z M462 159h-97v256q-17 -13 -65 -13h-20v89h14q66 0 89 59h79v-391z"/>
    <glyph glyph-name="uni2461" unicode="②" horiz-adv-x="801" d="M665 86q-107 -103 -264 -103t-264 103q-108 102 -108 269q0 168 108 270q107 102 264 102q156 0 264 -102q107 -102 107 -270q0 -167 -107 -269zM401 42q126 0 215 86q88 85 88 227t-88 227q-89 86 -215 86q-127 0 -216 -86q-88 -85 -88 -227t88 -227q89 -86 216 -86z M554 169h-307v74q107 62 153 104t46 91q0 51 -49 51q-23 0 -36.5 -13.5t-13.5 -36.5q0 -7 5 -32l-102 10q-3 16 -3 29q0 56 41.5 89.5t113.5 33.5q71 0 110 -32.5t39 -91.5q0 -114 -167 -195h170v-81z"/>
    <glyph glyph-name="uni2462" unicode="③" horiz-adv-x="801" d="M665 86q-107 -103 -264 -103t-264 103q-108 102 -108 269q0 168 108 270q107 102 264 102q156 0 264 -102q107 -102 107 -270q0 -167 -107 -269zM401 42q126 0 215 86q88 85 88 227t-88 227q-89 86 -215 86q-127 0 -216 -86q-88 -85 -88 -227t88 -227q89 -86 216 -86z M403 150q-74 0 -118.5 34.5t-44.5 92.5l100 11q0 -29 17 -44.5t47 -15.5q54 0 54 48q0 45 -70 45h-22v72h23q59 0 59 47q0 42 -50 42q-56 0 -56 -66l-97 16q0 58 43 92.5t116 34.5q69 0 107.5 -28.5t38.5 -78.5q0 -32 -21 -56t-57 -33q90 -17 90 -93q0 -55 -43 -87.5 t-116 -32.5z"/>
    <glyph glyph-name="uni2463" unicode="④" horiz-adv-x="801" d="M665 86q-107 -103 -264 -103t-264 103q-108 102 -108 269q0 168 108 270q107 102 264 102q156 0 264 -102q107 -102 107 -270q0 -167 -107 -269zM401 42q126 0 215 86q88 85 88 227t-88 227q-89 86 -215 86q-127 0 -216 -86q-88 -85 -88 -227t88 -227q89 -86 216 -86z M560 318v-73h-62v-83h-95v83h-188v67l172 241h111v-235h62zM403 318v144l-99 -144h99z"/>
    <glyph glyph-name="uni2464" unicode="⑤" horiz-adv-x="801" d="M665 86q-107 -103 -264 -103t-264 103q-108 102 -108 269q0 168 108 270q107 102 264 102q156 0 264 -102q107 -102 107 -270q0 -167 -107 -269zM401 42q126 0 215 86q88 85 88 227t-88 227q-89 86 -215 86q-127 0 -216 -86q-88 -85 -88 -227t88 -227q89 -86 216 -86z M399 155q-63 0 -104.5 29.5t-50.5 80.5l98 15q12 -46 57 -46q28 0 43.5 15.5t15.5 43.5q0 31 -15.5 49t-42.5 18q-43 0 -57 -41l-90 8l26 228h256v-80h-183l-11 -75q28 34 86 34q61 0 95.5 -36.5t34.5 -100.5q0 -65 -42.5 -103.5t-115.5 -38.5z"/>
    <glyph glyph-name="uni2465" unicode="⑥" horiz-adv-x="801" d="M401 727q156 0 264 -102q107 -102 107 -270q0 -167 -107 -269q-107 -103 -264 -103t-264 103q-108 102 -108 269q0 168 108 270q107 102 264 102zM401 42q126 0 215 86q88 85 88 227t-88 227q-89 86 -215 86q-127 0 -216 -86q-88 -85 -88 -227t88 -227q89 -86 216 -86z M427 423q58 0 92 -35t34 -96q0 -64 -42 -103t-109 -39q-79 0 -122.5 52t-43.5 143q0 101 45.5 157.5t124.5 56.5q123 0 143 -101l-96 -17q-9 41 -48 41q-68 0 -75 -103q32 44 97 44zM400 227q57 0 57 61q0 27 -15.5 44t-42.5 17q-44 0 -66 -43q12 -79 67 -79z"/>
    <glyph glyph-name="uni2466" unicode="⑦" horiz-adv-x="801" d="M665 86q-107 -103 -264 -103t-264 103q-108 102 -108 269q0 168 108 270q107 102 264 102q156 0 264 -102q107 -102 107 -270q0 -167 -107 -269zM401 42q126 0 215 86q88 85 88 227t-88 227q-89 86 -215 86q-127 0 -216 -86q-88 -85 -88 -227t88 -227q89 -86 216 -86z M445 465h-191v85h293v-76q-131 -125 -132 -305v-10h-110v4q2 77 40 158q37 81 100 144z"/>
    <glyph glyph-name="uni2467" unicode="⑧" horiz-adv-x="801" d="M401 727q156 0 264 -102q107 -102 107 -270q0 -167 -107 -269q-107 -103 -264 -103t-264 103q-108 102 -108 269q0 168 108 270q107 102 264 102zM401 42q126 0 215 86q88 85 88 227t-88 227q-89 86 -215 86q-127 0 -216 -86q-88 -85 -88 -227t88 -227q89 -86 216 -86z M493 375q76 -31 76 -104q0 -54 -46.5 -87.5t-122.5 -33.5q-74 0 -120.5 31t-46.5 81q0 72 72 94q-59 30 -59 92q0 49 42 80t110 31q70 0 111.5 -27.5t41.5 -74.5q0 -58 -58 -82zM398 490q-56 0 -56 -41q0 -31 60 -48l21 -5q32 17 32 49q0 21 -15 33t-42 12zM353 239 q19 -15 48 -15.5t49.5 13.5t17.5 35q0 34 -59 51l-36 10q-39 -17 -39 -57q0 -24 19 -37z"/>
    <glyph glyph-name="uni2468" unicode="⑨" horiz-adv-x="801" d="M401 727q156 0 264 -102q107 -102 107 -270q0 -167 -107 -269q-107 -103 -264 -103t-264 103q-108 102 -108 269q0 168 108 270q107 102 264 102zM401 42q126 0 215 86q88 85 88 227t-88 227q-89 86 -215 86q-127 0 -216 -86q-88 -85 -88 -227t88 -227q89 -86 216 -86z M397 559q80 0 121.5 -50.5t41.5 -146.5q0 -102 -41.5 -157t-123.5 -55q-62 0 -100.5 27t-48.5 78l96 19q10 -46 56 -46q58 0 65 97q-35 -27 -84 -27q-62 0 -99.5 34t-37.5 92q0 60 42 97.5t113 37.5zM397 372q41 0 65 32q-8 80 -64 80q-27 0 -43.5 -15.5t-16.5 -41.5 q0 -24 16 -39.5t43 -15.5z"/>
    <glyph glyph-name="uni24EA" unicode="⓪" horiz-adv-x="801" d="M665 86q-107 -103 -264 -103t-264 103q-108 102 -108 269q0 168 108 270q107 102 264 102q156 0 264 -102q107 -102 107 -270q0 -167 -107 -269zM401 42q126 0 215 86q88 85 88 227t-88 227q-89 86 -215 86q-127 0 -216 -86q-88 -85 -88 -227t88 -227q89 -86 216 -86z M533 204q-47 -54 -132 -54t-131 54q-47 55 -47 150q0 96 47 150.5t131 54.5q85 0 131.5 -54t46.5 -151t-46 -150zM326 354q0 -125 75 -125t75 125q0 126 -75 126t-75 -126z"/>
    <glyph glyph-name="uni24FF" unicode="⓿" horiz-adv-x="801" d="M665 86q-107 -103 -264 -103t-264 103q-108 102 -108 269t108 270q108 102 264 102t264 -102q107 -104 107 -270q0 -167 -107 -269zM269 205q47 -54 132 -54t132 54q47 55 47 150q0 97 -47 151t-132 54t-132 -54q-47 -56 -47 -151t47 -150zM475 355q0 -124 -74 -124 t-74 124q0 125 74 125t74 -125z"/>
    <glyph glyph-name="lozenge" unicode="◊" horiz-adv-x="589" d="M555 355l-198 -372h-127l-196 372l196 372h127zM423 355l-130 250l-126 -250l126 -250z"/>
    <glyph glyph-name="circle" unicode="○" horiz-adv-x="801" d="M665 86q-107 -103 -264 -103t-264 103q-108 102 -108 269q0 168 108 270q107 102 264 102q156 0 264 -102q107 -102 107 -270q0 -167 -107 -269zM401 42q126 0 215 86q88 85 88 227t-88 227q-89 86 -215 86q-127 0 -216 -86q-88 -85 -88 -227t88 -227q89 -86 216 -86z "/>
    <glyph glyph-name="uni25CF" unicode="●" horiz-adv-x="801" d="M665 86q-107 -103 -264 -103t-264 103q-108 102 -108 269t108 270q108 102 264 102t264 -102q107 -104 107 -270q0 -167 -107 -269z"/>
    <glyph glyph-name="uni2776" unicode="❶" horiz-adv-x="801" d="M665 86q-107 -103 -264 -103t-264 103q-108 102 -108 269t108 270q108 102 264 102t264 -102q107 -104 107 -270q0 -167 -107 -269zM364 413v-254h100v392h-82q-21 -59 -90 -59h-13v-92h20q46 0 65 13z"/>
    <glyph glyph-name="uni2777" unicode="❷" horiz-adv-x="801" d="M665 86q-107 -103 -264 -103t-264 103q-108 102 -108 269t108 270q108 102 264 102t264 -102q107 -104 107 -270q0 -167 -107 -269zM246 245v-76h310v83h-169q167 78 167 193q0 60 -40 92t-112 32t-114 -33.5t-42 -89.5q0 -12 3 -29l104 -10q-4 21 -4 32q0 23 13 36 t35 13q48 0 48 -50q0 -48 -46 -90.5t-153 -102.5z"/>
    <glyph glyph-name="uni2778" unicode="❸" horiz-adv-x="801" d="M665 86q-107 -103 -264 -103t-264 103q-108 102 -108 269t108 270q108 102 264 102t264 -102q107 -104 107 -270q0 -167 -107 -269zM403 151q73 0 116.5 32.5t43.5 87.5q0 75 -90 92q37 9 58 33t21 56q0 51 -39 79.5t-109 28.5q-73 0 -116.5 -35t-43.5 -93l100 -15 q0 64 54 64q49 0 49 -41q0 -46 -58 -46h-19v-72h18q69 0 69 -45q0 -47 -53 -47q-28 0 -45 16t-17 43l-103 -11q1 -59 45 -93t119 -34z"/>
    <glyph glyph-name="uni2779" unicode="❹" horiz-adv-x="801" d="M665 86q-107 -103 -264 -103t-264 103q-108 102 -108 269t108 270q108 102 264 102t264 -102q107 -104 107 -270q0 -167 -107 -269zM408 245v-82h98v82h61v75h-61v234h-114l-172 -240v-69h188zM408 320h-96l96 141v-141z"/>
    <glyph glyph-name="uni277A" unicode="❺" horiz-adv-x="801" d="M665 86q-107 -103 -264 -103t-264 103q-108 102 -108 269t108 270q108 102 264 102t264 -102q107 -104 107 -270q0 -167 -107 -269zM399 155q74 0 116.5 38t42.5 104q0 64 -34.5 100.5t-95.5 36.5q-59 0 -86 -32l11 71h184v82h-259l-26 -228l92 -8q13 40 56 40 q27 0 42 -18t15 -48q0 -27 -15 -42t-42 -15q-46 0 -56 46l-101 -17q9 -51 51 -80.5t105 -29.5z"/>
    <glyph glyph-name="uni277B" unicode="❻" horiz-adv-x="801" d="M665 86q-107 -103 -264 -103t-264 103q-108 102 -108 269t108 270q108 102 264 102t264 -102q107 -104 107 -270q0 -167 -107 -269zM403 151q66 0 108.5 39.5t42.5 102.5q0 61 -34 96t-92 35q-68 0 -96 -45q6 102 73 102q38 0 47 -40l98 17q-20 102 -144 102 q-79 0 -125 -56.5t-46 -157.5q0 -91 44 -143t124 -52zM401 229q-54 0 -67 79q22 40 65 40q26 0 41.5 -16.5t15.5 -42.5q0 -29 -15 -44.5t-40 -15.5z"/>
    <glyph glyph-name="uni277C" unicode="❼" horiz-adv-x="801" d="M665 86q-107 -103 -264 -103t-264 103q-108 102 -108 269t108 270q108 102 264 102t264 -102q107 -104 107 -270q0 -167 -107 -269zM305 159h113q0 189 131 314v78h-295v-87h190q-64 -63 -101.5 -145t-37.5 -160z"/>
    <glyph glyph-name="uni277D" unicode="❽" horiz-adv-x="801" d="M665 86q-107 -103 -264 -103t-264 103q-108 102 -108 269t108 270q108 102 264 102t264 -102q107 -104 107 -270q0 -167 -107 -269zM400 151q76 0 123 33t47 87q0 75 -77 105q59 26 59 82q0 47 -42 74.5t-112 27.5q-69 0 -111.5 -30.5t-42.5 -80.5q0 -61 60 -92 q-73 -21 -73 -94q0 -50 47 -81t122 -31zM423 398l-20 4q-60 15 -60 47q0 40 54 40q57 0 57 -44q0 -31 -31 -47zM449 239q-28 -23 -73 -9.5t-41 47.5q0 38 38 56l34 -10q60 -17 60 -50q0 -21 -18 -34z"/>
    <glyph glyph-name="uni277E" unicode="❾" horiz-adv-x="801" d="M665 86q-107 -103 -264 -103t-264 103q-108 102 -108 269t108 270q108 102 264 102t264 -102q107 -104 107 -270q0 -167 -107 -269zM398 151q83 0 124.5 55t41.5 157q0 96 -41.5 146.5t-122.5 50.5q-71 0 -113.5 -37.5t-42.5 -97.5q0 -58 37.5 -92t99.5 -34q50 0 84 25 q-7 -94 -64 -94q-43 0 -54 45l-99 -20q10 -50 49 -77t101 -27zM400 374q-25 0 -41.5 15t-16.5 38q0 26 16 41t43 15q30 0 45 -19t19 -61q-27 -29 -65 -29z"/>
    <glyph glyph-name="uniE000" unicode="" horiz-adv-x="895" d="M176 166v557h645v-82h-557v-475h104l-147 -196l-147 196h102z"/>
    <glyph glyph-name="uniF8FF" unicode="" horiz-adv-x="1018" d="M998 710v-47h-552v-47h552v-48h-552v-47h552v-48h-552v-47h552v-47h-552v-48h552v-47h-978v426h978zM72 652l-5 15l13 9h-16l-5 15l-4 -15h-16l13 -9l-5 -15l12 9zM146 691l-4 -15h-16l13 -9l-5 -15l12 10l13 -10l-5 15l12 9h-15zM233 691l-4 -15h-16l13 -9l-5 -15l12 10 l13 -10l-5 15l12 9h-15zM320 691l-5 -15h-15l13 -9l-5 -15l12 10l13 -10l-5 15l12 9h-15zM420 652l-5 15l12 9h-15l-5 15l-5 -15h-15l12 -9l-4 -15l12 10zM103 647l-5 -15h-15l12 -9l-4 -14l12 9l12 -9l-4 14l12 9h-15zM376 609l-5 14l13 9h-16l-4 15l-5 -15h-15l12 -9 l-5 -14l13 9zM193 364h80v93h94v80h-94v94h-80v-94h-93v-80h93v-93zM72 565l-5 15l13 9h-16l-5 14l-4 -14h-16l13 -9l-5 -15l12 9zM146 603l-4 -14h-16l13 -9l-5 -15l12 9l13 -9l-5 15l12 9h-15zM320 603l-5 -14h-15l13 -9l-5 -15l12 9l13 -9l-5 15l12 9h-15zM420 565l-5 15 l12 9h-15l-5 14l-5 -14h-15l12 -9l-4 -15l12 9zM72 478l-5 14l13 10h-16l-5 14l-4 -14h-16l13 -10l-5 -14l12 9zM420 478l-5 14l12 10h-15l-5 14l-5 -14h-15l12 -10l-4 -14l12 9zM72 391l-5 14l13 9h-16l-5 15l-4 -15h-16l13 -9l-5 -14l12 9zM159 391l-5 14l12 9h-15l-5 15 l-4 -15h-16l13 -9l-5 -14l12 9zM333 391l-5 14l12 9h-15l-5 15l-5 -15h-15l13 -9l-5 -14l12 9zM420 391l-5 14l12 9h-15l-5 15l-5 -15h-15l12 -9l-4 -14l12 9zM103 356l12 -9l-4 15l12 9h-15l-5 14l-5 -14h-15l12 -9l-4 -15zM364 356l12 -9l-5 15l13 9h-16l-4 14l-5 -14h-15 l12 -9l-5 -15zM59 312l13 -9l-5 15l13 9h-16l-5 15l-4 -15h-16l13 -9l-5 -15zM146 312l13 -9l-5 15l12 9h-15l-5 15l-4 -15h-16l13 -9l-5 -15zM233 312l13 -9l-5 15l12 9h-15l-5 15l-4 -15h-16l13 -9l-5 -15zM320 312l13 -9l-5 15l12 9h-15l-5 15l-5 -15h-15l13 -9l-5 -15z M407 312l13 -9l-5 15l12 9h-15l-5 15l-5 -15h-15l12 -9l-4 -15zM997 189h-977v48h977v-48zM998 95h-978v47h978v-47zM998 0h-978v47h978v-47z"/>
    <glyph glyph-name="uni00A40301" horiz-adv-x="419" d="M332 753h-120l75 118h137zM357 710v-501q0 -111 -61 -167t-174 -56q-66 0 -105 9v138q38 -5 68 -5q103 0 103 113v469h169z"/>
    <glyph glyph-name="i.loclTRK" horiz-adv-x="295" d="M232 572h-167v146h167v-146zM228 0h-161v500h161v-500z"/>
    <glyph glyph-name="uni006A0301" horiz-adv-x="300" d="M215 567h-123l82 156h142zM41 -202q-45 0 -75 6v115q22 -2 43 -2q36 0 50 18t14 66v499h160v-510q0 -98 -44.5 -145t-147.5 -47z"/>
    <glyph glyph-name="zero.zero" horiz-adv-x="667" d="M333 710q142 0 221 -95.5t79 -267.5q0 -171 -79 -266.5t-221 -95.5q-141 0 -220 95.5t-79 266.5q0 172 79 267.5t220 95.5zM211 236l219 292q-33 57 -97 57t-98 -61q-35 -62 -35 -177q0 -59 11 -111zM333 110q65 0 99.5 60.5t34.5 176.5q0 60 -11 112l-219 -292 q33 -57 96 -57z"/>
    <glyph glyph-name="zero.tf" d="M584 347q0 -362 -274 -362t-274 362q0 363 274 363t274 -363zM224 157q27 -55 86 -55t87 55q26 54 28 190q-1 134 -28 190t-87 56t-87 -56t-28 -190q2 -136 29 -190z"/>
    <glyph glyph-name="one.tf" d="M411 695v-566h165v-129h-503v129h177v351q-49 -41 -142 -41h-32v145h26q71 0 112 26.5t66 84.5h131z"/>
    <glyph glyph-name="two.tf" d="M553 0h-500v118q121 85 236 199q90 90 90 176q0 43 -21.5 66.5t-59.5 23.5q-40 0 -62 -25t-22 -69q0 -19 5 -49l-159 17q-4 19 -4 39q0 98 67 156q65 58 178 58q116 0 177.5 -54.5t61.5 -156.5q0 -116 -111 -227q-79 -78 -178 -144h302v-128z"/>
    <glyph glyph-name="three.tf" d="M314 -15q-123 0 -194 60.5t-72 165.5l162 15q2 -56 28.5 -86.5t73.5 -30.5q45 0 69 25.5t24 71.5q0 43 -28.5 67.5t-81.5 24.5h-35v110h33q45 0 71 25.5t26 67.5q0 41 -21.5 63.5t-61.5 22.5q-93 0 -93 -116l-160 22q0 100 69.5 158.5t191.5 58.5q110 0 173 -50t63 -137 q0 -58 -34.5 -102.5t-91.5 -58.5q144 -32 144 -174q0 -92 -69 -147q-71 -56 -186 -56z"/>
    <glyph glyph-name="four.tf" d="M493 0h-148v153h-316v109l287 433h177v-424h98v-118h-98v-153zM162 271h183v197q0 53 3 92h-1q-16 -42 -40 -78l-106 -160q-24 -36 -39 -51z"/>
    <glyph glyph-name="five.tf" d="M301 -15q-105 0 -172.5 52.5t-77.5 141.5l151 23q8 -43 35.5 -67t68.5 -24q48 0 75.5 32t27.5 88q0 61 -26.5 95t-74.5 34q-39 0 -66.5 -22.5t-37.5 -61.5l-134 13l43 406h414v-128h-309l-20 -160q49 70 151 70q99 0 156.5 -64t57.5 -178t-71 -182q-73 -68 -191 -68z"/>
    <glyph glyph-name="six.tf" d="M358 469q98 0 155.5 -63t57.5 -170q0 -112 -68 -182q-69 -69 -182 -69q-134 0 -206 91t-72 259q0 178 74.5 276.5t208.5 98.5q99 0 159.5 -47t74.5 -135l-152 -24q-15 85 -88 85q-57 0 -89.5 -52.5t-34.5 -147.5q53 80 162 80zM316 107q46 0 73.5 33t27.5 89q0 57 -26 90 t-72 33q-40 0 -72.5 -25.5t-49.5 -69.5q6 -71 37 -110.5t82 -39.5z"/>
    <glyph glyph-name="seven.tf" d="M336 1l-176 -1v12q0 292 244 549h-343v134h503v-124q-228 -237 -228 -546v-24z"/>
    <glyph glyph-name="eight.tf" d="M443 387q142 -50 142 -194q0 -94 -75 -151q-76 -57 -202 -57q-124 0 -197 54q-75 53 -75 142q0 128 130 165q-110 53 -110 170q0 87 69 141q70 53 182 53t179 -47.5t67 -129.5q0 -108 -110 -146zM303 601q-43 0 -67.5 -22.5t-24.5 -62.5q0 -35 24 -56t75 -36l39 -10 q58 31 58 96q0 43 -27.5 67t-76.5 24zM313 103q52 0 83 25.5t31 68.5q0 39 -26 63.5t-81 39.5l-54 14q-72 -34 -72 -111q0 -45 32.5 -72.5t86.5 -27.5z"/>
    <glyph glyph-name="nine.tf" d="M298 710q133 0 204 -90t71 -261q0 -181 -69.5 -277.5t-207.5 -96.5q-103 0 -166 48t-77 138l152 27q8 -41 34 -64.5t64 -23.5q118 0 118 207q-46 -70 -145 -70q-105 0 -170 62q-64 61 -64 163q0 107 69 173q70 65 187 65zM306 364q38 0 70 23.5t45 61.5q-2 65 -32 104 t-85 39q-49 0 -78.5 -31.5t-29.5 -83.5q0 -50 30.5 -81.5t79.5 -31.5z"/>
    <glyph glyph-name="zero.tf.zero" d="M36 347q0 363 274 363t274 -363q0 -362 -274 -362t-274 362zM310 593q-60 0 -87 -56t-28 -190q0 -47 5 -100l203 274q-24 72 -93 72zM310 102q60 0 87 56t28 189q0 48 -5 101l-203 -274q25 -72 93 -72z"/>
    <glyph glyph-name="dollar.tf" d="M574 195q0 -96 -62.5 -151t-174.5 -59v-92h-45v93q-206 14 -255 194l139 45q26 -104 116 -121v180l-46 12q-91 24 -139.5 79t-48.5 133q0 91 62.5 144.5t171.5 57.5v90h45v-91q99 -7 159.5 -57t70.5 -134l-133 -39q-14 101 -97 116v-180l65 -18q88 -24 130 -72.5 t42 -129.5zM204 516q0 -64 88 -88v168q-88 -7 -88 -80zM337 272v-171q87 5 87 80q0 36 -20.5 57t-66.5 34z"/>
    <glyph glyph-name="cent.tf" d="M339 408v-311q73 14 86 105l130 -27q-13 -78 -69.5 -129t-146.5 -57v-90h-49v90q-111 9 -171 82q-61 71 -61 181q0 113 60 181.5t172 77.5v83h49v-82q90 -5 146.5 -53t69.5 -131l-132 -22q-13 88 -84 102zM196 257q0 -141 94 -160v311q-94 -16 -94 -151z"/>
    <glyph glyph-name="sterling.tf" d="M442 197l145 -23q-12 -89 -64 -139t-126 -50q-42 0 -98 13t-107 13q-67 0 -133 -19l-32 95q119 41 119 170q0 27 -5 62h-89v76h71q-18 63 -18 109q0 97 60 151.5t165 54.5q196 0 228 -180l-144 -32q-12 98 -84 98q-79 0 -79 -89q0 -36 17 -112h140v-76h-124q3 -23 3 -47 q0 -56 -28 -97.5t-79 -61.5q22 5 58 5q15 0 65 -5t64 -5q31 0 51 23t24 66z"/>
    <glyph glyph-name="florin.tf" d="M474 594q-41 0 -61 -22.5t-27 -77.5l-8 -63h99v-106h-113l-60 -475h-162l60 475h-95v106h108l6 47q16 125 71 178.5t167 53.5q29 0 65 -6v-115q-25 5 -50 5z"/>
    <glyph glyph-name="yen.tf" d="M419 695h171l-187 -367h138v-70h-152v-61h152v-70h-152v-127h-158v127h-152v70h152v61h-152v70h138l-187 367h171l91 -219q11 -29 17 -60h2q6 31 17 60z"/>
    <glyph glyph-name="Euro.tf" d="M453 200l142 -42q-22 -83 -87 -128t-161 -45q-118 0 -186 71t-83 199h-63v67h59v60h-59v66h62q14 125 86 193.5t192 68.5q95 0 157.5 -43t80.5 -126l-142 -45q-12 50 -36 74t-65 24q-103 0 -114 -146h180v-66h-182v-60h182v-67h-179q13 -150 113 -150q73 0 103 95z"/>
    <glyph glyph-name="percent.tf" d="M157 -15h-84l386 745h80zM165 386q-65 0 -103.5 45.5t-38.5 124.5q0 76 38 121t102 45q63 0 101.5 -46t38.5 -123q0 -75 -38.5 -121t-99.5 -46zM164 468q46 0 46 82v11q0 37 -12 58t-34 21q-47 0 -47 -78v-11q0 -83 47 -83zM459 -11q-65 0 -103.5 45.5t-38.5 124.5 q0 76 38 121t102 45q63 0 101.5 -46t38.5 -123q0 -75 -38.5 -121t-99.5 -46zM458 71q46 0 46 82v11q0 37 -12 58t-34 21q-47 0 -47 -78v-11q0 -83 47 -83z"/>
    <glyph glyph-name="perthousand.tf" d="M256 459q-36 -39 -96 -39t-95 39q-36 39 -36 110t36 110q35 39 95 39t96 -39q35 -40 35 -110t-35 -110zM119 579v-20q0 -68 41 -68t41 68v20q0 68 -41 68t-41 -68zM51 282l498 321v-78l-498 -323v80zM460 285q61 0 96 -38.5t35 -109.5t-35 -110t-96 -39q-50 0 -80 30 q-32 -30 -81 -30q-61 0 -96 39t-35 110t35 109.5t96 38.5q49 0 81 -30q30 30 80 30zM340 126v21q0 67 -41 67t-41 -67v-21q0 -67 41 -67t41 67zM501 126v21q0 67 -41 67t-41 -67v-21q0 -67 41 -67t41 67z"/>
    <glyph glyph-name="uni0243.case" horiz-adv-x="663" d="M631 202q0 -85 -55.5 -139.5t-156.5 -61.5v-90h-59v89h-72v-89h-59v89h-155v710h155v82h59v-82h72v82h59v-83q95 -7 144.5 -54t49.5 -126q0 -58 -33 -100t-93 -58q69 -11 106.5 -55t37.5 -114zM446 508q0 88 -109 88h-106v-182h106q109 0 109 94zM231 112h120q55 0 84 28 t29 75q0 46 -28.5 71.5t-81.5 25.5h-123v-200z"/>
    <glyph glyph-name="uni0243.tf" d="M582 197q0 -82 -49 -132t-138 -61v-111h-59v107h-72v-107h-59v107h-131v695h131v90h59v-90h62h10v90h59v-95q171 -27 171 -178q0 -56 -34.5 -96.5t-96.5 -55.5q70 -10 108.5 -53t38.5 -110zM404 500q0 81 -95 81h-79v-177h79q95 0 95 96zM230 115h90q48 0 74 24.5 t26 71.5q0 43 -25.5 67.5t-70.5 24.5h-94v-188z"/>
    <glyph glyph-name="uni0243.tf.tf.case" d="M582 203q0 -85 -49 -136t-138 -63v-105h-59v101h-72v-101h-59v101h-131v710h131v85h59v-85h62h10v85h59v-90q82 -13 126.5 -59.5t44.5 -123.5q0 -57 -34.5 -97.5t-96.5 -56.5q70 -11 108.5 -54t38.5 -111zM404 510q0 85 -95 85h-79v-183h79q95 0 95 98zM230 115h90 q100 0 100 102q0 45 -25.5 69.5t-70.5 24.5h-94v-196z"/>
    <glyph glyph-name="g.ss01" horiz-adv-x="610" d="M288 -207q-115 0 -174.5 43t-68.5 133h156q14 -74 90 -74q93 1 93 111v86q-37 -91 -141 -91q-93 0 -152 72q-59 73 -59 186q0 114 59 184q59 69 156 69q106 0 144 -86l14 74h137v-485q0 -222 -254 -222zM292 105q42 0 67 35t25 93v45q0 55 -25 89t-65 34 q-46 0 -71.5 -37.5t-25.5 -108.5q0 -67 26 -108.5t69 -41.5z"/>
    <glyph glyph-name="gbreve.ss01" horiz-adv-x="610" d="M137 723h101q5 -81 73 -81q69 0 72 81h101q-4 -80 -49 -120.5t-124 -40.5t-124.5 40.5t-49.5 120.5zM288 -207q-115 0 -174.5 43t-68.5 133h156q14 -74 90 -74q93 1 93 111v86q-37 -91 -141 -91q-93 0 -152 72q-59 73 -59 186q0 114 59 184q59 69 156 69q106 0 144 -86 l14 74h137v-485q0 -222 -254 -222zM292 105q42 0 67 35t25 93v45q0 55 -25 89t-65 34q-46 0 -71.5 -37.5t-25.5 -108.5q0 -67 26 -108.5t69 -41.5z"/>
    <glyph glyph-name="gcircumflex.ss01" horiz-adv-x="610" d="M391 723l106 -156h-116l-70 105l-69 -105h-117l106 156h160zM288 -207q-115 0 -174.5 43t-68.5 133h156q14 -74 90 -74q93 1 93 111v86q-37 -91 -141 -91q-93 0 -152 72q-59 73 -59 186q0 114 59 184q59 69 156 69q106 0 144 -86l14 74h137v-485q0 -222 -254 -222z M292 105q42 0 67 35t25 93v45q0 55 -25 89t-65 34q-46 0 -71.5 -37.5t-25.5 -108.5q0 -67 26 -108.5t69 -41.5z"/>
    <glyph glyph-name="gcommaaccent.ss01" horiz-adv-x="610" d="M336 768l27 -51q-27 -7 -38 -17t-11 -30h65v-102h-132v89q0 93 89 111zM288 -207q-115 0 -174.5 43t-68.5 133h156q14 -74 90 -74q93 1 93 111v86q-37 -91 -141 -91q-93 0 -152 72q-59 73 -59 186q0 114 59 184q59 69 156 69q106 0 144 -86l14 74h137v-485 q0 -222 -254 -222zM292 105q42 0 67 35t25 93v45q0 55 -25 89t-65 34q-46 0 -71.5 -37.5t-25.5 -108.5q0 -67 26 -108.5t69 -41.5z"/>
    <glyph glyph-name="gdotaccent.ss01" horiz-adv-x="610" d="M395 572h-167v146h167v-146zM288 -207q-115 0 -174.5 43t-68.5 133h156q14 -74 90 -74q93 1 93 111v86q-37 -91 -141 -91q-93 0 -152 72q-59 73 -59 186q0 114 59 184q59 69 156 69q106 0 144 -86l14 74h137v-485q0 -222 -254 -222zM292 105q42 0 67 35t25 93v45 q0 55 -25 89t-65 34q-46 0 -71.5 -37.5t-25.5 -108.5q0 -67 26 -108.5t69 -41.5z"/>
    <glyph glyph-name="g_g.liga.ss01" horiz-adv-x="1220" d="M288 -207q-115 0 -174.5 43t-68.5 133h156q14 -74 90 -74q93 1 93 111v86q-37 -91 -141 -91q-93 0 -152 72q-59 73 -59 186q0 114 59 184q59 69 156 69q106 0 144 -86l14 74h137v-485q0 -222 -254 -222zM898 -207q-115 0 -174.5 43t-68.5 133h156q14 -74 90 -74 q93 1 93 111v86q-37 -91 -141 -91q-93 0 -152 72q-59 73 -59 186q0 114 59 184q59 69 156 69q106 0 144 -86l14 74h137v-485q0 -222 -254 -222zM292 105q42 0 67 35t25 93v45q0 55 -25 89t-65 34q-46 0 -71.5 -37.5t-25.5 -108.5q0 -67 26 -108.5t69 -41.5zM902 105 q42 0 67 35t25 93v45q0 55 -25 89t-65 34q-46 0 -71.5 -37.5t-25.5 -108.5q0 -67 26 -108.5t69 -41.5z"/>
    <glyph glyph-name="g.sups.ss01" horiz-adv-x="487" d="M229 159q-92 0 -138 31.5t-51 99.5h124q3 -25 21.5 -38.5t46.5 -12.5q64 1 64 72v63q-27 -60 -106 -60q-71 0 -114 52q-45 51 -45 133q0 85 44 135t119 50q82 0 109 -63l7 54h121v-351q0 -165 -202 -165zM189 424q17 -26 46.5 -27t45.5 21q16 20 16 58v38q0 36 -17 58.5 t-43 22.5q-65 0 -65 -99q0 -44 17 -72z"/>
    <glyph glyph-name="a.sups" horiz-adv-x="460" d="M155 301q-58 0 -93.5 30t-35.5 78q0 52 34 77t110 37l103 15v15q0 48 -48 48q-50 0 -54 -49h-134q5 63 55 97.5t134 34.5q95 0 139.5 -36.5t44.5 -114.5v-129q0 -63 10 -94h-132q-6 26 -6 57q-15 -31 -49 -48.5t-78 -17.5zM210 378q30 0 49 17.5t19 44.5v43l-51 -9 q-37 -6 -53.5 -18t-16.5 -35q0 -19 14.5 -31t38.5 -12z"/>
    <glyph glyph-name="b.sups" horiz-adv-x="490" d="M304 301q-82 0 -113 61l-5 -52h-126v529h137v-208q32 53 111 53q70 0 110.5 -51.5t40.5 -140.5q0 -88 -41.5 -139.5t-113.5 -51.5zM195 511v-36q0 -85 62 -85t62 102t-64 102q-28 -1 -44 -23t-16 -60z"/>
    <glyph glyph-name="c.sups" horiz-adv-x="448" d="M235 301q-93 0 -149.5 52.5t-56.5 138.5q0 89 55.5 140.5t152.5 51.5q76 0 124.5 -33.5t60.5 -94.5l-127 -29q-9 60 -62 60q-31 0 -49 -24t-18 -65q0 -47 17.5 -73t49.5 -26q25 0 41 16.5t20 44.5l128 -29q-11 -59 -62 -94.5t-125 -35.5z"/>
    <glyph glyph-name="d.sups" horiz-adv-x="490" d="M181 301q-68 0 -109 52t-41 138q0 88 42.5 140.5t113.5 52.5q81 0 107 -57v212h136v-529h-130v61q-13 -32 -45.5 -51t-73.5 -19zM238 390q27 0 42.5 22.5t15.5 59.5v37q0 86 -60 86q-64 0 -64 -101q0 -48 17.5 -76t48.5 -28z"/>
    <glyph glyph-name="e.sups" horiz-adv-x="450" d="M418 493v-24h-261q2 -33 24.5 -52.5t60.5 -19.5q64 0 107 42l58 -67q-56 -71 -167 -71q-100 0 -155.5 50t-55.5 139t53.5 141.5t145.5 52.5q90 0 140 -50.5t50 -140.5zM157 535h135q0 76 -64 76q-33 0 -51.5 -20t-19.5 -56z"/>
    <glyph glyph-name="f.sups" horiz-adv-x="326" d="M217 675h86v-87h-86v-278h-136v278h-58v87h58v26q0 143 160 143q30 0 62 -7v-95q-16 3 -34 3q-52 0 -52 -45v-25z"/>
    <glyph glyph-name="g.sups" horiz-adv-x="463" d="M443 738v-86q-19 3 -35 3q-27 0 -44 -7q44 -30 44 -85q0 -57 -49 -90.5t-134 -33.5q-45 0 -79 9q-7 -4 -7 -13q0 -31 48 -31h112q142 0 142 -104q0 -67 -59.5 -104t-168.5 -37q-89 0 -139 21.5t-50 60.5q0 41 66 62q-55 19 -55 70q0 63 76 88q-70 33 -70 102 q0 57 49.5 89t134.5 32q56 0 92 -13q19 67 115 67h11zM225 498q25 0 41 18t16 46q0 29 -16 46t-41 17q-26 0 -41.5 -16.5t-15.5 -45.5t15.5 -47t41.5 -18zM288 293h-136q-18 0 -23 1q-8 -11 -8 -26q0 -50 97 -50q110 0 110 46q0 29 -40 29z"/>
    <glyph glyph-name="h.sups" horiz-adv-x="491" d="M197 310h-137v529h137v-225q35 71 120 71q123 0 123 -148v-227h-137v213q0 60 -50 60q-26 0 -41 -19t-15 -54v-200z"/>
    <glyph glyph-name="i.sups" horiz-adv-x="251" d="M196 719h-141v121h141v-121zM194 310h-137v365h137v-365z"/>
    <glyph glyph-name="j.sups" horiz-adv-x="256" d="M201 719h-141v121h141v-121zM38 163q-39 0 -60 4v94q24 -2 30 -2q30 0 42 14t12 49v353h137v-362q0 -79 -36.5 -114.5t-124.5 -35.5z"/>
    <glyph glyph-name="k.sups" horiz-adv-x="475" d="M464 310h-150l-83 137l-34 -36v-101h-137v529h137v-298l110 134h155l-136 -148z"/>
    <glyph glyph-name="l.sups" horiz-adv-x="257" d="M60 839h137v-529h-137v529z"/>
    <glyph glyph-name="m.sups" horiz-adv-x="705" d="M55 310v365h133v-64q34 73 119 73q80 0 108 -73q39 73 123 73q55 0 85.5 -35.5t30.5 -100.5v-238h-137v205q0 67 -45 67q-49 0 -49 -63v-209h-137v204q0 68 -44 68q-50 0 -50 -66v-206h-137z"/>
    <glyph glyph-name="n.sups" horiz-adv-x="486" d="M193 310h-138v365h133v-67q40 76 124 76q123 0 123 -149v-225h-137v204q0 68 -50 68q-55 0 -55 -71v-201z"/>
    <glyph glyph-name="o.sups" horiz-adv-x="459" d="M374 351q-58 -50 -145 -50q-88 0 -144 50t-56 143q0 90 55 140t145 50t145.5 -50t55.5 -140q0 -93 -56 -143zM163 494q0 -103 66 -103t66 103q0 100 -66 100t-66 -100z"/>
    <glyph glyph-name="p.sups" horiz-adv-x="486" d="M192 168h-137v507h132v-54q35 63 118 63q68 0 109 -51.5t41 -138.5q0 -88 -42 -140.5t-113 -52.5q-67 0 -108 50v-183zM207 415q16 -25 45.5 -24.5t45.5 27.5q16 28 16 76q0 101 -63 101q-61 0 -61 -95v-20q0 -39 17 -65z"/>
    <glyph glyph-name="q.sups" horiz-adv-x="486" d="M430 168h-136v197q-33 -64 -115 -64q-67 0 -107.5 52.5t-40.5 137.5q0 89 42.5 141t114.5 52q86 0 112 -62l7 53h123v-507zM235 390q28 0 44.5 23t16.5 61v39q0 38 -16.5 60t-45.5 22q-62 0 -62 -101q0 -49 16.5 -76.5t46.5 -27.5z"/>
    <glyph glyph-name="r.sups" horiz-adv-x="344" d="M184 675v-98q30 107 131 107h5v-131q-30 2 -31 2q-43 0 -68 -19q-29 -26 -29 -76v-150h-137v365h129z"/>
    <glyph glyph-name="s.sups" horiz-adv-x="391" d="M197 301q-123 0 -184 70l58 70q53 -54 129 -54q54 0 54 29q0 14 -10 20.5t-40 11.5l-50 9q-118 19 -118 111q0 53 45.5 84.5t124.5 31.5q104 0 165 -50l-53 -71q-53 41 -118 41q-45 0 -45 -26q0 -21 37 -28l67 -12q110 -18 110 -113q0 -58 -45.5 -91t-126.5 -33z"/>
    <glyph glyph-name="t.sups" horiz-adv-x="327" d="M75 588h-63v87h63v85l137 51v-136h87v-87h-87v-122q0 -54 55 -54q18 0 32 2v-104q-51 -8 -70 -8q-154 0 -154 125v161z"/>
    <glyph glyph-name="u.sups" horiz-adv-x="483" d="M297 310v64q-14 -34 -45.5 -53.5t-73.5 -19.5q-127 0 -127 136v238h137v-212q0 -60 49 -60q26 0 40 15t14 42v215h137v-365h-131z"/>
    <glyph glyph-name="v.sups" horiz-adv-x="435" d="M293 310h-151l-130 365h140l56 -207l9 -49h1l10 50l55 206h140z"/>
    <glyph glyph-name="w.sups" horiz-adv-x="616" d="M248 310h-129l-99 365h129l41 -210q4 -16 4 -31h2q0 7 4 31l53 210h109l53 -210q4 -13 5 -31h2q1 12 4 31l41 210h129l-99 -365h-129l-55 198q-4 16 -4 25h-2q0 -9 -4 -25z"/>
    <glyph glyph-name="x.sups" horiz-adv-x="463" d="M154 310h-137l136 191l-128 174h150l40 -60q13 -23 17 -39h2q3 11 19 39l40 60h139l-126 -170l140 -195h-151l-49 72q-14 22 -20 39h-2q-5 -16 -20 -39z"/>
    <glyph glyph-name="y.sups" horiz-adv-x="436" d="M89 162q-11 0 -55 6v96q32 -6 47 -6q55 0 70 42l3 10l-142 365h149l56 -209q5 -23 8 -46h2q1 16 9 46l53 209h135l-129 -378q-25 -71 -73.5 -103t-132.5 -32z"/>
    <glyph glyph-name="z.sups" horiz-adv-x="390" d="M24 310v75l172 198h-162v92h322v-73l-167 -198h177v-94h-342z"/>
    <glyph glyph-name="zero.case" horiz-adv-x="667" d="M333 -15q-141 0 -220 98t-79 273t79 273t220 98q142 0 221 -98t79 -273t-79 -273t-221 -98zM333 110q65 0 99.5 63t34.5 183t-34.5 183t-99.5 63q-64 0 -98.5 -63.5t-34.5 -182.5t34.5 -182.5t98.5 -63.5z"/>
    <glyph glyph-name="one.case" horiz-adv-x="429" d="M332 0h-161v492q-41 -39 -121 -39h-28v144h19q63 0 101 27t59 86h131v-710z"/>
    <glyph glyph-name="two.case" horiz-adv-x="587" d="M553 0h-524v118q162 98 251 183q51 50 73 94t22 97q0 52 -23 80t-67 28t-69 -28t-25 -78q0 -21 7 -57l-164 15q-6 28 -6 55q0 101 71.5 160.5t193.5 59.5q120 0 187 -58.5t67 -164.5q0 -139 -125 -255q-67 -60 -173 -121h304v-128z"/>
    <glyph glyph-name="three.case" horiz-adv-x="600" d="M296 -15q-125 0 -198.5 62.5t-75.5 169.5l163 16q1 -58 31 -91t81 -33q48 0 74 26.5t26 74.5q0 97 -120 97h-37v110h36q51 0 78.5 25.5t27.5 71.5q0 43 -24 67t-68 24q-49 0 -75.5 -33.5t-26.5 -92.5l-159 21q0 105 73 166q71 61 196 61q119 0 184.5 -51t65.5 -143 q0 -60 -38 -104.5t-101 -58.5q158 -26 158 -171q0 -99 -73 -156q-73 -58 -198 -58z"/>
    <glyph glyph-name="four.case" horiz-adv-x="601" d="M593 278v-118h-104v-160h-159v160h-320v108l301 442h178v-432h104zM336 278v206q0 45 2 79h-2q-9 -25 -40 -72l-99 -152q-33 -48 -46 -61h185z"/>
    <glyph glyph-name="five.case" horiz-adv-x="595" d="M294 -15q-108 0 -178 53t-85 146l157 24q8 -45 35.5 -71t69.5 -26q52 0 80.5 33.5t28.5 92.5q0 61 -28 97t-78 36q-82 0 -106 -85l-144 13l43 412h437v-128h-319l-19 -166q48 71 153 71q103 0 162 -65.5t59 -179.5q0 -119 -71.5 -188t-196.5 -69z"/>
    <glyph glyph-name="six.case" horiz-adv-x="605" d="M360 480q100 0 157.5 -64.5t57.5 -174.5q0 -113 -72 -184q-72 -72 -185 -72q-135 0 -210.5 94t-75.5 265q0 178 77 281q77 102 211 102q214 0 244 -187l-152 -24q-18 90 -95 90q-59 0 -93 -55.5t-37 -155.5q52 85 173 85zM314 107q50 0 78.5 34t28.5 93q0 58 -30 93.5 t-79 35.5q-43 0 -75.5 -26.5t-48.5 -73.5q7 -73 40.5 -114.5t85.5 -41.5z"/>
    <glyph glyph-name="seven.case" horiz-adv-x="527" d="M290 0h-176v12q0 148 63.5 293.5t180.5 270.5h-339v134h499v-124q-228 -242 -228 -561v-25z"/>
    <glyph glyph-name="eight.case" horiz-adv-x="624" d="M452 393q141 -54 141 -197q0 -96 -78 -153q-77 -58 -208 -58q-129 0 -205 54q-78 54 -78 145q0 132 135 174q-115 52 -115 173q0 88 71 142q70 54 187 54q119 0 189.5 -49t70.5 -131q0 -113 -110 -154zM302 618q-48 0 -75.5 -23t-27.5 -63q0 -70 110 -99l37 -10 q62 35 62 102q0 44 -28 68.5t-78 24.5zM222 131q32 -28 88 -28q55 0 87 26t32 71q0 78 -111 108l-53 15q-77 -36 -77 -117q0 -47 34 -75z"/>
    <glyph glyph-name="nine.case" horiz-adv-x="608" d="M294 727q137 0 208.5 -91t71.5 -268q0 -186 -71 -284.5t-215 -98.5q-105 0 -169.5 50t-77.5 142l152 27q18 -94 102 -94q123 0 125 221q-48 -76 -156 -76q-107 0 -170 63q-64 61 -64 167q0 107 72 175q70 67 192 67zM294 372q41 0 75.5 25.5t49.5 66.5q-3 66 -34.5 105.5 t-88.5 39.5q-51 0 -81.5 -32.5t-30.5 -86.5q0 -52 30.5 -85t79.5 -33z"/>
    <glyph glyph-name="one.case.ss02" horiz-adv-x="561" d="M382 710v-581h164v-129h-502v129h177v366q-50 -41 -143 -41h-31v145h26q71 0 112.5 26.5t65.5 84.5h131z"/>
    <glyph glyph-name="zero.case.zero" horiz-adv-x="667" d="M333 727q142 0 221 -98t79 -273t-79 -273t-221 -98q-141 0 -220 98t-79 273t79 273t220 98zM333 602q-64 0 -98.5 -63.5t-34.5 -182.5q0 -61 11 -116l223 296q-34 66 -101 66zM333 110q65 0 99.5 63t34.5 183q0 62 -9 108l-222 -294q34 -60 97 -60z"/>
    <glyph glyph-name="zero.osf" horiz-adv-x="617" d="M310 -15q-130 0 -206 79q-78 80 -78 210q0 124 78 200q77 76 205 76q125 0 204 -77q78 -78 78 -204t-77 -205q-78 -79 -204 -79zM310 103q56 0 89 44t33 120t-33 119t-90 43q-58 0 -91 -42t-33 -116q0 -79 33 -123.5t92 -44.5z"/>
    <glyph glyph-name="one.osf" horiz-adv-x="588" d="M388 535v-408h167v-127h-500l1 127h177v220q-24 -21 -65.5 -34t-83.5 -13h-27v135h19q62 0 113 27t68 73h131z"/>
    <glyph glyph-name="two.osf" horiz-adv-x="589" d="M32 0v104q156 76 187 94q85 51 114 83q32 35 32 75q0 34 -20.5 52.5t-55.5 18.5q-38 0 -60 -21.5t-22 -58.5q0 -21 3 -37l-164 16q-3 22 -3 31q0 86 69 140q70 53 179 53q114 0 177.5 -48t63.5 -134q0 -76 -69 -135q-65 -54 -188 -106h279v-127h-522z"/>
    <glyph glyph-name="three.osf" horiz-adv-x="611" d="M301 -165q-131 0 -202.5 58.5t-73.5 166.5l163 14q1 -57 30.5 -87t83.5 -30q50 0 78 25t28 69q0 92 -125 92h-41v109h40q53 0 82 23.5t29 67.5q0 40 -25 62t-71 22q-106 0 -106 -123l-159 21q1 107 72 166t196 59t192 -49t67 -140q0 -56 -36 -98.5t-94 -56.5 q69 -12 108.5 -56t39.5 -111q0 -94 -74 -149t-202 -55z"/>
    <glyph glyph-name="four.osf" horiz-adv-x="652" d="M513 -150h-159v161h-329v109l310 415h178v-406h104v-118h-104v-161zM169 129h185v166q0 71 1 95h-2q-23 -41 -37 -61l-108 -150q-30 -41 -39 -50z"/>
    <glyph glyph-name="five.osf" horiz-adv-x="612" d="M300 -165q-112 0 -185 49.5t-84 134.5l160 20q9 -40 37.5 -61.5t69.5 -21.5q53 0 84 33t31 91q0 51 -29.5 81t-79.5 30q-82 0 -112 -71l-144 12l44 403h436v-126h-316l-22 -178q48 78 164 78q104 0 165 -61t61 -164q0 -111 -77 -180q-78 -69 -203 -69z"/>
    <glyph glyph-name="six.osf" horiz-adv-x="607" d="M362 469q100 0 157.5 -62.5t57.5 -170.5q0 -110 -72 -181q-71 -70 -186 -70q-134 0 -209.5 92t-75.5 258q0 174 77 275q76 100 211 100q214 0 244 -182l-152 -24q-19 85 -95 85q-59 0 -93.5 -53t-36.5 -148q55 81 173 81zM316 107q50 0 78.5 32.5t28.5 89.5q0 55 -30 89 t-79 34q-88 0 -124 -95q7 -70 40 -110t86 -40z"/>
    <glyph glyph-name="seven.osf" horiz-adv-x="540" d="M297 -150h-176v12q0 141 63 279t181 260h-343v134h503v-124q-228 -233 -228 -536v-25z"/>
    <glyph glyph-name="eight.osf" horiz-adv-x="630" d="M459 384q73 -28 107 -74t34 -117q0 -94 -78 -151q-80 -57 -209 -57t-205 54q-78 54 -78 142q0 127 133 167q-112 52 -112 169q0 87 71 140t186 53q119 0 189.5 -48t70.5 -129q0 -110 -109 -149zM309 601q-49 0 -76 -22t-27 -62q0 -66 109 -93l40 -11q60 31 60 97 q0 43 -28 67t-78 24zM228 131q32 -28 88 -28q54 0 88 26q32 26 32 68q0 38 -27 62.5t-85 40.5l-54 14q-75 -34 -75 -111q0 -45 33 -72z"/>
    <glyph glyph-name="nine.osf" horiz-adv-x="614" d="M302 550q137 0 207.5 -88.5t70.5 -261.5q0 -179 -73 -272t-215 -93q-215 0 -258 169l154 28q23 -83 112 -83q126 0 127 213q-51 -75 -164 -75q-107 0 -169 61q-64 61 -64 164q0 109 74 174q73 64 198 64zM296 204q43 0 79 25t51 65q-4 67 -36.5 102.5t-90.5 35.5 q-52 0 -83 -31.5t-31 -83.5q0 -50 31 -81.5t80 -31.5z"/>
    <glyph glyph-name="zero.osf.zero" horiz-adv-x="617" d="M309 550q125 0 204 -77q78 -78 78 -204t-77 -205q-78 -79 -204 -79q-130 0 -206 79q-78 80 -78 210q0 124 78 200q77 76 205 76zM309 429q-58 0 -91 -42t-33 -116q0 -66 23 -107l172 241q-28 24 -71 24zM310 103q56 0 89 44t33 120q0 61 -21 100l-171 -241q29 -23 70 -23 z"/>
    <glyph glyph-name="one.ss02" horiz-adv-x="561" d="M381 695v-566h165v-129h-503v129h177v351q-49 -41 -142 -41h-32v145h26q71 0 112 26.5t66 84.5h131z"/>
    <glyph glyph-name="zero.tf.case" d="M584 356q0 -371 -274 -371t-274 371t274 371t274 -371zM224 159q27 -57 86 -57q58 0 87 57q26 56 28 197q-2 142 -28 198q-29 56 -87 56q-59 0 -86 -56q-27 -55 -29 -198q2 -142 29 -197z"/>
    <glyph glyph-name="one.tf.case" d="M411 710v-581h165v-129h-503v129h177v365q-49 -41 -142 -41h-32v144h26q70 0 111.5 27.5t66.5 85.5h131z"/>
    <glyph glyph-name="two.tf.case" d="M553 0h-500v118q120 86 236 203q48 51 69 93t21 90q0 46 -21.5 71t-59.5 25q-40 0 -62 -26.5t-22 -72.5q0 -20 5 -50l-159 16q-4 19 -4 41q0 99 67 159q66 60 178 60q116 0 177.5 -56t61.5 -161q0 -122 -111 -236q-77 -77 -178 -146h302v-128z"/>
    <glyph glyph-name="three.tf.case" d="M314 -15q-123 0 -194 63t-72 169l162 16q2 -59 28.5 -91.5t73.5 -32.5q45 0 69 26.5t24 75.5q0 44 -29.5 70t-80.5 26h-35v110h33q45 0 71 27t26 70q0 90 -83 90q-93 0 -93 -122l-160 22q0 103 69.5 163t191.5 60q110 0 173 -51.5t63 -139.5q0 -59 -34.5 -104.5 t-91.5 -60.5q69 -14 106.5 -59.5t37.5 -118.5q0 -94 -69 -151q-70 -57 -186 -57z"/>
    <glyph glyph-name="four.tf.case" d="M493 0h-148v160h-316v108l287 442h177v-432h98v-118h-98v-160zM162 278h183v206q0 54 3 92h-1q-13 -40 -40 -79l-106 -168q-24 -36 -39 -51z"/>
    <glyph glyph-name="five.tf.case" d="M303 -15q-106 0 -174 54t-78 146l151 23q8 -45 35.5 -71t69.5 -26q48 0 75 33.5t27 91.5q0 63 -26.5 98.5t-74.5 35.5q-40 0 -67 -23t-37 -64l-134 13l43 414h414v-128h-309l-20 -167q50 72 151 72q100 0 157 -65.5t57 -181.5q0 -117 -70 -186q-71 -69 -190 -69z"/>
    <glyph glyph-name="six.tf.case" d="M358 480q98 0 155.5 -64.5t57.5 -174.5q0 -115 -68 -186q-69 -70 -182 -70q-134 0 -206 93t-72 266q0 182 74.5 282.5t208.5 100.5q99 0 159.5 -48.5t74.5 -138.5l-152 -24q-15 90 -88 90q-57 0 -89.5 -55t-34.5 -155q51 84 162 84zM316 107q47 0 74 34.5t27 93.5 q0 58 -26.5 93t-71.5 35q-41 0 -73 -26t-49 -73q6 -75 37 -116t82 -41z"/>
    <glyph glyph-name="seven.tf.case" d="M336 1l-176 -1v12q0 148 63.5 293.5t180.5 270.5h-343v134h503v-124q-228 -242 -228 -561v-24z"/>
    <glyph glyph-name="eight.tf.case" d="M443 396q142 -52 142 -197q0 -97 -75 -155q-77 -59 -202 -59q-123 0 -197 56q-75 56 -75 146q0 132 130 169q-110 51 -110 172q0 89 70 144q68 55 181 55q112 0 179 -49t67 -134q0 -107 -110 -148zM303 618q-43 0 -67.5 -24t-24.5 -67q0 -67 99 -94l38 -10q59 33 59 99 q0 45 -27.5 70.5t-76.5 25.5zM313 103q52 0 83 27t31 73q0 76 -107 105l-53 15q-73 -35 -73 -114q0 -48 32.5 -77t86.5 -29z"/>
    <glyph glyph-name="nine.tf.case" d="M298 726q133 0 204 -91.5t71 -266.5q0 -185 -69.5 -284t-207.5 -99q-103 0 -166 49.5t-77 142.5l152 27q8 -44 34 -69t64 -25q118 0 118 216q-47 -72 -145 -72q-105 0 -170 62q-64 61 -64 166q0 110 69 177q68 67 187 67zM306 372q38 0 69.5 24t45.5 63 q-3 68 -32.5 108.5t-84.5 40.5q-49 0 -78.5 -33t-29.5 -88q0 -51 30.5 -83t79.5 -32z"/>
    <glyph glyph-name="zero.tf.case.zero" d="M36 356q0 371 274 371t274 -371t-274 -371t-274 371zM310 610q-59 0 -86 -56q-27 -55 -29 -198q0 -60 6 -105l205 277q-25 82 -96 82zM310 102q60 0 87 58t28 196q0 44 -5 96l-204 -275q26 -75 94 -75z"/>
    <glyph glyph-name="zero.tosf" d="M106 473q79 77 204 77t205 -77q78 -78 78 -206q0 -129 -78 -205q-80 -77 -205 -77t-204 77q-79 76 -79 206q0 129 79 205zM221 147q33 -43 89 -43t90 42q33 42 33 120t-33 121t-90 43q-56 0 -89 -42q-34 -43 -34 -121q0 -79 34 -120z"/>
    <glyph glyph-name="one.tosf" d="M408 535v-414h167v-121h-500v121h179v228q-23 -22 -71 -35q-51 -14 -91 -14h-14v135h11q56 1 111 29q54 27 77 71h131z"/>
    <glyph glyph-name="two.tosf" d="M46 0v104q174 86 187 94q80 45 113 81t33 77q0 33 -20 52t-56 19q-38 0 -60 -20t-22 -56q0 -21 3 -38l-164 17q0 8 -0.5 15.5t-1.5 10.5v4q0 86 69 138q67 52 178 52q115 0 178 -47t63 -132q0 -78 -69 -138q-62 -54 -188 -106h279v-127h-522z"/>
    <glyph glyph-name="three.tosf" d="M311 -165q-125 0 -193.5 56.5t-69.5 162.5l161 14q1 -112 99 -112q44 0 69.5 24.5t25.5 63.5q0 99 -112 99h-41v109h40q47 0 72.5 24.5t25.5 67.5q0 41 -21.5 63t-61.5 22q-93 0 -93 -117l-158 21q0 104 67 160.5t188 56.5q117 0 179.5 -50.5t62.5 -145.5 q0 -53 -35 -93.5t-95 -54.5q71 -12 109.5 -56.5t38.5 -114.5q0 -87 -71 -144q-73 -56 -187 -56z"/>
    <glyph glyph-name="four.tosf" d="M493 -150h-148v161h-316v109l287 415h177v-406h102v-118h-102v-161zM166 129h179v185q0 34 2 82h-1q-15 -29 -38 -67l-92 -136q-24 -38 -50 -64z"/>
    <glyph glyph-name="five.tosf" d="M300 -165q-103 0 -171 53q-69 52 -78 139l151 19q8 -40 35 -63t67 -23q48 0 76.5 32.5t28.5 86.5t-27 85.5t-73 31.5q-37 1 -66 -20t-39 -57l-137 15l43 401h417v-128h-308l-20 -165q49 75 155 75q96 0 152.5 -63t56.5 -169q0 -115 -70 -182.5t-193 -67.5z"/>
    <glyph glyph-name="six.tosf" d="M358 469q98 0 155.5 -63t57.5 -170q0 -112 -68 -182q-69 -69 -182 -69q-134 0 -206 91t-72 259q0 178 74.5 276.5t208.5 98.5q99 0 159.5 -47t74.5 -135l-152 -24q-15 85 -88 85q-57 0 -89.5 -52.5t-34.5 -147.5q53 80 162 80zM316 107q46 0 73.5 33t27.5 89q0 57 -26 90 t-72 33q-40 0 -72.5 -25.5t-49.5 -69.5q6 -71 37 -110.5t82 -39.5z"/>
    <glyph glyph-name="seven.tosf" d="M336 -149l-176 -1v12q0 285 244 539h-343v134h503v-124q-116 -120 -172 -249.5t-56 -286.5v-24z"/>
    <glyph glyph-name="eight.tosf" d="M443 387q142 -50 142 -194q0 -94 -75 -151q-76 -57 -202 -57q-124 0 -197 54q-75 53 -75 142q0 128 130 165q-110 53 -110 170q0 87 69 141q70 53 182 53t179 -47.5t67 -129.5q0 -108 -110 -146zM303 601q-43 0 -67.5 -22.5t-24.5 -62.5q0 -35 24 -56t75 -36l39 -10 q58 31 58 96q0 43 -27.5 67t-76.5 24zM313 103q52 0 83 25.5t31 68.5q0 39 -26 63.5t-81 39.5l-54 14q-72 -34 -72 -111q0 -45 32.5 -72.5t86.5 -27.5z"/>
    <glyph glyph-name="nine.tosf" d="M298 550q135 0 205 -90t70 -261q0 -177 -70 -270.5t-207 -93.5q-214 0 -243 181l152 27q18 -83 98 -83q118 0 118 197q-46 -70 -145 -70q-105 0 -169 61q-65 60 -65 164q0 109 70 173q70 65 186 65zM306 204q39 0 70 23.5t45 62.5q-2 65 -32 103.5t-85 38.5 q-49 0 -78.5 -31.5t-29.5 -83.5q0 -51 31 -82t79 -31z"/>
    <glyph glyph-name="zero.tosf.zero" d="M106 473q79 77 204 77t205 -77q78 -78 78 -206q0 -129 -78 -205q-80 -77 -205 -77t-204 77q-79 76 -79 206q0 129 79 205zM310 430q-57 0 -90 -43t-33 -120q0 -63 22 -103l173 242q-30 24 -72 24zM310 104q57 0 90 42.5t33 119.5q0 62 -21 101l-171 -241q28 -22 69 -22z "/>
    <glyph glyph-name="zero.subs" horiz-adv-x="530" d="M436 -82q-62 -69 -171 -69t-171 69q-62 70 -62 195t62 196q62 69 171 69t171 -69q61 -70 61 -196q0 -127 -61 -195zM265 -47q43 0 67 41t24 119q0 161 -91 161t-91 -161q0 -160 91 -160z"/>
    <glyph glyph-name="one.subs" horiz-adv-x="352" d="M273 -140h-136v332q-35 -29 -96 -29h-17v123h12q51 0 80.5 19t47.5 62h109v-507z"/>
    <glyph glyph-name="two.subs" horiz-adv-x="475" d="M443 -140h-412v97q59 35 87 51q20 12 69 46q43 30 59 49q46 52 46 103q0 68 -60 68q-31 0 -48 -18.5t-17 -50.5q0 -11 5 -39l-140 13q-4 23 -4 40q0 73 57 116t153 43q95 0 147.5 -42t52.5 -118q0 -80 -55 -140t-165 -113h225v-105z"/>
    <glyph glyph-name="three.subs" horiz-adv-x="481" d="M237 -151q-98 0 -155 45.5t-57 123.5l138 13q1 -37 20.5 -58t52.5 -21q68 0 68 61q0 57 -82 57h-29v89h28q74 0 74 60q0 58 -62 58q-33 0 -51 -21t-18 -58l-136 15q0 76 57 120.5t155 44.5q94 0 145.5 -37.5t51.5 -105.5q0 -42 -30.5 -74t-79.5 -41q59 -7 90 -38t31 -82 q0 -68 -57.5 -109.5t-153.5 -41.5z"/>
    <glyph glyph-name="four.subs" horiz-adv-x="487" d="M470 64v-98h-76v-106h-133v106h-243v93l227 308h149v-303h76zM261 64v186l-127 -186h127z"/>
    <glyph glyph-name="five.subs" horiz-adv-x="475" d="M235 -151q-85 0 -140 38t-66 105l131 22q5 -29 24.5 -45t47.5 -16q36 0 56.5 20.5t20.5 57.5t-20 59.5t-53 22.5q-61 0 -74 -52l-120 11l32 295h341v-105h-241l-14 -99q34 45 115 45q79 0 124 -46t45 -126q0 -88 -55.5 -137.5t-153.5 -49.5z"/>
    <glyph glyph-name="six.subs" horiz-adv-x="486" d="M295 204q75 0 118 -44.5t43 -124.5q0 -81 -56 -134q-56 -52 -145 -52q-104 0 -164 68.5t-60 189.5q0 125 61 198q60 73 163 73q169 0 191 -133l-127 -18q-13 58 -67 58q-78 0 -89 -137q38 56 132 56zM251 -50q36 0 56.5 20.5t20.5 57.5q0 36 -21.5 58.5t-55.5 22.5 q-57 0 -86 -57q14 -102 86 -102z"/>
    <glyph glyph-name="seven.subs" horiz-adv-x="427" d="M244 -140h-149v9q0 107 48.5 207t137.5 181h-257v110h388v-104q-86 -82 -127 -172.5t-41 -208.5v-22z"/>
    <glyph glyph-name="eight.subs" horiz-adv-x="494" d="M364 143q106 -37 106 -141q0 -70 -61.5 -111.5t-164.5 -41.5q-100 0 -159.5 39t-59.5 104q0 46 23.5 74t74.5 43q-85 37 -85 124q0 65 55 105t146 40q94 0 149.5 -34.5t55.5 -93.5q0 -77 -80 -107zM296 273q-19 16 -55 16q-34 0 -54 -14q-19 -15 -19 -41q0 -43 82 -62 l31 -7q35 20 35 62q0 29 -20 46zM248 -54q37 0 59.5 17t22.5 44q0 47 -84 68l-35 8q-47 -23 -47 -72q0 -30 23 -47.5t61 -17.5z"/>
    <glyph glyph-name="nine.subs" horiz-adv-x="486" d="M236 378q106 0 162.5 -65t56.5 -192q0 -272 -223 -272q-82 0 -132 34t-60 99l127 20q13 -56 72 -56q78 0 86 137q-38 -47 -117 -47q-81 0 -129.5 45.5t-48.5 120.5q0 79 55.5 127.5t150.5 48.5zM236 132q58 0 87 48q-7 54 -27 78t-57 24t-59 -21t-22 -55 q0 -31 22.5 -52.5t55.5 -21.5z"/>
    <glyph glyph-name="zero.dnom" horiz-adv-x="416" d="M340 45q-46 -54 -132 -54q-84 0 -131 54q-47 55 -47 150q0 96 47 150.5t131 54.5q85 0 131.5 -54t46.5 -151t-46 -150zM133 195q0 -125 75 -125t75 125q0 126 -75 126t-75 -126z"/>
    <glyph glyph-name="one.dnom" horiz-adv-x="274" d="M206 0h-97v256q-17 -13 -65 -13h-20v89h14q66 0 89 59h79v-391z"/>
    <glyph glyph-name="two.dnom" horiz-adv-x="366" d="M333 0h-307v74q107 62 153 104t46 91q0 51 -49 51q-23 0 -36.5 -13.5t-13.5 -36.5q0 -7 5 -32l-102 10q-3 16 -3 29q0 56 41.5 89.5t113.5 33.5q71 0 110 -32.5t39 -91.5q0 -114 -167 -195h170v-81z"/>
    <glyph glyph-name="three.dnom" horiz-adv-x="374" d="M185 -9q-74 0 -118.5 34.5t-44.5 92.5l100 11q0 -29 17 -44.5t47 -15.5q54 0 54 48q0 45 -70 45h-22v72h23q59 0 59 47q0 42 -50 42q-56 0 -56 -66l-97 16q0 58 43 92.5t116 34.5q69 0 107.5 -28.5t38.5 -78.5q0 -32 -21 -56t-57 -33q90 -16 90 -93q0 -55 -43 -87.5 t-116 -32.5z"/>
    <glyph glyph-name="four.dnom" horiz-adv-x="371" d="M361 156v-73h-62v-83h-95v83h-188v67l172 241h111v-235h62zM204 156v144l-99 -144h99z"/>
    <glyph glyph-name="five.dnom" horiz-adv-x="371" d="M184 -9q-63 0 -104.5 29.5t-50.5 80.5l98 15q12 -46 57 -46q28 0 43.5 15.5t15.5 43.5q0 31 -15.5 49t-42.5 18q-43 0 -57 -41l-90 8l26 228h256v-80h-183l-11 -75q28 34 86 34q61 0 95.5 -36.5t34.5 -100.5q0 -65 -42.5 -103.5t-115.5 -38.5z"/>
    <glyph glyph-name="six.dnom" horiz-adv-x="374" d="M220 264q58 0 92 -35t34 -96q0 -64 -42 -103t-109 -39q-79 0 -122.5 52t-43.5 143q0 101 45.5 157.5t124.5 56.5q123 0 143 -101l-96 -17q-9 41 -48 41q-68 0 -75 -103q32 44 97 44zM193 68q57 0 57 61q0 27 -15.5 44t-42.5 17q-44 0 -66 -43q12 -79 67 -79z"/>
    <glyph glyph-name="seven.dnom" horiz-adv-x="324" d="M209 306h-191v85h293v-76q-131 -125 -132 -305v-10h-110v4q2 77 40 158q37 81 100 144z"/>
    <glyph glyph-name="eight.dnom" horiz-adv-x="386" d="M285 216q76 -31 76 -104q0 -54 -46.5 -87.5t-122.5 -33.5q-74 0 -120.5 31t-46.5 81q0 72 72 94q-59 30 -59 92q0 49 42 80t110 31q70 0 111.5 -27.5t41.5 -74.5q0 -58 -58 -82zM190 331q-56 0 -56 -41q0 -32 60 -48l21 -5q32 17 32 49q0 21 -15 33t-42 12zM145 80 q19 -15 48 -15.5t49.5 13.5t17.5 35q0 34 -59 51l-36 10q-39 -16 -39 -57q0 -24 19 -37z"/>
    <glyph glyph-name="nine.dnom" horiz-adv-x="375" d="M183 400q80 0 121.5 -50.5t41.5 -146.5q0 -102 -41.5 -157t-123.5 -55q-62 0 -100.5 27t-48.5 78l96 19q10 -46 56 -46q58 0 65 97q-35 -27 -84 -27q-62 0 -99.5 34t-37.5 92q0 60 42 97.5t113 37.5zM183 213q41 0 65 32q-8 80 -64 80q-27 0 -43.5 -15.5t-16.5 -41.5 q0 -24 16 -39.5t43 -15.5z"/>
    <glyph glyph-name="zero.numr" horiz-adv-x="416" d="M340 365q-46 -54 -132 -54q-84 0 -131 54q-47 55 -47 150q0 96 47 150.5t131 54.5q85 0 131.5 -54t46.5 -151t-46 -150zM133 515q0 -125 75 -125t75 125q0 126 -75 126t-75 -126z"/>
    <glyph glyph-name="one.numr" horiz-adv-x="274" d="M206 320h-97v256q-17 -13 -65 -13h-20v89h14q66 0 89 59h79v-391z"/>
    <glyph glyph-name="two.numr" horiz-adv-x="366" d="M333 320h-307v74q107 62 153 104t46 91q0 51 -49 51q-23 0 -36.5 -13.5t-13.5 -36.5q0 -7 5 -32l-102 10q-3 16 -3 29q0 56 41.5 89.5t113.5 33.5q71 0 110 -32.5t39 -91.5q0 -114 -167 -195h170v-81z"/>
    <glyph glyph-name="three.numr" horiz-adv-x="374" d="M185 311q-74 0 -118.5 34.5t-44.5 92.5l100 11q0 -29 17 -44.5t47 -15.5q54 0 54 48q0 45 -70 45h-22v72h23q59 0 59 47q0 42 -50 42q-56 0 -56 -66l-97 16q0 58 43 92.5t116 34.5q69 0 107.5 -28.5t38.5 -78.5q0 -32 -21 -56t-57 -33q90 -16 90 -93q0 -55 -43 -87.5 t-116 -32.5z"/>
    <glyph glyph-name="four.numr" horiz-adv-x="371" d="M361 476v-73h-62v-83h-95v83h-188v67l172 241h111v-235h62zM204 476v144l-99 -144h99z"/>
    <glyph glyph-name="five.numr" horiz-adv-x="371" d="M184 311q-63 0 -104.5 29.5t-50.5 80.5l98 15q12 -46 57 -46q28 0 43.5 15.5t15.5 43.5q0 31 -15.5 49t-42.5 18q-43 0 -57 -41l-90 8l26 228h256v-80h-183l-11 -75q28 34 86 34q61 0 95.5 -36.5t34.5 -100.5q0 -65 -42.5 -103.5t-115.5 -38.5z"/>
    <glyph glyph-name="six.numr" horiz-adv-x="374" d="M220 584q58 0 92 -35t34 -96q0 -64 -42 -103t-109 -39q-79 0 -122.5 52t-43.5 143q0 101 45.5 157.5t124.5 56.5q123 0 143 -101l-96 -17q-9 41 -48 41q-68 0 -75 -103q32 44 97 44zM193 388q57 0 57 61q0 27 -15.5 44t-42.5 17q-44 0 -66 -43q12 -79 67 -79z"/>
    <glyph glyph-name="seven.numr" horiz-adv-x="324" d="M209 626h-191v85h293v-76q-131 -125 -132 -305v-10h-110v4q2 77 40 158q37 81 100 144z"/>
    <glyph glyph-name="eight.numr" horiz-adv-x="386" d="M285 536q76 -31 76 -104q0 -54 -46.5 -87.5t-122.5 -33.5q-74 0 -120.5 31t-46.5 81q0 71 72 94q-59 30 -59 92q0 49 42 80t110 31q70 0 111.5 -27.5t41.5 -74.5q0 -58 -58 -82zM190 651q-56 0 -56 -41q0 -32 60 -48l21 -5q32 17 32 49q0 21 -15 33t-42 12zM145 400 q19 -15 48 -15.5t49.5 13.5t17.5 35q0 34 -59 51l-36 10q-39 -16 -39 -57q0 -24 19 -37z"/>
    <glyph glyph-name="nine.numr" horiz-adv-x="375" d="M183 720q80 0 121.5 -50.5t41.5 -146.5q0 -102 -41.5 -157t-123.5 -55q-62 0 -100.5 27t-48.5 78l96 19q10 -46 56 -46q58 0 65 97q-35 -27 -84 -27q-62 0 -99.5 34t-37.5 92q0 60 42 97.5t113 37.5zM183 533q41 0 65 32q-8 80 -64 80q-27 0 -43.5 -15.5t-16.5 -41.5 q0 -24 16 -39.5t43 -15.5z"/>
    <glyph glyph-name="zero.sups" horiz-adv-x="530" d="M436 368q-62 -69 -171 -69t-171 69q-62 70 -62 195t62 196q62 69 171 69t171 -69q61 -70 61 -196q0 -127 -61 -195zM265 403q43 0 67 41t24 119q0 161 -91 161t-91 -161q0 -160 91 -160z"/>
    <glyph glyph-name="one.sups" horiz-adv-x="352" d="M273 310h-136v332q-35 -29 -96 -29h-17v123h12q51 0 80.5 19t47.5 62h109v-507z"/>
    <glyph glyph-name="two.sups" horiz-adv-x="475" d="M443 310h-412v97q59 35 87 51q20 12 69 46q43 30 59 49q46 52 46 103q0 68 -60 68q-31 0 -48 -18.5t-17 -50.5q0 -11 5 -39l-140 13q-4 23 -4 40q0 73 57 116t153 43q95 0 147.5 -42t52.5 -118q0 -80 -55 -140t-165 -113h225v-105z"/>
    <glyph glyph-name="three.sups" horiz-adv-x="481" d="M237 299q-98 0 -155 45.5t-57 123.5l138 13q1 -37 20.5 -58t52.5 -21q68 0 68 61q0 57 -82 57h-29v89h28q74 0 74 60q0 58 -62 58q-33 0 -51 -21t-18 -58l-136 15q0 76 57 120.5t155 44.5q94 0 145.5 -37.5t51.5 -105.5q0 -42 -30.5 -74t-79.5 -41q59 -7 90 -38t31 -82 q0 -68 -57.5 -109.5t-153.5 -41.5z"/>
    <glyph glyph-name="four.sups" horiz-adv-x="487" d="M470 514v-98h-76v-106h-133v106h-243v93l227 308h149v-303h76zM261 514v186l-127 -186h127z"/>
    <glyph glyph-name="five.sups" horiz-adv-x="475" d="M235 299q-85 0 -140 38t-66 105l131 22q5 -29 24.5 -45t47.5 -16q36 0 56.5 20.5t20.5 57.5t-20 59.5t-53 22.5q-61 0 -74 -52l-120 11l32 295h341v-105h-241l-14 -99q34 45 115 45q79 0 124 -46t45 -126q0 -88 -55.5 -137.5t-153.5 -49.5z"/>
    <glyph glyph-name="six.sups" horiz-adv-x="486" d="M295 654q75 0 118 -44.5t43 -124.5t-56 -133q-58 -53 -145 -53q-104 0 -164 68.5t-60 189.5q0 125 61 198q60 73 163 73q169 0 191 -133l-127 -18q-13 58 -67 58q-78 0 -89 -137q38 56 132 56zM251 400q36 0 56.5 20.5t20.5 57.5q0 36 -21.5 58.5t-55.5 22.5 q-57 0 -86 -57q14 -102 86 -102z"/>
    <glyph glyph-name="seven.sups" horiz-adv-x="427" d="M244 310h-149v9q0 107 48.5 207t137.5 181h-257v110h388v-104q-86 -82 -127 -172.5t-41 -208.5v-22z"/>
    <glyph glyph-name="eight.sups" horiz-adv-x="494" d="M364 593q106 -37 106 -141q0 -70 -61.5 -111.5t-164.5 -41.5q-100 0 -159.5 39t-59.5 104q0 46 23.5 74t74.5 43q-85 37 -85 124q0 65 55 105t146 40q94 0 149.5 -34.5t55.5 -93.5q0 -77 -80 -107zM296 723q-19 16 -55 16q-34 0 -54 -14q-19 -15 -19 -41q0 -43 82 -62 l31 -7q35 20 35 62q0 29 -20 46zM248 396q37 0 59.5 17t22.5 44q0 47 -84 68l-35 8q-47 -23 -47 -72q0 -30 23 -47.5t61 -17.5z"/>
    <glyph glyph-name="nine.sups" horiz-adv-x="486" d="M236 828q106 0 162.5 -65t56.5 -192q0 -272 -223 -272q-82 0 -132 34t-60 99l127 20q13 -56 72 -56q78 0 86 137q-38 -47 -117 -47q-81 0 -129.5 45.5t-48.5 120.5q0 79 55.5 127.5t150.5 48.5zM236 582q58 0 87 48q-7 54 -27 78t-57 24t-59 -21t-22 -55 q0 -31 22.5 -52.5t55.5 -21.5z"/>
    <glyph glyph-name="backslash.case" horiz-adv-x="506" d="M464 -84h-140l-282 877h140z"/>
    <glyph glyph-name="periodcentered.case" horiz-adv-x="285" d="M57 450h171v-164h-171v164z"/>
    <glyph glyph-name="bullet.case" horiz-adv-x="373" d="M186 242q-56 0 -92.5 35.5t-36.5 91.5q0 57 36.5 93t92.5 36q57 0 93.5 -36t36.5 -93q0 -56 -36.5 -91.5t-93.5 -35.5z"/>
    <glyph glyph-name="colon.case" horiz-adv-x="285" d="M57 550h171v-164h-171v164zM57 164h171v-164h-171v164z"/>
    <glyph glyph-name="exclamdown.case" horiz-adv-x="330" d="M252 725v-153h-174v153h174zM74 0l27 493h128l27 -493h-182z"/>
    <glyph glyph-name="questiondown.case" horiz-adv-x="530" d="M189 720h172v-153h-172v153zM198 506h156v-48q0 -66 -64 -115l-51 -39q-60 -46 -60 -109q0 -38 23.5 -60t64.5 -22q46 0 72 25t26 70q0 30 -6 50l154 -13q7 -29 7 -58q0 -88 -68.5 -141t-185.5 -53q-119 0 -185 48.5t-66 136.5q0 103 94 179l46 38q24 21 33.5 38t9.5 44 v29z"/>
    <glyph glyph-name="semicolon.case" horiz-adv-x="285" d="M57 550h171v-164h-171v164zM98 -155l-33 66q42 14 57 32.5t15 54.5v2h-80v164h171v-155q0 -64 -31 -103.5t-99 -60.5z"/>
    <glyph glyph-name="slash.case" horiz-adv-x="506" d="M464 793l-282 -877h-140l282 877h140z"/>
    <glyph glyph-name="underscore.case" horiz-adv-x="469" d="M0 -106v89h469v-89h-469z"/>
    <glyph glyph-name="asterisk.ss04" horiz-adv-x="263" d="M132 710l30 -93h97l-79 -57l31 -93l-79 57l-79 -57l30 93l-79 57h97z"/>
    <glyph glyph-name="colon.tf" horiz-adv-x="310" d="M69 500h171v-164h-171v164zM69 164h171v-164h-171v164z"/>
    <glyph glyph-name="comma.tf" horiz-adv-x="310" d="M110 -155l-33 66q42 14 57 32.5t15 54.5v2h-79v164h170v-155q0 -64 -31 -103.5t-99 -60.5z"/>
    <glyph glyph-name="period.tf" horiz-adv-x="310" d="M70 164h170v-164h-170v164z"/>
    <glyph glyph-name="semicolon.tf" horiz-adv-x="310" d="M69 500h171v-164h-171v164zM110 -155l-33 66q42 14 57 32.5t15 54.5v2h-80v164h171v-155q0 -64 -31 -103.5t-99 -60.5z"/>
    <glyph glyph-name="slash.tf" d="M521 760l-282 -877h-140l282 877h140z"/>
    <glyph glyph-name="underscore.tf" d="M0 -178v89h620v-89h-620z"/>
    <glyph glyph-name="braceleft.case" horiz-adv-x="383" d="M362 -81h-72q-90 0 -133 38t-43 117v138q0 53 -17 74.5t-63 22.5v107q48 1 63.5 20t15.5 73v132q0 72 47.5 113t132.5 41h66v-112h-27q-72 0 -72 -76v-95q0 -65 -22 -100t-75 -49q52 -15 74 -52.5t22 -103.5v-106q0 -69 67 -69h36v-113z"/>
    <glyph glyph-name="braceright.case" horiz-adv-x="383" d="M93 -81h-72v113h36q67 0 67 69v106q0 66 22 103.5t74 52.5q-53 14 -75 49t-22 100v95q0 76 -72 76h-27v112h66q85 0 132.5 -41t47.5 -113v-132q0 -54 15.5 -73t63.5 -20v-107q-46 -1 -63 -22.5t-17 -74.5v-138q0 -79 -43 -117t-133 -38z"/>
    <glyph glyph-name="bracketleft.case" horiz-adv-x="359" d="M338 -80h-264v871h264v-112h-117v-648h117v-111z"/>
    <glyph glyph-name="bracketright.case" horiz-adv-x="359" d="M285 791v-871h-264v111h117v648h-117v112h264z"/>
    <glyph glyph-name="parenleft.case" horiz-adv-x="355" d="M351 -64l-120 -46q-177 201 -177 467q0 257 177 455l120 -46q-147 -186 -147 -410q0 -231 147 -420z"/>
    <glyph glyph-name="parenright.case" horiz-adv-x="355" d="M124 -110l-120 46q147 189 147 420q0 224 -147 410l120 46q177 -198 177 -455q0 -266 -177 -467z"/>
    <glyph glyph-name="parenleft.tf" d="M459 -94l-121 -46q-177 201 -177 467q0 258 178 455l120 -46q-76 -97 -112 -196t-36 -214q0 -230 148 -420z"/>
    <glyph glyph-name="parenright.tf" d="M281 -140l-120 46q147 189 147 420q0 224 -147 410l120 46q177 -198 177 -455q0 -266 -177 -467z"/>
    <glyph glyph-name="emdash.case" horiz-adv-x="857" d="M44 294v115h769v-115h-769z"/>
    <glyph glyph-name="endash.case" horiz-adv-x="621" d="M44 294v115h534v-115h-534z"/>
    <glyph glyph-name="hyphen.case" horiz-adv-x="415" d="M44 284v135h327v-135h-327z"/>
    <glyph glyph-name="hyphen.tf" d="M96 210v136h427v-136h-427z"/>
    <glyph glyph-name="guillemotleft.case" horiz-adv-x="569" d="M319 141h-139l-163 209l166 206h138l-163 -205zM550 141h-139l-163 209l166 206h138l-163 -205z"/>
    <glyph glyph-name="guillemotright.case" horiz-adv-x="569" d="M321 350l-163 -209h-139l161 210l-163 205h138zM552 350l-163 -209h-139l161 210l-163 205h138z"/>
    <glyph glyph-name="guilsinglleft.case" horiz-adv-x="338" d="M319 141h-139l-163 209l166 206h138l-163 -206z"/>
    <glyph glyph-name="guilsinglright.case" horiz-adv-x="338" d="M321 350l-163 -209h-139l161 210l-163 205h138z"/>
    <glyph glyph-name="parenleft.subs" horiz-adv-x="300" d="M297 -207l-104 -34q-133 143 -133 339q0 187 133 332l104 -34q-110 -134 -110 -298q0 -169 110 -305z"/>
    <glyph glyph-name="parenright.subs" horiz-adv-x="300" d="M107 -241l-104 35q110 134 110 304q0 164 -110 298l104 34q133 -145 133 -332q0 -196 -133 -339z"/>
    <glyph glyph-name="parenleft.sups" horiz-adv-x="300" d="M297 244l-104 -35q-133 143 -133 339q0 187 133 332l104 -34q-110 -134 -110 -298q0 -170 110 -304z"/>
    <glyph glyph-name="parenright.sups" horiz-adv-x="300" d="M107 209l-104 35q110 134 110 304q0 164 -110 298l104 34q133 -145 133 -332q0 -196 -133 -339z"/>
    <glyph glyph-name="uni0E3F.case" horiz-adv-x="663" d="M487 371q69 -10 106.5 -53t37.5 -113q0 -98 -63 -151.5t-175 -53.5h-33v-88h-58v88h-228v709h228v77h58v-77h21q111 0 171.5 -48.5t60.5 -138.5q0 -56 -33 -95.5t-93 -55.5zM302 599h-77v-188h77v188zM452 507q0 85 -92 91v-186q92 6 92 95zM225 316v-206h77v206h-77z M360 316v-206q52 1 81.5 29.5t29.5 78.5q0 46 -29 72t-81 26h-1z"/>
    <glyph glyph-name="uni0E3F.tf" d="M429 360q69 -10 107 -53t38 -110q0 -95 -62.5 -146t-174.5 -51h-3v-107h-58v107h-201v695h201v91h58v-91q107 -2 165.5 -48.5t58.5 -134.5q0 -56 -34 -96.5t-95 -55.5zM276 400v194h-66v-194h66zM417 500q0 82 -83 93v-191q83 11 83 98zM210 305v-204h66v204h-66z M334 305v-204q99 8 99 110q0 43 -26 67.5t-73 26.5z"/>
    <glyph glyph-name="uni0E3F.tf.tf.case" d="M429 368q69 -10 107 -53t38 -112q0 -98 -62.5 -150.5t-174.5 -52.5h-3v-101h-58v101h-201v709h201v87h58v-87q107 -2 165.5 -49.5t58.5 -137.5q0 -57 -34 -97.5t-95 -56.5zM276 408v200h-66v-200h66zM417 510q0 86 -83 97v-197q83 12 83 100zM210 313v-212h66v212h-66z M334 313v-212q99 8 99 116q0 43 -26 68t-73 28z"/>
    <glyph glyph-name="uni20BA.case" horiz-adv-x="586" d="M447 245l137 -22q-51 -223 -273 -223h-223v260l-71 -21v68l71 21v78l-71 -21v69l71 21v235h161v-189l202 59v-68l-202 -59v-78l202 59v-69l-202 -59v-187h43q66 0 101 32t54 94z"/>
    <glyph glyph-name="uni20BA.tf" d="M453 245l137 -22q-49 -223 -266 -223h-199v261l-71 -21v68l71 21v78l-71 -21v68l71 21v220h154v-173l178 54v-69l-178 -53v-78l178 53v-68l-178 -53v-189h27q62 0 96.5 32.5t50.5 93.5z"/>
    <glyph glyph-name="uni20BA.tf.tf.case" d="M453 248l137 -22q-48 -226 -266 -226h-199v265l-71 -22v69l71 22v79l-71 -22v70l71 21v228h154v-181l178 54v-69l-178 -54v-79l178 54v-69l-178 -54v-193h27q62 0 96.5 33.5t50.5 95.5z"/>
    <glyph glyph-name="uni20BD.case" horiz-adv-x="624" d="M342 266h-96v-78h130v-64h-130v-124h-161v124h-83v64h83v78h-82v106h82v338h270q115 0 186 -59q69 -60 69 -160q0 -106 -70.5 -165.5t-197.5 -59.5zM322 594h-76v-222h76q54 0 84 29.5t30 82.5q0 52 -30 81t-84 29z"/>
    <glyph glyph-name="uni20BD.tf" d="M354 259h-83v-74h133v-63h-133v-122h-156v122h-84v63h84v74h-84v106h84v330h239q134 0 194 -73q50 -63 50 -143q0 -42 -12 -79t-38.5 -69.5t-76 -52t-117.5 -19.5zM328 580h-57v-215h57q59 0 88 30.5t29 82.5q0 46 -29.5 74t-87.5 28z"/>
    <glyph glyph-name="uni20BD.tf.tf.case" d="M354 265h-83v-77h133v-64h-133v-124h-156v124h-84v64h84v77h-84v107h84v338h239q122 0 183 -64t61 -156q0 -96 -60 -161q-61 -64 -184 -64zM328 594h-57v-222h57q57 0 87 31.5t30 85.5q0 50 -30 77.5t-87 27.5z"/>
    <glyph glyph-name="uni20B9.case" horiz-adv-x="573" d="M64 710h506v-96h-178q42 -40 52 -106h126v-64h-124q-7 -74 -59 -122.5t-138 -61.5l210 -260h-175l-220 275v73h83q113 0 130 96h-213v64h214q-15 106 -128 106h-86v96z"/>
    <glyph glyph-name="uni20B9.tf" d="M566 695v-95h-166q38 -40 45 -99h121v-63h-119q-7 -77 -56.5 -125.5t-128.5 -54.5l214 -258h-184l-207 263v81h73q108 0 121 94h-194v63h193q-16 99 -127 99h-66v95h481z"/>
    <glyph glyph-name="uni20B9.tf.tf.case" d="M566 710v-96h-167q38 -40 47 -106h120v-64h-119q-8 -78 -57.5 -127t-127.5 -55l214 -262h-184l-207 267v81h73q106 0 121 96h-194v64h194q-16 106 -128 106h-66v96h481z"/>
    <glyph glyph-name="uni20A9.case" horiz-adv-x="926" d="M908 463v-60h-74l-18 -80h92v-60h-105l-59 -263h-172l-48 263h-122l-48 -263h-172l-58 263h-105v60h92l-18 80h-74v60h61l-55 247h149l39 -247h126l49 247h151l49 -247h125l40 247h149l-55 -247h61zM445 498l-6 -35h48l-6 35q-10 51 -16 129h-3q-12 -103 -17 -129z M327 403h-104l12 -80h77zM428 403l-15 -80h100l-15 80h-70zM615 323h76l13 80h-104zM288 203l12 60h-55l9 -59q10 -60 13 -113h3q5 43 18 112zM672 204l9 59h-54l12 -60q14 -77 17 -112h3q1 17 13 113z"/>
    <glyph glyph-name="uni20A9.tf" d="M584 458v-58h-39l-7 -75h46v-59h-52l-28 -266h-134l-28 266h-65l-27 -266h-135l-28 266h-52v59h46l-7 75h-39v58h33l-25 237h104l13 -237h61l27 237h124l26 -237h62l13 237h103l-25 -237h33zM304 528l-7 -70h25l-7 70q-2 64 -2 71h-6q0 -35 -3 -71zM215 400h-51l4 -75h38 zM291 400l-8 -75h53l-8 75h-37zM413 325h39l4 75h-51zM188 162l12 104h-29l6 -104q3 -43 3 -62h4q0 13 4 62zM443 162l6 104h-30l12 -104q4 -37 5 -62h4q0 18 3 62z"/>
    <glyph glyph-name="uni20A9.tf.tf.case" d="M584 464v-59h-39l-8 -76h47v-59h-53l-27 -270h-134l-27 270h-66l-27 -270h-135l-27 270h-53v59h47l-8 76h-39v59h33l-25 246h104l13 -246h61l27 246h124l27 -246h61l13 246h103l-25 -246h33zM304 541l-8 -77h27l-8 77q-2 34 -2 72h-6q0 -47 -3 -72zM215 405h-51l4 -76h38 zM290 405l-7 -76h54l-8 76h-39zM413 329h39l4 76h-51zM188 163l12 107h-29l6 -107q0 -11 1.5 -35.5t1.5 -27.5h4q0 11 4 63zM443 163l6 107h-30l12 -107q4 -42 5 -63h4q0 20 3 63z"/>
    <glyph glyph-name="currency.case" horiz-adv-x="567" d="M538 557l-56 -62q43 -61 43 -142t-42 -140l55 -61l-72 -68l-58 62q-53 -29 -120 -29q-70 0 -126 32l-61 -66l-72 68l60 66q-39 59 -39 136q0 79 40 137l-61 66l72 68l62 -66q55 31 125 31q66 0 118 -28l60 64zM288 231q49 0 81.5 34t32.5 88t-32.5 88t-81.5 34 q-51 0 -84 -34t-33 -88t33 -88t84 -34z"/>
    <glyph glyph-name="dollar.case" horiz-adv-x="619" d="M599 206q0 -94 -69.5 -153.5t-188.5 -67.5v-73h-66v73q-98 6 -170 48.5t-107 114.5l121 81q55 -107 156 -123v207l-38 8q-200 45 -200 205q0 86 63.5 139t174.5 60v73h66v-73q158 -14 242 -135l-108 -87q-48 87 -134 105v-175l43 -10q113 -25 164 -76t51 -141zM180 533 q0 -31 22 -51t73 -34v164q-45 -3 -70 -23.5t-25 -55.5zM341 298v-194q51 5 80.5 30t29.5 64q0 40 -25 62t-85 38z"/>
    <glyph glyph-name="Euro.case" horiz-adv-x="680" d="M518 213l149 -42q-35 -90 -110 -138t-183 -48q-127 0 -209 71.5t-106 199.5h-54v67h45q-1 9 -1 41q0 20 1 25h-45v67h51q23 130 106.5 200.5t215.5 70.5q110 0 184 -46.5t100 -131.5l-148 -43q-35 96 -139 96q-123 0 -155 -146h240v-67h-248v-24q0 -8 2 -42h246v-67h-236 q18 -69 58.5 -107t97.5 -38q48 0 84.5 27t53.5 75z"/>
    <glyph glyph-name="sterling.case" horiz-adv-x="655" d="M504 199l144 -23q-12 -89 -64 -140t-132 -51q-51 0 -122 13t-132 13q-76 0 -159 -19l-32 92q139 40 139 170q0 32 -5 70h-102v77h87q-13 56 -13 102q0 105 64 164.5t176 59.5q216 0 250 -181l-150 -33q-13 97 -96 97q-91 0 -91 -104q0 -46 13 -105h175v-77h-161 q3 -24 3 -50q0 -112 -100 -158q27 9 74 9q17 0 76 -7t76 -7q34 0 55.5 23t26.5 65z"/>
    <glyph glyph-name="currency.tf.case" d="M551 353q0 -79 -41 -140l55 -61l-72 -68l-58 62q-53 -29 -121 -29q-70 0 -126 32l-61 -66l-72 68l60 66q-39 58 -39 136q0 79 40 137l-61 66l72 68l62 -66q55 31 125 31q66 0 119 -28l60 64l72 -68l-57 -62q43 -61 43 -142zM231 265q33 -34 83 -34t83 34q32 34 32 88 t-32 89q-33 33 -83 33t-83 -33q-33 -34 -33 -89t33 -88z"/>
    <glyph glyph-name="dollar.tf.case" d="M574 202q0 -101 -62.5 -157t-174.5 -60v-73h-45v74q-101 7 -166.5 59t-88.5 142l139 45q26 -111 116 -128v188l-46 13q-91 24 -139.5 80t-48.5 135q0 93 63 147.5t171 58.5v72h45v-73q99 -7 159.5 -58.5t70.5 -138.5l-133 -38q-13 105 -97 121v-187l65 -18 q88 -24 130 -73.5t42 -130.5zM204 528q0 -67 88 -91v175q-88 -7 -88 -84zM337 280v-179q87 5 87 86q0 70 -87 93z"/>
    <glyph glyph-name="Euro.tf.case" d="M453 206l142 -43q-22 -85 -87 -131.5t-161 -46.5q-118 0 -186 71.5t-83 202.5h-63v67h59v6v60h-59v67h62q14 128 86 198t192 70q95 0 157.5 -43.5t80.5 -128.5l-142 -46q-12 52 -36 77t-65 25q-103 0 -114 -152h180v-67h-182v-66h182v-67h-179q16 -154 113 -154 q73 0 103 101z"/>
    <glyph glyph-name="sterling.tf.case" d="M442 199l145 -23q-12 -91 -63 -141t-127 -50q-42 0 -98 13t-107 13q-67 0 -133 -19l-32 95q119 41 119 173q0 27 -5 64h-89v77h71q-18 74 -18 116q0 99 60 154.5t165 55.5q198 0 228 -182l-144 -32q-12 100 -84 100q-79 0 -79 -91q0 -48 18 -121h139v-77h-124 q3 -23 3 -49q0 -57 -28 -99t-79 -62q27 5 58 5q15 0 65 -5.5t64 -5.5q31 0 51 23.5t24 67.5z"/>
    <glyph glyph-name="yen.tf.case" d="M419 710h171l-187 -372h138v-70h-152v-69h152v-70h-152v-129h-158v129h-152v70h152v69h-152v70h138l-187 372h171l91 -223q13 -30 17 -60h2q4 30 17 60z"/>
    <glyph glyph-name="yen.case" horiz-adv-x="604" d="M430 710h177l-216 -382h158v-71h-168v-59h168v-70h-168v-128h-158v128h-167v70h167v59h-167v71h157l-216 382h177l85 -173q28 -57 42 -106h2q10 38 42 106z"/>
    <glyph glyph-name="currency.tf" d="M551 303q0 -79 -41 -140l55 -61l-72 -68l-58 62q-53 -29 -121 -29q-70 0 -126 32l-61 -66l-72 68l60 66q-39 58 -39 136q0 79 40 137l-61 66l72 68l62 -66q55 31 125 31q66 0 119 -28l60 64l72 -68l-57 -62q43 -61 43 -142zM231 215q33 -34 83 -34t83 34q32 34 32 88 t-32 89q-33 33 -83 33t-83 -33q-33 -34 -33 -89t33 -88z"/>
    <glyph glyph-name="plus.case" horiz-adv-x="562" d="M338 431h180v-104h-180v-190h-115v190h-179v104h179v179h115v-179z"/>
    <glyph glyph-name="minus.case" horiz-adv-x="562" d="M518 325h-474v107h474v-107z"/>
    <glyph glyph-name="multiply.case" d="M486 634l82 -80l-177 -177l176 -176l-80 -82l-177 178l-177 -177l-80 80l177 177l-177 177l80 80l177 -176z"/>
    <glyph glyph-name="divide.case" horiz-adv-x="562" d="M328 505q-20 -19 -50 -19t-49 19t-19 49t19 49q29 31 75.5 14t42.5 -63q0 -30 -19 -49zM518 325h-474v105h474v-105zM278 130q-29 0 -48.5 19t-19.5 49q0 31 19 50t49 19q31 0 50 -18.5t19 -50.5q0 -30 -19.5 -49t-49.5 -19z"/>
    <glyph glyph-name="equal.case" horiz-adv-x="562" d="M518 422h-474v106h474v-106zM518 230h-474v106h474v-106z"/>
    <glyph glyph-name="notequal.case" d="M518 528v-106h-159l-34 -86h193v-106h-234l-46 -117h-82l46 117h-158v106h199l34 86h-233v106h274l44 113h82l-44 -113h118z"/>
    <glyph glyph-name="greater.case" d="M566 321l-473 -198v121l338 133l-338 133v119l473 -198v-110z"/>
    <glyph glyph-name="less.case" d="M527 244v-121l-473 198v110l473 198v-119l-338 -133z"/>
    <glyph glyph-name="greaterequal.case" d="M557 382l-473 -198v121l338 133l-338 133v119l473 -198v-110zM85 153h471v-103h-471v103z"/>
    <glyph glyph-name="lessequal.case" d="M536 305v-121l-473 198v110l473 198v-119l-338 -133zM64 50v103h471v-103h-471z"/>
    <glyph glyph-name="plusminus.case" d="M366 593v-154h183v-104h-183v-145h-114v145h-181v104h181v154h114zM549 50h-478v106h478v-106z"/>
    <glyph glyph-name="approxequal.case" d="M427 395q-40 0 -121 32q-78 31 -111 31t-67.5 -13t-56.5 -34v112q20 19 55.5 31.5t68.5 12.5q50 0 125 -31q76 -32 107 -32q75 0 122 46v-112q-19 -19 -53.5 -31t-68.5 -12zM427 201q-40 0 -121 32q-78 31 -111 31q-34 0 -68 -13t-56 -33v112q20 19 55 31t69 12 q50 0 125 -31q76 -32 107 -32q72 0 122 47v-112q-19 -19 -53.5 -31.5t-68.5 -12.5z"/>
    <glyph glyph-name="asciitilde.case" d="M412 251q-36 -1 -76.5 19.5t-73 41t-52.5 19.5q-59 0 -75 -70l-90 22q16 69 59 107.5t103 38.5q36 1 76.5 -20t73 -42t52.5 -19q57 0 76 70l90 -21q-16 -69 -59 -107.5t-104 -38.5z"/>
    <glyph glyph-name="logicalnot.case" d="M63 332v104h474v-264h-108v160h-366z"/>
    <glyph glyph-name="infinity.case" d="M444 541q67 0 108 -44t41 -118q0 -71 -42 -118q-42 -46 -106 -46q-85 0 -135 80q-53 -80 -134 -80q-67 0 -108 44t-41 118q0 71 42 118q42 46 106 46q85 0 135 -80q53 80 134 80zM187 310q23 0 40 15t36 50q-35 71 -77 71q-26 0 -41 -17.5t-15 -50.5t15 -50.5t42 -17.5z M434 310q26 0 41 17.5t15 50.5t-15 50.5t-42 17.5q-23 0 -40 -15t-36 -50q35 -71 77 -71z"/>
    <glyph glyph-name="emptyset.case" horiz-adv-x="541" d="M466 613l46 -44l-56 -60q52 -62 52 -154q0 -105 -66 -171q-68 -66 -172 -66q-80 0 -138 39l-57 -61l-46 43l56 61q-52 62 -52 154q0 105 67 171q67 65 171 65q79 0 138 -39zM154 355q0 -37 15 -64l159 172q-26 14 -57 14q-51 0 -84 -34t-33 -88zM386 354q0 33 -14 63 l-159 -171q26 -14 57 -14q51 0 83.5 34t32.5 88z"/>
    <glyph glyph-name="plus.tf.case" d="M367 431h180v-104h-180v-190h-115v190h-179v104h179v179h115v-179z"/>
    <glyph glyph-name="minus.tf.case" d="M547 325h-474v107h474v-107z"/>
    <glyph glyph-name="divide.tf.case" d="M357 505q-19 -19 -49.5 -19t-49.5 19t-19 49t19 49q29 31 75.5 14t42.5 -63q0 -30 -19 -49zM547 325h-474v105h474v-105zM307 130q-29 0 -48.5 19t-19.5 49q0 31 19 50t49 19q31 0 50 -18.5t19 -50.5q0 -30 -19.5 -49t-49.5 -19z"/>
    <glyph glyph-name="equal.tf.case" d="M519 422h-474v106h474v-106zM519 230h-474v106h474v-106z"/>
    <glyph glyph-name="emptyset.tf.case" d="M506 613l46 -44l-56 -60q52 -62 52 -154q0 -105 -66 -171q-68 -66 -172 -66q-80 0 -138 39l-57 -61l-46 43l56 61q-52 62 -52 154q0 105 67 171q67 65 171 65q79 0 138 -39zM194 355q0 -37 15 -64l159 172q-26 14 -57 14q-51 0 -84 -34t-33 -88zM426 354q0 33 -14 63 l-159 -171q26 -14 57 -14q51 0 83.5 34t32.5 88z"/>
    <glyph glyph-name="plus.tf" d="M367 381h180v-104h-180v-190h-115v190h-179v104h179v179h115v-179z"/>
    <glyph glyph-name="minus.tf" d="M547 275h-474v107h474v-107z"/>
    <glyph glyph-name="divide.tf" d="M357 455q-19 -19 -49.5 -19t-49.5 19t-19 49t19 49q29 31 75.5 14t42.5 -63q0 -30 -19 -49zM547 275h-474v105h474v-105zM307 80q-29 0 -48.5 19t-19.5 49q0 31 19 50t49 19q31 0 50 -18.5t19 -50.5q0 -30 -19.5 -49t-49.5 -19z"/>
    <glyph glyph-name="equal.tf" d="M519 372h-474v106h474v-106zM519 180h-474v106h474v-106z"/>
    <glyph glyph-name="emptyset.tf" d="M506 563l46 -44l-56 -60q52 -62 52 -154q0 -105 -66 -171q-68 -66 -172 -66q-80 0 -138 39l-57 -61l-46 43l56 61q-52 62 -52 154q0 105 67 171q67 65 171 65q79 0 138 -39zM194 305q0 -37 15 -64l159 172q-26 14 -57 14q-51 0 -84 -34t-33 -88zM426 304q0 33 -14 63 l-159 -171q26 -14 57 -14q51 0 83.5 34t32.5 88z"/>
    <glyph glyph-name="uni21BB.alt" horiz-adv-x="1002" d="M871 384h102l-148 -196l-147 196h104q-6 120 -81 190q-74 70 -193 70q-123 0 -230 -95l-55 65q125 117 293 117q148 0 248 -96q99 -95 107 -251zM491 63q124 0 231 95l55 -65q-125 -117 -294 -117q-146 0 -247 95q-100 94 -107 248h-100l147 196l148 -196h-106 q8 -116 83 -186q74 -70 190 -70z"/>
    <glyph glyph-name="arrowup.ss03" horiz-adv-x="800" d="M332 -35v544l-171 -189l-87 104l327 326l325 -326l-84 -104l-175 189v-544h-135z"/>
    <glyph glyph-name="uni2197.ss03" horiz-adv-x="892" d="M688 242l3 247l-518 -529l-98 102l525 526l-249 -4v126h467v-468h-130z"/>
    <glyph glyph-name="arrowright.ss03" horiz-adv-x="1030" d="M525 91l192 174h-642v128h642l-191 178l103 85l327 -326l-327 -327z"/>
    <glyph glyph-name="uni2198.ss03" horiz-adv-x="892" d="M173 738l518 -529l-3 247h130v-468h-467v126l249 -4l-525 526z"/>
    <glyph glyph-name="arrowdown.ss03" horiz-adv-x="800" d="M161 390l171 -189v544h135v-544l175 189l84 -104l-325 -326l-327 326z"/>
    <glyph glyph-name="uni2199.ss03" horiz-adv-x="892" d="M204 456l-3 -247l518 529l98 -102l-525 -526l249 4v-126h-467v468h130z"/>
    <glyph glyph-name="arrowleft.ss03" horiz-adv-x="1030" d="M955 265h-642l192 -174l-104 -88l-327 327l327 326l103 -85l-191 -178h642v-128z"/>
    <glyph glyph-name="uni2196.ss03" horiz-adv-x="892" d="M719 -40l-518 529l3 -247h-130v468h467v-126l-249 4l525 -526z"/>
    <glyph glyph-name="at.case" horiz-adv-x="842" d="M431 -31q-184 0 -293 103q-109 102 -109 275q0 171 111 277q112 107 291 107q175 0 279 -99q103 -99 103 -265q0 -106 -49 -168.5t-132 -62.5q-108 0 -134 78q-39 -80 -140 -80q-63 0 -102.5 35t-39.5 91q0 57 38 88.5t123 45.5l111 16v19q0 36 -14 52t-47 16 q-62 0 -65 -64h-133q3 70 57 111.5t142 41.5q187 0 187 -165v-140q0 -39 10 -56t34 -17q37 0 58 42t21 115q0 142 -80.5 221.5t-227.5 79.5q-150 0 -236 -86q-87 -87 -87 -233q0 -140 92 -226q91 -85 243 -85q99 0 183 40l28 -60q-96 -47 -222 -47zM405 224q39 0 62 24 t23 64v26l-62 -9q-77 -12 -77 -58q0 -20 15.5 -33.5t38.5 -13.5z"/>
    <glyph glyph-name="section.case" horiz-adv-x="477" d="M403 243q49 -37 49 -104q0 -72 -58.5 -114t-157.5 -42q-168 0 -232 117l91 73q47 -84 143 -84q66 0 66 43q0 19 -14 30t-53 24l-108 37q-131 44 -131 146q0 71 72 105q-53 41 -53 109t56.5 106t156.5 38q142 0 208 -96l-86 -75q-48 69 -126 69q-63 0 -63 -44 q0 -17 12.5 -28.5t43.5 -21.5l109 -37q68 -22 98 -56.5t30 -89.5q0 -67 -53 -105zM198 323l116 -38q15 15 15.5 39t-13.5 38q-13 13 -49 27l-114 43q-20 -17 -20 -43q0 -45 65 -66z"/>
    <glyph glyph-name="bar.case" horiz-adv-x="245" d="M172 -84h-100v877h100v-877z"/>
    <glyph glyph-name="brokenbar.case" horiz-adv-x="244" d="M72 800h100v-375h-100v375zM72 304h100v-381h-100v381z"/>
    <glyph glyph-name="dagger.case" horiz-adv-x="494" d="M444 446h-140v-506h-114v506h-139v94h139v220h114v-220h140v-94z"/>
    <glyph glyph-name="daggerdbl.case" horiz-adv-x="494" d="M444 540v-94h-140v-188h139v-94h-139v-224h-114v224h-139v94h139v188h-139v94h139v220h114v-220h140z"/>
    <glyph glyph-name="bar.tf" horiz-adv-x="310" d="M205 -117h-100v877h100v-877z"/>
    <glyph glyph-name="plus.subs" horiz-adv-x="439" d="M265 141h133v-83h-133v-136h-90v136h-134v83h134v129h90v-129z"/>
    <glyph glyph-name="minus.subs" horiz-adv-x="439" d="M398 59h-357v82h357v-82z"/>
    <glyph glyph-name="multiply.subs" horiz-adv-x="485" d="M373 290l66 -64l-131 -127l130 -127l-64 -65l-132 128l-131 -127l-64 63l130 128l-130 127l64 64l131 -128z"/>
    <glyph glyph-name="divide.subs" horiz-adv-x="439" d="M256 186q-16 -15 -39 -15t-38 15q-16 15 -16 39t15 39t39 15t39 -15t15 -39t-15 -39zM398 59h-357v82h357v-82zM217 -82q-24 0 -39 15t-15 39t15.5 39t38.5 15q24 0 39 -15t15 -39t-15.5 -39t-38.5 -15z"/>
    <glyph glyph-name="plus.sups" horiz-adv-x="439" d="M265 591h133v-83h-133v-136h-90v136h-134v83h134v129h90v-129z"/>
    <glyph glyph-name="minus.sups" horiz-adv-x="439" d="M398 509h-357v82h357v-82z"/>
    <glyph glyph-name="multiply.sups" horiz-adv-x="485" d="M373 740l66 -64l-131 -127l130 -127l-64 -65l-132 128l-131 -127l-64 63l130 128l-130 127l64 64l131 -128z"/>
    <glyph glyph-name="divide.sups" horiz-adv-x="439" d="M256 636q-16 -15 -39 -15t-38 15q-16 15 -16 39t15 39t39 15t39 -15t15 -39t-15 -39zM398 509h-357v82h357v-82zM217 368q-24 0 -39 15t-15 39t15.5 39t38.5 15q24 0 39 -15t15 -39t-15.5 -39t-38.5 -15z"/>
    <glyph glyph-name="caronaccentcomb" horiz-adv-x="232" d="M90 521l-24 48q27 5 38 14t11 25h-65v102h132v-89q0 -83 -92 -100z"/>
    </font>
</defs>
</svg>
