<?xml version="1.0" standalone="no"?>
<!DOCTYPE svg PUBLIC "-//W3C//DTD SVG 1.1//EN" "http://www.w3.org/Graphics/SVG/1.1/DTD/svg11.dtd" >
<svg xmlns="http://www.w3.org/2000/svg" xmlns:xlink="http://www.w3.org/1999/xlink" version="1.1">
<metadata>
Created by FontForge 20170731 at Thu Oct  5 12:25:26 2023
 By Aleksey,,,
Copyright (c) 1987, 1991, 1993, 2002 Adobe Systems Incorporated.  All Rights Reserved.
</metadata>
<defs>
<font id="FuturaStd-Light" horiz-adv-x="1269" >
  <font-face 
    font-family="Futura Std Light"
    font-weight="300"
    font-stretch="normal"
    units-per-em="2048"
    panose-1="2 11 4 2 2 2 4 2 3 3"
    ascent="1690"
    descent="-358"
    x-height="946"
    cap-height="1544"
    bbox="-358 -618 2308 1989"
    underline-thickness="102"
    underline-position="-307"
    unicode-range="U+0020-FB02"
  />
<missing-glyph horiz-adv-x="1024" 
d="M0 0v1434h1024v-1434h-1024zM512 809l348 522h-696zM573 717l349 -522v1044zM164 102h696l-348 523zM102 1239v-1044l349 522z" />
    <glyph glyph-name="fi" unicode="fi" horiz-adv-x="972" 
d="M778 946v-946h-92v946h92zM733 1346q35 0 59.5 -25t24.5 -59q0 -35 -24.5 -59.5t-59.5 -24.5t-59.5 24.5t-24.5 59.5q0 34 24.5 59t59.5 25zM250 860v-860h-92v860h-105v86h105v424q0 168 37 232q31 55 87.5 84.5t123.5 29.5q43 0 81 -14v-84q-8 1 -23 4.5t-27.5 5.5
t-24.5 2q-33 0 -59 -10t-43 -24t-29 -38.5t-18 -45.5t-9 -53.5t-3.5 -53t-0.5 -53.5v-406h237v-86h-237z" />
    <glyph glyph-name="fl" unicode="fl" horiz-adv-x="899" 
d="M250 860v-860h-92v860h-105v86h105v424q0 168 37 232q31 55 87.5 84.5t123.5 29.5q43 0 81 -14v-84q-8 1 -23 4.5t-27.5 5.5t-24.5 2q-33 0 -59 -10t-43 -24t-29 -38.5t-18 -45.5t-9 -53.5t-3.5 -53t-0.5 -53.5v-406h237v-86h-237zM741 1690v-1690h-92v1690h92z" />
    <glyph glyph-name=".notdef" horiz-adv-x="1024" 
d="M0 0v1434h1024v-1434h-1024zM512 809l348 522h-696zM573 717l349 -522v1044zM164 102h696l-348 523zM102 1239v-1044l349 522z" />
    <glyph glyph-name=".null" horiz-adv-x="0" 
 />
    <glyph glyph-name="nonmarkingreturn" horiz-adv-x="682" 
 />
    <glyph glyph-name="space" unicode=" " horiz-adv-x="634" 
 />
    <glyph glyph-name="exclam" unicode="!" horiz-adv-x="655" 
d="M328 147q35 0 59.5 -24.5t24.5 -59.5t-24.5 -59t-59.5 -24t-59.5 24t-24.5 59t24.5 59.5t59.5 24.5zM279 293v1251h98v-1251h-98z" />
    <glyph glyph-name="quotedbl" unicode="&#x22;" horiz-adv-x="569" 
d="M119 1544h98l-22 -491h-56zM352 1544h99l-23 -491h-55z" />
    <glyph glyph-name="numbersign" unicode="#" 
d="M1098 565v-98h-258l-76 -467h-94l73 467h-276l-68 -467h-98l68 467h-248v98h262l47 332h-252v98h266l66 435h102l-65 -435h278l66 435h102l-67 -435h225v-98h-242l-53 -332h242zM809 897h-279l-49 -332h279z" />
    <glyph glyph-name="dollar" unicode="$" 
d="M711 741v-659q125 31 207.5 130t82.5 226q0 35 -10 66.5t-24 55.5t-40.5 48.5t-46.5 40t-56 35.5t-55.5 29.5t-57.5 27.5zM618 895v571q-109 0 -185.5 -88t-76.5 -200q0 -53 18.5 -95.5t63 -77.5t72 -52t89.5 -48q6 -4 10.5 -6t8.5 -4zM618 78v708q-9 4 -27 13
q-146 73 -206 121q-126 104 -127 254q0 164 99 271.5t261 119.5v215h93v-219q98 -12 182 -69t131 -144l-76 -62q-42 72 -103 122t-134 58v-614q17 -9 57 -28.5t58 -29t53.5 -29t52.5 -32t45 -34.5t42 -40t32.5 -44.5t27 -53.5t15 -60.5t6.5 -70.5q0 -162 -114 -288
t-275 -158v-232h-93v228q-160 4 -276 91t-172 242l84 39q47 -125 143.5 -202.5t220.5 -71.5z" />
    <glyph glyph-name="percent" unicode="%" horiz-adv-x="1359" 
d="M369 1559q132 0 221.5 -87t89.5 -219q0 -129 -90.5 -215t-220.5 -86t-221 86t-91 215q0 132 90 219t222 87zM369 1473q-92 0 -159 -64.5t-67 -155.5q0 -89 67.5 -152t158.5 -63t158 63t67 152q0 91 -66.5 155.5t-158.5 64.5zM991 592q132 0 222 -86.5t90 -218.5
q0 -129 -91 -215t-221 -86t-220.5 86t-90.5 215q0 132 89.5 218.5t221.5 86.5zM991 506q-92 0 -158.5 -64t-66.5 -155q0 -89 67 -152t158 -63t158.5 63t67.5 152q0 91 -67 155t-159 64zM1102 1579l67 -35l-917 -1579l-64 37z" />
    <glyph glyph-name="ampersand" unicode="&#x26;" horiz-adv-x="1314" 
d="M647 1481q-82 0 -139 -65.5t-57 -149.5q0 -39 15 -80t32 -68t46.5 -70.5t43.5 -66.5q19 15 65.5 48.5t70.5 53.5t54.5 53t44 70t13.5 82q0 79 -55 136t-134 57zM1212 0l-194 256q-74 -62 -135.5 -107t-136 -89.5t-150 -67.5t-147.5 -23q-169 0 -286.5 120t-117.5 288
q0 94 36 175t121 157.5t135.5 112.5t166.5 109q7 5 10 7q-7 10 -31 42.5t-33.5 46t-29 43.5t-28 50t-20 47.5t-16 54t-4.5 54.5q0 122 89.5 209.5t211.5 87.5q119 0 200 -84t81 -203q0 -51 -17 -98t-40.5 -82t-66 -74t-76.5 -64.5t-89 -62.5l381 -520l197 215l75 -41
l-215 -246l236 -313h-107zM571 860l-98 -65q-41 -26 -65 -42t-63.5 -45.5t-63.5 -52t-53.5 -55.5t-45.5 -64t-27.5 -69.5t-11.5 -79.5q0 -134 87 -230t219 -96q64 0 132.5 23.5t141 71t120 83.5t118.5 95z" />
    <glyph glyph-name="quotesingle" unicode="'" horiz-adv-x="454" 
d="M178 1544h98l-22 -491h-55z" />
    <glyph glyph-name="parenleft" unicode="(" horiz-adv-x="491" 
d="M281 1597l75 -53q-129 -456 -129 -940q0 -450 129 -915l-75 -51q-72 185 -109 455.5t-37 510.5q0 253 35.5 528.5t110.5 464.5z" />
    <glyph glyph-name="parenright" unicode=")" horiz-adv-x="491" 
d="M135 1544l76 53q75 -188 110 -463t35 -530q0 -241 -36.5 -511t-108.5 -455l-76 51q129 465 129 915q0 484 -129 940z" />
    <glyph glyph-name="asterisk" unicode="*" horiz-adv-x="1267" 
d="M592 1237l-8 307h100l-8 -307l291 102l30 -96l-295 -88l189 -244l-82 -59l-174 254l-176 -254l-80 57l186 246l-295 88l31 96z" />
    <glyph glyph-name="plus" unicode="+" 
d="M586 573v476h98v-476h475v-98h-475v-475h-98v475h-475v98h475z" />
    <glyph glyph-name="comma" unicode="," horiz-adv-x="634" 
d="M313 152l93 -29l-170 -463l-62 23z" />
    <glyph glyph-name="hyphen" unicode="-" horiz-adv-x="389" 
d="M0 700h389v-92h-389v92z" />
    <glyph glyph-name="period" unicode="." horiz-adv-x="634" 
d="M317 147q35 0 59.5 -24.5t24.5 -59.5t-24.5 -59t-59.5 -24t-59.5 24t-24.5 59t24.5 59.5t59.5 24.5z" />
    <glyph glyph-name="slash" unicode="/" horiz-adv-x="1310" 
d="M1167 1690l72 -37l-1092 -1944l-75 39z" />
    <glyph glyph-name="zero" unicode="0" 
d="M635 1565q110 0 204.5 -50.5t159 -132t110 -185t66.5 -209.5t21 -206q0 -99 -20 -206t-65 -214t-108.5 -191.5t-159 -137.5t-208.5 -53t-208.5 53t-159 137.5t-108.5 191.5t-65 214t-20 206q0 100 21 206t66.5 209.5t110 185t159 132t204.5 50.5zM635 72q80 0 149 33
t118 89.5t88 128t62 152t34.5 158t11.5 149.5q0 63 -11.5 136t-34.5 151.5t-62 150t-88 128.5t-118.5 91t-148.5 34t-148.5 -34t-118.5 -91t-88 -128.5t-62 -150t-34.5 -151.5t-11.5 -136q0 -72 11.5 -149.5t34.5 -158t62 -152t88 -128t118 -89.5t149 -33z" />
    <glyph glyph-name="one" unicode="1" 
d="M631 1452h-244l47 92h295v-1544h-98v1452z" />
    <glyph glyph-name="two" unicode="2" 
d="M360 92h734v-92h-953l576 633q126 139 175 208q109 153 109 277q0 150 -107 252.5t-257 102.5q-159 0 -264 -104t-101 -261h-98q3 94 23 163t73 130q67 75 167 119.5t200 44.5q193 0 328 -130.5t135 -322.5q0 -60 -19.5 -122t-42.5 -106.5t-71.5 -107.5t-74 -92
t-83.5 -92z" />
    <glyph glyph-name="three" unicode="3" 
d="M618 758v92q139 3 233.5 92.5t94.5 228.5q0 125 -90 213.5t-215 88.5q-132 0 -211.5 -79.5t-87.5 -213.5h-98q12 178 117 281.5t282 103.5q166 0 283.5 -115.5t117.5 -282.5q0 -119 -62 -215t-169 -143q116 -44 185 -148t69 -227q0 -192 -130 -323t-323 -131
q-178 0 -303.5 112.5t-124.5 286.5h99q12 -136 100.5 -221.5t226.5 -85.5q146 0 251.5 105.5t105.5 250.5q0 147 -101.5 238.5t-249.5 91.5z" />
    <glyph glyph-name="four" unicode="4" 
d="M956 385h218v-92h-218v-293h-98v293h-833v12l919 1292h12v-1212zM858 385v913h-12l-641 -901v-12h653z" />
    <glyph glyph-name="five" unicode="5" 
d="M1087 1452h-516l-129 -418q55 17 117 17q109 0 206.5 -41.5t167 -112t110 -168t40.5 -205.5q0 -155 -74 -280t-201.5 -194.5t-281.5 -69.5q-140 0 -261.5 68t-194.5 188l90 36q60 -91 160 -145.5t208 -54.5q194 0 325.5 130t131.5 324q0 182 -132.5 307t-317.5 125
q-119 0 -236 -69l201 655h587v-92z" />
    <glyph glyph-name="six" unicode="6" 
d="M696 1565l80 -60l-340 -481l4 -4q96 41 205 41t209 -43.5t172 -117t115 -173.5t43 -209q0 -100 -41.5 -197t-112.5 -174q-154 -167 -397 -167q-148 0 -273.5 70.5t-199.5 194.5t-74 273q0 182 113 340zM635 72q185 0 317.5 131.5t132.5 316.5q0 121 -60.5 224.5
t-164.5 164t-225 60.5q-122 0 -226 -60.5t-164.5 -164t-60.5 -224.5q0 -186 132.5 -317t318.5 -131z" />
    <glyph glyph-name="seven" unicode="7" 
d="M1081 1452h-938v92h1121l-1106 -1560l-76 59z" />
    <glyph glyph-name="eight" unicode="8" 
d="M635 756q-143 0 -246.5 -100t-103.5 -242t103.5 -242t246.5 -100q142 0 246 100.5t104 241.5t-104 241.5t-246 100.5zM635 -20q-185 0 -317 121t-132 302q0 281 252 402q-99 49 -158 145.5t-59 206.5q0 174 119.5 291t294.5 117t294.5 -117t119.5 -291q0 -109 -59.5 -206
t-158.5 -146q252 -121 252 -402q0 -120 -61.5 -217.5t-164 -151.5t-222.5 -54zM635 1473q-129 0 -222.5 -92.5t-93.5 -221.5t92.5 -220t223.5 -91q129 0 222 91t93 220t-93.5 221.5t-221.5 92.5z" />
    <glyph glyph-name="nine" unicode="9" 
d="M573 -16l-79 59l342 481l-5 4q-100 -41 -206 -41q-109 0 -208.5 43.5t-172 116t-115.5 172.5t-43 209q0 110 44.5 210.5t119.5 171.5t176 113t211 42q152 0 277.5 -72t197.5 -197.5t72 -277.5q0 -169 -113 -330zM637 1473q-185 0 -319 -131t-134 -316q0 -121 61.5 -224
t166 -162.5t225.5 -59.5q185 0 316.5 131t131.5 315q0 122 -60.5 225t-163.5 162.5t-224 59.5z" />
    <glyph glyph-name="colon" unicode=":" horiz-adv-x="634" 
d="M317 147q35 0 59.5 -24.5t24.5 -59.5t-24.5 -59t-59.5 -24t-59.5 24t-24.5 59t24.5 59.5t59.5 24.5zM317 967q35 0 59.5 -24.5t24.5 -59.5t-24.5 -59.5t-59.5 -24.5t-59.5 24.5t-24.5 59.5t24.5 59.5t59.5 24.5z" />
    <glyph glyph-name="semicolon" unicode=";" horiz-adv-x="634" 
d="M313 152l93 -29l-170 -463l-62 23zM330 967q35 0 59.5 -24.5t24.5 -59.5t-24.5 -59.5t-59.5 -24.5t-59.5 24.5t-24.5 59.5t24.5 59.5t59.5 24.5z" />
    <glyph glyph-name="less" unicode="&#x3c;" 
d="M217 524l942 -440v-94l-1048 481v109l1048 456v-94z" />
    <glyph glyph-name="equal" unicode="=" 
d="M1159 748v-99h-1048v99h1048zM1159 399v-98h-1048v98h1048z" />
    <glyph glyph-name="greater" unicode="&#x3e;" 
d="M111 84l942 440l-942 418v94l1048 -456v-109l-1048 -481v94z" />
    <glyph glyph-name="question" unicode="?" horiz-adv-x="1005" 
d="M725 621h98q6 -141 -83.5 -235.5t-235.5 -94.5q-135 0 -229.5 87t-94.5 218q0 132 77 204.5t216 108.5q47 12 71 19t62 21t57 26.5t44 34t36.5 46t20 59t8.5 77.5q0 118 -76.5 199.5t-195.5 81.5q-115 0 -192 -75t-75 -186q0 -60 11 -108h-94q-15 81 -15 131
q0 144 109 237t258 93q165 0 266.5 -103.5t101.5 -265.5q0 -84 -23.5 -147t-70.5 -105t-105.5 -68.5t-140.5 -46.5q-51 -13 -77 -21t-65.5 -26.5t-59 -39.5t-34.5 -57t-15 -83q0 -95 64.5 -157t164.5 -62t159.5 70.5t57.5 167.5zM498 147q35 0 59.5 -24.5t24.5 -59.5
t-24.5 -59t-59.5 -24t-59.5 24t-24.5 59t24.5 59.5t59.5 24.5z" />
    <glyph glyph-name="at" unicode="@" horiz-adv-x="1638" 
d="M690 395q94 3 177.5 78.5t111.5 165.5l96 301q9 28 -2 65.5t-37 71.5t-71.5 58t-98.5 24q-77 0 -151.5 -54.5t-126 -135.5t-83.5 -174t-32 -172q0 -95 58 -163t159 -65zM1128 1108l31 96h90l-211 -663q-9 -27 -13 -43.5t-4.5 -38.5t7.5 -34t27.5 -21t52.5 -9
q82 0 167.5 82t140 203t54.5 231q0 124 -53 232t-139.5 180.5t-197 114t-226.5 41.5q-139 0 -266.5 -59t-219 -156t-146 -228.5t-54.5 -271.5q0 -139 56.5 -268.5t150 -223t220.5 -150t263 -56.5q175 0 325 72t234 206h115q-88 -166 -266 -265t-408 -99q-161 0 -305.5 63
t-247.5 170.5t-163 254.5t-60 310q0 128 39.5 248.5t111.5 217t166.5 169.5t211 112.5t239.5 39.5q195 0 356.5 -85t255.5 -237t94 -340q0 -119 -44 -231t-112.5 -190.5t-153.5 -125.5t-167 -47q-55 0 -96.5 26.5t-56.5 74.5q-118 -101 -267 -101q-128 0 -200 84.5
t-72 216.5q0 85 22 174t65.5 171t102.5 147t138.5 104t167.5 39q73 0 138 -36t107 -101z" />
    <glyph glyph-name="A" unicode="A" horiz-adv-x="1312" 
d="M995 508h-678l-206 -508h-101l647 1595l646 -1595h-101zM958 600l-301 746l-303 -746h604z" />
    <glyph glyph-name="B" unicode="B" horiz-adv-x="1157" 
d="M264 752v-660h236q62 0 86 0.5t73.5 5.5t86 18.5t69.5 35.5q72 48 112 118.5t40 155.5q0 88 -42 163.5t-118 112.5q-100 50 -326 50h-217zM561 0h-395v1544h309q107 0 182 -17t138 -73q129 -113 129 -319q0 -214 -179 -316q143 -29 231.5 -135.5t88.5 -253.5
q0 -197 -143 -319q-76 -64 -161.5 -87.5t-199.5 -23.5zM264 1452v-608h170h33.5h34t30 0.5t32.5 2.5t28.5 4.5t31.5 7t28 10t31 14t28 18.5q63 45 88.5 104.5t25.5 143.5q0 79 -32 146.5t-95 107.5q-36 23 -86 34.5t-83.5 13t-94.5 1.5h-170z" />
    <glyph glyph-name="C" unicode="C" horiz-adv-x="1513" 
d="M1393 1364v-135q-89 109 -233 176.5t-286 67.5q-188 0 -350.5 -98t-257 -262t-94.5 -351q0 -133 54.5 -256.5t152.5 -220.5q101 -96 232 -154.5t263 -58.5q136 0 285 66t234 169v-135q-230 -192 -514 -192q-158 0 -306.5 63.5t-257.5 169t-175 252t-66 305.5
q0 161 65 308.5t174 254t258 169.5t310 63q140 0 274.5 -53t237.5 -148z" />
    <glyph glyph-name="D" unicode="D" horiz-adv-x="1335" 
d="M166 0v1544h278q184 0 319 -41t255 -153q120 -113 183 -263t63 -317q0 -161 -61 -307t-177 -258q-121 -116 -258.5 -160.5t-323.5 -44.5h-278zM264 92h178q163 0 288.5 42t230.5 145q98 98 151 225.5t53 265.5q0 149 -57.5 282t-165.5 232q-104 94 -224 131t-276 37h-178
v-1360z" />
    <glyph glyph-name="E" unicode="E" horiz-adv-x="1038" 
d="M903 1452h-639v-561h623v-92h-623v-707h639v-92h-737v1544h737v-92z" />
    <glyph glyph-name="F" unicode="F" horiz-adv-x="909" 
d="M788 1452h-524v-561h510v-92h-510v-799h-98v1544h622v-92z" />
    <glyph glyph-name="G" unicode="G" horiz-adv-x="1687" 
d="M963 743h651q3 -161 -31.5 -285t-130.5 -229q-109 -118 -265 -183.5t-321 -65.5q-210 0 -393 107t-291 288.5t-108 390.5q0 130 41 252t115.5 220.5t173.5 172.5t222 114t253 40q205 0 374 -95t295 -266l-80 -63q-105 157 -258.5 244.5t-337.5 87.5q-138 0 -267.5 -58
t-224 -153t-151.5 -224t-57 -266q0 -188 94 -349t255.5 -256t350.5 -95q121 0 238.5 45.5t216.5 124.5q97 82 140.5 180.5t48.5 228.5h-553v92z" />
    <glyph glyph-name="H" unicode="H" horiz-adv-x="1466" 
d="M264 889h938v655h98v-1544h-98v797h-938v-797h-98v1544h98v-655z" />
    <glyph glyph-name="I" unicode="I" horiz-adv-x="430" 
d="M264 1544v-1544h-98v1544h98z" />
    <glyph glyph-name="J" unicode="J" horiz-adv-x="446" 
d="M182 1544h99v-1515q0 -62 -6.5 -111t-25 -96t-48 -78t-78.5 -49.5t-115 -18.5q-83 0 -151.5 46t-104.5 122l74 56q27 -57 78.5 -94t111.5 -37q44 0 76 16.5t49 40.5t26.5 62t12 68.5t2.5 72.5v1515z" />
    <glyph glyph-name="K" unicode="K" horiz-adv-x="1165" 
d="M264 823l733 721h131l-755 -743l803 -801h-129l-742 737l-41 -41v-696h-98v1544h98v-721z" />
    <glyph glyph-name="L" unicode="L" horiz-adv-x="669" 
d="M264 1544v-1452h393v-92h-491v1544h98z" />
    <glyph glyph-name="M" unicode="M" horiz-adv-x="1837" 
d="M1724 0l-264 1278h-4l-538 -1329l-537 1329h-4l-264 -1278h-95l332 1595l568 -1405l569 1405l332 -1595h-95z" />
    <glyph glyph-name="N" unicode="N" horiz-adv-x="1726" 
d="M1561 1544v-1595l-1297 1378v-1327h-98v1565l1296 -1368v1347h99z" />
    <glyph glyph-name="O" unicode="O" horiz-adv-x="1748" 
d="M874 1565q160 0 308 -63.5t256 -170t172.5 -253t64.5 -306.5q0 -128 -41 -248.5t-116 -218t-174 -171t-220.5 -114t-249.5 -40.5q-160 0 -307.5 63t-255.5 169.5t-172.5 253t-64.5 306.5q0 213 108.5 396t293 290t398.5 107zM874 1473q-142 0 -272 -56.5t-224 -151
t-150 -224t-56 -269.5q0 -187 94.5 -348.5t256.5 -256.5t351 -95q188 0 350.5 95.5t257.5 257t95 347.5q0 140 -56.5 269.5t-151 224t-224.5 151t-271 56.5z" />
    <glyph glyph-name="P" unicode="P" horiz-adv-x="966" 
d="M264 733v-733h-98v1544h272q111 0 190 -17t144 -73q69 -59 104 -141.5t35 -175.5q0 -87 -33.5 -170.5t-95.5 -135.5q-112 -98 -344 -98h-174zM264 825h178q86 0 151 17t120 67q100 90 100 232q0 75 -30 142t-87 108q-36 28 -86 42t-87 16.5t-97 2.5h-162v-627z" />
    <glyph glyph-name="Q" unicode="Q" horiz-adv-x="1748" 
d="M1065 633l313 -340q199 215 199 467q0 143 -54.5 274.5t-147 227.5t-223 153.5t-275.5 57.5q-141 0 -271.5 -56.5t-225.5 -151t-151.5 -224t-56.5 -269.5q0 -142 56.5 -272t151.5 -223.5t226.5 -149t274.5 -55.5q113 0 224.5 43t205.5 118l-385 400h139zM1520 0l-140 164
q-105 -87 -238.5 -135.5t-267.5 -48.5q-162 0 -310 62.5t-255.5 168t-171 252.5t-63.5 309q0 161 64.5 308t172.5 253t256.5 169t309.5 63q159 0 306.5 -63t255 -168t172 -251t64.5 -305q0 -301 -225 -559l203 -219h-133z" />
    <glyph glyph-name="R" unicode="R" horiz-adv-x="999" 
d="M424 731l506 -731h-113l-504 731h-49v-731h-98v1544h192q80 0 127.5 -3t112 -21t113.5 -54q155 -109 155 -331q0 -196 -122 -301.5t-320 -102.5zM264 823h125q91 0 154 13t116 59q54 43 81.5 107.5t27.5 136.5q0 91 -42 167t-122 111q-15 7 -33 12.5t-31 9.5t-36.5 6.5
t-33 3.5t-38 2t-33.5 1h-37.5h-33.5h-64v-629z" />
    <glyph glyph-name="S" unicode="S" horiz-adv-x="1114" 
d="M950 1348l-69 -58q-115 183 -314 183q-123 0 -207 -86t-84 -209q0 -34 10 -64.5t22 -52.5t39.5 -46.5t44 -37.5t55 -34t52.5 -27.5t56 -26.5l295 -154q89 -56 132.5 -130t43.5 -177q0 -93 -40.5 -177.5t-107 -143t-154.5 -93t-181 -34.5q-159 0 -279.5 89.5t-175.5 241.5
l86 39q52 -130 145.5 -204t227.5 -74q154 0 267.5 106t113.5 258q0 46 -18 87t-43.5 69.5t-67.5 57.5t-74 46t-80 40q-19 9 -29 14l-278 147q-160 99 -160 277q0 172 111 281.5t284 109.5q117 0 219.5 -58.5t157.5 -158.5z" />
    <glyph glyph-name="T" unicode="T" horiz-adv-x="921" 
d="M510 1452v-1452h-98v1452h-400v92h897v-92h-399z" />
    <glyph glyph-name="U" unicode="U" horiz-adv-x="1351" 
d="M1102 610v934h98v-962q0 -78 -2 -118t-11 -100.5t-31.5 -109t-59.5 -94.5q-76 -87 -188 -133.5t-232 -46.5t-232 46.5t-188 133.5q-37 46 -59.5 94.5t-31.5 109t-11 100.5t-2 118v962h98v-934q0 -70 1.5 -108.5t8.5 -96.5t24 -103t46 -81q54 -70 152.5 -109.5
t193.5 -39.5t193.5 39.5t152.5 109.5q29 36 46 81t24 103t8.5 96.5t1.5 108.5z" />
    <glyph glyph-name="V" unicode="V" horiz-adv-x="1136" 
d="M109 1544l458 -1319h4l457 1319h98l-561 -1595l-555 1595h99z" />
    <glyph glyph-name="W" unicode="W" horiz-adv-x="2263" 
d="M123 1544l434 -1327l578 1405l577 -1405l428 1327h98l-520 -1595l-590 1427l-587 -1427l-516 1595h98z" />
    <glyph glyph-name="X" unicode="X" horiz-adv-x="1011" 
d="M446 788l-405 756h109l354 -663l354 663h109l-404 -756l424 -788h-106l-377 698l-373 -698h-106z" />
    <glyph glyph-name="Y" unicode="Y" horiz-adv-x="1144" 
d="M522 659l-514 885h109l454 -782l455 782h109l-514 -885v-659h-99v659z" />
    <glyph glyph-name="Z" unicode="Z" horiz-adv-x="1163" 
d="M197 92h915v-92h-1087l942 1452h-852v92h1024z" />
    <glyph glyph-name="bracketleft" unicode="[" horiz-adv-x="614" 
d="M231 1440v-1751h250v-105h-348v1960h348v-104h-250z" />
    <glyph glyph-name="backslash" unicode="\" horiz-adv-x="1310" 
d="M72 1653l71 37l1096 -1651l-76 -39z" />
    <glyph glyph-name="bracketright" unicode="]" horiz-adv-x="614" 
d="M383 -311v1751h-250v104h348v-1960h-348v105h250z" />
    <glyph glyph-name="asciicircum" unicode="^" 
d="M207 616h-96l471 928h106l471 -928h-94l-430 836z" />
    <glyph glyph-name="underscore" unicode="_" horiz-adv-x="1024" 
d="M1024 -256h-1024v102h1024v-102z" />
    <glyph glyph-name="grave" unicode="`" horiz-adv-x="641" 
d="M154 1423l125 39l206 -301l-77 -35z" />
    <glyph glyph-name="a" unicode="a" horiz-adv-x="1146" 
d="M524 881q-105 0 -190 -58t-130.5 -149.5t-45.5 -194.5q0 -169 103 -291t269 -122q174 0 273.5 122t99.5 301q0 167 -105 279.5t-274 112.5zM989 946v-946h-92v170h-4q-51 -88 -152 -139t-209 -51q-140 0 -247 67.5t-163 180t-56 251.5q0 138 55.5 248.5t161.5 175
t245 64.5q111 0 208.5 -48.5t156.5 -136.5h4v164h92z" />
    <glyph glyph-name="b" unicode="b" horiz-adv-x="1146" 
d="M616 66q112 0 198.5 58.5t130.5 151.5t44 203q0 161 -104.5 281.5t-263.5 120.5q-175 0 -276 -114.5t-101 -289.5q0 -172 101.5 -291.5t270.5 -119.5zM158 0v1690h92v-908h4q59 88 156.5 136.5t207.5 48.5q138 0 244.5 -64.5t162.5 -175t56 -248.5t-56 -251
t-163.5 -180.5t-247.5 -67.5q-108 0 -208.5 51t-151.5 139h-4v-170h-92z" />
    <glyph glyph-name="c" unicode="c" horiz-adv-x="976" 
d="M883 850v-123q-141 154 -334 154q-109 0 -199.5 -56.5t-141 -149.5t-50.5 -200t50 -200.5t140.5 -151t198.5 -57.5q100 0 191 45.5t157 124.5v-125q-150 -131 -344 -131q-138 0 -249.5 66t-173.5 179t-62 250q0 136 63 248.5t175 178t249 65.5q193 0 330 -117z" />
    <glyph glyph-name="d" unicode="d" horiz-adv-x="1146" 
d="M530 66q174 0 273.5 122t99.5 301q0 167 -105 279.5t-274 112.5q-105 0 -190 -58t-130.5 -149.5t-45.5 -194.5q0 -169 103 -291t269 -122zM897 0v170h-4q-51 -88 -152 -139t-209 -51q-140 0 -247 67.5t-163 180t-56 251.5q0 138 55.5 248.5t161.5 175t245 64.5
q111 0 208.5 -48.5t156.5 -136.5h4v908h92v-1690h-92z" />
    <glyph glyph-name="e" unicode="e" horiz-adv-x="1044" 
d="M979 465h-821q-4 -177 104 -288t275 -111q107 0 193.5 58t139.5 157l78 -45q-65 -123 -175 -189.5t-249 -66.5q-136 0 -242 68t-161 180t-55 247q0 132 56 244t162 180t240 68q139 0 244.5 -69t158.5 -182.5t52 -250.5zM158 551h729q-18 136 -118.5 233t-242.5 97
q-143 0 -249.5 -97.5t-118.5 -232.5z" />
    <glyph glyph-name="f" unicode="f" horiz-adv-x="491" 
d="M250 860v-860h-92v860h-105v86h105v424q0 168 37 232q31 55 87.5 84.5t123.5 29.5q43 0 81 -14v-84q-8 1 -23 4.5t-27.5 5.5t-24.5 2q-33 0 -59 -10t-43 -24t-29 -38.5t-18 -45.5t-9 -53.5t-3.5 -53t-0.5 -53.5v-406h237v-86h-237z" />
    <glyph glyph-name="g" unicode="g" horiz-adv-x="1161" 
d="M539 881q-105 0 -190.5 -58t-131 -149.5t-45.5 -194.5q0 -169 103.5 -291t269.5 -122q174 0 273.5 122t99.5 301q0 167 -105 279.5t-274 112.5zM1004 946v-901q0 -135 -17 -225.5t-78 -175.5q-65 -89 -163.5 -136t-213.5 -47q-125 0 -227.5 46.5t-167 140t-71.5 219.5h92
q7 -144 113 -232t253 -88q94 0 173.5 35t129.5 107q51 75 67.5 160t16.5 198v117h-4q-63 -85 -162 -134.5t-206 -49.5q-133 0 -239.5 69t-163 181.5t-56.5 244.5q0 207 133.5 349.5t337.5 142.5q219 0 356 -185h4v164h93z" />
    <glyph glyph-name="h" unicode="h" horiz-adv-x="1003" 
d="M158 1690h92v-891h4q42 79 115.5 123.5t165.5 44.5q90 0 151.5 -27t96 -80.5t49 -123t14.5 -165.5v-571h-92v571q0 58 -3.5 98.5t-17 83.5t-37.5 68.5t-67 42.5t-103 17q-69 0 -120 -25.5t-80 -64t-47 -96t-23.5 -110.5t-5.5 -118v-467h-92v1690z" />
    <glyph glyph-name="i" unicode="i" horiz-adv-x="479" 
d="M285 946v-946h-92v946h92zM240 1346q35 0 59.5 -25t24.5 -59q0 -35 -24.5 -59.5t-59.5 -24.5t-59.5 24.5t-24.5 59.5q0 34 24.5 59t59.5 25z" />
    <glyph glyph-name="j" unicode="j" horiz-adv-x="479" 
d="M285 946v-1499h-92v1499h92zM240 1346q35 0 59.5 -25t24.5 -59q0 -35 -24.5 -59.5t-59.5 -24.5t-59.5 24.5t-24.5 59.5q0 34 24.5 59t59.5 25z" />
    <glyph glyph-name="k" unicode="k" horiz-adv-x="874" 
d="M250 1690v-1145l389 401h119l-398 -409l531 -537h-121l-469 473l-51 -53v-420h-92v1690h92z" />
    <glyph glyph-name="l" unicode="l" horiz-adv-x="407" 
d="M250 1690v-1690h-92v1690h92z" />
    <glyph glyph-name="m" unicode="m" horiz-adv-x="1484" 
d="M250 946v-119h4q32 65 97 102.5t141 37.5q91 0 160 -44.5t106 -127.5q38 83 111 127.5t165 44.5q71 0 124 -19.5t85 -51.5t51 -81.5t26 -101.5t7 -119v-594h-92v606q0 49 -3.5 85t-16 74t-34 61.5t-59.5 39t-90 15.5q-57 0 -101 -19.5t-70.5 -51t-43 -76.5t-23 -90.5
t-6.5 -98.5v-545h-92v584q0 49 -4 87.5t-17.5 79.5t-35.5 68t-61.5 44.5t-92.5 17.5q-71 0 -120 -33.5t-72.5 -91t-33 -114t-9.5 -122.5v-520h-92v946h92z" />
    <glyph glyph-name="n" unicode="n" horiz-adv-x="1003" 
d="M250 946v-147h4q42 79 115.5 123.5t165.5 44.5q90 0 151.5 -27t96 -80.5t49 -123t14.5 -165.5v-571h-92v571q0 58 -3.5 98.5t-17 83.5t-37.5 68.5t-67 42.5t-103 17q-69 0 -120 -25.5t-80 -64t-47 -96t-23.5 -110.5t-5.5 -118v-467h-92v946h92z" />
    <glyph glyph-name="o" unicode="o" horiz-adv-x="1120" 
d="M557 967q210 0 354 -142t144 -352t-144 -351.5t-354 -141.5q-133 0 -246.5 66.5t-179 179.5t-65.5 245q0 134 65 248t178.5 181t247.5 67zM551 881q-166 0 -279.5 -121.5t-113.5 -288.5q0 -107 51 -199.5t142 -149t200 -56.5q174 0 293 117t119 288q0 175 -118.5 292.5
t-293.5 117.5z" />
    <glyph glyph-name="p" unicode="p" horiz-adv-x="1146" 
d="M616 881q-117 0 -203 -60.5t-127.5 -156t-41.5 -211.5q0 -168 104.5 -277.5t272.5 -109.5q161 0 264.5 117t103.5 280q0 110 -44 204.5t-131 154t-198 59.5zM250 946v-170h4q51 88 151.5 139.5t208.5 51.5q141 0 248.5 -68t163 -181.5t55.5 -252.5q0 -211 -126.5 -348
t-336.5 -137q-112 0 -209.5 47.5t-154.5 136.5h-4v-717h-92v1499h92z" />
    <glyph glyph-name="q" unicode="q" horiz-adv-x="1146" 
d="M530 881q-117 0 -203 -60.5t-127.5 -156t-41.5 -211.5q0 -168 104.5 -277.5t272.5 -109.5q161 0 264.5 117t103.5 280q0 110 -44 204.5t-131 154t-198 59.5zM989 946v-1499h-92v717h-4q-57 -88 -155 -136t-210 -48q-210 0 -336 136.5t-126 346.5q0 215 127.5 359.5
t338.5 144.5q108 0 209 -51.5t152 -139.5h4v170h92z" />
    <glyph glyph-name="r" unicode="r" horiz-adv-x="569" 
d="M250 946v-123h4q62 144 205 144q46 0 100 -23l-49 -82q-36 19 -66 19q-32 0 -58.5 -8t-45 -22.5t-34 -34.5t-24.5 -44t-16 -50.5t-9.5 -54.5l-5 -56t-1.5 -54.5t0 -50.5v-23v-483h-92v946h92z" />
    <glyph glyph-name="s" unicode="s" horiz-adv-x="768" 
d="M635 815l-80 -41q-23 50 -67 78.5t-99 28.5q-62 0 -112 -44t-50 -104q0 -46 25.5 -78.5t66 -52.5t90 -37t98.5 -38.5t89.5 -51t66 -81t25.5 -120.5q0 -129 -88 -211.5t-217 -82.5q-119 0 -208 67t-118 182l90 29q28 -89 87 -140.5t149 -51.5q89 0 151 62t62 151
q0 34 -11 61.5t-26 45t-42.5 33.5t-48.5 25t-56 21q-43 16 -66.5 25.5t-61.5 27.5t-60 36t-45 43.5t-33.5 58t-10.5 71.5q0 105 76 172.5t182 67.5q73 0 142 -43t100 -109z" />
    <glyph glyph-name="t" unicode="t" horiz-adv-x="428" 
d="M260 860v-860h-92v860h-105v86h105v338h92v-338h166v-86h-166z" />
    <glyph glyph-name="u" unicode="u" horiz-adv-x="966" 
d="M731 946h92v-567q0 -52 -1 -75t-5.5 -65t-17 -73t-33.5 -60q-48 -62 -123.5 -94t-159.5 -32q-83 0 -158.5 32t-123.5 94q-27 37 -41 88.5t-15.5 85t-1.5 99.5v567h93v-534q0 -63 3.5 -106.5t18 -92.5t40.5 -78.5t72.5 -49t112.5 -19.5t113 19.5t72.5 49t40 78t18.5 92.5
t4 107v534z" />
    <glyph glyph-name="v" unicode="v" horiz-adv-x="886" 
d="M104 946l342 -780l336 780h95l-433 -997l-434 997h94z" />
    <glyph glyph-name="w" unicode="w" horiz-adv-x="1540" 
d="M104 946l334 -776l334 827l336 -827l328 776h94l-428 -997l-334 817l-332 -817l-426 997h94z" />
    <glyph glyph-name="x" unicode="x" horiz-adv-x="907" 
d="M393 500l-352 446h111l301 -383l303 383h110l-352 -446l385 -500h-108l-338 434l-336 -434h-109z" />
    <glyph glyph-name="y" unicode="y" horiz-adv-x="942" 
d="M440 -16l-454 962h96l403 -856l363 856h94l-635 -1499h-94z" />
    <glyph glyph-name="z" unicode="z" horiz-adv-x="983" 
d="M201 86h768v-86h-963l774 860h-649v86h842z" />
    <glyph glyph-name="braceleft" unicode="{" horiz-adv-x="614" 
d="M84 522v90q80 56 114.5 104.5t34.5 131.5v360q0 181 63 256.5t234 79.5v-94q-39 0 -69.5 -5.5t-62 -21.5t-49 -50.5t-17.5 -86.5v-381q0 -100 -18.5 -164.5t-47.5 -98.5t-84 -71v-10q40 -26 65.5 -51t46 -64t29.5 -94.5t9 -134.5v-379q0 -52 17.5 -86.5t49 -50.5
t62 -21.5t69.5 -5.5v-90q-171 6 -234 80.5t-63 253.5v361q0 83 -35 134.5t-114 108.5z" />
    <glyph glyph-name="bar" unicode="|" horiz-adv-x="655" 
d="M279 -438v2048h98v-2048h-98z" />
    <glyph glyph-name="braceright" unicode="}" horiz-adv-x="614" 
d="M530 612v-90q-79 -57 -114 -108.5t-35 -134.5v-361q0 -179 -63 -253.5t-234 -80.5v90q31 0 56 3t53 13t46.5 27.5t31 48t12.5 72.5v379q0 104 18 170.5t47.5 103t83.5 70.5v10q-54 37 -83.5 71t-47.5 98.5t-18 164.5v381q0 42 -12.5 72.5t-31 48t-46.5 27.5t-53 13t-56 3
v94q171 -4 234 -79.5t63 -256.5v-360q0 -83 34.5 -131.5t114.5 -104.5z" />
    <glyph glyph-name="asciitilde" unicode="~" 
d="M412 643q79 0 239 -74q20 -9 58.5 -27.5t59.5 -28t47.5 -18t45.5 -8.5q64 0 110.5 43t88.5 121l98 -47q-64 -101 -135 -162t-164 -61q-35 0 -76.5 13t-70 26t-76.5 39q-52 26 -78.5 39t-69 26t-77.5 13q-63 0 -109.5 -39t-95.5 -113l-96 47q4 5 27 33.5t30.5 37.5
t30.5 34t36 34.5t36.5 27t43 24.5t45.5 13.5t52 6.5z" />
    <glyph glyph-name="uni00A0" unicode="&#xa0;" horiz-adv-x="634" 
 />
    <glyph glyph-name="exclamdown" unicode="&#xa1;" horiz-adv-x="655" 
d="M328 967q35 0 59.5 -24.5t24.5 -59.5t-24.5 -59.5t-59.5 -24.5t-59.5 24.5t-24.5 59.5t24.5 59.5t59.5 24.5zM377 657v-1251h-98v1251h98z" />
    <glyph glyph-name="cent" unicode="&#xa2;" 
d="M1036 1163v-123q-131 144 -297 156v-817q89 7 169.5 53t135.5 117h5v-125q-142 -122 -310 -131v-262h-92v264q-182 19 -305 157.5t-123 323.5q0 196 118.5 340t309.5 164v240h92v-238q165 -6 297 -119zM647 381v811q-145 -20 -240.5 -138t-95.5 -268q0 -149 95.5 -267
t240.5 -138z" />
    <glyph glyph-name="sterling" unicode="&#xa3;" 
d="M186 -20l-55 79q51 59 126.5 97t148.5 37q58 49 94.5 111.5t36.5 131.5l-7 60h-254v92h230l-166 282q-57 88 -84 155.5t-27 152.5q0 109 57.5 199t152 139t202.5 49q169 0 283.5 -120.5t109.5 -287.5h-98q2 136 -84 226t-223 90q-123 0 -212 -91.5t-89 -214.5
q0 -41 15.5 -86.5t32 -75.5t46.5 -77q11 -19 39.5 -64.5t43.5 -70.5t37 -63t39 -72.5t31 -69.5h279v-92h-260l4 -68q0 -68 -32 -136.5t-85 -121.5l21 -6q13 -4 86.5 -32t127 -44t85.5 -16q68 0 124 48.5t93 119.5l84 -50q-48 -88 -124.5 -149t-164.5 -61q-79 0 -232 61
q-148 59 -208 59q-62 0 -115 -32t-109 -88z" />
    <glyph glyph-name="currency" unicode="&#xa4;" 
d="M139 1020l74 74l86 -86q86 62 163 90t173 28t173 -28t163 -90l86 86l73 -74l-81 -82q58 -89 83 -163t25 -161q0 -86 -25 -160t-83 -163l81 -82l-73 -74l-86 86q-86 -62 -163.5 -90.5t-172.5 -28.5t-172.5 28.5t-163.5 90.5l-86 -86l-74 74l82 82q-58 89 -83 163t-25 160
q0 87 25 161t83 163zM635 1028q-181 -3 -304 -121t-120 -293q3 -167 127.5 -290t296.5 -123t296.5 123t127.5 290q3 175 -120 293t-304 121z" />
    <glyph glyph-name="yen" unicode="&#xa5;" 
d="M586 659l-88 154h-330v92h274l-370 639h118l445 -772l444 772h119l-371 -639h275v-92h-328l-90 -154h418v-92h-418v-567h-98v567h-418v92h418z" />
    <glyph glyph-name="brokenbar" unicode="&#xa6;" horiz-adv-x="655" 
d="M279 -182v512h98v-512h-98zM279 842v512h98v-512h-98z" />
    <glyph glyph-name="section" unicode="&#xa7;" 
d="M635 317q111 0 192.5 79.5t81.5 191.5q0 110 -82 192t-192 82q-112 0 -194.5 -82t-82.5 -192q0 -112 82 -191.5t195 -79.5zM295 -23h98v-26q2 -129 57.5 -191.5t182.5 -62.5q117 0 190.5 63.5t73.5 176.5q0 49 -19 89.5t-40.5 64.5t-70.5 49.5t-73 34.5t-85 30
q-7 3 -11 4q-80 27 -134 54t-104 69.5t-75 104.5t-25 145q0 120 61 213t171 139q-102 51 -149.5 122.5t-47.5 184.5q0 153 101 238.5t257 85.5q95 0 159.5 -24.5t102 -75.5t55.5 -114.5t25 -156.5h-98q-2 135 -61.5 207t-192.5 72q-110 0 -180 -66.5t-70 -177.5
q0 -63 20 -107t68.5 -75t81.5 -44.5t106 -37.5q22 -7 33 -11q38 -13 65 -23.5t61.5 -28t58 -36.5t48.5 -47t39.5 -61t24 -78t9.5 -98q0 -114 -62.5 -201.5t-169.5 -140.5q107 -41 163 -122.5t56 -195.5q0 -105 -50 -178t-130 -106t-184 -33q-181 0 -260 87.5t-76 264.5v20z
" />
    <glyph glyph-name="dieresis" unicode="&#xa8;" horiz-adv-x="862" 
d="M240 1380q34 0 58 -24t24 -58t-24 -57.5t-58 -23.5t-58 23.5t-24 57.5t24 58t58 24zM623 1380q34 0 58 -24t24 -58t-24 -57.5t-58 -23.5t-58 23.5t-24 57.5t24 58t58 24z" />
    <glyph glyph-name="copyright" unicode="&#xa9;" horiz-adv-x="1638" 
d="M821 -20q-215 0 -398 106.5t-289.5 289.5t-106.5 398q0 161 63 307t169.5 252t253.5 169t308 63t307.5 -63t252 -168.5t168.5 -252t63 -307.5t-63 -308t-169 -253.5t-252 -169.5t-307 -63zM821 78q142 0 270 54.5t220.5 147t147 222t54.5 272.5q0 142 -54.5 270
t-147 220.5t-220.5 147t-270 54.5q-143 0 -272 -54.5t-222 -147t-147.5 -220.5t-54.5 -270q0 -115 35 -221.5t99 -192t149.5 -149.5t192 -98.5t220.5 -34.5zM1124 631h99q-13 -138 -119.5 -222.5t-247.5 -84.5q-195 0 -316.5 129.5t-121.5 326.5q0 200 117 327.5t315 127.5
q146 0 249 -79.5t124 -219.5h-99q-17 91 -95 146t-177 55q-153 0 -244.5 -101.5t-91.5 -253.5q0 -147 95.5 -253.5t244.5 -106.5q99 0 178 57t90 152z" />
    <glyph glyph-name="ordfeminine" unicode="&#xaa;" horiz-adv-x="688" 
d="M334 1495q-94 0 -156.5 -68t-62.5 -157q0 -93 62 -160.5t161 -67.5q109 0 173 68t64 166q0 92 -68.5 155.5t-172.5 63.5zM645 1552v-567h-59v102h-4q-33 -53 -98 -83.5t-136 -30.5q-136 0 -219.5 85.5t-83.5 213.5q0 127 82 210t219 83q72 0 135 -29t101 -82h4v98h59z
" />
    <glyph glyph-name="guillemotleft" unicode="&#xab;" horiz-adv-x="813" 
d="M428 655l248 -290l-60 -56l-299 346l299 346l60 -55zM182 655l248 -290l-59 -56l-299 346l299 346l59 -55z" />
    <glyph glyph-name="logicalnot" unicode="&#xac;" 
d="M1061 203v446h-950v99h1048v-545h-98z" />
    <glyph glyph-name="uni00AD" unicode="&#xad;" horiz-adv-x="389" 
d="M0 700h389v-92h-389v92z" />
    <glyph glyph-name="registered" unicode="&#xae;" horiz-adv-x="1638" 
d="M821 -20q-215 0 -398 106.5t-289.5 289.5t-106.5 398q0 161 63 307t169.5 252t253.5 169t308 63t307.5 -63t252 -168.5t168.5 -252t63 -307.5t-63 -308t-169 -253.5t-252 -169.5t-307 -63zM821 78q142 0 270 54.5t220.5 147t147 222t54.5 272.5q0 142 -54.5 270
t-147 220.5t-220.5 147t-270 54.5q-143 0 -272 -54.5t-222 -147t-147.5 -220.5t-54.5 -270q0 -115 35 -221.5t99 -192t149.5 -149.5t192 -98.5t220.5 -34.5zM946 723l262 -399h-127l-247 399h-203v-399h-99v866h379q165 0 236.5 -58t71.5 -171q0 -121 -74 -178t-199 -60z
M631 821h170q11 0 42.5 -0.5t48 0t46.5 1.5t47 5t41.5 10t38.5 17t28 25.5t20.5 36t6.5 47.5q0 129 -233 129h-256v-271z" />
    <glyph glyph-name="macron" unicode="&#xaf;" horiz-adv-x="933" 
d="M154 1380h624v-92h-624v92z" />
    <glyph glyph-name="degree" unicode="&#xb0;" horiz-adv-x="819" 
d="M717 1257q0 -127 -90.5 -217t-216.5 -90q-128 0 -218 90t-90 217q-2 126 89 217t219 91q126 0 216.5 -91t90.5 -217zM408 1479q-92 0 -156 -65t-64 -157q0 -94 64 -157.5t158 -63.5q93 0 157 64t64 157t-64.5 157.5t-158.5 64.5z" />
    <glyph glyph-name="plusminus" unicode="&#xb1;" 
d="M586 655v394h98v-394h475v-98h-475v-393h-98v393h-475v98h475zM111 0v98h1048v-98h-1048z" />
    <glyph glyph-name="twosuperior" unicode="&#xb2;" horiz-adv-x="761" 
d="M233 696h455v-69h-618l372 379q42 43 62.5 66t54 66t49 82t15.5 78q0 88 -66.5 142.5t-165.5 54.5q-104 0 -167.5 -55t-63.5 -148h-70q3 111 64 174q42 45 107 72t130 27q125 0 213 -78t88 -193q0 -83 -49.5 -158.5t-130.5 -156.5z" />
    <glyph glyph-name="threesuperior" unicode="&#xb3;" horiz-adv-x="761" 
d="M375 1075v70q91 0 150 50.5t59 133.5q0 74 -56 120t-139 46q-86 0 -135 -41t-53 -119h-70q9 106 77 168t183 62q108 0 185 -69.5t77 -168.5q0 -71 -40.5 -128.5t-110.5 -86.5q75 -26 120.5 -88.5t45.5 -136.5q0 -116 -84.5 -194.5t-210.5 -78.5q-115 0 -197 67.5
t-82 172.5h70q9 -80 63 -125t144 -45q96 0 161.5 56.5t65.5 142.5q0 88 -63 140t-160 52z" />
    <glyph glyph-name="acute" unicode="&#xb4;" horiz-adv-x="641" 
d="M360 1462l125 -39l-254 -297l-77 35z" />
    <glyph glyph-name="mu" unicode="&#xb5;" horiz-adv-x="966" 
d="M236 -553h-93v1499h93v-467q0 -58 5.5 -110t21.5 -109.5t42.5 -98.5t72 -68t105.5 -27q66 0 113 19.5t72.5 49t40 78t18.5 92.5t4 107v534h92v-567q0 -52 -1 -75t-5.5 -65t-17 -73t-33.5 -60q-48 -62 -123.5 -94t-159.5 -32q-44 0 -91.5 18t-90.5 57t-61 92h-4v-700z" />
    <glyph glyph-name="paragraph" unicode="&#xb6;" 
d="M578 -365v1123q-153 -1 -253 113t-100 276q0 397 416 397h403v-92h-81v-1817h-99v1817h-188v-1817h-98z" />
    <glyph glyph-name="periodcentered" unicode="&#xb7;" horiz-adv-x="634" 
d="M317 608q35 0 59.5 -24.5t24.5 -59.5t-24.5 -59.5t-59.5 -24.5t-59.5 24.5t-24.5 59.5t24.5 59.5t59.5 24.5z" />
    <glyph glyph-name="cedilla" unicode="&#xb8;" horiz-adv-x="612" 
d="M459 -86l-228 -289l-77 39l190 295z" />
    <glyph glyph-name="onesuperior" unicode="&#xb9;" horiz-adv-x="761" 
d="M430 1475h-156l31 69h195v-917h-70v848z" />
    <glyph glyph-name="ordmasculine" unicode="&#xba;" horiz-adv-x="671" 
d="M334 1565q136 0 229.5 -85t93.5 -210q0 -127 -93.5 -212t-229.5 -85q-132 0 -226 86.5t-94 208.5q0 123 93.5 210t226.5 87zM330 1495q-98 0 -167 -68.5t-69 -160.5q0 -89 69 -156.5t167 -67.5q103 0 175.5 65t72.5 159q0 97 -72 163t-176 66z" />
    <glyph glyph-name="guillemotright" unicode="&#xbb;" horiz-adv-x="813" 
d="M137 365l248 290l-248 291l60 55l299 -346l-299 -346zM383 365l248 290l-248 291l59 55l299 -346l-299 -346z" />
    <glyph glyph-name="onequarter" unicode="&#xbc;" horiz-adv-x="1904" 
d="M360 1475h-155l31 69h194v-917h-70v848zM1329 1581l66 -37l-916 -1579l-65 37zM1565 238h135v-70h-135v-168h-70v168h-530v8l587 782h13v-720zM1495 238v514h-10l-381 -506v-8h391z" />
    <glyph glyph-name="onehalf" unicode="&#xbd;" horiz-adv-x="1904" 
d="M360 1475h-155l31 69h194v-917h-70v848zM1241 70h455v-70h-619l373 379q40 41 62 65.5t54.5 67t48 82t15.5 78.5q0 88 -66 142t-165 54q-104 0 -168 -54.5t-64 -147.5h-69q3 112 63 174q42 45 107.5 71.5t130.5 26.5q125 0 213 -77.5t88 -192.5q0 -44 -15.5 -89
t-45 -86.5t-56 -72.5t-63.5 -68zM1239 1581l66 -37l-916 -1579l-65 37z" />
    <glyph glyph-name="threequarters" unicode="&#xbe;" horiz-adv-x="1904" 
d="M1647 238h135v-70h-135v-168h-70v168h-530v8l587 782h13v-720zM1577 238v514h-10l-381 -506v-8h391zM403 1075v70q91 0 150 50.5t59 133.5q0 74 -55.5 120t-138.5 46q-87 0 -136 -41t-53 -119h-69q9 106 77 168t183 62q108 0 185 -69.5t77 -168.5q0 -70 -40.5 -128
t-111.5 -87q75 -26 120.5 -88.5t45.5 -136.5q0 -116 -84.5 -194.5t-210.5 -78.5q-115 0 -196.5 67.5t-81.5 172.5h70q9 -80 62.5 -125t143.5 -45q96 0 162 56.5t66 142.5q0 88 -63.5 140t-160.5 52zM1438 1581l65 -37l-915 -1579l-66 37z" />
    <glyph glyph-name="questiondown" unicode="&#xbf;" horiz-adv-x="1005" 
d="M281 326h-99q-6 141 84 235t236 94q135 0 229 -87t94 -218q0 -132 -77 -204.5t-216 -108.5q-47 -12 -71 -19t-62 -21t-57 -26.5t-44 -34t-36.5 -46t-20 -59t-8.5 -77.5q0 -118 77 -199t196 -81q115 0 191.5 74.5t74.5 185.5q0 64 -10 108h94q14 -75 14 -131
q0 -144 -108.5 -236.5t-257.5 -92.5q-165 0 -267 103t-102 265q0 84 23.5 147t70.5 105t105.5 68.5t140.5 46.5q36 9 55 14.5t50.5 16.5t48.5 21.5t38.5 27.5t32.5 37t19 48t8 62q0 95 -64.5 157t-164.5 62t-159.5 -70t-57.5 -167zM508 967q35 0 59.5 -24.5t24.5 -59.5
t-24.5 -59.5t-59.5 -24.5t-59.5 24.5t-24.5 59.5t24.5 59.5t59.5 24.5z" />
    <glyph glyph-name="Agrave" unicode="&#xc0;" horiz-adv-x="1312" 
d="M995 508h-678l-206 -508h-101l647 1595l646 -1595h-101zM958 600l-301 746l-303 -746h604zM489 1950l125 39l207 -301l-78 -35z" />
    <glyph glyph-name="Aacute" unicode="&#xc1;" horiz-adv-x="1312" 
d="M995 508h-678l-206 -508h-101l647 1595l646 -1595h-101zM958 600l-301 746l-303 -746h604zM696 1989l125 -39l-254 -297l-78 35z" />
    <glyph glyph-name="Acircumflex" unicode="&#xc2;" horiz-adv-x="1312" 
d="M995 508h-678l-206 -508h-101l647 1595l646 -1595h-101zM958 600l-301 746l-303 -746h604zM375 1731l282 217l283 -217l-78 -60l-205 158l-208 -158z" />
    <glyph glyph-name="Atilde" unicode="&#xc3;" horiz-adv-x="1312" 
d="M995 508h-678l-206 -508h-101l647 1595l646 -1595h-101zM958 600l-301 746l-303 -746h604zM422 1726l-62 46q22 55 64.5 93t95.5 38q46 0 144 -39q11 -4 33.5 -13.5t35 -14t29.5 -9t31 -4.5q35 0 61 24.5t37 59.5l59 -45q-14 -56 -61.5 -94.5t-104.5 -38.5q-35 0 -133 40
q-96 41 -139 41q-63 0 -90 -84z" />
    <glyph glyph-name="Adieresis" unicode="&#xc4;" horiz-adv-x="1312" 
d="M995 508h-678l-206 -508h-101l647 1595l646 -1595h-101zM958 600l-301 746l-303 -746h604zM465 1907q34 0 58 -24t24 -58t-24 -58t-58 -24t-58 24t-24 58t24 58t58 24zM848 1907q34 0 58 -24t24 -58t-24 -58t-58 -24t-58 24t-24 58t24 58t58 24z" />
    <glyph glyph-name="Aring" unicode="&#xc5;" horiz-adv-x="1312" 
d="M995 508h-678l-206 -508h-101l647 1595l646 -1595h-101zM958 600l-301 746l-303 -746h604zM657 1989q73 0 126 -52.5t53 -126.5q0 -73 -52.5 -125.5t-126.5 -52.5q-73 0 -125.5 52t-52.5 126t52.5 126.5t125.5 52.5zM657 1907q-40 0 -68 -28.5t-28 -68.5t28 -68t68 -28
t68.5 28t28.5 68t-28.5 68.5t-68.5 28.5z" />
    <glyph glyph-name="AE" unicode="&#xc6;" horiz-adv-x="1929" 
d="M983 508h-661l-201 -508h-111l623 1544h674l34 -92h-636l229 -561h620l39 -92h-620l287 -707h638l37 -92h-747zM944 600l-295 727l-289 -727h584z" />
    <glyph glyph-name="Ccedilla" unicode="&#xc7;" horiz-adv-x="1513" 
d="M1393 1364v-135q-89 109 -233 176.5t-286 67.5q-188 0 -350.5 -98t-257 -262t-94.5 -351q0 -133 54.5 -256.5t152.5 -220.5q101 -96 232 -154.5t263 -58.5q136 0 285 66t234 169v-135q-230 -192 -514 -192q-158 0 -306.5 63.5t-257.5 169t-175 252t-66 305.5
q0 161 65 308.5t174 254t258 169.5t310 63q140 0 274.5 -53t237.5 -148zM909 -86l-227 -289l-78 39l191 295z" />
    <glyph glyph-name="Egrave" unicode="&#xc8;" horiz-adv-x="1038" 
d="M903 1452h-639v-561h623v-92h-623v-707h639v-92h-737v1544h737v-92zM352 1950l125 39l207 -301l-78 -35z" />
    <glyph glyph-name="Eacute" unicode="&#xc9;" horiz-adv-x="1038" 
d="M903 1452h-639v-561h623v-92h-623v-707h639v-92h-737v1544h737v-92zM600 1989l125 -39l-254 -297l-78 35z" />
    <glyph glyph-name="Ecircumflex" unicode="&#xca;" horiz-adv-x="1038" 
d="M903 1452h-639v-561h623v-92h-623v-707h639v-92h-737v1544h737v-92zM238 1731l282 217l283 -217l-78 -60l-205 158l-209 -158z" />
    <glyph glyph-name="Edieresis" unicode="&#xcb;" horiz-adv-x="1038" 
d="M903 1452h-639v-561h623v-92h-623v-707h639v-92h-737v1544h737v-92zM328 1907q34 0 58 -24t24 -58t-24 -58t-58 -24t-58 24t-24 58t24 58t58 24zM711 1907q34 0 58 -24t24 -58t-24 -58t-58 -24t-58 24t-24 58t24 58t58 24z" />
    <glyph glyph-name="Igrave" unicode="&#xcc;" horiz-adv-x="430" 
d="M264 1544v-1544h-98v1544h98zM49 1950l125 39l207 -301l-78 -35z" />
    <glyph glyph-name="Iacute" unicode="&#xcd;" horiz-adv-x="430" 
d="M264 1544v-1544h-98v1544h98zM256 1989l125 -39l-254 -297l-78 35z" />
    <glyph glyph-name="Icircumflex" unicode="&#xce;" horiz-adv-x="430" 
d="M264 1544v-1544h-98v1544h98zM-68 1731l283 217l283 -217l-78 -60l-205 158l-209 -158z" />
    <glyph glyph-name="Idieresis" unicode="&#xcf;" horiz-adv-x="430" 
d="M264 1544v-1544h-98v1544h98zM25 1907q34 0 57.5 -24t23.5 -58t-23.5 -58t-57.5 -24t-58 24t-24 58t24 58t58 24zM408 1907q34 0 57.5 -24t23.5 -58t-23.5 -58t-57.5 -24t-58 24t-24 58t24 58t58 24z" />
    <glyph glyph-name="Eth" unicode="&#xd0;" horiz-adv-x="1335" 
d="M264 1452v-563h354v-92h-354v-705h178q163 0 288.5 42t230.5 145q98 98 151 225.5t53 265.5q0 149 -57.5 282t-165.5 232q-104 94 -224 131t-276 37h-178zM166 0v797h-166v92h166v655h278q184 0 319 -41t255 -153q120 -113 183 -263t63 -317q0 -161 -61 -307t-177 -258
q-121 -116 -258.5 -160.5t-323.5 -44.5h-278z" />
    <glyph glyph-name="Ntilde" unicode="&#xd1;" horiz-adv-x="1726" 
d="M1561 1544v-1595l-1297 1378v-1327h-98v1565l1296 -1368v1347h99zM629 1726l-62 46q22 55 64.5 93t95.5 38q45 0 143 -39q11 -4 33.5 -13.5t35 -14t29.5 -9t31 -4.5q35 0 61.5 24.5t37.5 59.5l59 -45q-14 -56 -61.5 -94.5t-104.5 -38.5q-35 0 -133 40q-96 41 -139 41
q-63 0 -90 -84z" />
    <glyph glyph-name="Ograve" unicode="&#xd2;" horiz-adv-x="1748" 
d="M874 1565q160 0 308 -63.5t256 -170t172.5 -253t64.5 -306.5q0 -128 -41 -248.5t-116 -218t-174 -171t-220.5 -114t-249.5 -40.5q-160 0 -307.5 63t-255.5 169.5t-172.5 253t-64.5 306.5q0 213 108.5 396t293 290t398.5 107zM874 1473q-142 0 -272 -56.5t-224 -151
t-150 -224t-56 -269.5q0 -187 94.5 -348.5t256.5 -256.5t351 -95q188 0 350.5 95.5t257.5 257t95 347.5q0 140 -56.5 269.5t-151 224t-224.5 151t-271 56.5zM709 1950l125 39l206 -301l-77 -35z" />
    <glyph glyph-name="Oacute" unicode="&#xd3;" horiz-adv-x="1748" 
d="M874 1565q160 0 308 -63.5t256 -170t172.5 -253t64.5 -306.5q0 -128 -41 -248.5t-116 -218t-174 -171t-220.5 -114t-249.5 -40.5q-160 0 -307.5 63t-255.5 169.5t-172.5 253t-64.5 306.5q0 213 108.5 396t293 290t398.5 107zM874 1473q-142 0 -272 -56.5t-224 -151
t-150 -224t-56 -269.5q0 -187 94.5 -348.5t256.5 -256.5t351 -95q188 0 350.5 95.5t257.5 257t95 347.5q0 140 -56.5 269.5t-151 224t-224.5 151t-271 56.5zM915 1989l125 -39l-254 -297l-77 35z" />
    <glyph glyph-name="Ocircumflex" unicode="&#xd4;" horiz-adv-x="1748" 
d="M874 1565q160 0 308 -63.5t256 -170t172.5 -253t64.5 -306.5q0 -128 -41 -248.5t-116 -218t-174 -171t-220.5 -114t-249.5 -40.5q-160 0 -307.5 63t-255.5 169.5t-172.5 253t-64.5 306.5q0 213 108.5 396t293 290t398.5 107zM874 1473q-142 0 -272 -56.5t-224 -151
t-150 -224t-56 -269.5q0 -187 94.5 -348.5t256.5 -256.5t351 -95q188 0 350.5 95.5t257.5 257t95 347.5q0 140 -56.5 269.5t-151 224t-224.5 151t-271 56.5zM592 1731l282 217l283 -217l-78 -60l-205 158l-208 -158z" />
    <glyph glyph-name="Otilde" unicode="&#xd5;" horiz-adv-x="1748" 
d="M874 1565q160 0 308 -63.5t256 -170t172.5 -253t64.5 -306.5q0 -128 -41 -248.5t-116 -218t-174 -171t-220.5 -114t-249.5 -40.5q-160 0 -307.5 63t-255.5 169.5t-172.5 253t-64.5 306.5q0 213 108.5 396t293 290t398.5 107zM874 1473q-142 0 -272 -56.5t-224 -151
t-150 -224t-56 -269.5q0 -187 94.5 -348.5t256.5 -256.5t351 -95q188 0 350.5 95.5t257.5 257t95 347.5q0 140 -56.5 269.5t-151 224t-224.5 151t-271 56.5zM641 1726l-61 46q23 55 64.5 93t94.5 38q47 0 144 -39q11 -4 33.5 -13.5t35 -14t29.5 -9t31 -4.5q35 0 61 24.5
t37 59.5l59 -45q-14 -56 -61 -94.5t-104 -38.5q-36 0 -134 40q-96 41 -139 41q-63 0 -90 -84z" />
    <glyph glyph-name="Odieresis" unicode="&#xd6;" horiz-adv-x="1748" 
d="M874 1565q160 0 308 -63.5t256 -170t172.5 -253t64.5 -306.5q0 -128 -41 -248.5t-116 -218t-174 -171t-220.5 -114t-249.5 -40.5q-160 0 -307.5 63t-255.5 169.5t-172.5 253t-64.5 306.5q0 213 108.5 396t293 290t398.5 107zM874 1473q-142 0 -272 -56.5t-224 -151
t-150 -224t-56 -269.5q0 -187 94.5 -348.5t256.5 -256.5t351 -95q188 0 350.5 95.5t257.5 257t95 347.5q0 140 -56.5 269.5t-151 224t-224.5 151t-271 56.5zM684 1907q34 0 58 -24t24 -58t-24 -58t-58 -24t-58 24t-24 58t24 58t58 24zM1067 1907q34 0 58 -24t24 -58t-24 -58
t-58 -24t-58 24t-24 58t24 58t58 24z" />
    <glyph glyph-name="multiply" unicode="&#xd7;" 
d="M571 524l-460 455l61 70l463 -463l463 463l61 -70l-459 -455l459 -458l-61 -66l-463 461l-461 -461l-63 66z" />
    <glyph glyph-name="Oslash" unicode="&#xd8;" horiz-adv-x="1748" 
d="M350 309l985 985q-94 85 -212.5 132t-248.5 47q-142 0 -272 -56.5t-224 -151t-150 -224t-56 -269.5q0 -130 46.5 -249.5t131.5 -213.5zM1393 1239l-985 -987q203 -180 466 -180q188 0 350.5 95.5t257.5 257t95 347.5q0 132 -48.5 253t-135.5 214zM100 59l185 185
q-100 108 -155.5 244t-55.5 284q0 213 108.5 396t293 290t398.5 107q148 0 284.5 -53.5t244.5 -149.5l186 186l60 -53l-189 -188q102 -108 158.5 -246t56.5 -289q0 -128 -41 -248.5t-116 -218t-174 -171t-220.5 -114t-249.5 -40.5q-152 0 -289 54t-243 152l-186 -186z" />
    <glyph glyph-name="Ugrave" unicode="&#xd9;" horiz-adv-x="1351" 
d="M1102 610v934h98v-962q0 -78 -2 -118t-11 -100.5t-31.5 -109t-59.5 -94.5q-76 -87 -188 -133.5t-232 -46.5t-232 46.5t-188 133.5q-37 46 -59.5 94.5t-31.5 109t-11 100.5t-2 118v962h98v-934q0 -70 1.5 -108.5t8.5 -96.5t24 -103t46 -81q54 -70 152.5 -109.5
t193.5 -39.5t193.5 39.5t152.5 109.5q29 36 46 81t24 103t8.5 96.5t1.5 108.5zM479 1950l125 39l207 -301l-78 -35z" />
    <glyph glyph-name="Uacute" unicode="&#xda;" horiz-adv-x="1351" 
d="M1102 610v934h98v-962q0 -78 -2 -118t-11 -100.5t-31.5 -109t-59.5 -94.5q-76 -87 -188 -133.5t-232 -46.5t-232 46.5t-188 133.5q-37 46 -59.5 94.5t-31.5 109t-11 100.5t-2 118v962h98v-934q0 -70 1.5 -108.5t8.5 -96.5t24 -103t46 -81q54 -70 152.5 -109.5
t193.5 -39.5t193.5 39.5t152.5 109.5q29 36 46 81t24 103t8.5 96.5t1.5 108.5zM748 1989l124 -39l-254 -297l-77 35z" />
    <glyph glyph-name="Ucircumflex" unicode="&#xdb;" horiz-adv-x="1351" 
d="M1102 610v934h98v-962q0 -78 -2 -118t-11 -100.5t-31.5 -109t-59.5 -94.5q-76 -87 -188 -133.5t-232 -46.5t-232 46.5t-188 133.5q-37 46 -59.5 94.5t-31.5 109t-11 100.5t-2 118v962h98v-934q0 -70 1.5 -108.5t8.5 -96.5t24 -103t46 -81q54 -70 152.5 -109.5
t193.5 -39.5t193.5 39.5t152.5 109.5q29 36 46 81t24 103t8.5 96.5t1.5 108.5zM393 1731l283 217l282 -217l-77 -60l-205 158l-209 -158z" />
    <glyph glyph-name="Udieresis" unicode="&#xdc;" horiz-adv-x="1351" 
d="M1102 610v934h98v-962q0 -78 -2 -118t-11 -100.5t-31.5 -109t-59.5 -94.5q-76 -87 -188 -133.5t-232 -46.5t-232 46.5t-188 133.5q-37 46 -59.5 94.5t-31.5 109t-11 100.5t-2 118v962h98v-934q0 -70 1.5 -108.5t8.5 -96.5t24 -103t46 -81q54 -70 152.5 -109.5
t193.5 -39.5t193.5 39.5t152.5 109.5q29 36 46 81t24 103t8.5 96.5t1.5 108.5zM485 1907q34 0 58 -24t24 -58t-24 -58t-58 -24t-58 24t-24 58t24 58t58 24zM868 1907q34 0 58 -24t24 -58t-24 -58t-58 -24t-58 24t-24 58t24 58t58 24z" />
    <glyph glyph-name="Yacute" unicode="&#xdd;" horiz-adv-x="1144" 
d="M522 659l-514 885h109l454 -782l455 782h109l-514 -885v-659h-99v659zM674 1989l125 -39l-254 -297l-78 35z" />
    <glyph glyph-name="Thorn" unicode="&#xde;" horiz-adv-x="966" 
d="M166 0v1544h98v-327h174q110 0 189.5 -17.5t144.5 -73.5q69 -59 104 -141.5t35 -175.5q0 -87 -33.5 -170t-95.5 -135q-112 -98 -344 -98h-174v-406h-98zM264 498h178q86 0 151 17t120 67q100 90 100 231q0 75 -30 142t-87 108q-36 28 -86 42t-87 16.5t-97 2.5h-162v-626z
" />
    <glyph glyph-name="germandbls" unicode="&#xdf;" horiz-adv-x="1093" 
d="M158 0v860h-101v86h101v385q0 86 14 152t55 116q45 57 119.5 87t153.5 30q141 0 233 -95t92 -237q0 -94 -48 -170t-132 -108v-4q113 -31 201 -113t135 -192t47 -228q0 -114 -44.5 -217.5t-120 -179t-177 -124.5t-213.5 -60v86q195 29 329 166.5t134 328.5
q0 200 -130.5 331.5t-332.5 152.5v86q117 2 188.5 71t71.5 185q0 104 -71 169.5t-177 65.5q-60 0 -114 -25t-82 -73q-39 -66 -39 -234v-1298h-92z" />
    <glyph glyph-name="agrave" unicode="&#xe0;" horiz-adv-x="1146" 
d="M524 881q-105 0 -190 -58t-130.5 -149.5t-45.5 -194.5q0 -169 103 -291t269 -122q174 0 273.5 122t99.5 301q0 167 -105 279.5t-274 112.5zM989 946v-946h-92v170h-4q-51 -88 -152 -139t-209 -51q-140 0 -247 67.5t-163 180t-56 251.5q0 138 55.5 248.5t161.5 175
t245 64.5q111 0 208.5 -48.5t156.5 -136.5h4v164h92zM377 1423l125 39l207 -301l-78 -35z" />
    <glyph glyph-name="aacute" unicode="&#xe1;" horiz-adv-x="1146" 
d="M524 881q-105 0 -190 -58t-130.5 -149.5t-45.5 -194.5q0 -169 103 -291t269 -122q174 0 273.5 122t99.5 301q0 167 -105 279.5t-274 112.5zM989 946v-946h-92v170h-4q-51 -88 -152 -139t-209 -51q-140 0 -247 67.5t-163 180t-56 251.5q0 138 55.5 248.5t161.5 175
t245 64.5q111 0 208.5 -48.5t156.5 -136.5h4v164h92zM645 1462l125 -39l-254 -297l-78 35z" />
    <glyph glyph-name="acircumflex" unicode="&#xe2;" horiz-adv-x="1146" 
d="M524 881q-105 0 -190 -58t-130.5 -149.5t-45.5 -194.5q0 -169 103 -291t269 -122q174 0 273.5 122t99.5 301q0 167 -105 279.5t-274 112.5zM989 946v-946h-92v170h-4q-51 -88 -152 -139t-209 -51q-140 0 -247 67.5t-163 180t-56 251.5q0 138 55.5 248.5t161.5 175
t245 64.5q111 0 208.5 -48.5t156.5 -136.5h4v164h92zM291 1204l282 217l283 -217l-78 -59l-205 158l-208 -158z" />
    <glyph glyph-name="atilde" unicode="&#xe3;" horiz-adv-x="1146" 
d="M524 881q-105 0 -190 -58t-130.5 -149.5t-45.5 -194.5q0 -169 103 -291t269 -122q174 0 273.5 122t99.5 301q0 167 -105 279.5t-274 112.5zM989 946v-946h-92v170h-4q-51 -88 -152 -139t-209 -51q-140 0 -247 67.5t-163 180t-56 251.5q0 138 55.5 248.5t161.5 175
t245 64.5q111 0 208.5 -48.5t156.5 -136.5h4v164h92zM340 1200l-61 45q23 55 64.5 93t94.5 38q46 0 144 -39q11 -4 33.5 -13.5t35 -14t29.5 -9t31 -4.5q35 0 61 24.5t37 59.5l59 -45q-14 -56 -61.5 -94.5t-104.5 -38.5q-33 0 -133 41q-96 41 -139 41q-63 0 -90 -84z" />
    <glyph glyph-name="adieresis" unicode="&#xe4;" horiz-adv-x="1146" 
d="M524 881q-105 0 -190 -58t-130.5 -149.5t-45.5 -194.5q0 -169 103 -291t269 -122q174 0 273.5 122t99.5 301q0 167 -105 279.5t-274 112.5zM989 946v-946h-92v170h-4q-51 -88 -152 -139t-209 -51q-140 0 -247 67.5t-163 180t-56 251.5q0 138 55.5 248.5t161.5 175
t245 64.5q111 0 208.5 -48.5t156.5 -136.5h4v164h92zM383 1380q34 0 58 -24t24 -58t-24 -57.5t-58 -23.5t-58 23.5t-24 57.5t24 58t58 24zM766 1380q34 0 58 -24t24 -58t-24 -57.5t-58 -23.5t-58 23.5t-24 57.5t24 58t58 24z" />
    <glyph glyph-name="aring" unicode="&#xe5;" horiz-adv-x="1146" 
d="M524 881q-105 0 -190 -58t-130.5 -149.5t-45.5 -194.5q0 -169 103 -291t269 -122q174 0 273.5 122t99.5 301q0 167 -105 279.5t-274 112.5zM989 946v-946h-92v170h-4q-51 -88 -152 -139t-209 -51q-140 0 -247 67.5t-163 180t-56 251.5q0 138 55.5 248.5t161.5 175
t245 64.5q111 0 208.5 -48.5t156.5 -136.5h4v164h92zM573 1462q74 0 126.5 -52.5t52.5 -125.5t-52.5 -125.5t-126.5 -52.5q-73 0 -125.5 52t-52.5 126t52.5 126t125.5 52zM573 1380q-40 0 -68 -28t-28 -68t28 -68t68 -28t68.5 28t28.5 68t-28.5 68t-68.5 28z" />
    <glyph glyph-name="ae" unicode="&#xe6;" horiz-adv-x="1738" 
d="M852 549h729q-18 134 -121.5 233t-238.5 99q-143 0 -250 -98.5t-119 -233.5zM455 485q-55 0 -107 -10t-102 -32.5t-80.5 -65.5t-30.5 -101q0 -60 28 -103t76 -65.5t98 -32t107 -9.5q50 0 102.5 11.5t102 35t80.5 66t31 97.5q0 57 -28.5 99.5t-75 65.5t-97 33.5
t-104.5 10.5zM1563 279l79 -54q-73 -114 -182 -179.5t-239 -65.5q-123 0 -231 62.5t-156 170.5h-5q-20 -80 -85.5 -134.5t-143.5 -76.5t-164 -22q-69 0 -136 17.5t-126 51.5t-95 92.5t-36 132.5q0 77 38.5 136.5t100.5 93t132 50.5t141 17q190 0 305 -100q1 68 -10 127
t-36 111.5t-63.5 90t-96.5 59.5t-130 22q-135 0 -318 -86v94q153 78 336 78q132 0 229.5 -69t141.5 -193q51 118 162 190t239 72q105 0 192 -41t144.5 -110.5t89.5 -160.5t33 -192h-821q5 -165 108 -281t265 -116q105 0 194 58.5t144 154.5z" />
    <glyph glyph-name="ccedilla" unicode="&#xe7;" horiz-adv-x="976" 
d="M883 850v-123q-141 154 -334 154q-109 0 -199.5 -56.5t-141 -149.5t-50.5 -200t50 -200.5t140.5 -151t198.5 -57.5q100 0 191 45.5t157 124.5v-125q-150 -131 -344 -131q-138 0 -249.5 66t-173.5 179t-62 250q0 136 63 248.5t175 178t249 65.5q193 0 330 -117zM641 -86
l-227 -289l-78 39l190 295z" />
    <glyph glyph-name="egrave" unicode="&#xe8;" horiz-adv-x="1044" 
d="M979 465h-821q-4 -177 104 -288t275 -111q107 0 193.5 58t139.5 157l78 -45q-65 -123 -175 -189.5t-249 -66.5q-136 0 -242 68t-161 180t-55 247q0 132 56 244t162 180t240 68q139 0 244.5 -69t158.5 -182.5t52 -250.5zM158 551h729q-18 136 -118.5 233t-242.5 97
q-143 0 -249.5 -97.5t-118.5 -232.5zM326 1423l125 39l206 -301l-77 -35z" />
    <glyph glyph-name="eacute" unicode="&#xe9;" horiz-adv-x="1044" 
d="M979 465h-821q-4 -177 104 -288t275 -111q107 0 193.5 58t139.5 157l78 -45q-65 -123 -175 -189.5t-249 -66.5q-136 0 -242 68t-161 180t-55 247q0 132 56 244t162 180t240 68q139 0 244.5 -69t158.5 -182.5t52 -250.5zM158 551h729q-18 136 -118.5 233t-242.5 97
q-143 0 -249.5 -97.5t-118.5 -232.5zM594 1462l125 -39l-254 -297l-78 35z" />
    <glyph glyph-name="ecircumflex" unicode="&#xea;" horiz-adv-x="1044" 
d="M979 465h-821q-4 -177 104 -288t275 -111q107 0 193.5 58t139.5 157l78 -45q-65 -123 -175 -189.5t-249 -66.5q-136 0 -242 68t-161 180t-55 247q0 132 56 244t162 180t240 68q139 0 244.5 -69t158.5 -182.5t52 -250.5zM158 551h729q-18 136 -118.5 233t-242.5 97
q-143 0 -249.5 -97.5t-118.5 -232.5zM240 1204l282 217l283 -217l-78 -59l-205 158l-209 -158z" />
    <glyph glyph-name="edieresis" unicode="&#xeb;" horiz-adv-x="1044" 
d="M979 465h-821q-4 -177 104 -288t275 -111q107 0 193.5 58t139.5 157l78 -45q-65 -123 -175 -189.5t-249 -66.5q-136 0 -242 68t-161 180t-55 247q0 132 56 244t162 180t240 68q139 0 244.5 -69t158.5 -182.5t52 -250.5zM158 551h729q-18 136 -118.5 233t-242.5 97
q-143 0 -249.5 -97.5t-118.5 -232.5zM332 1380q34 0 58 -24t24 -58t-24 -57.5t-58 -23.5t-58 23.5t-24 57.5t24 58t58 24zM715 1380q34 0 58 -24t24 -58t-24 -57.5t-58 -23.5t-58 23.5t-24 57.5t24 58t58 24z" />
    <glyph glyph-name="igrave" unicode="&#xec;" horiz-adv-x="479" 
d="M285 946v-946h-92v946h92zM41 1423l125 39l207 -301l-78 -35z" />
    <glyph glyph-name="iacute" unicode="&#xed;" horiz-adv-x="479" 
d="M285 946v-946h-92v946h92zM309 1462l125 -39l-254 -297l-78 35z" />
    <glyph glyph-name="icircumflex" unicode="&#xee;" horiz-adv-x="479" 
d="M285 946v-946h-92v946h92zM-43 1204l283 217l282 -217l-78 -59l-204 158l-209 -158z" />
    <glyph glyph-name="idieresis" unicode="&#xef;" horiz-adv-x="479" 
d="M285 946v-946h-92v946h92zM49 1380q34 0 58 -24t24 -58t-24 -57.5t-58 -23.5t-58 23.5t-24 57.5t24 58t58 24zM432 1380q34 0 58 -24t24 -58t-24 -57.5t-58 -23.5t-58 23.5t-24 57.5t24 58t58 24z" />
    <glyph glyph-name="eth" unicode="&#xf0;" horiz-adv-x="1120" 
d="M182 1634l66 62q148 -87 284 -195l318 178l51 -67l-301 -168q211 -186 333 -419t122 -493q0 -113 -28.5 -206.5t-76 -156.5t-112 -106.5t-135 -63t-146.5 -19.5q-134 0 -247.5 67t-178.5 180.5t-65 245.5q0 131 64.5 244.5t179.5 182.5t253 69q192 0 346 -144
q-58 166 -143.5 295.5t-247.5 276.5l-299 -168l-51 69l281 154q-95 79 -267 182zM551 881q-166 0 -279.5 -121.5t-113.5 -288.5q0 -107 51 -199.5t142 -149t200 -56.5q174 0 293 117t119 288q0 175 -118.5 292.5t-293.5 117.5z" />
    <glyph glyph-name="ntilde" unicode="&#xf1;" horiz-adv-x="1003" 
d="M250 946v-147h4q42 79 115.5 123.5t165.5 44.5q90 0 151.5 -27t96 -80.5t49 -123t14.5 -165.5v-571h-92v571q0 58 -3.5 98.5t-17 83.5t-37.5 68.5t-67 42.5t-103 17q-69 0 -120 -25.5t-80 -64t-47 -96t-23.5 -110.5t-5.5 -118v-467h-92v946h92zM268 1200l-61 45
q22 55 64.5 93t95.5 38q45 0 143 -39q11 -4 33.5 -13.5t35 -14t29.5 -9t31 -4.5q35 0 61 24.5t37 59.5l60 -45q-14 -56 -61.5 -94.5t-104.5 -38.5q-33 0 -133 41q-96 41 -140 41q-63 0 -90 -84z" />
    <glyph glyph-name="ograve" unicode="&#xf2;" horiz-adv-x="1120" 
d="M557 967q210 0 354 -142t144 -352t-144 -351.5t-354 -141.5q-133 0 -246.5 66.5t-179 179.5t-65.5 245q0 134 65 248t178.5 181t247.5 67zM551 881q-166 0 -279.5 -121.5t-113.5 -288.5q0 -107 51 -199.5t142 -149t200 -56.5q174 0 293 117t119 288q0 175 -118.5 292.5
t-293.5 117.5zM362 1423l125 39l207 -301l-78 -35z" />
    <glyph glyph-name="oacute" unicode="&#xf3;" horiz-adv-x="1120" 
d="M557 967q210 0 354 -142t144 -352t-144 -351.5t-354 -141.5q-133 0 -246.5 66.5t-179 179.5t-65.5 245q0 134 65 248t178.5 181t247.5 67zM551 881q-166 0 -279.5 -121.5t-113.5 -288.5q0 -107 51 -199.5t142 -149t200 -56.5q174 0 293 117t119 288q0 175 -118.5 292.5
t-293.5 117.5zM631 1462l125 -39l-254 -297l-78 35z" />
    <glyph glyph-name="ocircumflex" unicode="&#xf4;" horiz-adv-x="1120" 
d="M557 967q210 0 354 -142t144 -352t-144 -351.5t-354 -141.5q-133 0 -246.5 66.5t-179 179.5t-65.5 245q0 134 65 248t178.5 181t247.5 67zM551 881q-166 0 -279.5 -121.5t-113.5 -288.5q0 -107 51 -199.5t142 -149t200 -56.5q174 0 293 117t119 288q0 175 -118.5 292.5
t-293.5 117.5zM279 1204l282 217l283 -217l-78 -59l-205 158l-209 -158z" />
    <glyph glyph-name="otilde" unicode="&#xf5;" horiz-adv-x="1120" 
d="M557 967q210 0 354 -142t144 -352t-144 -351.5t-354 -141.5q-133 0 -246.5 66.5t-179 179.5t-65.5 245q0 134 65 248t178.5 181t247.5 67zM551 881q-166 0 -279.5 -121.5t-113.5 -288.5q0 -107 51 -199.5t142 -149t200 -56.5q174 0 293 117t119 288q0 175 -118.5 292.5
t-293.5 117.5zM326 1200l-62 45q22 55 64.5 93t95.5 38q46 0 143 -39q11 -4 33.5 -13.5t35 -14t29.5 -9t31 -4.5q35 0 61.5 24.5t37.5 59.5l59 -45q-14 -56 -61.5 -94.5t-104.5 -38.5q-33 0 -133 41q-96 41 -139 41q-63 0 -90 -84z" />
    <glyph glyph-name="odieresis" unicode="&#xf6;" horiz-adv-x="1120" 
d="M557 967q210 0 354 -142t144 -352t-144 -351.5t-354 -141.5q-133 0 -246.5 66.5t-179 179.5t-65.5 245q0 134 65 248t178.5 181t247.5 67zM551 881q-166 0 -279.5 -121.5t-113.5 -288.5q0 -107 51 -199.5t142 -149t200 -56.5q174 0 293 117t119 288q0 175 -118.5 292.5
t-293.5 117.5zM369 1380q34 0 58 -24t24 -58t-24 -57.5t-58 -23.5t-58 23.5t-24 57.5t24 58t58 24zM752 1380q34 0 58 -24t24 -58t-24 -57.5t-58 -23.5t-58 23.5t-24 57.5t24 58t58 24z" />
    <glyph glyph-name="divide" unicode="&#xf7;" 
d="M111 475v98h1048v-98h-1048zM635 168q35 0 59.5 -24.5t24.5 -59.5t-24.5 -59.5t-59.5 -24.5t-59.5 24.5t-24.5 59.5t24.5 59.5t59.5 24.5zM635 1049q35 0 59.5 -24.5t24.5 -59.5t-24.5 -59.5t-59.5 -24.5t-59.5 24.5t-24.5 59.5t24.5 59.5t59.5 24.5z" />
    <glyph glyph-name="oslash" unicode="&#xf8;" horiz-adv-x="1120" 
d="M244 221l569 570q-114 90 -262 90q-166 0 -279.5 -121.5t-113.5 -288.5q0 -140 86 -250zM870 731l-573 -567q109 -98 254 -98q174 0 293 117t119 288q0 149 -93 260zM57 35l123 123q-114 132 -114 313q0 134 65 248t178.5 181t247.5 67q185 0 320 -113l129 129l57 -59
l-127 -127q119 -132 119 -324q0 -210 -144 -351.5t-354 -141.5q-186 0 -321 122l-123 -122z" />
    <glyph glyph-name="ugrave" unicode="&#xf9;" horiz-adv-x="966" 
d="M731 946h92v-567q0 -52 -1 -75t-5.5 -65t-17 -73t-33.5 -60q-48 -62 -123.5 -94t-159.5 -32q-83 0 -158.5 32t-123.5 94q-27 37 -41 88.5t-15.5 85t-1.5 99.5v567h93v-534q0 -63 3.5 -106.5t18 -92.5t40.5 -78.5t72.5 -49t112.5 -19.5t113 19.5t72.5 49t40 78t18.5 92.5
t4 107v534zM266 1423l125 39l207 -301l-78 -35z" />
    <glyph glyph-name="uacute" unicode="&#xfa;" horiz-adv-x="966" 
d="M731 946h92v-567q0 -52 -1 -75t-5.5 -65t-17 -73t-33.5 -60q-48 -62 -123.5 -94t-159.5 -32q-83 0 -158.5 32t-123.5 94q-27 37 -41 88.5t-15.5 85t-1.5 99.5v567h93v-534q0 -63 3.5 -106.5t18 -92.5t40.5 -78.5t72.5 -49t112.5 -19.5t113 19.5t72.5 49t40 78t18.5 92.5
t4 107v534zM575 1462l125 -39l-254 -297l-77 35z" />
    <glyph glyph-name="ucircumflex" unicode="&#xfb;" horiz-adv-x="966" 
d="M731 946h92v-567q0 -52 -1 -75t-5.5 -65t-17 -73t-33.5 -60q-48 -62 -123.5 -94t-159.5 -32q-83 0 -158.5 32t-123.5 94q-27 37 -41 88.5t-15.5 85t-1.5 99.5v567h93v-534q0 -63 3.5 -106.5t18 -92.5t40.5 -78.5t72.5 -49t112.5 -19.5t113 19.5t72.5 49t40 78t18.5 92.5
t4 107v534zM201 1204l282 217l283 -217l-78 -59l-205 158l-209 -158z" />
    <glyph glyph-name="udieresis" unicode="&#xfc;" horiz-adv-x="966" 
d="M731 946h92v-567q0 -52 -1 -75t-5.5 -65t-17 -73t-33.5 -60q-48 -62 -123.5 -94t-159.5 -32q-83 0 -158.5 32t-123.5 94q-27 37 -41 88.5t-15.5 85t-1.5 99.5v567h93v-534q0 -63 3.5 -106.5t18 -92.5t40.5 -78.5t72.5 -49t112.5 -19.5t113 19.5t72.5 49t40 78t18.5 92.5
t4 107v534zM293 1380q34 0 58 -24t24 -58t-24 -57.5t-58 -23.5t-58 23.5t-24 57.5t24 58t58 24zM676 1380q34 0 58 -24t24 -58t-24 -57.5t-58 -23.5t-58 23.5t-24 57.5t24 58t58 24z" />
    <glyph glyph-name="yacute" unicode="&#xfd;" horiz-adv-x="942" 
d="M440 -16l-454 962h96l403 -856l363 856h94l-635 -1499h-94zM573 1462l125 -39l-254 -297l-77 35z" />
    <glyph glyph-name="thorn" unicode="&#xfe;" horiz-adv-x="1146" 
d="M616 881q-117 0 -203 -60.5t-127.5 -156t-41.5 -211.5q0 -168 104.5 -277.5t272.5 -109.5q161 0 264.5 117t103.5 280q0 110 -44 204.5t-131 154t-198 59.5zM250 164v-717h-92v2243h92v-914h4q51 88 151.5 139.5t208.5 51.5q141 0 248.5 -68t163 -181.5t55.5 -252.5
q0 -211 -126.5 -348t-336.5 -137q-112 0 -209.5 47.5t-154.5 136.5h-4z" />
    <glyph glyph-name="ydieresis" unicode="&#xff;" horiz-adv-x="942" 
d="M440 -16l-454 962h96l403 -856l363 856h94l-635 -1499h-94zM291 1380q34 0 58 -24t24 -58t-24 -57.5t-58 -23.5t-58 23.5t-24 57.5t24 58t58 24zM674 1380q34 0 58 -24t24 -58t-24 -57.5t-58 -23.5t-58 23.5t-24 57.5t24 58t58 24z" />
    <glyph glyph-name="dotlessi" unicode="&#x131;" horiz-adv-x="479" 
d="M285 946v-946h-92v946h92z" />
    <glyph glyph-name="Lslash" unicode="&#x141;" horiz-adv-x="669" 
d="M166 0v725l-166 -117v101l166 116v719h98v-651l262 182v-100l-262 -182v-701h393v-92h-491z" />
    <glyph glyph-name="lslash" unicode="&#x142;" horiz-adv-x="468" 
d="M188 0v801l-153 -111v92l153 111v797h93v-732l153 109v-92l-153 -109v-866h-93z" />
    <glyph glyph-name="OE" unicode="&#x152;" horiz-adv-x="2443" 
d="M1571 0v397h-4q-92 -192 -284 -304.5t-411 -112.5q-151 0 -296.5 59t-256.5 164q-119 113 -182 259.5t-63 309.5q0 162 65 309t174 253t257.5 168.5t310.5 62.5q215 0 404 -115.5t282 -306.5h4v401h737v-92h-639v-561h625v-92h-625v-707h639v-92h-737zM879 1473
q-140 0 -270 -56.5t-226 -150.5t-153.5 -224t-57.5 -270q0 -141 56 -272t159 -228q96 -94 224 -147t263 -53q140 0 272.5 57.5t231.5 159.5q93 98 142 222t49 261q0 140 -54.5 269t-146.5 224t-220 151.5t-269 56.5z" />
    <glyph glyph-name="oe" unicode="&#x153;" horiz-adv-x="1935" 
d="M1870 465h-817q-9 -164 100 -281.5t272 -117.5q228 0 334 219l78 -47q-61 -124 -171 -191t-249 -67q-135 0 -248.5 76t-162.5 202q-60 -126 -181.5 -202t-261.5 -76q-208 0 -352.5 142.5t-144.5 348.5q0 209 146.5 352.5t354.5 143.5q139 0 261 -75t178 -200
q49 129 159 202t250 73q107 0 194.5 -39.5t144 -108t87 -159.5t29.5 -195zM1053 551h725q-18 136 -118.5 233t-242.5 97q-143 0 -247.5 -97t-116.5 -233zM565 881q-175 0 -291 -120.5t-116 -295.5q0 -161 117.5 -280t279.5 -119q169 0 287.5 118t118.5 287q0 166 -115.5 288
t-280.5 122z" />
    <glyph glyph-name="Scaron" unicode="&#x160;" horiz-adv-x="1114" 
d="M950 1348l-69 -58q-115 183 -314 183q-123 0 -207 -86t-84 -209q0 -34 10 -64.5t22 -52.5t39.5 -46.5t44 -37.5t55 -34t52.5 -27.5t56 -26.5l295 -154q89 -56 132.5 -130t43.5 -177q0 -93 -40.5 -177.5t-107 -143t-154.5 -93t-181 -34.5q-159 0 -279.5 89.5t-175.5 241.5
l86 39q52 -130 145.5 -204t227.5 -74q154 0 267.5 106t113.5 258q0 46 -18 87t-43.5 69.5t-67.5 57.5t-74 46t-80 40q-19 9 -29 14l-278 147q-160 99 -160 277q0 172 111 281.5t284 109.5q117 0 219.5 -58.5t157.5 -158.5zM860 1890l-282 -219l-283 219l78 58l205 -156
l208 156z" />
    <glyph glyph-name="scaron" unicode="&#x161;" horiz-adv-x="768" 
d="M635 815l-80 -41q-23 50 -67 78.5t-99 28.5q-62 0 -112 -44t-50 -104q0 -46 25.5 -78.5t66 -52.5t90 -37t98.5 -38.5t89.5 -51t66 -81t25.5 -120.5q0 -129 -88 -211.5t-217 -82.5q-119 0 -208 67t-118 182l90 29q28 -89 87 -140.5t149 -51.5q89 0 151 62t62 151
q0 34 -11 61.5t-26 45t-42.5 33.5t-48.5 25t-56 21q-43 16 -66.5 25.5t-61.5 27.5t-60 36t-45 43.5t-33.5 58t-10.5 71.5q0 105 76 172.5t182 67.5q73 0 142 -43t100 -109zM668 1364l-283 -219l-283 219l78 57l205 -155l209 155z" />
    <glyph glyph-name="Ydieresis" unicode="&#x178;" horiz-adv-x="1144" 
d="M522 659l-514 885h109l454 -782l455 782h109l-514 -885v-659h-99v659zM406 1907q34 0 57.5 -24t23.5 -58t-23.5 -58t-57.5 -24t-58 24t-24 58t24 58t58 24zM788 1907q34 0 58 -24t24 -58t-24 -58t-58 -24t-57.5 24t-23.5 58t23.5 58t57.5 24z" />
    <glyph glyph-name="Zcaron" unicode="&#x17d;" horiz-adv-x="1163" 
d="M197 92h915v-92h-1087l942 1452h-852v92h1024zM889 1890l-283 -219l-282 219l77 58l205 -156l209 156z" />
    <glyph glyph-name="zcaron" unicode="&#x17e;" horiz-adv-x="983" 
d="M201 86h768v-86h-963l774 860h-649v86h842zM825 1364l-282 -219l-283 219l78 57l205 -155l209 155z" />
    <glyph glyph-name="florin" unicode="&#x192;" 
d="M756 995h237l-18 -92h-236l-147 -778q-3 -14 -8 -43q-7 -42 -11.5 -64.5t-14.5 -63t-19.5 -63.5t-25 -55.5t-34.5 -51t-44 -37t-57 -26.5t-71 -8q-71 0 -164 35l19 86q76 -29 137 -29q88 0 121 52q37 60 63 204l162 842h-141l18 92h140l81 439q28 139 60 188q30 44 83 69
t109 25q65 0 133 -30l-18 -84q-52 22 -106 22q-29 0 -52 -7t-39 -16t-29 -27.5t-20.5 -33t-14.5 -41t-10 -42.5t-8 -46.5t-8 -44.5z" />
    <glyph glyph-name="circumflex" unicode="&#x2c6;" horiz-adv-x="872" 
d="M154 1204l282 217l283 -217l-78 -59l-205 158l-209 -158z" />
    <glyph glyph-name="caron" unicode="&#x2c7;" horiz-adv-x="872" 
d="M719 1364l-283 -219l-282 219l77 57l205 -155l209 155z" />
    <glyph glyph-name="uni02C9" unicode="&#x2c9;" horiz-adv-x="933" 
d="M154 1380h624v-92h-624v92z" />
    <glyph glyph-name="breve" unicode="&#x2d8;" horiz-adv-x="888" 
d="M154 1380h90q21 -64 74.5 -94.5t125.5 -30.5q73 0 126.5 30.5t74.5 94.5h88q-8 -69 -52 -119.5t-105.5 -74t-131.5 -23.5q-108 0 -192.5 57.5t-97.5 159.5z" />
    <glyph glyph-name="dotaccent" unicode="&#x2d9;" horiz-adv-x="641" 
d="M322 1380q34 0 57.5 -24t23.5 -58t-23.5 -57.5t-57.5 -23.5t-58 23.5t-24 57.5t24 58t58 24z" />
    <glyph glyph-name="ring" unicode="&#x2da;" horiz-adv-x="663" 
d="M332 1462q74 0 126 -52t52 -126t-52 -126t-126 -52t-126 52t-52 126t52 126t126 52zM332 1380q-40 0 -68 -28t-28 -68t28 -68t68 -28t68 28t28 68t-28 68t-68 28z" />
    <glyph glyph-name="ogonek" unicode="&#x2db;" horiz-adv-x="657" 
d="M313 4h88v-4q-61 -45 -109 -102t-48 -113q0 -59 39.5 -90t99.5 -31q38 0 119 25l-21 -90q-66 -19 -106 -19q-89 0 -155 55t-66 142q0 68 45.5 126.5t113.5 100.5z" />
    <glyph glyph-name="tilde" unicode="&#x2dc;" horiz-adv-x="899" 
d="M215 1200l-61 45q23 55 64.5 93t94.5 38q47 0 144 -39q11 -4 33.5 -13.5t35 -14t29.5 -9t31 -4.5q35 0 61 24.5t37 59.5l59 -45q-14 -56 -61 -94.5t-104 -38.5q-34 0 -134 41q-96 41 -139 41q-63 0 -90 -84z" />
    <glyph glyph-name="hungarumlaut" unicode="&#x2dd;" horiz-adv-x="913" 
d="M362 1462l125 -39l-254 -297l-77 35zM635 1462l125 -39l-254 -297l-78 35z" />
    <glyph glyph-name="uni03A9" unicode="&#x3a9;" horiz-adv-x="1669" 
d="M492 78v6q-145 116 -237.5 302t-92.5 417q0 167 54 308t146 236.5t216.5 149t263.5 53.5q144 0 268.5 -58.5t211 -158.5t136 -236t49.5 -288q0 -123 -28.5 -239t-76.5 -207t-105.5 -161t-122.5 -118v-6h366v-78h-516v57q77 46 145 117t124 163.5t89 212.5t33 249
q-1 91 -24 185t-71 182t-114 157t-161 110.5t-205 41.5q-173 0 -308.5 -93.5t-206.5 -247.5t-71 -339q0 -123 33.5 -241.5t89 -212t124 -166.5t142.5 -118v-57h-514v78h363z" />
    <glyph glyph-name="uni03BC" unicode="&#x3bc;" horiz-adv-x="966" 
d="M236 -553h-93v1499h93v-467q0 -58 5.5 -110t21.5 -109.5t42.5 -98.5t72 -68t105.5 -27q66 0 113 19.5t72.5 49t40 78t18.5 92.5t4 107v534h92v-567q0 -52 -1 -75t-5.5 -65t-17 -73t-33.5 -60q-48 -62 -123.5 -94t-159.5 -32q-44 0 -91.5 18t-90.5 57t-61 92h-4v-700z" />
    <glyph glyph-name="pi" unicode="&#x3c0;" horiz-adv-x="1257" 
d="M1194 1049h-201v-723q0 -210 35 -326h-90q-37 60 -37 307v742h-481q-13 -257 -66.5 -584.5t-115.5 -464.5h-93q66 160 118 474.5t63 574.5q-199 0 -277 -33l-22 61q94 51 297 51h882z" />
    <glyph glyph-name="endash" unicode="&#x2013;" horiz-adv-x="1024" 
d="M0 700h1024v-92h-1024v92z" />
    <glyph glyph-name="emdash" unicode="&#x2014;" horiz-adv-x="2048" 
d="M266 700h1516v-92h-1516v92z" />
    <glyph glyph-name="quoteleft" unicode="&#x2018;" horiz-adv-x="530" 
d="M242 1073l-92 27l169 465l62 -23z" />
    <glyph glyph-name="quoteright" unicode="&#x2019;" horiz-adv-x="530" 
d="M289 1565l92 -27l-170 -465l-61 23z" />
    <glyph glyph-name="quotesinglbase" unicode="&#x201a;" horiz-adv-x="530" 
d="M289 152l92 -29l-170 -463l-61 23z" />
    <glyph glyph-name="quotedblleft" unicode="&#x201c;" horiz-adv-x="798" 
d="M510 1073l-92 27l170 465l61 -23zM242 1073l-92 27l169 465l62 -23z" />
    <glyph glyph-name="quotedblright" unicode="&#x201d;" horiz-adv-x="798" 
d="M289 1565l92 -27l-170 -465l-61 23zM557 1565l92 -27l-170 -465l-61 23z" />
    <glyph glyph-name="quotedblbase" unicode="&#x201e;" horiz-adv-x="798" 
d="M289 152l92 -29l-170 -463l-61 23zM557 152l92 -29l-170 -463l-61 23z" />
    <glyph glyph-name="dagger" unicode="&#x2020;" 
d="M586 1544h98v-407h371v-93h-371v-1409h-98v1409h-371v93h371v407z" />
    <glyph glyph-name="daggerdbl" unicode="&#x2021;" 
d="M586 1544h98v-407h371v-93h-371v-876h371v-92h-371v-441h-98v441h-371v92h371v876h-371v93h371v407z" />
    <glyph glyph-name="bullet" unicode="&#x2022;" 
d="M637 1159q164 0 274.5 -113t110.5 -274q0 -160 -110.5 -272.5t-274.5 -112.5t-275.5 112.5t-111.5 272.5q0 161 111.5 274t275.5 113z" />
    <glyph glyph-name="ellipsis" unicode="&#x2026;" horiz-adv-x="2048" 
d="M342 154q35 0 59.5 -24.5t24.5 -59.5t-24.5 -59.5t-59.5 -24.5t-59.5 24.5t-24.5 59.5t24.5 59.5t59.5 24.5zM1024 154q35 0 59.5 -24.5t24.5 -59.5t-24.5 -59.5t-59.5 -24.5t-59.5 24.5t-24.5 59.5t24.5 59.5t59.5 24.5zM1706 154q35 0 59.5 -24.5t24.5 -59.5
t-24.5 -59.5t-59.5 -24.5t-59.5 24.5t-24.5 59.5t24.5 59.5t59.5 24.5z" />
    <glyph glyph-name="perthousand" unicode="&#x2030;" horiz-adv-x="2117" 
d="M1749 592q132 0 221.5 -86.5t89.5 -218.5q0 -129 -90.5 -215t-220.5 -86t-220.5 86t-90.5 215q0 132 89.5 218.5t221.5 86.5zM1749 506q-92 0 -158.5 -64t-66.5 -155q0 -89 67 -152t158 -63t158 63t67 152q0 91 -66.5 155t-158.5 64zM369 1559q132 0 221.5 -87t89.5 -219
q0 -129 -90.5 -215t-220.5 -86t-221 86t-91 215q0 132 90 219t222 87zM369 1473q-92 0 -159 -64.5t-67 -155.5q0 -89 67.5 -152t158.5 -63t158 63t67 152q0 91 -66.5 155.5t-158.5 64.5zM991 592q132 0 222 -86.5t90 -218.5q0 -129 -91 -215t-221 -86t-220.5 86t-90.5 215
q0 132 89.5 218.5t221.5 86.5zM991 506q-92 0 -158.5 -64t-66.5 -155q0 -89 67 -152t158 -63t158.5 63t67.5 152q0 91 -67 155t-159 64zM1102 1579l67 -35l-917 -1579l-64 37z" />
    <glyph glyph-name="guilsinglleft" unicode="&#x2039;" horiz-adv-x="567" 
d="M182 655l248 -290l-59 -56l-299 346l299 346l59 -55z" />
    <glyph glyph-name="guilsinglright" unicode="&#x203a;" horiz-adv-x="567" 
d="M137 365l248 290l-248 291l60 55l299 -346l-299 -346z" />
    <glyph glyph-name="fraction" unicode="&#x2044;" horiz-adv-x="264" 
d="M557 1581l66 -37l-916 -1579l-65 37z" />
    <glyph glyph-name="Euro" unicode="&#x20ac;" 
d="M1167 1440v-107q-144 140 -370 140q-110 0 -198 -42.5t-144.5 -117t-90.5 -166t-45 -197.5h732l-31 -82h-709q-4 -50 -4 -96q0 -48 4 -94h639l-28 -82h-600q30 -252 152.5 -390t324.5 -138q215 0 368 139v-107q-55 -49 -154 -83.5t-222 -34.5q-242 0 -387 153.5
t-181 460.5h-151l28 82h115q-4 46 -4 94q0 42 4 96h-143l28 82h121q16 132 55.5 239.5t106.5 193t171 133t237 47.5q122 0 219 -35.5t157 -87.5z" />
    <glyph glyph-name="afii61289" unicode="&#x2113;" horiz-adv-x="1060" 
d="M944 293l57 -39q-144 -262 -395 -262q-90 0 -159.5 35.5t-111 96.5t-62 136t-21.5 162v29q-38 -29 -139 -113l-39 63q17 14 58 48t68.5 57.5t51.5 46.5v633q0 116 19.5 207t50 146t73 90.5t83.5 49t85 13.5q126 0 193 -95t67 -241q0 -139 -63.5 -285t-166.5 -275.5
t-255 -275.5v-57q0 -104 23.5 -183t64 -124.5t89 -67.5t103.5 -22q108 0 193.5 68t132.5 159zM338 1202v-579q93 96 160 177t126.5 173t90 185t30.5 185q0 127 -45 200t-143 73q-38 0 -75 -22.5t-70 -68.5t-53.5 -129.5t-20.5 -193.5z" />
    <glyph glyph-name="trademark" unicode="&#x2122;" horiz-adv-x="1925" 
d="M774 1544v-86h-285v-776h-86v776h-284v86h655zM944 1544h148l280 -670h4l285 670h147v-862h-86v776h-8l-338 -776h-4l-334 776h-8v-776h-86v862z" />
    <glyph glyph-name="Omega" unicode="&#x2126;" horiz-adv-x="1669" 
d="M492 78v6q-145 116 -237.5 302t-92.5 417q0 167 54 308t146 236.5t216.5 149t263.5 53.5q144 0 268.5 -58.5t211 -158.5t136 -236t49.5 -288q0 -123 -28.5 -239t-76.5 -207t-105.5 -161t-122.5 -118v-6h366v-78h-516v57q77 46 145 117t124 163.5t89 212.5t33 249
q-1 91 -24 185t-71 182t-114 157t-161 110.5t-205 41.5q-173 0 -308.5 -93.5t-206.5 -247.5t-71 -339q0 -123 33.5 -241.5t89 -212t124 -166.5t142.5 -118v-57h-514v78h363z" />
    <glyph glyph-name="estimated" unicode="&#x212e;" horiz-adv-x="1910" 
d="M1835 750h-1425q-13 0 -13 -9v-432q0 -22 19 -49q107 -110 246.5 -172.5t293.5 -62.5q166 0 313.5 70.5t254.5 193.5h127q-121 -142 -304.5 -224.5t-392.5 -82.5q-179 0 -342 62.5t-281 168.5t-187.5 252t-69.5 307t69.5 308t187.5 253t281 169t342 63t342.5 -63
t281.5 -169t187.5 -253t69.5 -308v-22zM1511 807v432q0 33 -20 53q-108 105 -245.5 165.5t-289.5 60.5t-291 -62.5t-247 -171.5q-21 -24 -21 -53v-424q0 -14 13 -14h1091q10 0 10 14z" />
    <glyph glyph-name="partialdiff" unicode="&#x2202;" horiz-adv-x="1202" 
d="M229 1528l-43 63q153 119 355 119q83 0 161 -31t147.5 -97.5t121 -161.5t82 -232.5t30.5 -300.5q0 -183 -35 -342.5t-102.5 -285t-177 -198.5t-248.5 -73q-103 0 -185 42.5t-131.5 114t-75.5 159t-26 183.5q0 121 40.5 225.5t107 174t152.5 108.5t178 39q80 0 153.5 -27
t123.5 -68.5t82 -78.5t48 -69h2q4 33 4 114q0 167 -38.5 307.5t-102.5 231t-145.5 140.5t-169.5 50q-171 0 -308 -106zM524 63h2q120 0 217 85t154 222t76 306q-23 62 -72 123t-133.5 109t-179.5 48q-103 0 -193 -60.5t-144 -167.5t-54 -234q0 -187 90 -309t237 -122z" />
    <glyph glyph-name="Delta" unicode="&#x2206;" horiz-adv-x="1468" 
d="M78 0v82l606 1491h104l605 -1491v-82h-1315zM170 78h1120l-385 960q-11 28 -80.5 195t-87.5 227h-10q-13 -47 -75 -198.5t-74 -184.5z" />
    <glyph glyph-name="product" unicode="&#x220f;" horiz-adv-x="1564" 
d="M1503 1442h-264v-1653h-90v1653h-735v-1653h-90v1653h-265v84h1444v-84z" />
    <glyph glyph-name="summation" unicode="&#x2211;" horiz-adv-x="1255" 
d="M1198 -211h-1147v66l654 798l-623 809v64h1083v-82h-946v-8l596 -772l-635 -779v-6h1018v-90z" />
    <glyph glyph-name="minus" unicode="&#x2212;" 
d="M111 475v98h1048v-98h-1048z" />
    <glyph glyph-name="uni2215" unicode="&#x2215;" horiz-adv-x="264" 
d="M557 1581l66 -37l-916 -1579l-65 37z" />
    <glyph glyph-name="uni2219" unicode="&#x2219;" horiz-adv-x="634" 
d="M317 608q35 0 59.5 -24.5t24.5 -59.5t-24.5 -59.5t-59.5 -24.5t-59.5 24.5t-24.5 59.5t24.5 59.5t59.5 24.5z" />
    <glyph glyph-name="radical" unicode="&#x221a;" horiz-adv-x="1263" 
d="M1255 1802l-501 -2142h-99l-379 1051l-170 -64l-26 66l258 98l328 -899q24 -85 34 -135l5 -2q2 17 6.5 39.5t10.5 50t9 41.5l447 1896h77z" />
    <glyph glyph-name="infinity" unicode="&#x221e;" horiz-adv-x="1748" 
d="M1630 637v-2q0 -148 -99 -243t-233 -95q-32 0 -63.5 7.5t-57 17t-58 32t-55 40t-59.5 53t-60 58.5t-68 70q-111 -122 -165 -167q-132 -111 -268 -111q-134 0 -229.5 98t-95.5 234q0 143 96.5 239.5t243.5 96.5q50 0 100 -17.5t88 -41t86.5 -67t76.5 -73t75 -82.5
q113 123 160 164q133 117 272 117q144 0 228.5 -91.5t84.5 -236.5zM457 371h2q44 0 87.5 15.5t87 49t70.5 58t72.5 72t59.5 61.5q-99 114 -138 150q-130 120 -260 120q-109 0 -173 -80.5t-64 -191.5q2 -108 72 -181t184 -73zM1307 897h-2q-46 0 -92 -18.5t-88.5 -52
t-74 -64.5t-69.5 -71t-55 -56q139 -142 191 -184q99 -80 190 -80q111 0 177 77.5t66 180.5q0 126 -69 197t-174 71z" />
    <glyph glyph-name="integral" unicode="&#x222b;" horiz-adv-x="749" 
d="M723 1817l-27 -66q-35 27 -86 27q-73 0 -114 -49q-49 -52 -68.5 -145.5t-19.5 -260.5t14 -565t14 -565q0 -302 -104 -445q-31 -40 -78.5 -62t-101.5 -22q-35 0 -74.5 12.5t-59.5 26.5l25 68q65 -29 109 -29q28 0 57 14.5t49 38.5q90 108 90 402q0 168 -15.5 569.5
t-15.5 564.5q0 176 25.5 280.5t87.5 164.5q72 75 178 75q29 0 62.5 -10.5t52.5 -23.5z" />
    <glyph glyph-name="approxequal" unicode="&#x2248;" horiz-adv-x="1300" 
d="M1135 920l47 -39q-104 -201 -281 -201q-20 0 -37.5 1.5t-39.5 8t-33 9.5t-39 16t-36 17t-45 23t-46 23q-44 25 -73 39t-71.5 26.5t-79.5 12.5q-75 0 -129 -45.5t-104 -126.5l-51 39q53 98 130 150.5t171 52.5q39 0 81 -12t65.5 -23.5t66 -36t51.5 -29.5q8 -4 43.5 -22
t46.5 -22.5t38 -14.5t49.5 -13t49.5 -3q71 0 123.5 40.5t102.5 129.5zM1135 559l47 -41q-105 -199 -281 -199q-20 0 -38 2t-38.5 8t-33.5 10t-38.5 16t-37 17.5t-44.5 22t-46 23.5q-48 26 -74.5 39t-69 26t-78.5 13q-77 0 -130 -45t-105 -127l-51 36q52 100 129.5 152.5
t171.5 52.5q51 0 94.5 -14t105.5 -48.5t64 -35.5q7 -4 31.5 -17t32.5 -17t28.5 -13.5t32.5 -13t30.5 -9t36 -7t37.5 -1.5q71 0 122 40t102 130z" />
    <glyph glyph-name="notequal" unicode="&#x2260;" horiz-adv-x="1300" 
d="M903 1106l-112 -238h389v-73h-422l-166 -346h588v-72h-621l-129 -277l-59 31l114 246h-364v72h399l164 346h-563v73h596l127 269z" />
    <glyph glyph-name="lessequal" unicode="&#x2264;" horiz-adv-x="1300" 
d="M1174 195l-1039 510v73l1039 508v-90l-953 -451v-4l953 -456v-90zM1178 25h-1059v73h1059v-73z" />
    <glyph glyph-name="greaterequal" unicode="&#x2265;" horiz-adv-x="1300" 
d="M135 1286l1039 -508v-73l-1039 -510v90l950 452v6l-950 453v90zM1178 25h-1057v73h1057v-73z" />
    <glyph glyph-name="lozenge" unicode="&#x25ca;" horiz-adv-x="1265" 
d="M1135 762l-465 -862h-76l-463 862l463 864h78zM1044 760l-368 680q-30 63 -43 102h-4q-26 -66 -45 -102l-365 -674l371 -684q30 -56 41 -98h6q11 31 41 98z" />
    </font>
</defs>
</svg>
