<?xml version="1.0" standalone="no"?>
<!DOCTYPE svg PUBLIC "-//W3C//DTD SVG 1.1//EN" "http://www.w3.org/Graphics/SVG/1.1/DTD/svg11.dtd" >
<svg xmlns="http://www.w3.org/2000/svg" xmlns:xlink="http://www.w3.org/1999/xlink" version="1.1">
<metadata>
Created by FontForge 20170731 at Thu Oct  5 12:25:26 2023
 By Aleksey,,,
Copyright (c) 1987, 1991, 1993, 2002 Adobe Systems Incorporated.  All Rights Reserved.
</metadata>
<defs>
<font id="FuturaStd-Book" horiz-adv-x="1261" >
  <font-face 
    font-family="Futura Std Book"
    font-weight="400"
    font-stretch="normal"
    units-per-em="2048"
    panose-1="2 11 5 2 2 2 4 2 3 3"
    ascent="1690"
    descent="-358"
    x-height="963"
    cap-height="1544"
    bbox="-330 -600 2413 2060"
    underline-thickness="102"
    underline-position="-307"
    unicode-range="U+0020-FB02"
  />
<missing-glyph horiz-adv-x="1024" 
d="M0 0v1434h1024v-1434h-1024zM512 809l348 522h-696zM573 717l349 -522v1044zM164 102h696l-348 523zM102 1239v-1044l349 522z" />
    <glyph glyph-name="fi" unicode="fi" horiz-adv-x="1062" 
d="M309 811v-811h-164v811h-90v152h90v383q0 55 1.5 87.5t11.5 81t30 80.5q38 61 104 91t144 30q52 0 117 -20v-166q-68 22 -111 22q-20 0 -36 -2.5t-29 -9t-22.5 -13t-16.5 -20t-12 -23t-8.5 -30.5t-5 -33.5t-2.5 -40t-1 -43.5v-49v-325h244v-152h-244zM877 963v-963h-164
v963h164zM795 1442q47 0 81.5 -35t34.5 -82q0 -49 -34 -83t-82 -34t-82.5 34t-34.5 83q0 47 35 82t82 35z" />
    <glyph glyph-name="fl" unicode="fl" horiz-adv-x="1026" 
d="M877 1690v-1690h-164v1690h164zM309 811v-811h-164v811h-90v152h90v383q0 55 1.5 87.5t11.5 81t30 80.5q38 61 104 91t144 30q52 0 117 -20v-166q-68 22 -111 22q-20 0 -36 -2.5t-29 -9t-22.5 -13t-16.5 -20t-12 -23t-8.5 -30.5t-5 -33.5t-2.5 -40t-1 -43.5v-49v-325h244
v-152h-244z" />
    <glyph glyph-name=".notdef" horiz-adv-x="1024" 
d="M0 0v1434h1024v-1434h-1024zM512 809l348 522h-696zM573 717l349 -522v1044zM164 102h696l-348 523zM102 1239v-1044l349 522z" />
    <glyph glyph-name=".null" horiz-adv-x="0" 
 />
    <glyph glyph-name="nonmarkingreturn" horiz-adv-x="682" 
 />
    <glyph glyph-name="space" unicode=" " horiz-adv-x="630" 
 />
    <glyph glyph-name="exclam" unicode="!" horiz-adv-x="692" 
d="M346 203q47 0 81 -33.5t34 -79.5q0 -47 -34 -82t-81 -35t-81 35t-34 82q0 46 34 79.5t81 33.5zM262 313v1231h168v-1231h-168z" />
    <glyph glyph-name="quotedbl" unicode="&#x22;" horiz-adv-x="935" 
d="M209 1544h192l-36 -672h-119zM535 1544h192l-37 -672h-119z" />
    <glyph glyph-name="numbersign" unicode="#" 
d="M483 1544h158l-74 -418h254l72 418h162l-72 -418h188v-159h-215l-59 -351h207v-159h-236l-82 -457h-155l80 457h-252l-86 -457h-154l80 457h-209v159h236l59 351h-219v159h244zM545 967l-60 -351h252l60 351h-252z" />
    <glyph glyph-name="dollar" unicode="$" 
d="M729 705v-549q96 32 152.5 111.5t56.5 181.5q0 62 -32 113.5t-74.5 82.5t-102.5 60zM594 948v449q-82 -15 -136.5 -81t-54.5 -151q0 -76 53.5 -127.5t137.5 -89.5zM594 141v625q-64 27 -110.5 50.5t-97 60t-82 76.5t-52.5 96t-21 122q0 155 103 260.5t260 127.5v210h135
v-210q103 -13 190.5 -77t133.5 -157l-135 -88q-78 137 -189 158v-506q57 -24 99.5 -45.5t89 -50.5t79 -62t59.5 -74t40.5 -92.5t13.5 -111.5q0 -170 -107.5 -299.5t-273.5 -163.5v-226h-135v213q-164 7 -288 121t-154 277l165 47q14 -109 92.5 -191.5t184.5 -89.5z" />
    <glyph glyph-name="percent" unicode="%" horiz-adv-x="1632" 
d="M410 1440q-87 0 -150 -60.5t-63 -146.5q0 -84 63 -144.5t150 -60.5t150 60.5t63 144.5q0 86 -63 146.5t-150 60.5zM1223 1571l82 -49l-893 -1549l-88 54zM1225 516q-87 0 -150 -60.5t-63 -146.5q0 -84 63 -144.5t150 -60.5t150 60.5t63 144.5q0 86 -63 146.5t-150 60.5z
M410 1571q142 0 243 -98t101 -240q0 -140 -101.5 -238t-242.5 -98t-242.5 97.5t-101.5 238.5q0 142 101 240t243 98zM1225 647q142 0 243 -98t101 -240q0 -140 -101.5 -238t-242.5 -98t-242.5 97.5t-101.5 238.5q0 142 101 240t243 98z" />
    <glyph glyph-name="ampersand" unicode="&#x26;" horiz-adv-x="1423" 
d="M618 1008l15 10q9 7 43.5 33t46.5 36t37.5 34.5t35.5 43t19.5 46t9.5 57.5q0 69 -49.5 113t-118.5 44q-71 0 -120.5 -49t-49.5 -121q0 -22 4.5 -42.5t17.5 -44t20 -35t28 -40t25 -34.5zM1190 0l-166 217q-125 -112 -244 -178t-250 -66q-118 0 -220.5 53.5t-166 151.5
t-63.5 217q0 54 12 103.5t28.5 87.5t49 78t58 66.5t73 62t75.5 55t83 55.5l18 12q-82 113 -108 162q-45 87 -45 166q0 145 96 236.5t242 91.5q134 0 230.5 -85.5t96.5 -217.5q0 -30 -5.5 -59t-12.5 -52t-23.5 -49t-27.5 -43t-35.5 -41.5t-37 -36.5t-43 -36.5t-42.5 -33.5
t-45 -34l325 -416l175 203l124 -103l-196 -229l262 -338h-217zM578 788l-74 -49q-41 -28 -60.5 -42t-56.5 -43t-56 -52t-41.5 -54.5t-32 -66.5t-9.5 -73q0 -109 82 -194t190 -85q45 0 93 15t82 32t84.5 54t71.5 54.5t71 61.5z" />
    <glyph glyph-name="quotesingle" unicode="'" horiz-adv-x="591" 
d="M201 1544h192l-37 -672h-118z" />
    <glyph glyph-name="parenleft" unicode="(" horiz-adv-x="587" 
d="M377 1614l145 -70q-164 -433 -164 -983t164 -983l-145 -70q-99 212 -143 491t-44 562t44 562t143 491z" />
    <glyph glyph-name="parenright" unicode=")" horiz-adv-x="587" 
d="M66 1544l145 70q99 -211 142.5 -490t43.5 -563t-43.5 -563t-142.5 -490l-145 70q163 430 163 983t-163 983z" />
    <glyph glyph-name="asterisk" unicode="*" horiz-adv-x="1212" 
d="M543 1257l-13 287h154l-12 -287l270 101l49 -148l-278 -77l178 -226l-125 -92l-160 242l-160 -242l-124 92l180 226l-279 77l49 148z" />
    <glyph glyph-name="plus" unicode="+" 
d="M551 1020h160v-416h415v-160h-415v-415h-160v415h-416v160h416v416z" />
    <glyph glyph-name="comma" unicode="," horiz-adv-x="630" 
d="M309 225l152 -53l-232 -524l-110 45z" />
    <glyph glyph-name="hyphen" unicode="-" horiz-adv-x="425" 
d="M4 569h420v-151h-420v151z" />
    <glyph glyph-name="period" unicode="." horiz-adv-x="630" 
d="M315 203q47 0 81 -33.5t34 -79.5q0 -47 -34 -82t-81 -35t-80.5 34.5t-33.5 82.5q0 46 33.5 79.5t80.5 33.5z" />
    <glyph glyph-name="slash" unicode="/" horiz-adv-x="1167" 
d="M995 1690l135 -62l-960 -1950l-133 62z" />
    <glyph glyph-name="zero" unicode="0" 
d="M631 1571q94 0 176 -37t141.5 -100.5t105.5 -144t74 -171t42 -178.5t14 -170q0 -115 -23.5 -229t-70.5 -216.5t-112 -181t-155 -124.5t-192 -46t-192 46t-155 124.5t-112 181t-70.5 216.5t-23.5 229q0 82 14 170t42 178.5t74 171t105.5 144t141.5 100.5t176 37zM631 1411
q-83 0 -151 -46.5t-110.5 -118.5t-70.5 -161.5t-39 -171t-10 -151.5q1 -71 13 -149.5t41 -165.5t70.5 -155.5t108.5 -113.5t148 -45t148 45t108.5 113.5t70.5 155.5t41 165.5t13 149.5q1 70 -10 151.5t-39 171t-70.5 161.5t-110.5 118.5t-151 46.5z" />
    <glyph glyph-name="one" unicode="1" 
d="M580 1384h-256l90 160h338v-1544h-172v1384z" />
    <glyph glyph-name="two" unicode="2" 
d="M432 160h651v-160h-999l723 854q104 126 104 258q0 128 -89.5 213.5t-217.5 85.5q-137 0 -222.5 -89.5t-88.5 -227.5h-172q5 204 139.5 340.5t337.5 136.5q129 0 239.5 -57.5t178 -163.5t67.5 -236q0 -193 -116 -326z" />
    <glyph glyph-name="three" unicode="3" 
d="M555 731v160q53 2 95.5 9.5t82.5 25t67 44.5t43.5 70.5t16.5 100.5q0 123 -74 196.5t-196 73.5q-112 0 -177.5 -67.5t-76.5 -180.5h-170q19 189 130 298.5t298 109.5q189 0 313.5 -117t124.5 -305q0 -105 -53 -198.5t-145 -139.5q108 -49 164.5 -152t56.5 -227
q0 -199 -139.5 -329t-340.5 -130q-191 0 -323 119t-135 309h168q6 -117 92 -192.5t205 -75.5q128 0 214.5 90t86.5 219q0 143 -91 218.5t-237 70.5z" />
    <glyph glyph-name="four" unicode="4" 
d="M975 410h190v-160h-190v-250h-172v250h-791l959 1380h4v-1220zM803 410v698h-4l-486 -698h490z" />
    <glyph glyph-name="five" unicode="5" 
d="M1071 1384h-493l-101 -329l92 8q149 0 267.5 -72.5t182.5 -195t64 -271.5q0 -156 -76 -283t-205.5 -197.5t-285.5 -70.5q-151 0 -273.5 72.5t-199.5 204.5l137 98q54 -97 144.5 -156t197.5 -59q169 0 279 112.5t110 282.5q0 163 -111 269t-274 106q-142 0 -293 -98
l224 739h614v-160z" />
    <glyph glyph-name="six" unicode="6" 
d="M743 1571l129 -96l-356 -480l4 -4q24 10 66 17q34 6 69 6q138 0 253 -69t181 -186t66 -255q0 -145 -72 -267.5t-194.5 -193t-265.5 -70.5q-144 0 -267 71t-194.5 193t-71.5 265q0 173 141 370zM623 133q150 0 255 107t105 258q0 150 -105 253t-255 103q-151 0 -256 -103
t-105 -253q0 -151 105.5 -258t255.5 -107z" />
    <glyph glyph-name="seven" unicode="7" 
d="M948 1384h-844v160h1139l-1036 -1571l-135 80z" />
    <glyph glyph-name="eight" unicode="8" 
d="M631 727q-125 0 -212 -86.5t-87 -210.5t87 -210.5t212 -86.5t212 86.5t87 210.5t-87 210.5t-212 86.5zM631 1571q183 0 307.5 -122.5t124.5 -307.5q0 -103 -50.5 -195.5t-138.5 -142.5q107 -49 167.5 -149.5t60.5 -221.5q0 -198 -135 -328.5t-336 -130.5t-336 130.5
t-135 328.5q0 121 60 221.5t167 149.5q-88 50 -138 142.5t-50 195.5q0 185 124.5 307.5t307.5 122.5zM631 1411q-111 0 -190 -78t-79 -188q0 -112 79 -191.5t190 -79.5q110 0 189 79.5t79 191.5q0 110 -79 188t-189 78z" />
    <glyph glyph-name="nine" unicode="9" 
d="M502 -27l-129 88l356 490l-4 4q-68 -20 -133 -20q-139 0 -254 68.5t-180.5 185t-65.5 255.5q0 144 72 265.5t195 191.5t266 70t265.5 -70t194.5 -191.5t72 -265.5q0 -172 -143 -370zM625 1411q-151 0 -256 -105.5t-105 -254.5q0 -150 105 -253.5t256 -103.5
q150 0 255 103.5t105 253.5q0 149 -105.5 254.5t-254.5 105.5z" />
    <glyph glyph-name="colon" unicode=":" horiz-adv-x="630" 
d="M315 203q47 0 81 -33.5t34 -79.5q0 -47 -34 -82t-81 -35t-80.5 34.5t-33.5 82.5q0 46 33.5 79.5t80.5 33.5zM315 989q47 0 81 -33t34 -79q0 -47 -34 -82t-81 -35t-80.5 34.5t-33.5 82.5q0 46 33.5 79t80.5 33z" />
    <glyph glyph-name="semicolon" unicode=";" horiz-adv-x="630" 
d="M313 225l152 -53l-232 -524l-110 45zM367 989q47 0 80.5 -33t33.5 -79q0 -48 -33.5 -82.5t-80.5 -34.5t-81 35t-34 82q0 46 34 79t81 33z" />
    <glyph glyph-name="less" unicode="&#x3c;" 
d="M1126 1020v-174l-753 -322l753 -321v-174l-991 424v143z" />
    <glyph glyph-name="equal" unicode="=" 
d="M135 764h991v-160h-991v160zM135 444h991v-159h-991v159z" />
    <glyph glyph-name="greater" unicode="&#x3e;" 
d="M135 846v174l991 -424v-143l-991 -424v174l754 321z" />
    <glyph glyph-name="question" unicode="?" horiz-adv-x="999" 
d="M666 672h165q5 -149 -90 -252t-243 -103q-142 0 -238 96.5t-96 237.5q0 67 21 119t61.5 88.5t87 61t110.5 45.5q10 3 29 9q35 10 52 16t46 17.5t44.5 22t35.5 27.5t30 36.5t17 46.5t7 60q0 94 -59.5 153.5t-151.5 59.5q-87 0 -144 -58.5t-57 -144.5q0 -48 12 -98h-170
l-8 109q0 156 110 253t267 97t262.5 -106t105.5 -263q0 -78 -28 -151.5t-82 -122.5q-13 -11 -29.5 -22t-29.5 -19t-36.5 -17.5t-33.5 -14t-38.5 -14t-34 -11t-38 -11.5t-33.5 -10q-74 -21 -115.5 -60t-41.5 -110q0 -69 49.5 -116.5t118.5 -47.5q81 0 123.5 57t42.5 140z
M496 203q47 0 80.5 -33.5t33.5 -79.5q0 -48 -33.5 -82.5t-80.5 -34.5t-81 35t-34 82q0 46 34 79.5t81 33.5z" />
    <glyph glyph-name="at" unicode="@" horiz-adv-x="1638" 
d="M535 709q0 -108 58.5 -177t162.5 -69q53 0 96.5 17.5t73.5 46t52 68t34 80.5t18 87q15 122 -44 199t-165 77q-80 0 -147 -49.5t-103 -124.5t-36 -155zM1081 1034l29 125h145l-102 -522q-20 -98 -16 -130q8 -43 45 -44q47 0 100.5 56t92.5 148.5t44 186.5q10 175 -64 306
t-205 197t-300 66q-180 0 -324 -84.5t-224.5 -233.5t-80.5 -333q0 -192 88.5 -341.5t239.5 -229.5t336 -80q258 0 391 94l143 -104q-127 -66 -254 -102t-297 -36q-163 0 -309.5 60.5t-253 165.5t-169 254t-62.5 319q0 168 61.5 316.5t166 254t249 167t305.5 61.5
q285 0 481 -176q230 -200 230 -469q0 -127 -33 -239t-94 -191q-70 -92 -154 -136t-162 -41q-43 2 -72 34.5t-38 90.5q-125 -125 -279 -125q-137 0 -240.5 110t-103.5 265q0 124 50.5 234t148 180t219.5 70q81 0 146.5 -33.5t125.5 -110.5z" />
    <glyph glyph-name="A" unicode="A" horiz-adv-x="1431" 
d="M1047 438h-660l-186 -438h-189l713 1618l694 -1618h-190zM979 598l-258 619l-264 -619h522z" />
    <glyph glyph-name="B" unicode="B" horiz-adv-x="1163" 
d="M328 717v-557h172q63 0 115.5 6.5t106 25t90.5 49t60 82t23 119.5q0 58 -17.5 103.5t-49.5 74.5t-70.5 49t-89 30t-95 14t-96.5 4h-149zM156 0v1544h254q110 0 200 -21.5t162.5 -68.5t113 -130.5t40.5 -197.5q0 -199 -152 -301q135 -33 214 -143.5t79 -251.5
q0 -90 -28.5 -162.5t-78.5 -122t-120 -82.5t-151 -48t-175 -15h-358zM328 1384v-520h65q67 0 113.5 4t97 19.5t80.5 42.5t50 76.5t20 119.5q0 68 -18 116t-46.5 75.5t-78 42.5t-97.5 19.5t-119 4.5h-67z" />
    <glyph glyph-name="C" unicode="C" horiz-adv-x="1468" 
d="M1333 1419v-213q-93 97 -216 151t-255 54q-168 0 -312 -88.5t-227 -235.5t-83 -315t83.5 -315t228.5 -235.5t314 -88.5q128 0 250 55t217 150v-213q-211 -152 -461 -152q-161 0 -309 63t-256.5 169t-173.5 253t-65 308q0 217 108 402.5t293.5 294t402.5 108.5
q257 0 461 -152z" />
    <glyph glyph-name="D" unicode="D" horiz-adv-x="1388" 
d="M156 0v1544h290q193 0 334.5 -38.5t268.5 -147.5q256 -221 256 -588q0 -350 -252 -575q-129 -115 -270 -155t-341 -40h-286zM328 160h125q158 0 273.5 33t213.5 126q94 88 143.5 205.5t49.5 247.5q0 134 -51.5 255.5t-149.5 207.5q-98 87 -212 118t-267 31h-125v-1224z
" />
    <glyph glyph-name="E" unicode="E" horiz-adv-x="1093" 
d="M156 0v1544h800v-160h-628v-458h610v-160h-610v-606h628v-160h-800z" />
    <glyph glyph-name="F" unicode="F" horiz-adv-x="978" 
d="M858 1384h-530v-458h514v-160h-514v-766h-172v1544h702v-160z" />
    <glyph glyph-name="G" unicode="G" horiz-adv-x="1679" 
d="M948 776h643q3 -176 -29 -303.5t-130 -241.5q-105 -122 -257 -190t-315 -68q-128 0 -249 40.5t-218.5 114.5t-171.5 172t-114.5 219t-40.5 249q0 163 63.5 311.5t171.5 256t257 171.5t312 64q397 0 654 -334l-125 -117q-206 291 -531 291q-129 0 -246.5 -52t-201 -139.5
t-133 -206t-49.5 -247.5q0 -123 46.5 -235.5t133.5 -200.5q88 -88 204.5 -142.5t233.5 -54.5q101 0 199.5 35.5t176.5 97.5t126.5 154t48.5 196h-459v160z" />
    <glyph glyph-name="H" unicode="H" horiz-adv-x="1462" 
d="M336 918h790v626h172v-1544h-172v758h-790v-758h-172v1544h172v-626z" />
    <glyph glyph-name="I" unicode="I" horiz-adv-x="489" 
d="M332 1544v-1544h-172v1544h172z" />
    <glyph glyph-name="J" unicode="J" horiz-adv-x="643" 
d="M483 1544v-1222q0 -64 -1.5 -96.5t-7.5 -85.5t-23 -95t-45 -78q-46 -62 -116.5 -94.5t-150.5 -32.5q-138 0 -274 115l96 133q49 -45 88 -66.5t94 -21.5q35 0 62 12.5t44.5 29.5t30 47.5t18.5 54t9 62.5t3.5 59.5t0.5 56.5v1222h172z" />
    <glyph glyph-name="K" unicode="K" horiz-adv-x="1251" 
d="M328 883l657 661h232l-725 -719l749 -825h-237l-633 709l-43 -43v-666h-172v1544h172v-661z" />
    <glyph glyph-name="L" unicode="L" horiz-adv-x="768" 
d="M328 1544v-1384h426v-160h-598v1544h172z" />
    <glyph glyph-name="M" unicode="M" horiz-adv-x="1835" 
d="M43 0l313 1632l562 -1296l563 1296l313 -1632h-176l-199 1044h-4l-497 -1107l-496 1107h-4l-199 -1044h-176z" />
    <glyph glyph-name="N" unicode="N" horiz-adv-x="1708" 
d="M166 0v1610l1204 -1262v1196h172v-1614l-1204 1260v-1190h-172z" />
    <glyph glyph-name="O" unicode="O" horiz-adv-x="1765" 
d="M883 1571q162 0 311 -63.5t257 -170.5t172.5 -255.5t64.5 -311.5t-64.5 -311t-172.5 -254.5t-257 -169t-311 -62.5t-311 62.5t-257 169t-172.5 254.5t-64.5 311t64.5 311.5t172.5 255.5t257 170.5t311 63.5zM883 1411q-130 0 -247.5 -51t-202 -137t-134 -204t-49.5 -247
q0 -128 50 -246t134.5 -204t202 -137.5t246.5 -51.5t246.5 51.5t202 137.5t134.5 204t50 246q0 129 -49.5 247t-134 204t-202 137t-247.5 51z" />
    <glyph glyph-name="P" unicode="P" horiz-adv-x="1030" 
d="M328 676v-676h-172v1544h254q83 0 136.5 -3.5t123.5 -22.5t123 -56q84 -59 129 -152.5t45 -199.5q0 -96 -38.5 -184.5t-109.5 -147.5q-123 -102 -366 -102h-125zM328 1384v-548h114q353 0 353 278q0 53 -12.5 94.5t-32 69.5t-51.5 48t-64 31t-76.5 17.5t-81 8t-86.5 1.5
h-63z" />
    <glyph glyph-name="Q" unicode="Q" horiz-adv-x="1765" 
d="M1079 623l267 -279q170 179 170 428q0 174 -83.5 320.5t-229.5 232.5t-320 86q-130 0 -247.5 -51t-202 -137t-134 -204t-49.5 -247q0 -128 50 -246t134.5 -204t202 -137.5t246.5 -51.5q87 0 180.5 31t163.5 84l-373 375h225zM1477 -14l-129 139q-94 -71 -220 -111.5
t-245 -40.5q-162 0 -311 62.5t-257 169t-172.5 254.5t-64.5 311t64.5 311.5t172.5 255.5t257 170.5t311 63.5q219 0 404.5 -108.5t293 -293.5t107.5 -403q0 -304 -224 -545l232 -235h-219z" />
    <glyph glyph-name="R" unicode="R" horiz-adv-x="1110" 
d="M328 1384v-555h53q65 0 116 5.5t105 23t89.5 47t58 81t22.5 120.5q0 62 -14 108.5t-42.5 76.5t-61.5 49t-82 28.5t-91.5 12.5t-101.5 3h-51zM328 678v-678h-172v1544h223q94 0 172 -10.5t153 -39.5t126 -75.5t82.5 -123t31.5 -177.5q0 -179 -104.5 -295t-282.5 -131
l492 -692h-211l-467 678h-43z" />
    <glyph glyph-name="S" unicode="S" horiz-adv-x="1144" 
d="M993 1331l-137 -88q-49 84 -110.5 126t-155.5 42q-105 0 -180.5 -68t-75.5 -172q0 -38 16.5 -72t37 -56t59.5 -46.5t61.5 -35.5t66.5 -31l103 -45q69 -30 117 -55.5t99.5 -64t82.5 -81t51.5 -102t20.5 -131.5q0 -201 -142 -339.5t-344 -138.5q-185 0 -314.5 109
t-166.5 291l168 47q18 -122 103 -204.5t206 -82.5q128 0 223 86.5t95 214.5q0 43 -8.5 78t-34 65.5t-40.5 48.5t-61 44t-60 33t-71 33q-7 3 -10 5l-94 41q-62 28 -105 51.5t-90 59.5t-75.5 74t-47 92.5t-18.5 118.5q0 116 60.5 207t158.5 138.5t213 47.5q129 0 233 -63
t166 -177z" />
    <glyph glyph-name="T" unicode="T" horiz-adv-x="962" 
d="M565 1384v-1384h-172v1384h-373v160h922v-160h-377z" />
    <glyph glyph-name="U" unicode="U" horiz-adv-x="1402" 
d="M324 1544v-919v-21q0 -56 1 -86.5t6.5 -78.5t20.5 -86.5t39 -71.5q49 -68 136 -108t175 -40q85 0 168 37t136 100q12 14 22 31t17.5 31t13 35.5t9.5 34t6.5 38t4 36t2 39t0.5 36v38.5v36v919h172v-966q0 -148 -25.5 -244.5t-109.5 -183.5q-79 -85 -188 -131t-228 -46
q-110 0 -216 41.5t-183 116.5q-93 89 -122 191.5t-29 255.5v966h172z" />
    <glyph glyph-name="V" unicode="V" horiz-adv-x="1277" 
d="M199 1544l440 -1177l440 1177h187l-627 -1636l-627 1636h187z" />
    <glyph glyph-name="W" unicode="W" horiz-adv-x="2234" 
d="M213 1544l405 -1157l500 1237l500 -1237l405 1157h187l-592 -1624l-500 1243l-500 -1243l-591 1624h186z" />
    <glyph glyph-name="X" unicode="X" horiz-adv-x="1155" 
d="M483 799l-417 745h196l316 -581l315 581h197l-418 -745l456 -799h-196l-354 635l-355 -635h-196z" />
    <glyph glyph-name="Y" unicode="Y" horiz-adv-x="1214" 
d="M522 664l-506 880h199l393 -688l393 688h199l-506 -880v-664h-172v664z" />
    <glyph glyph-name="Z" unicode="Z" horiz-adv-x="1200" 
d="M313 160h822v-160h-1106l841 1384h-735v160h1022z" />
    <glyph glyph-name="bracketleft" unicode="[" horiz-adv-x="645" 
d="M381 1462v-1802h221v-152h-389v2106h389v-152h-221z" />
    <glyph glyph-name="backslash" unicode="\" horiz-adv-x="1167" 
d="M37 1628l135 62l958 -1690l-133 -61z" />
    <glyph glyph-name="bracketright" unicode="]" horiz-adv-x="645" 
d="M264 -340v1802h-221v152h389v-2106h-389v152h221z" />
    <glyph glyph-name="asciicircum" unicode="^" 
d="M135 659l422 885h148l421 -885h-182l-313 672l-318 -672h-178z" />
    <glyph glyph-name="underscore" unicode="_" horiz-adv-x="1024" 
d="M1024 -154v-102h-1024v102h1024z" />
    <glyph glyph-name="grave" unicode="`" horiz-adv-x="733" 
d="M160 1446l172 78l243 -336l-102 -58z" />
    <glyph glyph-name="a" unicode="a" horiz-adv-x="1181" 
d="M555 838q-138 0 -225.5 -103t-87.5 -243q0 -150 84.5 -258.5t230.5 -108.5q152 0 237 105t85 259q0 149 -88 249t-236 100zM1034 963v-963h-164v133h-4q-127 -160 -331 -160q-137 0 -244 71.5t-162 186t-55 248.5q0 138 54.5 253t161.5 186t247 71q97 0 182.5 -43.5
t146.5 -120.5h4v138h164z" />
    <glyph glyph-name="b" unicode="b" horiz-adv-x="1181" 
d="M616 838q-138 0 -225.5 -103t-87.5 -243q0 -150 84.5 -258.5t230.5 -108.5q152 0 237 105t85 259q0 149 -88 249t-236 100zM147 0v1690h164v-865h4q59 77 145.5 120.5t184.5 43.5q139 0 246 -70.5t162 -185.5t55 -252q0 -135 -55 -250t-162 -186.5t-244 -71.5
q-101 0 -187.5 41.5t-144.5 118.5h-4v-133h-164z" />
    <glyph glyph-name="c" unicode="c" horiz-adv-x="974" 
d="M870 893v-217h-4q-128 162 -299 162q-147 0 -243.5 -104.5t-96.5 -252.5q0 -147 92.5 -251.5t239.5 -104.5q185 0 313 166h5v-219q-148 -99 -306 -99q-219 0 -365.5 145t-146.5 363q0 141 69 258t187 183.5t258 66.5q162 0 297 -96z" />
    <glyph glyph-name="d" unicode="d" horiz-adv-x="1181" 
d="M555 838q-138 0 -225.5 -103t-87.5 -243q0 -150 84.5 -258.5t230.5 -108.5q152 0 237 105t85 259q0 149 -88 249t-236 100zM870 0v133h-4q-60 -77 -146 -118.5t-185 -41.5q-137 0 -244 71.5t-162 186t-55 248.5q0 138 54.5 253t161.5 186t247 71q96 0 183 -43.5
t146 -120.5h4v865h164v-1690h-164z" />
    <glyph glyph-name="e" unicode="e" horiz-adv-x="1062" 
d="M993 446h-755q2 -136 90 -228.5t225 -92.5q184 0 293 199l139 -80q-70 -130 -184 -200.5t-260 -70.5q-140 0 -248.5 66.5t-165.5 179t-57 250.5q0 145 53 261.5t160.5 187.5t253.5 71q113 0 203.5 -44.5t147 -119.5t84 -173t21.5 -206zM246 586h575q-18 106 -97.5 179
t-184.5 73q-106 0 -192 -74t-101 -178z" />
    <glyph glyph-name="f" unicode="f" horiz-adv-x="561" 
d="M334 811v-811h-164v811h-90v152h90v383q0 55 1.5 87.5t11.5 81t30 80.5q38 61 104 91t144 30q52 0 117 -20v-166q-68 22 -111 22q-20 0 -36 -2.5t-29 -9t-22.5 -13t-16.5 -20t-12 -23t-8.5 -30.5t-5 -33.5t-2.5 -40t-1 -43.5v-49v-325h244v-152h-244z" />
    <glyph glyph-name="g" unicode="g" horiz-adv-x="1187" 
d="M545 838q-138 0 -226 -103t-88 -243q0 -96 35.5 -178.5t109 -135.5t171.5 -53q152 0 236.5 105t84.5 259q0 150 -87.5 249.5t-235.5 99.5zM1024 963v-916q0 -76 -2 -115.5t-10 -98.5t-29.5 -106.5t-56.5 -93.5q-66 -84 -164 -127t-209 -43q-204 0 -336.5 121t-136.5 322
h164q1 -132 87 -211.5t220 -79.5q74 0 129.5 21.5t89 57.5t54.5 89t28.5 109t7.5 126v115h-4q-58 -75 -147.5 -117.5t-186.5 -42.5q-136 0 -242.5 70.5t-161.5 184.5t-55 249q0 101 33 194t92 163.5t147.5 112.5t192.5 42q99 0 184 -43t144 -121h4v138h164z" />
    <glyph glyph-name="h" unicode="h" horiz-adv-x="1081" 
d="M156 1690h163v-840l5 -4q106 143 274 143q78 0 136.5 -22.5t94.5 -59.5t58 -92t30.5 -113.5t8.5 -130.5v-571h-164v543q0 46 -2 77t-8.5 68.5t-20 61.5t-35 45.5t-56.5 32t-81 10.5q-54 0 -95.5 -15.5t-67 -46t-42 -63.5t-23.5 -81.5t-9.5 -86t-2.5 -88.5v-457h-163v1690
z" />
    <glyph glyph-name="i" unicode="i" horiz-adv-x="536" 
d="M350 963v-963h-164v963h164zM268 1442q47 0 82 -35t35 -82q0 -49 -34.5 -83t-82.5 -34t-82 34t-34 83q0 47 34.5 82t81.5 35z" />
    <glyph glyph-name="j" unicode="j" horiz-adv-x="536" 
d="M350 963v-1504h-164v1504h164zM268 1442q47 0 82 -35t35 -82q0 -49 -34.5 -83t-82.5 -34t-82 34t-34 83q0 47 34.5 82t81.5 35z" />
    <glyph glyph-name="k" unicode="k" horiz-adv-x="962" 
d="M311 1690v-1084l351 357h219l-412 -410l489 -553h-217l-387 438l-43 -43v-395h-164v1690h164z" />
    <glyph glyph-name="l" unicode="l" horiz-adv-x="464" 
d="M315 1690v-1690h-163v1690h163z" />
    <glyph glyph-name="m" unicode="m" horiz-adv-x="1572" 
d="M319 963v-105h5q39 61 99 96t132 35q85 0 156.5 -42.5t109.5 -117.5q41 77 119.5 118.5t169.5 41.5q71 0 126 -23t88.5 -60t55 -90.5t29.5 -109t8 -120.5v-586h-164v559q0 47 -2 78t-12 73t-27.5 67t-52 43t-82.5 18q-54 0 -93.5 -21t-61.5 -52t-34.5 -77.5t-16 -86.5
t-3.5 -91v-510h-163v547q0 43 -2.5 77t-13 76t-28 70.5t-51 48t-78.5 19.5q-55 0 -96 -22.5t-63 -55t-34.5 -81t-16 -89.5t-3.5 -92v-498h-163v963h163z" />
    <glyph glyph-name="n" unicode="n" horiz-adv-x="1081" 
d="M319 963v-117h5q106 143 274 143q78 0 136.5 -22.5t94.5 -59.5t58 -92t30.5 -113.5t8.5 -130.5v-571h-164v543q0 46 -2 77t-8.5 68.5t-20 61.5t-35 45.5t-56.5 32t-81 10.5q-54 0 -95.5 -15.5t-67 -46t-42 -63.5t-23.5 -81.5t-9.5 -86t-2.5 -88.5v-457h-163v963h163z" />
    <glyph glyph-name="o" unicode="o" horiz-adv-x="1150" 
d="M575 -27q-138 0 -254.5 67t-183.5 183.5t-67 255.5t66.5 256.5t183 185.5t255.5 68t255.5 -68t183.5 -185.5t67 -256.5t-67.5 -255.5t-184 -183.5t-254.5 -67zM575 838q-149 0 -245.5 -104t-96.5 -253q0 -150 96 -253t246 -103t246.5 103t96.5 253q0 149 -96.5 253
t-246.5 104z" />
    <glyph glyph-name="p" unicode="p" horiz-adv-x="1181" 
d="M616 838q-138 0 -225.5 -103t-87.5 -243q0 -150 84.5 -258.5t230.5 -108.5q152 0 237 105t85 259q0 149 -88 249t-236 100zM311 963v-138h4q60 79 146 121.5t186 42.5q137 0 244 -72.5t162 -188t55 -249.5q0 -138 -54.5 -252.5t-161.5 -184t-247 -69.5q-99 0 -185.5 42
t-144.5 120h-4v-676h-164v1504h164z" />
    <glyph glyph-name="q" unicode="q" horiz-adv-x="1181" 
d="M555 838q-138 0 -225.5 -103t-87.5 -243q0 -150 84.5 -258.5t230.5 -108.5q152 0 237 105t85 259q0 149 -88 249t-236 100zM1034 963v-1504h-164v676h-4q-58 -77 -144.5 -119.5t-184.5 -42.5q-140 0 -247 69.5t-161.5 183.5t-54.5 251q0 101 32.5 193t90.5 163t146 113.5
t192 42.5q99 0 185 -42.5t146 -121.5h4v138h164z" />
    <glyph glyph-name="r" unicode="r" horiz-adv-x="686" 
d="M311 963v-105h4q34 45 58 69.5t64.5 43t90.5 18.5q70 0 148 -45l-78 -149q-2 2 -15 11t-16 11t-13.5 8t-17 7.5t-16.5 3.5t-20 2q-43 0 -76 -17t-53 -48.5t-33 -65t-18.5 -79t-7 -76.5t-1.5 -71v-481h-164v963h164z" />
    <glyph glyph-name="s" unicode="s" horiz-adv-x="817" 
d="M682 811l-137 -72q-19 41 -54 70t-77 29q-45 0 -82 -31.5t-37 -75.5q0 -16 5.5 -30.5t13 -26t23 -23.5t27 -19.5t35 -18.5t36.5 -16.5t41.5 -17t41.5 -16.5q49 -20 83.5 -41t69 -53t52.5 -78t18 -104q0 -135 -95 -224.5t-230 -89.5q-121 0 -211.5 65t-128.5 179l145 62
q35 -77 78 -115.5t119 -38.5q67 0 111 41t44 106q0 43 -24 76t-62 54t-84.5 39.5t-93 41t-84.5 51t-62 75.5t-24 108q0 119 83.5 195.5t203.5 76.5q81 0 152 -50.5t104 -127.5z" />
    <glyph glyph-name="t" unicode="t" horiz-adv-x="491" 
d="M328 811v-811h-164v811h-101v152h101v346h164v-346h172v-152h-172z" />
    <glyph glyph-name="u" unicode="u" horiz-adv-x="1048" 
d="M307 963v-537q0 -56 3.5 -94.5t16 -80.5t35 -67.5t63.5 -42t99 -16.5t99 16.5t63.5 42t35 67.5t16 80.5t3.5 94.5v537h164v-555q0 -435 -381 -435t-381 435v555h164z" />
    <glyph glyph-name="v" unicode="v" horiz-adv-x="948" 
d="M188 963l287 -648l287 648h184l-471 -1026l-473 1026h186z" />
    <glyph glyph-name="w" unicode="w" horiz-adv-x="1556" 
d="M193 963l284 -652l299 725l301 -725l287 652h186l-477 -1031l-297 717l-297 -717l-473 1031h187z" />
    <glyph glyph-name="x" unicode="x" horiz-adv-x="1019" 
d="M412 512l-351 451h201l252 -328l252 328h205l-353 -451l400 -512h-199l-305 391l-307 -391h-205z" />
    <glyph glyph-name="y" unicode="y" horiz-adv-x="1019" 
d="M438 90l-442 873h190l340 -691l312 691h186l-711 -1504h-186z" />
    <glyph glyph-name="z" unicode="z" horiz-adv-x="1062" 
d="M352 152h664v-152h-996l695 811h-565v152h894z" />
    <glyph glyph-name="braceleft" unicode="{" horiz-adv-x="684" 
d="M104 496v131q51 16 82.5 43t47 71.5t20 91t4.5 121.5v383q0 114 60.5 195.5t113.5 81.5h150v-152h-82q-22 0 -36 -8t-22 -18.5t-11.5 -34.5t-4 -41t-0.5 -53v-387q0 -68 -14 -128t-33 -98t-43 -68.5t-39.5 -44t-26.5 -20.5q12 -7 27 -20t39 -44t43 -69t33 -98.5
t14 -128.5v-385q0 -30 0.5 -44.5t2.5 -37t6.5 -32.5t12.5 -21.5t21 -16t31 -4.5h82v-152h-150q-53 0 -113.5 81.5t-60.5 195.5v381q0 76 -4.5 123t-20 92t-47 72t-82.5 43z" />
    <glyph glyph-name="bar" unicode="|" horiz-adv-x="1167" 
d="M664 1610v-2048h-160v2048h160z" />
    <glyph glyph-name="braceright" unicode="}" horiz-adv-x="684" 
d="M580 627v-131q-51 -16 -82.5 -43t-47 -72t-20 -92t-4.5 -123v-381q0 -114 -60.5 -195.5t-113.5 -81.5h-150v152h82q18 0 31 4.5t21 16t12.5 21.5t6.5 32.5t2.5 37t0.5 44.5v385q0 68 14 128.5t33 98.5t43 69t39 44t27 20q-11 7 -26.5 20.5t-39.5 44t-43 68.5t-33 98
t-14 128v387q0 36 -0.5 53t-4 41t-11.5 34.5t-22 18.5t-36 8h-82v152h150q53 0 113.5 -81.5t60.5 -195.5v-383q0 -75 4.5 -121.5t20 -91t47 -71.5t82.5 -43z" />
    <glyph glyph-name="asciitilde" unicode="~" 
d="M276 352l-141 58q49 136 120.5 218.5t164.5 82.5q81 0 223 -93q17 -11 51.5 -35t55 -37.5t47 -25.5t45.5 -12q41 0 80 56t65 143l139 -58q-45 -134 -117 -217.5t-167 -83.5q-75 0 -209 90q-13 9 -42 28.5t-41.5 27.5t-35 21t-35.5 19t-29.5 10.5t-29.5 4.5
q-41 0 -78.5 -54.5t-65.5 -142.5z" />
    <glyph glyph-name="uni00A0" unicode="&#xa0;" horiz-adv-x="630" 
 />
    <glyph glyph-name="exclamdown" unicode="&#xa1;" horiz-adv-x="692" 
d="M346 989q47 0 81 -33t34 -79q0 -47 -34 -82t-81 -35t-81 35t-34 82q0 46 34 79t81 33zM430 649v-1231h-168v1231h168z" />
    <glyph glyph-name="cent" unicode="&#xa2;" 
d="M1006 1202v-217h-5q-106 137 -241 156v-705q73 10 136.5 55t109.5 109h4v-219q-133 -88 -250 -96v-230h-135v232q-118 13 -217.5 84.5t-156 179.5t-56.5 227q0 125 54 236t153 185t223 89v217h135v-213q133 -12 246 -90zM625 438v699q-116 -23 -189.5 -124t-73.5 -222
q0 -126 72 -227.5t191 -125.5z" />
    <glyph glyph-name="sterling" unicode="&#xa3;" 
d="M426 549h-260v131h205l-39 76q-8 16 -31 60t-32 62.5t-25.5 57t-23.5 64.5t-13 62t-6 71q0 123 62 224t166.5 157.5t227.5 56.5q198 0 322.5 -132t126.5 -331l-168 -45q-1 69 -16 128.5t-46 109t-86 78t-128 28.5q-118 0 -201.5 -80t-83.5 -199q0 -72 30 -147.5
t81.5 -166t70.5 -134.5h291v-131h-246q14 -54 14 -92q0 -107 -67 -221l10 -5q15 -5 66.5 -23.5t86.5 -30.5t77.5 -23t66.5 -11q33 0 61.5 13t51.5 38t38.5 47.5t34.5 55.5l140 -84q-46 -103 -129 -170.5t-187 -67.5q-84 0 -250 60q-8 3 -34 12.5t-35.5 12.5t-31.5 10
t-33.5 10t-29.5 7t-32.5 5.5t-28.5 1.5q-111 0 -184 -125l-133 90q54 87 130.5 142.5t168.5 56.5q65 92 65 191q0 54 -14 100z" />
    <glyph glyph-name="currency" unicode="&#xa4;" 
d="M135 1020l74 74l86 -86q86 62 163 90t173 28t173 -28t163 -90l86 86l73 -74l-82 -82q58 -89 83.5 -163.5t25.5 -160.5t-25.5 -159.5t-83.5 -163.5l82 -82l-73 -74l-86 86q-86 -62 -163.5 -90.5t-172.5 -28.5t-172.5 28.5t-163.5 90.5l-86 -86l-74 74l82 82
q-58 89 -83 163t-25 160q0 87 25 161t83 163zM631 995q-168 -3 -281 -111t-110 -270q3 -155 117 -268t274 -113t274 113t117 268q3 162 -110 270t-281 111z" />
    <glyph glyph-name="yen" unicode="&#xa5;" 
d="M545 0v524h-486v131h486l-113 205h-373v131h297l-317 553h199l393 -684l393 684h199l-318 -553h297v-131h-373l-112 -205h485v-131h-485v-524h-172z" />
    <glyph glyph-name="brokenbar" unicode="&#xa6;" horiz-adv-x="1167" 
d="M664 330v-512h-160v512h160zM664 1354v-512h-160v512h160z" />
    <glyph glyph-name="section" unicode="&#xa7;" horiz-adv-x="1212" 
d="M606 823q-94 0 -159.5 -65.5t-65.5 -159.5t65.5 -160.5t159.5 -66.5t161 66.5t67 160.5q0 93 -67 159t-161 66zM215 8h166q0 -109 51 -173t158 -64q99 0 155 52.5t56 151.5q0 32 -7.5 59t-17.5 46.5t-31.5 38t-36 29.5t-46.5 25t-47 20t-52 20q-9 4 -55.5 22.5t-66 27.5
t-52.5 27t-55 36q-125 99 -125 270q0 114 56 203t159 131q-87 43 -133.5 117t-46.5 172q0 156 114 254t273 98q83 0 165 -36.5t128 -100.5q69 -98 73 -265h-163q-13 244 -205 244q-94 0 -155.5 -56t-61.5 -151q0 -24 5 -45t11 -37t20 -32t24.5 -27t32 -23.5t34.5 -19.5
t40.5 -17.5t40.5 -15.5t44.5 -16t44.5 -15q52 -19 88 -35.5t78.5 -47t68 -66.5t43 -92t17.5 -125q0 -216 -216 -328q181 -93 181 -299q0 -162 -107.5 -257t-273.5 -95q-189 0 -277 102t-96 293z" />
    <glyph glyph-name="dieresis" unicode="&#xa8;" horiz-adv-x="956" 
d="M276 1444q46 0 78.5 -32.5t32.5 -78.5t-32.5 -78t-78.5 -32t-78 32t-32 78t32 78.5t78 32.5zM680 1444q46 0 78.5 -32.5t32.5 -78.5t-32.5 -78t-78.5 -32t-78.5 32t-32.5 78t32.5 78.5t78.5 32.5z" />
    <glyph glyph-name="copyright" unicode="&#xa9;" horiz-adv-x="1638" 
d="M819 -27q-221 0 -405.5 106.5t-291 290t-106.5 402.5t106.5 402.5t291 290t405.5 106.5t405.5 -106.5t291 -290t106.5 -402.5t-106.5 -402.5t-291 -290t-405.5 -106.5zM819 96q181 0 337.5 89.5t249.5 245.5t93 341t-93 341t-249.5 245.5t-337.5 89.5t-337.5 -89.5
t-249.5 -245.5t-93 -341t93 -341t249.5 -245.5t337.5 -89.5zM1227 936h-125q-19 85 -86 132.5t-168 47.5q-80 0 -143 -29.5t-100.5 -78t-57 -106.5t-19.5 -120q0 -146 87.5 -243t236.5 -97q100 0 164 49t86 138h125q-18 -141 -125.5 -225.5t-249.5 -84.5q-198 0 -322 132
t-124 327q0 202 120.5 331.5t323.5 129.5q143 0 246.5 -81t130.5 -222z" />
    <glyph glyph-name="ordfeminine" unicode="&#xaa;" horiz-adv-x="708" 
d="M356 1481q-91 0 -148.5 -62t-57.5 -147q0 -90 55.5 -155.5t150.5 -65.5q98 0 153.5 63t55.5 156q0 91 -56.5 151t-152.5 60zM668 1554v-577h-107v80h-4q-81 -96 -215 -96t-216.5 89t-82.5 214q0 129 82 218t219 89q63 0 118.5 -26t94.5 -72h4v81h107z" />
    <glyph glyph-name="guillemotleft" unicode="&#xab;" horiz-adv-x="1024" 
d="M608 492l277 -340l-109 -84l-344 424l344 436l109 -86zM260 492l277 -340l-109 -84l-344 424l344 436l109 -86z" />
    <glyph glyph-name="logicalnot" unicode="&#xac;" 
d="M967 211v393h-832v160h991v-553h-159z" />
    <glyph glyph-name="uni00AD" unicode="&#xad;" horiz-adv-x="425" 
d="M4 569h420v-151h-420v151z" />
    <glyph glyph-name="registered" unicode="&#xae;" horiz-adv-x="1638" 
d="M819 -27q-221 0 -405.5 106.5t-291 290t-106.5 402.5t106.5 402.5t291 290t405.5 106.5t405.5 -106.5t291 -290t106.5 -402.5t-106.5 -402.5t-291 -290t-405.5 -106.5zM819 96q181 0 337.5 89.5t249.5 245.5t93 341t-93 341t-249.5 245.5t-337.5 89.5t-337.5 -89.5
t-249.5 -245.5t-93 -341t93 -341t249.5 -245.5t337.5 -89.5zM936 743l264 -403h-147l-262 403h-148v-403h-123v874h381q311 0 311 -231q0 -122 -75 -179.5t-201 -60.5zM643 866h148q11 0 43.5 -0.5t50 -0.5t48.5 2t49 6.5t41.5 13t36 21t21.5 32.5t9 45q0 107 -213 107h-234
v-226z" />
    <glyph glyph-name="macron" unicode="&#xaf;" horiz-adv-x="1021" 
d="M162 1397h700v-140h-700v140z" />
    <glyph glyph-name="degree" unicode="&#xb0;" horiz-adv-x="819" 
d="M717 1264q0 -127 -90.5 -217.5t-216.5 -90.5q-128 0 -218 90t-90 218q-1 126 89.5 216.5t218.5 90.5q126 0 216.5 -90.5t90.5 -216.5zM618 1264q0 86 -61 147.5t-149 61.5q-86 0 -147 -61.5t-60 -147.5q0 -88 60.5 -148.5t148.5 -60.5q86 0 147 60.5t61 148.5z" />
    <glyph glyph-name="plusminus" unicode="&#xb1;" 
d="M551 1020h160v-313h415v-160h-415v-314h-160v314h-416v160h416v313zM135 0v160h991v-160h-991z" />
    <glyph glyph-name="twosuperior" unicode="&#xb2;" horiz-adv-x="755" 
d="M299 735h403v-106h-649l469 512q58 64 58 155q0 76 -53 122t-136 46q-90 0 -140 -48.5t-50 -131.5h-123q3 122 90.5 204.5t218.5 82.5q135 0 225 -77.5t90 -197.5q0 -123 -65 -194z" />
    <glyph glyph-name="threesuperior" unicode="&#xb3;" horiz-adv-x="755" 
d="M358 1063v106q82 0 134.5 38.5t52.5 105.5q0 69 -50 110t-114 41q-67 0 -106.5 -36t-47.5 -101h-123q12 113 84.5 178.5t194.5 65.5q123 0 204 -70t81 -184q0 -63 -34.5 -118.5t-94.5 -84.5q70 -28 106.5 -89.5t36.5 -137.5q0 -128 -86 -201.5t-225 -73.5
q-124 0 -210 71.5t-87 184.5h123q0 -69 50.5 -109t127.5 -40q81 0 132.5 49t51.5 125q0 80 -55 126.5t-146 43.5z" />
    <glyph glyph-name="acute" unicode="&#xb4;" horiz-adv-x="733" 
d="M403 1524l172 -78l-313 -316l-102 58z" />
    <glyph glyph-name="mu" unicode="&#xb5;" horiz-adv-x="1048" 
d="M307 963v-537q0 -56 3.5 -94.5t16 -80.5t35 -67.5t63.5 -42t99 -16.5t99 16.5t63.5 42t35 67.5t16 80.5t3.5 94.5v537h164v-555q0 -435 -381 -435q-59 0 -107.5 19.5t-109.5 77.5v-611h-164v1504h164z" />
    <glyph glyph-name="paragraph" unicode="&#xb6;" horiz-adv-x="1212" 
d="M1094 1544v-133h-119v-1724h-133v1724h-166v-1724h-133v893q-176 0 -291.5 117t-130.5 321q-7 92 23.5 186.5t88 169.5t144 122.5t184.5 47.5h533z" />
    <glyph glyph-name="periodcentered" unicode="&#xb7;" horiz-adv-x="630" 
d="M315 637q47 0 81 -33.5t34 -79.5q0 -47 -34 -81.5t-81 -34.5t-80.5 34.5t-33.5 81.5q0 46 33.5 79.5t80.5 33.5z" />
    <glyph glyph-name="cedilla" unicode="&#xb8;" horiz-adv-x="665" 
d="M508 -109l-234 -299l-114 58l196 303z" />
    <glyph glyph-name="onesuperior" unicode="&#xb9;" horiz-adv-x="755" 
d="M399 1448h-166l60 106h229v-925h-123v819z" />
    <glyph glyph-name="ordmasculine" unicode="&#xba;" horiz-adv-x="690" 
d="M346 961q-137 0 -233.5 88t-96.5 215q0 128 96 217.5t234 89.5t234 -89.5t96 -217.5q0 -127 -96.5 -215t-233.5 -88zM346 1481q-97 0 -160 -63t-63 -152q0 -91 63 -153t160 -62t160 62t63 153q0 89 -63 152t-160 63z" />
    <glyph glyph-name="guillemotright" unicode="&#xbb;" horiz-adv-x="1024" 
d="M139 152l277 340l-277 350l109 86l344 -436l-344 -424zM487 152l277 340l-277 350l109 86l344 -436l-344 -424z" />
    <glyph glyph-name="onequarter" unicode="&#xbc;" horiz-adv-x="1892" 
d="M1565 256h123v-106h-123v-150h-123v150h-502l623 829h2v-723zM1442 256v389h-4l-291 -389h295zM371 1448h-166l59 106h230v-925h-123v819zM1327 1571l90 -49l-899 -1549l-90 50z" />
    <glyph glyph-name="onehalf" unicode="&#xbd;" horiz-adv-x="1892" 
d="M371 1448h-166l59 106h230v-925h-123v819zM1284 106h404v-106h-650l469 512q58 64 58 156q0 76 -53 122t-136 46q-90 0 -140 -49t-50 -132h-123q3 122 90.5 204.5t218.5 82.5q135 0 225.5 -77t90.5 -197q0 -123 -66 -195zM1235 1571l90 -49l-899 -1549l-90 50z" />
    <glyph glyph-name="threequarters" unicode="&#xbe;" horiz-adv-x="1892" 
d="M1606 256h123v-106h-123v-150h-123v150h-502l623 829h2v-723zM1483 256v389h-4l-291 -389h295zM1446 1571l90 -49l-899 -1549l-90 50zM449 1063v106q82 0 134 38.5t52 105.5q0 69 -50 110t-114 41q-67 0 -106.5 -36t-47.5 -101h-122q12 113 84 178.5t194 65.5
q123 0 204 -70t81 -184q0 -63 -34.5 -118.5t-94.5 -84.5q70 -28 106.5 -89.5t36.5 -137.5q0 -128 -86 -201.5t-225 -73.5q-124 0 -210 71.5t-87 184.5h123q0 -69 50.5 -109t127.5 -40q81 0 132.5 49t51.5 125q0 80 -54.5 126.5t-145.5 43.5z" />
    <glyph glyph-name="questiondown" unicode="&#xbf;" horiz-adv-x="999" 
d="M334 299h-166q-5 149 90.5 251.5t243.5 102.5q142 0 238 -96.5t96 -237.5q0 -67 -21 -119t-62 -88t-87.5 -60.5t-110.5 -45.5q-10 -3 -29 -9q-34 -10 -51 -16t-46.5 -17.5t-44.5 -22t-35 -27.5t-30 -36.5t-17 -46.5t-7 -60q0 -94 59.5 -153.5t151.5 -59.5q87 0 144 58
t57 144q0 45 -13 99h170l8 -109q0 -156 -109.5 -253t-266.5 -97t-263 106t-106 263q0 78 28.5 151.5t82.5 122.5q12 10 24.5 19.5t29 18t28.5 15t32.5 14.5t30 12t33.5 11.5t31 9.5t33 10t30 9q75 21 116.5 60t41.5 110q0 69 -49.5 116.5t-118.5 47.5q-81 0 -123.5 -57
t-42.5 -140zM504 989q47 0 80.5 -34t33.5 -81t-33.5 -80.5t-80.5 -33.5t-81 33.5t-34 80.5t34 81t81 34z" />
    <glyph glyph-name="Agrave" unicode="&#xc0;" horiz-adv-x="1431" 
d="M1047 438h-660l-186 -438h-189l713 1618l694 -1618h-190zM979 598l-258 619l-264 -619h522zM428 1976l172 78l244 -336l-103 -57z" />
    <glyph glyph-name="Aacute" unicode="&#xc1;" horiz-adv-x="1431" 
d="M1047 438h-660l-186 -438h-189l713 1618l694 -1618h-190zM979 598l-258 619l-264 -619h522zM836 2054l172 -78l-314 -315l-102 57z" />
    <glyph glyph-name="Acircumflex" unicode="&#xc2;" horiz-adv-x="1431" 
d="M1047 438h-660l-186 -438h-189l713 1618l694 -1618h-190zM979 598l-258 619l-264 -619h522zM395 1767l320 273l323 -273l-118 -92l-205 174l-203 -174z" />
    <glyph glyph-name="Atilde" unicode="&#xc3;" horiz-adv-x="1431" 
d="M1047 438h-660l-186 -438h-189l713 1618l694 -1618h-190zM979 598l-258 619l-264 -619h522zM459 1735l-101 80q43 75 91.5 118t117.5 43q74 0 166 -47q9 -4 29 -13.5t29.5 -13.5t24 -9.5t26 -8t22.5 -2.5q27 0 50.5 16.5t36 34.5t28.5 47l96 -77q-29 -72 -87 -119
t-130 -47q-57 0 -153 47q-100 45 -144 45q-38 0 -60 -25t-42 -69z" />
    <glyph glyph-name="Adieresis" unicode="&#xc4;" horiz-adv-x="1431" 
d="M1047 438h-660l-186 -438h-189l713 1618l694 -1618h-190zM979 598l-258 619l-264 -619h522zM514 1974q46 0 78.5 -32t32.5 -78t-32.5 -78.5t-78.5 -32.5t-78.5 32.5t-32.5 78.5t32.5 78t78.5 32zM918 1974q46 0 78 -32t32 -78t-32 -78.5t-78 -32.5t-78.5 32.5t-32.5 78.5
t32.5 78t78.5 32z" />
    <glyph glyph-name="Aring" unicode="&#xc5;" horiz-adv-x="1431" 
d="M1047 438h-660l-186 -438h-189l713 1618l694 -1618h-190zM979 598l-258 619l-264 -619h522zM719 2060q82 0 140.5 -58t58.5 -140q0 -83 -58 -142t-141 -59t-142 59t-59 142q0 82 59 140t142 58zM719 1958q-40 0 -69 -28t-29 -68t29 -69.5t69 -29.5q39 0 67.5 29.5
t28.5 69.5t-28 68t-68 28z" />
    <glyph glyph-name="AE" unicode="&#xc6;" horiz-adv-x="2048" 
d="M1044 434h-659l-182 -434h-191l688 1544h678l70 -160h-625l193 -460h608l72 -160h-611l252 -604h627l68 -160h-805zM975 594l-254 608l-262 -608h516z" />
    <glyph glyph-name="Ccedilla" unicode="&#xc7;" horiz-adv-x="1468" 
d="M1333 1419v-213q-93 97 -216 151t-255 54q-168 0 -312 -88.5t-227 -235.5t-83 -315t83.5 -315t228.5 -235.5t314 -88.5q128 0 250 55t217 150v-213q-211 -152 -461 -152q-161 0 -309 63t-256.5 169t-173.5 253t-65 308q0 217 108 402.5t293.5 294t402.5 108.5
q257 0 461 -152zM909 -109l-233 -299l-115 58l197 303z" />
    <glyph glyph-name="Egrave" unicode="&#xc8;" horiz-adv-x="1093" 
d="M156 0v1544h800v-160h-628v-458h610v-160h-610v-606h628v-160h-800zM289 1976l172 78l244 -336l-103 -57z" />
    <glyph glyph-name="Eacute" unicode="&#xc9;" horiz-adv-x="1093" 
d="M156 0v1544h800v-160h-628v-458h610v-160h-610v-606h628v-160h-800zM666 2054l172 -78l-314 -315l-102 57z" />
    <glyph glyph-name="Ecircumflex" unicode="&#xca;" horiz-adv-x="1093" 
d="M156 0v1544h800v-160h-628v-458h610v-160h-610v-606h628v-160h-800zM225 1767l320 273l323 -273l-118 -92l-205 174l-203 -174z" />
    <glyph glyph-name="Edieresis" unicode="&#xcb;" horiz-adv-x="1093" 
d="M156 0v1544h800v-160h-628v-458h610v-160h-610v-606h628v-160h-800zM346 1974q46 0 78.5 -32t32.5 -78t-32.5 -78.5t-78.5 -32.5t-78 32.5t-32 78.5t32 78t78 32zM750 1974q46 0 78 -32t32 -78t-32 -78.5t-78 -32.5t-78.5 32.5t-32.5 78.5t32.5 78t78.5 32z" />
    <glyph glyph-name="Igrave" unicode="&#xcc;" horiz-adv-x="489" 
d="M332 1544v-1544h-172v1544h172zM-14 1976l172 78l243 -336l-102 -57z" />
    <glyph glyph-name="Iacute" unicode="&#xcd;" horiz-adv-x="489" 
d="M332 1544v-1544h-172v1544h172zM332 2054l172 -78l-314 -315l-102 57z" />
    <glyph glyph-name="Icircumflex" unicode="&#xce;" horiz-adv-x="489" 
d="M332 1544v-1544h-172v1544h172zM-76 1767l320 273l323 -273l-118 -92l-205 174l-203 -174z" />
    <glyph glyph-name="Idieresis" unicode="&#xcf;" horiz-adv-x="489" 
d="M332 1544v-1544h-172v1544h172zM43 1974q46 0 78.5 -32t32.5 -78t-32.5 -78.5t-78.5 -32.5t-78.5 32.5t-32.5 78.5t32.5 78t78.5 32zM446 1974q46 0 78.5 -32t32.5 -78t-32.5 -78.5t-78.5 -32.5t-78 32.5t-32 78.5t32 78t78 32z" />
    <glyph glyph-name="Eth" unicode="&#xd0;" horiz-adv-x="1388" 
d="M156 0v758h-156v147h156v639h290q193 0 334.5 -38.5t268.5 -147.5q256 -221 256 -588q0 -350 -252 -575q-129 -115 -270 -155t-341 -40h-286zM328 160h125q158 0 273.5 33t213.5 126q94 88 143.5 205.5t49.5 247.5q0 134 -51.5 255.5t-149.5 207.5q-98 87 -212 118
t-267 31h-125v-479h274v-147h-274v-598z" />
    <glyph glyph-name="Ntilde" unicode="&#xd1;" horiz-adv-x="1708" 
d="M166 0v1610l1204 -1262v1196h172v-1614l-1204 1260v-1190h-172zM596 1735l-100 80q43 75 91.5 118t117.5 43q73 0 165 -47q9 -4 29 -13.5t29.5 -13.5t24 -9.5t26 -8t22.5 -2.5q27 0 50.5 16.5t36 34.5t28.5 47l96 -77q-29 -72 -87 -119t-130 -47q-57 0 -153 47
q-100 45 -144 45q-38 0 -60 -25t-42 -69z" />
    <glyph glyph-name="Ograve" unicode="&#xd2;" horiz-adv-x="1765" 
d="M883 1571q162 0 311 -63.5t257 -170.5t172.5 -255.5t64.5 -311.5t-64.5 -311t-172.5 -254.5t-257 -169t-311 -62.5t-311 62.5t-257 169t-172.5 254.5t-64.5 311t64.5 311.5t172.5 255.5t257 170.5t311 63.5zM883 1411q-130 0 -247.5 -51t-202 -137t-134 -204t-49.5 -247
q0 -128 50 -246t134.5 -204t202 -137.5t246.5 -51.5t246.5 51.5t202 137.5t134.5 204t50 246q0 129 -49.5 247t-134 204t-202 137t-247.5 51zM594 1976l172 78l244 -336l-103 -57z" />
    <glyph glyph-name="Oacute" unicode="&#xd3;" horiz-adv-x="1765" 
d="M883 1571q162 0 311 -63.5t257 -170.5t172.5 -255.5t64.5 -311.5t-64.5 -311t-172.5 -254.5t-257 -169t-311 -62.5t-311 62.5t-257 169t-172.5 254.5t-64.5 311t64.5 311.5t172.5 255.5t257 170.5t311 63.5zM883 1411q-130 0 -247.5 -51t-202 -137t-134 -204t-49.5 -247
q0 -128 50 -246t134.5 -204t202 -137.5t246.5 -51.5t246.5 51.5t202 137.5t134.5 204t50 246q0 129 -49.5 247t-134 204t-202 137t-247.5 51zM1001 2054l173 -78l-314 -315l-102 57z" />
    <glyph glyph-name="Ocircumflex" unicode="&#xd4;" horiz-adv-x="1765" 
d="M883 1571q162 0 311 -63.5t257 -170.5t172.5 -255.5t64.5 -311.5t-64.5 -311t-172.5 -254.5t-257 -169t-311 -62.5t-311 62.5t-257 169t-172.5 254.5t-64.5 311t64.5 311.5t172.5 255.5t257 170.5t311 63.5zM883 1411q-130 0 -247.5 -51t-202 -137t-134 -204t-49.5 -247
q0 -128 50 -246t134.5 -204t202 -137.5t246.5 -51.5t246.5 51.5t202 137.5t134.5 204t50 246q0 129 -49.5 247t-134 204t-202 137t-247.5 51zM561 1767l320 273l323 -273l-119 -92l-204 174l-203 -174z" />
    <glyph glyph-name="Otilde" unicode="&#xd5;" horiz-adv-x="1765" 
d="M883 1571q162 0 311 -63.5t257 -170.5t172.5 -255.5t64.5 -311.5t-64.5 -311t-172.5 -254.5t-257 -169t-311 -62.5t-311 62.5t-257 169t-172.5 254.5t-64.5 311t64.5 311.5t172.5 255.5t257 170.5t311 63.5zM883 1411q-130 0 -247.5 -51t-202 -137t-134 -204t-49.5 -247
q0 -128 50 -246t134.5 -204t202 -137.5t246.5 -51.5t246.5 51.5t202 137.5t134.5 204t50 246q0 129 -49.5 247t-134 204t-202 137t-247.5 51zM625 1735l-101 80q43 75 91.5 118t117.5 43q74 0 166 -47q9 -4 29 -13.5t29.5 -13.5t24 -9.5t26 -8t22.5 -2.5q27 0 50.5 16.5
t36 34.5t28.5 47l96 -77q-29 -72 -87 -119t-130 -47q-58 0 -154 47q-100 45 -143 45q-38 0 -60 -25t-42 -69z" />
    <glyph glyph-name="Odieresis" unicode="&#xd6;" horiz-adv-x="1765" 
d="M883 1571q162 0 311 -63.5t257 -170.5t172.5 -255.5t64.5 -311.5t-64.5 -311t-172.5 -254.5t-257 -169t-311 -62.5t-311 62.5t-257 169t-172.5 254.5t-64.5 311t64.5 311.5t172.5 255.5t257 170.5t311 63.5zM883 1411q-130 0 -247.5 -51t-202 -137t-134 -204t-49.5 -247
q0 -128 50 -246t134.5 -204t202 -137.5t246.5 -51.5t246.5 51.5t202 137.5t134.5 204t50 246q0 129 -49.5 247t-134 204t-202 137t-247.5 51zM682 1974q46 0 78.5 -32t32.5 -78t-32.5 -78.5t-78.5 -32.5t-78.5 32.5t-32.5 78.5t32.5 78t78.5 32zM1085 1974q46 0 78.5 -32
t32.5 -78t-32.5 -78.5t-78.5 -32.5t-78 32.5t-32 78.5t32 78t78 32z" />
    <glyph glyph-name="multiply" unicode="&#xd7;" 
d="M135 907l113 113l383 -383l381 383l114 -113l-383 -383l383 -383l-114 -112l-381 383l-383 -383l-113 112l383 383z" />
    <glyph glyph-name="Oslash" unicode="&#xd8;" horiz-adv-x="1765" 
d="M387 377l895 893q-170 141 -399 141q-130 0 -247.5 -51t-202 -137t-134 -204t-49.5 -247q0 -221 137 -395zM1374 1176l-895 -893q177 -150 404 -150q129 0 246.5 51.5t202 137.5t134.5 204t50 246q0 226 -142 404zM86 76l182 182q-190 219 -190 512q0 163 64.5 311.5
t172.5 255.5t257 170.5t311 63.5q144 0 276 -49t238 -138l188 187l94 -92l-188 -187q94 -106 145.5 -240t51.5 -282q0 -163 -64.5 -311t-172.5 -254.5t-257 -169t-311 -62.5q-147 0 -281 50t-242 141l-184 -184z" />
    <glyph glyph-name="Ugrave" unicode="&#xd9;" horiz-adv-x="1402" 
d="M324 1544v-919v-21q0 -56 1 -86.5t6.5 -78.5t20.5 -86.5t39 -71.5q49 -68 136 -108t175 -40q85 0 168 37t136 100q12 14 22 31t17.5 31t13 35.5t9.5 34t6.5 38t4 36t2 39t0.5 36v38.5v36v919h172v-966q0 -148 -25.5 -244.5t-109.5 -183.5q-79 -85 -188 -131t-228 -46
q-110 0 -216 41.5t-183 116.5q-93 89 -122 191.5t-29 255.5v966h172zM414 1976l172 78l243 -336l-102 -57z" />
    <glyph glyph-name="Uacute" unicode="&#xda;" horiz-adv-x="1402" 
d="M324 1544v-919v-21q0 -56 1 -86.5t6.5 -78.5t20.5 -86.5t39 -71.5q49 -68 136 -108t175 -40q85 0 168 37t136 100q12 14 22 31t17.5 31t13 35.5t9.5 34t6.5 38t4 36t2 39t0.5 36v38.5v36v919h172v-966q0 -148 -25.5 -244.5t-109.5 -183.5q-79 -85 -188 -131t-228 -46
q-110 0 -216 41.5t-183 116.5q-93 89 -122 191.5t-29 255.5v966h172zM821 2054l172 -78l-313 -315l-102 57z" />
    <glyph glyph-name="Ucircumflex" unicode="&#xdb;" horiz-adv-x="1402" 
d="M324 1544v-919v-21q0 -56 1 -86.5t6.5 -78.5t20.5 -86.5t39 -71.5q49 -68 136 -108t175 -40q85 0 168 37t136 100q12 14 22 31t17.5 31t13 35.5t9.5 34t6.5 38t4 36t2 39t0.5 36v38.5v36v919h172v-966q0 -148 -25.5 -244.5t-109.5 -183.5q-79 -85 -188 -131t-228 -46
q-110 0 -216 41.5t-183 116.5q-93 89 -122 191.5t-29 255.5v966h172zM381 1767l319 273l324 -273l-119 -92l-205 174l-202 -174z" />
    <glyph glyph-name="Udieresis" unicode="&#xdc;" horiz-adv-x="1402" 
d="M324 1544v-919v-21q0 -56 1 -86.5t6.5 -78.5t20.5 -86.5t39 -71.5q49 -68 136 -108t175 -40q85 0 168 37t136 100q12 14 22 31t17.5 31t13 35.5t9.5 34t6.5 38t4 36t2 39t0.5 36v38.5v36v919h172v-966q0 -148 -25.5 -244.5t-109.5 -183.5q-79 -85 -188 -131t-228 -46
q-110 0 -216 41.5t-183 116.5q-93 89 -122 191.5t-29 255.5v966h172zM500 1974q46 0 78 -32t32 -78t-32 -78.5t-78 -32.5t-78.5 32.5t-32.5 78.5t32.5 78t78.5 32zM903 1974q46 0 78.5 -32t32.5 -78t-32.5 -78.5t-78.5 -32.5t-78 32.5t-32 78.5t32 78t78 32z" />
    <glyph glyph-name="Yacute" unicode="&#xdd;" horiz-adv-x="1214" 
d="M522 664l-506 880h199l393 -688l393 688h199l-506 -880v-664h-172v664zM768 2054l172 -78l-313 -315l-103 57z" />
    <glyph glyph-name="Thorn" unicode="&#xde;" horiz-adv-x="1030" 
d="M328 389v-389h-172v1544h172v-287h82q63 0 102.5 -2t94 -9t100.5 -24.5t86 -45.5q84 -58 129 -152.5t45 -200.5q0 -96 -38.5 -184t-109.5 -147q-125 -103 -366 -103h-125zM328 1098v-549h114q353 0 353 278q0 53 -12.5 94.5t-32 69.5t-51.5 48.5t-64 31.5t-76.5 17.5
t-81 8t-86.5 1.5h-63z" />
    <glyph glyph-name="germandbls" unicode="&#xdf;" horiz-adv-x="1181" 
d="M147 0v811h-90v152h90v294q0 99 16 177.5t64 138.5q54 70 142.5 106.5t183.5 36.5q169 0 283 -109t114 -276q0 -95 -45.5 -177t-126.5 -122q99 -34 175 -111.5t115.5 -177t39.5 -204.5q0 -155 -82 -285.5t-216.5 -204.5t-289.5 -76v152q176 11 298 129t122 291
q0 87 -38.5 168.5t-106.5 134.5q-100 75 -275 90v152q116 -2 191 66t75 183q0 100 -67 163t-168 63q-71 0 -130.5 -31t-82.5 -92q-13 -32 -19.5 -87t-7 -82t-0.5 -91v-1182h-164z" />
    <glyph glyph-name="agrave" unicode="&#xe0;" horiz-adv-x="1181" 
d="M555 838q-138 0 -225.5 -103t-87.5 -243q0 -150 84.5 -258.5t230.5 -108.5q152 0 237 105t85 259q0 149 -88 249t-236 100zM1034 963v-963h-164v133h-4q-127 -160 -331 -160q-137 0 -244 71.5t-162 186t-55 248.5q0 138 54.5 253t161.5 186t247 71q97 0 182.5 -43.5
t146.5 -120.5h4v138h164zM303 1446l172 78l244 -336l-103 -58z" />
    <glyph glyph-name="aacute" unicode="&#xe1;" horiz-adv-x="1181" 
d="M555 838q-138 0 -225.5 -103t-87.5 -243q0 -150 84.5 -258.5t230.5 -108.5q152 0 237 105t85 259q0 149 -88 249t-236 100zM1034 963v-963h-164v133h-4q-127 -160 -331 -160q-137 0 -244 71.5t-162 186t-55 248.5q0 138 54.5 253t161.5 186t247 71q97 0 182.5 -43.5
t146.5 -120.5h4v138h164zM711 1524l172 -78l-314 -316l-102 58z" />
    <glyph glyph-name="acircumflex" unicode="&#xe2;" horiz-adv-x="1181" 
d="M555 838q-138 0 -225.5 -103t-87.5 -243q0 -150 84.5 -258.5t230.5 -108.5q152 0 237 105t85 259q0 149 -88 249t-236 100zM1034 963v-963h-164v133h-4q-127 -160 -331 -160q-137 0 -244 71.5t-162 186t-55 248.5q0 138 54.5 253t161.5 186t247 71q97 0 182.5 -43.5
t146.5 -120.5h4v138h164zM270 1237l320 272l323 -272l-118 -92l-205 174l-203 -174z" />
    <glyph glyph-name="atilde" unicode="&#xe3;" horiz-adv-x="1181" 
d="M555 838q-138 0 -225.5 -103t-87.5 -243q0 -150 84.5 -258.5t230.5 -108.5q152 0 237 105t85 259q0 149 -88 249t-236 100zM1034 963v-963h-164v133h-4q-127 -160 -331 -160q-137 0 -244 71.5t-162 186t-55 248.5q0 138 54.5 253t161.5 186t247 71q97 0 182.5 -43.5
t146.5 -120.5h4v138h164zM334 1204l-101 80q43 75 91.5 118.5t117.5 43.5q74 0 166 -47q9 -4 29 -13.5t29.5 -13.5t24 -9.5t26 -8t22.5 -2.5q27 0 50.5 16.5t36 34.5t28.5 47l96 -78q-29 -72 -87 -119t-130 -47q-57 0 -153 47q-100 45 -144 45q-38 0 -60 -25t-42 -69z" />
    <glyph glyph-name="adieresis" unicode="&#xe4;" horiz-adv-x="1181" 
d="M555 838q-138 0 -225.5 -103t-87.5 -243q0 -150 84.5 -258.5t230.5 -108.5q152 0 237 105t85 259q0 149 -88 249t-236 100zM1034 963v-963h-164v133h-4q-127 -160 -331 -160q-137 0 -244 71.5t-162 186t-55 248.5q0 138 54.5 253t161.5 186t247 71q97 0 182.5 -43.5
t146.5 -120.5h4v138h164zM389 1444q46 0 78.5 -32.5t32.5 -78.5t-32.5 -78t-78.5 -32t-78 32t-32 78t32 78.5t78 32.5zM793 1444q46 0 78 -32.5t32 -78.5t-32 -78t-78 -32t-78.5 32t-32.5 78t32.5 78.5t78.5 32.5z" />
    <glyph glyph-name="aring" unicode="&#xe5;" horiz-adv-x="1181" 
d="M555 838q-138 0 -225.5 -103t-87.5 -243q0 -150 84.5 -258.5t230.5 -108.5q152 0 237 105t85 259q0 149 -88 249t-236 100zM1034 963v-963h-164v133h-4q-127 -160 -331 -160q-137 0 -244 71.5t-162 186t-55 248.5q0 138 54.5 253t161.5 186t247 71q97 0 182.5 -43.5
t146.5 -120.5h4v138h164zM594 1530q82 0 140.5 -58.5t58.5 -140.5q0 -83 -58 -142t-141 -59t-142 59t-59 142q0 82 59 140.5t142 58.5zM594 1427q-40 0 -69 -28t-29 -68t29 -69t69 -29t68 29t28 69t-28 68t-68 28z" />
    <glyph glyph-name="ae" unicode="&#xe6;" horiz-adv-x="1726" 
d="M915 586h576q-18 106 -97.5 179t-185.5 73t-192 -74t-101 -178zM467 457q-56 0 -109 -16t-94 -56t-41 -98q0 -45 22.5 -78t60 -50.5t77.5 -25.5t82 -8q45 0 87.5 8.5t83 26.5t65 53t24.5 82q0 44 -26 77.5t-67.5 51t-83 25.5t-81.5 8zM1657 446h-758q2 -136 90 -228.5
t225 -92.5q184 0 293 199l140 -80q-70 -130 -184 -200.5t-261 -70.5q-110 0 -207.5 49t-160.5 142q-110 -191 -361 -191q-76 0 -146.5 17.5t-132 53t-98.5 97.5t-37 142t35 143t94 100.5t128.5 56.5t144.5 19q152 0 274 -82q-2 153 -64.5 235.5t-211.5 82.5q-115 0 -295 -62
v156q188 57 305 57q115 0 214 -50.5t142 -147.5q55 93 158.5 145.5t214.5 52.5q112 0 203 -44.5t147.5 -119.5t85 -172.5t23.5 -206.5z" />
    <glyph glyph-name="ccedilla" unicode="&#xe7;" horiz-adv-x="974" 
d="M870 893v-217h-4q-128 162 -299 162q-147 0 -243.5 -104.5t-96.5 -252.5q0 -147 92.5 -251.5t239.5 -104.5q185 0 313 166h5v-219q-148 -99 -306 -99q-219 0 -365.5 145t-146.5 363q0 141 69 258t187 183.5t258 66.5q162 0 297 -96zM664 -109l-234 -299l-115 58l197 303z
" />
    <glyph glyph-name="egrave" unicode="&#xe8;" horiz-adv-x="1062" 
d="M993 446h-755q2 -136 90 -228.5t225 -92.5q184 0 293 199l139 -80q-70 -130 -184 -200.5t-260 -70.5q-140 0 -248.5 66.5t-165.5 179t-57 250.5q0 145 53 261.5t160.5 187.5t253.5 71q113 0 203.5 -44.5t147 -119.5t84 -173t21.5 -206zM246 586h575q-18 106 -97.5 179
t-184.5 73q-106 0 -192 -74t-101 -178zM244 1446l172 78l243 -336l-102 -58z" />
    <glyph glyph-name="eacute" unicode="&#xe9;" horiz-adv-x="1062" 
d="M993 446h-755q2 -136 90 -228.5t225 -92.5q184 0 293 199l139 -80q-70 -130 -184 -200.5t-260 -70.5q-140 0 -248.5 66.5t-165.5 179t-57 250.5q0 145 53 261.5t160.5 187.5t253.5 71q113 0 203.5 -44.5t147 -119.5t84 -173t21.5 -206zM246 586h575q-18 106 -97.5 179
t-184.5 73q-106 0 -192 -74t-101 -178zM651 1524l172 -78l-313 -316l-102 58z" />
    <glyph glyph-name="ecircumflex" unicode="&#xea;" horiz-adv-x="1062" 
d="M993 446h-755q2 -136 90 -228.5t225 -92.5q184 0 293 199l139 -80q-70 -130 -184 -200.5t-260 -70.5q-140 0 -248.5 66.5t-165.5 179t-57 250.5q0 145 53 261.5t160.5 187.5t253.5 71q113 0 203.5 -44.5t147 -119.5t84 -173t21.5 -206zM246 586h575q-18 106 -97.5 179
t-184.5 73q-106 0 -192 -74t-101 -178zM211 1237l319 272l324 -272l-119 -92l-205 174l-202 -174z" />
    <glyph glyph-name="edieresis" unicode="&#xeb;" horiz-adv-x="1062" 
d="M993 446h-755q2 -136 90 -228.5t225 -92.5q184 0 293 199l139 -80q-70 -130 -184 -200.5t-260 -70.5q-140 0 -248.5 66.5t-165.5 179t-57 250.5q0 145 53 261.5t160.5 187.5t253.5 71q113 0 203.5 -44.5t147 -119.5t84 -173t21.5 -206zM246 586h575q-18 106 -97.5 179
t-184.5 73q-106 0 -192 -74t-101 -178zM330 1444q46 0 78 -32.5t32 -78.5t-32 -78t-78 -32t-78.5 32t-32.5 78t32.5 78.5t78.5 32.5zM733 1444q46 0 78.5 -32.5t32.5 -78.5t-32.5 -78t-78.5 -32t-78 32t-32 78t32 78.5t78 32.5z" />
    <glyph glyph-name="igrave" unicode="&#xec;" horiz-adv-x="536" 
d="M350 963v-963h-164v963h164zM10 1446l172 78l244 -336l-102 -58z" />
    <glyph glyph-name="iacute" unicode="&#xed;" horiz-adv-x="536" 
d="M350 963v-963h-164v963h164zM356 1524l172 -78l-313 -316l-102 58z" />
    <glyph glyph-name="icircumflex" unicode="&#xee;" horiz-adv-x="536" 
d="M350 963v-963h-164v963h164zM-53 1237l319 272l324 -272l-119 -92l-205 174l-203 -174z" />
    <glyph glyph-name="idieresis" unicode="&#xef;" horiz-adv-x="536" 
d="M350 963v-963h-164v963h164zM68 1444q46 0 78 -32.5t32 -78.5t-32 -78t-78 -32t-78.5 32t-32.5 78t32.5 78.5t78.5 32.5zM471 1444q46 0 78.5 -32.5t32.5 -78.5t-32.5 -78t-78.5 -32t-78.5 32t-32.5 78t32.5 78.5t78.5 32.5z" />
    <glyph glyph-name="eth" unicode="&#xf0;" horiz-adv-x="1148" 
d="M190 1608l91 94q109 -70 161 -107t119 -94l283 189l82 -84l-275 -185q36 -35 56.5 -55.5t71 -79.5t84 -107.5t78.5 -128t72 -155t46.5 -173.5t19.5 -198q0 -111 -31 -204.5t-81.5 -156t-117 -106t-135.5 -63t-139 -19.5q-211 0 -358 148t-147 358q0 130 60 244.5
t173.5 187t255.5 72.5q64 0 119 -13.5t96 -38.5t61 -40.5t44 -38.5q-89 248 -347 489l-272 -182l-80 84l266 178q-103 91 -256 185zM236 483q0 -156 99 -256t243 -100q149 0 244.5 104t95.5 252q0 146 -95 251.5t-243 105.5q-149 0 -246.5 -102.5t-97.5 -254.5z" />
    <glyph glyph-name="ntilde" unicode="&#xf1;" horiz-adv-x="1081" 
d="M319 963v-117h5q106 143 274 143q78 0 136.5 -22.5t94.5 -59.5t58 -92t30.5 -113.5t8.5 -130.5v-571h-164v543q0 46 -2 77t-8.5 68.5t-20 61.5t-35 45.5t-56.5 32t-81 10.5q-54 0 -95.5 -15.5t-67 -46t-42 -63.5t-23.5 -81.5t-9.5 -86t-2.5 -88.5v-457h-163v963h163z
M283 1204l-101 80q43 75 91.5 118.5t117.5 43.5q74 0 166 -47q9 -4 29 -13.5t29.5 -13.5t24 -9.5t26 -8t22.5 -2.5q27 0 50.5 16.5t36 34.5t28.5 47l96 -78q-29 -72 -87 -119t-130 -47q-58 0 -154 47q-100 45 -143 45q-38 0 -60 -25t-42 -69z" />
    <glyph glyph-name="ograve" unicode="&#xf2;" horiz-adv-x="1150" 
d="M575 -27q-138 0 -254.5 67t-183.5 183.5t-67 255.5t66.5 256.5t183 185.5t255.5 68t255.5 -68t183.5 -185.5t67 -256.5t-67.5 -255.5t-184 -183.5t-254.5 -67zM575 838q-149 0 -245.5 -104t-96.5 -253q0 -150 96 -253t246 -103t246.5 103t96.5 253q0 149 -96.5 253
t-246.5 104zM287 1446l172 78l243 -336l-102 -58z" />
    <glyph glyph-name="oacute" unicode="&#xf3;" horiz-adv-x="1150" 
d="M575 -27q-138 0 -254.5 67t-183.5 183.5t-67 255.5t66.5 256.5t183 185.5t255.5 68t255.5 -68t183.5 -185.5t67 -256.5t-67.5 -255.5t-184 -183.5t-254.5 -67zM575 838q-149 0 -245.5 -104t-96.5 -253q0 -150 96 -253t246 -103t246.5 103t96.5 253q0 149 -96.5 253
t-246.5 104zM694 1524l172 -78l-313 -316l-102 58z" />
    <glyph glyph-name="ocircumflex" unicode="&#xf4;" horiz-adv-x="1150" 
d="M575 -27q-138 0 -254.5 67t-183.5 183.5t-67 255.5t66.5 256.5t183 185.5t255.5 68t255.5 -68t183.5 -185.5t67 -256.5t-67.5 -255.5t-184 -183.5t-254.5 -67zM575 838q-149 0 -245.5 -104t-96.5 -253q0 -150 96 -253t246 -103t246.5 103t96.5 253q0 149 -96.5 253
t-246.5 104zM254 1237l319 272l324 -272l-119 -92l-205 174l-202 -174z" />
    <glyph glyph-name="otilde" unicode="&#xf5;" horiz-adv-x="1150" 
d="M575 -27q-138 0 -254.5 67t-183.5 183.5t-67 255.5t66.5 256.5t183 185.5t255.5 68t255.5 -68t183.5 -185.5t67 -256.5t-67.5 -255.5t-184 -183.5t-254.5 -67zM575 838q-149 0 -245.5 -104t-96.5 -253q0 -150 96 -253t246 -103t246.5 103t96.5 253q0 149 -96.5 253
t-246.5 104zM317 1204l-100 80q43 75 91.5 118.5t117.5 43.5q74 0 166 -47q9 -4 29 -13.5t29.5 -13.5t24 -9.5t26 -8t22.5 -2.5q27 0 50.5 16.5t36 34.5t28.5 47l96 -78q-29 -72 -87 -119t-130 -47q-58 0 -154 47q-100 45 -143 45q-38 0 -61 -25t-42 -69z" />
    <glyph glyph-name="odieresis" unicode="&#xf6;" horiz-adv-x="1150" 
d="M575 -27q-138 0 -254.5 67t-183.5 183.5t-67 255.5t66.5 256.5t183 185.5t255.5 68t255.5 -68t183.5 -185.5t67 -256.5t-67.5 -255.5t-184 -183.5t-254.5 -67zM575 838q-149 0 -245.5 -104t-96.5 -253q0 -150 96 -253t246 -103t246.5 103t96.5 253q0 149 -96.5 253
t-246.5 104zM375 1444q46 0 78 -32.5t32 -78.5t-32 -78t-78 -32t-78.5 32t-32.5 78t32.5 78.5t78.5 32.5zM778 1444q46 0 78.5 -32.5t32.5 -78.5t-32.5 -78t-78.5 -32t-78 32t-32 78t32 78.5t78 32.5z" />
    <glyph glyph-name="divide" unicode="&#xf7;" 
d="M135 444v160h991v-160h-991zM631 254q47 0 82 -35t35 -82q0 -49 -34.5 -83t-82.5 -34t-82.5 34t-34.5 83q0 47 35 82t82 35zM631 1028q47 0 82 -35t35 -82q0 -49 -34.5 -82.5t-82.5 -33.5t-82.5 33.5t-34.5 82.5q0 47 35 82t82 35z" />
    <glyph glyph-name="oslash" unicode="&#xf8;" horiz-adv-x="1150" 
d="M293 274l491 492q-88 72 -209 72q-149 0 -245.5 -104t-96.5 -253q0 -115 60 -207zM858 682l-487 -489q84 -68 204 -68q150 0 246.5 103t96.5 253q0 116 -60 201zM41 23l139 139q-110 135 -110 317q0 139 66.5 256.5t183 185.5t255.5 68q186 0 320 -112l135 135l80 -78
l-137 -137q108 -133 108 -318q0 -139 -67.5 -255.5t-184 -183.5t-254.5 -67q-177 0 -315 109l-139 -139z" />
    <glyph glyph-name="ugrave" unicode="&#xf9;" horiz-adv-x="1048" 
d="M307 963v-537q0 -56 3.5 -94.5t16 -80.5t35 -67.5t63.5 -42t99 -16.5t99 16.5t63.5 42t35 67.5t16 80.5t3.5 94.5v537h164v-555q0 -435 -381 -435t-381 435v555h164zM236 1446l172 78l243 -336l-102 -58z" />
    <glyph glyph-name="uacute" unicode="&#xfa;" horiz-adv-x="1048" 
d="M307 963v-537q0 -56 3.5 -94.5t16 -80.5t35 -67.5t63.5 -42t99 -16.5t99 16.5t63.5 42t35 67.5t16 80.5t3.5 94.5v537h164v-555q0 -435 -381 -435t-381 435v555h164zM643 1524l172 -78l-313 -316l-103 58z" />
    <glyph glyph-name="ucircumflex" unicode="&#xfb;" horiz-adv-x="1048" 
d="M307 963v-537q0 -56 3.5 -94.5t16 -80.5t35 -67.5t63.5 -42t99 -16.5t99 16.5t63.5 42t35 67.5t16 80.5t3.5 94.5v537h164v-555q0 -435 -381 -435t-381 435v555h164zM203 1237l319 272l324 -272l-119 -92l-205 174l-203 -174z" />
    <glyph glyph-name="udieresis" unicode="&#xfc;" horiz-adv-x="1048" 
d="M307 963v-537q0 -56 3.5 -94.5t16 -80.5t35 -67.5t63.5 -42t99 -16.5t99 16.5t63.5 42t35 67.5t16 80.5t3.5 94.5v537h164v-555q0 -435 -381 -435t-381 435v555h164zM324 1444q46 0 78 -32.5t32 -78.5t-32 -78t-78 -32t-78.5 32t-32.5 78t32.5 78.5t78.5 32.5zM727 1444
q46 0 78.5 -32.5t32.5 -78.5t-32.5 -78t-78.5 -32t-78.5 32t-32.5 78t32.5 78.5t78.5 32.5z" />
    <glyph glyph-name="yacute" unicode="&#xfd;" horiz-adv-x="1019" 
d="M438 90l-442 873h190l340 -691l312 691h186l-711 -1504h-186zM670 1524l172 -78l-314 -316l-102 58z" />
    <glyph glyph-name="thorn" unicode="&#xfe;" horiz-adv-x="1181" 
d="M311 1690v-865h4q60 79 146 121.5t186 42.5q137 0 244 -72.5t162 -188t55 -249.5q0 -138 -54.5 -252.5t-161.5 -184t-247 -69.5q-99 0 -185.5 42t-144.5 120h-4v-676h-164v2231h164zM616 838q-138 0 -225.5 -103t-87.5 -243q0 -150 84.5 -258.5t230.5 -108.5
q152 0 237 105t85 259q0 149 -88 249t-236 100z" />
    <glyph glyph-name="ydieresis" unicode="&#xff;" horiz-adv-x="1019" 
d="M438 90l-442 873h190l340 -691l312 691h186l-711 -1504h-186zM319 1444q46 0 78.5 -32.5t32.5 -78.5t-32.5 -78t-78.5 -32t-78 32t-32 78t32 78.5t78 32.5zM723 1444q46 0 78.5 -32.5t32.5 -78.5t-32.5 -78t-78.5 -32t-78.5 32t-32.5 78t32.5 78.5t78.5 32.5z" />
    <glyph glyph-name="dotlessi" unicode="&#x131;" horiz-adv-x="536" 
d="M350 963v-963h-164v963h164z" />
    <glyph glyph-name="Lslash" unicode="&#x141;" horiz-adv-x="768" 
d="M156 0v653l-156 -100v164l156 100v727h172v-614l266 172v-164l-266 -172v-606h426v-160h-598z" />
    <glyph glyph-name="lslash" unicode="&#x142;" horiz-adv-x="528" 
d="M182 0v758l-151 -101v146l151 100v787h164v-676l152 100v-145l-152 -101v-868h-164z" />
    <glyph glyph-name="OE" unicode="&#x152;" horiz-adv-x="2437" 
d="M1493 0v297h-4q-99 -153 -261 -239.5t-345 -84.5q-162 0 -311 62.5t-257 169t-172.5 254.5t-64.5 311t64.5 311.5t172.5 255.5t257 170.5t311 63.5q183 0 343 -87.5t263 -242.5h4v303h807v-160h-635v-458h616v-160h-616v-606h635v-160h-807zM883 1411q-130 0 -247.5 -51
t-202 -137t-134 -204t-49.5 -247q0 -128 50 -246t134.5 -204t202 -137.5t246.5 -51.5t246.5 51.5t202 137.5t134.5 204t50 246q0 129 -49.5 247t-134 204t-202 137t-247.5 51z" />
    <glyph glyph-name="oe" unicode="&#x153;" horiz-adv-x="1925" 
d="M1855 446h-759q2 -136 90 -228.5t225 -92.5q184 0 293 199l139 -80q-70 -130 -184 -200.5t-260 -70.5q-122 0 -233.5 62.5t-164.5 167.5q-61 -107 -178.5 -168.5t-247.5 -61.5q-138 0 -254.5 67t-183.5 183.5t-67 255.5t66.5 256.5t183 185.5t255.5 68q137 -3 253 -64.5
t173 -168.5q56 110 161 170t233 63q113 0 204 -44.5t148.5 -119.5t85.5 -173t22 -206zM1110 586h576q-18 106 -97.5 179t-185.5 73t-192 -74t-101 -178zM580 838q-149 0 -245.5 -104t-96.5 -253q0 -150 96 -253t246 -103t246 103t96 253q0 149 -96.5 253t-245.5 104z" />
    <glyph glyph-name="Scaron" unicode="&#x160;" horiz-adv-x="1144" 
d="M993 1331l-137 -88q-49 84 -110.5 126t-155.5 42q-105 0 -180.5 -68t-75.5 -172q0 -38 16.5 -72t37 -56t59.5 -46.5t61.5 -35.5t66.5 -31l103 -45q69 -30 117 -55.5t99.5 -64t82.5 -81t51.5 -102t20.5 -131.5q0 -201 -142 -339.5t-344 -138.5q-185 0 -314.5 109
t-166.5 291l168 47q18 -122 103 -204.5t206 -82.5q128 0 223 86.5t95 214.5q0 43 -8.5 78t-34 65.5t-40.5 48.5t-61 44t-60 33t-71 33q-7 3 -10 5l-94 41q-62 28 -105 51.5t-90 59.5t-75.5 74t-47 92.5t-18.5 118.5q0 116 60.5 207t158.5 138.5t213 47.5q129 0 233 -63
t166 -177zM915 1948l-319 -273l-324 273l119 92l205 -174l203 174z" />
    <glyph glyph-name="scaron" unicode="&#x161;" horiz-adv-x="817" 
d="M682 811l-137 -72q-19 41 -54 70t-77 29q-45 0 -82 -31.5t-37 -75.5q0 -16 5.5 -30.5t13 -26t23 -23.5t27 -19.5t35 -18.5t36.5 -16.5t41.5 -17t41.5 -16.5q49 -20 83.5 -41t69 -53t52.5 -78t18 -104q0 -135 -95 -224.5t-230 -89.5q-121 0 -211.5 65t-128.5 179l145 62
q35 -77 78 -115.5t119 -38.5q67 0 111 41t44 106q0 43 -24 76t-62 54t-84.5 39.5t-93 41t-84.5 51t-62 75.5t-24 108q0 119 83.5 195.5t203.5 76.5q81 0 152 -50.5t104 -127.5zM731 1417l-319 -272l-324 272l119 92l205 -174l202 174z" />
    <glyph glyph-name="Ydieresis" unicode="&#x178;" horiz-adv-x="1214" 
d="M522 664l-506 880h199l393 -688l393 688h199l-506 -880v-664h-172v664zM430 1974q46 0 78.5 -32t32.5 -78t-32.5 -78.5t-78.5 -32.5t-78.5 32.5t-32.5 78.5t32.5 78t78.5 32zM834 1974q46 0 78 -32t32 -78t-32 -78.5t-78 -32.5t-78.5 32.5t-32.5 78.5t32.5 78t78.5 32z
" />
    <glyph glyph-name="Zcaron" unicode="&#x17d;" horiz-adv-x="1200" 
d="M313 160h822v-160h-1106l841 1384h-735v160h1022zM946 1948l-319 -273l-324 273l119 92l205 -174l202 174z" />
    <glyph glyph-name="zcaron" unicode="&#x17e;" horiz-adv-x="1062" 
d="M352 152h664v-152h-996l695 811h-565v152h894zM885 1417l-320 -272l-323 272l118 92l205 -174l203 174z" />
    <glyph glyph-name="florin" unicode="&#x192;" 
d="M1102 1690l-31 -154q-54 23 -102 23q-95 0 -131 -66q-25 -50 -54 -186l-51 -279h246l-23 -139h-247l-119 -643q-15 -88 -23.5 -131t-33 -118t-54.5 -120q-58 -84 -155.5 -124t-210.5 -40l-103 8l33 154l70 -2q51 0 92 12t69 26.5t51.5 49t36 56.5t26 73t18 75t15.5 84
q1 3 1 5l117 635h-168l22 139h172l58 324q15 83 35.5 143t58 113t99.5 80.5t147 27.5q74 0 139 -26z" />
    <glyph glyph-name="circumflex" unicode="&#x2c6;" horiz-adv-x="962" 
d="M160 1237l319 272l324 -272l-119 -92l-205 174l-203 -174z" />
    <glyph glyph-name="caron" unicode="&#x2c7;" horiz-adv-x="962" 
d="M803 1417l-320 -272l-323 272l119 92l204 -174l203 174z" />
    <glyph glyph-name="uni02C9" unicode="&#x2c9;" horiz-adv-x="1021" 
d="M162 1397h700v-140h-700v140z" />
    <glyph glyph-name="breve" unicode="&#x2d8;" horiz-adv-x="993" 
d="M162 1466h141q53 -139 195 -139q74 0 120.5 34.5t73.5 104.5h142q-17 -125 -112 -201.5t-224 -76.5q-127 0 -223 76.5t-113 201.5z" />
    <glyph glyph-name="dotaccent" unicode="&#x2d9;" horiz-adv-x="733" 
d="M367 1466q46 0 78 -32t32 -78t-32 -78.5t-78 -32.5t-78.5 32.5t-32.5 78.5t32.5 78t78.5 32z" />
    <glyph glyph-name="ring" unicode="&#x2da;" horiz-adv-x="716" 
d="M360 1530q82 0 140.5 -58.5t58.5 -140.5q0 -83 -58 -142t-141 -59t-141.5 59t-58.5 142q0 82 58.5 140.5t141.5 58.5zM360 1427q-40 0 -69 -28t-29 -68t29 -69t69 -29t68.5 29t28.5 69t-28.5 68t-68.5 28z" />
    <glyph glyph-name="ogonek" unicode="&#x2db;" horiz-adv-x="690" 
d="M330 0h131v-4q-164 -112 -164 -205q0 -46 33 -69t80 -23q62 0 122 37l-20 -135q-64 -31 -129 -31q-90 0 -156.5 51.5t-66.5 138.5q0 73 48.5 134.5t121.5 105.5z" />
    <glyph glyph-name="tilde" unicode="&#x2dc;" horiz-adv-x="1036" 
d="M260 1204l-100 80q43 75 91.5 118.5t117.5 43.5q74 0 166 -47q9 -4 29 -13.5t29.5 -13.5t24 -9.5t26 -8t22.5 -2.5q20 0 37.5 8t32 24.5t23.5 30.5t21 35l97 -78q-29 -71 -87.5 -118.5t-130.5 -47.5q-57 0 -153 47q-100 45 -144 45q-38 0 -60 -25t-42 -69z" />
    <glyph glyph-name="hungarumlaut" unicode="&#x2dd;" horiz-adv-x="956" 
d="M457 1520l-195 -326l-82 23l121 331zM778 1520l-194 -326l-82 23l121 331z" />
    <glyph glyph-name="uni03A9" unicode="&#x3a9;" horiz-adv-x="1638" 
d="M455 131v6q-135 114 -222.5 291.5t-87.5 396.5q0 160 52.5 298t143 234t216 151t268.5 55q148 0 274.5 -60t211.5 -161t132.5 -232.5t47.5 -275.5q0 -226 -91 -409t-222 -288v-6h344v-131h-541v96q69 43 129 109t110.5 153.5t79.5 203t29 243.5q0 89 -20 177t-62 169.5
t-101 143.5t-142.5 99.5t-180.5 37.5q-153 0 -272 -85.5t-181.5 -228.5t-62.5 -317q0 -236 102 -426t246 -279v-96h-542v131h342z" />
    <glyph glyph-name="uni03BC" unicode="&#x3bc;" horiz-adv-x="1048" 
d="M307 963v-537q0 -56 3.5 -94.5t16 -80.5t35 -67.5t63.5 -42t99 -16.5t99 16.5t63.5 42t35 67.5t16 80.5t3.5 94.5v537h164v-555q0 -435 -381 -435q-59 0 -107.5 19.5t-109.5 77.5v-611h-164v1504h164z" />
    <glyph glyph-name="pi" unicode="&#x3c0;" horiz-adv-x="1286" 
d="M1227 1008h-187v-680q0 -213 35 -328h-155q-39 59 -39 313v695h-418q-12 -241 -60.5 -552.5t-107.5 -455.5h-158q62 169 109 469t57 539q-180 0 -256 -29l-27 106q98 60 322 60h901z" />
    <glyph glyph-name="endash" unicode="&#x2013;" horiz-adv-x="1024" 
d="M0 569h1024v-151h-1024v151z" />
    <glyph glyph-name="emdash" unicode="&#x2014;" horiz-adv-x="2048" 
d="M266 569h1516v-151h-1516v151z" />
    <glyph glyph-name="quoteleft" unicode="&#x2018;" horiz-adv-x="591" 
d="M276 993l-151 56l233 522l111 -43z" />
    <glyph glyph-name="quoteright" unicode="&#x2019;" horiz-adv-x="591" 
d="M315 1571l152 -55l-234 -523l-110 43z" />
    <glyph glyph-name="quotesinglbase" unicode="&#x201a;" horiz-adv-x="591" 
d="M317 225l152 -53l-233 -524l-111 45z" />
    <glyph glyph-name="quotedblleft" unicode="&#x201c;" horiz-adv-x="935" 
d="M621 993l-152 56l233 522l111 -43zM276 993l-151 56l233 522l111 -43z" />
    <glyph glyph-name="quotedblright" unicode="&#x201d;" horiz-adv-x="935" 
d="M317 1571l152 -55l-233 -523l-111 43zM662 1571l151 -55l-233 -523l-111 43z" />
    <glyph glyph-name="quotedblbase" unicode="&#x201e;" horiz-adv-x="950" 
d="M317 225l152 -53l-233 -524l-111 45zM676 225l151 -53l-233 -524l-111 45z" />
    <glyph glyph-name="dagger" unicode="&#x2020;" horiz-adv-x="1212" 
d="M522 1544h168v-379h342v-159h-342v-1340h-168v1340h-342v159h342v379z" />
    <glyph glyph-name="daggerdbl" unicode="&#x2021;" horiz-adv-x="1212" 
d="M522 1544h168v-379h342v-159h-342v-744h342v-160h-342v-436h-168v436h-342v160h342v744h-342v159h342v379z" />
    <glyph glyph-name="bullet" unicode="&#x2022;" horiz-adv-x="1212" 
d="M606 387q-159 0 -272 112t-113 273q-1 161 111.5 274t273.5 113t274 -113t113 -274q0 -160 -114 -272.5t-273 -112.5z" />
    <glyph glyph-name="ellipsis" unicode="&#x2026;" horiz-adv-x="2048" 
d="M344 203q47 0 81 -33.5t34 -79.5q0 -47 -34 -82t-81 -35t-81 35t-34 82q0 46 34 79.5t81 33.5zM1024 203q47 0 81 -33.5t34 -79.5q0 -47 -34 -82t-81 -35t-81 35t-34 82q0 46 34 79.5t81 33.5zM1704 203q47 0 81 -33.5t34 -79.5q0 -47 -34 -82t-81 -35t-81 35t-34 82
q0 46 34 79.5t81 33.5z" />
    <glyph glyph-name="perthousand" unicode="&#x2030;" horiz-adv-x="2482" 
d="M414 1440q-87 0 -150 -60.5t-63 -146.5q0 -84 63 -144.5t150 -60.5t150 60.5t63 144.5q0 86 -63 146.5t-150 60.5zM1227 1571l82 -49l-893 -1549l-88 54zM1229 516q-87 0 -150 -60.5t-63 -146.5q0 -84 63 -144.5t150 -60.5t150 60.5t63 144.5q0 86 -63 146.5t-150 60.5z
M414 1571q142 0 243 -98t101 -240q0 -140 -101.5 -238t-242.5 -98t-242.5 97.5t-101.5 238.5q0 142 101 240t243 98zM1229 647q142 0 243 -98t101 -240q0 -140 -101.5 -238t-242.5 -98t-242.5 97.5t-101.5 238.5q0 142 101 240t243 98zM2068 647q142 0 243.5 -98t101.5 -240
q0 -140 -102 -238t-243 -98t-242.5 97.5t-101.5 238.5q0 142 101 240t243 98zM2068 516q-87 0 -150 -60.5t-63 -146.5q0 -84 63 -144.5t150 -60.5t150 60.5t63 144.5q0 86 -63 146.5t-150 60.5z" />
    <glyph glyph-name="guilsinglleft" unicode="&#x2039;" horiz-adv-x="675" 
d="M260 492l277 -340l-109 -84l-344 424l344 436l109 -86z" />
    <glyph glyph-name="guilsinglright" unicode="&#x203a;" horiz-adv-x="675" 
d="M139 152l277 340l-277 350l109 86l344 -436l-344 -424z" />
    <glyph glyph-name="fraction" unicode="&#x2044;" horiz-adv-x="329" 
d="M569 1571l90 -49l-899 -1549l-90 50z" />
    <glyph glyph-name="Euro" unicode="&#x20ac;" 
d="M1161 1464v-170q-125 121 -346 121q-187 0 -293 -117t-129 -309h670l-47 -131h-641q0 -11 -1 -39.5t-1 -42.5q0 -18 1 -47t1 -39h579l-47 -131h-514q28 -209 136 -321.5t288 -112.5q207 0 344 123v-172q-46 -41 -142.5 -71t-223.5 -30q-239 0 -386 145t-186 439h-164
l47 131h105q-4 40 -4 86q0 15 1 43t1 39h-150l47 131h115q18 129 60 231.5t110 182t171.5 123t234.5 43.5q119 0 215 -31.5t149 -73.5z" />
    <glyph glyph-name="afii61289" unicode="&#x2113;" horiz-adv-x="1091" 
d="M961 330l77 -68q-73 -137 -180 -207.5t-240 -70.5q-93 0 -164 33t-114 91t-65.5 129t-26.5 156v27q-22 -17 -66.5 -53t-64.5 -52l-49 95q20 16 59 48t67 56t52 47v606q0 117 20 209.5t53 152t78 98.5t92 55t99 16q136 0 207 -101t71 -258q0 -199 -121 -398.5t-348 -414.5
v-69q1 -173 73.5 -259.5t178.5 -86.5q99 0 181 65.5t131 153.5zM397 1184v-502q169 179 263 339t94 314q0 242 -166 242q-34 0 -66 -20.5t-61 -63.5t-46.5 -123t-17.5 -186z" />
    <glyph glyph-name="trademark" unicode="&#x2122;" horiz-adv-x="1925" 
d="M1853 1544v-862h-122v739h-5l-294 -739h-80l-287 739h-4v-739h-123v862h207l248 -620l256 620h204zM772 1544v-123h-287v-739h-123v739h-288v123h698z" />
    <glyph glyph-name="Omega" unicode="&#x2126;" horiz-adv-x="1638" 
d="M455 131v6q-135 114 -222.5 291.5t-87.5 396.5q0 160 52.5 298t143 234t216 151t268.5 55q148 0 274.5 -60t211.5 -161t132.5 -232.5t47.5 -275.5q0 -226 -91 -409t-222 -288v-6h344v-131h-541v96q69 43 129 109t110.5 153.5t79.5 203t29 243.5q0 89 -20 177t-62 169.5
t-101 143.5t-142.5 99.5t-180.5 37.5q-153 0 -272 -85.5t-181.5 -228.5t-62.5 -317q0 -236 102 -426t246 -279v-96h-542v131h342z" />
    <glyph glyph-name="estimated" unicode="&#x212e;" horiz-adv-x="1925" 
d="M1849 750h-1437q-11 0 -11 -11v-434q0 -27 19 -49q107 -111 247 -173.5t296 -62.5q168 0 316 70.5t255 194.5h129q-123 -143 -307 -226.5t-395 -83.5q-180 0 -344.5 63t-283 169.5t-189 254t-70.5 308.5q0 217 119 401.5t323 292t445 107.5q181 0 345.5 -63.5t283.5 -171
t189 -255.5t70 -311v-20zM1524 807v436q0 30 -23 53q-108 106 -246 166t-292 60q-153 0 -293.5 -62.5t-247.5 -171.5q-21 -21 -21 -53v-428q0 -5 3.5 -9.5t7.5 -4.5h1101q11 0 11 14z" />
    <glyph glyph-name="partialdiff" unicode="&#x2202;" horiz-adv-x="1230" 
d="M229 1487l-57 115q158 122 375 122q112 0 213 -52t181 -152t127.5 -262.5t47.5 -366.5q0 -192 -38 -356t-109.5 -288t-185 -194.5t-255.5 -70.5q-106 0 -191 44.5t-136.5 118t-78 162.5t-26.5 185q0 125 39 231.5t105 178t153 111.5t182 40q75 0 143 -24.5t114.5 -62
t76.5 -71.5t45 -64h2q5 34 5 101q0 291 -126 476t-303 185q-176 0 -303 -106zM543 115h2q105 0 190.5 80t135 204.5t65.5 274.5q-13 39 -41.5 80.5t-70.5 80.5t-101 64t-123 25q-93 0 -172.5 -57.5t-126.5 -156.5t-47 -216q0 -165 80 -272t209 -107z" />
    <glyph glyph-name="Delta" unicode="&#x2206;" horiz-adv-x="1464" 
d="M70 0v111l573 1470h186l566 -1468v-113h-1325zM233 129h990l-336 860q-15 42 -76.5 198.5t-77.5 213.5h-8q-11 -46 -67 -191.5t-70 -185.5z" />
    <glyph glyph-name="product" unicode="&#x220f;" horiz-adv-x="1579" 
d="M1518 1395h-250v-1608h-156v1608h-647v-1608h-156v1608h-252v143h1461v-143z" />
    <glyph glyph-name="summation" unicode="&#x2211;" horiz-adv-x="1253" 
d="M1200 -213h-1149v107l613 765l-586 768v111h1087v-137h-864v-8l547 -711l-590 -737v-8h942v-150z" />
    <glyph glyph-name="minus" unicode="&#x2212;" 
d="M135 444v160h991v-160h-991z" />
    <glyph glyph-name="uni2215" unicode="&#x2215;" horiz-adv-x="329" 
d="M569 1571l90 -49l-899 -1549l-90 50z" />
    <glyph glyph-name="uni2219" unicode="&#x2219;" horiz-adv-x="630" 
d="M315 637q47 0 81 -33.5t34 -79.5q0 -47 -34 -81.5t-81 -34.5t-80.5 34.5t-33.5 81.5q0 46 33.5 79.5t80.5 33.5z" />
    <glyph glyph-name="radical" unicode="&#x221a;" horiz-adv-x="1286" 
d="M1286 1827l-502 -2159h-143l-362 1026l-168 -63l-35 98l301 117l295 -836q19 -70 39 -155h2q9 64 30 155l422 1817h121z" />
    <glyph glyph-name="infinity" unicode="&#x221e;" horiz-adv-x="1740" 
d="M1626 641v-4q0 -104 -48.5 -185.5t-125.5 -124t-166 -42.5q-102 0 -195 63t-219 205q-45 -51 -73 -81t-74 -70.5t-84 -62.5t-88.5 -38t-103.5 -16q-137 0 -235.5 100t-98.5 246q0 152 99.5 252t250.5 100q60 0 117.5 -21t111 -63t94.5 -83.5t93 -102.5q6 7 19 21
q45 50 69 75.5t69 64.5t80 58.5t84.5 35t100.5 15.5q146 -1 234.5 -96t88.5 -246zM463 385h2q35 0 71.5 12.5t62 26.5t63 46.5t53.5 48.5t55 58t47 50q-3 3 -30 35.5t-32.5 38.5t-30.5 34.5t-34 35.5t-33 29.5t-37.5 29.5t-37 21.5t-42.5 19t-43 9.5t-48 5
q-103 0 -164.5 -75t-61.5 -183q0 -102 67.5 -172t172.5 -70zM1290 885h-2q-43 0 -86 -16.5t-83 -49t-68 -59t-66 -68.5t-51 -55q67 -73 105 -110.5t84.5 -75t86.5 -52t84 -14.5q102 0 164 75t62 171q0 117 -64.5 185.5t-165.5 68.5z" />
    <glyph glyph-name="integral" unicode="&#x222b;" horiz-adv-x="794" 
d="M760 1847l-27 -110q-40 24 -84 24q-72 0 -114 -53q-42 -49 -60 -141.5t-18 -253.5q0 -169 15 -549.5t15 -560.5q0 -296 -96 -445q-35 -55 -93 -82.5t-126 -27.5q-39 0 -80.5 11.5t-64.5 25.5l28 114q56 -28 105 -28q62 0 104 51q80 101 80 383q0 181 -16.5 567t-16.5 557
q0 182 28 291t93 174q78 84 205 84q33 0 68.5 -9.5t54.5 -21.5z" />
    <glyph glyph-name="approxequal" unicode="&#x2248;" horiz-adv-x="1273" 
d="M1100 950l65 -57q-106 -211 -286 -211q-64 0 -117 21t-150 75q-46 26 -71.5 38.5t-65.5 25t-76 12.5q-72 0 -122.5 -43.5t-102.5 -124.5l-70 57q53 100 133.5 155.5t176.5 55.5q39 0 80.5 -11.5t62 -20.5t63.5 -33.5t48 -26.5q8 -4 32 -17t32 -17.5t27.5 -14t30.5 -13
t28 -8.5t32.5 -6.5t32.5 -1.5q68 0 117.5 40t99.5 126zM1100 571l65 -59q-107 -209 -288 -209q-63 0 -116 21t-149 75q-51 28 -73.5 39t-63.5 24t-76 13q-72 0 -123.5 -45t-101.5 -125l-70 60q53 99 133.5 154.5t176.5 55.5q39 0 80.5 -11.5t62 -20.5t63.5 -33.5t48 -26.5
q10 -5 42 -22t44 -22.5t37.5 -15.5t47 -13.5t46.5 -3.5q66 0 114.5 39t100.5 126z" />
    <glyph glyph-name="notequal" unicode="&#x2260;" horiz-adv-x="1273" 
d="M901 1118l-102 -223h358v-104h-401l-154 -330h555v-105h-598l-123 -266l-84 39l107 227h-344v105h387l153 330h-540v104h581l123 262z" />
    <glyph glyph-name="lessequal" unicode="&#x2264;" horiz-adv-x="1273" 
d="M1151 207l-1022 504v110l1022 504v-125l-909 -430v-4l909 -434v-125zM1157 8h-1042v107h1042v-107z" />
    <glyph glyph-name="greaterequal" unicode="&#x2265;" horiz-adv-x="1273" 
d="M131 1325l1022 -504v-110l-1022 -504v125l907 432v4l-907 432v125zM1155 8h-1038v107h1038v-107z" />
    <glyph glyph-name="lozenge" unicode="&#x25ca;" horiz-adv-x="1286" 
d="M1161 768l-456 -870h-130l-452 870l457 872h129zM1016 764l-330 631q-23 51 -43 112h-4q-16 -55 -45 -112l-326 -623l332 -633q33 -82 39 -110h8q18 60 41 108z" />
    </font>
</defs>
</svg>
