<?xml version="1.0" standalone="no"?>
<!DOCTYPE svg PUBLIC "-//W3C//DTD SVG 1.1//EN" "http://www.w3.org/Graphics/SVG/1.1/DTD/svg11.dtd" >
<svg xmlns="http://www.w3.org/2000/svg" xmlns:xlink="http://www.w3.org/1999/xlink" version="1.1">
<metadata>
Created by FontForge 20170731 at Fri Jan  1 02:30:17 1904
 By Aleksey,,,
Copyright 1989,1990 URW Unternehmensberatunge and The Compa
</metadata>
<defs>
<font id="Frutiger" horiz-adv-x="1100" >
  <font-face 
    font-family="Frutiger"
    font-weight="400"
    font-stretch="normal"
    units-per-em="2048"
    panose-1="2 11 5 0 0 0 0 0 0 0"
    ascent="1638"
    descent="-410"
    x-height="999"
    cap-height="1366"
    bbox="-279 -436 2406 1847"
    underline-thickness="102"
    underline-position="-255"
    unicode-range="U+0020-F002"
  />
<missing-glyph horiz-adv-x="1536" 
d="M256 0v1280h1024v-1280h-1024zM1247 33v1214h-958v-1214h958z" />
    <glyph glyph-name=".notdef" horiz-adv-x="1536" 
d="M256 0v1280h1024v-1280h-1024zM1247 33v1214h-958v-1214h958z" />
    <glyph glyph-name=".null" horiz-adv-x="0" 
 />
    <glyph glyph-name="nonmarkingreturn" horiz-adv-x="0" 
 />
    <glyph glyph-name="space" unicode=" " horiz-adv-x="569" 
 />
    <glyph glyph-name="exclam" unicode="!" horiz-adv-x="801" 
d="M557 1366l-25 -987h-167l-33 987h225zM557 211v-211h-213v211h213z" />
    <glyph glyph-name="quotedbl" unicode="&#x22;" horiz-adv-x="666" 
d="M258 928h-141l-31 547h203zM547 928h-139l-33 547h205z" />
    <glyph glyph-name="numbersign" unicode="#" 
d="M641 414h-264l-66 -414h-153l65 414h-182l20 131h177l47 301h-176l22 131h182l62 389h153l-61 -383h264l62 383h153l-61 -389h178l-21 -131h-180l-47 -301h182l-20 -131h-182l-66 -414h-154zM662 545l49 301h-267l-47 -301h265z" />
    <glyph glyph-name="dollar" unicode="$" 
d="M918 1321l-19 -184q-78 37 -148.5 56t-164.5 26v-418q92 -34 159.5 -65t125 -75.5t92 -109.5t34.5 -156q0 -109 -51.5 -196.5t-147.5 -141.5t-223 -67v-172h-104v170q-50 1 -113 9.5t-116 20t-125 31.5l14 199q89 -45 167.5 -65t172.5 -23v477q-163 48 -269 138t-106 235
q0 77 27 143t75 111.5t119.5 74.5t161.5 37v172h107v-170q47 -1 106 -8t116 -19t110 -30zM479 1208q-86 -15 -135 -62t-49 -116q0 -67 41.5 -109t142.5 -83v370zM575 600v-436q57 8 109 36.5t83.5 74.5t31.5 104q0 147 -224 221z" />
    <glyph glyph-name="percent" unicode="%" horiz-adv-x="1665" 
d="M1616 336q0 -106 -39 -187.5t-112 -125t-171 -43.5t-173 42.5t-113.5 123t-38.5 188.5q0 111 38.5 189.5t111 120.5t173.5 42q155 0 239.5 -91.5t84.5 -258.5zM1462 332q0 114 -43.5 176.5t-122.5 62.5q-82 0 -128 -63t-46 -178q0 -111 45.5 -173.5t124.5 -62.5
q81 0 125.5 62.5t44.5 175.5zM694 1036q0 -107 -39 -187.5t-112 -124.5t-170 -44q-100 0 -174.5 43t-113 124.5t-38.5 188.5q0 80 22.5 147.5t63.5 112.5t101.5 69t136.5 24q155 0 239 -92t84 -261zM541 1034q0 114 -44 177t-124 63q-81 0 -126.5 -64.5t-45.5 -179.5
q0 -109 45 -171t125 -62t125 62.5t45 174.5zM1329 1450l-868 -1534h-129l868 1534h129z" />
    <glyph glyph-name="ampersand" unicode="&#x26;" horiz-adv-x="1425" 
d="M1270 741q-15 -297 -152 -467l232 -274h-240l-109 129q-81 -78 -171 -117t-199 -39q-119 0 -228 47.5t-175 139t-66 215.5q0 100 40 172.5t108 123.5t165 93q-65 55 -109 140.5t-44 166.5q0 97 49.5 166.5t130 105t176.5 35.5q86 0 165.5 -33t128 -97.5t48.5 -153.5
q0 -80 -39.5 -149.5t-102.5 -121.5t-147 -92l270 -325q42 73 61.5 153.5t24.5 181.5h183zM631 840q64 37 104.5 68t71.5 75t31 96q0 44 -24 76.5t-62.5 49t-79.5 16.5q-65 0 -112.5 -43.5t-47.5 -108.5q0 -57 27.5 -102.5t91.5 -126.5zM573 647q-66 -37 -108 -71.5t-69 -83
t-27 -111.5q0 -103 79 -174.5t181 -71.5q137 0 264 127z" />
    <glyph glyph-name="quotesingle" unicode="'" horiz-adv-x="375" 
d="M258 928h-141l-31 547h203z" />
    <glyph glyph-name="parenleft" unicode="(" horiz-adv-x="725" 
d="M618 1475q-141 -255 -214.5 -496t-73.5 -444q0 -417 297 -953h-176q-324 501 -324 953q0 161 40.5 321t109.5 309.5t167 309.5h174z" />
    <glyph glyph-name="parenright" unicode=")" horiz-adv-x="725" 
d="M106 -418q95 170 159.5 335.5t97 317.5t32.5 287q0 105 -18 214t-57 232.5t-93.5 248t-128.5 258.5h176q165 -255 244.5 -489t79.5 -464q0 -239 -84 -467.5t-233 -472.5h-175z" />
    <glyph glyph-name="asterisk" unicode="*" 
d="M623 1475l-13 -293l279 102l45 -139l-281 -80l183 -231l-119 -86l-164 243l-162 -243l-117 83l177 234l-283 80l43 137l276 -100l-10 293h146z" />
    <glyph glyph-name="plus" unicode="+" 
d="M473 623h-395v149h395v383h152v-383h395v-149h-395v-383h-152v383z" />
    <glyph glyph-name="comma" unicode="," horiz-adv-x="547" 
d="M383 219l-170 -483h-172l123 483h219z" />
    <glyph glyph-name="hyphen" unicode="-" horiz-adv-x="514" 
d="M514 582v-154h-514v154h514z" />
    <glyph glyph-name="period" unicode="." horiz-adv-x="547" 
d="M383 219v-219h-219v219h219z" />
    <glyph glyph-name="slash" unicode="/" horiz-adv-x="891" 
d="M791 1475l-687 -1893h-163l692 1893h158z" />
    <glyph glyph-name="zero" unicode="0" 
d="M549 1389q142 0 235.5 -65t143 -169.5t68 -225t18.5 -257.5q0 -181 -38.5 -336t-142 -259t-284.5 -104t-284 109t-141 269t-38 341q0 176 39.5 332.5t142 260.5t281.5 104zM547 1229q-82 0 -141.5 -63t-90 -185t-30.5 -295q0 -211 52.5 -382t215.5 -171q130 0 196 139
t66 410q0 177 -30.5 298.5t-90 185t-147.5 63.5z" />
    <glyph glyph-name="one" unicode="1" 
d="M729 1366v-1366h-194v829q1 81 1.5 148.5t0.5 175.5q-27 -34 -56.5 -61.5t-84 -72t-74.5 -61.5l-109 129l336 279h180z" />
    <glyph glyph-name="two" unicode="2" 
d="M141 1300q75 31 133.5 49t111.5 25.5t118 7.5q130 0 232 -47t158 -133t56 -194q0 -65 -18 -128.5t-60.5 -134.5t-107.5 -148.5t-168 -182.5q-168 -168 -297 -262q47 10 145 10h535v-162h-870v207q108 92 204.5 180t195.5 195t165.5 217.5t66.5 201.5q0 97 -75.5 159.5
t-192.5 62.5q-146 0 -311 -99z" />
    <glyph glyph-name="three" unicode="3" 
d="M150 1325q79 29 160.5 44t172.5 15q195 0 330 -87.5t135 -272.5q0 -126 -90.5 -213.5t-236.5 -99.5q103 -6 180 -51t119.5 -121.5t42.5 -173.5q0 -115 -61.5 -202.5t-174.5 -134t-266 -46.5q-179 0 -352 55l8 182q102 -43 179 -60.5t155 -17.5q86 0 155.5 31t108.5 86
t39 123q0 142 -119 195t-281 53q-35 0 -63 -2v166q110 0 209 13.5t174.5 64t75.5 149.5q0 60 -35 106.5t-98 72.5t-144 26q-147 0 -309 -68z" />
    <glyph glyph-name="four" unicode="4" 
d="M877 1366v-905h180v-162h-180v-299h-195v299h-639v162l553 905h281zM682 461v540q0 60 11 168.5t12 130.5q-16 -48 -37.5 -96.5t-69 -134.5t-100.5 -176l-131 -221q-25 -43 -45.5 -79t-39.5 -67t-44 -65h45h399z" />
    <glyph glyph-name="five" unicode="5" 
d="M946 1358v-162h-575l-6 -254q0 -24 -5 -104q71 20 152 20q140 0 247.5 -53t167.5 -150t60 -223q0 -101 -37 -183t-107 -140.5t-168.5 -90.5t-219.5 -32q-54 0 -100.5 5t-90.5 15t-94 27l6 180q50 -22 97 -37.5t90.5 -23t89.5 -7.5q96 0 169.5 35t114.5 99t41 143
q0 63 -24 114t-70 88t-109 55.5t-139 18.5q-119 0 -256 -47l8 707h758z" />
    <glyph glyph-name="six" unicode="6" 
d="M942 1343l-24 -174q-123 58 -250 58q-101 0 -173 -44.5t-115 -118t-64 -164t-21 -183.5q41 70 125 110.5t184 40.5q118 0 211 -56t145 -156t52 -224q0 -132 -56.5 -236.5t-157.5 -162.5t-227 -58q-228 0 -346.5 170.5t-118.5 493.5q0 243 63 410.5t187.5 252t305.5 84.5
q144 0 280 -43zM563 709q-105 0 -175.5 -77.5t-70.5 -195.5q0 -129 72 -215t178 -86q70 0 126 37t88 102.5t32 147.5t-32.5 148t-89 102.5t-128.5 36.5z" />
    <glyph glyph-name="seven" unicode="7" 
d="M977 1356v-162l-512 -1194h-217l407 930q31 68 63.5 138.5t65.5 129.5q-40 0 -114 -4h-566v162h873z" />
    <glyph glyph-name="eight" unicode="8" 
d="M723 733q87 -28 155 -79.5t106 -124.5t38 -164q0 -123 -63.5 -211t-168 -133.5t-223.5 -45.5q-118 0 -231 41.5t-185.5 127t-72.5 208.5q0 93 38 165.5t106 124.5t155 83q-120 26 -194 117.5t-74 212.5q0 82 38 145.5t101 104.5t139.5 61t155.5 20q76 0 152 -19t140 -59
t103 -102.5t39 -144.5q0 -113 -70.5 -196t-183.5 -132zM590 793q186 120 186 258q0 57 -34 100t-88.5 65.5t-112.5 22.5q-57 0 -111 -23t-88.5 -65.5t-34.5 -99.5q0 -88 80 -146t203 -112zM516 645q-97 -48 -162 -114t-65 -156q0 -109 83 -174.5t193 -65.5q68 0 126 25.5
t94 74t36 113.5q0 115 -85 181.5t-220 115.5z" />
    <glyph glyph-name="nine" unicode="9" 
d="M174 197q129 -60 248 -60q190 0 277 150t100 358q-114 -147 -307 -147q-120 0 -214 56t-146 157t-52 229q0 96 32 179.5t91.5 146t139.5 95t173 32.5q227 0 347 -167.5t120 -484.5q0 -250 -63 -420.5t-188.5 -257t-309.5 -86.5q-49 0 -88 4t-83.5 14t-100.5 28zM524 1233
q-70 0 -125.5 -36.5t-87.5 -102.5t-32 -148q0 -123 71 -206t178 -83q105 0 174.5 78.5t69.5 196.5q0 82 -32 152.5t-89 109.5t-127 39z" />
    <glyph glyph-name="colon" unicode=":" horiz-adv-x="547" 
d="M383 1001v-219h-219v219h219zM383 219v-219h-219v219h219z" />
    <glyph glyph-name="semicolon" unicode=";" horiz-adv-x="547" 
d="M362 999v-217h-217v217h217zM383 219l-168 -483h-174l123 483h219z" />
    <glyph glyph-name="less" unicode="&#x3c;" horiz-adv-x="1024" 
d="M954 1198v-184l-690 -322l690 -323v-183l-886 426v158z" />
    <glyph glyph-name="equal" unicode="=" 
d="M78 477v150h942v-150h-942zM78 764v149h942v-149h-942z" />
    <glyph glyph-name="greater" unicode="&#x3e;" horiz-adv-x="1024" 
d="M70 186v185l690 321l-690 324v182l886 -428v-158z" />
    <glyph glyph-name="question" unicode="?" horiz-adv-x="1042" 
d="M199 1327q84 30 166.5 44.5t169.5 14.5q119 0 214 -44t148 -124.5t53 -181.5q0 -59 -17 -111.5t-59.5 -116t-113.5 -146.5q-81 -91 -101 -139t-20 -142h-176q0 85 9.5 136.5t33.5 97t69 96.5q29 33 59.5 68t57 73.5t41.5 78t15 83.5q0 62 -30 107t-84 69t-128 24
q-72 0 -147 -19.5t-146 -55.5zM657 213v-213h-208v213h208z" />
    <glyph glyph-name="at" unicode="@" horiz-adv-x="1563" 
d="M1030 1010h131l-82 -420q-12 -61 -12 -96t19.5 -58.5t46.5 -23.5q53 0 103 53t80 137.5t30 179.5q0 109 -38.5 198.5t-108.5 154.5t-168.5 101t-211.5 36q-124 0 -232 -45t-189.5 -127t-126 -190.5t-44.5 -233.5q0 -127 44.5 -234.5t125 -185.5t190.5 -121t236 -43
q54 0 109 5t109 16t108.5 29t93.5 36l33 -119q-201 -86 -449 -86q-203 0 -370 88.5t-263 249.5t-96 367q0 195 94.5 359.5t259 259t363.5 94.5q139 0 258.5 -45t206.5 -127.5t135.5 -193.5t48.5 -241q0 -94 -26 -179.5t-75 -155.5t-109.5 -108t-127.5 -38q-59 0 -100.5 35
t-50.5 94q-30 -46 -70 -77t-88 -47.5t-98 -16.5q-124 0 -205.5 92.5t-81.5 232.5q0 75 26 151t73 136.5t113 95.5t147 35q158 0 217 -139zM967 715q0 81 -44 130.5t-118 49.5q-93 0 -159 -81t-66 -191q0 -89 48 -144t124 -55q59 0 108 38t78 104.5t29 148.5z" />
    <glyph glyph-name="A" unicode="A" horiz-adv-x="1399" 
d="M797 1366l592 -1366h-220l-143 346h-664l-141 -346h-211l582 1366h205zM958 512l-157 381q-47 109 -70 171.5t-41 133.5q-15 -55 -35.5 -109.5t-79.5 -199.5l-151 -377h534z" />
    <glyph glyph-name="B" unicode="B" horiz-adv-x="1186" 
d="M176 1366h324q96 0 128 -1.5t70 -6.5q154 -21 244 -113t90 -229q0 -132 -77 -211t-214 -111q152 -21 241 -100t89 -227q0 -100 -49 -182.5t-137 -129.5q-56 -30 -129.5 -42.5t-190.5 -12.5h-389v1366zM371 1198v-414h139q328 0 328 207q0 71 -35 115t-90 63.5t-109.5 24
t-132.5 4.5h-100zM371 625v-459h149q146 0 248 45.5t102 173.5q0 150 -112.5 195t-284.5 45h-102z" />
    <glyph glyph-name="C" unicode="C" horiz-adv-x="1190" 
d="M1126 1315l-16 -187q-77 45 -141 62.5t-144 17.5q-113 0 -207.5 -36.5t-164.5 -105.5t-108 -163.5t-38 -208.5q0 -150 68.5 -271.5t189 -190t269.5 -68.5q139 0 292 61l15 -188q-80 -26 -145.5 -36.5t-155.5 -10.5q-215 0 -383.5 83t-263.5 241.5t-95 375.5
q0 198 90.5 354t255 243t371.5 87q179 0 311 -59z" />
    <glyph glyph-name="D" unicode="D" horiz-adv-x="1411" 
d="M176 1366h283q145 0 229 -10q137 -13 255 -70.5t199.5 -146.5t126 -205.5t44.5 -255.5q0 -111 -32.5 -213t-91.5 -183.5t-144 -142t-189 -94.5q-52 -18 -104 -27t-114.5 -13.5t-150.5 -4.5h-311v1366zM371 1198v-1032h100q135 0 205 10t141 39q89 39 153.5 108t99 162
t34.5 199q0 81 -23 158t-66 140t-103 110t-132 71q-46 18 -117.5 26.5t-189.5 8.5h-102z" />
    <glyph glyph-name="E" unicode="E" horiz-adv-x="1079" 
d="M936 1366v-168h-565v-401h524v-168h-524v-463h581v-166h-776v1366h760z" />
    <glyph glyph-name="F" unicode="F" horiz-adv-x="987" 
d="M901 1366v-168h-530v-407h510v-166h-510v-625h-195v1366h725z" />
    <glyph glyph-name="G" unicode="G" horiz-adv-x="1407" 
d="M1217 1309l-13 -189q-82 46 -164 67t-184 21q-162 0 -287 -65.5t-193.5 -184.5t-68.5 -268q0 -156 69.5 -278.5t196.5 -189t291 -66.5q86 0 185 28v396h-293v165h487v-692q-103 -34 -195.5 -48.5t-195.5 -14.5q-171 0 -310 48t-240 141t-152.5 222t-51.5 291
q0 213 98.5 367.5t268 234.5t379.5 80q204 0 373 -65z" />
    <glyph glyph-name="H" unicode="H" horiz-adv-x="1403" 
d="M1227 1366v-1366h-195v627h-661v-627h-195v1366h195v-573h661v573h195z" />
    <glyph glyph-name="I" unicode="I" horiz-adv-x="573" 
d="M383 1366v-1366h-195v1366h195z" />
    <glyph glyph-name="J" unicode="J" horiz-adv-x="754" 
d="M580 1366v-928v-106q-3 -114 -46.5 -192t-124.5 -118t-198 -40q-57 0 -172 24v170q74 -29 143 -29q72 0 114.5 30t61.5 78t23 101t4 131v879h195z" />
    <glyph glyph-name="K" unicode="K" horiz-adv-x="1290" 
d="M371 1366v-457q0 -72 -4 -164q51 61 112 125l477 496h263l-646 -647l701 -719h-285l-495 530q-43 43 -125 146q1 -34 1.5 -62t0.5 -77v-537h-195v1366h195z" />
    <glyph glyph-name="L" unicode="L" horiz-adv-x="983" 
d="M371 1366v-1200h577v-166h-772v1366h195z" />
    <glyph glyph-name="M" unicode="M" horiz-adv-x="1853" 
d="M1677 1366v-1366h-192v780q1 63 2 135.5t2 134.5t1.5 102.5t0.5 123.5q-20 -69 -55 -172.5t-72.5 -204.5t-87.5 -235l-258 -664h-189l-258 664q-58 152 -120.5 316t-100.5 296q0 -14 -2 -21q0 -9 2 -30.5t3.5 -34.5t2.5 -29q15 -127 15 -395v-766h-195v1366h320l270 -686
q60 -150 98.5 -253t63.5 -206q49 171 164 463l260 682h325z" />
    <glyph glyph-name="N" unicode="N" horiz-adv-x="1444" 
d="M1268 1366v-1366h-252l-432 741q-112 198 -154.5 280.5t-75.5 188.5q17 -225 17 -516v-694h-195v1366h266l465 -805q141 -245 189 -391q-13 137 -15 184q-2 80 -3.5 158t-2 98t-0.5 99v657h193z" />
    <glyph glyph-name="O" unicode="O" horiz-adv-x="1518" 
d="M756 1391q206 0 356.5 -90.5t228.5 -251t78 -367.5q0 -162 -45.5 -293.5t-132 -224.5t-207.5 -142t-272 -49q-205 0 -356 91.5t-229.5 253t-78.5 364.5q0 153 44 282.5t128 224.5t208.5 148.5t277.5 53.5zM754 1237q-131 0 -233.5 -69.5t-158 -196t-55.5 -287.5
q0 -119 33 -224t94 -179.5t143.5 -114t182.5 -39.5q98 0 180.5 40t144 115t93.5 173.5t32 220.5q0 128 -32 230.5t-93.5 177.5t-145.5 114t-185 39z" />
    <glyph glyph-name="P" unicode="P" horiz-adv-x="1087" 
d="M178 1366h271q146 0 218 -8.5t128 -30.5q114 -41 180.5 -140.5t66.5 -228.5q0 -86 -29.5 -159.5t-84 -128t-129.5 -84.5q-53 -20 -130 -29.5t-188 -9.5h-108v-547h-195v1366zM373 1198v-485h106q157 0 256 51.5t99 193.5q0 68 -31 119.5t-89.5 81t-142.5 35.5
q-65 4 -198 4z" />
    <glyph glyph-name="Q" unicode="Q" horiz-adv-x="1518" 
d="M1057 31l327 -295h-256l-260 241q-98 -4 -104 -4q-147 0 -271 49.5t-212.5 143.5t-135.5 226.5t-47 289.5q0 162 45.5 291.5t133 223.5t209.5 144t272 50q210 0 359 -91t225.5 -254t76.5 -370q0 -152 -42 -278t-123 -219.5t-197 -147.5zM758 1237q-99 0 -182 -38.5
t-144.5 -113.5t-93 -175.5t-31.5 -219.5q0 -121 33.5 -227t93.5 -180t142.5 -115t181.5 -41t182 39t144.5 113.5t93.5 174.5t32 224q0 127 -32.5 230t-92.5 176.5t-143.5 113t-183.5 39.5z" />
    <glyph glyph-name="R" unicode="R" horiz-adv-x="1194" 
d="M176 1366h328q123 0 184.5 -7.5t124.5 -29.5q69 -23 119 -69.5t78 -112.5t28 -141q0 -132 -77 -214.5t-211 -105.5q65 -31 97 -66.5t73 -121.5l229 -498h-223l-176 410q-40 92 -70 131.5t-73.5 53t-123.5 13.5h-112v-608h-195v1366zM371 1198v-422h121q346 0 346 213
q0 128 -90.5 168.5t-235.5 40.5h-141z" />
    <glyph glyph-name="S" unicode="S" horiz-adv-x="971" 
d="M817 1341l-24 -172q-146 56 -256 56q-74 0 -129.5 -23.5t-86 -66t-30.5 -99.5q0 -89 62.5 -136t220 -128.5t236.5 -165t79 -221.5q0 -120 -58 -215t-164.5 -146t-244.5 -51q-163 0 -311 54l20 184q151 -72 268 -72q83 0 147.5 28t99 80.5t34.5 123.5q0 102 -69 154.5
t-219 124.5t-227 149.5t-77 218.5q0 110 53.5 194.5t152 131.5t224.5 47q159 0 299 -50z" />
    <glyph glyph-name="T" unicode="T" horiz-adv-x="1083" 
d="M1071 1366v-168h-428v-1198h-194v1198h-437v168h1059z" />
    <glyph glyph-name="U" unicode="U" horiz-adv-x="1409" 
d="M1233 1364v-768q0 -158 -17.5 -245t-62.5 -158q-68 -108 -182 -164t-264 -56q-113 0 -207.5 33t-162.5 94.5t-108 151.5q-53 118 -53 369v743h195v-715q0 -140 9.5 -214t39.5 -132q39 -77 117.5 -120.5t175.5 -43.5q108 0 178 48t104.5 129.5t40.5 187.5q2 26 2 137v723
h195z" />
    <glyph glyph-name="V" unicode="V" horiz-adv-x="1296" 
d="M1286 1366l-516 -1366h-238l-522 1366h215l334 -901q26 -65 50.5 -143.5t45.5 -161.5q29 129 93 305l333 901h205z" />
    <glyph glyph-name="W" unicode="W" horiz-adv-x="1954" 
d="M1944 1366l-410 -1366h-248l-237 897q-16 43 -28.5 93t-26 117t-21.5 101q-46 -228 -68 -311l-225 -897h-252l-420 1366h213l236 -799q65 -220 96 -377q18 107 40 204t46 179l197 793h280l209 -799q9 -34 38.5 -158t55.5 -219q26 160 90 377l234 799h201z" />
    <glyph glyph-name="X" unicode="X" horiz-adv-x="1300" 
d="M1235 1366l-459 -649l512 -717h-248l-405 584l-389 -584h-234l504 717l-465 649h236l362 -516l361 516h225z" />
    <glyph glyph-name="Y" unicode="Y" horiz-adv-x="1288" 
d="M1278 1366l-533 -786v-580h-194v573l-541 793h242l338 -512q41 -61 59 -102q29 56 56 96l342 518h231z" />
    <glyph glyph-name="Z" unicode="Z" horiz-adv-x="1094" 
d="M1001 1366v-180l-587 -840q-18 -27 -33 -47.5t-31 -42t-34.5 -49t-30.5 -45.5q49 4 151 4h578v-166h-953v166l553 803q21 30 45 64.5t40 56.5t46 59.5t46 54.5q-96 -6 -191 -6h-514v168h915z" />
    <glyph glyph-name="bracketleft" unicode="[" horiz-adv-x="727" 
d="M575 1475v-134h-204v-1628h204v-131h-380v1893h380z" />
    <glyph glyph-name="backslash" unicode="\" horiz-adv-x="891" 
d="M100 1475h158l692 -1893h-164z" />
    <glyph glyph-name="bracketright" unicode="]" horiz-adv-x="727" 
d="M152 -418v133h204v1628h-204v132h380v-1893h-380z" />
    <glyph glyph-name="asciicircum" unicode="^" horiz-adv-x="1024" 
d="M236 729h-197l352 641h242l352 -641h-197l-276 496z" />
    <glyph glyph-name="underscore" unicode="_" horiz-adv-x="1024" 
d="M0 -121h1024v-168h-1024v168z" />
    <glyph glyph-name="grave" unicode="`" horiz-adv-x="1024" 
d="M260 1483h205l162 -281h-131z" />
    <glyph glyph-name="a" unicode="a" horiz-adv-x="1083" 
d="M197 926q82 48 162.5 70t172.5 22q141 0 236.5 -53.5t132.5 -151.5q31 -82 31 -278v-195q0 -113 2.5 -197.5t7.5 -142.5h-170q-2 35 -2 78q0 53 2 94q-58 -97 -138 -141.5t-198 -44.5q-104 0 -183.5 37t-122 105.5t-42.5 158.5q0 79 34.5 139.5t101.5 103t164 63.5
t224 21q76 0 140 -4q-2 129 -63 189.5t-187 60.5q-82 0 -150 -22.5t-145 -73.5zM756 473q-62 6 -101 6q-370 0 -370 -190q0 -46 24 -81t68 -55t100 -20q103 0 165 45t88 121t26 174z" />
    <glyph glyph-name="b" unicode="b" horiz-adv-x="1182" 
d="M332 1475v-531q0 -58 -6 -117q37 86 131.5 138.5t212.5 52.5q98 0 177.5 -35t137 -102.5t87.5 -160.5t30 -210q0 -118 -30 -214.5t-88 -166.5t-138.5 -106.5t-177.5 -36.5q-116 0 -206 48.5t-138 135.5v-170h-179v1475h187zM631 860q-83 0 -151 -47t-106 -129.5
t-38 -183.5q0 -98 37.5 -180.5t104 -129.5t147.5 -47q79 0 143.5 46t100.5 129t36 184q0 159 -75.5 258.5t-198.5 99.5z" />
    <glyph glyph-name="c" unicode="c" horiz-adv-x="874" 
d="M809 973l-12 -164q-76 45 -183 45q-96 0 -174 -44t-121 -122.5t-43 -179.5q0 -105 42 -188t117.5 -129t174.5 -46q59 0 106 15t103 49l15 -170q-57 -26 -115.5 -38.5t-130.5 -12.5q-149 0 -265.5 64t-179.5 179.5t-63 268.5q0 146 65 263.5t180 184t257 66.5
q117 0 227 -41z" />
    <glyph glyph-name="d" unicode="d" horiz-adv-x="1188" 
d="M1030 1475v-1008q0 -78 5 -235t9 -232h-180v168q-61 -93 -145 -137.5t-201 -44.5q-131 0 -231 62t-153.5 178t-53.5 270q0 117 30.5 211t90.5 166t140 108.5t177 36.5q213 0 332 -174q0 15 -1.5 42t-3 53.5t-1.5 41.5v494h186zM563 860q-63 0 -115 -26t-91 -75t-60 -117
t-21 -144q0 -156 79 -255.5t202 -99.5q83 0 149 46.5t104 129t38 181.5q0 100 -37.5 183t-103 130t-144.5 47z" />
    <glyph glyph-name="e" unicode="e" horiz-adv-x="1069" 
d="M266 453q20 -149 109.5 -235.5t224.5 -86.5q80 0 156 23t157 71v-178q-91 -40 -165 -57t-156 -17q-116 0 -211 38t-162 109t-103 171.5t-36 220.5q0 153 58 270t166.5 181.5t246.5 64.5q162 0 258.5 -79.5t137 -209.5t40.5 -286h-721zM268 598h533q-10 82 -38 144.5
t-83 100.5t-135 38q-110 0 -183.5 -75.5t-93.5 -207.5z" />
    <glyph glyph-name="f" unicode="f" horiz-adv-x="723" 
d="M700 1466v-155q-52 12 -96 12q-112 0 -144 -71.5t-32 -202.5v-52h272v-145h-272v-852h-186v852h-236v145h236q0 138 22.5 244.5t94 174t206.5 67.5q63 0 135 -17z" />
    <glyph glyph-name="g" unicode="g" horiz-adv-x="1159" 
d="M1028 1004v-830q0 -149 -17.5 -257t-68.5 -186.5t-148 -120.5t-253 -42q-189 0 -381 67l18 181q187 -90 359 -90q102 0 174.5 39t105.5 112q20 38 27 84.5t7.5 108.5t2.5 94q-113 -166 -334 -166q-130 0 -230 62t-155 174.5t-55 261.5q0 151 55 271t153.5 185.5
t227.5 65.5q117 0 208.5 -52t129.5 -139q1 8 1.5 14t0.5 11l-2 27v125h174zM559 860q-81 0 -146 -46.5t-101 -129t-36 -186.5q0 -101 35.5 -178.5t98.5 -120.5t143 -43q64 0 118 25.5t93.5 72.5t60.5 111t21 141q0 98 -37.5 179.5t-104 128t-145.5 46.5z" />
    <glyph glyph-name="h" unicode="h" horiz-adv-x="1161" 
d="M330 1475v-480q0 -78 -6 -155q52 90 135.5 134t197.5 44q146 0 229.5 -66t114.5 -174t31 -254v-524h-186v434q0 193 -17 260q-21 82 -75 124t-136 42q-59 0 -113 -25t-94 -71.5t-59 -108.5q-7 -21 -13 -56.5t-7.5 -74.5t-1.5 -127v-397h-187v1475h187z" />
    <glyph glyph-name="i" unicode="i" horiz-adv-x="469" 
d="M332 1446v-205h-203v205h203zM328 1001v-1001h-187v1001h187z" />
    <glyph glyph-name="j" unicode="j" horiz-adv-x="508" 
d="M369 1446v-205h-203v205h203zM360 1004v-981q0 -132 -18 -226.5t-80.5 -158.5t-189.5 -64q-40 0 -109 10v154q38 -4 49 -4q99 0 130.5 60t31.5 169v60v981h186z" />
    <glyph glyph-name="k" unicode="k" horiz-adv-x="1061" 
d="M330 1475v-707q-6 -91 -6 -184q14 17 84 92l325 325h252l-467 -442l529 -559h-263l-338 369q-29 31 -65.5 79.5t-56.5 67.5q3 -24 4 -75t2 -76v-365h-187v1475h187z" />
    <glyph glyph-name="l" unicode="l" horiz-adv-x="469" 
d="M328 1475v-1475h-187v1475h187z" />
    <glyph glyph-name="m" unicode="m" horiz-adv-x="1729" 
d="M313 1001l11 -161q27 55 73 95t107.5 61.5t134.5 21.5q113 0 188.5 -51.5t106.5 -149.5q100 201 330 201q107 0 175 -41t102.5 -108.5t46 -152t11.5 -190.5v-526h-186v489q0 97 -3.5 150t-12.5 84q-39 137 -172 137q-40 0 -77.5 -14t-68.5 -42t-54 -66t-36 -85
q-11 -35 -14.5 -83t-3.5 -146v-424h-187v514q0 104 -2.5 142t-11.5 69q-19 64 -62.5 99.5t-103.5 35.5q-75 0 -135.5 -44.5t-94.5 -123.5t-34 -178v-72v-442h-186v563q0 267 -13 438h172z" />
    <glyph glyph-name="n" unicode="n" horiz-adv-x="1169" 
d="M315 1001l9 -159q114 176 344 176q126 0 202 -46t112 -121.5t47 -166t11 -219.5v-465h-184v451q0 108 -3.5 157.5t-12.5 87.5q-21 80 -76 122t-137 42q-92 0 -164 -55t-101 -150q-9 -27 -14.5 -63t-6.5 -78t-1 -147v-367h-186v494q-2 85 -3 156.5t-3.5 169t-6.5 181.5
h174z" />
    <glyph glyph-name="o" unicode="o" horiz-adv-x="1186" 
d="M1106 498q0 -152 -65.5 -272t-184 -186.5t-266.5 -66.5q-146 0 -262 67.5t-182 189t-66 268.5q0 116 37.5 212.5t107 168t164 110.5t203.5 39q110 0 205 -38t165 -110t107 -170t37 -212zM909 494q0 82 -23.5 155t-66 124.5t-100 79.5t-125.5 28q-137 0 -227.5 -108
t-90.5 -273q0 -109 40.5 -196t113 -135t164.5 -48q89 0 161 47.5t113 133.5t41 192z" />
    <glyph glyph-name="p" unicode="p" horiz-adv-x="1190" 
d="M319 1001l11 -176q58 94 147 143.5t201 49.5q99 0 177 -35t136 -102t88.5 -161t30.5 -206q0 -115 -30.5 -213.5t-88.5 -168.5t-138.5 -108t-178.5 -38q-80 0 -146 21.5t-113.5 64.5t-84.5 110q12 -94 12 -192v-408h-186v981q0 229 -13 438h176zM639 860q-83 0 -151.5 -47
t-107 -129t-38.5 -184q0 -98 39 -180t105.5 -128.5t148.5 -46.5q121 0 199.5 101t78.5 256q0 79 -19 145.5t-55.5 114.5t-86.5 73t-113 25z" />
    <glyph glyph-name="q" unicode="q" horiz-adv-x="1184" 
d="M1036 1001v-1419h-184v434q0 43 2.5 88.5t7.5 69.5q-113 -188 -346 -188q-97 0 -179 36t-139.5 104t-87.5 161.5t-30 208.5q0 156 55 274.5t155.5 183t231.5 64.5q121 0 211 -54t133 -153q-6 27 -6 59q0 80 -4 119v12h180zM563 860q-81 0 -147.5 -47t-103 -128.5
t-36.5 -184.5q0 -156 79 -255.5t204 -99.5q81 0 148 46t104 127t37 182t-37 183.5t-103 129.5t-145 47z" />
    <glyph glyph-name="r" unicode="r" horiz-adv-x="737" 
d="M143 1001h172l9 -178q45 94 117.5 142.5t168.5 48.5q50 0 101 -13v-170q-48 17 -88 17q-97 0 -161 -56.5t-93 -144t-29 -182.5v-72v-393h-184v610q0 148 -13 391z" />
    <glyph glyph-name="s" unicode="s" horiz-adv-x="774" 
d="M653 977l-14 -156q-98 49 -203 49q-77 0 -122.5 -34.5t-45.5 -90.5q0 -58 45 -89t160.5 -88.5t175.5 -118.5t60 -162q0 -68 -25.5 -124.5t-74.5 -97t-117.5 -62t-147.5 -21.5q-138 0 -260 57v166q72 -35 127 -50.5t108 -15.5q55 0 99 17t69 47t25 67q0 57 -47.5 89
t-161 91t-172.5 120.5t-59 156.5q0 87 43 153t122.5 102t182.5 36q111 0 233 -41z" />
    <glyph glyph-name="t" unicode="t" horiz-adv-x="752" 
d="M410 1290v-293h266v-145h-266v-393q0 -135 12 -197q9 -54 49.5 -85.5t103.5 -31.5q58 0 121 31v-160q-88 -28 -172 -28q-130 0 -196 53t-84.5 139t-18.5 223v449h-231v145h231v230z" />
    <glyph glyph-name="u" unicode="u" horiz-adv-x="1159" 
d="M1004 999v-630q0 -82 14 -369h-172l-8 156q-61 -85 -146 -127.5t-192 -42.5q-209 0 -290 130t-81 353v530h186v-464q0 -55 2.5 -114t7.5 -92t15 -61q27 -66 77.5 -100.5t119.5 -34.5q64 0 116 25.5t89 73.5t57 115t20 147v67v438h185z" />
    <glyph glyph-name="v" unicode="v" horiz-adv-x="967" 
d="M954 1001l-360 -1001h-213l-369 1001h201l205 -577q18 -54 32.5 -93.5t25 -76t16.5 -80.5q10 67 43 160l235 667h184z" />
    <glyph glyph-name="w" unicode="w" horiz-adv-x="1622" 
d="M1610 1001l-320 -1001h-215l-172 514q-36 112 -52 166.5t-40 161.5q-37 -163 -90 -324l-166 -518h-213l-330 1001h203l164 -538q51 -149 76 -295q1 3 18.5 85t38.5 124l197 624h217l182 -550q17 -46 41 -135.5t37 -147.5q5 43 14 82.5t26 99.5t31 107l168 544h185z" />
    <glyph glyph-name="x" unicode="x" horiz-adv-x="973" 
d="M924 1001l-320 -475l357 -526h-230l-186 289q-47 71 -66 121q-7 -18 -14 -33.5t-21.5 -40t-25.5 -43.5l-189 -293h-217l359 526l-332 475h227l164 -247q47 -75 66 -125q6 19 17.5 42t25 44.5t24.5 40.5l156 245h205z" />
    <glyph glyph-name="y" unicode="y" horiz-adv-x="965" 
d="M952 1001l-356 -991q-56 -154 -94.5 -233.5t-115.5 -140t-198 -60.5q-46 0 -114 16l10 150q48 -18 88 -18q89 0 142 66t83 169l-385 1042h201l223 -632q45 -132 53 -207q10 61 43 160l236 679h184z" />
    <glyph glyph-name="z" unicode="z" horiz-adv-x="973" 
d="M864 1001v-157l-483 -588q-37 -41 -57.5 -65t-47.5 -54q36 8 70 8h88h453v-145h-813v152l473 581q50 61 112 125q-47 -4 -141 -4h-422v147h768z" />
    <glyph glyph-name="braceleft" unicode="{" horiz-adv-x="1010" 
d="M453 528q67 -39 92.5 -92.5t25.5 -154.5v-396q0 -74 19.5 -111t59 -48t116.5 -11v-133q-95 0 -157.5 10.5t-112 41.5t-75.5 92t-26 155v389q0 91 -25.5 134.5t-88.5 58.5v131q60 16 87 60.5t27 127.5v408q0 125 45 186.5t124 80t202 18.5v-134q-83 0 -124 -12.5t-56 -48
t-15 -106.5v-402q0 -69 -10.5 -112t-36 -73.5t-71.5 -58.5z" />
    <glyph glyph-name="bar" unicode="|" horiz-adv-x="1024" 
d="M420 1364h184v-1706h-184v1706z" />
    <glyph glyph-name="braceright" unicode="}" horiz-adv-x="1010" 
d="M557 528q-68 41 -93.5 94t-25.5 154v395q0 103 -37 136.5t-141 33.5h-16v134q100 0 162.5 -8.5t109.5 -36.5t72.5 -89.5t25.5 -164.5v-390q0 -88 26 -132.5t89 -59.5v-131q-61 -16 -88 -60.5t-27 -128.5v-407q0 -121 -45 -184t-122 -82t-203 -19v133q83 0 123.5 12.5
t55.5 48.5t15 107v402q0 99 25 151.5t94 91.5z" />
    <glyph glyph-name="asciitilde" unicode="~" horiz-adv-x="1024" 
d="M125 530l-107 70q44 95 84.5 147t91 77.5t113.5 25.5q50 0 96.5 -15.5t120 -49t114.5 -47t87 -13.5q57 0 94 27.5t80 101.5l109 -63q-119 -244 -308 -244q-59 0 -131 31.5t-144.5 62.5t-131.5 31q-51 0 -89 -32t-79 -110z" />
    <glyph glyph-name="nonbreakingspace" unicode="&#xa0;" horiz-adv-x="1229" 
 />
    <glyph glyph-name="exclamdown" unicode="&#xa1;" horiz-adv-x="801" 
d="M467 -365h-225l32 986h168zM463 791h-211v210h211v-210z" />
    <glyph glyph-name="cent" unicode="&#xa2;" 
d="M918 1167l-13 -163q-75 37 -162 43v-705q56 4 91.5 15.5t91.5 43.5l16 -168q-98 -44 -199 -51v-162h-104v162q-137 15 -240.5 82.5t-158 177.5t-54.5 252q0 139 55 249t158.5 178t239.5 83v158h104v-158q66 -7 101.5 -15t73.5 -22zM639 1038q-82 -23 -138 -69.5t-86 -114
t-30 -154.5q0 -90 30.5 -162t87 -119.5t136.5 -68.5v688z" />
    <glyph glyph-name="sterling" unicode="&#xa3;" 
d="M1006 1337l-17 -170q-122 50 -203 50q-121 0 -196.5 -73.5t-87.5 -197.5q-6 -57 -6 -174h317v-106h-313v-504h483v-162h-858v162h182v504h-164v106h162v47q0 105 7.5 174t25.5 117t51 94q60 83 157.5 127.5t219.5 44.5q63 0 124.5 -10t115.5 -29z" />
    <glyph glyph-name="currency" unicode="&#xa4;" 
d="M68 213l157 160q-78 107 -78 231q0 62 19.5 116.5t60.5 110.5l-164 162l89 88l161 -161q57 41 113.5 60t122.5 19q121 0 233 -77l162 157l86 -86l-160 -159q80 -113 80 -232q0 -118 -78 -229l162 -160l-88 -88l-160 160q-111 -80 -235 -80q-119 0 -236 80l-161 -160z
M549 858q-69 0 -128 -34.5t-93.5 -93.5t-34.5 -128t34.5 -128t93.5 -93.5t128 -34.5t128 34.5t93.5 93.5t34.5 128t-34.5 128t-93.5 93.5t-128 34.5z" />
    <glyph glyph-name="yen" unicode="&#xa5;" 
d="M823 887h203v-107h-264l-92 -168h336v-106h-357v-506h-192v506h-365v106h342l-94 168h-268v107h207l-271 479h242l262 -512q23 -44 43 -102q16 52 39 96l262 518h234z" />
    <glyph glyph-name="brokenbar" unicode="&#xa6;" horiz-adv-x="1024" 
d="M420 1364h184v-690h-184v690zM420 313h184v-655h-184v655z" />
    <glyph glyph-name="section" unicode="&#xa7;" 
d="M901 1450l-18 -172q-151 57 -293 57q-130 0 -208.5 -52.5t-78.5 -141.5q0 -93 74.5 -140.5t253.5 -121t269.5 -151t90.5 -212.5q0 -97 -50 -169.5t-155 -125.5q181 -88 181 -274q0 -113 -64 -201t-183 -135t-271 -47q-182 0 -334 53l16 180q167 -71 328 -71
q147 0 230 54.5t83 151.5q0 102 -79 153t-245.5 118.5t-252.5 142.5t-86 213q0 105 52.5 182t149.5 111q-58 32 -100 72t-64 92.5t-22 118.5q0 104 59 185t166.5 126t243.5 45q164 0 307 -41zM379 811q-64 -56 -91.5 -106t-27.5 -107q0 -67 39.5 -114.5t132.5 -92.5
q68 -33 287 -117q61 50 85.5 96t24.5 107q0 93 -67.5 145t-183.5 101z" />
    <glyph glyph-name="dieresis" unicode="&#xa8;" horiz-adv-x="1024" 
d="M414 1442v-199h-178v199h178zM786 1442v-199h-178v199h178z" />
    <glyph glyph-name="copyright" unicode="&#xa9;" horiz-adv-x="1608" 
d="M1051 1040l-13 -120q-94 49 -178 49q-87 0 -156.5 -35.5t-108 -99.5t-38.5 -146t40 -148t110.5 -102.5t158.5 -36.5q81 0 183 37l8 -125q-88 -26 -189 -26q-135 0 -238.5 48.5t-158.5 138.5t-55 212q0 114 55.5 203t156 138.5t226.5 49.5q112 0 197 -37zM807 1391
q189 0 351 -95.5t256.5 -259t94.5 -354.5t-94.5 -354.5t-257 -259t-352.5 -95.5q-191 0 -353.5 95.5t-258 259t-95.5 354.5q0 192 95.5 355t258.5 258.5t355 95.5zM807 1290q-123 0 -231 -46t-192 -131.5t-129.5 -196.5t-45.5 -234q0 -162 80 -302.5t217.5 -223t298.5 -82.5
q160 0 297.5 82t217 221t79.5 305q0 165 -79 304.5t-215.5 221.5t-297.5 82z" />
    <glyph glyph-name="ordfeminine" unicode="&#xaa;" horiz-adv-x="727" 
d="M156 1333q100 58 217 58q146 0 204 -70t58 -219q0 -27 -0.5 -43.5t-1.5 -36.5q0 -166 8 -248h-123q-2 27 -2 82q-39 -47 -87.5 -68.5t-115.5 -21.5q-101 0 -164 51.5t-63 134.5q0 97 88 149t248 52q27 0 44.5 -0.5t37.5 -1.5q-3 131 -150 131q-52 0 -96 -14.5t-96 -48.5z
M506 1055q-21 2 -53 2q-228 0 -228 -105q0 -36 32 -60t83 -24q81 0 123.5 52t42.5 135zM641 670v-97h-535v97h535z" />
    <glyph glyph-name="guillemotleft" unicode="&#xab;" horiz-adv-x="1096" 
d="M961 903l-254 -397l258 -406h-174l-283 406l274 397h179zM563 903l-254 -397l258 -406h-174l-282 406l274 397h178z" />
    <glyph glyph-name="logicalnot" unicode="&#xac;" horiz-adv-x="1024" 
d="M770 0v375h-702v172h886v-547h-184z" />
    <glyph glyph-name="registered" unicode="&#xae;" horiz-adv-x="1608" 
d="M543 1073h205q143 0 236 -42t93 -169q0 -68 -39.5 -115t-115.5 -67q48 -28 82 -98l145 -291h-154l-106 235q-22 48 -40.5 70t-43.5 29.5t-70 7.5h-59v-342h-133v782zM676 963v-220h65q106 0 152.5 25.5t46.5 85.5q0 58 -44 83.5t-144 25.5h-76zM807 1391q189 0 351 -95.5
t256.5 -259t94.5 -354.5t-94.5 -354.5t-257 -259t-352.5 -95.5q-191 0 -353.5 95.5t-258 259t-95.5 354.5q0 192 95.5 355t258.5 258.5t355 95.5zM807 1290q-123 0 -231 -46t-192 -131.5t-129.5 -196.5t-45.5 -234q0 -162 80 -302.5t217.5 -223t298.5 -82.5q160 0 297.5 82
t217 221t79.5 305q0 165 -79 304.5t-215.5 221.5t-297.5 82z" />
    <glyph glyph-name="macron" unicode="&#xaf;" horiz-adv-x="1024" 
d="M850 1401v-115h-678v115h678z" />
    <glyph glyph-name="degree" unicode="&#xb0;" horiz-adv-x="768" 
d="M86 1202q0 77 40 145t108 107t149 39q62 0 117 -23t96 -63t63.5 -93t22.5 -112q0 -78 -40 -146.5t-108 -107.5t-151 -39q-81 0 -149 39t-108 107.5t-40 146.5zM203 1202q0 -48 24 -90t66 -66t90 -24t90.5 24t67 65t24.5 89q0 49 -24.5 90.5t-67 65.5t-90.5 24t-90 -24
t-66 -65.5t-24 -88.5z" />
    <glyph glyph-name="plusminus" unicode="&#xb1;" 
d="M473 745h-395v150h395v383h152v-383h395v-150h-395v-383h-152v383zM78 117v149h942v-149h-942z" />
    <glyph glyph-name="twosuperior" unicode="&#xb2;" horiz-adv-x="727" 
d="M113 1321q71 31 117 42t108 11q60 0 110 -17t84.5 -47t54 -74.5t19.5 -94.5q0 -82 -51 -168t-116.5 -153t-157.5 -148h22h320v-129h-527v145q134 112 244.5 233t110.5 216q0 31 -16.5 54.5t-47.5 37.5t-68 14q-82 0 -190 -65z" />
    <glyph glyph-name="threesuperior" unicode="&#xb3;" horiz-adv-x="727" 
d="M117 1335q102 39 209 39q131 0 204.5 -59.5t73.5 -163.5q0 -120 -123 -180q68 -33 99.5 -81.5t31.5 -119.5t-37 -125t-104.5 -83.5t-159.5 -29.5q-100 0 -217 37l8 146q71 -31 115.5 -42t87.5 -11q67 0 109.5 33t42.5 85q0 125 -205 125q-27 0 -55 -2v133h45
q102 0 156.5 29.5t54.5 85.5q0 45 -37.5 72.5t-98.5 27.5q-48 0 -91.5 -12t-98.5 -39z" />
    <glyph glyph-name="acute" unicode="&#xb4;" horiz-adv-x="1024" 
d="M764 1483l-236 -281h-131l162 281h205z" />
    <glyph glyph-name="mu" unicode="&#xb5;" horiz-adv-x="1098" 
d="M121 -346v1329h184v-532q0 -106 16 -163t58 -102q72 -69 168 -69q90 0 146 52t79 130.5t23 167.5v516h184v-983h-184v158q-46 -95 -105.5 -138t-146.5 -43q-78 0 -133 33t-105 109v-465h-184z" />
    <glyph glyph-name="paragraph" unicode="&#xb6;" 
d="M424 -418v1026q-12 -2 -27 -2q-103 0 -183.5 48t-124.5 134t-44 193q0 100 32.5 174t90.5 120t138.5 68.5t176.5 22.5h543v-143h-104v-1641h-158v1641h-180v-1641h-160z" />
    <glyph glyph-name="cedilla" unicode="&#xb8;" horiz-adv-x="1024" 
d="M713 0l-86 -117q52 8 73 8q71 0 116.5 -40t45.5 -101q0 -51 -29.5 -91.5t-83 -62.5t-122.5 -22q-101 0 -191 41l35 74q60 -27 133 -27q50 0 78.5 20.5t28.5 55.5q0 34 -27.5 56t-69.5 22q-26 0 -75 -15l-33 33l121 166h86z" />
    <glyph glyph-name="onesuperior" unicode="&#xb9;" horiz-adv-x="727" 
d="M479 1364v-821h-145v495v140l-103 -93l-84 103l207 176h125z" />
    <glyph glyph-name="ordmasculine" unicode="&#xba;" horiz-adv-x="834" 
d="M748 1071q0 -92 -42.5 -164t-117 -112.5t-172.5 -40.5q-93 0 -169 41t-118.5 112.5t-42.5 163.5q0 93 42.5 165.5t118.5 113.5t169 41q98 0 172.5 -40.5t117 -113t42.5 -166.5zM608 1069q0 62 -24 112.5t-68 78.5t-98 28q-86 0 -139.5 -60.5t-53.5 -156.5q0 -95 54 -155
t139 -60q54 0 98 27.5t68 75.5t24 110zM727 670v-97h-621v97h621z" />
    <glyph glyph-name="guillemotright" unicode="&#xbb;" horiz-adv-x="1096" 
d="M135 903h178l275 -397l-283 -406h-174l258 406zM535 903h176l274 -397l-280 -406h-177l260 406z" />
    <glyph glyph-name="onequarter" unicode="&#xbc;" horiz-adv-x="1765" 
d="M479 1366v-823h-145v495v140l-103 -91l-84 103l207 176h125zM1315 1432l-748 -1498h-118l745 1498h121zM1604 821v-520h102v-129h-102v-172h-146v172h-360v115l319 534h187zM1458 301l4 293q3 16 3 36.5t1 31.5q-21 -39 -67 -116t-86 -145.5t-51 -97.5l-2 -2h198z" />
    <glyph glyph-name="onehalf" unicode="&#xbd;" horiz-adv-x="1765" 
d="M479 1366v-823h-145v495v140l-103 -91l-84 103l207 176h125zM1315 1432l-748 -1498h-118l745 1498h121zM1149 778q71 31 119 42t106 11q59 0 110 -17t86 -47.5t55 -74t20 -94.5q0 -118 -92.5 -231.5t-235.5 -237.5h24h320v-129h-528v145q187 163 271.5 270t84.5 177
q0 47 -37.5 77.5t-95.5 30.5q-83 0 -191 -65z" />
    <glyph glyph-name="threequarters" unicode="&#xbe;" horiz-adv-x="1765" 
d="M119 1335q102 39 209 39q131 0 204.5 -59.5t73.5 -163.5q0 -120 -123 -180q68 -33 99.5 -81.5t31.5 -119.5t-37 -125t-104.5 -83.5t-159.5 -29.5q-100 0 -217 37l8 146q75 -32 117.5 -42.5t85.5 -10.5q67 0 109.5 33t42.5 85q0 125 -205 125q-27 0 -55 -2v133h45
q102 0 156.5 29.5t54.5 85.5q0 45 -37.5 72.5t-98.5 27.5q-48 0 -91.5 -12t-98.5 -39zM1317 1432l-748 -1498h-118l745 1498h121zM1606 821v-520h102v-129h-102v-172h-146v172h-360v115l319 534h187zM1460 301l4 293q1 17 1.5 31t0.5 37q-18 -37 -53 -95.5t-57.5 -95.5
t-52.5 -91t-39 -77l-2 -2h198z" />
    <glyph glyph-name="questiondown" unicode="&#xbf;" horiz-adv-x="1042" 
d="M844 -328q-89 -31 -168 -45t-166 -14q-91 0 -169 26t-133.5 73.5t-85.5 112.5t-30 140q0 59 17 111.5t59 114t117 147.5q50 59 76 99t34 79.5t8 101.5h179q0 -76 -10 -132t-34 -100t-69 -97q-20 -22 -55.5 -62t-59.5 -75t-40.5 -77.5t-16.5 -86.5q0 -63 29 -107.5
t83.5 -69t129.5 -24.5q136 0 290 74zM387 786v213h209v-213h-209z" />
    <glyph glyph-name="Agrave" unicode="&#xc0;" horiz-adv-x="1399" 
d="M797 1366l592 -1366h-220l-143 346h-664l-141 -346h-211l582 1366h205zM958 512l-157 381q-47 109 -70 171.5t-41 133.5q-15 -55 -35.5 -109.5t-79.5 -199.5l-151 -377h534zM449 1792h204l162 -281h-131z" />
    <glyph glyph-name="Aacute" unicode="&#xc1;" horiz-adv-x="1399" 
d="M797 1366l592 -1366h-220l-143 346h-664l-141 -346h-211l582 1366h205zM958 512l-157 381q-47 109 -70 171.5t-41 133.5q-15 -55 -35.5 -109.5t-79.5 -199.5l-151 -377h534zM952 1792l-235 -281h-131l162 281h204z" />
    <glyph glyph-name="Acircumflex" unicode="&#xc2;" horiz-adv-x="1399" 
d="M797 1366l592 -1366h-220l-143 346h-664l-141 -346h-211l582 1366h205zM958 512l-157 381q-47 109 -70 171.5t-41 133.5q-15 -55 -35.5 -109.5t-79.5 -199.5l-151 -377h534zM995 1511h-170l-133 189l-139 -189h-152l205 281h182z" />
    <glyph glyph-name="Atilde" unicode="&#xc3;" horiz-adv-x="1399" 
d="M797 1366l592 -1366h-220l-143 346h-664l-141 -346h-211l582 1366h205zM958 512l-157 381q-47 109 -70 171.5t-41 133.5q-15 -55 -35.5 -109.5t-79.5 -199.5l-151 -377h534zM1036 1763q-14 -100 -66.5 -157.5t-127.5 -57.5q-33 0 -77.5 15t-78.5 29t-67.5 24t-63.5 10
q-35 0 -58 -21.5t-38 -68.5h-94q15 104 67.5 158.5t138.5 54.5q34 0 69.5 -10.5t81.5 -30.5t69 -27.5t51 -7.5q41 0 62.5 20t35.5 70h96z" />
    <glyph glyph-name="Adieresis" unicode="&#xc4;" horiz-adv-x="1399" 
d="M797 1366l592 -1366h-220l-143 346h-664l-141 -346h-211l582 1366h205zM958 512l-157 381q-47 109 -70 171.5t-41 133.5q-15 -55 -35.5 -109.5t-79.5 -199.5l-151 -377h534zM604 1749v-199h-178v199h178zM977 1749v-199h-178v199h178z" />
    <glyph glyph-name="Aring" unicode="&#xc5;" horiz-adv-x="1399" 
d="M797 1366l592 -1366h-220l-143 346h-664l-141 -346h-211l582 1366h205zM958 512l-157 381q-47 109 -70 171.5t-41 133.5q-15 -55 -35.5 -109.5t-79.5 -199.5l-151 -377h534zM698 1847q52 0 98.5 -27t73.5 -72.5t27 -98.5q0 -83 -59 -141t-140 -58q-80 0 -139 59t-59 140
q0 53 27 98.5t72.5 72.5t98.5 27zM698 1747q-40 0 -69 -29t-29 -69q0 -27 13.5 -49.5t36 -36t48.5 -13.5q27 0 49.5 13.5t36 36t13.5 49.5q0 40 -29 69t-70 29z" />
    <glyph glyph-name="AE" unicode="&#xc6;" horiz-adv-x="1847" 
d="M1696 1366v-168h-549l31 -410h485v-167h-473l31 -455h499v-166h-680l-26 350h-576l-207 -350h-219l824 1366h860zM956 1223l-424 -707h469z" />
    <glyph glyph-name="Ccedilla" unicode="&#xc7;" horiz-adv-x="1196" 
d="M1130 1315l-16 -185q-77 42 -139.5 59t-143.5 17q-153 0 -271.5 -64.5t-184.5 -181.5t-66 -268q0 -148 68.5 -269.5t191.5 -190t273 -68.5q64 0 130 13.5t158 47.5l15 -188q-74 -25 -141.5 -36t-149.5 -11q-37 0 -66 2l-79 -109q54 11 75 11q71 0 115.5 -39.5
t44.5 -102.5q0 -51 -30 -91.5t-84 -62.5t-123 -22q-92 0 -187 39l35 74q68 -29 133 -29q49 0 78 21t29 57q0 34 -26 56t-69 22q-32 0 -79 -15l-31 35l119 162q-118 16 -197 47t-154 88q-123 98 -189.5 242t-66.5 315q0 151 52.5 277.5t148 217.5t228 141t292.5 50
q174 0 307 -61z" />
    <glyph glyph-name="Egrave" unicode="&#xc8;" horiz-adv-x="1079" 
d="M936 1366v-168h-565v-401h524v-168h-524v-463h581v-166h-776v1366h760zM289 1792h205l161 -281h-131z" />
    <glyph glyph-name="Eacute" unicode="&#xc9;" horiz-adv-x="1079" 
d="M936 1366v-168h-565v-401h524v-168h-524v-463h581v-166h-776v1366h760zM793 1792l-236 -281h-131l162 281h205z" />
    <glyph glyph-name="Ecircumflex" unicode="&#xca;" horiz-adv-x="1079" 
d="M936 1366v-168h-565v-401h524v-168h-524v-463h581v-166h-776v1366h760zM836 1511h-170l-134 189l-139 -189h-151l204 281h183z" />
    <glyph glyph-name="Edieresis" unicode="&#xcb;" horiz-adv-x="1079" 
d="M936 1366v-168h-565v-401h524v-168h-524v-463h581v-166h-776v1366h760zM444 1749v-199h-178v199h178zM817 1749v-199h-178v199h178z" />
    <glyph glyph-name="Igrave" unicode="&#xcc;" horiz-adv-x="573" 
d="M383 1366v-1366h-195v1366h195zM35 1792h205l161 -281h-131z" />
    <glyph glyph-name="Iacute" unicode="&#xcd;" horiz-adv-x="573" 
d="M383 1366v-1366h-195v1366h195zM539 1792l-236 -281h-131l162 281h205z" />
    <glyph glyph-name="Icircumflex" unicode="&#xce;" horiz-adv-x="573" 
d="M383 1366v-1366h-195v1366h195zM582 1511h-170l-133 189l-140 -189h-151l205 281h182z" />
    <glyph glyph-name="Idieresis" unicode="&#xcf;" horiz-adv-x="573" 
d="M383 1366v-1366h-195v1366h195zM188 1749v-199h-178v199h178zM561 1749v-199h-178v199h178z" />
    <glyph glyph-name="Eth" unicode="&#xd0;" horiz-adv-x="1411" 
d="M176 1366h281q144 0 229 -10q183 -21 325.5 -112t221 -238.5t78.5 -327.5q0 -148 -55.5 -275t-159 -219.5t-242.5 -138.5q-52 -18 -104 -27t-114.5 -13.5t-150.5 -4.5h-309v629h-137v164h137v573zM369 1198v-405h340v-164h-340v-461h100q132 0 204.5 9.5t143.5 39.5
q91 38 155.5 107t99 161.5t34.5 198.5q0 164 -90 297t-236 182q-47 18 -120 26.5t-189 8.5h-102z" />
    <glyph glyph-name="Ntilde" unicode="&#xd1;" horiz-adv-x="1444" 
d="M1268 1366v-1366h-252l-432 741q-112 198 -154.5 280.5t-75.5 188.5q17 -225 17 -516v-694h-195v1366h266l465 -805q141 -245 189 -391q-13 137 -15 184q-2 80 -3.5 158t-2 98t-0.5 99v657h193zM1059 1763q-13 -99 -66 -157t-129 -58q-31 0 -75 14.5t-79 29t-68.5 24.5
t-63.5 10q-36 0 -58 -20.5t-39 -69.5h-94q32 213 207 213q34 0 68.5 -10.5t84 -31.5t69.5 -27.5t48 -6.5q41 0 63 21t36 69h96z" />
    <glyph glyph-name="Ograve" unicode="&#xd2;" horiz-adv-x="1518" 
d="M756 1391q206 0 356.5 -90.5t228.5 -251t78 -367.5q0 -162 -45.5 -293.5t-132 -224.5t-207.5 -142t-272 -49q-205 0 -356 91.5t-229.5 253t-78.5 364.5q0 153 44 282.5t128 224.5t208.5 148.5t277.5 53.5zM754 1237q-131 0 -233.5 -69.5t-158 -196t-55.5 -287.5
q0 -119 33 -224t94 -179.5t143.5 -114t182.5 -39.5q98 0 180.5 40t144 115t93.5 173.5t32 220.5q0 128 -32 230.5t-93.5 177.5t-145.5 114t-185 39zM508 1790h205l161 -281h-131z" />
    <glyph glyph-name="Oacute" unicode="&#xd3;" horiz-adv-x="1518" 
d="M756 1391q206 0 356.5 -90.5t228.5 -251t78 -367.5q0 -162 -45.5 -293.5t-132 -224.5t-207.5 -142t-272 -49q-205 0 -356 91.5t-229.5 253t-78.5 364.5q0 153 44 282.5t128 224.5t208.5 148.5t277.5 53.5zM754 1237q-131 0 -233.5 -69.5t-158 -196t-55.5 -287.5
q0 -119 33 -224t94 -179.5t143.5 -114t182.5 -39.5q98 0 180.5 40t144 115t93.5 173.5t32 220.5q0 128 -32 230.5t-93.5 177.5t-145.5 114t-185 39zM1012 1790l-236 -281h-131l162 281h205z" />
    <glyph glyph-name="Ocircumflex" unicode="&#xd4;" horiz-adv-x="1518" 
d="M756 1391q206 0 356.5 -90.5t228.5 -251t78 -367.5q0 -162 -45.5 -293.5t-132 -224.5t-207.5 -142t-272 -49q-205 0 -356 91.5t-229.5 253t-78.5 364.5q0 153 44 282.5t128 224.5t208.5 148.5t277.5 53.5zM754 1237q-131 0 -233.5 -69.5t-158 -196t-55.5 -287.5
q0 -119 33 -224t94 -179.5t143.5 -114t182.5 -39.5q98 0 180.5 40t144 115t93.5 173.5t32 220.5q0 128 -32 230.5t-93.5 177.5t-145.5 114t-185 39zM1055 1509h-170l-133 189l-140 -189h-151l205 281h182z" />
    <glyph glyph-name="Otilde" unicode="&#xd5;" horiz-adv-x="1518" 
d="M756 1391q206 0 356.5 -90.5t228.5 -251t78 -367.5q0 -162 -45.5 -293.5t-132 -224.5t-207.5 -142t-272 -49q-205 0 -356 91.5t-229.5 253t-78.5 364.5q0 153 44 282.5t128 224.5t208.5 148.5t277.5 53.5zM754 1237q-131 0 -233.5 -69.5t-158 -196t-55.5 -287.5
q0 -119 33 -224t94 -179.5t143.5 -114t182.5 -39.5q98 0 180.5 40t144 115t93.5 173.5t32 220.5q0 128 -32 230.5t-93.5 177.5t-145.5 114t-185 39zM1094 1763q-13 -99 -66.5 -157t-128.5 -58q-31 0 -75 14.5t-82 30t-68 24.5t-62 9q-35 0 -57 -20.5t-39 -69.5h-94
q15 104 67.5 158.5t139.5 54.5q34 0 68.5 -10.5t84 -31.5t69.5 -27.5t48 -6.5q41 0 62.5 20t35.5 70h97z" />
    <glyph glyph-name="Odieresis" unicode="&#xd6;" horiz-adv-x="1518" 
d="M756 1391q206 0 356.5 -90.5t228.5 -251t78 -367.5q0 -162 -45.5 -293.5t-132 -224.5t-207.5 -142t-272 -49q-205 0 -356 91.5t-229.5 253t-78.5 364.5q0 153 44 282.5t128 224.5t208.5 148.5t277.5 53.5zM754 1237q-131 0 -233.5 -69.5t-158 -196t-55.5 -287.5
q0 -119 33 -224t94 -179.5t143.5 -114t182.5 -39.5q98 0 180.5 40t144 115t93.5 173.5t32 220.5q0 128 -32 230.5t-93.5 177.5t-145.5 114t-185 39zM662 1749v-199h-179v199h179zM1034 1749v-199h-178v199h178z" />
    <glyph glyph-name="multiply" unicode="&#xd7;" 
d="M444 696l-299 299l107 107l299 -299l299 299l106 -107l-299 -299l299 -299l-106 -106l-299 299l-299 -299l-107 106z" />
    <glyph glyph-name="Oslash" unicode="&#xd8;" horiz-adv-x="1518" 
d="M272 174q-82 99 -128 231t-46 277q0 203 78 364.5t226.5 253t351.5 91.5q221 0 374 -95l121 160l109 -84l-125 -164q59 -65 101.5 -148t63.5 -177t21 -199q0 -162 -45.5 -293.5t-132 -225t-206.5 -143t-271 -49.5q-230 0 -389 109l-127 -164l-107 84zM397 332l615 825
q-52 40 -116 60t-138 20q-99 0 -182.5 -38.5t-143.5 -112t-92.5 -176t-32.5 -226.5q0 -190 90 -352zM1108 1055l-616 -832q65 -50 129 -72t139 -22q98 0 181 39.5t144 113.5t93 173.5t32 222.5q0 216 -102 377z" />
    <glyph glyph-name="Ugrave" unicode="&#xd9;" horiz-adv-x="1409" 
d="M1233 1364v-768q0 -158 -17.5 -245t-62.5 -158q-68 -108 -182 -164t-264 -56q-113 0 -207.5 33t-162.5 94.5t-108 151.5q-53 118 -53 369v743h195v-715q0 -140 9.5 -214t39.5 -132q39 -77 117.5 -120.5t175.5 -43.5q108 0 178 48t104.5 129.5t40.5 187.5q2 26 2 137v723
h195zM455 1790h204l162 -281h-131z" />
    <glyph glyph-name="Uacute" unicode="&#xda;" horiz-adv-x="1409" 
d="M1233 1364v-768q0 -158 -17.5 -245t-62.5 -158q-68 -108 -182 -164t-264 -56q-113 0 -207.5 33t-162.5 94.5t-108 151.5q-53 118 -53 369v743h195v-715q0 -140 9.5 -214t39.5 -132q39 -77 117.5 -120.5t175.5 -43.5q108 0 178 48t104.5 129.5t40.5 187.5q2 26 2 137v723
h195zM956 1790l-235 -281h-131l162 281h204z" />
    <glyph glyph-name="Ucircumflex" unicode="&#xdb;" horiz-adv-x="1409" 
d="M1233 1364v-768q0 -158 -17.5 -245t-62.5 -158q-68 -108 -182 -164t-264 -56q-113 0 -207.5 33t-162.5 94.5t-108 151.5q-53 118 -53 369v743h195v-715q0 -140 9.5 -214t39.5 -132q39 -77 117.5 -120.5t175.5 -43.5q108 0 178 48t104.5 129.5t40.5 187.5q2 26 2 137v723
h195zM999 1509h-170l-133 189l-139 -189h-151l204 281h183z" />
    <glyph glyph-name="Udieresis" unicode="&#xdc;" horiz-adv-x="1409" 
d="M1233 1364v-768q0 -158 -17.5 -245t-62.5 -158q-68 -108 -182 -164t-264 -56q-113 0 -207.5 33t-162.5 94.5t-108 151.5q-53 118 -53 369v743h195v-715q0 -140 9.5 -214t39.5 -132q39 -77 117.5 -120.5t175.5 -43.5q108 0 178 48t104.5 129.5t40.5 187.5q2 26 2 137v723
h195zM608 1749v-199h-178v199h178zM981 1749v-199h-178v199h178z" />
    <glyph glyph-name="Yacute" unicode="&#xdd;" horiz-adv-x="1288" 
d="M1278 1366l-533 -786v-580h-194v573l-541 793h242l338 -512q41 -61 59 -102q29 56 56 96l342 518h231zM897 1792l-235 -281h-132l162 281h205z" />
    <glyph glyph-name="Thorn" unicode="&#xde;" horiz-adv-x="1092" 
d="M176 1366h197v-192h76q144 0 217 -8t129 -29q115 -43 181 -141t66 -228t-63.5 -228.5t-177.5 -144.5q-105 -41 -320 -41h-108v-354h-197v1366zM373 1010v-488h106q158 0 258.5 51t100.5 193q0 104 -70 166.5t-195 71.5q-100 6 -200 6z" />
    <glyph glyph-name="germandbls" unicode="&#xdf;" horiz-adv-x="1182" 
d="M141 0v811v76q0 148 15.5 236.5t54.5 156.5q37 64 95 110.5t133 71.5t163 25q91 0 168 -28t131 -79.5t84.5 -124.5t30.5 -161q0 -115 -61 -196.5t-173 -119.5q65 -3 120.5 -31.5t97 -78t64.5 -117t23 -145.5q0 -99 -34 -177t-94 -132t-144 -82.5t-178 -28.5
q-61 0 -170 14v164q81 -31 149 -31q82 0 144 35.5t95.5 99t33.5 144.5q0 286 -371 286v150q139 0 220 58t81 190q0 107 -62.5 175t-162.5 68q-135 0 -194 -97.5t-70 -248.5q-2 -43 -2 -166v-827h-187z" />
    <glyph glyph-name="agrave" unicode="&#xe0;" horiz-adv-x="1083" 
d="M197 926q82 48 162.5 70t172.5 22q141 0 236.5 -53.5t132.5 -151.5q31 -82 31 -278v-195q0 -113 2.5 -197.5t7.5 -142.5h-170q-2 35 -2 78q0 53 2 94q-58 -97 -138 -141.5t-198 -44.5q-104 0 -183.5 37t-122 105.5t-42.5 158.5q0 79 34.5 139.5t101.5 103t164 63.5
t224 21q76 0 140 -4q-2 129 -63 189.5t-187 60.5q-82 0 -150 -22.5t-145 -73.5zM756 473q-62 6 -101 6q-370 0 -370 -190q0 -46 24 -81t68 -55t100 -20q103 0 165 45t88 121t26 174zM289 1483h205l161 -281h-131z" />
    <glyph glyph-name="aacute" unicode="&#xe1;" horiz-adv-x="1083" 
d="M197 926q82 48 162.5 70t172.5 22q141 0 236.5 -53.5t132.5 -151.5q31 -82 31 -278v-195q0 -113 2.5 -197.5t7.5 -142.5h-170q-2 35 -2 78q0 53 2 94q-58 -97 -138 -141.5t-198 -44.5q-104 0 -183.5 37t-122 105.5t-42.5 158.5q0 79 34.5 139.5t101.5 103t164 63.5
t224 21q76 0 140 -4q-2 129 -63 189.5t-187 60.5q-82 0 -150 -22.5t-145 -73.5zM756 473q-62 6 -101 6q-370 0 -370 -190q0 -46 24 -81t68 -55t100 -20q103 0 165 45t88 121t26 174zM793 1483l-236 -281h-131l162 281h205z" />
    <glyph glyph-name="acircumflex" unicode="&#xe2;" horiz-adv-x="1083" 
d="M197 926q82 48 162.5 70t172.5 22q141 0 236.5 -53.5t132.5 -151.5q31 -82 31 -278v-195q0 -113 2.5 -197.5t7.5 -142.5h-170q-2 35 -2 78q0 53 2 94q-58 -97 -138 -141.5t-198 -44.5q-104 0 -183.5 37t-122 105.5t-42.5 158.5q0 79 34.5 139.5t101.5 103t164 63.5
t224 21q76 0 140 -4q-2 129 -63 189.5t-187 60.5q-82 0 -150 -22.5t-145 -73.5zM756 473q-62 6 -101 6q-370 0 -370 -190q0 -46 24 -81t68 -55t100 -20q103 0 165 45t88 121t26 174zM838 1202h-170l-133 189l-140 -189h-151l205 281h182z" />
    <glyph glyph-name="atilde" unicode="&#xe3;" horiz-adv-x="1083" 
d="M197 926q82 48 162.5 70t172.5 22q141 0 236.5 -53.5t132.5 -151.5q31 -82 31 -278v-195q0 -113 2.5 -197.5t7.5 -142.5h-170q-2 35 -2 78q0 53 2 94q-58 -97 -138 -141.5t-198 -44.5q-104 0 -183.5 37t-122 105.5t-42.5 158.5q0 79 34.5 139.5t101.5 103t164 63.5
t224 21q76 0 140 -4q-2 129 -63 189.5t-187 60.5q-82 0 -150 -22.5t-145 -73.5zM756 473q-62 6 -101 6q-370 0 -370 -190q0 -46 24 -81t68 -55t100 -20q103 0 165 45t88 121t26 174zM877 1456q-13 -99 -66.5 -157t-128.5 -58q-31 0 -76.5 15t-79.5 29t-67.5 24t-63.5 10
q-35 0 -58 -21.5t-38 -68.5h-94q15 104 67.5 158.5t139.5 54.5q34 0 68.5 -10.5t84 -31.5t69.5 -27.5t48 -6.5q41 0 62.5 20t35.5 70h97z" />
    <glyph glyph-name="adieresis" unicode="&#xe4;" horiz-adv-x="1083" 
d="M197 926q82 48 162.5 70t172.5 22q141 0 236.5 -53.5t132.5 -151.5q31 -82 31 -278v-195q0 -113 2.5 -197.5t7.5 -142.5h-170q-2 35 -2 78q0 53 2 94q-58 -97 -138 -141.5t-198 -44.5q-104 0 -183.5 37t-122 105.5t-42.5 158.5q0 79 34.5 139.5t101.5 103t164 63.5
t224 21q76 0 140 -4q-2 129 -63 189.5t-187 60.5q-82 0 -150 -22.5t-145 -73.5zM756 473q-62 6 -101 6q-370 0 -370 -190q0 -46 24 -81t68 -55t100 -20q103 0 165 45t88 121t26 174zM444 1442v-199h-178v199h178zM817 1442v-199h-178v199h178z" />
    <glyph glyph-name="aring" unicode="&#xe5;" horiz-adv-x="1083" 
d="M197 926q82 48 162.5 70t172.5 22q141 0 236.5 -53.5t132.5 -151.5q31 -82 31 -278v-195q0 -113 2.5 -197.5t7.5 -142.5h-170q-2 35 -2 78q0 53 2 94q-58 -97 -138 -141.5t-198 -44.5q-104 0 -183.5 37t-122 105.5t-42.5 158.5q0 79 34.5 139.5t101.5 103t164 63.5
t224 21q76 0 140 -4q-2 129 -63 189.5t-187 60.5q-82 0 -150 -22.5t-145 -73.5zM756 473q-62 6 -101 6q-370 0 -370 -190q0 -46 24 -81t68 -55t100 -20q103 0 165 45t88 121t26 174zM541 1542q53 0 98.5 -27t72.5 -73.5t27 -98.5q0 -53 -27 -98.5t-72.5 -72.5t-98.5 -27
q-81 0 -140 59t-59 139q0 81 58 140t141 59zM541 1442q-27 0 -49.5 -13.5t-36 -36t-13.5 -49.5q0 -26 13.5 -48.5t36 -36t49.5 -13.5q40 0 69 29t29 69q0 41 -29 70t-69 29z" />
    <glyph glyph-name="ae" unicode="&#xe6;" horiz-adv-x="1751" 
d="M1669 459h-708q6 -100 50 -174t119 -113t175 -39q67 0 127.5 20t136.5 64v-180q-134 -51 -295 -51q-86 0 -177.5 23t-161.5 74t-87 134q-22 -103 -127 -167t-256 -64q-113 0 -198.5 37.5t-132 107t-46.5 160.5q0 106 53 172.5t136 100t176 45.5t194 12q22 0 62 -1t73 -2
q-3 123 -78 183.5t-202 60.5q-156 0 -295 -96v170q162 84 332 84q123 0 215.5 -46.5t124.5 -123.5q39 81 130.5 125.5t213.5 44.5q129 0 227.5 -56.5t153.5 -160.5q24 -47 38 -94t19.5 -104.5t7.5 -145.5zM1464 606q-6 86 -37 149.5t-84 96.5t-124 33q-106 0 -176 -75.5
t-82 -203.5h503zM782 473h-135q-68 0 -120 -4.5t-111 -23t-95 -56t-36 -98.5q0 -69 55 -113.5t139 -44.5t153.5 45t109.5 123.5t40 171.5z" />
    <glyph glyph-name="ccedilla" unicode="&#xe7;" horiz-adv-x="874" 
d="M809 973l-10 -164q-86 43 -181 43q-97 0 -175.5 -44t-122.5 -123.5t-44 -178.5q0 -104 42 -186t117 -127.5t173 -45.5q60 0 110.5 15t100.5 45l17 -168q-103 -53 -242 -53q-21 0 -37 2l-78 -105q49 8 78 8q69 0 114.5 -40t45.5 -101q0 -52 -30.5 -92t-85.5 -62t-124 -22
q-100 0 -186 41l35 72q64 -27 131 -27q53 0 80.5 21.5t27.5 58.5q0 32 -26.5 54t-65.5 22q-30 0 -80 -15l-33 35l119 160q-126 29 -216 97.5t-136.5 173t-46.5 233.5q0 113 37 206t105 162.5t160.5 107.5t201.5 38q121 0 225 -41z" />
    <glyph glyph-name="egrave" unicode="&#xe8;" horiz-adv-x="1069" 
d="M266 453q20 -149 109.5 -235.5t224.5 -86.5q80 0 156 23t157 71v-178q-91 -40 -165 -57t-156 -17q-116 0 -211 38t-162 109t-103 171.5t-36 220.5q0 153 58 270t166.5 181.5t246.5 64.5q162 0 258.5 -79.5t137 -209.5t40.5 -286h-721zM268 598h533q-10 82 -38 144.5
t-83 100.5t-135 38q-110 0 -183.5 -75.5t-93.5 -207.5zM283 1485h204l162 -281h-131z" />
    <glyph glyph-name="eacute" unicode="&#xe9;" horiz-adv-x="1069" 
d="M266 453q20 -149 109.5 -235.5t224.5 -86.5q80 0 156 23t157 71v-178q-91 -40 -165 -57t-156 -17q-116 0 -211 38t-162 109t-103 171.5t-36 220.5q0 153 58 270t166.5 181.5t246.5 64.5q162 0 258.5 -79.5t137 -209.5t40.5 -286h-721zM268 598h533q-10 82 -38 144.5
t-83 100.5t-135 38q-110 0 -183.5 -75.5t-93.5 -207.5zM786 1485l-235 -281h-131l162 281h204z" />
    <glyph glyph-name="ecircumflex" unicode="&#xea;" horiz-adv-x="1069" 
d="M266 453q20 -149 109.5 -235.5t224.5 -86.5q80 0 156 23t157 71v-178q-91 -40 -165 -57t-156 -17q-116 0 -211 38t-162 109t-103 171.5t-36 220.5q0 153 58 270t166.5 181.5t246.5 64.5q162 0 258.5 -79.5t137 -209.5t40.5 -286h-721zM268 598h533q-10 82 -38 144.5
t-83 100.5t-135 38q-110 0 -183.5 -75.5t-93.5 -207.5zM829 1204h-170l-133 189l-139 -189h-151l204 281h183z" />
    <glyph glyph-name="edieresis" unicode="&#xeb;" horiz-adv-x="1069" 
d="M266 453q20 -149 109.5 -235.5t224.5 -86.5q80 0 156 23t157 71v-178q-91 -40 -165 -57t-156 -17q-116 0 -211 38t-162 109t-103 171.5t-36 220.5q0 153 58 270t166.5 181.5t246.5 64.5q162 0 258.5 -79.5t137 -209.5t40.5 -286h-721zM268 598h533q-10 82 -38 144.5
t-83 100.5t-135 38q-110 0 -183.5 -75.5t-93.5 -207.5zM436 1444v-199h-178v199h178zM809 1444v-199h-178v199h178z" />
    <glyph glyph-name="igrave" unicode="&#xec;" horiz-adv-x="469" 
d="M328 1001v-1001h-187v1001h187zM-16 1485h204l162 -281h-131z" />
    <glyph glyph-name="iacute" unicode="&#xed;" horiz-adv-x="469" 
d="M328 1001v-1001h-187v1001h187zM485 1485l-235 -281h-131l162 281h204z" />
    <glyph glyph-name="icircumflex" unicode="&#xee;" horiz-adv-x="469" 
d="M328 1001v-1001h-187v1001h187zM530 1204h-170l-133 189l-139 -189h-151l204 281h183z" />
    <glyph glyph-name="idieresis" unicode="&#xef;" horiz-adv-x="469" 
d="M328 1001v-1001h-187v1001h187zM137 1442v-199h-178v199h178zM510 1442v-199h-178v199h178z" />
    <glyph glyph-name="eth" unicode="&#xf0;" horiz-adv-x="1188" 
d="M92 1309l35 90q189 -21 350 -76l271 176l57 -92l-205 -131q116 -47 211.5 -124.5t160.5 -176t99.5 -219t34.5 -248.5q0 -115 -37 -213t-102.5 -169t-162 -112t-210.5 -41q-147 0 -264 67.5t-183.5 187.5t-66.5 268q0 151 65.5 273t183.5 190.5t263 68.5q63 0 123 -14
q-58 62 -108.5 100.5t-131.5 79.5l-293 -188l-55 90l231 145q-28 10 -71.5 23.5t-86 23t-108.5 21.5zM909 489q0 119 -38 206.5t-109 134.5t-168 47q-91 0 -163 -48t-112 -134t-40 -197t40.5 -196.5t113 -133t163.5 -47.5q136 0 224.5 104.5t88.5 263.5z" />
    <glyph glyph-name="ntilde" unicode="&#xf1;" horiz-adv-x="1169" 
d="M315 1001l9 -159q114 176 344 176q126 0 202 -46t112 -121.5t47 -166t11 -219.5v-465h-184v451q0 108 -3.5 157.5t-12.5 87.5q-21 80 -76 122t-137 42q-92 0 -164 -55t-101 -150q-9 -27 -14.5 -63t-6.5 -78t-1 -147v-367h-186v494q-2 85 -3 156.5t-3.5 169t-6.5 181.5
h174zM920 1458q-13 -99 -66.5 -157t-128.5 -58q-31 0 -76.5 15t-79.5 29t-67.5 24t-63.5 10q-35 0 -58 -21.5t-38 -68.5h-94q15 104 67.5 158.5t139.5 54.5q34 0 68.5 -10.5t84 -31.5t69.5 -27.5t48 -6.5q41 0 62.5 20t35.5 70h97z" />
    <glyph glyph-name="ograve" unicode="&#xf2;" horiz-adv-x="1186" 
d="M1106 498q0 -152 -65.5 -272t-184 -186.5t-266.5 -66.5q-146 0 -262 67.5t-182 189t-66 268.5q0 116 37.5 212.5t107 168t164 110.5t203.5 39q110 0 205 -38t165 -110t107 -170t37 -212zM909 494q0 82 -23.5 155t-66 124.5t-100 79.5t-125.5 28q-137 0 -227.5 -108
t-90.5 -273q0 -109 40.5 -196t113 -135t164.5 -48q89 0 161 47.5t113 133.5t41 192zM342 1485h205l162 -281h-131z" />
    <glyph glyph-name="oacute" unicode="&#xf3;" horiz-adv-x="1186" 
d="M1106 498q0 -152 -65.5 -272t-184 -186.5t-266.5 -66.5q-146 0 -262 67.5t-182 189t-66 268.5q0 116 37.5 212.5t107 168t164 110.5t203.5 39q110 0 205 -38t165 -110t107 -170t37 -212zM909 494q0 82 -23.5 155t-66 124.5t-100 79.5t-125.5 28q-137 0 -227.5 -108
t-90.5 -273q0 -109 40.5 -196t113 -135t164.5 -48q89 0 161 47.5t113 133.5t41 192zM844 1485l-236 -281h-131l162 281h205z" />
    <glyph glyph-name="ocircumflex" unicode="&#xf4;" horiz-adv-x="1186" 
d="M1106 498q0 -152 -65.5 -272t-184 -186.5t-266.5 -66.5q-146 0 -262 67.5t-182 189t-66 268.5q0 116 37.5 212.5t107 168t164 110.5t203.5 39q110 0 205 -38t165 -110t107 -170t37 -212zM909 494q0 82 -23.5 155t-66 124.5t-100 79.5t-125.5 28q-137 0 -227.5 -108
t-90.5 -273q0 -109 40.5 -196t113 -135t164.5 -48q89 0 161 47.5t113 133.5t41 192zM889 1204h-170l-133 189l-140 -189h-151l205 281h182z" />
    <glyph glyph-name="otilde" unicode="&#xf5;" horiz-adv-x="1186" 
d="M1106 498q0 -152 -65.5 -272t-184 -186.5t-266.5 -66.5q-146 0 -262 67.5t-182 189t-66 268.5q0 116 37.5 212.5t107 168t164 110.5t203.5 39q110 0 205 -38t165 -110t107 -170t37 -212zM909 494q0 82 -23.5 155t-66 124.5t-100 79.5t-125.5 28q-137 0 -227.5 -108
t-90.5 -273q0 -109 40.5 -196t113 -135t164.5 -48q89 0 161 47.5t113 133.5t41 192zM928 1458q-13 -99 -66 -157t-129 -58q-31 0 -75 14.5t-82 30t-68 24.5t-62 9q-35 0 -57 -20.5t-39 -69.5h-94q15 104 67.5 158.5t139.5 54.5q34 0 68.5 -10.5t84 -31.5t69.5 -27.5t48 -6.5
q41 0 62.5 20t35.5 70h97z" />
    <glyph glyph-name="odieresis" unicode="&#xf6;" horiz-adv-x="1186" 
d="M1106 498q0 -152 -65.5 -272t-184 -186.5t-266.5 -66.5q-146 0 -262 67.5t-182 189t-66 268.5q0 116 37.5 212.5t107 168t164 110.5t203.5 39q110 0 205 -38t165 -110t107 -170t37 -212zM909 494q0 82 -23.5 155t-66 124.5t-100 79.5t-125.5 28q-137 0 -227.5 -108
t-90.5 -273q0 -109 40.5 -196t113 -135t164.5 -48q89 0 161 47.5t113 133.5t41 192zM496 1444v-199h-179v199h179zM868 1444v-199h-178v199h178z" />
    <glyph glyph-name="divide" unicode="&#xf7;" 
d="M78 621v151h942v-151h-942zM451 1104h196v-197h-196v197zM451 485h196v-194h-196v194z" />
    <glyph glyph-name="oslash" unicode="&#xf8;" horiz-adv-x="1186" 
d="M211 137q-131 154 -131 361q0 153 65.5 273.5t182.5 188.5t262 68q79 0 151 -20.5t133 -59.5l121 150l97 -78l-121 -150q66 -72 100.5 -167t34.5 -205q0 -149 -66 -270t-184.5 -188t-265.5 -67q-154 0 -287 84l-121 -149l-94 80zM330 281l436 542q-77 58 -174 58
q-89 0 -162 -49.5t-113.5 -137.5t-40.5 -196q0 -122 54 -217zM850 729l-440 -545q80 -63 184 -63q89 0 161 47.5t113 133.5t41 192q0 140 -59 235z" />
    <glyph glyph-name="ugrave" unicode="&#xf9;" horiz-adv-x="1159" 
d="M1004 999v-630q0 -82 14 -369h-172l-8 156q-61 -85 -146 -127.5t-192 -42.5q-209 0 -290 130t-81 353v530h186v-464q0 -55 2.5 -114t7.5 -92t15 -61q27 -66 77.5 -100.5t119.5 -34.5q64 0 116 25.5t89 73.5t57 115t20 147v67v438h185zM328 1483h204l162 -281h-131z" />
    <glyph glyph-name="uacute" unicode="&#xfa;" horiz-adv-x="1159" 
d="M1004 999v-630q0 -82 14 -369h-172l-8 156q-61 -85 -146 -127.5t-192 -42.5q-209 0 -290 130t-81 353v530h186v-464q0 -55 2.5 -114t7.5 -92t15 -61q27 -66 77.5 -100.5t119.5 -34.5q64 0 116 25.5t89 73.5t57 115t20 147v67v438h185zM829 1483l-235 -281h-131l162 281
h204z" />
    <glyph glyph-name="ucircumflex" unicode="&#xfb;" horiz-adv-x="1159" 
d="M1004 999v-630q0 -82 14 -369h-172l-8 156q-61 -85 -146 -127.5t-192 -42.5q-209 0 -290 130t-81 353v530h186v-464q0 -55 2.5 -114t7.5 -92t15 -61q27 -66 77.5 -100.5t119.5 -34.5q64 0 116 25.5t89 73.5t57 115t20 147v67v438h185zM874 1202h-169l-134 189l-139 -189
h-151l204 281h183z" />
    <glyph glyph-name="udieresis" unicode="&#xfc;" horiz-adv-x="1159" 
d="M1004 999v-630q0 -82 14 -369h-172l-8 156q-61 -85 -146 -127.5t-192 -42.5q-209 0 -290 130t-81 353v530h186v-464q0 -55 2.5 -114t7.5 -92t15 -61q27 -66 77.5 -100.5t119.5 -34.5q64 0 116 25.5t89 73.5t57 115t20 147v67v438h185zM481 1442v-199h-178v199h178z
M854 1442v-199h-178v199h178z" />
    <glyph glyph-name="yacute" unicode="&#xfd;" horiz-adv-x="965" 
d="M952 1001l-356 -991q-56 -154 -94.5 -233.5t-115.5 -140t-198 -60.5q-46 0 -114 16l10 150q48 -18 88 -18q89 0 142 66t83 169l-385 1042h201l223 -632q45 -132 53 -207q10 61 43 160l236 679h184zM735 1485l-235 -281h-131l161 281h205z" />
    <glyph glyph-name="thorn" unicode="&#xfe;" horiz-adv-x="1188" 
d="M338 1475v-476q0 -83 -12 -176q125 195 350 195q96 0 175.5 -35.5t136 -102t87.5 -161.5t31 -207q0 -115 -30.5 -213.5t-87.5 -168.5t-137.5 -107t-178.5 -37q-123 0 -206.5 47t-137.5 147q0 -15 5 -81.5t5 -108.5v-410h-184v1895h184zM635 858q-83 0 -151.5 -47
t-107 -129t-38.5 -184q0 -98 39 -180t106.5 -128.5t149.5 -46.5q78 0 141 46.5t99 128.5t36 182q0 79 -19 145.5t-55.5 114.5t-86.5 73t-113 25z" />
    <glyph glyph-name="ydieresis" unicode="&#xff;" horiz-adv-x="965" 
d="M952 1001l-356 -991q-56 -154 -94.5 -233.5t-115.5 -140t-198 -60.5q-46 0 -114 16l10 150q48 -18 88 -18q89 0 142 66t83 169l-385 1042h201l223 -632q45 -132 53 -207q10 61 43 160l236 679h184zM385 1444v-199h-178v199h178zM758 1444v-199h-178v199h178z" />
    <glyph glyph-name="dotlessi" unicode="&#x131;" horiz-adv-x="469" 
d="M328 1001v-1001h-187v1001h187z" />
    <glyph glyph-name="Lslash" unicode="&#x141;" horiz-adv-x="983" 
d="M369 766l293 197v-187l-293 -188v-422h577v-166h-770v504l-160 -111v185l160 102v686h193v-600z" />
    <glyph glyph-name="lslash" unicode="&#x142;" horiz-adv-x="469" 
d="M328 793l141 96v-184l-141 -93v-612h-187v530l-121 -81v182l121 80v764h187v-682z" />
    <glyph glyph-name="OE" unicode="&#x152;" horiz-adv-x="1855" 
d="M1710 1366v-168h-549v-405h510v-168h-510v-459h568v-166h-658q-140 4 -211 4q-156 0 -295 45.5t-244.5 135t-164 220t-58.5 289.5q0 139 47 258.5t136.5 209.5t207.5 138q131 53 338 62q41 2 203 2q76 2 230 2h450zM969 1198h-109q-131 0 -234.5 -34t-174.5 -98
t-107.5 -159t-36.5 -213q0 -159 66 -276.5t191.5 -182t293.5 -65.5q74 0 111 -4v1032z" />
    <glyph glyph-name="oe" unicode="&#x153;" horiz-adv-x="1851" 
d="M1769 459h-704q12 -153 102 -240.5t234 -87.5q141 0 270 92v-182q-136 -68 -309 -68q-101 0 -182.5 27t-135.5 77t-75 118q-21 -66 -76 -116t-136.5 -78t-172.5 -28q-109 0 -202 39.5t-161.5 112.5t-104.5 170.5t-36 212.5q0 149 63.5 268.5t176.5 186.5t253 67
q75 0 138 -15.5t115 -45t89.5 -70.5t53.5 -90q39 108 130 164.5t228 56.5q128 0 225 -55t152 -158q37 -68 51 -145.5t14 -212.5zM1567 606q-3 83 -33.5 146t-84.5 97t-124 34q-68 0 -124.5 -36t-91.5 -99.5t-42 -141.5h500zM578 883q-89 0 -157 -48.5t-106.5 -135.5
t-38.5 -197q0 -109 39.5 -195.5t109 -136t155.5 -49.5q87 0 157 49t109 135.5t39 194.5q0 109 -39 197t-109.5 137t-158.5 49z" />
    <glyph glyph-name="Scaron" unicode="&#x160;" horiz-adv-x="971" 
d="M817 1341l-24 -172q-146 56 -256 56q-74 0 -129.5 -23.5t-86 -66t-30.5 -99.5q0 -89 62.5 -136t220 -128.5t236.5 -165t79 -221.5q0 -120 -58 -215t-164.5 -146t-244.5 -51q-163 0 -311 54l20 184q151 -72 268 -72q83 0 147.5 28t99 80.5t34.5 123.5q0 102 -69 154.5
t-219 124.5t-227 149.5t-77 218.5q0 110 53.5 194.5t152 131.5t224.5 47q159 0 299 -50zM809 1790l-207 -281h-182l-205 281h152l139 -186l133 186h170z" />
    <glyph glyph-name="scaron" unicode="&#x161;" horiz-adv-x="774" 
d="M653 977l-14 -156q-98 49 -203 49q-77 0 -122.5 -34.5t-45.5 -90.5q0 -58 45 -89t160.5 -88.5t175.5 -118.5t60 -162q0 -68 -25.5 -124.5t-74.5 -97t-117.5 -62t-147.5 -21.5q-138 0 -260 57v166q72 -35 127 -50.5t108 -15.5q55 0 99 17t69 47t25 67q0 57 -47.5 89
t-161 91t-172.5 120.5t-59 156.5q0 87 43 153t122.5 102t182.5 36q111 0 233 -41zM682 1483l-207 -281h-182l-205 281h152l139 -187l133 187h170z" />
    <glyph glyph-name="Ydieresis" unicode="&#x178;" horiz-adv-x="1288" 
d="M1278 1366l-533 -786v-580h-194v573l-541 793h242l338 -512q41 -61 59 -102q29 56 56 96l342 518h231zM549 1749v-199h-178v199h178zM922 1749v-199h-179v199h179z" />
    <glyph glyph-name="Zcaron" unicode="&#x17d;" horiz-adv-x="1094" 
d="M1001 1366v-180l-587 -840q-18 -27 -33 -47.5t-31 -42t-34.5 -49t-30.5 -45.5q49 4 151 4h578v-166h-953v166l553 803q21 30 45 64.5t40 56.5t46 59.5t46 54.5q-96 -6 -191 -6h-514v168h915zM842 1792l-207 -281h-182l-205 281h151l140 -186l133 186h170z" />
    <glyph glyph-name="zcaron" unicode="&#x17e;" horiz-adv-x="973" 
d="M864 1001v-157l-483 -588q-37 -41 -57.5 -65t-47.5 -54q36 8 70 8h88h453v-145h-813v152l473 581q50 61 112 125q-47 -4 -141 -4h-422v147h768zM782 1485l-207 -281h-182l-205 281h152l139 -187l133 187h170z" />
    <glyph glyph-name="florin" unicode="&#x192;" 
d="M1018 1507l-27 -153q-52 12 -92 12q-71 0 -111.5 -40t-60.5 -128q-4 -25 -16.5 -89.5t-22.5 -115.5h246l-25 -137h-247l-121 -649q-32 -173 -60 -260.5t-102.5 -150t-216.5 -62.5q-54 0 -92 10l30 154q47 -7 56 -7q58 0 94.5 32t54 79t31.5 129t16 90l119 635h-219
l24 137h220q16 82 38 184.5t57.5 177.5t103.5 123t173 48q78 0 150 -19z" />
    <glyph glyph-name="circumflex" unicode="&#x2c6;" horiz-adv-x="1024" 
d="M809 1202h-170l-133 189l-139 -189h-152l205 281h182z" />
    <glyph glyph-name="caron" unicode="&#x2c7;" horiz-adv-x="1024" 
d="M809 1483l-207 -281h-182l-205 281h152l139 -187l133 187h170z" />
    <glyph glyph-name="breve" unicode="&#x2d8;" horiz-adv-x="1024" 
d="M817 1479q-3 -60 -26.5 -111t-65 -87.5t-97 -55.5t-120.5 -19q-86 0 -154.5 33.5t-106 94t-42.5 145.5h100q32 -154 199 -154q92 0 144 37t73 117h96z" />
    <glyph glyph-name="dotaccent" unicode="&#x2d9;" horiz-adv-x="1024" 
d="M602 1442v-199h-178v199h178z" />
    <glyph glyph-name="ring" unicode="&#x2da;" horiz-adv-x="1024" 
d="M512 1542q52 0 98.5 -27t73.5 -73.5t27 -98.5q0 -53 -27 -98.5t-73.5 -72.5t-98.5 -27q-81 0 -140 59t-59 139q0 81 58 140t141 59zM512 1442q-26 0 -48.5 -13.5t-36 -36t-13.5 -49.5q0 -26 13.5 -48.5t36 -36t48.5 -13.5q40 0 69 29t29 69q0 41 -29 70t-69 29z" />
    <glyph glyph-name="ogonek" unicode="&#x2db;" horiz-adv-x="1024" 
d="M768 0h125q-11 -7 -55 -34t-77.5 -54t-53 -57.5t-19.5 -67.5t28.5 -62.5t74.5 -25.5q58 0 135 47v-117q-90 -45 -170 -45q-90 0 -147.5 50.5t-57.5 127.5q0 73 53 132t164 106z" />
    <glyph glyph-name="tilde" unicode="&#x2dc;" horiz-adv-x="1024" 
d="M848 1458q-13 -99 -66 -157t-129 -58q-31 0 -75 14.5t-79 29t-68.5 24.5t-63.5 10q-36 0 -58 -20.5t-39 -69.5h-94q32 213 207 213q34 0 68.5 -10.5t84 -31.5t69.5 -27.5t48 -6.5q41 0 63 21t36 69h96z" />
    <glyph glyph-name="hungarumlaut" unicode="&#x2dd;" horiz-adv-x="1024" 
d="M580 1468l-199 -266h-125l129 266h195zM905 1468l-200 -266h-125l129 266h196z" />
    <glyph glyph-name="emdash" unicode="&#x2013;" 
d="M1012 582v-154h-926v154h926z" />
    <glyph glyph-name="endash" unicode="&#x2014;" horiz-adv-x="1456" 
d="M1456 582v-154h-1456v154h1456z" />
    <glyph glyph-name="quoteleft" unicode="&#x2018;" horiz-adv-x="559" 
d="M123 993l170 482h172l-123 -482h-219z" />
    <glyph glyph-name="quoteright" unicode="&#x2019;" horiz-adv-x="559" 
d="M436 1475l-170 -482h-172l123 482h219z" />
    <glyph glyph-name="quotesinglbase" unicode="&#x201a;" horiz-adv-x="559" 
d="M436 219l-170 -481h-172l123 481h219z" />
    <glyph glyph-name="quotedblleft" unicode="&#x201c;" horiz-adv-x="932" 
d="M496 993l170 482h172l-123 -482h-219zM123 993l170 482h172l-123 -482h-219z" />
    <glyph glyph-name="quotedblright" unicode="&#x201d;" horiz-adv-x="932" 
d="M436 1475l-170 -482h-172l123 482h219zM809 1475l-170 -482h-172l121 482h221z" />
    <glyph glyph-name="quotedblbase" unicode="&#x201e;" horiz-adv-x="932" 
d="M465 219l-170 -483h-172l123 483h219zM838 219l-170 -483h-172l120 483h222z" />
    <glyph glyph-name="dagger" unicode="&#x2020;" 
d="M627 1475v-400h379v-143h-373v-1350h-160v1350h-381v143h375v400h160z" />
    <glyph glyph-name="daggerdbl" unicode="&#x2021;" 
d="M627 1475v-400h379v-143h-373v-766h373v-143h-379v-441h-160v441h-375v143h381v766h-381v143h375v400h160z" />
    <glyph glyph-name="bullet" unicode="&#x2022;" horiz-adv-x="1229" 
d="M406 586q0 81 57.5 138.5t138.5 57.5q53 0 100.5 -26.5t74 -71t26.5 -98.5q0 -83 -58.5 -140t-142.5 -57q-82 0 -139 57t-57 140z" />
    <glyph glyph-name="ellipsis" unicode="&#x2026;" horiz-adv-x="1642" 
d="M383 219v-219h-219v219h219zM932 219v-219h-221v219h221zM1479 219v-219h-219v219h219z" />
    <glyph glyph-name="perthousand" unicode="&#x2030;" horiz-adv-x="2456" 
d="M1616 336q0 -106 -39 -187.5t-112 -125t-171 -43.5t-173 42.5t-113.5 123t-38.5 188.5q0 111 38.5 189.5t111 120.5t173.5 42q155 0 239.5 -91.5t84.5 -258.5zM1462 332q0 114 -43.5 176.5t-122.5 62.5q-82 0 -128 -63t-46 -178q0 -111 45.5 -173.5t124.5 -62.5
q81 0 125.5 62.5t44.5 175.5zM694 1036q0 -107 -39 -187.5t-112 -124.5t-170 -44q-100 0 -174.5 43t-113 124.5t-38.5 188.5q0 80 22.5 147.5t63.5 112.5t101.5 69t136.5 24q155 0 239 -92t84 -261zM541 1034q0 114 -44 177t-124 63q-81 0 -126.5 -64.5t-45.5 -179.5
q0 -109 45 -171t125 -62t125 62.5t45 174.5zM1329 1450l-868 -1534h-129l868 1534h129zM2406 336q0 -106 -39 -187.5t-112.5 -125t-169.5 -43.5q-153 0 -239.5 94.5t-86.5 259.5q0 111 38.5 189.5t111 120.5t174.5 42t175 -41t110.5 -120t37.5 -189zM2253 332
q0 114 -43.5 176.5t-122.5 62.5q-83 0 -128.5 -63.5t-45.5 -177.5q0 -111 45 -173.5t125 -62.5q81 0 125.5 62.5t44.5 175.5z" />
    <glyph glyph-name="guilsinglleft" unicode="&#x2039;" horiz-adv-x="698" 
d="M563 903l-254 -397l258 -406h-174l-282 406l274 397h178z" />
    <glyph glyph-name="guilsinglright" unicode="&#x203a;" horiz-adv-x="698" 
d="M135 903h178l275 -397l-283 -406h-174l258 406z" />
    <glyph glyph-name="fraction" unicode="&#x2044;" horiz-adv-x="309" 
d="M588 1432l-748 -1498h-119l746 1498h121z" />
    <glyph glyph-name="trademark" unicode="&#x2122;" horiz-adv-x="1763" 
d="M651 1368v-108h-256v-672h-133v672h-262v108h651zM1665 1368v-780h-131v444q1 57 1.5 104.5t0.5 123.5q-42 -129 -113 -295l-155 -377h-125l-158 377q-4 10 -30.5 75.5t-42.5 105t-40 103.5q9 -135 9 -225v-436h-133v780h206l164 -389q66 -152 90 -229q36 103 90 231
l158 387h209z" />
    <glyph glyph-name="minus" unicode="&#x2212;" 
d="M78 621v149h942v-149h-942z" />
    <glyph glyph-name="periodcentered" unicode="&#x2219;" horiz-adv-x="547" 
d="M383 614v-219h-219v219h219z" />
    <glyph glyph-name="fi" unicode="&#xf001;" horiz-adv-x="1321" 
d="M741 1466l-12 -155q-49 12 -92 12q-78 0 -115 -39t-47 -96.5t-10 -138.5v-52h268v-145h-266v-852h-186v852h-240v145h235q0 141 23 246t95.5 172.5t211.5 67.5q63 0 135 -17zM1133 1446v-205h-203v205h203zM1128 1001v-1001h-186v1001h186z" />
    <glyph glyph-name="fl" unicode="&#xf002;" horiz-adv-x="1317" 
d="M741 1464l-12 -153q-49 12 -92 12q-78 0 -115 -39t-47 -96.5t-10 -138.5v-52h268v-145h-266v-852h-186v852h-240v145h235q0 142 22.5 247t95.5 172t212 67q68 0 135 -19zM1128 1475v-1475h-186v1475h186z" />
  </font>
</defs>
</svg>
