<?xml version="1.0" standalone="no"?>
<!DOCTYPE svg PUBLIC "-//W3C//DTD SVG 1.1//EN" "http://www.w3.org/Graphics/SVG/1.1/DTD/svg11.dtd" >
<svg xmlns="http://www.w3.org/2000/svg" xmlns:xlink="http://www.w3.org/1999/xlink" version="1.1">
<metadata>
Created by FontForge 20170731 at Wed Feb  3 15:12:19 1993
 By Aleksey,,,
Typeface (c) 1992 The Font Bureau, Inc., Portions (c) 1992 Microsoft Corp. All rights reserved.
</metadata>
<defs>
<font id="Desdemona" horiz-adv-x="1236" >
  <font-face 
    font-family="Desdemona"
    font-weight="400"
    font-stretch="normal"
    units-per-em="2048"
    panose-1="4 2 5 5 2 14 3 4 5 4"
    ascent="1638"
    descent="-410"
    x-height="1500"
    cap-height="1500"
    bbox="-232 -400 2110 1948"
    underline-thickness="40"
    underline-position="-326"
    unicode-range="U+0020-F002"
  />
<missing-glyph horiz-adv-x="1648" 
d="M103 0v1648h1442v-1648h-1442zM1442 103v1442h-1236v-1442h1236z" />
    <glyph glyph-name=".notdef" unicode="&#x192;" horiz-adv-x="1648" 
d="M103 0v1648h1442v-1648h-1442zM1442 103v1442h-1236v-1442h1236z" />
    <glyph glyph-name=".null" horiz-adv-x="0" 
 />
    <glyph glyph-name="nonmarkingreturn" horiz-adv-x="400" 
 />
    <glyph glyph-name="space" unicode=" " horiz-adv-x="400" 
 />
    <glyph glyph-name="exclam" unicode="!" horiz-adv-x="490" 
d="M366 1500q0 -70 -6 -258q-11 -346 -13 -433q-7 -310 -7 -551h-192q0 285 -6 550q-2 91 -13 434q-7 219 -7 258h244zM340 0h-192v192h192v-192zM342 1476h-196q0 -57 6 -238q11 -324 13 -422q7 -303 7 -534h144q0 275 6 534q2 98 13 422q7 211 7 238zM316 24v144h-144
v-144h144z" />
    <glyph glyph-name="quotedbl" unicode="&#x22;" horiz-adv-x="754" 
d="M624 1500q-20 -230 -20 -298h-152q0 68 -20 298h192zM322 1500q-20 -230 -20 -298h-152q0 68 -20 298h192zM596 1476h-136q0 -35 8 -130t8 -120h104q0 25 8 120t8 130zM294 1476h-136q0 -35 8 -130t8 -120h104q0 25 8 120t8 130z" />
    <glyph glyph-name="numbersign" unicode="#" horiz-adv-x="1116" 
d="M1068 968l-20 -170h-212l-24 -198h212l-22 -170h-210l-52 -430h-176l54 430h-182l-52 -430h-176l54 430h-210l22 170h210l24 198h-210l20 170h210l48 386h172l-46 -386h182l48 386h172l-46 -386h210zM1042 944h-212l48 386h-124l-46 -386h-232l46 386h-124l-48 -386h-210
l-16 -122h212l-30 -246h-212l-14 -122h210l-54 -430h126l52 430h232l-54 -430h126l54 430h208l16 122h-210l30 246h212zM692 822l-30 -246h-232l30 246h232zM664 798h-180l-26 -198h182z" />
    <glyph glyph-name="dollar" unicode="$" horiz-adv-x="992" 
d="M890 332q0 -132 -82 -218.5t-226 -107.5q0 -60 36 -126h-252q19 29 28.5 62t9.5 64q-87 15 -169 59t-165 121l142 188q52 -85 132 -144.5t148 -59.5q87 0 136.5 46.5t49.5 127.5q0 74 -55 147q-41 55 -157 157q-74 65 -147 131q-79 75 -117 137q-48 79 -48 160
q0 103 56 172q52 65 150 96q0 34 -8.5 64.5t-29.5 61.5h252q-36 -66 -36 -120q54 -11 98.5 -29.5t95.5 -50.5l-126 -168q-45 38 -78.5 51t-65.5 13q-52 0 -78 -22t-26 -58q0 -54 93.5 -141t190.5 -175q153 -148 196 -220q52 -87 52 -218zM866 332q0 125 -51 209
q-42 68 -189 211q-100 93 -196 185.5t-96 148.5q0 45 30 73q34 31 98 31q41 0 77 -15q29 -12 63 -39l94 128q-43 26 -82.5 40.5t-99.5 25.5q0 39 4.5 61.5t15.5 54.5h-172q11 -26 17.5 -56t6.5 -62q-102 -34 -153 -93q-55 -64 -55 -159q0 -81 46 -154q35 -56 115 -130
q71 -63 143 -126q119 -104 164 -166q56 -77 56 -156q0 -93 -55.5 -145.5t-154.5 -52.5q-67 0 -145 52.5t-135 133.5l-110 -144q78 -67 157.5 -107t170.5 -53q0 -41 -5 -66t-19 -58h174q-10 26 -16 57.5t-6 66.5q147 21 227.5 100.5t80.5 203.5z" />
    <glyph glyph-name="percent" unicode="%" horiz-adv-x="1536" 
d="M1418 346q0 -176 -59 -268q-63 -98 -191 -98q-119 0 -180 110q-52 94 -52 248q0 174 54 305q64 155 176 155q125 0 194 -150q58 -126 58 -302zM1188 1354q-49 -61 -76 -102t-42 -78l-464 -1174h-230q40 44 74 106q21 38 40 86l464 1162h234zM600 902q0 -176 -59 -268
q-63 -98 -191 -98q-119 0 -180 110q-52 94 -52 248q0 174 54 305q64 155 176 155q125 0 194 -150q58 -126 58 -302zM1394 346q0 168 -50 285q-61 143 -178 143q-104 0 -160 -147q-46 -121 -46 -289q0 -143 45 -230q54 -104 163 -104q118 0 174 92q52 85 52 250zM1138 1330
h-168q-10 -24 -95 -238.5t-169 -427.5q-87 -219 -192 -480q-16 -39 -32 -70q-27 -52 -56 -90h164q118 296 123 310l190 482q129 326 142.5 361t33.5 68t59 85zM576 902q0 168 -50 285q-61 143 -178 143q-104 0 -160 -147q-46 -121 -46 -289q0 -143 45 -230q54 -104 163 -104
q118 0 174 92q52 85 52 250zM1294 364q0 -105 -23 -160q-30 -72 -101 -72q-56 0 -86 75q-24 60 -24 145q0 109 27 192q31 96 83 96q58 0 93 -90q31 -80 31 -186zM476 920q0 -105 -23 -160q-30 -72 -101 -72q-56 0 -86 75q-24 60 -24 145q0 109 27 192q31 96 83 96
q58 0 93 -90q31 -80 31 -186zM1270 364q0 93 -24 165q-29 87 -76 87q-39 0 -62.5 -85.5t-23.5 -178.5q0 -105 26 -155q21 -41 60 -41q61 0 84 65q16 45 16 143zM452 920q0 93 -24 165q-29 87 -76 87q-39 0 -62.5 -85.5t-23.5 -178.5q0 -105 26 -155q21 -41 60 -41
q61 0 84 65q16 45 16 143z" />
    <glyph glyph-name="ampersand" unicode="&#x26;" horiz-adv-x="1146" 
d="M1054 736q-23 -42 -30.5 -85.5t-7.5 -90.5v-352q0 -19 -20 -36q-63 -48 -78 -58q-72 -48 -147 -76q-103 -38 -207 -38q-222 0 -350 142q-118 131 -118 334q0 145 89 279q79 118 191 181q-91 29 -141 87q-55 64 -55 161q0 134 93 225t239 91q90 0 156.5 -18.5t115.5 -55.5
l-90 -178q-50 35 -94 50.5t-98 15.5q-55 0 -91.5 -35.5t-36.5 -94.5q0 -66 72.5 -114t185.5 -48l-16 -170q-146 -17 -236 -129q-86 -106 -86 -247q0 -122 71 -204q76 -88 203 -88q57 0 103 13q56 16 131 65q12 9 13 10q7 8 7 22v266q0 54 -5 84q-9 53 -35 92h272zM1016 712
h-194q16 -36 20 -71t4 -81v-266q0 -21 -10 -34q-3 -4 -20 -18q-60 -39 -108 -57q-66 -25 -140 -25q-137 0 -220 95q-78 89 -78 221q0 144 86 255q90 117 238 143l12 126q-115 13 -185.5 64.5t-70.5 119.5q0 70 43 112t109 42q95 0 182 -54l70 136q-88 56 -242 56
q-134 0 -221 -84t-87 -208q0 -177 230 -242q-137 -69 -223 -191q-91 -130 -91 -275q0 -193 111 -317q121 -135 333 -135q104 0 200 35q72 26 141 73q17 11 79 60q8 5 8 16v352q0 47 4 79t20 73z" />
    <glyph glyph-name="quotesingle" unicode="'" horiz-adv-x="452" 
d="M322 1500q-20 -230 -20 -298h-152q0 68 -20 298h192zM294 1476h-136q0 -35 8 -130t8 -120h104q0 25 8 120t8 130z" />
    <glyph glyph-name="parenleft" unicode="(" horiz-adv-x="488" 
d="M448 52l-64 -50q-6 -4 -8 -4q-6 0 -26 16q-117 103 -189 292q-77 202 -77 444q0 238 78 444q74 196 192 298q16 14 24 8q11 -7 27 -19q11 -8 37 -29q7 -5 7 -10q0 -9 -9 -24q-80 -146 -115 -287q-41 -163 -41 -377q0 -174 38 -346q42 -192 122 -334q6 -10 7 -15
q1 -4 -3 -7zM418 76q-77 144 -117.5 325.5t-40.5 354.5q0 220 40 378q34 137 118 294q3 6 3 9q0 4 -5 7l-36 28q-8 6 -14 0q-111 -97 -182 -286q-76 -202 -76 -434q0 -237 75 -435q70 -186 183 -283q4 -4 8 -4l10 6l30 22q7 6 7 9t-3 9z" />
    <glyph glyph-name="parenright" unicode=")" horiz-adv-x="488" 
d="M396 750q0 -243 -76 -444q-71 -187 -190 -292q-19 -16 -26 -16q-2 0 -8 4l-64 46q-5 5 -5 6q0 3 9 20q78 139 121 333q39 176 39 347q0 217 -40 376q-35 139 -116 288q-9 17 -9 24q0 5 7 10q21 17 36 28q20 15 28 20q5 3 9 2q5 -1 15 -10q118 -103 192 -297
q78 -206 78 -445zM372 752q0 233 -75 433q-71 189 -183 287q-6 6 -14 0l-36 -28q-5 -3 -5 -7t3 -9q84 -157 118 -294q40 -158 40 -378q0 -171 -39 -347q-42 -189 -119 -333q-3 -6 -3 -9t7 -9l30 -22q8 -6 10 -6t8 4q111 96 182 282q76 200 76 436z" />
    <glyph glyph-name="asterisk" unicode="*" horiz-adv-x="776" 
d="M706 1206q-15 3 -33 3q-27 0 -53.5 -6t-55.5 -17l-62 -24q10 -15 20.5 -29.5t21.5 -28.5q25 -31 45 -50q31 -30 65 -48l-168 -124q-3 32 -13 57q-13 33 -45 75q-7 10 -18.5 21.5t-21.5 22.5q-13 -14 -20 -22q-14 -15 -18 -20q-24 -31 -38 -59q-18 -36 -22 -75l-168 124
q36 19 65 47q16 15 45 51q10 12 26 35q9 13 16 23l-62 24q-29 11 -55.5 17t-55.5 6q-16 0 -31 -3l74 196q26 -31 56 -50q17 -10 64 -30q7 -3 28 -9q9 -2 22 -7v54q0 43 -4 67q-7 41 -28 73h212q-19 -32 -24.5 -65.5t-5.5 -74.5v-54q8 0 14 2q22 9 34 14q40 16 51 22
q37 19 69 58zM670 1234l-46 124q-24 -23 -59 -39q-9 -4 -45 -19q-21 -10 -37 -14t-43 -4v78q0 35 2.5 61.5t13.5 54.5h-134q11 -28 13.5 -54.5t2.5 -61.5v-86q-38 12 -51 15q-21 6 -33 11q-57 25 -66 31q-19 11 -36 27l-46 -124q30 0 62 -8q18 -5 54 -18l90 -34
q-23 -34 -32 -46q-14 -20 -31 -40t-37 -42.5t-46 -41.5l108 -80q7 30 22 57q12 21 34 49l60 66l56 -68q21 -26 33 -47q16 -28 23 -57l108 80q-18 14 -34.5 30.5t-49.5 55.5q-18 22 -29 37t-31 47l88 34q27 10 58 18t58 8z" />
    <glyph glyph-name="plus" unicode="+" horiz-adv-x="680" 
d="M580 474h-158v-156h-164v156h-158v168h158v156h164v-156h158v-168zM556 498v120h-158v156h-116v-156h-158v-120h158v-156h116v156h158z" />
    <glyph glyph-name="comma" unicode="," horiz-adv-x="300" 
d="M276 52q0 -76 -64.5 -149t-113.5 -73q-32 0 -64 32q27 30 43.5 56t26.5 58q-26 17 -42 48.5t-16 61.5q0 44 31 73t77 29q53 0 87.5 -40.5t34.5 -95.5zM252 52q0 46 -27 79t-71 33q-37 0 -60.5 -21.5t-23.5 -56.5q0 -26 17.5 -55.5t46.5 -44.5q-13 -40 -30 -69.5
t-38 -52.5q13 -10 32 -10q42 0 96 63q58 68 58 135z" />
    <glyph glyph-name="hyphen" unicode="-" horiz-adv-x="500" 
d="M358 562h-220v192h220v-192zM334 586v144h-172v-144h172z" />
    <glyph glyph-name="hyphen" unicode="&#xad;" horiz-adv-x="500" 
d="M358 562h-220v192h220v-192zM334 586v144h-172v-144h172z" />
    <glyph glyph-name="period" unicode="." horiz-adv-x="300" 
d="M250 100q0 -42 -30 -71t-72 -29t-72 29t-30 71t30 72t72 30t72 -30t30 -72zM226 100q0 32 -23 55t-55 23t-55 -23t-23 -55t23 -54t55 -22t55 22t23 54z" />
    <glyph glyph-name="slash" unicode="/" horiz-adv-x="962" 
d="M886 1500l-610 -1500h-204l606 1500h208zM848 1476h-154l-588 -1452h154z" />
    <glyph glyph-name="zero" unicode="0" horiz-adv-x="910" 
d="M856 600q0 -299 -100 -455q-106 -165 -316 -165q-193 0 -296 186q-90 163 -90 420q0 181 41 348q46 187 127 296q92 124 216 124q139 0 239 -120q87 -103 135 -288q44 -168 44 -346zM832 600q0 283 -91 487q-108 243 -303 243q-173 0 -274 -250q-86 -214 -86 -494
q0 -247 82 -402q95 -180 280 -180q201 0 299 158q93 149 93 438zM704 624q0 -222 -52 -344q-66 -154 -212 -154q-116 0 -181 162q-53 133 -53 310q0 217 61 401q69 209 173 209q114 0 193 -198q71 -179 71 -386zM680 624q0 203 -61 369q-70 191 -179 191q-96 0 -157 -201
q-53 -176 -53 -385q0 -170 45 -293q57 -155 165 -155q94 0 151 70q49 61 71 175q18 95 18 229z" />
    <glyph glyph-name="one" unicode="1" horiz-adv-x="448" 
d="M350 0h-250q27 40 35 91q5 30 5 85v872q0 37 -19 62.5t-61 35.5l252 238v-1208q0 -52 5 -82q9 -50 33 -94zM312 24q-14 36 -19 73.5t-5 78.5v1152l-182 -172q31 -17 44.5 -45t13.5 -63v-872q0 -46 -4 -81t-20 -71h172z" />
    <glyph glyph-name="two" unicode="2" horiz-adv-x="904" 
d="M798 0h-764v156q67 75 119 136q19 22 110 133q49 60 99 121q118 141 175 242q69 122 69 216q0 84 -54 135t-138 51q-47 0 -93.5 -24t-86.5 -68l-138 166q78 48 132 65q78 25 198 25q171 0 274 -98q98 -93 98 -232q0 -88 -36 -182q-31 -80 -94 -178q-46 -72 -126 -174
q-67 -88 -148 -182q-66 -76 -124 -136h358q64 0 91 7q36 10 79 45v-224zM774 24v152q-26 -16 -58.5 -22t-87.5 -6h-414q67 67 145 157q88 102 163 201q83 107 123 168q63 95 93 172q36 91 36 178q0 130 -91 215q-97 91 -257 91q-106 0 -180 -21q-53 -15 -114 -51l104 -124
q36 36 82 58t96 22q95 0 155.5 -57.5t60.5 -152.5q0 -97 -69 -222q-57 -104 -179 -252q-5 -5 -97 -118q-74 -90 -108 -130q-58 -68 -119 -134v-124h716z" />
    <glyph glyph-name="three" unicode="3" horiz-adv-x="926" 
d="M876 470q0 -216 -140 -354q-136 -134 -340 -134q-123 0 -198 16q-90 19 -190 74l128 188q54 -60 107.5 -83t156.5 -23q117 0 206.5 91.5t89.5 216.5q0 147 -101 220q-86 62 -231 62v150q108 18 154 47q66 41 66 125q0 47 -37.5 81.5t-86.5 34.5q-46 0 -86 -15.5
t-80 -46.5l-106 172q66 33 123 47.5t129 14.5q140 0 243 -72q113 -79 113 -204q0 -73 -34.5 -130t-99.5 -96q85 -38 144 -129q70 -109 70 -253zM852 470q0 149 -77 253q-69 93 -175 121q87 46 129.5 102.5t42.5 131.5q0 115 -105 187q-95 65 -227 65q-65 0 -113.5 -11
t-106.5 -37l78 -126q69 50 162 50q58 0 103 -42t45 -98q0 -90 -66 -137q-49 -35 -154 -55v-106q140 0 229 -70q103 -81 103 -236q0 -133 -96.5 -232.5t-223.5 -99.5q-102 0 -157.5 21t-104.5 71l-96 -142q83 -42 164.5 -58t189.5 -16q194 0 323 127q133 131 133 337z" />
    <glyph glyph-name="four" unicode="4" horiz-adv-x="852" 
d="M842 396h-258v-220q0 -52 5 -82q9 -50 33 -94h-252q27 40 35 91q5 30 5 85v220h-392v134l298 676q10 22 20 61t16 79h220l-354 -780h192v354l174 90v-444h258v-170zM818 420v122h-258v430l-126 -64v-366h-252l354 780h-164q-10 -70 -36 -126l-296 -670l2 -106h392v-244
q0 -52 -4 -86t-20 -66h174q-13 31 -18.5 72t-5.5 80v244h258z" />
    <glyph glyph-name="five" unicode="5" horiz-adv-x="916" 
d="M866 514q0 -243 -140.5 -387.5t-391.5 -144.5q-104 0 -175.5 21.5t-162.5 84.5l128 180q51 -48 108 -75q65 -31 134 -31q135 0 225.5 96.5t90.5 239.5q0 114 -71 187q-75 77 -197 77q-64 0 -115.5 -13.5t-104.5 -48.5v646h612v-234q-49 38 -81 51t-83 13h-282v-244
q37 8 94 8q180 0 296 -118t116 -308zM842 514q0 179 -108.5 290.5t-279.5 111.5q-30 0 -55 -2.5t-63 -9.5v296h306q48 0 77 -9t63 -31v162h-564v-578q41 22 88.5 32t107.5 10q133 0 214 -84q78 -81 78 -204q0 -154 -98 -257t-242 -103q-68 0 -135 29q-55 24 -103 65
l-98 -138q74 -49 142.5 -68.5t161.5 -19.5q238 0 375 140q133 136 133 368z" />
    <glyph glyph-name="six" unicode="6" horiz-adv-x="898" 
d="M868 384q0 -176 -110 -286t-274 -110q-195 0 -311.5 144.5t-116.5 379.5q0 209 120 452q114 230 276 380h224q-105 -104 -190 -218q-106 -142 -168 -288q-74 -173 -74 -326q0 -147 61 -242q66 -102 179 -102q87 0 141.5 62.5t54.5 169.5q0 73 -42 124.5t-98 51.5
q-41 0 -69.5 -25.5t-28.5 -58.5q0 -32 20 -56q17 -21 58 -42q-47 -50 -88 -50q-61 0 -102.5 54t-41.5 126q0 92 71 160t165 68q148 0 246 -104t98 -264zM844 384q0 150 -91 247t-229 97q-85 0 -148.5 -60.5t-63.5 -143.5q0 -63 34 -109.5t86 -46.5q15 0 28.5 6t23.5 16
q-30 17 -46 39q-20 28 -20 63q0 42 35 75t87 33q66 0 115 -57.5t49 -142.5q0 -118 -61.5 -187t-158.5 -69q-122 0 -195 108q-69 102 -69 260q0 152 68 319q57 140 157 281q79 112 175 210h-160q-156 -145 -265 -370q-115 -237 -115 -440q0 -225 109 -362.5t295 -137.5
q155 0 257.5 103.5t102.5 268.5z" />
    <glyph glyph-name="seven" unicode="7" horiz-adv-x="848" 
d="M800 1212q-120 -225 -213 -458q-80 -200 -163 -466q-12 -37 -18 -77.5t-6 -76.5q0 -67 16 -134h-274q23 116 46 200q20 73 52 160q60 161 129 334q65 163 124 304q42 100 77 180h-366q-67 0 -140 -56v224h736v-134zM776 1216v106h-688v-152q54 32 116 32h402
q-30 -71 -59 -141q-63 -150 -135 -330q-95 -236 -148 -379q-25 -70 -49.5 -153t-44.5 -175h216q-4 22 -7 52t-3 59q0 41 5.5 79.5t18.5 81.5q83 265 165 467q92 228 211 453z" />
    <glyph glyph-name="eight" unicode="8" horiz-adv-x="870" 
d="M826 480q0 -217 -96 -354q-103 -146 -280 -146q-182 0 -286 118q-110 124 -110 358q0 154 48 256.5t140 163.5q-46 37 -75 92.5t-29 119.5q0 112 83 190t197 78q127 0 210 -62q94 -70 94 -198q0 -72 -25 -127t-77 -91q88 -46 139 -128q67 -108 67 -270zM802 480
q0 164 -73 268q-57 82 -161 128q69 37 101 95q29 52 29 125q0 116 -86 179q-77 57 -194 57q-105 0 -180.5 -70.5t-75.5 -173.5q0 -63 33 -118t89 -94q-102 -64 -154 -166t-52 -254q0 -223 102 -340q97 -112 270 -112q168 0 263 139q89 130 89 337zM582 1084q0 -64 -39 -106
t-109 -42q-65 0 -104.5 41.5t-39.5 102.5q0 57 41.5 96.5t98.5 39.5q67 0 109.5 -38t42.5 -94zM666 488q0 -174 -50 -262q-55 -98 -174 -98q-107 0 -171 101q-57 90 -57 215q0 162 48 252q56 104 172 104q122 0 182 -99q50 -82 50 -213zM558 1084q0 47 -35.5 77.5
t-92.5 30.5q-48 0 -82 -32t-34 -80q0 -51 33.5 -85.5t86.5 -34.5q59 0 91.5 34.5t32.5 89.5zM642 488q0 121 -44 196q-54 92 -164 92q-107 0 -155 -97q-41 -82 -41 -235q0 -117 49 -198q57 -94 155 -94q108 0 157 92q43 81 43 244z" />
    <glyph glyph-name="nine" unicode="9" horiz-adv-x="956" 
d="M892 760q0 -196 -57 -366q-62 -185 -178 -292q-130 -120 -309 -120q-92 0 -179.5 28.5t-150.5 71.5l146 156q46 -43 91.5 -61.5t104.5 -18.5q111 0 193 97q70 83 110 221q35 121 35 236q-49 -46 -104.5 -68t-129.5 -22q-171 0 -267 104q-91 98 -91 254q0 161 86 262
q95 112 268 112q219 0 334 -186q98 -159 98 -408zM868 760q0 239 -92 391q-108 179 -316 179q-162 0 -250 -104q-80 -94 -80 -246q0 -146 84 -237q90 -97 250 -97q81 0 137.5 25.5t120.5 94.5q0 -138 -35 -272q-41 -157 -116 -250q-89 -110 -211 -110q-112 0 -196 72
l-112 -120q57 -34 130 -55q85 -25 166 -25q172 0 296 116q111 104 170 283q54 164 54 355zM698 926q-22 -65 -83 -107.5t-143 -42.5q-97 0 -153.5 63.5t-56.5 164.5q0 82 59 146t139 64q102 0 170 -102q52 -79 68 -186zM672 928q-18 101 -61 169q-59 93 -151 93
q-71 0 -122.5 -56.5t-51.5 -129.5q0 -89 50.5 -146.5t135.5 -57.5q73 0 126.5 36t73.5 92z" />
    <glyph glyph-name="colon" unicode=":" horiz-adv-x="300" 
d="M250 740q0 -42 -30 -71t-72 -29t-72 29t-30 71t30 72t72 30t72 -30t30 -72zM250 100q0 -42 -30 -71t-72 -29t-72 29t-30 71t30 72t72 30t72 -30t30 -72zM226 740q0 32 -23 55t-55 23t-55 -23t-23 -55t23 -54t55 -22t55 22t23 54zM226 100q0 32 -23 55t-55 23t-55 -23
t-23 -55t23 -54t55 -22t55 22t23 54z" />
    <glyph glyph-name="semicolon" unicode=";" horiz-adv-x="300" 
d="M260 700q0 -43 -31.5 -73.5t-76.5 -30.5q-44 0 -76 30t-32 74t32 76t76 32t76 -32t32 -76zM276 52q0 -76 -64.5 -149t-113.5 -73q-32 0 -64 32q27 30 43.5 56t26.5 58q-26 17 -42 48.5t-16 61.5q0 44 31 73t77 29q53 0 87.5 -40.5t34.5 -95.5zM234 700q0 33 -24.5 57.5
t-57.5 24.5t-57.5 -24.5t-24.5 -57.5t24.5 -56.5t57.5 -23.5t57.5 23.5t24.5 56.5zM252 52q0 46 -27 79t-71 33q-37 0 -60.5 -21.5t-23.5 -56.5q0 -26 17.5 -55.5t46.5 -44.5q-13 -40 -30 -69.5t-38 -52.5q13 -10 32 -10q42 0 96 63q58 68 58 135z" />
    <glyph glyph-name="less" unicode="&#x3c;" horiz-adv-x="764" 
d="M628 354l-96 -118l-428 276v84l428 276l96 -118l-308 -200zM592 348l-318 208l318 204l-66 80l-398 -256v-60l398 -256z" />
    <glyph glyph-name="equal" unicode="=" horiz-adv-x="580" 
d="M524 606h-476v162h476v-162zM524 348h-476v162h476v-162zM500 630v114h-428v-114h428zM500 372v114h-428v-114h428z" />
    <glyph glyph-name="greater" unicode="&#x3e;" horiz-adv-x="764" 
d="M660 512l-428 -276l-96 118l308 200l-308 200l96 118l428 -276v-84zM636 524v60l-398 256l-66 -80l318 -204l-318 -208l66 -80z" />
    <glyph glyph-name="question" unicode="?" horiz-adv-x="990" 
d="M910 1124q0 -95 -24 -164q-20 -59 -65 -114q-29 -36 -95 -98l-198 -192q-56 -54 -70 -98.5t-14 -140.5v-59h-192v148q0 87 43 157q32 52 129 149q102 102 152 156q73 79 102 126q36 58 36 108q0 76 -62 138t-150 62q-68 0 -133 -42q-70 -46 -111 -124l-172 96
q51 115 146 183q115 83 280 83q157 0 272 -98q126 -107 126 -276zM450 100q0 -42 -30 -71t-72 -29t-72 29t-30 71t30 72t72 30t72 -30t30 -72zM886 1124q0 158 -118 258q-109 92 -256 92q-148 0 -255 -71q-90 -60 -139 -161l130 -74q46 75 115.5 116.5t138.5 41.5
q98 0 167 -69t69 -155q0 -52 -36 -112q-31 -52 -104 -132q-54 -59 -158 -162q-93 -95 -122 -141q-42 -67 -42 -149v-124h144q0 109 4 139q10 77 88 153l198 192q64 60 90 92q43 53 64.5 113.5t21.5 152.5zM426 100q0 32 -23 55t-55 23t-55 -23t-23 -55t23 -54t55 -22t55 22
t23 54z" />
    <glyph glyph-name="at" unicode="@" horiz-adv-x="1342" 
d="M1290 772q0 -232 -86 -346q-77 -102 -214 -102q-87 0 -144 30t-86 84q-15 -9 -29.5 -13.5t-42.5 -4.5q-138 0 -225 84q-97 93 -97 264q0 165 103 281q109 123 275 123h182q-18 -117 -18 -180v-412q0 -102 94 -102q44 0 75 66q37 79 37 228q0 237 -102 393
q-112 171 -308 171q-207 0 -339.5 -162t-132.5 -402q0 -238 131 -391t343 -153v-184q-300 0 -483 214q-175 204 -175 514q0 305 178 512q186 216 480 216q279 0 438 -217q146 -200 146 -511zM1266 772q0 301 -139 494q-152 210 -421 210q-283 0 -462 -208
q-172 -200 -172 -496t171 -494q171 -200 439 -210v136q-209 0 -341.5 162t-132.5 406q0 250 139.5 419t356.5 169q206 0 325 -177q109 -163 109 -411q0 -163 -43 -247q-36 -71 -93 -71q-62 0 -90 29t-28 97v384q0 38 3 84t11 100h-154q-156 0 -257 -115q-97 -110 -97 -265
q0 -158 89 -245q81 -79 209 -79q36 0 84 28q28 -63 82.5 -93.5t135.5 -30.5q128 0 198 97q78 108 78 327zM762 588q-26 -18 -46 -24t-48 -6q-63 0 -102 44q-48 54 -48 162q0 122 62.5 197.5t181.5 92.5v-466zM738 602v422q-88 -14 -142 -83.5t-54 -176.5q0 -95 39 -142
q33 -40 87 -40q23 0 38.5 4t31.5 16z" />
    <glyph glyph-name="A" unicode="A" horiz-adv-x="1060" 
d="M950 0h-272q27 40 35 91q5 30 5 85v280h-436q0 -27 -1 -86t-1 -89q0 -98 8 -167t32 -114h-280q29 43 42.5 88t13.5 88v226q0 260 108.5 516.5t294.5 415.5q199 170 389 170h25.5t36.5 -4q-23 -40 -30.5 -81.5t-7.5 -88.5v-1154q0 -52 5 -82q9 -50 33 -94zM912 24
q-14 36 -19 73.5t-5 78.5v1154q0 51 4 80t20 68l-30 2q-179 -2 -369 -169q-177 -156 -285 -406t-108 -503v-226q0 -73 -38 -152h202q-16 45 -21.5 103.5t-5.5 141.5q0 51 1.5 130.5t1.5 80.5h482v-304q0 -46 -4 -81t-20 -71h194zM742 618h-458q17 107 73 238q65 154 156 270
q108 138 229 190v-698zM718 642v640q-104 -56 -197 -181q-80 -107 -139 -244q-50 -115 -70 -215h406z" />
    <glyph glyph-name="B" unicode="B" horiz-adv-x="1072" 
d="M1034 816q0 -189 -151 -386q-142 -185 -359.5 -307.5t-415.5 -122.5q27 40 35 91q5 30 5 85v1148q0 54 -5 84q-9 53 -35 92h584q110 0 172 -36q80 -47 80 -150q0 -61 -34 -108.5t-102 -75.5q93 -25 157 -109q69 -90 69 -205zM1010 816q0 111 -72 199.5t-184 112.5
q166 66 166 186q0 91 -72 131q-56 31 -156 31h-542q11 -21 16.5 -55.5t5.5 -96.5v-1148q0 -52 -4 -86.5t-20 -67.5q150 0 368 121t352 301q142 191 142 372zM752 1276q0 -33 -24.5 -55.5t-65.5 -22.5h-344v148h344q42 0 66 -19t24 -51zM842 792q0 -123 -92 -251
q-80 -112 -209 -199q-122 -83 -223 -98v816h254q118 0 194 -78t76 -190zM728 1276q0 22 -18 34t-48 12h-320v-100h320q30 0 48 15t18 39zM818 792q0 102 -70 173t-176 71h-230v-764q91 20 201 98q118 84 191 188q84 120 84 234z" />
    <glyph glyph-name="C" unicode="C" horiz-adv-x="1048" 
d="M988 -12q-237 57 -437 190q-217 145 -339 344q-136 221 -136 480q0 221 131.5 365.5t330.5 144.5q59 0 111 -3q156 -9 177 -9v-262q-69 46 -126.5 64t-131.5 18q-129 0 -208.5 -90.5t-79.5 -239.5q0 -211 132 -401q114 -164 290 -271q161 -98 286 -98v-232zM964 20v176
q-122 0 -285 103q-177 112 -290 279q-133 197 -133 412q0 159 86.5 256.5t225.5 97.5q133 0 234 -62v194q-68 6 -128.5 9t-135.5 3q-189 0 -313.5 -138.5t-124.5 -347.5q0 -248 130 -463q117 -194 322 -334q191 -130 412 -185z" />
    <glyph glyph-name="D" unicode="D" horiz-adv-x="1120" 
d="M1044 516q0 -244 -115.5 -380t-304.5 -136h-516q27 40 35 91q5 30 5 85v1158q0 53 -5 84q-9 54 -35 96q210 -20 429 -165t357 -359q150 -233 150 -474zM1020 516q0 229 -142 453q-129 204 -335 348q-201 140 -391 167q13 -29 16.5 -67.5t3.5 -82.5v-1158q0 -57 -3 -89
t-19 -63h474q180 0 286 127q110 132 110 365zM870 514q0 -170 -81 -260q-74 -82 -199 -82h-272v1074q205 -60 374 -272q178 -224 178 -460zM846 514q0 220 -164 435q-155 203 -340 265v-1018h248q114 0 182 77q74 84 74 241z" />
    <glyph glyph-name="E" unicode="E" horiz-adv-x="1034" 
d="M982 0h-874q27 40 35 91q5 30 5 85v1148q0 54 -5 84q-9 53 -35 92h790v-248q-49 31 -78 41q-38 13 -98 13h-380v-80h500v-194h-500v-838h464q66 0 113 20q11 5 63 34v-248zM958 24v184q-35 -20 -67.5 -29t-84.5 -9h-488v886h500v146h-500v128h404q54 0 86.5 -9t65.5 -29
v184h-724q11 -21 16.5 -55.5t5.5 -96.5v-1148q0 -52 -4 -86t-20 -66h810z" />
    <glyph glyph-name="F" unicode="F" horiz-adv-x="948" 
d="M898 1252q-51 31 -78 40q-40 14 -98 14h-380v-80h476v-194h-476v-856q0 -52 13 -91q10 -30 41 -85h-288q27 40 35 91q5 30 5 85v1148q0 54 -5 84q-9 53 -35 92h790v-248zM874 1292v184h-724q11 -21 16.5 -55.5t5.5 -96.5v-1148q0 -52 -4 -86t-20 -66h208q-20 36 -29 70
t-9 82v880h476v146h-476v128h404q54 0 86.5 -9t65.5 -29z" />
    <glyph glyph-name="G" unicode="G" horiz-adv-x="1146" 
d="M1044 -24q-403 110 -677 396q-291 304 -291 666q0 216 132 342q126 120 330 120h344v-272q-153 92 -298 92q-130 0 -215 -78q-93 -85 -93 -228q0 -205 174 -434q163 -215 354 -298v638q0 54 -5 84q-9 53 -35 92h270q-24 -44 -32 -95q-4 -27 -4 -81v-736q0 -67 23 -144
q7 -25 23 -64zM1006 12q-15 38 -23.5 87t-8.5 85v736q0 63 2.5 90t17.5 62h-188q11 -21 16.5 -55.5t5.5 -96.5v-674q-133 52 -267.5 179t-217.5 279q-91 166 -91 310q0 153 100 245q93 85 232 85q69 0 140.5 -20t133.5 -56v208h-320q-194 0 -313 -114q-125 -119 -125 -324
q0 -231 130 -448q122 -203 332 -358q205 -151 444 -220z" />
    <glyph glyph-name="H" unicode="H" horiz-adv-x="1132" 
d="M1024 1500q-25 -41 -32.5 -83.5t-7.5 -92.5v-1148q0 -52 5 -82q9 -50 33 -94h-272q27 40 35 91q5 30 5 85v818q-25 27 -52.5 41.5t-57.5 14.5q-38 0 -129 -35q-44 -17 -79 -17q-30 0 -67.5 6.5t-62.5 17.5v-846q0 -52 5 -82q9 -50 33 -94h-272q27 40 35 91q5 30 5 85
v1148q0 54 -5 84q-9 53 -35 92h274q-25 -40 -32.5 -83t-7.5 -93v-116q25 -15 45.5 -21.5t50.5 -6.5q46 0 93 16q112 38 149 38q68 0 110 -32v122q0 54 -5 84q-9 53 -35 92h274zM982 24q-13 31 -17.5 71t-4.5 81v1148q0 59 5.5 92.5t16.5 59.5h-190q11 -21 16.5 -55.5
t5.5 -96.5v-166q-67 52 -134 52q-46 0 -93 -16q-112 -38 -149 -38t-62.5 7.5t-57.5 28.5v132q0 59 5.5 92.5t16.5 59.5h-190q11 -21 16.5 -55.5t5.5 -96.5v-1148q0 -57 -3 -89t-19 -63h190q-13 31 -17.5 71t-4.5 81v882q42 -19 79.5 -27.5t70.5 -8.5q41 0 131 35
q44 17 81 17q36 0 71 -18.5t63 -49.5v-828q0 -58 -3 -90.5t-19 -63.5h190z" />
    <glyph glyph-name="I" unicode="I" horiz-adv-x="490" 
d="M380 0h-272q27 40 35 91q5 30 5 85v1148q0 54 -5 84q-9 53 -35 92h272q-23 -42 -30.5 -85.5t-7.5 -90.5v-1148q0 -52 5 -82q9 -50 33 -94zM340 24q-13 31 -17.5 71t-4.5 81v1148q0 59 5.5 92.5t16.5 59.5h-190q11 -21 16.5 -55.5t5.5 -96.5v-1148q0 -57 -3 -89t-19 -63
h190z" />
    <glyph glyph-name="J" unicode="J" horiz-adv-x="892" 
d="M844 1500q-23 -42 -30.5 -85.5t-7.5 -90.5v-572q0 -228 -116 -407q-106 -164 -285 -257q-168 -88 -353 -88v252q31 -14 57.5 -19t56.5 -5q175 0 304 154q142 169 142 436v506q0 54 -5 84q-9 53 -35 92h272zM804 1476h-190q11 -21 16.5 -55.5t5.5 -96.5v-506
q0 -276 -151 -453q-137 -161 -319 -161q-31 0 -50.5 2t-39.5 10v-192q169 0 328 87q169 92 268 249q110 174 110 392v572q0 59 5.5 92.5t16.5 59.5z" />
    <glyph glyph-name="K" unicode="K" horiz-adv-x="1040" 
d="M1026 1500q-67 -49 -136 -105q-58 -48 -94 -81l-318 -274q21 -44 109 -229q101 -211 162 -339q78 -163 115 -238q29 -58 72 -121q38 -55 86 -113h-336q1 15 1.5 26t0.5 18q0 54 -10 102t-26 80l-310 644v-694q0 -44 6.5 -84t27.5 -92h-264q23 49 31 100q5 32 5 76v1148
q0 50 -4 76q-7 48 -32 100h264q-21 -52 -27.5 -92t-6.5 -84v-164q53 48 127 117q86 80 107 100t26.5 44t5.5 79h418zM970 24q-41 49 -79 111q-29 48 -49 89q-43 88 -131 270.5t-176 366.5q-45 92 -89 185l334 286q27 26 82 70q63 51 98 74h-328q0 -44 -7 -68t-35 -50
q-32 -32 -92 -88q-22 -20 -120 -111q-30 -28 -60 -55v220q0 59 5.5 92.5t16.5 59.5h-190q11 -21 16.5 -55.5t5.5 -96.5v-1148q0 -57 -3 -89t-19 -63h190q-13 31 -17.5 71t-4.5 81v800l356 -740q16 -33 27 -95t11 -117h258z" />
    <glyph glyph-name="L" unicode="L" horiz-adv-x="920" 
d="M888 0h-780q27 40 35 91q5 30 5 85v1148q0 54 -5 84q-9 53 -35 92h288q-54 -96 -54 -176v-1130h370q80 0 176 54v-248zM864 24v184q-76 -38 -152 -38h-394v1154q0 76 38 152h-206q11 -21 16.5 -55.5t5.5 -96.5v-1148q0 -57 -3 -89t-19 -63h714z" />
    <glyph glyph-name="M" unicode="M" horiz-adv-x="1382" 
d="M1362 0h-312q24 43 34 88.5t10 87.5l-86 1116l-324 -268l-310 262l-86 -1110q0 -45 9.5 -88t34.5 -88h-312q35 51 54.5 96t19.5 82q17 182 38 428t37.5 464.5t16.5 253.5q0 54 -5 84q-9 53 -35 92h334q6 -27 19 -49.5t31 -40.5l154 -146l166 144q38 32 58 92h336
q-27 -40 -33.5 -80.5t-6.5 -95.5q0 -48 14 -256q9 -139 34 -458q21 -276 36 -432q0 -35 20 -81t54 -97zM1318 24q-24 41 -37 74q-17 44 -17 78q-15 164 -36 433q-16 211 -32 446t-16 269q0 57 3 89t19 63h-276q-12 -30 -24.5 -49.5t-35.5 -38.5l-180 -156l-172 160
q-18 16 -31.5 37.5t-22.5 46.5h-272q11 -21 16.5 -55.5t5.5 -96.5q0 -44 -16 -255q-5 -70 -38 -459q-22 -264 -38 -434q0 -33 -15.5 -72.5t-38.5 -79.5h228q-15 32 -21.5 72t-6.5 80l90 1162l330 -282l346 288l88 -1168q0 -45 -5.5 -80.5t-22.5 -71.5h228z" />
    <glyph glyph-name="N" unicode="N" horiz-adv-x="1126" 
d="M1016 0h-272q27 40 35 91q5 30 5 85v366l-442 616v-982q0 -52 5 -82q9 -50 33 -94h-272q27 40 35 91q5 30 5 85v1148q0 54 -5 84q-9 53 -35 92h312q-10 -27 -10 -56t8 -52.5t22 -43.5q62 -90 130 -185q21 -29 126 -175l88 -122v458q0 54 -5 84q-9 53 -35 92h272
q-23 -42 -30.5 -85.5t-7.5 -90.5v-1148q0 -52 5 -82q9 -50 33 -94zM976 24q-13 31 -17.5 71t-4.5 81v1148q0 59 5.5 92.5t16.5 59.5h-190q11 -21 16.5 -55.5t5.5 -96.5v-534q-33 46 -66 93q-77 107 -153 213t-169 240q-15 20 -25.5 52.5t-10.5 62.5q0 9 2 25h-236
q11 -21 16.5 -55.5t5.5 -96.5v-1148q0 -57 -3 -89t-19 -63h190q-13 31 -17.5 71t-4.5 81v1058l490 -682v-376q0 -57 -3 -89t-19 -63h190z" />
    <glyph glyph-name="O" unicode="O" horiz-adv-x="1340" 
d="M1282 756q0 -348 -169 -552t-457 -204q-273 0 -435.5 197.5t-162.5 528.5q0 379 160.5 577.5t455.5 198.5q286 0 447 -195t161 -551zM1258 756q0 344 -154 533t-430 189q-285 0 -437 -190q-155 -194 -155 -562q0 -320 155 -511t419 -191q277 0 439.5 197.5t162.5 534.5z
M1114 772q0 -258 -113 -427q-124 -185 -339 -185q-204 0 -324 174q-112 162 -112 404q0 263 107 429q118 183 329 183q209 0 333 -165q119 -159 119 -413zM1090 772q0 243 -111 395q-116 159 -317 159t-312 -177q-100 -159 -100 -411q0 -232 104 -386q113 -168 308 -168
q205 0 322 179q106 162 106 409z" />
    <glyph glyph-name="P" unicode="P" horiz-adv-x="998" 
d="M968 1360q0 -96 -66 -192l-506 -754v330l44 64q53 76 112 163q86 126 144 213q18 27 26 47q12 28 12 53q0 24 -15.5 31t-60.5 7h-316v-1146q0 -52 5 -82q9 -50 33 -94h-272q27 40 35 91q5 30 5 85v1148q0 54 -5 84q-9 53 -35 92h682q82 0 127 -32q51 -36 51 -108z
M944 1360q0 60 -42 88t-112 28h-640q11 -21 16.5 -55.5t5.5 -96.5v-1148q0 -57 -3 -89t-19 -63h190q-13 31 -17.5 71t-4.5 81v1170h340q57 0 78.5 -13.5t21.5 -48.5q0 -28 -11 -55.5t-31 -56.5q-55 -83 -134 -199q-58 -86 -108 -158.5t-54 -78.5v-250q41 62 82 125
q93 139 186 279q127 191 194 290q62 93 62 180z" />
    <glyph glyph-name="Q" unicode="Q" horiz-adv-x="1130" 
d="M1086 82l-170 -130l-106 108q-99 -72 -254 -72q-252 0 -377 202q-103 167 -103 434q0 209 58 411q63 220 169 349q120 146 271 146q142 0 257 -142q104 -128 165 -338q58 -199 58 -402q0 -119 -25 -229.5t-77 -206.5zM1048 86l-124 124q54 87 80 200.5t26 237.5
q0 198 -53 389q-57 207 -155 330q-110 139 -248 139q-146 0 -260 -142q-102 -127 -160 -339q-54 -196 -54 -401q0 -258 96 -417q118 -195 360 -195q153 0 254 80q14 -15 34 -35q65 -63 72 -71zM880 648q0 -87 -17 -171t-53 -157l-242 234l-102 -88l246 -262
q-39 -25 -74 -36.5t-76 -11.5q-151 0 -237 147q-75 128 -75 309q0 259 85 491q95 259 227 259q122 0 223 -244q95 -230 95 -470zM856 648q0 232 -86 453q-92 237 -208 237q-125 0 -211 -251q-77 -224 -77 -475q0 -173 67 -292q79 -140 221 -140q30 0 58 7.5t56 20.5
l-244 262l136 118l234 -230q26 61 40 139t14 151z" />
    <glyph glyph-name="R" unicode="R" horiz-adv-x="1048" 
d="M1028 0h-312q11 21 16.5 45t5.5 49q0 27 -6 55t-14 47q-39 97 -78 198q-9 24 -72 194q-46 125 -48 130l-178 -236v-306q0 -52 5 -82q9 -50 33 -94h-272q27 40 35 91q5 30 5 85v1148q0 54 -5 84q-9 53 -35 92h652q82 0 127 -32q51 -36 51 -108q0 -45 -21 -92
q-17 -38 -57 -94q-35 -51 -107 -149q-39 -53 -87 -117q19 -56 50 -147q68 -198 91 -263q47 -134 99 -276q22 -59 57 -121q19 -33 65 -101zM984 24q-28 41 -50 81q-30 55 -52 109q-36 96 -106 298q-46 131 -96 279q-21 61 -42 123l202 274q35 47 54.5 88.5t19.5 83.5
q0 60 -42 88t-112 28h-610q11 -21 16.5 -55.5t5.5 -96.5v-1148q0 -57 -3 -89t-19 -63h190q-13 31 -17.5 71t-4.5 81v316l210 280q18 -50 36 -99q50 -138 83 -225q54 -143 95 -244q9 -22 15 -53.5t6 -64.5q0 -35 -9 -62h230zM688 1284q0 -28 -12 -59t-30 -55
q-75 -102 -135 -180q-67 -86 -133 -172l-60 -78v606h270q57 0 78.5 -13.5t21.5 -48.5zM664 1284q0 24 -15.5 31t-60.5 7h-246v-514q4 6 77 102q52 69 105 139q79 106 102 137q16 23 27 49t11 49z" />
    <glyph glyph-name="S" unicode="S" horiz-adv-x="992" 
d="M950 432q0 -204 -140 -332q-134 -122 -332 -122q-90 0 -164.5 17.5t-151.5 51.5q-51 23 -152 79l158 220q47 -78 132.5 -122t177.5 -44q115 0 184 63q76 70 76 201q0 76 -33 147q-29 64 -84 125q-41 46 -114.5 109.5t-146.5 128.5q-82 78 -118 136q-48 78 -48 162
q0 138 85 211q76 65 199 65q87 0 153 -18t141 -66l-126 -172q-59 41 -70 47q-38 21 -74 21q-104 0 -104 -80q0 -53 93.5 -140t190.5 -174q80 -77 130 -141q65 -84 99 -169q39 -98 39 -204zM926 432q0 100 -38 196q-32 81 -96 164q-51 67 -126 138q-101 91 -196.5 182
t-95.5 148q0 51 30.5 77.5t97.5 26.5q31 0 60 -11t78 -47l96 132q-61 37 -119 51.5t-139 14.5q-114 0 -182 -58q-78 -67 -78 -194q0 -79 46 -153q36 -57 115 -131q71 -63 144.5 -127.5t116.5 -112.5q59 -66 88 -130q34 -74 34 -154q0 -143 -83 -219q-76 -69 -201 -69
q-90 0 -177 40.5t-135 107.5l-122 -172q80 -42 136 -66q75 -33 143.5 -48.5t154.5 -15.5q188 0 315 116q133 122 133 314z" />
    <glyph glyph-name="T" unicode="T" horiz-adv-x="960" 
d="M970 1534q0 -93 -72.5 -157.5t-167.5 -64.5h-160v-1136q0 -52 5 -82q9 -50 33 -94h-272q27 40 35 91q5 30 5 85v1142h-182q-80 0 -176 -54v236h766q55 0 109 13q5 1 77 21zM946 1502q-55 -15 -86.5 -20.5t-75.5 -5.5h-742v-172q76 38 152 38h206v-1166q0 -57 -3 -89
t-19 -63h190q-13 31 -17.5 71t-4.5 81v1160h184q80 0 143.5 48.5t72.5 117.5z" />
    <glyph glyph-name="U" unicode="U" horiz-adv-x="1126" 
d="M1020 -18q-235 52 -464 252q-210 183 -345 426t-135 436q0 65 8 120.5t23 90t21.5 65.5t6.5 60q0 22 -1.5 34t-7.5 34h318q-80 -88 -116 -157q-48 -91 -48 -187q0 -174 82 -353q73 -159 195 -293q115 -126 227 -182v996q0 54 -5 84q-9 53 -35 92h272q-23 -42 -30.5 -85.5
t-7.5 -90.5v-1160q0 -50 7.5 -93t34.5 -89zM978 16q-13 33 -18.5 70t-5.5 78v1160q0 59 5.5 92.5t16.5 59.5h-190q11 -21 16.5 -55.5t5.5 -96.5v-1030q-125 54 -250 183q-132 136 -212 306q-90 190 -90 373q0 93 41 180q33 69 95 140h-236q3 -18 3 -45q0 -35 -5.5 -64
t-23.5 -67q-14 -32 -22 -89.5t-8 -114.5q0 -184 127 -417t324 -413q228 -200 427 -250z" />
    <glyph glyph-name="V" unicode="V" horiz-adv-x="928" 
d="M926 1500q-30 -38 -51 -94q-16 -42 -25 -88l-68 -346q-16 -81 -83 -414q-39 -195 -69 -336q-9 -45 -11 -60q-7 -46 -7 -78q0 -49 14 -84h-346q11 21 16.5 49.5t5.5 60.5q0 29 -3.5 56.5t-8.5 55.5q-18 103 -61 326q-51 268 -81 419q-35 175 -70 351q-13 63 -32.5 107.5
t-43.5 74.5h310q-17 -29 -24.5 -70.5t-7.5 -85.5q0 -18 2 -38t4 -32q20 -104 48 -246q61 -306 78 -396q45 -233 52 -286q11 76 50 278.5t79 403.5q27 132 51 246q7 35 7 82q0 43 -6.5 79.5t-22.5 64.5h304zM878 1476h-218q7 -19 11 -51.5t4 -59.5q0 -25 -2 -50t-5 -45
l-204 -1024l-202 1024q-2 14 -4 36.5t-2 43.5q0 36 4 69t14 57h-224q17 -32 31.5 -74.5t20.5 -79.5q33 -165 69 -350q30 -151 82 -424t61 -322q5 -30 8.5 -63t3.5 -68q0 -28 -1.5 -41t-6.5 -30h274q-3 12 -4 30.5t-1 23.5q0 26 4 59t15 89l220 1096q6 35 20.5 79.5
t31.5 74.5z" />
    <glyph glyph-name="W" unicode="W" horiz-adv-x="1314" 
d="M1326 1500q-32 -40 -57.5 -92.5t-32.5 -89.5l-234 -1096q-5 -26 -8.5 -53t-3.5 -59t5.5 -60.5t16.5 -49.5h-312q7 18 10.5 40.5t3.5 47.5q0 34 -5.5 70t-12.5 64l-46 258l-46 -258q-8 -30 -13 -65t-5 -71q0 -50 14 -86h-312q11 21 16.5 49.5t5.5 60.5q0 29 -3.5 56.5
t-8.5 55.5l-220 1096q-8 41 -31.5 89.5t-58.5 92.5h324q-17 -29 -24.5 -70.5t-7.5 -85.5q0 -18 2 -38t4 -33.5t47 -257.5l117 -663l106 512l-134 636h196q4 -28 7 -47q21 -128 27 -183l40 230h192l-140 -638l98 -512q7 55 50 264q11 52 83 401q50 239 54.5 266t4.5 63
q0 43 -7.5 84t-24.5 72h324zM1276 1476h-236q10 -24 14 -57t4 -70q0 -21 -2 -42.5t-4 -36.5l-210 -1024l-122 616l132 614h-140l-60 -324l-54 324h-148l130 -612l-130 -616l-188 1022q-2 14 -4 36.5t-2 43.5q0 36 4 69t14 57h-236q22 -38 40 -79t24 -75q34 -175 69 -350
q17 -84 84 -419q43 -215 67 -327q5 -30 8.5 -63t3.5 -68q0 -28 -1.5 -41t-6.5 -30h240q-2 6 -3.5 21.5t-1.5 32.5q0 27 4 60.5t15 87.5l70 366q20 -106 30 -162q28 -149 40 -204q8 -38 13.5 -76.5t5.5 -73.5q0 -14 -1 -27t-4 -25h240q-4 12 -6 32.5t-2 40.5q0 32 3.5 64.5
t8.5 64.5q33 155 70 326q30 140 90.5 421.5t73.5 348.5q5 32 25 77q17 40 39 77z" />
    <glyph glyph-name="X" unicode="X" horiz-adv-x="972" 
d="M950 0h-314q8 18 11 38.5t3 47.5t-5 55t-13 47q-15 32 -74 186.5t-72 197.5q-12 -43 -73 -201q-56 -145 -73.5 -185.5t-17.5 -101.5q0 -50 14 -84h-314q41 45 74 104q25 44 42 88l244 612l-198 516q-12 36 -44 87t-72 93h308q-7 -17 -10 -35.5t-3 -39.5q0 -54 19 -97
l107 -292l107 292q13 43 13 99q0 18 -3 37t-10 36h310q-43 -45 -74 -92.5t-44 -87.5l-198 -514l242 -614q17 -45 42 -87q34 -59 76 -105zM898 24q-25 30 -51 81q-10 20 -37 79q-14 30 -77 189q-56 142 -111 285l-58 148q23 61 47 123q46 120 93 240q53 138 60 159
q14 35 38.5 77t49.5 71h-224q6 -23 6 -50q0 -58 -15 -105l-131 -347l-130 346q-20 50 -20 108q0 27 6 48h-224q26 -30 51 -73q21 -36 37 -75q16 -46 60.5 -163t91.5 -237l48 -124q-29 -73 -57 -146q-31 -80 -113 -284q-64 -160 -78 -190q-18 -39 -35 -78q-25 -51 -51 -82
h228q-5 23 -5 51q0 32 6 65.5t17 55.5q8 18 53 135q30 78 76 201q19 52 39 104q18 -52 37 -103q1 -3 75 -201q43 -115 52.5 -135t16 -53.5t6.5 -67.5q0 -29 -5 -52h228z" />
    <glyph glyph-name="Y" unicode="Y" horiz-adv-x="904" 
d="M930 1500q-36 -16 -106 -77q-42 -37 -92 -87q-31 -32 -99.5 -111t-86.5 -101v-948q0 -52 5 -82q9 -50 33 -94h-272q27 40 35 91q5 30 5 85v938q-14 16 -89 99q-78 86 -95 103q-47 52 -81 86q-63 64 -119 98h366q-2 -9 -2 -26q0 -52 38 -94l74 -84q9 11 35 43.5t41 52.5
q24 30 34 53t10 55h366zM852 1476h-264q0 -23 -12 -46q-7 -13 -36 -54q-20 -27 -57 -73q-12 -16 -35 -43l-94 104q-24 27 -36 56t-12 56h-260q31 -27 75 -75q31 -35 63 -69q22 -22 109 -118q29 -32 83 -92v-946q0 -57 -3 -89t-19 -63h190q-13 31 -17.5 71t-4.5 81v958
l194 218q28 32 59 61q41 39 77 63z" />
    <glyph glyph-name="Z" unicode="Z" horiz-adv-x="950" 
d="M876 1500l-568 -1314h342q64 0 114 12t104 44v-242h-806v86l522 1230h-238q-47 0 -97 -16q-40 -13 -91 -40v240h718zM844 24v178q-39 -21 -88 -30.5t-106 -9.5h-378l568 1314h-658v-176q35 18 77 29t87 11h274l-534 -1258v-58h758z" />
    <glyph glyph-name="bracketleft" unicode="[" horiz-adv-x="654" 
d="M636 -4h-532q27 40 35 91q5 30 5 85v1152q0 54 -5 84q-9 53 -35 92h532v-248q-49 31 -78 41q-38 13 -98 13h-122v-1116h122q66 0 113 20q11 5 63 34v-248zM612 20v184q-35 -20 -67.5 -29t-84.5 -9h-146v1164h146q54 0 86.5 -9t65.5 -29v184h-466q11 -21 16.5 -55.5
t5.5 -96.5v-1152q0 -52 -4 -86t-20 -66h468z" />
    <glyph glyph-name="backslash" unicode="\" horiz-adv-x="962" 
d="M886 0h-204l-610 1500h208zM852 24l-588 1452h-154l588 -1452h154z" />
    <glyph glyph-name="bracketright" unicode="]" horiz-adv-x="654" 
d="M550 -2h-532v248q53 -30 83 -40q41 -14 93 -14h122v1114h-122q-62 0 -98 -12q-25 -8 -78 -42v248h532q-27 -40 -33.5 -80.5t-6.5 -95.5v-1150q0 -54 5 -84q9 -53 35 -92zM510 22q-14 29 -19 67.5t-5 84.5v1150q0 57 3 89t19 63h-466v-184q34 20 65.5 29t86.5 9h146v-1162
h-146q-50 0 -84 9t-68 29v-184h468z" />
    <glyph glyph-name="asciicircum" unicode="^" horiz-adv-x="760" 
d="M710 744h-188l-144 158l-140 -158h-188l266 300h130zM656 768l-224 252h-104l-224 -252h122l154 174l154 -174h122z" />
    <glyph glyph-name="underscore" unicode="_" horiz-adv-x="508" 
d="M508 -358h-508v180h508v-180zM484 -334v132h-460v-132h460z" />
    <glyph glyph-name="grave" unicode="`" horiz-adv-x="600" 
d="M506 1202h-184l-232 298h200zM460 1226l-182 250h-140l196 -250h126z" />
    <glyph glyph-name="a" unicode="a" horiz-adv-x="1060" 
d="M950 0h-272q27 40 35 91q5 30 5 85v280h-436q0 -27 -1 -86t-1 -89q0 -98 8 -167t32 -114h-280q29 43 42.5 88t13.5 88v226q0 260 108.5 516.5t294.5 415.5q199 170 389 170h25.5t36.5 -4q-23 -40 -30.5 -81.5t-7.5 -88.5v-1154q0 -52 5 -82q9 -50 33 -94zM912 24
q-14 36 -19 73.5t-5 78.5v1154q0 51 4 80t20 68l-30 2q-179 -2 -369 -169q-177 -156 -285 -406t-108 -503v-226q0 -73 -38 -152h202q-16 45 -21.5 103.5t-5.5 141.5q0 51 1.5 130.5t1.5 80.5h482v-304q0 -46 -4 -81t-20 -71h194zM742 618h-458q17 107 73 238q65 154 156 270
q108 138 229 190v-698zM718 642v640q-104 -56 -197 -181q-80 -107 -139 -244q-50 -115 -70 -215h406z" />
    <glyph glyph-name="b" unicode="b" horiz-adv-x="1072" 
d="M1034 816q0 -189 -151 -386q-142 -185 -359.5 -307.5t-415.5 -122.5q27 40 35 91q5 30 5 85v1148q0 54 -5 84q-9 53 -35 92h584q110 0 172 -36q80 -47 80 -150q0 -61 -34 -108.5t-102 -75.5q93 -25 157 -109q69 -90 69 -205zM1010 816q0 111 -72 199.5t-184 112.5
q166 66 166 186q0 91 -72 131q-56 31 -156 31h-542q11 -21 16.5 -55.5t5.5 -96.5v-1148q0 -52 -4 -86.5t-20 -67.5q150 0 368 121t352 301q142 191 142 372zM752 1276q0 -33 -24.5 -55.5t-65.5 -22.5h-344v148h344q42 0 66 -19t24 -51zM842 792q0 -123 -92 -251
q-80 -112 -209 -199q-122 -83 -223 -98v816h254q118 0 194 -78t76 -190zM728 1276q0 22 -18 34t-48 12h-320v-100h320q30 0 48 15t18 39zM818 792q0 102 -70 173t-176 71h-230v-764q91 20 201 98q118 84 191 188q84 120 84 234z" />
    <glyph glyph-name="c" unicode="c" horiz-adv-x="1048" 
d="M988 -12q-237 57 -437 190q-217 145 -339 344q-136 221 -136 480q0 221 131.5 365.5t330.5 144.5q59 0 111 -3q156 -9 177 -9v-262q-69 46 -126.5 64t-131.5 18q-129 0 -208.5 -90.5t-79.5 -239.5q0 -211 132 -401q114 -164 290 -271q161 -98 286 -98v-232zM964 20v176
q-122 0 -285 103q-177 112 -290 279q-133 197 -133 412q0 159 86.5 256.5t225.5 97.5q133 0 234 -62v194q-68 6 -128.5 9t-135.5 3q-189 0 -313.5 -138.5t-124.5 -347.5q0 -248 130 -463q117 -194 322 -334q191 -130 412 -185z" />
    <glyph glyph-name="d" unicode="d" horiz-adv-x="1120" 
d="M1044 516q0 -244 -115.5 -380t-304.5 -136h-516q27 40 35 91q5 30 5 85v1158q0 53 -5 84q-9 54 -35 96q210 -20 429 -165t357 -359q150 -233 150 -474zM1020 516q0 229 -142 453q-129 204 -335 348q-201 140 -391 167q13 -29 16.5 -67.5t3.5 -82.5v-1158q0 -57 -3 -89
t-19 -63h474q180 0 286 127q110 132 110 365zM870 514q0 -170 -81 -260q-74 -82 -199 -82h-272v1074q205 -60 374 -272q178 -224 178 -460zM846 514q0 220 -164 435q-155 203 -340 265v-1018h248q114 0 182 77q74 84 74 241z" />
    <glyph glyph-name="e" unicode="e" horiz-adv-x="1034" 
d="M982 0h-874q27 40 35 91q5 30 5 85v1148q0 54 -5 84q-9 53 -35 92h790v-248q-49 31 -78 41q-38 13 -98 13h-380v-80h500v-194h-500v-838h464q66 0 113 20q11 5 63 34v-248zM958 24v184q-35 -20 -67.5 -29t-84.5 -9h-488v886h500v146h-500v128h404q54 0 86.5 -9t65.5 -29
v184h-724q11 -21 16.5 -55.5t5.5 -96.5v-1148q0 -52 -4 -86t-20 -66h810z" />
    <glyph glyph-name="f" unicode="f" horiz-adv-x="948" 
d="M898 1252q-51 31 -78 40q-40 14 -98 14h-380v-80h476v-194h-476v-856q0 -52 13 -91q10 -30 41 -85h-288q27 40 35 91q5 30 5 85v1148q0 54 -5 84q-9 53 -35 92h790v-248zM874 1292v184h-724q11 -21 16.5 -55.5t5.5 -96.5v-1148q0 -52 -4 -86t-20 -66h208q-20 36 -29 70
t-9 82v880h476v146h-476v128h404q54 0 86.5 -9t65.5 -29z" />
    <glyph glyph-name="g" unicode="g" horiz-adv-x="1146" 
d="M1044 -24q-403 110 -677 396q-291 304 -291 666q0 216 132 342q126 120 330 120h344v-272q-153 92 -298 92q-130 0 -215 -78q-93 -85 -93 -228q0 -205 174 -434q163 -215 354 -298v638q0 54 -5 84q-9 53 -35 92h270q-24 -44 -32 -95q-4 -27 -4 -81v-736q0 -67 23 -144
q7 -25 23 -64zM1006 12q-15 38 -23.5 87t-8.5 85v736q0 63 2.5 90t17.5 62h-188q11 -21 16.5 -55.5t5.5 -96.5v-674q-133 52 -267.5 179t-217.5 279q-91 166 -91 310q0 153 100 245q93 85 232 85q69 0 140.5 -20t133.5 -56v208h-320q-194 0 -313 -114q-125 -119 -125 -324
q0 -231 130 -448q122 -203 332 -358q205 -151 444 -220z" />
    <glyph glyph-name="h" unicode="h" horiz-adv-x="1132" 
d="M1024 1500q-25 -41 -32.5 -83.5t-7.5 -92.5v-1148q0 -52 5 -82q9 -50 33 -94h-272q27 40 35 91q5 30 5 85v818q-25 27 -52.5 41.5t-57.5 14.5q-38 0 -129 -35q-44 -17 -79 -17q-30 0 -67.5 6.5t-62.5 17.5v-846q0 -52 5 -82q9 -50 33 -94h-272q27 40 35 91q5 30 5 85
v1148q0 54 -5 84q-9 53 -35 92h274q-25 -40 -32.5 -83t-7.5 -93v-116q25 -15 45.5 -21.5t50.5 -6.5q46 0 93 16q112 38 149 38q68 0 110 -32v122q0 54 -5 84q-9 53 -35 92h274zM982 24q-13 31 -17.5 71t-4.5 81v1148q0 59 5.5 92.5t16.5 59.5h-190q11 -21 16.5 -55.5
t5.5 -96.5v-166q-67 52 -134 52q-46 0 -93 -16q-112 -38 -149 -38t-62.5 7.5t-57.5 28.5v132q0 59 5.5 92.5t16.5 59.5h-190q11 -21 16.5 -55.5t5.5 -96.5v-1148q0 -57 -3 -89t-19 -63h190q-13 31 -17.5 71t-4.5 81v882q42 -19 79.5 -27.5t70.5 -8.5q41 0 131 35
q44 17 81 17q36 0 71 -18.5t63 -49.5v-828q0 -58 -3 -90.5t-19 -63.5h190z" />
    <glyph glyph-name="i" unicode="i" horiz-adv-x="490" 
d="M380 0h-272q27 40 35 91q5 30 5 85v1148q0 54 -5 84q-9 53 -35 92h272q-23 -42 -30.5 -85.5t-7.5 -90.5v-1148q0 -52 5 -82q9 -50 33 -94zM340 24q-13 31 -17.5 71t-4.5 81v1148q0 59 5.5 92.5t16.5 59.5h-190q11 -21 16.5 -55.5t5.5 -96.5v-1148q0 -57 -3 -89t-19 -63
h190z" />
    <glyph glyph-name="j" unicode="j" horiz-adv-x="892" 
d="M844 1500q-23 -42 -30.5 -85.5t-7.5 -90.5v-572q0 -228 -116 -407q-106 -164 -285 -257q-168 -88 -353 -88v252q31 -14 57.5 -19t56.5 -5q175 0 304 154q142 169 142 436v506q0 54 -5 84q-9 53 -35 92h272zM804 1476h-190q11 -21 16.5 -55.5t5.5 -96.5v-506
q0 -276 -151 -453q-137 -161 -319 -161q-31 0 -50.5 2t-39.5 10v-192q169 0 328 87q169 92 268 249q110 174 110 392v572q0 59 5.5 92.5t16.5 59.5z" />
    <glyph glyph-name="k" unicode="k" horiz-adv-x="1040" 
d="M1026 1500q-67 -49 -136 -105q-58 -48 -94 -81l-318 -274q21 -44 109 -229q101 -211 162 -339q78 -163 115 -238q29 -58 72 -121q38 -55 86 -113h-336q1 15 1.5 26t0.5 18q0 54 -10 102t-26 80l-310 644v-694q0 -44 6.5 -84t27.5 -92h-264q23 49 31 100q5 32 5 76v1148
q0 50 -4 76q-7 48 -32 100h264q-21 -52 -27.5 -92t-6.5 -84v-164q53 48 127 117q86 80 107 100t26.5 44t5.5 79h418zM970 24q-41 49 -79 111q-29 48 -49 89q-43 88 -131 270.5t-176 366.5q-45 92 -89 185l334 286q27 26 82 70q63 51 98 74h-328q0 -44 -7 -68t-35 -50
q-32 -32 -92 -88q-22 -20 -120 -111q-30 -28 -60 -55v220q0 59 5.5 92.5t16.5 59.5h-190q11 -21 16.5 -55.5t5.5 -96.5v-1148q0 -57 -3 -89t-19 -63h190q-13 31 -17.5 71t-4.5 81v800l356 -740q16 -33 27 -95t11 -117h258z" />
    <glyph glyph-name="l" unicode="l" horiz-adv-x="920" 
d="M888 0h-780q27 40 35 91q5 30 5 85v1148q0 54 -5 84q-9 53 -35 92h288q-54 -96 -54 -176v-1130h370q80 0 176 54v-248zM864 24v184q-76 -38 -152 -38h-394v1154q0 76 38 152h-206q11 -21 16.5 -55.5t5.5 -96.5v-1148q0 -57 -3 -89t-19 -63h714z" />
    <glyph glyph-name="m" unicode="m" horiz-adv-x="1382" 
d="M1362 0h-312q24 43 34 88.5t10 87.5l-86 1116l-324 -268l-310 262l-86 -1110q0 -45 9.5 -88t34.5 -88h-312q35 51 54.5 96t19.5 82q17 182 38 428t37.5 464.5t16.5 253.5q0 54 -5 84q-9 53 -35 92h334q6 -27 19 -49.5t31 -40.5l154 -146l166 144q38 32 58 92h336
q-27 -40 -33.5 -80.5t-6.5 -95.5q0 -48 14 -256q9 -139 34 -458q21 -276 36 -432q0 -35 20 -81t54 -97zM1318 24q-24 41 -37 74q-17 44 -17 78q-15 164 -36 433q-16 211 -32 446t-16 269q0 57 3 89t19 63h-276q-12 -30 -24.5 -49.5t-35.5 -38.5l-180 -156l-172 160
q-18 16 -31.5 37.5t-22.5 46.5h-272q11 -21 16.5 -55.5t5.5 -96.5q0 -44 -16 -255q-5 -70 -38 -459q-22 -264 -38 -434q0 -33 -15.5 -72.5t-38.5 -79.5h228q-15 32 -21.5 72t-6.5 80l90 1162l330 -282l346 288l88 -1168q0 -45 -5.5 -80.5t-22.5 -71.5h228z" />
    <glyph glyph-name="n" unicode="n" horiz-adv-x="1126" 
d="M1016 0h-272q27 40 35 91q5 30 5 85v366l-442 616v-982q0 -52 5 -82q9 -50 33 -94h-272q27 40 35 91q5 30 5 85v1148q0 54 -5 84q-9 53 -35 92h312q-10 -27 -10 -56t8 -52.5t22 -43.5q62 -90 130 -185q21 -29 126 -175l88 -122v458q0 54 -5 84q-9 53 -35 92h272
q-23 -42 -30.5 -85.5t-7.5 -90.5v-1148q0 -52 5 -82q9 -50 33 -94zM976 24q-13 31 -17.5 71t-4.5 81v1148q0 59 5.5 92.5t16.5 59.5h-190q11 -21 16.5 -55.5t5.5 -96.5v-534q-33 46 -66 93q-77 107 -153 213t-169 240q-15 20 -25.5 52.5t-10.5 62.5q0 9 2 25h-236
q11 -21 16.5 -55.5t5.5 -96.5v-1148q0 -57 -3 -89t-19 -63h190q-13 31 -17.5 71t-4.5 81v1058l490 -682v-376q0 -57 -3 -89t-19 -63h190z" />
    <glyph glyph-name="o" unicode="o" horiz-adv-x="1340" 
d="M1282 756q0 -348 -169 -552t-457 -204q-273 0 -435.5 197.5t-162.5 528.5q0 379 160.5 577.5t455.5 198.5q286 0 447 -195t161 -551zM1258 756q0 344 -154 533t-430 189q-285 0 -437 -190q-155 -194 -155 -562q0 -320 155 -511t419 -191q277 0 439.5 197.5t162.5 534.5z
M1114 772q0 -258 -113 -427q-124 -185 -339 -185q-204 0 -324 174q-112 162 -112 404q0 263 107 429q118 183 329 183q209 0 333 -165q119 -159 119 -413zM1090 772q0 243 -111 395q-116 159 -317 159t-312 -177q-100 -159 -100 -411q0 -232 104 -386q113 -168 308 -168
q205 0 322 179q106 162 106 409z" />
    <glyph glyph-name="p" unicode="p" horiz-adv-x="998" 
d="M968 1360q0 -96 -66 -192l-506 -754v330l44 64q53 76 112 163q86 126 144 213q18 27 26 47q12 28 12 53q0 24 -15.5 31t-60.5 7h-316v-1146q0 -52 5 -82q9 -50 33 -94h-272q27 40 35 91q5 30 5 85v1148q0 54 -5 84q-9 53 -35 92h682q82 0 127 -32q51 -36 51 -108z
M944 1360q0 60 -42 88t-112 28h-640q11 -21 16.5 -55.5t5.5 -96.5v-1148q0 -57 -3 -89t-19 -63h190q-13 31 -17.5 71t-4.5 81v1170h340q57 0 78.5 -13.5t21.5 -48.5q0 -28 -11 -55.5t-31 -56.5q-55 -83 -134 -199q-58 -86 -108 -158.5t-54 -78.5v-250q41 62 82 125
q93 139 186 279q127 191 194 290q62 93 62 180z" />
    <glyph glyph-name="q" unicode="q" horiz-adv-x="1130" 
d="M1086 82l-170 -130l-106 108q-99 -72 -254 -72q-252 0 -377 202q-103 167 -103 434q0 209 58 411q63 220 169 349q120 146 271 146q142 0 257 -142q104 -128 165 -338q58 -199 58 -402q0 -119 -25 -229.5t-77 -206.5zM1048 86l-124 124q54 87 80 200.5t26 237.5
q0 198 -53 389q-57 207 -155 330q-110 139 -248 139q-146 0 -260 -142q-102 -127 -160 -339q-54 -196 -54 -401q0 -258 96 -417q118 -195 360 -195q153 0 254 80q14 -15 34 -35q65 -63 72 -71zM880 648q0 -87 -17 -171t-53 -157l-242 234l-102 -88l246 -262
q-39 -25 -74 -36.5t-76 -11.5q-151 0 -237 147q-75 128 -75 309q0 259 85 491q95 259 227 259q122 0 223 -244q95 -230 95 -470zM856 648q0 232 -86 453q-92 237 -208 237q-125 0 -211 -251q-77 -224 -77 -475q0 -173 67 -292q79 -140 221 -140q30 0 58 7.5t56 20.5
l-244 262l136 118l234 -230q26 61 40 139t14 151z" />
    <glyph glyph-name="r" unicode="r" horiz-adv-x="1048" 
d="M1028 0h-312q11 21 16.5 45t5.5 49q0 27 -6 55t-14 47q-39 97 -78 198q-9 24 -72 194q-46 125 -48 130l-178 -236v-306q0 -52 5 -82q9 -50 33 -94h-272q27 40 35 91q5 30 5 85v1148q0 54 -5 84q-9 53 -35 92h652q82 0 127 -32q51 -36 51 -108q0 -45 -21 -92
q-17 -38 -57 -94q-35 -51 -107 -149q-39 -53 -87 -117q19 -56 50 -147q68 -198 91 -263q47 -134 99 -276q22 -59 57 -121q19 -33 65 -101zM984 24q-28 41 -50 81q-30 55 -52 109q-36 96 -106 298q-46 131 -96 279q-21 61 -42 123l202 274q35 47 54.5 88.5t19.5 83.5
q0 60 -42 88t-112 28h-610q11 -21 16.5 -55.5t5.5 -96.5v-1148q0 -57 -3 -89t-19 -63h190q-13 31 -17.5 71t-4.5 81v316l210 280q18 -50 36 -99q50 -138 83 -225q54 -143 95 -244q9 -22 15 -53.5t6 -64.5q0 -35 -9 -62h230zM688 1284q0 -28 -12 -59t-30 -55
q-75 -102 -135 -180q-67 -86 -133 -172l-60 -78v606h270q57 0 78.5 -13.5t21.5 -48.5zM664 1284q0 24 -15.5 31t-60.5 7h-246v-514q4 6 77 102q52 69 105 139q79 106 102 137q16 23 27 49t11 49z" />
    <glyph glyph-name="s" unicode="s" horiz-adv-x="1088" 
d="M1004 1286q-42 27 -71 38.5t-65 11.5q-50 0 -81 -43q-27 -38 -27 -85q0 -71 29 -184.5t58 -234.5t29 -229q0 -255 -168.5 -419.5t-419.5 -164.5q-42 0 -97 5.5t-99 16.5v228q65 -30 110 -40t106 -10q163 0 259 120q89 111 89 276q0 108 -28 226.5t-54 225.5
q-30 122 -30 196q0 123 83 209q90 93 233 93q39 0 70.5 -3t73.5 -9v-224zM980 1330v160q-25 3 -59 5.5t-61 2.5q-132 0 -215 -85q-77 -79 -77 -193q0 -77 29 -195q26 -107 54.5 -228t28.5 -225q0 -175 -94 -292q-103 -128 -278 -128q-64 0 -103 7.5t-89 30.5v-172
q34 -8 86 -13t86 -5q240 0 402 158t162 402q0 107 -29 228t-58 235t-29 185q0 57 33 101q38 51 99 51q33 0 59 -7.5t53 -22.5z" />
    <glyph glyph-name="t" unicode="t" horiz-adv-x="960" 
d="M970 1534q0 -93 -72.5 -157.5t-167.5 -64.5h-160v-1136q0 -52 5 -82q9 -50 33 -94h-272q27 40 35 91q5 30 5 85v1142h-182q-80 0 -176 -54v236h766q55 0 109 13q5 1 77 21zM946 1502q-55 -15 -86.5 -20.5t-75.5 -5.5h-742v-172q76 38 152 38h206v-1166q0 -57 -3 -89
t-19 -63h190q-13 31 -17.5 71t-4.5 81v1160h184q80 0 143.5 48.5t72.5 117.5z" />
    <glyph glyph-name="u" unicode="u" horiz-adv-x="1126" 
d="M1020 -18q-235 52 -464 252q-210 183 -345 426t-135 436q0 65 8 120.5t23 90t21.5 65.5t6.5 60q0 22 -1.5 34t-7.5 34h318q-80 -88 -116 -157q-48 -91 -48 -187q0 -174 82 -353q73 -159 195 -293q115 -126 227 -182v996q0 54 -5 84q-9 53 -35 92h272q-23 -42 -30.5 -85.5
t-7.5 -90.5v-1160q0 -50 7.5 -93t34.5 -89zM978 16q-13 33 -18.5 70t-5.5 78v1160q0 59 5.5 92.5t16.5 59.5h-190q11 -21 16.5 -55.5t5.5 -96.5v-1030q-125 54 -250 183q-132 136 -212 306q-90 190 -90 373q0 93 41 180q33 69 95 140h-236q3 -18 3 -45q0 -35 -5.5 -64
t-23.5 -67q-14 -32 -22 -89.5t-8 -114.5q0 -184 127 -417t324 -413q228 -200 427 -250z" />
    <glyph glyph-name="v" unicode="v" horiz-adv-x="928" 
d="M926 1500q-30 -38 -51 -94q-16 -42 -25 -88l-68 -346q-16 -81 -83 -414q-39 -195 -69 -336q-9 -45 -11 -60q-7 -46 -7 -78q0 -49 14 -84h-346q11 21 16.5 49.5t5.5 60.5q0 29 -3.5 56.5t-8.5 55.5q-18 103 -61 326q-51 268 -81 419q-35 175 -70 351q-13 63 -32.5 107.5
t-43.5 74.5h310q-17 -29 -24.5 -70.5t-7.5 -85.5q0 -18 2 -38t4 -32q20 -104 48 -246q61 -306 78 -396q45 -233 52 -286q11 76 50 278.5t79 403.5q27 132 51 246q7 35 7 82q0 43 -6.5 79.5t-22.5 64.5h304zM878 1476h-218q7 -19 11 -51.5t4 -59.5q0 -25 -2 -50t-5 -45
l-204 -1024l-202 1024q-2 14 -4 36.5t-2 43.5q0 36 4 69t14 57h-224q17 -32 31.5 -74.5t20.5 -79.5q33 -165 69 -350q30 -151 82 -424t61 -322q5 -30 8.5 -63t3.5 -68q0 -28 -1.5 -41t-6.5 -30h274q-3 12 -4 30.5t-1 23.5q0 26 4 59t15 89l220 1096q6 35 20.5 79.5
t31.5 74.5z" />
    <glyph glyph-name="w" unicode="w" horiz-adv-x="1314" 
d="M1326 1500q-32 -40 -57.5 -92.5t-32.5 -89.5l-234 -1096q-5 -26 -8.5 -53t-3.5 -59t5.5 -60.5t16.5 -49.5h-312q7 18 10.5 40.5t3.5 47.5q0 34 -5.5 70t-12.5 64l-46 258l-46 -258q-8 -30 -13 -65t-5 -71q0 -50 14 -86h-312q11 21 16.5 49.5t5.5 60.5q0 29 -3.5 56.5
t-8.5 55.5l-220 1096q-8 41 -31.5 89.5t-58.5 92.5h324q-17 -29 -24.5 -70.5t-7.5 -85.5q0 -18 2 -38t4 -33.5t47 -257.5l117 -663l106 512l-134 636h196q4 -28 7 -47q21 -128 27 -183l40 230h192l-140 -638l98 -512q7 55 50 264q11 52 83 401q50 239 54.5 266t4.5 63
q0 43 -7.5 84t-24.5 72h324zM1276 1476h-236q10 -24 14 -57t4 -70q0 -21 -2 -42.5t-4 -36.5l-210 -1024l-122 616l132 614h-140l-60 -324l-54 324h-148l130 -612l-130 -616l-188 1022q-2 14 -4 36.5t-2 43.5q0 36 4 69t14 57h-236q22 -38 40 -79t24 -75q34 -175 69 -350
q17 -84 84 -419q43 -215 67 -327q5 -30 8.5 -63t3.5 -68q0 -28 -1.5 -41t-6.5 -30h240q-2 6 -3.5 21.5t-1.5 32.5q0 27 4 60.5t15 87.5l70 366q20 -106 30 -162q28 -149 40 -204q8 -38 13.5 -76.5t5.5 -73.5q0 -14 -1 -27t-4 -25h240q-4 12 -6 32.5t-2 40.5q0 32 3.5 64.5
t8.5 64.5q33 155 70 326q30 140 90.5 421.5t73.5 348.5q5 32 25 77q17 40 39 77z" />
    <glyph glyph-name="x" unicode="x" horiz-adv-x="972" 
d="M950 0h-314q8 18 11 38.5t3 47.5t-5 55t-13 47q-15 32 -74 186.5t-72 197.5q-12 -43 -73 -201q-56 -145 -73.5 -185.5t-17.5 -101.5q0 -50 14 -84h-314q41 45 74 104q25 44 42 88l244 612l-198 516q-12 36 -44 87t-72 93h308q-7 -17 -10 -35.5t-3 -39.5q0 -54 19 -97
l107 -292l107 292q13 43 13 99q0 18 -3 37t-10 36h310q-43 -45 -74 -92.5t-44 -87.5l-198 -514l242 -614q17 -45 42 -87q34 -59 76 -105zM898 24q-25 30 -51 81q-10 20 -37 79q-14 30 -77 189q-56 142 -111 285l-58 148q23 61 47 123q46 120 93 240q53 138 60 159
q14 35 38.5 77t49.5 71h-224q6 -23 6 -50q0 -58 -15 -105l-131 -347l-130 346q-20 50 -20 108q0 27 6 48h-224q26 -30 51 -73q21 -36 37 -75q16 -46 60.5 -163t91.5 -237l48 -124q-29 -73 -57 -146q-31 -80 -113 -284q-64 -160 -78 -190q-18 -39 -35 -78q-25 -51 -51 -82
h228q-5 23 -5 51q0 32 6 65.5t17 55.5q8 18 53 135q30 78 76 201q19 52 39 104q18 -52 37 -103q1 -3 75 -201q43 -115 52.5 -135t16 -53.5t6.5 -67.5q0 -29 -5 -52h228z" />
    <glyph glyph-name="y" unicode="y" horiz-adv-x="904" 
d="M930 1500q-36 -16 -106 -77q-42 -37 -92 -87q-31 -32 -99.5 -111t-86.5 -101v-948q0 -52 5 -82q9 -50 33 -94h-272q27 40 35 91q5 30 5 85v938q-14 16 -89 99q-78 86 -95 103q-47 52 -81 86q-63 64 -119 98h366q-2 -9 -2 -26q0 -52 38 -94l74 -84q9 11 35 43.5t41 52.5
q24 30 34 53t10 55h366zM852 1476h-264q0 -23 -12 -46q-7 -13 -36 -54q-20 -27 -57 -73q-12 -16 -35 -43l-94 104q-24 27 -36 56t-12 56h-260q31 -27 75 -75q31 -35 63 -69q22 -22 109 -118q29 -32 83 -92v-946q0 -57 -3 -89t-19 -63h190q-13 31 -17.5 71t-4.5 81v958
l194 218q28 32 59 61q41 39 77 63z" />
    <glyph glyph-name="z" unicode="z" horiz-adv-x="950" 
d="M876 1500l-568 -1314h342q64 0 114 12t104 44v-242h-806v86l522 1230h-238q-47 0 -97 -16q-40 -13 -91 -40v240h718zM844 24v178q-39 -21 -88 -30.5t-106 -9.5h-378l568 1314h-658v-176q35 18 77 29t87 11h274l-534 -1258v-58h758z" />
    <glyph glyph-name="braceleft" unicode="{" horiz-adv-x="578" 
d="M568 0h-290q-82 0 -127 32q-51 36 -51 108q0 33 6 113t13 168.5t7 116.5q0 57 -12 111.5t-42 100.5q27 44 40.5 100.5t13.5 111.5q0 40 -13 204t-13 194q0 71 48 105.5t130 34.5h290q-16 -37 -28 -91t-12 -87h-150q-38 0 -48 -2q-28 -6 -28 -36q0 -17 10 -170t10 -170
q0 -65 -13 -122t-27 -72q12 -14 26 -73t14 -121q0 -16 -10 -169t-10 -171q0 -24 15.5 -31t60.5 -7h150q0 -35 11 -85.5t29 -92.5zM534 24q-11 32 -17.5 64t-10.5 66h-128q-58 0 -79 13t-21 49q0 17 10 170t10 170q0 60 -13.5 115.5t-32.5 78.5q19 24 32.5 78t13.5 116
q0 16 -10 169t-10 171q0 36 20.5 49t79.5 13h128q0 24 4.5 46.5t23.5 83.5h-256q-71 0 -109 -25q-45 -29 -45 -91q0 -33 6 -113.5t13 -168.5t7 -116q0 -53 -12.5 -109t-37.5 -103q26 -47 38 -102t12 -110q0 -40 -13 -204t-13 -194q0 -61 44 -90q39 -26 110 -26h256z" />
    <glyph glyph-name="bar" unicode="|" horiz-adv-x="490" 
d="M344 -100h-196v1700h196v-1700zM320 -76v1652h-148v-1652h148z" />
    <glyph glyph-name="braceright" unicode="}" horiz-adv-x="578" 
d="M506 750q-29 -46 -41.5 -99.5t-12.5 -112.5q0 -40 13 -204t13 -194q0 -71 -50 -107q-46 -33 -128 -33h-290q16 37 28 91t12 87h150q38 0 48 2q28 6 28 36q0 17 -10 170t-10 170q0 65 13.5 122t26.5 72q-12 14 -26 73t-14 121q0 16 10 169t10 171q0 24 -15.5 31t-60.5 7
h-150q0 35 -11 85.5t-29 92.5h290q82 0 127 -32q51 -36 51 -108q0 -33 -6.5 -113.5t-13 -168.5t-6.5 -116q0 -57 13 -111.5t41 -100.5zM478 750q-25 47 -37.5 102t-12.5 110q0 40 13 204t13 194q0 61 -41.5 88.5t-112.5 27.5h-256q11 -36 19.5 -71t8.5 -59h128q58 0 79 -13
t21 -49q0 -17 -10 -170t-10 -170q0 -60 13.5 -115.5t32.5 -78.5q-19 -24 -32.5 -78t-13.5 -116q0 -16 10 -169t10 -171q0 -36 -20.5 -49t-79.5 -13h-128q-3 -30 -10 -63.5t-18 -66.5h256q71 0 109 25q45 29 45 91q0 33 -6.5 113t-13 168.5t-6.5 116.5q0 59 11 110.5
t39 101.5z" />
    <glyph glyph-name="asciitilde" unicode="~" horiz-adv-x="660" 
d="M600 736q-59 56 -132 56q-52 0 -108 -16q-134 -38 -168 -38q-84 0 -132 32v208q59 -56 132 -56q43 0 165 36q61 18 111 18q84 0 132 -32v-208zM576 784v146q-41 22 -108 22q-59 0 -142 -27t-134 -27q-57 0 -108 32v-146q41 -22 108 -22q47 0 102 16q131 38 174 38
q57 0 108 -32z" />
    <glyph glyph-name="nonbreakingspace" unicode="&#xa0;" horiz-adv-x="400" 
 />
    <glyph glyph-name="exclamdown" unicode="&#xa1;" horiz-adv-x="490" 
d="M340 1308h-194v192h194v-192zM380 0h-272q0 57 11.5 286.5t17.5 404.5q11 312 11 551h192q0 -266 10 -550q6 -178 18 -416.5t12 -275.5zM316 1332v144h-146v-144h146zM356 24q0 44 -10 238q-13 243 -19 422q-11 305 -11 534h-144q0 -257 -10 -534q-6 -179 -18 -407
t-12 -253h224z" />
    <glyph glyph-name="cent" unicode="&#xa2;" horiz-adv-x="678" 
d="M664 330q-40 8 -44 9q-18 4 -44 15v-110h-196v198q-148 90 -234 223q-96 148 -96 325q0 118 55 201t151 115v194h196v-180l108 -6v-216q-47 30 -83.5 42t-84.5 12q-166 0 -166 -170q0 -130 83 -244q70 -96 181 -160q101 -58 174 -58v-190zM640 360v138q-84 10 -181 71
q-109 69 -177 167q-80 116 -80 246q0 194 190 194q41 0 74 -8t70 -28v152l-108 6v178h-148v-186q-100 -34 -153 -112t-53 -188q0 -171 94 -314q84 -128 236 -222v-186h148v120q34 -13 57 -20q14 -4 31 -8z" />
    <glyph glyph-name="sterling" unicode="&#xa3;" horiz-adv-x="876" 
d="M802 1410l-100 -198q-35 42 -67 64q-59 40 -131 40q-88 0 -128 -80q-36 -72 -36 -216v-34h410v-186h-410v-46h410v-186h-410v-374h410v-194h-608v1056q0 208 92 326t258 118q94 0 162.5 -19t147.5 -71zM770 1402q-67 41 -131.5 57.5t-146.5 16.5q-157 0 -241.5 -111
t-84.5 -309v-1032h560v146h-410v422h410v138h-410v94h410v138h-410v58q0 155 43 234q47 86 145 86q65 0 118 -28q38 -20 74 -58z" />
    <glyph glyph-name="currency" unicode="&#xa4;" horiz-adv-x="854" 
d="M550 742q0 51 -36 87t-87 36t-87 -36t-36 -87t36 -87t87 -36t87 36t36 87zM574 742q0 -62 -42.5 -104.5t-104.5 -42.5t-104.5 42.5t-42.5 104.5t42.5 104.5t104.5 42.5t104.5 -42.5t42.5 -104.5zM560 1007l117 117l133 -132l-118 -117q15 -29 23.5 -64t8.5 -69
q0 -72 -32 -133l117 -116l-131 -133l-118 116q-32 -15 -63.5 -23t-69.5 -8q-72 0 -133 32l-117 -117l-131 132l116 116q-15 30 -23.5 65.5t-8.5 68.5q0 72 32 133l-117 118l133 131l116 -117q29 15 64 23.5t69 8.5q72 0 133 -32zM291 506q62 -37 136 -37t136 37l114 -114
l100 100l-114 114q37 62 37 136t-37 136l114 114l-100 100l-115 -113q-63 36 -135 36q-74 0 -136 -37l-114 114l-100 -100l114 -114q-37 -62 -37 -136t37 -136l-114 -114l100 -100z" />
    <glyph glyph-name="yen" unicode="&#xa5;" horiz-adv-x="904" 
d="M930 1500q-36 -16 -106 -77q-42 -37 -92 -87q-14 -15 -71.5 -80.5t-114.5 -131.5v-138h204v-186h-204v-50h204v-186h-204v-388q0 -52 5 -82q9 -50 33 -94h-272q27 40 35 91q5 30 5 85v388h-206v186h206v50h-206v186h206v128q-14 16 -89 99q-78 86 -95 103q-47 52 -81 86
q-63 64 -119 98h366q-2 -9 -2 -26q0 -52 38 -94l74 -84q9 11 35 43.5t41 52.5q24 30 34 53t10 55h366zM852 1476h-264q0 -23 -12 -46q-7 -13 -36 -54q-20 -27 -57 -73q-12 -16 -35 -43l-94 104q-24 27 -36 56t-12 56h-260q31 -27 75 -75q31 -35 63 -69q22 -22 109 -118
q29 -32 83 -92v-160h-206v-138h206v-98h-206v-138h206v-412q0 -57 -3 -89t-19 -63h190q-13 31 -17.5 71t-4.5 81v412h204v138h-204v98h204v138h-204v172l194 218q28 32 59 61q41 39 77 63z" />
    <glyph glyph-name="brokenbar" unicode="&#xa6;" horiz-adv-x="490" 
d="M344 955h-196v645h196v-645zM344 -100h-196v645h196v-645zM320 979v597h-148v-597h148zM320 -76v597h-148v-597h148z" />
    <glyph glyph-name="section" unicode="&#xa7;" horiz-adv-x="1048" 
d="M964 1298q-37 24 -65 31t-71 7q-52 0 -82 -43q-26 -37 -26 -85q0 -69 29 -183t58 -236t29 -229q0 -255 -168.5 -419.5t-419.5 -164.5q-42 0 -97 5.5t-99 16.5v228q55 -24 81 -34q44 -16 63 -16q104 0 127 46q19 38 19 212q0 61 -8 114t-25 124q-2 10 -39 148
q-22 81 -31 140t-9 122q0 123 83 209q90 93 233 93h4q41 63 107 99q72 39 163 39q39 0 70.5 -3t73.5 -9v-212zM940 1340v150q-25 4 -56 6t-64 2q-85 0 -149.5 -36t-106.5 -102h-18q-132 0 -215 -85q-77 -79 -77 -193q0 -109 39 -256t53 -214q20 -99 20 -178q0 -188 -25 -232
q-28 -50 -145 -50q-19 0 -48 9t-72 29v-172q37 -9 85.5 -13.5t86.5 -4.5q240 0 400 156q164 159 164 404q0 107 -29 228t-58 235t-29 185q0 58 31 101q37 51 101 51q46 0 66 -4t46 -16zM640 572q0 -101 -31 -177q-26 -64 -71 -107v137q0 59 -4 83q-10 93 -36.5 199.5
t-51 205t-24.5 157.5q0 44 21 80q27 46 85 76q0 -90 29 -213q26 -107 54.5 -226t28.5 -215zM616 572q0 103 -27.5 215t-53.5 213q-29 115 -29 186q-29 -17 -44.5 -49.5t-15.5 -66.5q0 -67 29 -181.5t58 -237t29 -229.5q0 -16 -4 -80q58 101 58 230z" />
    <glyph glyph-name="dieresis" unicode="&#xa8;" horiz-adv-x="600" 
d="M560 1308h-192v192h192v-192zM232 1308h-192v192h192v-192zM536 1332v144h-144v-144h144zM208 1332v144h-144v-144h144z" />
    <glyph glyph-name="copyright" unicode="&#xa9;" horiz-adv-x="1312" 
d="M1252 904q0 -246 -175 -421t-421 -175t-421 175t-175 421t175 421t421 175t421 -175t175 -421zM1228 904q0 234 -168 403t-404 169t-404 -168t-168 -404t168 -404t404 -168t404 168t168 404zM872 466q-234 57 -379 195q-159 151 -159 357q0 126 79.5 212t210.5 86
q21 0 81 -4t87 -4v-266q-57 32 -89 43t-65 11q-39 0 -63.5 -22.5t-24.5 -61.5q0 -121 116 -217q105 -87 206 -87v-242zM848 498v186q-91 0 -199 93q-123 106 -123 235q0 49 31.5 78.5t80.5 29.5q65 0 130 -38v204q-25 0 -71 3t-73 3q-119 0 -192.5 -79.5t-73.5 -194.5
q0 -193 149 -339q135 -132 341 -181z" />
    <glyph glyph-name="guillemotleft" unicode="&#xab;" horiz-adv-x="800" 
d="M732 450l-300 194v132l300 192v-180l-116 -80l116 -80v-178zM386 450l-300 194v132l300 192v-180l-116 -80l116 -80v-178zM708 494v120l-136 96l136 92v122l-252 -162v-104zM362 494v120l-136 96l136 92v122l-252 -162v-104z" />
    <glyph glyph-name="registered" unicode="&#xae;" horiz-adv-x="1312" 
d="M1252 904q0 -246 -175 -421t-421 -175t-421 175t-175 421t175 421t421 175t421 -175t175 -421zM1228 904q0 236 -168 404t-404 168t-404 -168t-168 -404t168 -404t404 -168t404 168t168 404zM988 526h-230q6 9 8 25t2 19q0 15 -2.5 28.5t-7.5 25.5q-22 60 -48 122l-38 90
l-90 -110v-112q0 -23 4 -44.5t16 -43.5h-212q10 15 15 35t5 53v614q0 31 -3 49t-17 39h464q38 0 63 -26t25 -64q0 -23 -10.5 -54t-27 -55.5t-57.5 -78.5q-24 -31 -47 -62q33 -84 74 -195q33 -90 52 -141q9 -24 28 -58q15 -27 34 -56zM944 550q-23 37 -40 82l-130 350
q30 39 52 68q35 47 58 80q34 48 34 96q0 27 -18.5 46.5t-45.5 19.5h-426q3 -13 4.5 -29.5t1.5 -34.5v-614q0 -15 -0.5 -29.5t-5.5 -34.5h138q-5 16 -6.5 31t-1.5 33v120l122 146l100 -248q11 -26 11 -63q0 -13 -1 -19h154zM754 1156q0 -13 -5.5 -23.5t-18.5 -28.5l-172 -226
v316h144q30 0 41 -10t11 -28zM730 1156q0 14 -28 14h-120v-220l128 168q10 13 15 21.5t5 16.5z" />
    <glyph glyph-name="macron" unicode="&#xaf;" horiz-adv-x="600" 
d="M570 1340h-540v160h540v-160zM546 1364v112h-492v-112h492z" />
    <glyph glyph-name="degree" unicode="&#xb0;" horiz-adv-x="524" 
d="M444 1172q0 -75 -53.5 -128.5t-128.5 -53.5t-128.5 53.5t-53.5 128.5t53.5 128.5t128.5 53.5t128.5 -53.5t53.5 -128.5zM420 1172q0 65 -46.5 111.5t-111.5 46.5t-111.5 -46.5t-46.5 -111.5t46.5 -111.5t111.5 -46.5t111.5 46.5t46.5 111.5zM344 1172q0 -33 -24.5 -57.5
t-57.5 -24.5t-57.5 24.5t-24.5 57.5q0 32 26 57t58 25q33 0 56.5 -24.5t23.5 -57.5zM320 1172q0 23 -16.5 40.5t-39.5 17.5t-41.5 -17.5t-18.5 -40.5q0 -24 17 -41t41 -17t41 17t17 41z" />
    <glyph glyph-name="acute" unicode="&#xb4;" horiz-adv-x="600" 
d="M514 1500l-232 -298h-184l216 298h200zM466 1476h-140l-182 -250h126z" />
    <glyph glyph-name="paragraph" unicode="&#xb6;" horiz-adv-x="996" 
d="M938 1500q-27 -40 -33.5 -80.5t-6.5 -95.5v-1328h-186v1326h-68v-1326h-188v678l-336 494q-66 97 -66 192q0 71 48 105.5t130 34.5h706zM898 1476h-666q-71 0 -109 -25q-45 -29 -45 -91q0 -43 16 -88t46 -90l338 -496v-666h142v1326h116v-1326h138v1304q0 46 4 81t20 71z
M480 919l-174 253q-17 26 -29 53q-15 34 -15 59q0 37 17.5 49.5t68.5 12.5h132v-427zM456 999v323h-104q-42 0 -54 -7t-12 -31q0 -23 13 -50.5t29 -49.5z" />
    <glyph glyph-name="periodcentered" unicode="&#xb7;" horiz-adv-x="490" 
d="M340 594h-192v232h192v-232zM316 618v184h-144v-184h144z" />
    <glyph glyph-name="periodcentered" unicode="&#x2219;" horiz-adv-x="490" 
d="M340 594h-192v232h192v-232zM316 618v184h-144v-184h144z" />
    <glyph glyph-name="cedilla" unicode="&#xb8;" horiz-adv-x="600" 
d="M504 -224q0 -79 -64 -129q-60 -47 -142 -47q-25 0 -65.5 8.5t-58.5 19.5l36 124q20 -13 43 -19.5t45 -6.5q28 0 46 13.5t18 38.5q0 52 -68 52q-28 0 -72 -8v192h108v-84q6 1 14.5 1.5t11.5 0.5q60 0 104 -45t44 -111zM480 -224q0 56 -37 94t-87 38q-17 0 -30 -1.5
t-20 -2.5v86h-60v-140l48 4q92 0 92 -76q0 -35 -24.5 -55.5t-63.5 -20.5q-30 0 -72 16l-22 -78q20 -7 46.5 -11.5t47.5 -4.5q72 0 125 40q57 43 57 112z" />
    <glyph glyph-name="guillemotright" unicode="&#xbb;" horiz-adv-x="800" 
d="M714 644l-300 -194v178l116 80l-116 80v180l300 -192v-132zM368 644l-300 -194v178l116 80l-116 80v180l300 -192v-132zM690 658v104l-252 162v-122l136 -92l-136 -96v-120zM344 658v104l-252 162v-122l136 -92l-136 -96v-120z" />
    <glyph glyph-name="questiondown" unicode="&#xbf;" horiz-adv-x="990" 
d="M755 1398q0 -42 -30 -72t-72 -30t-72 30t-30 72t30 71t72 29t72 -29t30 -71zM915 266q-51 -115 -146 -183q-115 -83 -280 -83q-157 0 -272 98q-126 107 -126 276q0 95 24 164q20 59 65 114q29 36 95 98l198 192q73 71 81 151q3 29 3 147h192v-148q0 -87 -43 -157
q-32 -52 -129 -149q-102 -102 -152 -156q-73 -79 -102 -126q-36 -58 -36 -108q0 -76 62 -138t150 -62q68 0 133 42q70 46 111 124zM731 1398q0 32 -23 54t-55 22t-55 -22t-23 -54t23 -55t55 -23t55 23t23 55zM883 256l-130 74q-46 -75 -118 -118q-67 -40 -136 -40
q-98 0 -167 69t-69 155q0 52 36 112q31 52 104 132q54 59 158 162q93 95 122 141q42 67 42 149v124h-144q0 -109 -4 -139q-10 -77 -88 -153l-198 -192q-64 -60 -90 -92q-43 -53 -63 -109q-23 -65 -23 -157q0 -158 118 -258q109 -92 256 -92q148 0 255 71q90 60 139 161z" />
    <glyph glyph-name="Agrave" unicode="&#xc0;" horiz-adv-x="1060" 
d="M950 0h-272q27 40 35 91q5 30 5 85v280h-436q0 -27 -1 -86t-1 -89q0 -98 8 -167t32 -114h-280q29 43 42.5 88t13.5 88v226q0 260 108.5 516.5t294.5 415.5q199 170 389 170h25.5t36.5 -4q-23 -40 -30.5 -81.5t-7.5 -88.5v-1154q0 -52 5 -82q9 -50 33 -94zM912 24
q-14 36 -19 73.5t-5 78.5v1154q0 51 4 80t20 68l-30 2q-179 -2 -369 -169q-177 -156 -285 -406t-108 -503v-226q0 -73 -38 -152h202q-16 45 -21.5 103.5t-5.5 141.5q0 51 1.5 130.5t1.5 80.5h482v-304q0 -46 -4 -81t-20 -71h194zM742 618h-458q17 107 73 238q65 154 156 270
q108 138 229 190v-698zM718 642v640q-104 -56 -197 -181q-80 -107 -139 -244q-50 -115 -70 -215h406zM894 1601h-184l-232 298h200zM848 1625l-182 250h-140l196 -250h126z" />
    <glyph glyph-name="Aacute" unicode="&#xc1;" horiz-adv-x="1060" 
d="M950 0h-272q27 40 35 91q5 30 5 85v280h-436q0 -27 -1 -86t-1 -89q0 -98 8 -167t32 -114h-280q29 43 42.5 88t13.5 88v226q0 260 108.5 516.5t294.5 415.5q199 170 389 170h25.5t36.5 -4q-23 -40 -30.5 -81.5t-7.5 -88.5v-1154q0 -52 5 -82q9 -50 33 -94zM912 24
q-14 36 -19 73.5t-5 78.5v1154q0 51 4 80t20 68l-30 2q-179 -2 -369 -169q-177 -156 -285 -406t-108 -503v-226q0 -73 -38 -152h202q-16 45 -21.5 103.5t-5.5 141.5q0 51 1.5 130.5t1.5 80.5h482v-304q0 -46 -4 -81t-20 -71h194zM742 618h-458q17 107 73 238q65 154 156 270
q108 138 229 190v-698zM718 642v640q-104 -56 -197 -181q-80 -107 -139 -244q-50 -115 -70 -215h406zM867 1904l-232 -298h-184l216 298h200zM819 1880h-140l-182 -250h126z" />
    <glyph glyph-name="Acircumflex" unicode="&#xc2;" horiz-adv-x="1060" 
d="M950 0h-272q27 40 35 91q5 30 5 85v280h-436q0 -27 -1 -86t-1 -89q0 -98 8 -167t32 -114h-280q29 43 42.5 88t13.5 88v226q0 260 108.5 516.5t294.5 415.5q199 170 389 170h25.5t36.5 -4q-23 -40 -30.5 -81.5t-7.5 -88.5v-1154q0 -52 5 -82q9 -50 33 -94zM912 24
q-14 36 -19 73.5t-5 78.5v1154q0 51 4 80t20 68l-30 2q-179 -2 -369 -169q-177 -156 -285 -406t-108 -503v-226q0 -73 -38 -152h202q-16 45 -21.5 103.5t-5.5 141.5q0 51 1.5 130.5t1.5 80.5h482v-304q0 -46 -4 -81t-20 -71h194zM742 618h-458q17 107 73 238q65 154 156 270
q108 138 229 190v-698zM718 642v640q-104 -56 -197 -181q-80 -107 -139 -244q-50 -115 -70 -215h406zM1051 1604h-184l-116 144l-116 -144h-184l220 298h160zM1003 1628l-184 250h-136l-184 -250h126l126 158l126 -158h126z" />
    <glyph glyph-name="Atilde" unicode="&#xc3;" horiz-adv-x="1060" 
d="M950 0h-272q27 40 35 91q5 30 5 85v280h-436q0 -27 -1 -86t-1 -89q0 -98 8 -167t32 -114h-280q29 43 42.5 88t13.5 88v226q0 260 108.5 516.5t294.5 415.5q199 170 389 170h25.5t36.5 -4q-23 -40 -30.5 -81.5t-7.5 -88.5v-1154q0 -52 5 -82q9 -50 33 -94zM912 24
q-14 36 -19 73.5t-5 78.5v1154q0 51 4 80t20 68l-30 2q-179 -2 -369 -169q-177 -156 -285 -406t-108 -503v-226q0 -73 -38 -152h202q-16 45 -21.5 103.5t-5.5 141.5q0 51 1.5 130.5t1.5 80.5h482v-304q0 -46 -4 -81t-20 -71h194zM742 618h-458q17 107 73 238q65 154 156 270
q108 138 229 190v-698zM718 642v640q-104 -56 -197 -181q-80 -107 -139 -244q-50 -115 -70 -215h406zM994 1633q-48 -32 -132 -32q-59 0 -142 27t-134 27q-35 0 -69.5 -15t-62.5 -41v188q48 32 132 32q47 0 102 -16q131 -38 174 -38q35 0 69.5 15t62.5 41v-188zM970 1647
v126q-51 -32 -108 -32q-52 0 -108 16q-134 38 -168 38q-67 0 -108 -22v-126q51 32 108 32q43 0 165 -36q61 -18 111 -18q67 0 108 22z" />
    <glyph glyph-name="Adieresis" unicode="&#xc4;" horiz-adv-x="1060" 
d="M950 0h-272q27 40 35 91q5 30 5 85v280h-436q0 -27 -1 -86t-1 -89q0 -98 8 -167t32 -114h-280q29 43 42.5 88t13.5 88v226q0 260 108.5 516.5t294.5 415.5q199 170 389 170h25.5t36.5 -4q-23 -40 -30.5 -81.5t-7.5 -88.5v-1154q0 -52 5 -82q9 -50 33 -94zM912 24
q-14 36 -19 73.5t-5 78.5v1154q0 51 4 80t20 68l-30 2q-179 -2 -369 -169q-177 -156 -285 -406t-108 -503v-226q0 -73 -38 -152h202q-16 45 -21.5 103.5t-5.5 141.5q0 51 1.5 130.5t1.5 80.5h482v-304q0 -46 -4 -81t-20 -71h194zM742 618h-458q17 107 73 238q65 154 156 270
q108 138 229 190v-698zM718 642v640q-104 -56 -197 -181q-80 -107 -139 -244q-50 -115 -70 -215h406zM994 1602h-192v192h192v-192zM666 1602h-192v192h192v-192zM970 1626v144h-144v-144h144zM642 1626v144h-144v-144h144z" />
    <glyph glyph-name="Aring" unicode="&#xc5;" horiz-adv-x="1060" 
d="M950 0h-272q27 40 35 91q5 30 5 85v280h-436q0 -27 -1 -86t-1 -89q0 -98 8 -167t32 -114h-280q29 43 42.5 88t13.5 88v226q0 260 108.5 516.5t294.5 415.5q199 170 389 170h25.5t36.5 -4q-23 -40 -30.5 -81.5t-7.5 -88.5v-1154q0 -52 5 -82q9 -50 33 -94zM912 24
q-14 36 -19 73.5t-5 78.5v1154q0 51 4 80t20 68l-30 2q-179 -2 -369 -169q-177 -156 -285 -406t-108 -503v-226q0 -73 -38 -152h202q-16 45 -21.5 103.5t-5.5 141.5q0 51 1.5 130.5t1.5 80.5h482v-304q0 -46 -4 -81t-20 -71h194zM742 618h-458q17 107 73 238q65 154 156 270
q108 138 229 190v-698zM718 642v640q-104 -56 -197 -181q-80 -107 -139 -244q-50 -115 -70 -215h406zM964 1774q0 -71 -51.5 -122.5t-122.5 -51.5t-122.5 51.5t-51.5 122.5t51.5 122.5t122.5 51.5t122.5 -51.5t51.5 -122.5zM940 1774q0 62 -44 106t-106 44t-106 -44
t-44 -106t44 -106t106 -44t106 44t44 106zM854 1774q0 -27 -18.5 -45.5t-45.5 -18.5t-45.5 18.5t-18.5 45.5q0 26 20 45t46 19q27 0 44.5 -18.5t17.5 -45.5zM830 1774q0 17 -10.5 28.5t-27.5 11.5t-29.5 -11.5t-12.5 -28.5t11.5 -28.5t28.5 -11.5t28.5 11.5t11.5 28.5z" />
    <glyph glyph-name="AE" unicode="&#xc6;" horiz-adv-x="1628" 
d="M1576 0h-898q27 40 35 91q5 30 5 85v280h-436q0 -27 -1 -86t-1 -89q0 -98 8 -167t32 -114h-280q29 43 42.5 88t13.5 88v226q0 334 175.5 650t420.5 410q-4 10 -8 18q-7 13 -10 20h818v-248q-49 31 -78 41q-38 13 -98 13h-380v-80h500v-194h-500v-838h464q66 0 113 20
q11 5 63 34v-248zM1552 24v184q-39 -21 -70 -29.5t-82 -8.5h-488v886h500v146h-500v128h404q54 0 85.5 -7.5t66.5 -28.5v182h-556h-190l12 -22q-255 -84 -434.5 -397t-179.5 -655v-226q0 -73 -38 -152h202q-16 45 -21.5 103.5t-5.5 141.5q0 51 1.5 130.5t1.5 80.5h482v-304
q0 -46 -4 -81t-20 -71h834zM742 618h-460q24 119 77 243q66 155 151 265q104 134 232 196v-704zM718 642v638q-109 -61 -203 -189q-77 -105 -136 -243q-48 -112 -67 -206h406z" />
    <glyph glyph-name="AE" unicode="&#xe6;" horiz-adv-x="1628" 
d="M1576 0h-898q27 40 35 91q5 30 5 85v280h-436q0 -27 -1 -86t-1 -89q0 -98 8 -167t32 -114h-280q29 43 42.5 88t13.5 88v226q0 334 175.5 650t420.5 410q-4 10 -8 18q-7 13 -10 20h818v-248q-49 31 -78 41q-38 13 -98 13h-380v-80h500v-194h-500v-838h464q66 0 113 20
q11 5 63 34v-248zM1552 24v184q-39 -21 -70 -29.5t-82 -8.5h-488v886h500v146h-500v128h404q54 0 85.5 -7.5t66.5 -28.5v182h-556h-190l12 -22q-255 -84 -434.5 -397t-179.5 -655v-226q0 -73 -38 -152h202q-16 45 -21.5 103.5t-5.5 141.5q0 51 1.5 130.5t1.5 80.5h482v-304
q0 -46 -4 -81t-20 -71h834zM742 618h-460q24 119 77 243q66 155 151 265q104 134 232 196v-704zM718 642v638q-109 -61 -203 -189q-77 -105 -136 -243q-48 -112 -67 -206h406z" />
    <glyph glyph-name="Ccedilla" unicode="&#xc7;" horiz-adv-x="1048" 
d="M988 -12q-115 25 -232 78v-70q6 1 14.5 1.5t11.5 0.5q60 0 104 -45t44 -111q0 -79 -64 -129q-60 -47 -142 -47q-25 0 -65.5 8.5t-58.5 19.5l36 124q20 -13 43 -19.5t45 -6.5q28 0 46 13.5t18 38.5q0 52 -68 52q-19 0 -35.5 -2t-40.5 -6v232q-255 144 -402 356
q-166 238 -166 526q0 221 131.5 365.5t330.5 144.5q59 0 111 -3q156 -9 177 -9v-262q-69 46 -126.5 64t-131.5 18q-129 0 -208.5 -90.5t-79.5 -239.5q0 -211 132 -401q114 -164 290 -271q161 -98 286 -98v-232zM964 18v178q-122 0 -285 103q-177 112 -290 279
q-133 197 -133 412q0 159 86.5 256.5t225.5 97.5q133 0 234 -62v194q-68 6 -128.5 9t-135.5 3q-189 0 -313.5 -138.5t-124.5 -347.5q0 -279 164 -514q149 -213 404 -356v-216l52 4q92 0 92 -76q0 -35 -24.5 -55.5t-63.5 -20.5q-30 0 -72 16l-22 -78q20 -7 46.5 -11.5
t47.5 -4.5q72 0 125 40q57 43 57 112q0 56 -37 94t-87 38q-17 0 -30 -1.5t-20 -2.5v132q118 -51 232 -84z" />
    <glyph glyph-name="Egrave" unicode="&#xc8;" horiz-adv-x="1034" 
d="M982 0h-874q27 40 35 91q5 30 5 85v1148q0 54 -5 84q-9 53 -35 92h790v-248q-49 31 -78 41q-38 13 -98 13h-380v-80h500v-194h-500v-838h464q66 0 113 20q11 5 63 34v-248zM958 24v184q-35 -20 -67.5 -29t-84.5 -9h-488v886h500v146h-500v128h404q54 0 86.5 -9t65.5 -29
v184h-724q11 -21 16.5 -55.5t5.5 -96.5v-1148q0 -52 -4 -86t-20 -66h810zM729 1606h-184l-232 298h200zM683 1630l-182 250h-140l196 -250h126z" />
    <glyph glyph-name="Eacute" unicode="&#xc9;" horiz-adv-x="1034" 
d="M982 0h-874q27 40 35 91q5 30 5 85v1148q0 54 -5 84q-9 53 -35 92h790v-248q-49 31 -78 41q-38 13 -98 13h-380v-80h500v-194h-500v-838h464q66 0 113 20q11 5 63 34v-248zM958 24v184q-35 -20 -67.5 -29t-84.5 -9h-488v886h500v146h-500v128h404q54 0 86.5 -9t65.5 -29
v184h-724q11 -21 16.5 -55.5t5.5 -96.5v-1148q0 -52 -4 -86t-20 -66h810zM748 1902l-232 -298h-184l216 298h200zM700 1878h-140l-182 -250h126z" />
    <glyph glyph-name="Ecircumflex" unicode="&#xca;" horiz-adv-x="1034" 
d="M982 0h-874q27 40 35 91q5 30 5 85v1148q0 54 -5 84q-9 53 -35 92h790v-248q-49 31 -78 41q-38 13 -98 13h-380v-80h500v-194h-500v-838h464q66 0 113 20q11 5 63 34v-248zM958 24v184q-35 -20 -67.5 -29t-84.5 -9h-488v886h500v146h-500v128h404q54 0 86.5 -9t65.5 -29
v184h-724q11 -21 16.5 -55.5t5.5 -96.5v-1148q0 -52 -4 -86t-20 -66h810zM820 1605h-184l-116 144l-116 -144h-184l220 298h160zM772 1629l-184 250h-136l-184 -250h126l126 158l126 -158h126z" />
    <glyph glyph-name="Edieresis" unicode="&#xcb;" horiz-adv-x="1034" 
d="M982 0h-874q27 40 35 91q5 30 5 85v1148q0 54 -5 84q-9 53 -35 92h790v-248q-49 31 -78 41q-38 13 -98 13h-380v-80h500v-194h-500v-838h464q66 0 113 20q11 5 63 34v-248zM958 24v184q-35 -20 -67.5 -29t-84.5 -9h-488v886h500v146h-500v128h404q54 0 86.5 -9t65.5 -29
v184h-724q11 -21 16.5 -55.5t5.5 -96.5v-1148q0 -52 -4 -86t-20 -66h810zM792 1601h-192v192h192v-192zM464 1601h-192v192h192v-192zM768 1625v144h-144v-144h144zM440 1625v144h-144v-144h144z" />
    <glyph glyph-name="Igrave" unicode="&#xcc;" horiz-adv-x="490" 
d="M380 0h-272q27 40 35 91q5 30 5 85v1148q0 54 -5 84q-9 53 -35 92h272q-23 -42 -30.5 -85.5t-7.5 -90.5v-1148q0 -52 5 -82q9 -50 33 -94zM340 24q-13 31 -17.5 71t-4.5 81v1148q0 59 5.5 92.5t16.5 59.5h-190q11 -21 16.5 -55.5t5.5 -96.5v-1148q0 -57 -3 -89t-19 -63
h190zM369 1604h-184l-232 298h200zM323 1628l-182 250h-140l196 -250h126z" />
    <glyph glyph-name="Iacute" unicode="&#xcd;" horiz-adv-x="490" 
d="M380 0h-272q27 40 35 91q5 30 5 85v1148q0 54 -5 84q-9 53 -35 92h272q-23 -42 -30.5 -85.5t-7.5 -90.5v-1148q0 -52 5 -82q9 -50 33 -94zM340 24q-13 31 -17.5 71t-4.5 81v1148q0 59 5.5 92.5t16.5 59.5h-190q11 -21 16.5 -55.5t5.5 -96.5v-1148q0 -57 -3 -89t-19 -63
h190zM519 1902l-232 -298h-184l216 298h200zM471 1878h-140l-182 -250h126z" />
    <glyph glyph-name="Icircumflex" unicode="&#xce;" horiz-adv-x="490" 
d="M380 0h-272q27 40 35 91q5 30 5 85v1148q0 54 -5 84q-9 53 -35 92h272q-23 -42 -30.5 -85.5t-7.5 -90.5v-1148q0 -52 5 -82q9 -50 33 -94zM340 24q-13 31 -17.5 71t-4.5 81v1148q0 59 5.5 92.5t16.5 59.5h-190q11 -21 16.5 -55.5t5.5 -96.5v-1148q0 -57 -3 -89t-19 -63
h190zM544 1606h-184l-116 144l-116 -144h-184l220 298h160zM496 1630l-184 250h-136l-184 -250h126l126 158l126 -158h126z" />
    <glyph glyph-name="Idieresis" unicode="&#xcf;" horiz-adv-x="490" 
d="M380 0h-272q27 40 35 91q5 30 5 85v1148q0 54 -5 84q-9 53 -35 92h272q-23 -42 -30.5 -85.5t-7.5 -90.5v-1148q0 -52 5 -82q9 -50 33 -94zM340 24q-13 31 -17.5 71t-4.5 81v1148q0 59 5.5 92.5t16.5 59.5h-190q11 -21 16.5 -55.5t5.5 -96.5v-1148q0 -57 -3 -89t-19 -63
h190zM503 1587h-192v192h192v-192zM175 1587h-192v192h192v-192zM479 1611v144h-144v-144h144zM151 1611v144h-144v-144h144z" />
    <glyph glyph-name="Eth" unicode="&#xd0;" horiz-adv-x="1120" 
d="M1044 516q0 -244 -115.5 -380t-304.5 -136h-516q27 40 35 91q5 30 5 85v434h-116v186h116v538q0 53 -5 84q-9 54 -35 96q206 -20 425.5 -165.5t358.5 -358.5q152 -233 152 -474zM1020 516q0 229 -142 453q-129 204 -335 348q-201 140 -391 167q13 -29 16.5 -67.5
t3.5 -82.5v-562h-116v-138h116v-458q0 -57 -3 -89t-19 -63h474q180 0 286 127q110 132 110 365zM870 514q0 -170 -81 -260q-74 -82 -199 -82h-272v462h144v138h-144v474q205 -60 374 -272q178 -224 178 -460zM846 514q0 220 -164 435q-155 203 -340 265v-418h144v-186h-144
v-414h248q114 0 182 77q74 84 74 241z" />
    <glyph glyph-name="Eth" unicode="&#xf0;" horiz-adv-x="1120" 
d="M1044 516q0 -244 -115.5 -380t-304.5 -136h-516q27 40 35 91q5 30 5 85v434h-116v186h116v538q0 53 -5 84q-9 54 -35 96q206 -20 425.5 -165.5t358.5 -358.5q152 -233 152 -474zM1020 516q0 229 -142 453q-129 204 -335 348q-201 140 -391 167q13 -29 16.5 -67.5
t3.5 -82.5v-562h-116v-138h116v-458q0 -57 -3 -89t-19 -63h474q180 0 286 127q110 132 110 365zM870 514q0 -170 -81 -260q-74 -82 -199 -82h-272v462h144v138h-144v474q205 -60 374 -272q178 -224 178 -460zM846 514q0 220 -164 435q-155 203 -340 265v-418h144v-186h-144
v-414h248q114 0 182 77q74 84 74 241z" />
    <glyph glyph-name="Ntilde" unicode="&#xd1;" horiz-adv-x="1126" 
d="M1016 0h-272q27 40 35 91q5 30 5 85v366l-442 616v-982q0 -52 5 -82q9 -50 33 -94h-272q27 40 35 91q5 30 5 85v1148q0 54 -5 84q-9 53 -35 92h312q-10 -27 -10 -56t8 -52.5t22 -43.5q62 -90 130 -185q21 -29 126 -175l88 -122v458q0 54 -5 84q-9 53 -35 92h272
q-23 -42 -30.5 -85.5t-7.5 -90.5v-1148q0 -52 5 -82q9 -50 33 -94zM976 24q-13 31 -17.5 71t-4.5 81v1148q0 59 5.5 92.5t16.5 59.5h-190q11 -21 16.5 -55.5t5.5 -96.5v-534q-33 46 -66 93q-77 107 -153 213t-169 240q-15 20 -25.5 52.5t-10.5 62.5q0 9 2 25h-236
q11 -21 16.5 -55.5t5.5 -96.5v-1148q0 -57 -3 -89t-19 -63h190q-13 31 -17.5 71t-4.5 81v1058l490 -682v-376q0 -57 -3 -89t-19 -63h190zM839 1635q-48 -32 -132 -32q-59 0 -142 27t-134 27q-35 0 -69.5 -15t-62.5 -41v188q48 32 132 32q47 0 102 -16q131 -38 174 -38
q35 0 69.5 15t62.5 41v-188zM815 1649v126q-51 -32 -108 -32q-52 0 -108 16q-134 38 -168 38q-67 0 -108 -22v-126q51 32 108 32q43 0 165 -36q61 -18 111 -18q67 0 108 22z" />
    <glyph glyph-name="Ograve" unicode="&#xd2;" horiz-adv-x="1340" 
d="M1282 756q0 -348 -169 -552t-457 -204q-273 0 -435.5 197.5t-162.5 528.5q0 379 160.5 577.5t455.5 198.5q286 0 447 -195t161 -551zM1258 756q0 344 -154 533t-430 189q-285 0 -437 -190q-155 -194 -155 -562q0 -320 155 -511t419 -191q277 0 439.5 197.5t162.5 534.5z
M1114 772q0 -258 -113 -427q-124 -185 -339 -185q-204 0 -324 174q-112 162 -112 404q0 263 107 429q118 183 329 183q209 0 333 -165q119 -159 119 -413zM1090 772q0 243 -111 395q-116 159 -317 159t-312 -177q-100 -159 -100 -411q0 -232 104 -386q113 -168 308 -168
q205 0 322 179q106 162 106 409zM832 1606h-184l-232 298h200zM786 1630l-182 250h-140l196 -250h126z" />
    <glyph glyph-name="Oacute" unicode="&#xd3;" horiz-adv-x="1340" 
d="M1282 756q0 -348 -169 -552t-457 -204q-273 0 -435.5 197.5t-162.5 528.5q0 379 160.5 577.5t455.5 198.5q286 0 447 -195t161 -551zM1258 756q0 344 -154 533t-430 189q-285 0 -437 -190q-155 -194 -155 -562q0 -320 155 -511t419 -191q277 0 439.5 197.5t162.5 534.5z
M1114 772q0 -258 -113 -427q-124 -185 -339 -185q-204 0 -324 174q-112 162 -112 404q0 263 107 429q118 183 329 183q209 0 333 -165q119 -159 119 -413zM1090 772q0 243 -111 395q-116 159 -317 159t-312 -177q-100 -159 -100 -411q0 -232 104 -386q113 -168 308 -168
q205 0 322 179q106 162 106 409zM875 1902l-232 -298h-184l216 298h200zM827 1878h-140l-182 -250h126z" />
    <glyph glyph-name="Ocircumflex" unicode="&#xd4;" horiz-adv-x="1340" 
d="M1282 756q0 -348 -169 -552t-457 -204q-273 0 -435.5 197.5t-162.5 528.5q0 379 160.5 577.5t455.5 198.5q286 0 447 -195t161 -551zM1258 756q0 344 -154 533t-430 189q-285 0 -437 -190q-155 -194 -155 -562q0 -320 155 -511t419 -191q277 0 439.5 197.5t162.5 534.5z
M1114 772q0 -258 -113 -427q-124 -185 -339 -185q-204 0 -324 174q-112 162 -112 404q0 263 107 429q118 183 329 183q209 0 333 -165q119 -159 119 -413zM1090 772q0 243 -111 395q-116 159 -317 159t-312 -177q-100 -159 -100 -411q0 -232 104 -386q113 -168 308 -168
q205 0 322 179q106 162 106 409zM977 1606h-184l-116 144l-116 -144h-184l220 298h160zM929 1630l-184 250h-136l-184 -250h126l126 158l126 -158h126z" />
    <glyph glyph-name="Otilde" unicode="&#xd5;" horiz-adv-x="1340" 
d="M1282 756q0 -348 -169 -552t-457 -204q-273 0 -435.5 197.5t-162.5 528.5q0 379 160.5 577.5t455.5 198.5q286 0 447 -195t161 -551zM1258 756q0 344 -154 533t-430 189q-285 0 -437 -190q-155 -194 -155 -562q0 -320 155 -511t419 -191q277 0 439.5 197.5t162.5 534.5z
M1114 772q0 -258 -113 -427q-124 -185 -339 -185q-204 0 -324 174q-112 162 -112 404q0 263 107 429q118 183 329 183q209 0 333 -165q119 -159 119 -413zM1090 772q0 243 -111 395q-116 159 -317 159t-312 -177q-100 -159 -100 -411q0 -232 104 -386q113 -168 308 -168
q205 0 322 179q106 162 106 409zM925 1635q-48 -32 -132 -32q-59 0 -142 27t-134 27q-35 0 -69.5 -15t-62.5 -41v188q48 32 132 32q47 0 102 -16q131 -38 174 -38q35 0 69.5 15t62.5 41v-188zM901 1649v126q-51 -32 -108 -32q-52 0 -108 16q-134 38 -168 38q-67 0 -108 -22
v-126q51 32 108 32q43 0 165 -36q61 -18 111 -18q67 0 108 22z" />
    <glyph glyph-name="Odieresis" unicode="&#xd6;" horiz-adv-x="1340" 
d="M1282 756q0 -348 -169 -552t-457 -204q-273 0 -435.5 197.5t-162.5 528.5q0 379 160.5 577.5t455.5 198.5q286 0 447 -195t161 -551zM1258 756q0 344 -154 533t-430 189q-285 0 -437 -190q-155 -194 -155 -562q0 -320 155 -511t419 -191q277 0 439.5 197.5t162.5 534.5z
M1114 772q0 -258 -113 -427q-124 -185 -339 -185q-204 0 -324 174q-112 162 -112 404q0 263 107 429q118 183 329 183q209 0 333 -165q119 -159 119 -413zM1090 772q0 243 -111 395q-116 159 -317 159t-312 -177q-100 -159 -100 -411q0 -232 104 -386q113 -168 308 -168
q205 0 322 179q106 162 106 409zM942 1601h-192v192h192v-192zM614 1601h-192v192h192v-192zM918 1625v144h-144v-144h144zM590 1625v144h-144v-144h144z" />
    <glyph glyph-name="multiply" unicode="&#xd7;" horiz-adv-x="680" 
d="M583 682l-126 -125l125 -125l-116 -116l-125 125l-125 -126l-119 119l126 125l-125 125l116 116l125 -125l125 126zM549 682l-85 85l-125 -126l-125 125l-82 -82l125 -125l-126 -125l85 -85l125 126l125 -125l82 82l-125 125z" />
    <glyph glyph-name="Oslash" unicode="&#xd8;" horiz-adv-x="1336" 
d="M1288 1500l-154 -230q73 -100 111.5 -235t38.5 -295q0 -340 -165 -540t-451 -200q-96 0 -176.5 23t-151.5 69l-62 -92h-212l142 212q-75 96 -115.5 231.5t-40.5 296.5q0 342 165.5 551t450.5 209q97 0 181.5 -25.5t154.5 -76.5l68 102h216zM1260 740q0 157 -39 293
t-117 235l140 208h-162l-74 -110q-77 56 -161 83t-179 27q-273 0 -432.5 -203t-159.5 -533q0 -158 40.5 -292t119.5 -230l-130 -194h162l68 100q83 -55 160 -77.5t172 -22.5q274 0 433 194t159 522zM924 1242l-598 -892q-49 80 -75.5 182t-26.5 208q0 253 114 420
q123 180 330 180q73 0 137 -24t119 -74zM1112 740q0 -250 -115 -410q-122 -170 -331 -170q-71 0 -130 20t-118 66l596 888q49 -82 73.5 -184t24.5 -210zM896 1236q-95 80 -228 80q-197 0 -313 -173q-107 -160 -107 -403q0 -205 80 -350zM1088 740q0 199 -76 348l-564 -836
q47 -33 100.5 -50.5t117.5 -17.5q198 0 314 163q108 152 108 393z" />
    <glyph glyph-name="Oslash" unicode="&#xf8;" horiz-adv-x="1336" 
d="M1288 1500l-154 -230q73 -100 111.5 -235t38.5 -295q0 -340 -165 -540t-451 -200q-96 0 -176.5 23t-151.5 69l-62 -92h-212l142 212q-75 96 -115.5 231.5t-40.5 296.5q0 342 165.5 551t450.5 209q97 0 181.5 -25.5t154.5 -76.5l68 102h216zM1260 740q0 157 -39 293
t-117 235l140 208h-162l-74 -110q-77 56 -161 83t-179 27q-273 0 -432.5 -203t-159.5 -533q0 -158 40.5 -292t119.5 -230l-130 -194h162l68 100q83 -55 160 -77.5t172 -22.5q274 0 433 194t159 522zM924 1242l-598 -892q-49 80 -75.5 182t-26.5 208q0 253 114 420
q123 180 330 180q73 0 137 -24t119 -74zM1112 740q0 -250 -115 -410q-122 -170 -331 -170q-71 0 -130 20t-118 66l596 888q49 -82 73.5 -184t24.5 -210zM896 1236q-95 80 -228 80q-197 0 -313 -173q-107 -160 -107 -403q0 -205 80 -350zM1088 740q0 199 -76 348l-564 -836
q47 -33 100.5 -50.5t117.5 -17.5q198 0 314 163q108 152 108 393z" />
    <glyph glyph-name="Ugrave" unicode="&#xd9;" horiz-adv-x="1126" 
d="M1020 -18q-235 52 -464 252q-210 183 -345 426t-135 436q0 65 8 120.5t23 90t21.5 65.5t6.5 60q0 22 -1.5 34t-7.5 34h318q-80 -88 -116 -157q-48 -91 -48 -187q0 -174 82 -353q73 -159 195 -293q115 -126 227 -182v996q0 54 -5 84q-9 53 -35 92h272q-23 -42 -30.5 -85.5
t-7.5 -90.5v-1160q0 -50 7.5 -93t34.5 -89zM978 16q-13 33 -18.5 70t-5.5 78v1160q0 59 5.5 92.5t16.5 59.5h-190q11 -21 16.5 -55.5t5.5 -96.5v-1030q-125 54 -250 183q-132 136 -212 306q-90 190 -90 373q0 93 41 180q33 69 95 140h-236q3 -18 3 -45q0 -35 -5.5 -64
t-23.5 -67q-14 -32 -22 -89.5t-8 -114.5q0 -184 127 -417t324 -413q228 -200 427 -250zM732 1606h-184l-232 298h200zM686 1630l-182 250h-140l196 -250h126z" />
    <glyph glyph-name="Uacute" unicode="&#xda;" horiz-adv-x="1126" 
d="M1020 -18q-235 52 -464 252q-210 183 -345 426t-135 436q0 65 8 120.5t23 90t21.5 65.5t6.5 60q0 22 -1.5 34t-7.5 34h318q-80 -88 -116 -157q-48 -91 -48 -187q0 -174 82 -353q73 -159 195 -293q115 -126 227 -182v996q0 54 -5 84q-9 53 -35 92h272q-23 -42 -30.5 -85.5
t-7.5 -90.5v-1160q0 -50 7.5 -93t34.5 -89zM978 16q-13 33 -18.5 70t-5.5 78v1160q0 59 5.5 92.5t16.5 59.5h-190q11 -21 16.5 -55.5t5.5 -96.5v-1030q-125 54 -250 183q-132 136 -212 306q-90 190 -90 373q0 93 41 180q33 69 95 140h-236q3 -18 3 -45q0 -35 -5.5 -64
t-23.5 -67q-14 -32 -22 -89.5t-8 -114.5q0 -184 127 -417t324 -413q228 -200 427 -250zM812 1904l-232 -298h-184l216 298h200zM764 1880h-140l-182 -250h126z" />
    <glyph glyph-name="Ucircumflex" unicode="&#xdb;" horiz-adv-x="1126" 
d="M1020 -18q-235 52 -464 252q-210 183 -345 426t-135 436q0 65 8 120.5t23 90t21.5 65.5t6.5 60q0 22 -1.5 34t-7.5 34h318q-80 -88 -116 -157q-48 -91 -48 -187q0 -174 82 -353q73 -159 195 -293q115 -126 227 -182v996q0 54 -5 84q-9 53 -35 92h272q-23 -42 -30.5 -85.5
t-7.5 -90.5v-1160q0 -50 7.5 -93t34.5 -89zM978 16q-13 33 -18.5 70t-5.5 78v1160q0 59 5.5 92.5t16.5 59.5h-190q11 -21 16.5 -55.5t5.5 -96.5v-1030q-125 54 -250 183q-132 136 -212 306q-90 190 -90 373q0 93 41 180q33 69 95 140h-236q3 -18 3 -45q0 -35 -5.5 -64
t-23.5 -67q-14 -32 -22 -89.5t-8 -114.5q0 -184 127 -417t324 -413q228 -200 427 -250zM886 1605h-184l-116 144l-116 -144h-184l220 298h160zM838 1629l-184 250h-136l-184 -250h126l126 158l126 -158h126z" />
    <glyph glyph-name="Udieresis" unicode="&#xdc;" horiz-adv-x="1126" 
d="M1020 -18q-235 52 -464 252q-210 183 -345 426t-135 436q0 65 8 120.5t23 90t21.5 65.5t6.5 60q0 22 -1.5 34t-7.5 34h318q-80 -88 -116 -157q-48 -91 -48 -187q0 -174 82 -353q73 -159 195 -293q115 -126 227 -182v996q0 54 -5 84q-9 53 -35 92h272q-23 -42 -30.5 -85.5
t-7.5 -90.5v-1160q0 -50 7.5 -93t34.5 -89zM978 16q-13 33 -18.5 70t-5.5 78v1160q0 59 5.5 92.5t16.5 59.5h-190q11 -21 16.5 -55.5t5.5 -96.5v-1030q-125 54 -250 183q-132 136 -212 306q-90 190 -90 373q0 93 41 180q33 69 95 140h-236q3 -18 3 -45q0 -35 -5.5 -64
t-23.5 -67q-14 -32 -22 -89.5t-8 -114.5q0 -184 127 -417t324 -413q228 -200 427 -250zM863 1601h-192v192h192v-192zM535 1601h-192v192h192v-192zM839 1625v144h-144v-144h144zM511 1625v144h-144v-144h144z" />
    <glyph glyph-name="Yacute" unicode="&#xdd;" horiz-adv-x="904" 
d="M930 1500q-36 -16 -106 -77q-42 -37 -92 -87q-31 -32 -99.5 -111t-86.5 -101v-948q0 -52 5 -82q9 -50 33 -94h-272q27 40 35 91q5 30 5 85v938q-14 16 -89 99q-78 86 -95 103q-47 52 -81 86q-63 64 -119 98h366q-2 -9 -2 -26q0 -52 38 -94l74 -84q9 11 35 43.5t41 52.5
q24 30 34 53t10 55h366zM852 1476h-264q0 -23 -12 -46q-7 -13 -36 -54q-20 -27 -57 -73q-12 -16 -35 -43l-94 104q-24 27 -36 56t-12 56h-260q31 -27 75 -75q31 -35 63 -69q22 -22 109 -118q29 -32 83 -92v-946q0 -57 -3 -89t-19 -63h190q-13 31 -17.5 71t-4.5 81v958
l194 218q28 32 59 61q41 39 77 63zM703 1899l-232 -298h-184l216 298h200zM655 1875h-140l-182 -250h126z" />
    <glyph glyph-name="Yacute" unicode="&#xfd;" horiz-adv-x="904" 
d="M930 1500q-36 -16 -106 -77q-42 -37 -92 -87q-31 -32 -99.5 -111t-86.5 -101v-948q0 -52 5 -82q9 -50 33 -94h-272q27 40 35 91q5 30 5 85v938q-14 16 -89 99q-78 86 -95 103q-47 52 -81 86q-63 64 -119 98h366q-2 -9 -2 -26q0 -52 38 -94l74 -84q9 11 35 43.5t41 52.5
q24 30 34 53t10 55h366zM852 1476h-264q0 -23 -12 -46q-7 -13 -36 -54q-20 -27 -57 -73q-12 -16 -35 -43l-94 104q-24 27 -36 56t-12 56h-260q31 -27 75 -75q31 -35 63 -69q22 -22 109 -118q29 -32 83 -92v-946q0 -57 -3 -89t-19 -63h190q-13 31 -17.5 71t-4.5 81v958
l194 218q28 32 59 61q41 39 77 63zM703 1899l-232 -298h-184l216 298h200zM655 1875h-140l-182 -250h126z" />
    <glyph glyph-name="thorn" unicode="&#xde;" horiz-adv-x="998" 
d="M968 1136q0 -99 -64.5 -190.5t-223.5 -321.5q-148 -214 -198 -288l-86 -126v310l300 440q16 23 27 49.5t11 50.5t-15.5 31t-60.5 7h-316v-922q0 -52 5 -82q9 -50 33 -94h-272q27 40 35 91q5 30 5 85v1148q0 54 -5 84q-9 53 -35 92h274q-27 -40 -33.5 -80.5t-6.5 -95.5
v-48h448q82 0 127 -32q51 -36 51 -108zM944 1136q0 60 -42 88t-112 28h-472v72q0 57 3 89t19 63h-190q11 -21 16.5 -55.5t5.5 -96.5v-1148q0 -57 -3 -89t-19 -63h190q-13 31 -17.5 71t-4.5 81v946h340q57 0 78.5 -13.5t21.5 -48.5q0 -28 -11 -55.5t-31 -56.5l-296 -436v-224
q41 59 82 119q22 31 184 267q175 255 194 282q33 47 48.5 91.5t15.5 88.5z" />
    <glyph glyph-name="thorn" unicode="&#xfe;" horiz-adv-x="998" 
d="M968 1136q0 -99 -64.5 -190.5t-223.5 -321.5q-148 -214 -198 -288l-86 -126v310l300 440q16 23 27 49.5t11 50.5t-15.5 31t-60.5 7h-316v-922q0 -52 5 -82q9 -50 33 -94h-272q27 40 35 91q5 30 5 85v1148q0 54 -5 84q-9 53 -35 92h274q-27 -40 -33.5 -80.5t-6.5 -95.5
v-48h448q82 0 127 -32q51 -36 51 -108zM944 1136q0 60 -42 88t-112 28h-472v72q0 57 3 89t19 63h-190q11 -21 16.5 -55.5t5.5 -96.5v-1148q0 -57 -3 -89t-19 -63h190q-13 31 -17.5 71t-4.5 81v946h340q57 0 78.5 -13.5t21.5 -48.5q0 -28 -11 -55.5t-31 -56.5l-296 -436v-224
q41 59 82 119q22 31 184 267q175 255 194 282q33 47 48.5 91.5t15.5 88.5z" />
    <glyph glyph-name="agrave" unicode="&#xe0;" horiz-adv-x="1060" 
d="M950 0h-272q27 40 35 91q5 30 5 85v280h-436q0 -27 -1 -86t-1 -89q0 -98 8 -167t32 -114h-280q29 43 42.5 88t13.5 88v226q0 260 108.5 516.5t294.5 415.5q199 170 389 170h25.5t36.5 -4q-23 -40 -30.5 -81.5t-7.5 -88.5v-1154q0 -52 5 -82q9 -50 33 -94zM912 24
q-14 36 -19 73.5t-5 78.5v1154q0 51 4 80t20 68l-30 2q-179 -2 -369 -169q-177 -156 -285 -406t-108 -503v-226q0 -73 -38 -152h202q-16 45 -21.5 103.5t-5.5 141.5q0 51 1.5 130.5t1.5 80.5h482v-304q0 -46 -4 -81t-20 -71h194zM742 618h-458q17 107 73 238q65 154 156 270
q108 138 229 190v-698zM718 642v640q-104 -56 -197 -181q-80 -107 -139 -244q-50 -115 -70 -215h406zM894 1601h-184l-232 298h200zM848 1625l-182 250h-140l196 -250h126z" />
    <glyph glyph-name="aacute" unicode="&#xe1;" horiz-adv-x="1060" 
d="M950 0h-272q27 40 35 91q5 30 5 85v280h-436q0 -27 -1 -86t-1 -89q0 -98 8 -167t32 -114h-280q29 43 42.5 88t13.5 88v226q0 260 108.5 516.5t294.5 415.5q199 170 389 170h25.5t36.5 -4q-23 -40 -30.5 -81.5t-7.5 -88.5v-1154q0 -52 5 -82q9 -50 33 -94zM912 24
q-14 36 -19 73.5t-5 78.5v1154q0 51 4 80t20 68l-30 2q-179 -2 -369 -169q-177 -156 -285 -406t-108 -503v-226q0 -73 -38 -152h202q-16 45 -21.5 103.5t-5.5 141.5q0 51 1.5 130.5t1.5 80.5h482v-304q0 -46 -4 -81t-20 -71h194zM742 618h-458q17 107 73 238q65 154 156 270
q108 138 229 190v-698zM718 642v640q-104 -56 -197 -181q-80 -107 -139 -244q-50 -115 -70 -215h406zM867 1904l-232 -298h-184l216 298h200zM819 1880h-140l-182 -250h126z" />
    <glyph glyph-name="acircumflex" unicode="&#xe2;" horiz-adv-x="1060" 
d="M950 0h-272q27 40 35 91q5 30 5 85v280h-436q0 -27 -1 -86t-1 -89q0 -98 8 -167t32 -114h-280q29 43 42.5 88t13.5 88v226q0 260 108.5 516.5t294.5 415.5q199 170 389 170h25.5t36.5 -4q-23 -40 -30.5 -81.5t-7.5 -88.5v-1154q0 -52 5 -82q9 -50 33 -94zM912 24
q-14 36 -19 73.5t-5 78.5v1154q0 51 4 80t20 68l-30 2q-179 -2 -369 -169q-177 -156 -285 -406t-108 -503v-226q0 -73 -38 -152h202q-16 45 -21.5 103.5t-5.5 141.5q0 51 1.5 130.5t1.5 80.5h482v-304q0 -46 -4 -81t-20 -71h194zM742 618h-458q17 107 73 238q65 154 156 270
q108 138 229 190v-698zM718 642v640q-104 -56 -197 -181q-80 -107 -139 -244q-50 -115 -70 -215h406zM1051 1604h-184l-116 144l-116 -144h-184l220 298h160zM1003 1628l-184 250h-136l-184 -250h126l126 158l126 -158h126z" />
    <glyph glyph-name="atilde" unicode="&#xe3;" horiz-adv-x="1060" 
d="M950 0h-272q27 40 35 91q5 30 5 85v280h-436q0 -27 -1 -86t-1 -89q0 -98 8 -167t32 -114h-280q29 43 42.5 88t13.5 88v226q0 260 108.5 516.5t294.5 415.5q199 170 389 170h25.5t36.5 -4q-23 -40 -30.5 -81.5t-7.5 -88.5v-1154q0 -52 5 -82q9 -50 33 -94zM912 24
q-14 36 -19 73.5t-5 78.5v1154q0 51 4 80t20 68l-30 2q-179 -2 -369 -169q-177 -156 -285 -406t-108 -503v-226q0 -73 -38 -152h202q-16 45 -21.5 103.5t-5.5 141.5q0 51 1.5 130.5t1.5 80.5h482v-304q0 -46 -4 -81t-20 -71h194zM742 618h-458q17 107 73 238q65 154 156 270
q108 138 229 190v-698zM718 642v640q-104 -56 -197 -181q-80 -107 -139 -244q-50 -115 -70 -215h406zM994 1633q-48 -32 -132 -32q-59 0 -142 27t-134 27q-35 0 -69.5 -15t-62.5 -41v188q48 32 132 32q47 0 102 -16q131 -38 174 -38q35 0 69.5 15t62.5 41v-188zM970 1647
v126q-51 -32 -108 -32q-52 0 -108 16q-134 38 -168 38q-67 0 -108 -22v-126q51 32 108 32q43 0 165 -36q61 -18 111 -18q67 0 108 22z" />
    <glyph glyph-name="adieresis" unicode="&#xe4;" horiz-adv-x="1060" 
d="M950 0h-272q27 40 35 91q5 30 5 85v280h-436q0 -27 -1 -86t-1 -89q0 -98 8 -167t32 -114h-280q29 43 42.5 88t13.5 88v226q0 260 108.5 516.5t294.5 415.5q199 170 389 170h25.5t36.5 -4q-23 -40 -30.5 -81.5t-7.5 -88.5v-1154q0 -52 5 -82q9 -50 33 -94zM912 24
q-14 36 -19 73.5t-5 78.5v1154q0 51 4 80t20 68l-30 2q-179 -2 -369 -169q-177 -156 -285 -406t-108 -503v-226q0 -73 -38 -152h202q-16 45 -21.5 103.5t-5.5 141.5q0 51 1.5 130.5t1.5 80.5h482v-304q0 -46 -4 -81t-20 -71h194zM742 618h-458q17 107 73 238q65 154 156 270
q108 138 229 190v-698zM718 642v640q-104 -56 -197 -181q-80 -107 -139 -244q-50 -115 -70 -215h406zM994 1602h-192v192h192v-192zM666 1602h-192v192h192v-192zM970 1626v144h-144v-144h144zM642 1626v144h-144v-144h144z" />
    <glyph glyph-name="aring" unicode="&#xe5;" horiz-adv-x="1060" 
d="M950 0h-272q27 40 35 91q5 30 5 85v280h-436q0 -27 -1 -86t-1 -89q0 -98 8 -167t32 -114h-280q29 43 42.5 88t13.5 88v226q0 260 108.5 516.5t294.5 415.5q199 170 389 170h25.5t36.5 -4q-23 -40 -30.5 -81.5t-7.5 -88.5v-1154q0 -52 5 -82q9 -50 33 -94zM912 24
q-14 36 -19 73.5t-5 78.5v1154q0 51 4 80t20 68l-30 2q-179 -2 -369 -169q-177 -156 -285 -406t-108 -503v-226q0 -73 -38 -152h202q-16 45 -21.5 103.5t-5.5 141.5q0 51 1.5 130.5t1.5 80.5h482v-304q0 -46 -4 -81t-20 -71h194zM742 618h-458q17 107 73 238q65 154 156 270
q108 138 229 190v-698zM718 642v640q-104 -56 -197 -181q-80 -107 -139 -244q-50 -115 -70 -215h406zM964 1774q0 -71 -51.5 -122.5t-122.5 -51.5t-122.5 51.5t-51.5 122.5t51.5 122.5t122.5 51.5t122.5 -51.5t51.5 -122.5zM940 1774q0 62 -44 106t-106 44t-106 -44
t-44 -106t44 -106t106 -44t106 44t44 106zM854 1774q0 -27 -18.5 -45.5t-45.5 -18.5t-45.5 18.5t-18.5 45.5q0 26 20 45t46 19q27 0 44.5 -18.5t17.5 -45.5zM830 1774q0 17 -10.5 28.5t-27.5 11.5t-29.5 -11.5t-12.5 -28.5t11.5 -28.5t28.5 -11.5t28.5 11.5t11.5 28.5z" />
    <glyph glyph-name="ccedilla" unicode="&#xe7;" horiz-adv-x="1048" 
d="M988 -12q-115 25 -232 78v-70q6 1 14.5 1.5t11.5 0.5q60 0 104 -45t44 -111q0 -79 -64 -129q-60 -47 -142 -47q-25 0 -65.5 8.5t-58.5 19.5l36 124q20 -13 43 -19.5t45 -6.5q28 0 46 13.5t18 38.5q0 52 -68 52q-19 0 -35.5 -2t-40.5 -6v232q-255 144 -402 356
q-166 238 -166 526q0 221 131.5 365.5t330.5 144.5q59 0 111 -3q156 -9 177 -9v-262q-69 46 -126.5 64t-131.5 18q-129 0 -208.5 -90.5t-79.5 -239.5q0 -211 132 -401q114 -164 290 -271q161 -98 286 -98v-232zM964 18v178q-122 0 -285 103q-177 112 -290 279
q-133 197 -133 412q0 159 86.5 256.5t225.5 97.5q133 0 234 -62v194q-68 6 -128.5 9t-135.5 3q-189 0 -313.5 -138.5t-124.5 -347.5q0 -279 164 -514q149 -213 404 -356v-216l52 4q92 0 92 -76q0 -35 -24.5 -55.5t-63.5 -20.5q-30 0 -72 16l-22 -78q20 -7 46.5 -11.5
t47.5 -4.5q72 0 125 40q57 43 57 112q0 56 -37 94t-87 38q-17 0 -30 -1.5t-20 -2.5v132q118 -51 232 -84z" />
    <glyph glyph-name="egrave" unicode="&#xe8;" horiz-adv-x="1034" 
d="M982 0h-874q27 40 35 91q5 30 5 85v1148q0 54 -5 84q-9 53 -35 92h790v-248q-49 31 -78 41q-38 13 -98 13h-380v-80h500v-194h-500v-838h464q66 0 113 20q11 5 63 34v-248zM958 24v184q-35 -20 -67.5 -29t-84.5 -9h-488v886h500v146h-500v128h404q54 0 86.5 -9t65.5 -29
v184h-724q11 -21 16.5 -55.5t5.5 -96.5v-1148q0 -52 -4 -86t-20 -66h810zM729 1606h-184l-232 298h200zM683 1630l-182 250h-140l196 -250h126z" />
    <glyph glyph-name="eacute" unicode="&#xe9;" horiz-adv-x="1034" 
d="M982 0h-874q27 40 35 91q5 30 5 85v1148q0 54 -5 84q-9 53 -35 92h790v-248q-49 31 -78 41q-38 13 -98 13h-380v-80h500v-194h-500v-838h464q66 0 113 20q11 5 63 34v-248zM958 24v184q-35 -20 -67.5 -29t-84.5 -9h-488v886h500v146h-500v128h404q54 0 86.5 -9t65.5 -29
v184h-724q11 -21 16.5 -55.5t5.5 -96.5v-1148q0 -52 -4 -86t-20 -66h810zM748 1902l-232 -298h-184l216 298h200zM700 1878h-140l-182 -250h126z" />
    <glyph glyph-name="ecircumflex" unicode="&#xea;" horiz-adv-x="1034" 
d="M982 0h-874q27 40 35 91q5 30 5 85v1148q0 54 -5 84q-9 53 -35 92h790v-248q-49 31 -78 41q-38 13 -98 13h-380v-80h500v-194h-500v-838h464q66 0 113 20q11 5 63 34v-248zM958 24v184q-35 -20 -67.5 -29t-84.5 -9h-488v886h500v146h-500v128h404q54 0 86.5 -9t65.5 -29
v184h-724q11 -21 16.5 -55.5t5.5 -96.5v-1148q0 -52 -4 -86t-20 -66h810zM820 1605h-184l-116 144l-116 -144h-184l220 298h160zM772 1629l-184 250h-136l-184 -250h126l126 158l126 -158h126z" />
    <glyph glyph-name="edieresis" unicode="&#xeb;" horiz-adv-x="1034" 
d="M982 0h-874q27 40 35 91q5 30 5 85v1148q0 54 -5 84q-9 53 -35 92h790v-248q-49 31 -78 41q-38 13 -98 13h-380v-80h500v-194h-500v-838h464q66 0 113 20q11 5 63 34v-248zM958 24v184q-35 -20 -67.5 -29t-84.5 -9h-488v886h500v146h-500v128h404q54 0 86.5 -9t65.5 -29
v184h-724q11 -21 16.5 -55.5t5.5 -96.5v-1148q0 -52 -4 -86t-20 -66h810zM792 1601h-192v192h192v-192zM464 1601h-192v192h192v-192zM768 1625v144h-144v-144h144zM440 1625v144h-144v-144h144z" />
    <glyph glyph-name="igrave" unicode="&#xec;" horiz-adv-x="490" 
d="M380 0h-272q27 40 35 91q5 30 5 85v1148q0 54 -5 84q-9 53 -35 92h272q-23 -42 -30.5 -85.5t-7.5 -90.5v-1148q0 -52 5 -82q9 -50 33 -94zM340 24q-13 31 -17.5 71t-4.5 81v1148q0 59 5.5 92.5t16.5 59.5h-190q11 -21 16.5 -55.5t5.5 -96.5v-1148q0 -57 -3 -89t-19 -63
h190zM369 1604h-184l-232 298h200zM323 1628l-182 250h-140l196 -250h126z" />
    <glyph glyph-name="iacute" unicode="&#xed;" horiz-adv-x="490" 
d="M380 0h-272q27 40 35 91q5 30 5 85v1148q0 54 -5 84q-9 53 -35 92h272q-23 -42 -30.5 -85.5t-7.5 -90.5v-1148q0 -52 5 -82q9 -50 33 -94zM340 24q-13 31 -17.5 71t-4.5 81v1148q0 59 5.5 92.5t16.5 59.5h-190q11 -21 16.5 -55.5t5.5 -96.5v-1148q0 -57 -3 -89t-19 -63
h190zM519 1902l-232 -298h-184l216 298h200zM471 1878h-140l-182 -250h126z" />
    <glyph glyph-name="icircumflex" unicode="&#xee;" horiz-adv-x="490" 
d="M380 0h-272q27 40 35 91q5 30 5 85v1148q0 54 -5 84q-9 53 -35 92h272q-23 -42 -30.5 -85.5t-7.5 -90.5v-1148q0 -52 5 -82q9 -50 33 -94zM340 24q-13 31 -17.5 71t-4.5 81v1148q0 59 5.5 92.5t16.5 59.5h-190q11 -21 16.5 -55.5t5.5 -96.5v-1148q0 -57 -3 -89t-19 -63
h190zM544 1606h-184l-116 144l-116 -144h-184l220 298h160zM496 1630l-184 250h-136l-184 -250h126l126 158l126 -158h126z" />
    <glyph glyph-name="idieresis" unicode="&#xef;" horiz-adv-x="490" 
d="M380 0h-272q27 40 35 91q5 30 5 85v1148q0 54 -5 84q-9 53 -35 92h272q-23 -42 -30.5 -85.5t-7.5 -90.5v-1148q0 -52 5 -82q9 -50 33 -94zM340 24q-13 31 -17.5 71t-4.5 81v1148q0 59 5.5 92.5t16.5 59.5h-190q11 -21 16.5 -55.5t5.5 -96.5v-1148q0 -57 -3 -89t-19 -63
h190zM503 1587h-192v192h192v-192zM175 1587h-192v192h192v-192zM479 1611v144h-144v-144h144zM151 1611v144h-144v-144h144z" />
    <glyph glyph-name="ntilde" unicode="&#xf1;" horiz-adv-x="1126" 
d="M1016 0h-272q27 40 35 91q5 30 5 85v366l-442 616v-982q0 -52 5 -82q9 -50 33 -94h-272q27 40 35 91q5 30 5 85v1148q0 54 -5 84q-9 53 -35 92h312q-10 -27 -10 -56t8 -52.5t22 -43.5q62 -90 130 -185q21 -29 126 -175l88 -122v458q0 54 -5 84q-9 53 -35 92h272
q-23 -42 -30.5 -85.5t-7.5 -90.5v-1148q0 -52 5 -82q9 -50 33 -94zM976 24q-13 31 -17.5 71t-4.5 81v1148q0 59 5.5 92.5t16.5 59.5h-190q11 -21 16.5 -55.5t5.5 -96.5v-534q-33 46 -66 93q-77 107 -153 213t-169 240q-15 20 -25.5 52.5t-10.5 62.5q0 9 2 25h-236
q11 -21 16.5 -55.5t5.5 -96.5v-1148q0 -57 -3 -89t-19 -63h190q-13 31 -17.5 71t-4.5 81v1058l490 -682v-376q0 -57 -3 -89t-19 -63h190zM839 1635q-48 -32 -132 -32q-59 0 -142 27t-134 27q-35 0 -69.5 -15t-62.5 -41v188q48 32 132 32q47 0 102 -16q131 -38 174 -38
q35 0 69.5 15t62.5 41v-188zM815 1649v126q-51 -32 -108 -32q-52 0 -108 16q-134 38 -168 38q-67 0 -108 -22v-126q51 32 108 32q43 0 165 -36q61 -18 111 -18q67 0 108 22z" />
    <glyph glyph-name="ograve" unicode="&#xf2;" horiz-adv-x="1340" 
d="M1282 756q0 -348 -169 -552t-457 -204q-273 0 -435.5 197.5t-162.5 528.5q0 379 160.5 577.5t455.5 198.5q286 0 447 -195t161 -551zM1258 756q0 344 -154 533t-430 189q-285 0 -437 -190q-155 -194 -155 -562q0 -320 155 -511t419 -191q277 0 439.5 197.5t162.5 534.5z
M1114 772q0 -258 -113 -427q-124 -185 -339 -185q-204 0 -324 174q-112 162 -112 404q0 263 107 429q118 183 329 183q209 0 333 -165q119 -159 119 -413zM1090 772q0 243 -111 395q-116 159 -317 159t-312 -177q-100 -159 -100 -411q0 -232 104 -386q113 -168 308 -168
q205 0 322 179q106 162 106 409zM832 1606h-184l-232 298h200zM786 1630l-182 250h-140l196 -250h126z" />
    <glyph glyph-name="oacute" unicode="&#xf3;" horiz-adv-x="1340" 
d="M1282 756q0 -348 -169 -552t-457 -204q-273 0 -435.5 197.5t-162.5 528.5q0 379 160.5 577.5t455.5 198.5q286 0 447 -195t161 -551zM1258 756q0 344 -154 533t-430 189q-285 0 -437 -190q-155 -194 -155 -562q0 -320 155 -511t419 -191q277 0 439.5 197.5t162.5 534.5z
M1114 772q0 -258 -113 -427q-124 -185 -339 -185q-204 0 -324 174q-112 162 -112 404q0 263 107 429q118 183 329 183q209 0 333 -165q119 -159 119 -413zM1090 772q0 243 -111 395q-116 159 -317 159t-312 -177q-100 -159 -100 -411q0 -232 104 -386q113 -168 308 -168
q205 0 322 179q106 162 106 409zM875 1902l-232 -298h-184l216 298h200zM827 1878h-140l-182 -250h126z" />
    <glyph glyph-name="ocircumflex" unicode="&#xf4;" horiz-adv-x="1340" 
d="M1282 756q0 -348 -169 -552t-457 -204q-273 0 -435.5 197.5t-162.5 528.5q0 379 160.5 577.5t455.5 198.5q286 0 447 -195t161 -551zM1258 756q0 344 -154 533t-430 189q-285 0 -437 -190q-155 -194 -155 -562q0 -320 155 -511t419 -191q277 0 439.5 197.5t162.5 534.5z
M1114 772q0 -258 -113 -427q-124 -185 -339 -185q-204 0 -324 174q-112 162 -112 404q0 263 107 429q118 183 329 183q209 0 333 -165q119 -159 119 -413zM1090 772q0 243 -111 395q-116 159 -317 159t-312 -177q-100 -159 -100 -411q0 -232 104 -386q113 -168 308 -168
q205 0 322 179q106 162 106 409zM977 1606h-184l-116 144l-116 -144h-184l220 298h160zM929 1630l-184 250h-136l-184 -250h126l126 158l126 -158h126z" />
    <glyph glyph-name="otilde" unicode="&#xf5;" horiz-adv-x="1340" 
d="M1282 756q0 -348 -169 -552t-457 -204q-273 0 -435.5 197.5t-162.5 528.5q0 379 160.5 577.5t455.5 198.5q286 0 447 -195t161 -551zM1258 756q0 344 -154 533t-430 189q-285 0 -437 -190q-155 -194 -155 -562q0 -320 155 -511t419 -191q277 0 439.5 197.5t162.5 534.5z
M1114 772q0 -258 -113 -427q-124 -185 -339 -185q-204 0 -324 174q-112 162 -112 404q0 263 107 429q118 183 329 183q209 0 333 -165q119 -159 119 -413zM1090 772q0 243 -111 395q-116 159 -317 159t-312 -177q-100 -159 -100 -411q0 -232 104 -386q113 -168 308 -168
q205 0 322 179q106 162 106 409zM925 1635q-48 -32 -132 -32q-59 0 -142 27t-134 27q-35 0 -69.5 -15t-62.5 -41v188q48 32 132 32q47 0 102 -16q131 -38 174 -38q35 0 69.5 15t62.5 41v-188zM901 1649v126q-51 -32 -108 -32q-52 0 -108 16q-134 38 -168 38q-67 0 -108 -22
v-126q51 32 108 32q43 0 165 -36q61 -18 111 -18q67 0 108 22z" />
    <glyph glyph-name="odieresis" unicode="&#xf6;" horiz-adv-x="1340" 
d="M1282 756q0 -348 -169 -552t-457 -204q-273 0 -435.5 197.5t-162.5 528.5q0 379 160.5 577.5t455.5 198.5q286 0 447 -195t161 -551zM1258 756q0 344 -154 533t-430 189q-285 0 -437 -190q-155 -194 -155 -562q0 -320 155 -511t419 -191q277 0 439.5 197.5t162.5 534.5z
M1114 772q0 -258 -113 -427q-124 -185 -339 -185q-204 0 -324 174q-112 162 -112 404q0 263 107 429q118 183 329 183q209 0 333 -165q119 -159 119 -413zM1090 772q0 243 -111 395q-116 159 -317 159t-312 -177q-100 -159 -100 -411q0 -232 104 -386q113 -168 308 -168
q205 0 322 179q106 162 106 409zM942 1601h-192v192h192v-192zM614 1601h-192v192h192v-192zM918 1625v144h-144v-144h144zM590 1625v144h-144v-144h144z" />
    <glyph glyph-name="divide" unicode="&#xf7;" horiz-adv-x="680" 
d="M422 434v-156h-164v156h164zM258 682v156h164v-156h-164zM398 706v108h-116v-108h116zM282 410v-108h116v108h-116zM580 474h-480v168h480v-168zM556 498v120h-432v-120h432z" />
    <glyph glyph-name="ugrave" unicode="&#xf9;" horiz-adv-x="1126" 
d="M1020 -18q-235 52 -464 252q-210 183 -345 426t-135 436q0 65 8 120.5t23 90t21.5 65.5t6.5 60q0 22 -1.5 34t-7.5 34h318q-80 -88 -116 -157q-48 -91 -48 -187q0 -174 82 -353q73 -159 195 -293q115 -126 227 -182v996q0 54 -5 84q-9 53 -35 92h272q-23 -42 -30.5 -85.5
t-7.5 -90.5v-1160q0 -50 7.5 -93t34.5 -89zM978 16q-13 33 -18.5 70t-5.5 78v1160q0 59 5.5 92.5t16.5 59.5h-190q11 -21 16.5 -55.5t5.5 -96.5v-1030q-125 54 -250 183q-132 136 -212 306q-90 190 -90 373q0 93 41 180q33 69 95 140h-236q3 -18 3 -45q0 -35 -5.5 -64
t-23.5 -67q-14 -32 -22 -89.5t-8 -114.5q0 -184 127 -417t324 -413q228 -200 427 -250zM732 1606h-184l-232 298h200zM686 1630l-182 250h-140l196 -250h126z" />
    <glyph glyph-name="uacute" unicode="&#xfa;" horiz-adv-x="1126" 
d="M1020 -18q-235 52 -464 252q-210 183 -345 426t-135 436q0 65 8 120.5t23 90t21.5 65.5t6.5 60q0 22 -1.5 34t-7.5 34h318q-80 -88 -116 -157q-48 -91 -48 -187q0 -174 82 -353q73 -159 195 -293q115 -126 227 -182v996q0 54 -5 84q-9 53 -35 92h272q-23 -42 -30.5 -85.5
t-7.5 -90.5v-1160q0 -50 7.5 -93t34.5 -89zM978 16q-13 33 -18.5 70t-5.5 78v1160q0 59 5.5 92.5t16.5 59.5h-190q11 -21 16.5 -55.5t5.5 -96.5v-1030q-125 54 -250 183q-132 136 -212 306q-90 190 -90 373q0 93 41 180q33 69 95 140h-236q3 -18 3 -45q0 -35 -5.5 -64
t-23.5 -67q-14 -32 -22 -89.5t-8 -114.5q0 -184 127 -417t324 -413q228 -200 427 -250zM812 1904l-232 -298h-184l216 298h200zM764 1880h-140l-182 -250h126z" />
    <glyph glyph-name="ucircumflex" unicode="&#xfb;" horiz-adv-x="1126" 
d="M1020 -18q-235 52 -464 252q-210 183 -345 426t-135 436q0 65 8 120.5t23 90t21.5 65.5t6.5 60q0 22 -1.5 34t-7.5 34h318q-80 -88 -116 -157q-48 -91 -48 -187q0 -174 82 -353q73 -159 195 -293q115 -126 227 -182v996q0 54 -5 84q-9 53 -35 92h272q-23 -42 -30.5 -85.5
t-7.5 -90.5v-1160q0 -50 7.5 -93t34.5 -89zM978 16q-13 33 -18.5 70t-5.5 78v1160q0 59 5.5 92.5t16.5 59.5h-190q11 -21 16.5 -55.5t5.5 -96.5v-1030q-125 54 -250 183q-132 136 -212 306q-90 190 -90 373q0 93 41 180q33 69 95 140h-236q3 -18 3 -45q0 -35 -5.5 -64
t-23.5 -67q-14 -32 -22 -89.5t-8 -114.5q0 -184 127 -417t324 -413q228 -200 427 -250zM886 1605h-184l-116 144l-116 -144h-184l220 298h160zM838 1629l-184 250h-136l-184 -250h126l126 158l126 -158h126z" />
    <glyph glyph-name="udieresis" unicode="&#xfc;" horiz-adv-x="1126" 
d="M1020 -18q-235 52 -464 252q-210 183 -345 426t-135 436q0 65 8 120.5t23 90t21.5 65.5t6.5 60q0 22 -1.5 34t-7.5 34h318q-80 -88 -116 -157q-48 -91 -48 -187q0 -174 82 -353q73 -159 195 -293q115 -126 227 -182v996q0 54 -5 84q-9 53 -35 92h272q-23 -42 -30.5 -85.5
t-7.5 -90.5v-1160q0 -50 7.5 -93t34.5 -89zM978 16q-13 33 -18.5 70t-5.5 78v1160q0 59 5.5 92.5t16.5 59.5h-190q11 -21 16.5 -55.5t5.5 -96.5v-1030q-125 54 -250 183q-132 136 -212 306q-90 190 -90 373q0 93 41 180q33 69 95 140h-236q3 -18 3 -45q0 -35 -5.5 -64
t-23.5 -67q-14 -32 -22 -89.5t-8 -114.5q0 -184 127 -417t324 -413q228 -200 427 -250zM863 1601h-192v192h192v-192zM535 1601h-192v192h192v-192zM839 1625v144h-144v-144h144zM511 1625v144h-144v-144h144z" />
    <glyph glyph-name="ydieresis" unicode="&#xff;" horiz-adv-x="904" 
d="M930 1500q-36 -16 -106 -77q-42 -37 -92 -87q-31 -32 -99.5 -111t-86.5 -101v-948q0 -52 5 -82q9 -50 33 -94h-272q27 40 35 91q5 30 5 85v938q-14 16 -89 99q-78 86 -95 103q-47 52 -81 86q-63 64 -119 98h366q-2 -9 -2 -26q0 -52 38 -94l74 -84q9 11 35 43.5t41 52.5
q24 30 34 53t10 55h366zM852 1476h-264q0 -23 -12 -46q-7 -13 -36 -54q-20 -27 -57 -73q-12 -16 -35 -43l-94 104q-24 27 -36 56t-12 56h-260q31 -27 75 -75q31 -35 63 -69q22 -22 109 -118q29 -32 83 -92v-946q0 -57 -3 -89t-19 -63h190q-13 31 -17.5 71t-4.5 81v958
l194 218q28 32 59 61q41 39 77 63zM711 1601h-192v192h192v-192zM383 1601h-192v192h192v-192zM687 1625v144h-144v-144h144zM359 1625v144h-144v-144h144z" />
    <glyph glyph-name="dotlessi" unicode="&#x131;" 
d="M1136 1002q0 -343 -217.5 -564.5t-548.5 -221.5v256h-270q0 352 218 573q214 217 548 217v-260h270zM1112 978h-270v260q-307 0 -510 -206q-208 -211 -208 -536h270v-256q306 0 512 210t206 528zM826 846q0 -140 -86 -227t-220 -87v100h-106q0 139 85.5 226.5t216.5 87.5
v-100h110zM802 822h-110v100q-107 -9 -180.5 -82.5t-73.5 -183.5h106v-100q109 0 183.5 76.5t74.5 189.5zM694 778q0 -46 -31 -80t-73 -34v40h-44q0 48 30 79t74 31v-36h44z" />
    <glyph glyph-name="Lslash" unicode="&#x141;" horiz-adv-x="920" 
d="M888 0h-780q27 40 35 91q5 30 5 85v442l-138 -56l-72 174l210 84v504q0 54 -5 84q-9 53 -35 92h288q-54 -96 -54 -176v-426l168 68l76 -172l-244 -98v-502h370q80 0 176 54v-248zM864 24v184q-76 -38 -152 -38h-394v540l236 96l-56 130l-180 -72v460q0 76 38 152h-206
q11 -21 16.5 -55.5t5.5 -96.5v-518l-202 -82l54 -132l148 60v-476q0 -57 -3 -89t-19 -63h714z" />
    <glyph glyph-name="lslash" unicode="&#x142;" horiz-adv-x="920" 
d="M888 0h-780q27 40 35 91q5 30 5 85v442l-138 -56l-72 174l210 84v504q0 54 -5 84q-9 53 -35 92h288q-54 -96 -54 -176v-426l168 68l76 -172l-244 -98v-502h370q80 0 176 54v-248zM864 24v184q-76 -38 -152 -38h-394v540l236 96l-56 130l-180 -72v460q0 76 38 152h-206
q11 -21 16.5 -55.5t5.5 -96.5v-518l-202 -82l54 -132l148 60v-476q0 -57 -3 -89t-19 -63h714z" />
    <glyph glyph-name="OE" unicode="&#x152;" horiz-adv-x="1814" 
d="M1762 0h-896l24 42q-35 -18 -93 -30t-129 -12q-284 0 -450 201t-166 539q0 342 165.5 551t450.5 209q74 0 137 -17q48 -13 87 -35q-5 20 -8 27t-16 25h810v-248q-49 31 -78 41q-38 13 -98 13h-380v-80h500v-194h-500v-838h464q66 0 113 20q11 5 63 34v-248zM1738 24v184
q-39 -21 -70 -29.5t-82 -8.5h-488v886h500v146h-500v128h404q54 0 85.5 -7.5t66.5 -28.5v182h-744q6 -17 11 -34t7 -38q-70 37 -125 53q-64 19 -135 19q-273 0 -432.5 -203t-159.5 -533q0 -328 159 -522t433 -194q74 0 128.5 13t131.5 47q-4 -16 -10 -32q-2 -6 -12 -28h832z
M928 252q-42 -37 -107 -62q-77 -30 -155 -30q-206 0 -327 170q-115 161 -115 410q0 253 114 420q123 180 330 180q83 0 151 -29q62 -26 109 -75v-984zM904 264v960q-45 43 -95 65q-62 27 -141 27q-197 0 -313 -173q-107 -160 -107 -403q0 -240 107 -393q114 -163 311 -163
q71 0 134.5 23.5t103.5 56.5z" />
    <glyph glyph-name="OE" unicode="&#x153;" horiz-adv-x="1814" 
d="M1762 0h-896l24 42q-35 -18 -93 -30t-129 -12q-284 0 -450 201t-166 539q0 342 165.5 551t450.5 209q74 0 137 -17q48 -13 87 -35q-5 20 -8 27t-16 25h810v-248q-49 31 -78 41q-38 13 -98 13h-380v-80h500v-194h-500v-838h464q66 0 113 20q11 5 63 34v-248zM1738 24v184
q-39 -21 -70 -29.5t-82 -8.5h-488v886h500v146h-500v128h404q54 0 85.5 -7.5t66.5 -28.5v182h-744q6 -17 11 -34t7 -38q-70 37 -125 53q-64 19 -135 19q-273 0 -432.5 -203t-159.5 -533q0 -328 159 -522t433 -194q74 0 128.5 13t131.5 47q-4 -16 -10 -32q-2 -6 -12 -28h832z
M928 252q-42 -37 -107 -62q-77 -30 -155 -30q-206 0 -327 170q-115 161 -115 410q0 253 114 420q123 180 330 180q83 0 151 -29q62 -26 109 -75v-984zM904 264v960q-45 43 -95 65q-62 27 -141 27q-197 0 -313 -173q-107 -160 -107 -403q0 -240 107 -393q114 -163 311 -163
q71 0 134.5 23.5t103.5 56.5z" />
    <glyph glyph-name="Scaron" unicode="&#x160;" horiz-adv-x="992" 
d="M950 432q0 -204 -140 -332q-134 -122 -332 -122q-90 0 -164.5 17.5t-151.5 51.5q-51 23 -152 79l158 220q47 -78 132.5 -122t177.5 -44q115 0 184 63q76 70 76 201q0 76 -33 147q-29 64 -84 125q-41 46 -114.5 109.5t-146.5 128.5q-82 78 -118 136q-48 78 -48 162
q0 138 85 211q76 65 199 65q87 0 153 -18t141 -66l-126 -172q-59 41 -70 47q-38 21 -74 21q-104 0 -104 -80q0 -53 93.5 -140t190.5 -174q80 -77 130 -141q65 -84 99 -169q39 -98 39 -204zM926 432q0 100 -38 196q-32 81 -96 164q-51 67 -126 138q-101 91 -196.5 182
t-95.5 148q0 51 30.5 77.5t97.5 26.5q31 0 60 -11t78 -47l96 132q-61 37 -119 51.5t-139 14.5q-114 0 -182 -58q-78 -67 -78 -194q0 -79 46 -153q36 -57 115 -131q71 -63 144.5 -127.5t116.5 -112.5q59 -66 88 -130q34 -74 34 -154q0 -143 -83 -219q-76 -69 -201 -69
q-90 0 -177 40.5t-135 107.5l-122 -172q80 -42 136 -66q75 -33 143.5 -48.5t154.5 -15.5q188 0 315 116q133 122 133 314zM783 1899l-220 -298h-160l-220 298h186l114 -144l114 144h186zM735 1875h-128l-124 -158l-124 158h-128l184 -250h136z" />
    <glyph glyph-name="scaron" unicode="&#x161;" horiz-adv-x="1088" 
d="M1004 1286q-42 27 -71 38.5t-65 11.5q-50 0 -81 -43q-27 -38 -27 -85q0 -71 29 -184.5t58 -234.5t29 -229q0 -255 -168.5 -419.5t-419.5 -164.5q-42 0 -97 5.5t-99 16.5v228q65 -30 110 -40t106 -10q163 0 259 120q89 111 89 276q0 108 -28 226.5t-54 225.5
q-30 122 -30 196q0 123 83 209q90 93 233 93q39 0 70.5 -3t73.5 -9v-224zM980 1330v160q-25 3 -59 5.5t-61 2.5q-132 0 -215 -85q-77 -79 -77 -193q0 -77 29 -195q26 -107 54.5 -228t28.5 -225q0 -175 -94 -292q-103 -128 -278 -128q-64 0 -103 7.5t-89 30.5v-172
q34 -8 86 -13t86 -5q240 0 402 158t162 402q0 107 -29 228t-58 235t-29 185q0 57 33 101q38 51 99 51q33 0 59 -7.5t53 -22.5zM1083 1899l-220 -298h-160l-220 298h186l114 -144l114 144h186zM1035 1875h-128l-124 -158l-124 158h-128l184 -250h136z" />
    <glyph glyph-name="Ydieresis" unicode="&#x178;" horiz-adv-x="904" 
d="M930 1500q-36 -16 -106 -77q-42 -37 -92 -87q-31 -32 -99.5 -111t-86.5 -101v-948q0 -52 5 -82q9 -50 33 -94h-272q27 40 35 91q5 30 5 85v938q-14 16 -89 99q-78 86 -95 103q-47 52 -81 86q-63 64 -119 98h366q-2 -9 -2 -26q0 -52 38 -94l74 -84q9 11 35 43.5t41 52.5
q24 30 34 53t10 55h366zM852 1476h-264q0 -23 -12 -46q-7 -13 -36 -54q-20 -27 -57 -73q-12 -16 -35 -43l-94 104q-24 27 -36 56t-12 56h-260q31 -27 75 -75q31 -35 63 -69q22 -22 109 -118q29 -32 83 -92v-946q0 -57 -3 -89t-19 -63h190q-13 31 -17.5 71t-4.5 81v958
l194 218q28 32 59 61q41 39 77 63zM711 1601h-192v192h192v-192zM383 1601h-192v192h192v-192zM687 1625v144h-144v-144h144zM359 1625v144h-144v-144h144z" />
    <glyph glyph-name="Zcaron" unicode="&#x17d;" horiz-adv-x="950" 
d="M876 1500l-568 -1314h342q64 0 114 12t104 44v-242h-806v86l522 1230h-238q-47 0 -97 -16q-40 -13 -91 -40v240h718zM844 24v178q-39 -21 -88 -30.5t-106 -9.5h-378l568 1314h-658v-176q35 18 77 29t87 11h274l-534 -1258v-58h758zM812 1903l-220 -298h-160l-220 298h186
l114 -144l114 144h186zM764 1879h-128l-124 -158l-124 158h-128l184 -250h136z" />
    <glyph glyph-name="zcaron" unicode="&#x17e;" horiz-adv-x="950" 
d="M876 1500l-568 -1314h342q64 0 114 12t104 44v-242h-806v86l522 1230h-238q-47 0 -97 -16q-40 -13 -91 -40v240h718zM844 24v178q-39 -21 -88 -30.5t-106 -9.5h-378l568 1314h-658v-176q35 18 77 29t87 11h274l-534 -1258v-58h758zM812 1903l-220 -298h-160l-220 298h186
l114 -144l114 144h186zM764 1879h-128l-124 -158l-124 158h-128l184 -250h136z" />
    <glyph glyph-name="hungarumlaut" unicode="&#x2ba;" horiz-adv-x="600" 
d="M644 1500l-240 -298h-152l200 298h192zM408 1500l-240 -298h-152l200 298h192zM596 1476h-134l-168 -250h102zM360 1476h-134l-168 -250h102z" />
    <glyph glyph-name="circumflex" unicode="&#x2c6;" horiz-adv-x="600" 
d="M602 1202h-184l-116 144l-116 -144h-184l220 298h160zM554 1226l-184 250h-136l-184 -250h126l126 158l126 -158h126z" />
    <glyph glyph-name="caron" unicode="&#x2c7;" horiz-adv-x="600" 
d="M602 1500l-220 -298h-160l-220 298h186l114 -144l114 144h186zM554 1476h-128l-124 -158l-124 158h-128l184 -250h136z" />
    <glyph glyph-name="breve" unicode="&#x2d8;" horiz-adv-x="600" 
d="M570 1314q-40 -18 -120.5 -31t-149.5 -13q-68 0 -149 13t-121 31v188q49 -24 111 -38q77 -18 159 -18q85 0 151.5 15.5t118.5 40.5v-188zM546 1330v136q-50 -20 -112 -32t-134 -12t-134 12t-112 32v-136q42 -14 115.5 -25t130.5 -11q63 0 131.5 10t114.5 26z" />
    <glyph glyph-name="dotaccent" unicode="&#x2d9;" horiz-adv-x="600" 
d="M446 1354q0 -62 -42 -104t-104 -42t-104 42t-42 104t42 104t104 42t104 -42t42 -104zM422 1354q0 51 -35.5 86.5t-86.5 35.5t-86.5 -35.5t-35.5 -86.5t35.5 -86.5t86.5 -35.5t86.5 35.5t35.5 86.5z" />
    <glyph glyph-name="ring" unicode="&#x2da;" horiz-adv-x="600" 
d="M474 1326q0 -71 -51.5 -122.5t-122.5 -51.5t-122.5 51.5t-51.5 122.5t51.5 122.5t122.5 51.5t122.5 -51.5t51.5 -122.5zM450 1326q0 62 -44 106t-106 44t-106 -44t-44 -106t44 -106t106 -44t106 44t44 106zM364 1326q0 -27 -18.5 -45.5t-45.5 -18.5t-45.5 18.5
t-18.5 45.5q0 26 20 45t46 19q27 0 44.5 -18.5t17.5 -45.5zM340 1326q0 17 -10.5 28.5t-27.5 11.5t-29.5 -11.5t-12.5 -28.5t11.5 -28.5t28.5 -11.5t28.5 11.5t11.5 28.5z" />
    <glyph glyph-name="ogonek" unicode="&#x2db;" horiz-adv-x="600" 
d="M428 -372q-18 -11 -58 -19.5t-66 -8.5q-98 0 -152 48t-54 132q0 66 39.5 123t118.5 95l76 -24q-48 -46 -68 -79q-24 -39 -24 -81q0 -76 72 -76q23 0 43 6t41 22zM400 -360l-20 88q-18 -8 -34 -11t-34 -3q-96 0 -96 100q0 76 72 148l-30 10q-67 -33 -101.5 -84t-34.5 -108
q0 -72 48 -114t134 -42q19 0 46 4t50 12z" />
    <glyph glyph-name="tilde" unicode="&#x2dc;" horiz-adv-x="600" 
d="M572 1314q-48 -32 -132 -32q-59 0 -142 27t-134 27q-35 0 -69.5 -15t-62.5 -41v188q48 32 132 32q47 0 102 -16q131 -38 174 -38q35 0 69.5 15t62.5 41v-188zM548 1328v126q-51 -32 -108 -32q-52 0 -108 16q-134 38 -168 38q-67 0 -108 -22v-126q51 32 108 32
q43 0 165 -36q61 -18 111 -18q67 0 108 22z" />
    <glyph glyph-name="summation" unicode="&#x3a3;" horiz-adv-x="1146" 
d="M1044 -24q-403 110 -677 396q-291 304 -291 666q0 216 132 342q126 120 330 120h344v-272q-153 92 -298 92q-130 0 -215 -78q-93 -85 -93 -228q0 -205 174 -434q163 -215 354 -298v638q0 54 -5 84q-9 53 -35 92h270q-24 -44 -32 -95q-4 -27 -4 -81v-736q0 -67 23 -144
q7 -25 23 -64zM1006 12q-15 38 -23.5 87t-8.5 85v736q0 63 2.5 90t17.5 62h-188q11 -21 16.5 -55.5t5.5 -96.5v-674q-133 52 -267.5 179t-217.5 279q-91 166 -91 310q0 153 100 245q93 85 232 85q69 0 140.5 -20t133.5 -56v208h-320q-194 0 -313 -114q-125 -119 -125 -324
q0 -231 130 -448q122 -203 332 -358q205 -151 444 -220zM876 1646q-40 -18 -120.5 -31t-149.5 -13q-68 0 -149 13t-121 31v188q49 -24 111 -38q77 -18 159 -18q85 0 151.5 15.5t118.5 40.5v-188zM852 1662v136q-50 -20 -112 -32t-134 -12t-134 12t-112 32v-136
q42 -14 115.5 -25t130.5 -11q63 0 131.5 10t114.5 26z" />
    <glyph glyph-name="Omega" unicode="&#x3a9;" 
d="M1136 1002q0 -343 -217.5 -564.5t-548.5 -221.5v256h-270q0 352 218 573q214 217 548 217v-260h270zM1112 978h-270v260q-307 0 -510 -206q-208 -211 -208 -536h270v-256q306 0 512 210t206 528zM826 846q0 -140 -86 -227t-220 -87v100h-106q0 139 85.5 226.5t216.5 87.5
v-100h110zM802 822h-110v100q-107 -9 -180.5 -82.5t-73.5 -183.5h106v-100q109 0 183.5 76.5t74.5 189.5zM694 778q0 -46 -31 -80t-73 -34v40h-44q0 48 30 79t74 31v-36h44z" />
    <glyph glyph-name="pi" unicode="&#x3c0;" horiz-adv-x="992" 
d="M950 432q0 -191 -123 -316q-118 -120 -300 -136v-50q6 1 14.5 1.5t11.5 0.5q60 0 104 -45t44 -111q0 -79 -64 -129q-60 -47 -142 -47q-25 0 -65.5 8.5t-58.5 19.5l36 124q20 -13 43 -19.5t45 -6.5q28 0 46 13.5t18 38.5q0 52 -68 52q-28 0 -72 -8v158q-71 0 -137 18.5
t-136 53.5q-26 13 -136 74l158 220q47 -78 132.5 -122t177.5 -44q115 0 184 63q76 70 76 201q0 76 -33 147q-29 64 -84 125q-41 46 -114.5 109.5t-146.5 128.5q-82 78 -118 136q-48 78 -48 162q0 138 85 211q76 65 199 65q87 0 153 -18t141 -66l-126 -172q-59 41 -70 47
q-38 21 -74 21q-104 0 -104 -80q0 -53 93.5 -140t190.5 -174q80 -77 130 -141q65 -84 99 -169q39 -98 39 -204zM926 432q0 100 -38 196q-32 81 -96 164q-51 67 -126 138q-101 91 -196.5 182t-95.5 148q0 51 30.5 77.5t97.5 26.5q31 0 60 -11t78 -47l96 132q-61 37 -119 51.5
t-139 14.5q-114 0 -182 -58q-78 -67 -78 -194q0 -79 46 -153q36 -57 115 -131q71 -63 144.5 -127.5t116.5 -112.5q59 -66 88 -130q34 -74 34 -154q0 -143 -83 -219q-76 -69 -201 -69q-90 0 -177 40.5t-135 107.5l-122 -172q83 -43 128 -63q72 -32 139 -50.5t132 -18.5v-150
l48 4q92 0 92 -76q0 -35 -24.5 -55.5t-63.5 -20.5q-30 0 -72 16l-22 -78q20 -7 46.5 -11.5t47.5 -4.5q72 0 125 40q57 43 57 112q0 56 -37 94t-87 38q-17 0 -30 -1.5t-20 -2.5v96q172 0 293 114q130 123 130 318z" />
    <glyph glyph-name="endash" unicode="&#x2013;" horiz-adv-x="1000" 
d="M900 562h-800v192h800v-192zM876 586v144h-752v-144h752z" />
    <glyph glyph-name="emdash" unicode="&#x2014;" horiz-adv-x="1500" 
d="M1400 562h-1300v192h1300v-192zM1376 586v144h-1252v-144h1252z" />
    <glyph glyph-name="quoteleft" unicode="&#x2018;" horiz-adv-x="392" 
d="M334 1468q-27 -30 -42 -54q-18 -28 -28 -60q26 -17 42 -48.5t16 -61.5q0 -44 -31 -73t-77 -29q-53 0 -87.5 40.5t-34.5 95.5q0 76 66 151q63 71 112 71q32 0 64 -32zM302 1466q-13 10 -32 10q-42 0 -96 -63q-58 -68 -58 -135q0 -46 27 -79t71 -33q37 0 60.5 21.5
t23.5 56.5q0 26 -16 53q-19 32 -48 47q13 40 30 69.5t38 52.5z" />
    <glyph glyph-name="quoteright" unicode="&#x2019;" horiz-adv-x="392" 
d="M322 1364q0 -76 -64.5 -149t-113.5 -73q-32 0 -64 32q27 30 43.5 56t26.5 58q-26 17 -42 48.5t-16 61.5q0 44 31 73t77 29q53 0 87.5 -40.5t34.5 -95.5zM298 1364q0 46 -27 79t-71 33q-37 0 -60.5 -21.5t-23.5 -56.5q0 -26 17.5 -55.5t46.5 -44.5q-13 -40 -30 -69.5
t-38 -52.5q13 -10 32 -10q42 0 96 63q58 68 58 135z" />
    <glyph glyph-name="quotesinglbase" unicode="&#x201a;" horiz-adv-x="392" 
d="M322 52q0 -76 -64.5 -149t-113.5 -73q-32 0 -64 32q27 30 43.5 56t26.5 58q-26 17 -42 48.5t-16 61.5q0 44 31 73t77 29q53 0 87.5 -40.5t34.5 -95.5zM298 52q0 46 -27 79t-71 33q-37 0 -60.5 -21.5t-23.5 -56.5q0 -26 17.5 -55.5t46.5 -44.5q-13 -40 -30 -69.5
t-38 -52.5q13 -10 32 -10q42 0 96 63q58 68 58 135z" />
    <glyph glyph-name="quotedblleft" unicode="&#x201c;" horiz-adv-x="716" 
d="M658 1468q-27 -30 -42 -54q-18 -28 -28 -60q26 -17 42 -48.5t16 -61.5q0 -44 -31 -73t-77 -29q-53 0 -87.5 40.5t-34.5 95.5q0 76 66 151q63 71 112 71q32 0 64 -32zM334 1468q-27 -30 -42 -54q-18 -28 -28 -60q26 -17 42 -48.5t16 -61.5q0 -44 -31 -73t-77 -29
q-53 0 -87.5 40.5t-34.5 95.5q0 76 66 151q63 71 112 71q32 0 64 -32zM626 1466q-13 10 -32 10q-42 0 -96 -63q-58 -68 -58 -135q0 -46 27 -79t71 -33q37 0 60.5 21.5t23.5 56.5q0 26 -16 53q-19 32 -48 47q13 40 30 69.5t38 52.5zM302 1466q-13 10 -32 10q-42 0 -96 -63
q-58 -68 -58 -135q0 -46 27 -79t71 -33q37 0 60.5 21.5t23.5 56.5q0 26 -16 53q-19 32 -48 47q13 40 30 69.5t38 52.5z" />
    <glyph glyph-name="quotedblright" unicode="&#x201d;" horiz-adv-x="716" 
d="M646 1364q0 -76 -64.5 -149t-113.5 -73q-32 0 -64 32q27 30 43.5 56t26.5 58q-26 17 -42 48.5t-16 61.5q0 44 31 73t77 29q53 0 87.5 -40.5t34.5 -95.5zM322 1364q0 -76 -64.5 -149t-113.5 -73q-32 0 -64 32q27 30 43.5 56t26.5 58q-26 17 -42 48.5t-16 61.5q0 44 31 73
t77 29q53 0 87.5 -40.5t34.5 -95.5zM622 1364q0 46 -27 79t-71 33q-37 0 -60.5 -21.5t-23.5 -56.5q0 -26 17.5 -55.5t46.5 -44.5q-13 -40 -30 -69.5t-38 -52.5q13 -10 32 -10q42 0 96 63q58 68 58 135zM298 1364q0 46 -27 79t-71 33q-37 0 -60.5 -21.5t-23.5 -56.5
q0 -26 17.5 -55.5t46.5 -44.5q-13 -40 -30 -69.5t-38 -52.5q13 -10 32 -10q42 0 96 63q58 68 58 135z" />
    <glyph glyph-name="quotedblbase" unicode="&#x201e;" horiz-adv-x="716" 
d="M646 52q0 -76 -64.5 -149t-113.5 -73q-32 0 -64 32q27 30 43.5 56t26.5 58q-26 17 -42 48.5t-16 61.5q0 44 31 73t77 29q53 0 87.5 -40.5t34.5 -95.5zM322 52q0 -76 -64.5 -149t-113.5 -73q-32 0 -64 32q27 30 43.5 56t26.5 58q-26 17 -42 48.5t-16 61.5q0 44 31 73
t77 29q53 0 87.5 -40.5t34.5 -95.5zM622 52q0 46 -27 79t-71 33q-37 0 -60.5 -21.5t-23.5 -56.5q0 -26 17.5 -55.5t46.5 -44.5q-13 -40 -30 -69.5t-38 -52.5q13 -10 32 -10q42 0 96 63q58 68 58 135zM298 52q0 46 -27 79t-71 33q-37 0 -60.5 -21.5t-23.5 -56.5
q0 -26 17.5 -55.5t46.5 -44.5q-13 -40 -30 -69.5t-38 -52.5q13 -10 32 -10q42 0 96 63q58 68 58 135z" />
    <glyph glyph-name="dagger" unicode="&#x2020;" horiz-adv-x="790" 
d="M732 980h-232l-20 -982h-168l-18 982h-234v190h230l-10 270h232l-10 -270h230v-190zM708 1004v142h-232l10 270h-180l10 -270h-232v-142h234l18 -982h120l20 982h232z" />
    <glyph glyph-name="daggerdbl" unicode="&#x2021;" horiz-adv-x="792" 
d="M732 270h-230l10 -270h-232l10 270h-230v190h234l4 260l-4 260h-234v190h230l-10 270h232l-10 -270h230v-190h-234l-4 -260l4 -260h234v-190zM708 294v142h-234l-4 284l4 284h234v142h-232l10 270h-180l10 -270h-232v-142h234l4 -284l-4 -284h-234v-142h232l-10 -270h180
l-10 270h232z" />
    <glyph glyph-name="bullet" unicode="&#x2022;" horiz-adv-x="728" 
d="M628 750q0 -123 -77.5 -209.5t-186.5 -86.5t-186.5 86.5t-77.5 209.5q0 122 78 209t186 87q110 0 187 -86t77 -210zM604 750q0 113 -69.5 192.5t-170.5 79.5q-99 0 -169.5 -79.5t-70.5 -192.5t70.5 -192.5t169.5 -79.5q100 0 170 79t70 193z" />
    <glyph glyph-name="ellipsis" unicode="&#x2026;" horiz-adv-x="904" 
d="M858 100q0 -42 -30 -71t-72 -29t-72 29t-30 71t30 72t72 30t72 -30t30 -72zM554 100q0 -42 -30 -71t-72 -29t-72 29t-30 71t30 72t72 30t72 -30t30 -72zM250 100q0 -42 -30 -71t-72 -29t-72 29t-30 71t30 72t72 30t72 -30t30 -72zM834 100q0 32 -23 55t-55 23t-55 -23
t-23 -55t23 -54t55 -22t55 22t23 54zM530 100q0 32 -23 55t-55 23t-55 -23t-23 -55t23 -54t55 -22t55 22t23 54zM226 100q0 32 -23 55t-55 23t-55 -23t-23 -55t23 -54t55 -22t55 22t23 54z" />
    <glyph glyph-name="perthousand" unicode="&#x2030;" horiz-adv-x="2258" 
d="M2110 346q0 -176 -59 -268q-63 -98 -191 -98q-119 0 -180 110q-52 94 -52 248q0 174 54 305q64 155 176 155q125 0 194 -150q58 -126 58 -302zM1534 346q0 -176 -59 -268q-63 -98 -191 -98q-119 0 -180 110q-52 94 -52 248q0 174 54 305q64 155 176 155q125 0 194 -150
q58 -126 58 -302zM1254 1354q-48 -55 -74.5 -96.5t-43.5 -83.5l-464 -1174h-242q40 44 75 106q23 41 41 86l462 1162h246zM624 902q0 -176 -59 -268q-63 -98 -191 -98q-119 0 -180 110q-52 94 -52 248q0 174 54 305q64 155 176 155q125 0 194 -150q58 -126 58 -302z
M2086 346q0 168 -50 285q-61 143 -178 143q-104 0 -160 -147q-46 -121 -46 -289q0 -143 45 -230q54 -104 163 -104q118 0 174 92q52 85 52 250zM1510 346q0 168 -50 285q-61 143 -178 143q-104 0 -160 -147q-46 -121 -46 -289q0 -143 45 -230q54 -104 163 -104q118 0 174 92
q52 85 52 250zM1204 1330h-180q-10 -24 -95 -238.5t-169 -427.5q-87 -219 -192 -480q-16 -39 -32 -70q-27 -52 -56 -90h176l458 1158q15 39 33.5 70.5t56.5 77.5zM600 902q0 168 -50 285q-61 143 -178 143q-104 0 -160 -147q-46 -121 -46 -289q0 -143 45 -230
q54 -104 163 -104q118 0 174 92q52 85 52 250zM1982 364q0 -99 -23 -153q-29 -69 -97 -69q-56 0 -84 72q-22 56 -22 138q0 101 26 181q31 95 80 95q53 0 88 -89q32 -81 32 -175zM1406 364q0 -99 -23 -153q-29 -69 -97 -69q-56 0 -84 72q-22 56 -22 138q0 101 26 181
q31 95 80 95q53 0 88 -89q32 -81 32 -175zM496 920q0 -99 -23 -153q-29 -69 -97 -69q-56 0 -84 72q-22 56 -22 138q0 101 26 181q31 95 80 95q53 0 88 -89q32 -81 32 -175zM1958 364q0 87 -24 158q-28 82 -72 82q-37 0 -59.5 -81.5t-22.5 -170.5q0 -75 15 -121
q21 -65 67 -65q58 0 80 62q16 45 16 136zM1382 364q0 87 -24 158q-28 82 -72 82q-37 0 -59.5 -81.5t-22.5 -170.5q0 -75 15 -121q21 -65 67 -65q58 0 80 62q16 45 16 136zM472 920q0 87 -24 158q-28 82 -72 82q-37 0 -59.5 -81.5t-22.5 -170.5q0 -75 15 -121q21 -65 67 -65
q58 0 80 62q16 45 16 136z" />
    <glyph glyph-name="guilsinglleft" unicode="&#x2039;" horiz-adv-x="456" 
d="M378 450l-300 194v132l300 192v-180l-116 -80l116 -80v-178zM354 494v120l-136 96l136 92v122l-252 -162v-104z" />
    <glyph glyph-name="guilsinglright" unicode="&#x203a;" horiz-adv-x="456" 
d="M378 644l-300 -194v178l116 80l-116 80v180l300 -192v-132zM354 658v104l-252 162v-122l136 -92l-136 -96v-120z" />
    <glyph glyph-name="trademark" unicode="&#x2122;" horiz-adv-x="1372" 
d="M948 1406l74 64q13 11 19.5 17.5t8.5 12.5h206q-9 -14 -12.5 -46t-3.5 -67v-22v-13q0 -34 17 -235q10 -118 25 -277q0 -19 9.5 -40.5t26.5 -49.5h-230q12 22 17 43.5t5 44.5l-36 446l-126 -102l-126 102l-36 -446q0 -30 5.5 -49t16.5 -39h-230q16 25 26 49t10 41
q1 12 15 168q11 118 19 221.5t8 122.5v35q0 43 -2.5 70t-13.5 43h206q1 -4 10 -13t18 -17zM622 1520q0 -70 -34 -121t-86 -51h-80v-510q0 -23 4 -44.5t16 -43.5h-212q10 15 15 35t5 53v510h-92q-18 0 -39.5 -7.5t-48.5 -22.5v182h460q35 0 92 20zM1278 774q-9 18 -13.5 33
t-6 29t-14 151t-20.5 240.5t-8 122.5v27q0 24 0.5 49t5.5 50h-160q-10 -14 -24 -24q-18 -16 -47 -38.5t-43 -33.5l-90 72q-14 10 -24 24h-160q3 -17 4.5 -43.5t1.5 -55.5v-27q0 -34 -17 -235q-10 -118 -25 -277q-2 -14 -6.5 -30t-13.5 -34h154q-4 11 -7.5 27t-3.5 26
q1 9 1 13l40 492l146 -120l148 120q0 -93 20 -309q9 -92 18 -183q1 -5 1 -15q0 -14 -2 -25t-9 -26h154zM596 1486q-17 -6 -32 -8t-34 -2h-436v-120q38 16 64 16h116v-534q0 -15 -0.5 -29.5t-5.5 -34.5h138q-5 16 -6.5 31t-1.5 33v534h104q38 0 62 31.5t32 82.5z" />
    <glyph glyph-name="partialdiff" unicode="&#x2202;" horiz-adv-x="1146" 
d="M1044 -24q-403 110 -677 396q-291 304 -291 666q0 216 132 342q126 120 330 120h344v-272q-153 92 -298 92q-130 0 -215 -78q-93 -85 -93 -228q0 -205 174 -434q163 -215 354 -298v638q0 54 -5 84q-9 53 -35 92h270q-24 -44 -32 -95q-4 -27 -4 -81v-736q0 -67 23 -144
q7 -25 23 -64zM1006 12q-15 38 -23.5 87t-8.5 85v736q0 63 2.5 90t17.5 62h-188q11 -21 16.5 -55.5t5.5 -96.5v-674q-133 52 -267.5 179t-217.5 279q-91 166 -91 310q0 153 100 245q93 85 232 85q69 0 140.5 -20t133.5 -56v208h-320q-194 0 -313 -114q-125 -119 -125 -324
q0 -231 130 -448q122 -203 332 -358q205 -151 444 -220zM876 1646q-40 -18 -120.5 -31t-149.5 -13q-68 0 -149 13t-121 31v188q49 -24 111 -38q77 -18 159 -18q85 0 151.5 15.5t118.5 40.5v-188zM852 1662v136q-50 -20 -112 -32t-134 -12t-134 12t-112 32v-136
q42 -14 115.5 -25t130.5 -11q63 0 131.5 10t114.5 26z" />
    <glyph glyph-name="Delta" unicode="&#x2206;" 
d="M1136 1002q0 -343 -217.5 -564.5t-548.5 -221.5v256h-270q0 352 218 573q214 217 548 217v-260h270zM1112 978h-270v260q-307 0 -510 -206q-208 -211 -208 -536h270v-256q306 0 512 210t206 528zM826 846q0 -140 -86 -227t-220 -87v100h-106q0 139 85.5 226.5t216.5 87.5
v-100h110zM802 822h-110v100q-107 -9 -180.5 -82.5t-73.5 -183.5h106v-100q109 0 183.5 76.5t74.5 189.5zM694 778q0 -46 -31 -80t-73 -34v40h-44q0 48 30 79t74 31v-36h44z" />
    <glyph glyph-name="product" unicode="&#x220f;" horiz-adv-x="490" 
d="M380 0h-272q27 40 35 91q5 30 5 85v1148q0 54 -5 84q-9 53 -35 92h272q-23 -42 -30.5 -85.5t-7.5 -90.5v-1148q0 -52 5 -82q9 -50 33 -94zM340 24q-13 31 -17.5 71t-4.5 81v1148q0 59 5.5 92.5t16.5 59.5h-190q11 -21 16.5 -55.5t5.5 -96.5v-1148q0 -57 -3 -89t-19 -63
h190zM389 1749q0 -62 -42 -104t-104 -42t-104 42t-42 104t42 104t104 42t104 -42t42 -104zM365 1749q0 51 -35.5 86.5t-86.5 35.5t-86.5 -35.5t-35.5 -86.5t35.5 -86.5t86.5 -35.5t86.5 35.5t35.5 86.5z" />
    <glyph glyph-name="fraction" unicode="&#x2215;" horiz-adv-x="962" 
d="M1196 1500l-1220 -1500h-208l1212 1500h216zM1146 1476h-154l-1174 -1452h146z" />
    <glyph glyph-name="radical" unicode="&#x221a;" 
d="M1136 1002q0 -343 -217.5 -564.5t-548.5 -221.5v256h-270q0 352 218 573q214 217 548 217v-260h270zM1112 978h-270v260q-307 0 -510 -206q-208 -211 -208 -536h270v-256q306 0 512 210t206 528zM826 846q0 -140 -86 -227t-220 -87v100h-106q0 139 85.5 226.5t216.5 87.5
v-100h110zM802 822h-110v100q-107 -9 -180.5 -82.5t-73.5 -183.5h106v-100q109 0 183.5 76.5t74.5 189.5zM694 778q0 -46 -31 -80t-73 -34v40h-44q0 48 30 79t74 31v-36h44z" />
    <glyph glyph-name="infinity" unicode="&#x221e;" horiz-adv-x="1048" 
d="M988 -12q-237 57 -437 190q-217 145 -339 344q-136 221 -136 480q0 221 131.5 365.5t330.5 144.5q59 0 111 -3q156 -9 177 -9v-262q-69 46 -126.5 64t-131.5 18q-129 0 -208.5 -90.5t-79.5 -239.5q0 -211 132 -401q114 -164 290 -271q161 -98 286 -98v-232zM964 20v176
q-122 0 -285 103q-177 112 -290 279q-133 197 -133 412q0 159 86.5 256.5t225.5 97.5q133 0 234 -62v194q-68 6 -128.5 9t-135.5 3q-189 0 -313.5 -138.5t-124.5 -347.5q0 -248 130 -463q117 -194 322 -334q191 -130 412 -185zM834 1902l-232 -298h-184l216 298h200z
M786 1878h-140l-182 -250h126z" />
    <glyph glyph-name="integral" unicode="&#x222b;" horiz-adv-x="1088" 
d="M1004 1286q-42 27 -71 38.5t-65 11.5q-50 0 -81 -43q-27 -38 -27 -85q0 -71 29 -184.5t58 -234.5t29 -229q0 -245 -152.5 -413t-379.5 -168v-49q6 1 14.5 1.5t11.5 0.5q60 0 104 -45t44 -111q0 -79 -64 -129q-60 -47 -142 -47q-25 0 -65.5 8.5t-58.5 19.5l36 124
q20 -13 43 -19.5t45 -6.5q28 0 46 13.5t18 38.5q0 52 -68 52q-28 0 -72 -8v156q-32 0 -71 6t-73 14v228q65 -30 110 -40t106 -10q163 0 259 120q89 111 89 276q0 108 -28 226.5t-54 225.5q-30 122 -30 196q0 123 83 209q90 93 233 93q39 0 70.5 -3t73.5 -9v-224zM980 1330
v160q-25 3 -59 5.5t-61 2.5q-132 0 -215 -85q-77 -79 -77 -193q0 -77 29 -195q26 -107 54.5 -228t28.5 -225q0 -175 -94 -292q-103 -128 -278 -128q-64 0 -103 7.5t-89 30.5v-172q22 -5 70 -11t74 -6v-151l48 4q92 0 92 -76q0 -35 -24.5 -55.5t-63.5 -20.5q-30 0 -72 16
l-22 -78q20 -7 46.5 -11.5t47.5 -4.5q72 0 125 40q57 43 57 112q0 56 -37 94t-87 38q-17 0 -30 -1.5t-20 -2.5v98q228 0 380 162t152 396q0 107 -29 228t-58 235t-29 185q0 57 33 101q38 51 99 51q33 0 59 -7.5t53 -22.5z" />
    <glyph glyph-name="approxequal" unicode="&#x2248;" 
d="M1136 1002q0 -343 -217.5 -564.5t-548.5 -221.5v256h-270q0 352 218 573q214 217 548 217v-260h270zM1112 978h-270v260q-307 0 -510 -206q-208 -211 -208 -536h270v-256q306 0 512 210t206 528zM826 846q0 -140 -86 -227t-220 -87v100h-106q0 139 85.5 226.5t216.5 87.5
v-100h110zM802 822h-110v100q-107 -9 -180.5 -82.5t-73.5 -183.5h106v-100q109 0 183.5 76.5t74.5 189.5zM694 778q0 -46 -31 -80t-73 -34v40h-44q0 48 30 79t74 31v-36h44z" />
    <glyph glyph-name="notequal" unicode="&#x2260;" 
d="M1136 1002q0 -343 -217.5 -564.5t-548.5 -221.5v256h-270q0 352 218 573q214 217 548 217v-260h270zM1112 978h-270v260q-307 0 -510 -206q-208 -211 -208 -536h270v-256q306 0 512 210t206 528zM826 846q0 -140 -86 -227t-220 -87v100h-106q0 139 85.5 226.5t216.5 87.5
v-100h110zM802 822h-110v100q-107 -9 -180.5 -82.5t-73.5 -183.5h106v-100q109 0 183.5 76.5t74.5 189.5zM694 778q0 -46 -31 -80t-73 -34v40h-44q0 48 30 79t74 31v-36h44z" />
    <glyph glyph-name="lessequal" unicode="&#x2264;" horiz-adv-x="1048" 
d="M988 -12q-237 57 -437 190q-217 145 -339 344q-136 221 -136 480q0 221 131.5 365.5t330.5 144.5q59 0 111 -3q156 -9 177 -9v-262q-69 46 -126.5 64t-131.5 18q-129 0 -208.5 -90.5t-79.5 -239.5q0 -211 132 -401q114 -164 290 -271q161 -98 286 -98v-232zM964 20v176
q-122 0 -285 103q-177 112 -290 279q-133 197 -133 412q0 159 86.5 256.5t225.5 97.5q133 0 234 -62v194q-68 6 -128.5 9t-135.5 3q-189 0 -313.5 -138.5t-124.5 -347.5q0 -248 130 -463q117 -194 322 -334q191 -130 412 -185zM857 1899l-220 -298h-160l-220 298h186
l114 -144l114 144h186zM809 1875h-128l-124 -158l-124 158h-128l184 -250h136z" />
    <glyph glyph-name="greaterequal" unicode="&#x2265;" horiz-adv-x="1048" 
d="M988 -12q-237 57 -437 190q-217 145 -339 344q-136 221 -136 480q0 221 131.5 365.5t330.5 144.5q59 0 111 -3q156 -9 177 -9v-262q-69 46 -126.5 64t-131.5 18q-129 0 -208.5 -90.5t-79.5 -239.5q0 -211 132 -401q114 -164 290 -271q161 -98 286 -98v-232zM964 20v176
q-122 0 -285 103q-177 112 -290 279q-133 197 -133 412q0 159 86.5 256.5t225.5 97.5q133 0 234 -62v194q-68 6 -128.5 9t-135.5 3q-189 0 -313.5 -138.5t-124.5 -347.5q0 -248 130 -463q117 -194 322 -334q191 -130 412 -185zM857 1899l-220 -298h-160l-220 298h186
l114 -144l114 144h186zM809 1875h-128l-124 -158l-124 158h-128l184 -250h136z" />
    <glyph glyph-name="lozenge" unicode="&#x25ca;" horiz-adv-x="1050" 
d="M975 748l-450 -748l-450 748l450 748zM946 748l-421 702l-421 -702l421 -702z" />
    <glyph glyph-name="apple" unicode="&#xf000;" 
d="M1136 1002q0 -343 -217.5 -564.5t-548.5 -221.5v256h-270q0 352 218 573q214 217 548 217v-260h270zM1112 978h-270v260q-307 0 -510 -206q-208 -211 -208 -536h270v-256q306 0 512 210t206 528zM826 846q0 -140 -86 -227t-220 -87v100h-106q0 139 85.5 226.5t216.5 87.5
v-100h110zM802 822h-110v100q-107 -9 -180.5 -82.5t-73.5 -183.5h106v-100q109 0 183.5 76.5t74.5 189.5zM694 778q0 -46 -31 -80t-73 -34v40h-44q0 48 30 79t74 31v-36h44z" />
    <glyph glyph-name="fi" unicode="&#xf001;" 
d="M1136 1002q0 -343 -217.5 -564.5t-548.5 -221.5v256h-270q0 352 218 573q214 217 548 217v-260h270zM1112 978h-270v260q-307 0 -510 -206q-208 -211 -208 -536h270v-256q306 0 512 210t206 528zM826 846q0 -140 -86 -227t-220 -87v100h-106q0 139 85.5 226.5t216.5 87.5
v-100h110zM802 822h-110v100q-107 -9 -180.5 -82.5t-73.5 -183.5h106v-100q109 0 183.5 76.5t74.5 189.5zM694 778q0 -46 -31 -80t-73 -34v40h-44q0 48 30 79t74 31v-36h44z" />
    <glyph glyph-name="fl" unicode="&#xf002;" 
d="M1136 1002q0 -343 -217.5 -564.5t-548.5 -221.5v256h-270q0 352 218 573q214 217 548 217v-260h270zM1112 978h-270v260q-307 0 -510 -206q-208 -211 -208 -536h270v-256q306 0 512 210t206 528zM826 846q0 -140 -86 -227t-220 -87v100h-106q0 139 85.5 226.5t216.5 87.5
v-100h110zM802 822h-110v100q-107 -9 -180.5 -82.5t-73.5 -183.5h106v-100q109 0 183.5 76.5t74.5 189.5zM694 778q0 -46 -31 -80t-73 -34v40h-44q0 48 30 79t74 31v-36h44z" />
    <glyph glyph-name="germandbls" 
d="M1136 1002q0 -343 -217.5 -564.5t-548.5 -221.5v256h-270q0 352 218 573q214 217 548 217v-260h270zM1112 978h-270v260q-307 0 -510 -206q-208 -211 -208 -536h270v-256q306 0 512 210t206 528zM826 846q0 -140 -86 -227t-220 -87v100h-106q0 139 85.5 226.5t216.5 87.5
v-100h110zM802 822h-110v100q-107 -9 -180.5 -82.5t-73.5 -183.5h106v-100q109 0 183.5 76.5t74.5 189.5zM694 778q0 -46 -31 -80t-73 -34v40h-44q0 48 30 79t74 31v-36h44z" />
    <glyph glyph-name="plusminus" horiz-adv-x="1048" 
d="M988 -12q-237 57 -437 190q-217 145 -339 344q-136 221 -136 480q0 221 131.5 365.5t330.5 144.5q59 0 111 -3q156 -9 177 -9v-262q-69 46 -126.5 64t-131.5 18q-129 0 -208.5 -90.5t-79.5 -239.5q0 -211 132 -401q114 -164 290 -271q161 -98 286 -98v-232zM964 20v176
q-122 0 -285 103q-177 112 -290 279q-133 197 -133 412q0 159 86.5 256.5t225.5 97.5q133 0 234 -62v194q-68 6 -128.5 9t-135.5 3q-189 0 -313.5 -138.5t-124.5 -347.5q0 -248 130 -463q117 -194 322 -334q191 -130 412 -185zM834 1902l-232 -298h-184l216 298h200z
M786 1878h-140l-182 -250h126z" />
    <glyph glyph-name="mu" horiz-adv-x="1120" 
d="M1044 516q0 -244 -115.5 -380t-304.5 -136h-516q27 40 35 91q5 30 5 85v1158q0 53 -5 84q-9 54 -35 96q210 -20 429 -165t357 -359q150 -233 150 -474zM1020 516q0 229 -142 453q-129 204 -335 348q-201 140 -391 167q13 -29 16.5 -67.5t3.5 -82.5v-1158q0 -57 -3 -89
t-19 -63h474q180 0 286 127q110 132 110 365zM870 514q0 -170 -81 -260q-74 -82 -199 -82h-272v1074q205 -60 374 -272q178 -224 178 -460zM846 514q0 220 -164 435q-155 203 -340 265v-1018h248q114 0 182 77q74 84 74 241zM654 1606h-540v160h540v-160zM630 1630v112h-492
v-112h492z" />
    <glyph glyph-name="ordfeminine" 
d="M1136 1002q0 -343 -217.5 -564.5t-548.5 -221.5v256h-270q0 352 218 573q214 217 548 217v-260h270zM1112 978h-270v260q-307 0 -510 -206q-208 -211 -208 -536h270v-256q306 0 512 210t206 528zM826 846q0 -140 -86 -227t-220 -87v100h-106q0 139 85.5 226.5t216.5 87.5
v-100h110zM802 822h-110v100q-107 -9 -180.5 -82.5t-73.5 -183.5h106v-100q109 0 183.5 76.5t74.5 189.5zM694 778q0 -46 -31 -80t-73 -34v40h-44q0 48 30 79t74 31v-36h44z" />
    <glyph glyph-name="ordmasculine" 
d="M1136 1002q0 -343 -217.5 -564.5t-548.5 -221.5v256h-270q0 352 218 573q214 217 548 217v-260h270zM1112 978h-270v260q-307 0 -510 -206q-208 -211 -208 -536h270v-256q306 0 512 210t206 528zM826 846q0 -140 -86 -227t-220 -87v100h-106q0 139 85.5 226.5t216.5 87.5
v-100h110zM802 822h-110v100q-107 -9 -180.5 -82.5t-73.5 -183.5h106v-100q109 0 183.5 76.5t74.5 189.5zM694 778q0 -46 -31 -80t-73 -34v40h-44q0 48 30 79t74 31v-36h44z" />
    <glyph glyph-name="ae" 
d="M1136 1002q0 -343 -217.5 -564.5t-548.5 -221.5v256h-270q0 352 218 573q214 217 548 217v-260h270zM1112 978h-270v260q-307 0 -510 -206q-208 -211 -208 -536h270v-256q306 0 512 210t206 528zM826 846q0 -140 -86 -227t-220 -87v100h-106q0 139 85.5 226.5t216.5 87.5
v-100h110zM802 822h-110v100q-107 -9 -180.5 -82.5t-73.5 -183.5h106v-100q109 0 183.5 76.5t74.5 189.5zM694 778q0 -46 -31 -80t-73 -34v40h-44q0 48 30 79t74 31v-36h44z" />
    <glyph glyph-name="oslash" 
d="M1136 1002q0 -343 -217.5 -564.5t-548.5 -221.5v256h-270q0 352 218 573q214 217 548 217v-260h270zM1112 978h-270v260q-307 0 -510 -206q-208 -211 -208 -536h270v-256q306 0 512 210t206 528zM826 846q0 -140 -86 -227t-220 -87v100h-106q0 139 85.5 226.5t216.5 87.5
v-100h110zM802 822h-110v100q-107 -9 -180.5 -82.5t-73.5 -183.5h106v-100q109 0 183.5 76.5t74.5 189.5zM694 778q0 -46 -31 -80t-73 -34v40h-44q0 48 30 79t74 31v-36h44z" />
    <glyph glyph-name="logicalnot" 
d="M1136 1002q0 -343 -217.5 -564.5t-548.5 -221.5v256h-270q0 352 218 573q214 217 548 217v-260h270zM1112 978h-270v260q-307 0 -510 -206q-208 -211 -208 -536h270v-256q306 0 512 210t206 528zM826 846q0 -140 -86 -227t-220 -87v100h-106q0 139 85.5 226.5t216.5 87.5
v-100h110zM802 822h-110v100q-107 -9 -180.5 -82.5t-73.5 -183.5h106v-100q109 0 183.5 76.5t74.5 189.5zM694 778q0 -46 -31 -80t-73 -34v40h-44q0 48 30 79t74 31v-36h44z" />
    <glyph glyph-name="florin" 
d="M1136 1002q0 -343 -217.5 -564.5t-548.5 -221.5v256h-270q0 352 218 573q214 217 548 217v-260h270zM1112 978h-270v260q-307 0 -510 -206q-208 -211 -208 -536h270v-256q306 0 512 210t206 528zM826 846q0 -140 -86 -227t-220 -87v100h-106q0 139 85.5 226.5t216.5 87.5
v-100h110zM802 822h-110v100q-107 -9 -180.5 -82.5t-73.5 -183.5h106v-100q109 0 183.5 76.5t74.5 189.5zM694 778q0 -46 -31 -80t-73 -34v40h-44q0 48 30 79t74 31v-36h44z" />
    <glyph glyph-name="oe" 
d="M1136 1002q0 -343 -217.5 -564.5t-548.5 -221.5v256h-270q0 352 218 573q214 217 548 217v-260h270zM1112 978h-270v260q-307 0 -510 -206q-208 -211 -208 -536h270v-256q306 0 512 210t206 528zM826 846q0 -140 -86 -227t-220 -87v100h-106q0 139 85.5 226.5t216.5 87.5
v-100h110zM802 822h-110v100q-107 -9 -180.5 -82.5t-73.5 -183.5h106v-100q109 0 183.5 76.5t74.5 189.5zM694 778q0 -46 -31 -80t-73 -34v40h-44q0 48 30 79t74 31v-36h44z" />
    <glyph glyph-name="glyph234" horiz-adv-x="1120" 
d="M1044 516q0 -244 -115.5 -380t-304.5 -136h-516q27 40 35 91q5 30 5 85v434h-116v186h116v538q0 53 -5 84q-9 54 -35 96q206 -20 425.5 -165.5t358.5 -358.5q152 -233 152 -474zM1020 516q0 229 -142 453q-129 204 -335 348q-201 140 -391 167q13 -29 16.5 -67.5
t3.5 -82.5v-562h-116v-138h116v-458q0 -57 -3 -89t-19 -63h474q180 0 286 127q110 132 110 365zM870 514q0 -170 -81 -260q-74 -82 -199 -82h-272v462h144v138h-144v474q205 -60 374 -272q178 -224 178 -460zM846 514q0 220 -164 435q-155 203 -340 265v-418h144v-186h-144
v-414h248q114 0 182 77q74 84 74 241z" />
    <glyph glyph-name="yacute" horiz-adv-x="904" 
d="M930 1500q-36 -16 -106 -77q-42 -37 -92 -87q-31 -32 -99.5 -111t-86.5 -101v-948q0 -52 5 -82q9 -50 33 -94h-272q27 40 35 91q5 30 5 85v938q-14 16 -89 99q-78 86 -95 103q-47 52 -81 86q-63 64 -119 98h366q-2 -9 -2 -26q0 -52 38 -94l74 -84q9 11 35 43.5t41 52.5
q24 30 34 53t10 55h366zM852 1476h-264q0 -23 -12 -46q-7 -13 -36 -54q-20 -27 -57 -73q-12 -16 -35 -43l-94 104q-24 27 -36 56t-12 56h-260q31 -27 75 -75q31 -35 63 -69q22 -22 109 -118q29 -32 83 -92v-946q0 -57 -3 -89t-19 -63h190q-13 31 -17.5 71t-4.5 81v958
l194 218q28 32 59 61q41 39 77 63zM703 1899l-232 -298h-184l216 298h200zM655 1875h-140l-182 -250h126z" />
    <glyph glyph-name="Thorn" horiz-adv-x="998" 
d="M968 1136q0 -99 -64.5 -190.5t-223.5 -321.5q-148 -214 -198 -288l-86 -126v310l300 440q16 23 27 49.5t11 50.5t-15.5 31t-60.5 7h-316v-922q0 -52 5 -82q9 -50 33 -94h-272q27 40 35 91q5 30 5 85v1148q0 54 -5 84q-9 53 -35 92h274q-27 -40 -33.5 -80.5t-6.5 -95.5
v-48h448q82 0 127 -32q51 -36 51 -108zM944 1136q0 60 -42 88t-112 28h-472v72q0 57 3 89t19 63h-190q11 -21 16.5 -55.5t5.5 -96.5v-1148q0 -57 -3 -89t-19 -63h190q-13 31 -17.5 71t-4.5 81v946h340q57 0 78.5 -13.5t21.5 -48.5q0 -28 -11 -55.5t-31 -56.5l-296 -436v-224
q41 59 82 119q22 31 184 267q175 255 194 282q33 47 48.5 91.5t15.5 88.5z" />
    <glyph glyph-name="minus" horiz-adv-x="500" 
d="M358 562h-220v192h220v-192zM334 586v144h-172v-144h172z" />
    <glyph glyph-name="onesuperior" 
d="M1136 1002q0 -343 -217.5 -564.5t-548.5 -221.5v256h-270q0 352 218 573q214 217 548 217v-260h270zM1112 978h-270v260q-307 0 -510 -206q-208 -211 -208 -536h270v-256q306 0 512 210t206 528zM826 846q0 -140 -86 -227t-220 -87v100h-106q0 139 85.5 226.5t216.5 87.5
v-100h110zM802 822h-110v100q-107 -9 -180.5 -82.5t-73.5 -183.5h106v-100q109 0 183.5 76.5t74.5 189.5zM694 778q0 -46 -31 -80t-73 -34v40h-44q0 48 30 79t74 31v-36h44z" />
    <glyph glyph-name="twosuperior" 
d="M1136 1002q0 -343 -217.5 -564.5t-548.5 -221.5v256h-270q0 352 218 573q214 217 548 217v-260h270zM1112 978h-270v260q-307 0 -510 -206q-208 -211 -208 -536h270v-256q306 0 512 210t206 528zM826 846q0 -140 -86 -227t-220 -87v100h-106q0 139 85.5 226.5t216.5 87.5
v-100h110zM802 822h-110v100q-107 -9 -180.5 -82.5t-73.5 -183.5h106v-100q109 0 183.5 76.5t74.5 189.5zM694 778q0 -46 -31 -80t-73 -34v40h-44q0 48 30 79t74 31v-36h44z" />
    <glyph glyph-name="threesuperior" 
d="M1136 1002q0 -343 -217.5 -564.5t-548.5 -221.5v256h-270q0 352 218 573q214 217 548 217v-260h270zM1112 978h-270v260q-307 0 -510 -206q-208 -211 -208 -536h270v-256q306 0 512 210t206 528zM826 846q0 -140 -86 -227t-220 -87v100h-106q0 139 85.5 226.5t216.5 87.5
v-100h110zM802 822h-110v100q-107 -9 -180.5 -82.5t-73.5 -183.5h106v-100q109 0 183.5 76.5t74.5 189.5zM694 778q0 -46 -31 -80t-73 -34v40h-44q0 48 30 79t74 31v-36h44z" />
    <glyph glyph-name="onehalf" 
d="M1136 1002q0 -343 -217.5 -564.5t-548.5 -221.5v256h-270q0 352 218 573q214 217 548 217v-260h270zM1112 978h-270v260q-307 0 -510 -206q-208 -211 -208 -536h270v-256q306 0 512 210t206 528zM826 846q0 -140 -86 -227t-220 -87v100h-106q0 139 85.5 226.5t216.5 87.5
v-100h110zM802 822h-110v100q-107 -9 -180.5 -82.5t-73.5 -183.5h106v-100q109 0 183.5 76.5t74.5 189.5zM694 778q0 -46 -31 -80t-73 -34v40h-44q0 48 30 79t74 31v-36h44z" />
    <glyph glyph-name="onequarter" 
d="M1136 1002q0 -343 -217.5 -564.5t-548.5 -221.5v256h-270q0 352 218 573q214 217 548 217v-260h270zM1112 978h-270v260q-307 0 -510 -206q-208 -211 -208 -536h270v-256q306 0 512 210t206 528zM826 846q0 -140 -86 -227t-220 -87v100h-106q0 139 85.5 226.5t216.5 87.5
v-100h110zM802 822h-110v100q-107 -9 -180.5 -82.5t-73.5 -183.5h106v-100q109 0 183.5 76.5t74.5 189.5zM694 778q0 -46 -31 -80t-73 -34v40h-44q0 48 30 79t74 31v-36h44z" />
    <glyph glyph-name="threequarters" 
d="M1136 1002q0 -343 -217.5 -564.5t-548.5 -221.5v256h-270q0 352 218 573q214 217 548 217v-260h270zM1112 978h-270v260q-307 0 -510 -206q-208 -211 -208 -536h270v-256q306 0 512 210t206 528zM826 846q0 -140 -86 -227t-220 -87v100h-106q0 139 85.5 226.5t216.5 87.5
v-100h110zM802 822h-110v100q-107 -9 -180.5 -82.5t-73.5 -183.5h106v-100q109 0 183.5 76.5t74.5 189.5zM694 778q0 -46 -31 -80t-73 -34v40h-44q0 48 30 79t74 31v-36h44z" />
  </font>
</defs>
</svg>
