<?xml version="1.0" standalone="no"?>
<!DOCTYPE svg PUBLIC "-//W3C//DTD SVG 1.1//EN" "http://www.w3.org/Graphics/SVG/1.1/DTD/svg11.dtd" >
<svg xmlns="http://www.w3.org/2000/svg" xmlns:xlink="http://www.w3.org/1999/xlink" version="1.1">
<metadata>
Created by FontForge 20170731 at Mon Aug 27 19:25:23 2018
 By Aleksey,,,
Copyright (c) 2018 by Luzi Type All rights reserved.
</metadata>
<defs>
<font id="BuenosAires-Regular" horiz-adv-x="600" >
  <font-face 
    font-family="Buenos Aires"
    font-weight="400"
    font-stretch="normal"
    units-per-em="1000"
    panose-1="0 0 5 0 0 0 0 0 0 0"
    ascent="757"
    descent="-243"
    x-height="502"
    cap-height="700"
    bbox="-156 -279 1383 1163"
    underline-thickness="50"
    underline-position="-200"
    unicode-range="U+000D-FB01"
  />
<missing-glyph horiz-adv-x="284" 
 />
    <glyph glyph-name="fi" unicode="fi" horiz-adv-x="639" 
d="M559 502v-502h-98v414h-253v-414h-98v414h-98v88h98v52q0 80 47.5 125.5t124.5 45.5q75 0 126 -45l-43 -74q-31 30 -76 30q-38 0 -59.5 -21.5t-21.5 -60.5v-52h351z" />
    <glyph glyph-name="ff" unicode="ff" horiz-adv-x="742" 
d="M633 725q75 0 127 -45l-44 -74q-31 30 -76 30q-38 0 -59.5 -21.5t-21.5 -60.5v-52h135v-88h-135v-414h-98v414h-253v-414h-98v414h-98v88h98v52q0 80 47.5 125.5t124.5 45.5q61 0 104 -34l-35 -78q-28 23 -62 23q-38 0 -59.5 -21.5t-21.5 -60.5v-52h253v52
q0 80 47.5 125.5t124.5 45.5z" />
    <glyph glyph-name=".notdef" horiz-adv-x="284" 
 />
    <glyph glyph-name=".null" horiz-adv-x="0" 
 />
    <glyph glyph-name="nonmarkingreturn" horiz-adv-x="333" 
 />
    <glyph glyph-name="CR" unicode="&#xd;" horiz-adv-x="262" 
 />
    <glyph glyph-name="space" unicode=" " horiz-adv-x="252" 
 />
    <glyph glyph-name="exclam" unicode="!" horiz-adv-x="345" 
d="M211 212h-77l-16 504h110zM173 131q31 0 50.5 -20t19.5 -48q0 -29 -19.5 -49t-50.5 -20q-32 0 -51.5 20t-19.5 49t20 48.5t51 19.5z" />
    <glyph glyph-name="quotedbl" unicode="&#x22;" horiz-adv-x="356" 
d="M137 716v-233h-97v233h97zM316 716v-233h-97v233h97z" />
    <glyph glyph-name="numbersign" unicode="#" horiz-adv-x="828" 
d="M746 463h-149l-31 -207h142v-81h-155l-24 -152h-83l24 152h-168l-24 -152h-82l23 152h-137v81h150l32 207h-153v81h166l24 152h82l-24 -152h169l24 152h82l-24 -152h136v-81zM315 256h168l32 207h-168z" />
    <glyph glyph-name="dollar" unicode="$" horiz-adv-x="546" 
d="M504 201q0 -86 -57 -139t-142 -61v-112h-51v112q-130 10 -212 108l69 72q55 -71 143 -85v209h-1q-35 11 -56.5 19.5t-51.5 25.5t-46.5 35.5t-29 48t-12.5 66.5q0 86 56.5 138.5t140.5 60.5v111h51v-111q111 -10 177 -91l-64 -68q-41 53 -113 65v-215q40 -13 58 -19.5
t51 -23t48.5 -33.5t28.5 -46.5t13 -66.5zM155 512q0 -70 99 -105v200q-43 -5 -71 -29.5t-28 -65.5zM305 94q46 4 73.5 30.5t27.5 64.5q0 37 -26 58.5t-75 39.5v-193z" />
    <glyph glyph-name="percent" unicode="%" horiz-adv-x="995" 
d="M289 -16l-60 43l476 689l61 -43zM225 712q79 0 132 -53t53 -130t-53 -130.5t-132 -53.5t-132 53.5t-53 130.5t53 130t132 53zM225 421q45 0 75 31t30 77t-30 77t-75 31t-75 -31t-30 -77t30 -77t75 -31zM770 351q79 0 132 -53t53 -130q0 -78 -53.5 -131t-131.5 -53
t-131.5 53t-53.5 131q0 77 53 130t132 53zM770 60q45 0 75 31t30 77t-30 77t-75 31t-75 -31t-30 -77t30 -77t75 -31z" />
    <glyph glyph-name="ampersand" unicode="&#x26;" horiz-adv-x="715" 
d="M573 157l100 -103l-72 -64l-92 95q-85 -91 -216 -91q-96 0 -160.5 52t-64.5 139q0 137 163 192l-22 24q-22 24 -34 39.5t-23 44.5t-11 62q0 80 55 124.5t134 44.5q80 0 134 -44.5t54 -118.5q0 -60 -37.5 -109.5t-106.5 -80.5l138 -144q22 40 38 105l83 -12
q-16 -79 -60 -155zM239 543q0 -14 3.5 -26t12.5 -25t13.5 -19t19 -21t16.5 -17l18 -19q101 51 101 126q0 40 -27 63.5t-66 23.5q-37 0 -64 -22.5t-27 -63.5zM309 83q93 0 144 59l-171 180q-112 -38 -112 -128q0 -53 39.5 -82t99.5 -29z" />
    <glyph glyph-name="quotesingle" unicode="'" horiz-adv-x="177" 
d="M137 716v-233h-97v233h97z" />
    <glyph glyph-name="parenleft" unicode="(" horiz-adv-x="306" 
d="M117 337q0 -246 185 -428l-63 -59q-219 206 -219 487q0 283 219 487l63 -59q-185 -182 -185 -428z" />
    <glyph glyph-name="parenright" unicode=")" horiz-adv-x="299" 
d="M183 337q0 241 -181 419l61 57q214 -198 214 -476q0 -275 -214 -476l-61 58q181 178 181 418z" />
    <glyph glyph-name="asterisk" unicode="*" horiz-adv-x="489" 
d="M308 495l85 -108l-70 -51l-78 115l-80 -115l-69 51l84 108l-132 43l26 77l132 -44l-3 140h87l-6 -140l132 44l25 -77z" />
    <glyph glyph-name="plus" unicode="+" 
d="M504 356v-87h-160v-169h-89v169h-159v87h159v170h89v-170h160z" />
    <glyph glyph-name="comma" unicode="," horiz-adv-x="252" 
d="M22 -139l100 280l98 -38l-118 -273z" />
    <glyph glyph-name="hyphen" unicode="-" horiz-adv-x="408" 
d="M54 350h300v-89h-300v89z" />
    <glyph glyph-name="period" unicode="." horiz-adv-x="221" 
d="M111 131q31 0 50.5 -20t19.5 -48q0 -29 -19.5 -49t-50.5 -20q-32 0 -51.5 20t-19.5 49t20 48.5t51 19.5z" />
    <glyph glyph-name="slash" unicode="/" horiz-adv-x="367" 
d="M93 -16l-93 36l274 696l94 -35z" />
    <glyph glyph-name="zero" unicode="0" horiz-adv-x="613" 
d="M307 700q122 0 188.5 -90t66.5 -252v-22q0 -162 -66.5 -252t-188.5 -90q-123 0 -189 90t-66 252v22q0 162 66 252t189 90zM460 358q0 249 -153 249t-153 -249v-22q0 -249 153 -249t153 249v22z" />
    <glyph glyph-name="one" unicode="1" horiz-adv-x="358" 
d="M156 0v597h-104v93h204v-690h-100z" />
    <glyph glyph-name="two" unicode="2" horiz-adv-x="573" 
d="M186 93h345v-93h-474v89l219 202q29 26 43 39.5t37.5 42t34.5 56.5t11 58q0 56 -36 88t-87 32q-56 0 -98.5 -39t-45.5 -110l-93 7q5 112 76.5 174t166.5 62q91 0 154.5 -56.5t63.5 -150.5q0 -21 -3 -40.5t-10.5 -38t-13 -32.5t-18.5 -30.5t-19.5 -26t-22.5 -25t-20.5 -20
t-21 -19t-17.5 -15.5z" />
    <glyph glyph-name="three" unicode="3" horiz-adv-x="555" 
d="M335 362q80 -15 124 -59.5t44 -111.5q0 -88 -67.5 -142.5t-162.5 -54.5q-77 0 -142 38.5t-99 110.5l89 48q23 -52 64.5 -79t92.5 -27q53 0 89 28t36 76q0 58 -48 90t-136 32h-32v82q88 0 137.5 31t49.5 88q0 45 -31.5 70t-79.5 25q-43 0 -82.5 -22t-63.5 -62l-72 46
q33 63 93.5 97t132.5 34q86 0 145 -46t59 -120q0 -59 -38.5 -106.5t-101.5 -65.5z" />
    <glyph glyph-name="four" unicode="4" horiz-adv-x="604" 
d="M448 263h125v-93h-125v-170h-100v170h-316v89l312 431h104v-427zM133 263h215v297z" />
    <glyph glyph-name="five" unicode="5" horiz-adv-x="594" 
d="M322 456q106 0 163 -64t57 -158q0 -103 -68 -171.5t-178 -68.5q-80 0 -147.5 40.5t-96.5 114.5l90 43q17 -50 61.5 -77.5t96.5 -27.5q66 0 103 39.5t37 98.5q0 60 -37.5 100.5t-102.5 40.5q-89 0 -135 -66h-81v390h399v-93h-313v-195q57 54 152 54z" />
    <glyph glyph-name="six" unicode="6" horiz-adv-x="616" 
d="M564 232q0 -108 -69.5 -173t-172.5 -65q-116 0 -193 84.5t-77 232.5q0 175 109.5 282t304.5 107l3 -92q-138 -1 -222.5 -67.5t-93.5 -201.5q23 56 77 87t117 31q92 0 154.5 -61.5t62.5 -163.5zM321 87q65 0 103 39.5t38 101.5q0 67 -41.5 103t-100.5 36t-102 -37
t-43 -101q0 -62 40.5 -102t105.5 -40z" />
    <glyph glyph-name="seven" unicode="7" horiz-adv-x="551" 
d="M118 0l299 592h-397v98h501v-94l-293 -596h-110z" />
    <glyph glyph-name="eight" unicode="8" 
d="M409 363q139 -49 139 -172q0 -88 -69 -142.5t-180 -54.5q-110 0 -178.5 54t-68.5 142q0 62 34 108t99 68q-105 49 -105 153q0 82 62.5 131.5t160.5 49.5q96 0 156.5 -48t60.5 -128q0 -53 -29 -95t-82 -66zM181 511q0 -71 100 -101l40 -12q43 13 71 46t28 71
q0 41 -32 67.5t-86 26.5t-87.5 -27.5t-33.5 -70.5zM301 85q65 0 105.5 30t40.5 77q0 87 -133 119l-51 12q-49 -12 -79.5 -47.5t-30.5 -80.5q0 -50 40.5 -80t107.5 -30z" />
    <glyph glyph-name="nine" unicode="9" horiz-adv-x="616" 
d="M52 462q0 108 69.5 173t172.5 65q116 0 193 -84.5t77 -232.5q0 -175 -109.5 -282t-304.5 -107l-3 92q138 1 222.5 67.5t93.5 201.5q-23 -56 -77 -87t-117 -31q-92 0 -154.5 61.5t-62.5 163.5zM295 607q-65 0 -103 -39.5t-38 -101.5q0 -67 41.5 -103t100.5 -36t102.5 37
t43.5 101q0 62 -41 102t-106 40z" />
    <glyph glyph-name="colon" unicode=":" horiz-adv-x="265" 
d="M133 520q31 0 50.5 -20t19.5 -48q0 -29 -19.5 -49t-50.5 -20q-32 0 -51.5 20t-19.5 49q0 28 20 48t51 20zM133 131q31 0 50.5 -20t19.5 -48q0 -29 -19.5 -49t-50.5 -20q-32 0 -51.5 20t-19.5 49t20 48.5t51 19.5z" />
    <glyph glyph-name="semicolon" unicode=";" horiz-adv-x="295" 
d="M163 520q31 0 50.5 -20t19.5 -48q0 -29 -19.5 -49t-50.5 -20q-32 0 -51.5 20t-19.5 49q0 28 20 48t51 20zM22 -139l100 280l98 -38l-118 -273z" />
    <glyph glyph-name="less" unicode="&#x3c;" 
d="M483 487l-277 -160l277 -161l-42 -72l-323 187v91l323 187z" />
    <glyph glyph-name="equal" unicode="=" 
d="M504 435v-84h-408v84h408zM504 274v-84h-408v84h408z" />
    <glyph glyph-name="greater" unicode="&#x3e;" 
d="M118 487l42 72l323 -187v-91l-323 -187l-42 72l277 161z" />
    <glyph glyph-name="question" unicode="?" horiz-adv-x="534" 
d="M283 321v-109h-100v177q106 0 157 29.5t51 95.5q0 52 -34 80t-84 28q-47 0 -88.5 -23t-66.5 -66l-66 51q36 65 97 98.5t131 33.5q88 0 150.5 -52.5t62.5 -143.5q0 -81 -58 -136t-152 -63zM233 131q31 0 50.5 -20t19.5 -48q0 -29 -19.5 -49t-50.5 -20q-32 0 -51.5 20
t-19.5 49t20 48.5t51 19.5z" />
    <glyph glyph-name="at" unicode="@" horiz-adv-x="897" 
d="M494 711q96 0 175.5 -35.5t132.5 -114t53 -188.5q0 -116 -54.5 -196t-138.5 -80q-46 0 -77.5 25t-42.5 68q-47 -89 -151 -89q-76 0 -119 52.5t-43 128.5q0 92 59.5 164t156.5 72q95 0 118 -76l14 67h88l-46 -200q-11 -51 -11 -75q0 -73 59 -73q55 0 85.5 61t30.5 140
q0 133 -86 208t-210 75q-84 0 -154 -32.5t-115 -85t-69.5 -117t-24.5 -131.5q0 -122 78.5 -206t223.5 -84q67 0 127 27l21 -62q-73 -34 -161 -34t-158.5 29t-114 78t-66 110.5t-22.5 130.5q0 81 30 159t84 142t139.5 103t188.5 39zM409 177q57 0 92.5 50t35.5 113
q0 45 -22 75t-66 30q-58 0 -95.5 -48t-37.5 -110q0 -47 24 -78.5t69 -31.5z" />
    <glyph glyph-name="A" unicode="A" horiz-adv-x="695" 
d="M564 0l-68 175h-298l-67 -175h-109l277 700h97l277 -700h-109zM234 270h227l-114 296z" />
    <glyph glyph-name="B" unicode="B" horiz-adv-x="609" 
d="M408 373q73 -14 111 -61t38 -106q0 -81 -62.5 -143.5t-167.5 -62.5h-245v700h252q92 0 143 -51t51 -120q0 -54 -31.5 -97.5t-88.5 -58.5zM183 607v-204h125q55 0 86 32t31 74q0 40 -29.5 69t-82.5 29h-130zM330 93q59 0 92 34t33 79q0 46 -33.5 80.5t-93.5 34.5h-145
v-228h147z" />
    <glyph glyph-name="C" unicode="C" horiz-adv-x="750" 
d="M409 82q75 0 134 39t88 110l87 -37q-44 -102 -127 -156t-194 -54q-156 0 -250.5 102.5t-94.5 258.5q0 164 103 267.5t258 103.5q91 0 165 -38.5t119 -111.5l-83 -57q-33 53 -87 81.5t-119 28.5q-109 0 -181 -73t-72 -195t73 -195.5t181 -73.5z" />
    <glyph glyph-name="D" unicode="D" horiz-adv-x="721" 
d="M82 0v700h229q86 0 156 -29t113 -78t66 -110t23 -127q0 -68 -23.5 -130.5t-68 -113.5t-116 -81.5t-159.5 -30.5h-220zM310 604h-127v-508h126q121 0 189 75.5t68 179.5q0 103 -68 178t-188 75z" />
    <glyph glyph-name="E" unicode="E" horiz-adv-x="589" 
d="M518 604h-335v-204h283v-96h-283v-208h344v-96h-445v700h436v-96z" />
    <glyph glyph-name="F" unicode="F" horiz-adv-x="569" 
d="M466 299h-283v-299h-101v700h436v-96h-335v-209h283v-96z" />
    <glyph glyph-name="G" unicode="G" horiz-adv-x="753" 
d="M390 279v94h289v-286q-113 -103 -281 -103q-157 0 -251.5 102.5t-94.5 258.5q0 164 103 267.5t258 103.5q189 0 283 -150l-82 -57q-33 53 -87 81.5t-119 28.5q-109 0 -181 -73.5t-72 -196.5q0 -127 74 -199t181 -72q104 0 168 47v154h-188z" />
    <glyph glyph-name="H" unicode="H" horiz-adv-x="719" 
d="M82 0v700h101v-300h353v300h101v-700h-101v304h-353v-304h-101z" />
    <glyph glyph-name="I" unicode="I" horiz-adv-x="265" 
d="M82 0v700h101v-700h-101z" />
    <glyph glyph-name="J" unicode="J" horiz-adv-x="509" 
d="M227 -16q-78 0 -138 47.5t-67 129.5l98 19q4 -48 35.5 -74t74.5 -26q44 0 74.5 29.5t30.5 84.5v506h102v-494q0 -108 -61.5 -165t-148.5 -57z" />
    <glyph glyph-name="K" unicode="K" horiz-adv-x="673" 
d="M657 0h-145l-329 330v-330h-101v700h101v-315l309 315h142l-341 -338z" />
    <glyph glyph-name="L" unicode="L" horiz-adv-x="526" 
d="M183 96h311v-96h-412v700h101v-604z" />
    <glyph glyph-name="M" unicode="M" horiz-adv-x="862" 
d="M658 700h122v-700h-101v519l-200 -368h-96l-200 368v-519h-101v700h122l227 -437z" />
    <glyph glyph-name="N" unicode="N" horiz-adv-x="748" 
d="M564 700h102v-700h-110l-373 530v-530h-101v700h110l372 -539v539z" />
    <glyph glyph-name="O" unicode="O" horiz-adv-x="826" 
d="M413 716q155 0 258 -104.5t103 -261.5t-103 -261.5t-258 -104.5t-258 104.5t-103 261.5t103 261.5t258 104.5zM413 81q112 0 185 76.5t73 192.5t-73 192.5t-185 76.5t-185 -76.5t-73 -192.5t73 -192.5t185 -76.5z" />
    <glyph glyph-name="P" unicode="P" horiz-adv-x="575" 
d="M320 700q103 0 158.5 -59t55.5 -142q0 -86 -61.5 -150.5t-165.5 -64.5h-124v-284h-101v700h238zM183 377h123q59 0 92 36t33 84q0 45 -30.5 77.5t-85.5 32.5h-132v-230z" />
    <glyph glyph-name="Q" unicode="Q" horiz-adv-x="829" 
d="M587 24q41 -79 160 -116l-47 -96q-71 23 -125 70t-82 109q-40 -8 -78 -8q-156 0 -259.5 104.5t-103.5 262.5t103.5 263t259.5 105q155 0 258.5 -105t103.5 -263q0 -108 -51 -194t-139 -132zM156 350q0 -116 73.5 -193t185.5 -77t185.5 77t73.5 193q0 117 -73.5 193.5
t-185.5 76.5t-185.5 -76.5t-73.5 -193.5z" />
    <glyph glyph-name="R" unicode="R" horiz-adv-x="616" 
d="M396 322l193 -322h-119l-176 298h-111v-298h-101v700h241q105 0 161 -56.5t56 -137.5q0 -62 -38 -112.5t-106 -71.5zM183 607v-219h131q57 0 90.5 32.5t33.5 78.5q0 45 -33 76.5t-90 31.5h-132z" />
    <glyph glyph-name="S" unicode="S" horiz-adv-x="567" 
d="M525 194q0 -97 -68.5 -153.5t-167.5 -56.5q-68 0 -133.5 29t-113.5 85l72 75q34 -44 83.5 -67.5t99.5 -23.5q56 0 90.5 28t34.5 72q0 32 -24.5 56t-46 33t-75.5 27q-3 1 -5 2t-4.5 1.5t-4.5 1.5q-36 12 -59 20.5t-54 26t-48.5 37t-30.5 51t-13 69.5q0 97 68 153t164 56
q132 0 213 -96l-67 -71q-26 33 -67.5 52t-83.5 19q-52 0 -88 -26.5t-36 -74.5q0 -22 8.5 -39.5t21 -29.5t34 -23t39.5 -17.5t46 -15.5q102 -32 139 -56q77 -50 77 -144z" />
    <glyph glyph-name="T" unicode="T" horiz-adv-x="611" 
d="M356 604v-604h-101v604h-233v96h567v-96h-233z" />
    <glyph glyph-name="U" unicode="U" horiz-adv-x="684" 
d="M511 700h101v-454q0 -119 -71.5 -190.5t-198.5 -71.5t-198.5 71.5t-71.5 190.5v454h101v-449q0 -79 45.5 -124.5t123.5 -45.5t123.5 45.5t45.5 124.5v449z" />
    <glyph glyph-name="V" unicode="V" horiz-adv-x="685" 
d="M553 700h110l-273 -700h-96l-272 700h110l211 -557z" />
    <glyph glyph-name="W" unicode="W" horiz-adv-x="1008" 
d="M883 700h109l-226 -700h-96l-166 518l-166 -518h-97l-225 700h108l166 -537l165 537h98l165 -537z" />
    <glyph glyph-name="X" unicode="X" horiz-adv-x="688" 
d="M666 0h-125l-197 279l-197 -279h-125l263 363l-243 337h122l180 -254l179 254h122l-242 -337z" />
    <glyph glyph-name="Y" unicode="Y" horiz-adv-x="646" 
d="M634 700l-260 -401v-299h-102v299l-260 401h123l188 -310l188 310h123z" />
    <glyph glyph-name="Z" unicode="Z" horiz-adv-x="634" 
d="M592 96v-96h-550v92l407 512h-392v96h521v-92l-406 -512h420z" />
    <glyph glyph-name="bracketleft" unicode="[" horiz-adv-x="301" 
d="M271 -162h-201v956h201v-89h-105v-778h105v-89z" />
    <glyph glyph-name="backslash" unicode="\" horiz-adv-x="367" 
d="M274 -16l-274 697l93 35l275 -696z" />
    <glyph glyph-name="bracketright" unicode="]" horiz-adv-x="311" 
d="M34 -162v89h105v778h-105v89h201v-956h-201z" />
    <glyph glyph-name="asciicircum" unicode="^" horiz-adv-x="535" 
d="M268 707l235 -234l-60 -67l-175 177l-176 -177l-60 67z" />
    <glyph glyph-name="underscore" unicode="_" horiz-adv-x="469" 
d="M38 -16h393v-88h-393v88z" />
    <glyph glyph-name="grave" unicode="`" horiz-adv-x="290" 
d="M25 765l265 -86l-25 -79l-265 77z" />
    <glyph glyph-name="a" unicode="a" horiz-adv-x="699" 
d="M660 96l22 -73q-46 -29 -94 -29q-46 0 -78.5 27t-38.5 76q-55 -103 -189 -103q-111 0 -175.5 74.5t-64.5 183.5t64 185.5t176 76.5q130 0 180 -96v84h96v-360q0 -29 15.5 -44t38.5 -15q24 0 48 13zM299 82q71 0 116 48t45 124q0 77 -45 124.5t-118 47.5
q-74 0 -115.5 -49.5t-41.5 -122.5q0 -76 44 -124t115 -48z" />
    <glyph glyph-name="b" unicode="b" horiz-adv-x="629" 
d="M347 514q112 0 176 -76t64 -185t-64 -184t-176 -75q-61 0 -108.5 25t-72.5 68v-87h-94v700h98v-279q50 93 177 93zM332 82q70 0 113.5 48t43.5 124q0 73 -41.5 122.5t-115.5 49.5q-72 0 -117 -48t-45 -124t45 -124t117 -48z" />
    <glyph glyph-name="c" unicode="c" horiz-adv-x="529" 
d="M508 116q-81 -122 -217 -122q-117 0 -183 74t-66 183q0 110 69 186.5t184 76.5q127 0 199 -98l-70 -59q-46 68 -128 68q-75 0 -115.5 -48t-40.5 -120q0 -73 43 -123.5t116 -50.5q44 0 81.5 22t60.5 60z" />
    <glyph glyph-name="d" unicode="d" horiz-adv-x="630" 
d="M282 514q61 0 107.5 -24t69.5 -67v277h99v-700h-95v87q-51 -93 -181 -93q-112 0 -176 75t-64 184t64 185t176 76zM298 82q72 0 117 48t45 124t-45 124t-118 48q-74 0 -115.5 -49.5t-41.5 -122.5q0 -76 43.5 -124t114.5 -48z" />
    <glyph glyph-name="e" unicode="e" horiz-adv-x="555" 
d="M513 270v-49h-371q5 -58 48 -99t112 -41q95 0 144 74l55 -59q-82 -102 -208 -102q-116 0 -183.5 74t-67.5 182q0 111 68.5 187.5t183.5 76.5q104 0 161.5 -64.5t57.5 -179.5zM140 296h275q0 64 -32 99.5t-94 35.5q-63 0 -101.5 -37.5t-47.5 -97.5z" />
    <glyph glyph-name="f" unicode="f" horiz-adv-x="390" 
d="M208 554v-52h135v-88h-135v-414h-98v414h-98v88h98v52q0 80 47.5 125.5t124.5 45.5q75 0 126 -45l-43 -74q-31 30 -76 30q-38 0 -59.5 -21.5t-21.5 -60.5z" />
    <glyph glyph-name="g" unicode="g" horiz-adv-x="627" 
d="M470 502h96v-484q0 -115 -73 -184t-188 -69q-93 0 -163 45.5t-97 123.5l88 41q19 -57 66 -89t109 -32q73 0 116 41t43 112v93q-50 -90 -178 -90q-109 0 -176.5 69.5t-67.5 181.5q0 107 65.5 180t178.5 73q134 0 181 -87v75zM305 97q73 0 118 45.5t45 120.5t-45 119.5
t-119 44.5q-71 0 -115.5 -45t-44.5 -119q0 -72 43 -119t118 -47z" />
    <glyph glyph-name="h" unicode="h" horiz-adv-x="593" 
d="M338 514q80 0 131.5 -50.5t51.5 -138.5v-325h-98v306q0 56 -31.5 88t-80.5 32q-56 0 -98.5 -42.5t-42.5 -118.5v-265h-98v700h98v-278q24 43 68.5 67.5t99.5 24.5z" />
    <glyph glyph-name="i" unicode="i" horiz-adv-x="260" 
d="M130 733q29 0 49.5 -20t20.5 -49q0 -28 -20.5 -47.5t-49.5 -19.5q-30 0 -50 19.5t-20 47.5q0 29 20 49t50 20zM81 0v502h99v-502h-99z" />
    <glyph glyph-name="j" unicode="j" horiz-adv-x="268" 
d="M136 733q29 0 49.5 -20t20.5 -49q0 -28 -20.5 -47.5t-49.5 -19.5q-30 0 -50 19.5t-20 47.5q0 29 20 49t50 20zM87 -70v572h98v-571q0 -74 -42 -120t-111 -46q-51 0 -100 28l32 78q26 -17 55 -17q30 0 49 19.5t19 56.5z" />
    <glyph glyph-name="k" unicode="k" horiz-adv-x="557" 
d="M550 0h-142l-238 230v-230h-98v700h98v-407l214 209h135l-249 -235z" />
    <glyph glyph-name="l" unicode="l" horiz-adv-x="341" 
d="M324 24q-52 -30 -105 -30q-63 0 -105 42t-42 116v548h98v-537q0 -38 20 -59t50 -21q32 0 59 17z" />
    <glyph glyph-name="m" unicode="m" horiz-adv-x="886" 
d="M643 514q79 0 125.5 -49.5t46.5 -139.5v-325h-98v306q0 56 -27 88t-73 32q-53 0 -89 -42t-36 -119v-265h-98v306q0 57 -26.5 88.5t-73.5 31.5q-53 0 -88.5 -42t-35.5 -119v-265h-98v502h96v-83q50 95 153 95q122 0 158 -107q48 107 164 107z" />
    <glyph glyph-name="n" unicode="n" horiz-adv-x="593" 
d="M338 514q80 0 131.5 -50.5t51.5 -138.5v-325h-98v306q0 56 -31.5 88t-80.5 32q-56 0 -98.5 -42.5t-42.5 -118.5v-265h-98v502h96v-83q23 44 68.5 69.5t101.5 25.5z" />
    <glyph glyph-name="o" unicode="o" horiz-adv-x="594" 
d="M297 514q111 0 183 -73.5t72 -186.5q0 -112 -72 -186t-183 -74t-183 74t-72 186q0 113 72 186.5t183 73.5zM297 425q-70 0 -113.5 -48t-43.5 -123t43.5 -123t113.5 -48t113.5 48t43.5 123t-43.5 123t-113.5 48z" />
    <glyph glyph-name="p" unicode="p" horiz-adv-x="629" 
d="M347 514q112 0 176 -75.5t64 -182.5q0 -106 -64 -181t-176 -75q-121 0 -177 88v-309h-98v723h96v-81q24 44 70.5 68.5t108.5 24.5zM332 88q70 0 113.5 47.5t43.5 121.5q0 71 -41.5 120t-115.5 49q-72 0 -117 -47.5t-45 -121.5t45 -121.5t117 -47.5z" />
    <glyph glyph-name="q" unicode="q" horiz-adv-x="629" 
d="M557 502v-723h-98v309q-54 -88 -177 -88q-112 0 -176 75t-64 181q0 107 64 182.5t176 75.5q131 0 179 -97v85h96zM298 88q72 0 117 47.5t45 121.5t-45.5 121.5t-117.5 47.5q-73 0 -115 -49t-42 -120q0 -74 43.5 -121.5t114.5 -47.5z" />
    <glyph glyph-name="r" unicode="r" horiz-adv-x="397" 
d="M382 496l-17 -92q-35 15 -70 15q-54 0 -89.5 -37t-35.5 -107v-275h-98v502h96v-82q17 44 54.5 66.5t85.5 22.5q38 0 74 -13z" />
    <glyph glyph-name="s" unicode="s" horiz-adv-x="495" 
d="M458 153q0 -74 -57.5 -116.5t-139.5 -42.5q-65 0 -125 27t-99 76l62 67q28 -40 75 -61.5t94 -21.5q41 0 66.5 15t25.5 45q0 29 -25 42.5t-81 24.5q-35 7 -53.5 11.5t-49 16.5t-46.5 26.5t-29 39.5t-13 58q0 73 53.5 113.5t131.5 40.5q113 0 181 -71l-53 -65
q-48 51 -131 51q-37 0 -61 -16t-24 -47q0 -23 16.5 -37.5t38 -20.5t63.5 -14q23 -5 32 -7t30.5 -7.5t31.5 -10t26.5 -12.5t25 -17.5t17.5 -22t13 -29t4 -35.5z" />
    <glyph glyph-name="t" unicode="t" horiz-adv-x="436" 
d="M414 41q-62 -47 -134 -47q-69 0 -116 43t-47 122v255h-105v88h105v134h99v-134h154v-88h-154v-244q0 -42 24.5 -64.5t62.5 -22.5q44 0 83 28z" />
    <glyph glyph-name="u" unicode="u" horiz-adv-x="578" 
d="M243 -6q-80 0 -130.5 50t-50.5 139v319h98v-300q0 -56 30.5 -88t79.5 -32q56 0 97 42.5t41 119.5v258h98v-502h-96v89q-24 -44 -68 -69.5t-99 -25.5z" />
    <glyph glyph-name="v" unicode="v" horiz-adv-x="540" 
d="M412 502h107l-205 -502h-87l-205 502h107l142 -371z" />
    <glyph glyph-name="w" unicode="w" horiz-adv-x="858" 
d="M726 502h110l-186 -502h-92l-129 360l-130 -360h-91l-186 502h105l127 -370l127 370h96l127 -369z" />
    <glyph glyph-name="x" unicode="x" horiz-adv-x="542" 
d="M530 0h-123l-135 181l-137 -181h-123l200 257l-190 245h122l128 -170l126 170h122l-190 -245z" />
    <glyph glyph-name="y" unicode="y" horiz-adv-x="594" 
d="M424 502h99v-484q0 -116 -67 -184t-179 -68q-92 0 -157.5 46.5t-87.5 126.5l91 34q35 -118 156 -118q69 0 107 39.5t38 112.5v96q-22 -45 -66 -70.5t-101 -25.5q-81 0 -137 50t-56 141v304h98v-281q0 -58 32.5 -91.5t86.5 -33.5q62 0 102.5 44.5t40.5 117.5v244z" />
    <glyph glyph-name="z" unicode="z" horiz-adv-x="521" 
d="M171 88h309v-88h-438v84l290 330h-283v88h415v-84z" />
    <glyph glyph-name="braceleft" unicode="{" horiz-adv-x="376" 
d="M229 7q0 -83 87 -86l-7 -65q-83 0 -129.5 36t-46.5 104v190q0 48 -25.5 69.5t-77.5 21.5v81q52 0 77.5 21.5t25.5 69.5v190q0 68 46.5 104t129.5 36l7 -65q-87 -3 -87 -86v-190q0 -106 -112 -120q112 -15 112 -121v-190z" />
    <glyph glyph-name="bar" unicode="|" horiz-adv-x="263" 
d="M181 752v-894h-99v894h99z" />
    <glyph glyph-name="braceright" unicode="}" horiz-adv-x="376" 
d="M151 7v190q0 106 112 121q-112 14 -112 120v190q0 83 -87 86l7 65q83 0 129.5 -36t46.5 -104v-190q0 -48 25.5 -69.5t77.5 -21.5v-81q-52 0 -77.5 -21.5t-25.5 -69.5v-190q0 -68 -46.5 -104t-129.5 -36l-7 65q87 3 87 86z" />
    <glyph glyph-name="asciitilde" unicode="~" 
d="M512 413l71 -41q-60 -137 -174 -137q-52 0 -122 43q-2 1 -9.5 6t-9.5 6t-9 5.5t-9.5 5.5t-9 4.5t-10 4.5t-9 3t-10 3t-9.5 1.5t-10 0.5q-59 0 -104 -83l-71 42q60 136 175 136q55 0 128 -46q57 -36 88 -36q59 0 104 82z" />
    <glyph glyph-name="exclamdown" unicode="&#xa1;" horiz-adv-x="345" 
d="M173 481q-31 0 -51 19.5t-20 48.5t19.5 49t51.5 20q31 0 50.5 -20t19.5 -49q0 -28 -19.5 -48t-50.5 -20zM211 400l17 -504h-110l16 504h77z" />
    <glyph glyph-name="cent" unicode="&#xa2;" horiz-adv-x="529" 
d="M508 116q-76 -114 -198 -121v-106h-51v107q-103 10 -160 82t-57 173t59 175t158 86v109h51v-107q116 -6 184 -98l-70 -59q-41 62 -114 68v-342q87 6 131 82zM140 257q0 -62 31.5 -109t87.5 -60v333q-57 -12 -88 -57t-31 -107z" />
    <glyph glyph-name="sterling" unicode="&#xa3;" horiz-adv-x="693" 
d="M586 163l75 -42q-28 -61 -72.5 -94.5t-98.5 -33.5q-80 0 -185 93q-46 -92 -137 -92q-57 0 -91.5 35t-34.5 87q0 55 36 93.5t89 38.5q55 0 99 -34q4 45 4 88v83h-119v60h119v81q0 81 48 127.5t127 46.5q77 0 129 -46l-45 -74q-31 30 -77 30q-40 0 -61.5 -23.5t-21.5 -64.5
v-77h158v-60h-158v-95q0 -76 -22 -131q84 -70 140 -70q62 0 99 74zM174 66q29 0 48.5 19.5t27.5 52.5q-31 36 -75 36q-27 0 -42.5 -15t-15.5 -39q0 -23 15.5 -38.5t41.5 -15.5z" />
    <glyph glyph-name="currency" unicode="&#xa4;" horiz-adv-x="700" 
d="M592 287q0 -83 -46 -144l112 -112l-55 -55l-112 112q-62 -44 -141 -44q-78 0 -142 44l-111 -112l-55 55l112 112q-46 61 -46 144q0 80 44 142l-110 111l53 58l112 -114q62 45 143 45q78 0 142 -45l114 114l52 -58l-111 -111q45 -64 45 -142zM350 137q63 0 106 43t43 107
q0 63 -43 106t-106 43t-106 -43t-43 -106q0 -64 42.5 -107t106.5 -43z" />
    <glyph glyph-name="yen" unicode="&#xa5;" horiz-adv-x="515" 
d="M308 398v-82h178v-55h-178v-109h178v-55h-178v-97h-101v97h-177v55h177v109h-177v55h177v82l-195 302h117l128 -211l129 211h117z" />
    <glyph glyph-name="brokenbar" unicode="&#xa6;" horiz-adv-x="263" 
d="M181 752v-385h-99v385h99zM181 242v-384h-99v384h99z" />
    <glyph glyph-name="section" unicode="&#xa7;" horiz-adv-x="512" 
d="M469 345q0 -66 -64 -98q65 -36 65 -100q0 -71 -59 -112t-143 -41q-63 0 -124 25t-102 72l60 67q28 -36 78 -56.5t99 -20.5q40 0 66.5 15.5t26.5 42.5q0 15 -8.5 26t-27 18.5t-32.5 11.5t-42 10q-6 1 -9 2q-31 6 -52 11.5t-48 17t-43.5 25.5t-28 37t-11.5 52q0 59 56 95
q-57 33 -57 101q0 73 55 113.5t133 40.5q112 0 184 -71l-57 -65q-49 50 -126 50q-40 0 -66 -15.5t-26 -46.5q0 -14 7.5 -25.5t17 -18.5t28.5 -13.5t32.5 -10t39.5 -8.5q36 -7 51 -11t45 -14.5t44 -23t26 -33.5t12 -49zM328 273q43 18 43 58q0 30 -24.5 44t-76.5 27
q-48 12 -67 17q-36 -18 -36 -56q0 -33 26.5 -48.5t80.5 -28.5q7 -2 24 -6t30 -7z" />
    <glyph glyph-name="dieresis" unicode="&#xa8;" horiz-adv-x="341" 
d="M66 729q28 0 47.5 -18.5t19.5 -45.5t-19.5 -45.5t-47.5 -18.5t-47 18.5t-19 45.5t19 45.5t47 18.5zM275 729q28 0 47 -18.5t19 -45.5t-19 -45.5t-47 -18.5t-47.5 18.5t-19.5 45.5t19.5 45.5t47.5 18.5z" />
    <glyph glyph-name="copyright" unicode="&#xa9;" horiz-adv-x="828" 
d="M414 716q157 0 259.5 -104t102.5 -262t-102.5 -262t-259.5 -104t-259.5 104t-102.5 262t102.5 262t259.5 104zM414 36q131 0 217.5 88.5t86.5 225.5t-86.5 225.5t-217.5 88.5t-218 -88.5t-87 -225.5t87 -225.5t218 -88.5zM587 252q-62 -99 -173 -99q-89 0 -143 56
t-54 146t56.5 148.5t143.5 58.5q103 0 159 -80l-61 -53q-35 55 -97 55q-53 0 -84.5 -34t-31.5 -91t33 -92.5t85 -35.5q73 0 107 65z" />
    <glyph glyph-name="ordfeminine" unicode="&#xaa;" horiz-adv-x="585" 
d="M524 391l19 -61q-35 -27 -79 -27q-72 0 -91 68q-40 -68 -137 -68q-85 0 -139.5 57t-54.5 146q0 85 53 145t141 60q83 0 127 -55v46h85v-278q0 -20 10.5 -31.5t27.5 -11.5q19 0 38 10zM244 381q52 0 84.5 34.5t32.5 90.5q0 57 -32.5 91.5t-85.5 34.5q-52 0 -83.5 -34.5
t-31.5 -91.5q0 -56 32 -90.5t84 -34.5z" />
    <glyph glyph-name="guillemotleft" unicode="&#xab;" horiz-adv-x="576" 
d="M131 278l148 -174l-63 -54l-194 228l194 227l63 -54zM386 278l148 -174l-63 -54l-194 228l194 227l63 -54z" />
    <glyph glyph-name="logicalnot" unicode="&#xac;" 
d="M125 268v88h350v-256h-91v168h-259z" />
    <glyph glyph-name="registered" unicode="&#xae;" horiz-adv-x="828" 
d="M414 716q157 0 259.5 -104t102.5 -262t-102.5 -262t-259.5 -104t-259.5 104t-102.5 262t102.5 262t259.5 104zM414 36q131 0 217.5 88.5t86.5 225.5t-86.5 225.5t-217.5 88.5t-218 -88.5t-87 -225.5t87 -225.5t218 -88.5zM503 172l-77 127h-79v-127h-75v386h171
q62 0 101.5 -35t39.5 -90q0 -39 -22 -70t-58 -47l88 -144h-89zM347 485v-122h92q30 0 49 17.5t19 43.5t-19 43.5t-50 17.5h-91z" />
    <glyph glyph-name="macron" unicode="&#xaf;" horiz-adv-x="310" 
d="M0 680h310v-80h-310v80z" />
    <glyph glyph-name="degree" unicode="&#xb0;" horiz-adv-x="446" 
d="M223 712q79 0 132 -53t53 -130t-53 -130.5t-132 -53.5t-132 53.5t-53 130.5t53 130t132 53zM223 421q45 0 75 31t30 77t-30 77t-75 31t-75 -31t-30 -77t30 -77t75 -31z" />
    <glyph glyph-name="plusminus" unicode="&#xb1;" 
d="M504 516v-87h-160v-169h-89v169h-159v87h159v170h89v-170h160zM504 180v-87h-408v87h408z" />
    <glyph glyph-name="uni00B2" unicode="&#xb2;" horiz-adv-x="340" 
d="M130 347h191v-71h-294v64l131 117q23 22 33.5 32.5t24 33.5t13.5 44q0 27 -18 44.5t-46 17.5q-35 0 -56 -25t-21 -64l-71 6q0 67 43 110.5t108 43.5q59 0 98 -37t39 -93q0 -27 -9 -51.5t-26.5 -45t-27 -29.5t-26.5 -23z" />
    <glyph glyph-name="uni00B3" unicode="&#xb3;" horiz-adv-x="340" 
d="M237 495q81 -26 81 -102q0 -54 -41 -89t-103 -35q-50 0 -91 26t-60 71l65 33q27 -61 90 -61q29 0 47 14.5t18 39.5q0 63 -100 63h-29v64q54 0 83 16.5t29 46.5q0 22 -15.5 35t-41.5 13q-56 0 -82 -52l-56 37q19 39 57.5 62t85.5 23q55 0 91.5 -30t36.5 -76
q0 -31 -17.5 -57.5t-47.5 -41.5z" />
    <glyph glyph-name="acute" unicode="&#xb4;" horiz-adv-x="290" 
d="M0 679l264 86l26 -88l-265 -77z" />
    <glyph glyph-name="paragraph" unicode="&#xb6;" horiz-adv-x="611" 
d="M458 610h-69v-710h-71v404h-56q-98 0 -159 60.5t-61 144.5q0 80 56 135.5t152 55.5h279v-800h-71v710zM263 394h55v215h-62q-53 0 -83 -29.5t-30 -73.5q0 -46 32 -79t88 -33z" />
    <glyph glyph-name="periodcentered" unicode="&#xb7;" horiz-adv-x="239" 
d="M119 424q33 0 56.5 -24t23.5 -56t-23.5 -56t-56.5 -24q-32 0 -55.5 24t-23.5 56t23.5 56t55.5 24z" />
    <glyph glyph-name="cedilla" unicode="&#xb8;" horiz-adv-x="278" 
d="M161 1l-15 -59q132 -13 132 -106q0 -48 -37.5 -81.5t-100.5 -33.5q-84 0 -140 58l42 50q46 -44 97 -44q30 0 50.5 15t20.5 42q0 48 -127 59l28 100h50z" />
    <glyph glyph-name="uni00B9" unicode="&#xb9;" horiz-adv-x="340" 
d="M163 276v347h-60v71h135v-418h-75z" />
    <glyph glyph-name="ordmasculine" unicode="&#xba;" horiz-adv-x="487" 
d="M243 716q88 0 145 -58.5t57 -147.5t-57 -147t-145 -58q-87 0 -144 58t-57 147t56.5 147.5t144.5 58.5zM243 637q-52 0 -83.5 -35t-31.5 -92q0 -56 31.5 -91t83.5 -35t84 35t32 91q0 57 -32 92t-84 35z" />
    <glyph glyph-name="guillemotright" unicode="&#xbb;" horiz-adv-x="576" 
d="M190 278l-148 173l63 54l194 -227l-194 -228l-63 54zM445 278l-148 173l63 54l194 -227l-194 -228l-63 54z" />
    <glyph glyph-name="onequarter" unicode="&#xbc;" horiz-adv-x="946" 
d="M237 -16l-60 43l476 689l61 -43zM142 275v347h-60v71h135v-418h-75zM791 170h73v-70h-73v-100h-75v100h-186v63l187 255h74v-248zM607 170h109v149z" />
    <glyph glyph-name="onehalf" unicode="&#xbd;" horiz-adv-x="977" 
d="M237 -16l-60 43l476 689l61 -43zM142 275v347h-60v71h135v-418h-75zM704 71h191v-71h-294v64l131 117q23 22 33.5 32.5t24 33.5t13.5 44q0 27 -18 44.5t-46 17.5q-35 0 -56 -25t-21 -64l-71 6q0 67 43 110.5t108 43.5q59 0 98 -37t39 -93q0 -27 -9 -51.5t-26.5 -45
t-27 -29.5t-26.5 -23z" />
    <glyph glyph-name="threequarters" unicode="&#xbe;" horiz-adv-x="1078" 
d="M370 -16l-60 43l476 689l61 -43zM296 495q81 -26 81 -102q0 -54 -41 -89t-103 -35q-50 0 -91 26t-60 71l65 33q27 -61 90 -61q29 0 47 14.5t18 39.5q0 63 -100 63h-29v64q54 0 83 16.5t29 46.5q0 22 -15.5 35t-41.5 13q-56 0 -82 -52l-56 37q19 39 57.5 62t85.5 23
q55 0 91.5 -30t36.5 -76q0 -31 -17.5 -57.5t-47.5 -41.5zM923 170h73v-70h-73v-100h-75v100h-186v63l187 255h74v-248zM739 170h109v149z" />
    <glyph glyph-name="questiondown" unicode="&#xbf;" horiz-adv-x="534" 
d="M311 463q-31 0 -50.5 20t-19.5 48q0 29 19.5 49t50.5 20q32 0 51.5 -20t19.5 -49t-20 -48.5t-51 -19.5zM261 273v109h100v-177q-106 0 -157 -29.5t-51 -95.5q0 -52 34 -80t84 -28q47 0 88.5 23t66.5 66l66 -51q-36 -65 -97 -98.5t-131 -33.5q-88 0 -150.5 52.5
t-62.5 143.5q0 81 58 136t152 63z" />
    <glyph glyph-name="Agrave" unicode="&#xc0;" horiz-adv-x="695" 
d="M165 941l265 -86l-25 -79l-265 77zM564 0l-68 175h-298l-67 -175h-109l277 700h97l277 -700h-109zM234 270h227l-114 296z" />
    <glyph glyph-name="Aacute" unicode="&#xc1;" horiz-adv-x="695" 
d="M274 855l264 86l26 -88l-265 -77zM564 0l-68 175h-298l-67 -175h-109l277 700h97l277 -700h-109zM234 270h227l-114 296z" />
    <glyph glyph-name="Acircumflex" unicode="&#xc2;" horiz-adv-x="695" 
d="M348 984l188 -144l-49 -64l-139 105l-139 -105l-49 64zM564 0l-68 175h-298l-67 -175h-109l277 700h97l277 -700h-109zM234 270h227l-114 296z" />
    <glyph glyph-name="Atilde" unicode="&#xc3;" horiz-adv-x="695" 
d="M500 924l57 -32q-50 -115 -120 -115q-31 0 -86 36q-44 28 -64 28q-12 0 -22 -5t-19 -16t-14 -19t-15 -25l-56 36q53 112 130 112q33 0 91 -38q36 -23 56 -23t33 14t29 47zM564 0l-68 175h-298l-67 -175h-109l277 700h97l277 -700h-109zM234 270h227l-114 296z" />
    <glyph glyph-name="Adieresis" unicode="&#xc4;" horiz-adv-x="695" 
d="M233 904q28 0 47.5 -18.5t19.5 -45.5t-19.5 -45.5t-47.5 -18.5t-47 18.5t-19 45.5t19 45.5t47 18.5zM462 904q28 0 47 -18.5t19 -45.5t-19 -45.5t-47 -18.5t-47.5 18.5t-19.5 45.5t19.5 45.5t47.5 18.5zM564 0l-68 175h-298l-67 -175h-109l277 700h97l277 -700h-109z
M234 270h227l-114 296z" />
    <glyph glyph-name="Aring" unicode="&#xc5;" horiz-adv-x="695" 
d="M349 758q-60 0 -99 39t-39 98t39 98.5t99 39.5t98.5 -39.5t38.5 -98.5t-38.5 -98t-98.5 -39zM349 820q32 0 52 22t20 53q0 32 -20 53.5t-52 21.5q-33 0 -53 -21.5t-20 -53.5q0 -31 20 -53t53 -22zM564 0l-68 175h-298l-67 -175h-109l277 700h97l277 -700h-109zM234 270
h227l-114 296z" />
    <glyph glyph-name="AE" unicode="&#xc6;" horiz-adv-x="997" 
d="M592 96h343v-96h-445v186h-266l-89 -186h-113l344 700h560v-96h-334v-204h282v-96h-282v-208zM268 280h222v326h-65z" />
    <glyph glyph-name="Ccedilla" unicode="&#xc7;" horiz-adv-x="750" 
d="M718 194q-43 -100 -124.5 -154t-189.5 -56l-11 -42q132 -13 132 -106q0 -48 -37.5 -81.5t-100.5 -33.5q-84 0 -140 58l42 50q46 -44 97 -44q30 0 50.5 15t20.5 42q0 48 -127 59l24 85q-138 15 -220 114.5t-82 244.5q0 164 103 267.5t258 103.5q91 0 165 -38.5t119 -111.5
l-83 -57q-33 53 -87 81.5t-119 28.5q-109 0 -181 -73t-72 -195t73 -195.5t181 -73.5q75 0 134 39t88 110z" />
    <glyph glyph-name="Egrave" unicode="&#xc8;" horiz-adv-x="589" 
d="M166 941l265 -86l-25 -79l-265 77zM518 604h-335v-204h283v-96h-283v-208h344v-96h-445v700h436v-96z" />
    <glyph glyph-name="Eacute" unicode="&#xc9;" horiz-adv-x="589" 
d="M205 855l264 86l26 -88l-265 -77zM518 604h-335v-204h283v-96h-283v-208h344v-96h-445v700h436v-96z" />
    <glyph glyph-name="Ecircumflex" unicode="&#xca;" horiz-adv-x="589" 
d="M303 984l188 -144l-49 -64l-139 105l-139 -105l-49 64zM518 604h-335v-204h283v-96h-283v-208h344v-96h-445v700h436v-96z" />
    <glyph glyph-name="Edieresis" unicode="&#xcb;" horiz-adv-x="589" 
d="M192 904q28 0 47.5 -18.5t19.5 -45.5t-19.5 -45.5t-47.5 -18.5t-47 18.5t-19 45.5t19 45.5t47 18.5zM421 904q28 0 47 -18.5t19 -45.5t-19 -45.5t-47 -18.5t-47.5 18.5t-19.5 45.5t19.5 45.5t47.5 18.5zM518 604h-335v-204h283v-96h-283v-208h344v-96h-445v700h436v-96z
" />
    <glyph glyph-name="Igrave" unicode="&#xcc;" horiz-adv-x="265" 
d="M-45 941l265 -86l-25 -79l-265 77zM82 0v700h101v-700h-101z" />
    <glyph glyph-name="Iacute" unicode="&#xcd;" horiz-adv-x="265" 
d="M48 855l264 86l26 -88l-265 -77zM82 0v700h101v-700h-101z" />
    <glyph glyph-name="Icircumflex" unicode="&#xce;" horiz-adv-x="265" 
d="M133 984l188 -144l-49 -64l-139 105l-139 -105l-49 64zM82 0v700h101v-700h-101z" />
    <glyph glyph-name="Idieresis" unicode="&#xcf;" horiz-adv-x="265" 
d="M18 904q28 0 47.5 -18.5t19.5 -45.5t-19.5 -45.5t-47.5 -18.5t-47 18.5t-19 45.5t19 45.5t47 18.5zM247 904q28 0 47 -18.5t19 -45.5t-19 -45.5t-47 -18.5t-47.5 18.5t-19.5 45.5t19.5 45.5t47.5 18.5zM82 0v700h101v-700h-101z" />
    <glyph glyph-name="Eth" unicode="&#xd0;" horiz-adv-x="721" 
d="M311 700q86 0 156 -29t113 -78t66 -110t23 -127q0 -68 -23.5 -130.5t-68 -113.5t-116 -81.5t-159.5 -30.5h-220v309h-107v82h107v309h229zM309 96q121 0 189 75.5t68 179.5q0 103 -68 178t-188 75h-127v-213h180v-82h-180v-213h126z" />
    <glyph glyph-name="Ntilde" unicode="&#xd1;" horiz-adv-x="748" 
d="M531 924l57 -32q-50 -115 -120 -115q-31 0 -86 36q-44 28 -64 28q-12 0 -22 -5t-19 -16t-14 -19t-15 -25l-56 36q53 112 130 112q33 0 91 -38q36 -23 56 -23t33 14t29 47zM564 700h102v-700h-110l-373 530v-530h-101v700h110l372 -539v539z" />
    <glyph glyph-name="Ograve" unicode="&#xd2;" horiz-adv-x="826" 
d="M260 941l265 -86l-25 -79l-265 77zM413 716q155 0 258 -104.5t103 -261.5t-103 -261.5t-258 -104.5t-258 104.5t-103 261.5t103 261.5t258 104.5zM413 81q112 0 185 76.5t73 192.5t-73 192.5t-185 76.5t-185 -76.5t-73 -192.5t73 -192.5t185 -76.5z" />
    <glyph glyph-name="Oacute" unicode="&#xd3;" horiz-adv-x="826" 
d="M339 855l264 86l26 -88l-265 -77zM413 716q155 0 258 -104.5t103 -261.5t-103 -261.5t-258 -104.5t-258 104.5t-103 261.5t103 261.5t258 104.5zM413 81q112 0 185 76.5t73 192.5t-73 192.5t-185 76.5t-185 -76.5t-73 -192.5t73 -192.5t185 -76.5z" />
    <glyph glyph-name="Ocircumflex" unicode="&#xd4;" horiz-adv-x="826" 
d="M413 984l188 -144l-49 -64l-139 105l-139 -105l-49 64zM413 716q155 0 258 -104.5t103 -261.5t-103 -261.5t-258 -104.5t-258 104.5t-103 261.5t103 261.5t258 104.5zM413 81q112 0 185 76.5t73 192.5t-73 192.5t-185 76.5t-185 -76.5t-73 -192.5t73 -192.5t185 -76.5z
" />
    <glyph glyph-name="Otilde" unicode="&#xd5;" horiz-adv-x="826" 
d="M554 924l57 -32q-50 -115 -120 -115q-31 0 -86 36q-44 28 -64 28q-12 0 -22 -5t-19 -16t-14 -19t-15 -25l-56 36q53 112 130 112q33 0 91 -38q36 -23 56 -23t33 14t29 47zM413 716q155 0 258 -104.5t103 -261.5t-103 -261.5t-258 -104.5t-258 104.5t-103 261.5t103 261.5
t258 104.5zM413 81q112 0 185 76.5t73 192.5t-73 192.5t-185 76.5t-185 -76.5t-73 -192.5t73 -192.5t185 -76.5z" />
    <glyph glyph-name="Odieresis" unicode="&#xd6;" horiz-adv-x="826" 
d="M298 904q28 0 47.5 -18.5t19.5 -45.5t-19.5 -45.5t-47.5 -18.5t-47 18.5t-19 45.5t19 45.5t47 18.5zM527 904q28 0 47 -18.5t19 -45.5t-19 -45.5t-47 -18.5t-47.5 18.5t-19.5 45.5t19.5 45.5t47.5 18.5zM413 716q155 0 258 -104.5t103 -261.5t-103 -261.5t-258 -104.5
t-258 104.5t-103 261.5t103 261.5t258 104.5zM413 81q112 0 185 76.5t73 192.5t-73 192.5t-185 76.5t-185 -76.5t-73 -192.5t73 -192.5t185 -76.5z" />
    <glyph glyph-name="multiply" unicode="&#xd7;" 
d="M180 493l120 -120l121 120l59 -60l-120 -120l120 -120l-60 -60l-120 120l-120 -120l-60 60l120 120l-120 121z" />
    <glyph glyph-name="Oslash" unicode="&#xd8;" horiz-adv-x="826" 
d="M655 627q119 -106 119 -277q0 -157 -103 -261.5t-258 -104.5q-105 0 -192 52l-83 -114l-47 35l83 113q-122 106 -122 280q0 157 103 261.5t258 104.5q109 0 195 -54l80 110l47 -35zM155 350q0 -122 79 -198l315 430q-60 37 -136 37q-112 0 -185 -76.5t-73 -192.5zM413 81
q112 0 185 76.5t73 192.5q0 120 -76 196l-315 -430q60 -35 133 -35z" />
    <glyph glyph-name="Ugrave" unicode="&#xd9;" horiz-adv-x="684" 
d="M187 941l265 -86l-25 -79l-265 77zM511 700h101v-454q0 -119 -71.5 -190.5t-198.5 -71.5t-198.5 71.5t-71.5 190.5v454h101v-449q0 -79 45.5 -124.5t123.5 -45.5t123.5 45.5t45.5 124.5v449z" />
    <glyph glyph-name="Uacute" unicode="&#xda;" horiz-adv-x="684" 
d="M248 855l264 86l26 -88l-265 -77zM511 700h101v-454q0 -119 -71.5 -190.5t-198.5 -71.5t-198.5 71.5t-71.5 190.5v454h101v-449q0 -79 45.5 -124.5t123.5 -45.5t123.5 45.5t45.5 124.5v449z" />
    <glyph glyph-name="Ucircumflex" unicode="&#xdb;" horiz-adv-x="684" 
d="M342 984l188 -144l-49 -64l-139 105l-139 -105l-49 64zM511 700h101v-454q0 -119 -71.5 -190.5t-198.5 -71.5t-198.5 71.5t-71.5 190.5v454h101v-449q0 -79 45.5 -124.5t123.5 -45.5t123.5 45.5t45.5 124.5v449z" />
    <glyph glyph-name="Udieresis" unicode="&#xdc;" horiz-adv-x="684" 
d="M228 904q28 0 47.5 -18.5t19.5 -45.5t-19.5 -45.5t-47.5 -18.5t-47 18.5t-19 45.5t19 45.5t47 18.5zM457 904q28 0 47 -18.5t19 -45.5t-19 -45.5t-47 -18.5t-47.5 18.5t-19.5 45.5t19.5 45.5t47.5 18.5zM511 700h101v-454q0 -119 -71.5 -190.5t-198.5 -71.5t-198.5 71.5
t-71.5 190.5v454h101v-449q0 -79 45.5 -124.5t123.5 -45.5t123.5 45.5t45.5 124.5v449z" />
    <glyph glyph-name="Yacute" unicode="&#xdd;" horiz-adv-x="646" 
d="M253 855l264 86l26 -88l-265 -77zM634 700l-260 -401v-299h-102v299l-260 401h123l188 -310l188 310h123z" />
    <glyph glyph-name="Thorn" unicode="&#xde;" horiz-adv-x="575" 
d="M320 600q103 0 158.5 -59t55.5 -142q0 -86 -61.5 -150.5t-165.5 -64.5h-124v-184h-101v700h101v-100h137zM306 277q59 0 92 36t33 84q0 45 -30.5 77.5t-85.5 32.5h-132v-230h123z" />
    <glyph glyph-name="germandbls" unicode="&#xdf;" horiz-adv-x="605" 
d="M402 373q78 -18 119.5 -63.5t41.5 -112.5q0 -87 -65 -142t-167 -55h-62v89h67q57 0 92.5 28.5t35.5 78.5q0 57 -44 87.5t-110 30.5h-35v80h18q63 0 101 35t38 84q0 54 -35.5 84t-90.5 30q-58 0 -97 -35.5t-39 -104.5v-487h-98v494q0 107 68.5 164.5t167.5 57.5
q94 0 157.5 -48t63.5 -133q0 -55 -33 -98.5t-94 -63.5z" />
    <glyph glyph-name="agrave" unicode="&#xe0;" horiz-adv-x="699" 
d="M157 765l265 -86l-25 -79l-265 77zM660 96l22 -73q-46 -29 -94 -29q-46 0 -78.5 27t-38.5 76q-55 -103 -189 -103q-111 0 -175.5 74.5t-64.5 183.5t64 185.5t176 76.5q130 0 180 -96v84h96v-360q0 -29 15.5 -44t38.5 -15q24 0 48 13zM299 82q71 0 116 48t45 124
q0 77 -45 124.5t-118 47.5q-74 0 -115.5 -49.5t-41.5 -122.5q0 -76 44 -124t115 -48z" />
    <glyph glyph-name="aacute" unicode="&#xe1;" horiz-adv-x="699" 
d="M225 679l264 86l26 -88l-265 -77zM660 96l22 -73q-46 -29 -94 -29q-46 0 -78.5 27t-38.5 76q-55 -103 -189 -103q-111 0 -175.5 74.5t-64.5 183.5t64 185.5t176 76.5q130 0 180 -96v84h96v-360q0 -29 15.5 -44t38.5 -15q24 0 48 13zM299 82q71 0 116 48t45 124
q0 77 -45 124.5t-118 47.5q-74 0 -115.5 -49.5t-41.5 -122.5q0 -76 44 -124t115 -48z" />
    <glyph glyph-name="acircumflex" unicode="&#xe2;" horiz-adv-x="699" 
d="M314 813l188 -144l-49 -64l-139 105l-139 -105l-49 64zM660 96l22 -73q-46 -29 -94 -29q-46 0 -78.5 27t-38.5 76q-55 -103 -189 -103q-111 0 -175.5 74.5t-64.5 183.5t64 185.5t176 76.5q130 0 180 -96v84h96v-360q0 -29 15.5 -44t38.5 -15q24 0 48 13zM299 82
q71 0 116 48t45 124q0 77 -45 124.5t-118 47.5q-74 0 -115.5 -49.5t-41.5 -122.5q0 -76 44 -124t115 -48z" />
    <glyph glyph-name="atilde" unicode="&#xe3;" horiz-adv-x="699" 
d="M466 748l57 -32q-50 -115 -120 -115q-31 0 -86 36q-44 28 -64 28q-12 0 -22 -5t-19 -16t-14 -19t-15 -25l-56 36q53 112 130 112q33 0 91 -38q36 -23 56 -23t33 14t29 47zM660 96l22 -73q-46 -29 -94 -29q-46 0 -78.5 27t-38.5 76q-55 -103 -189 -103q-111 0 -175.5 74.5
t-64.5 183.5t64 185.5t176 76.5q130 0 180 -96v84h96v-360q0 -29 15.5 -44t38.5 -15q24 0 48 13zM299 82q71 0 116 48t45 124q0 77 -45 124.5t-118 47.5q-74 0 -115.5 -49.5t-41.5 -122.5q0 -76 44 -124t115 -48z" />
    <glyph glyph-name="adieresis" unicode="&#xe4;" horiz-adv-x="699" 
d="M213 729q28 0 47.5 -18.5t19.5 -45.5t-19.5 -45.5t-47.5 -18.5t-47 18.5t-19 45.5t19 45.5t47 18.5zM422 729q28 0 47 -18.5t19 -45.5t-19 -45.5t-47 -18.5t-47.5 18.5t-19.5 45.5t19.5 45.5t47.5 18.5zM660 96l22 -73q-46 -29 -94 -29q-46 0 -78.5 27t-38.5 76
q-55 -103 -189 -103q-111 0 -175.5 74.5t-64.5 183.5t64 185.5t176 76.5q130 0 180 -96v84h96v-360q0 -29 15.5 -44t38.5 -15q24 0 48 13zM299 82q71 0 116 48t45 124q0 77 -45 124.5t-118 47.5q-74 0 -115.5 -49.5t-41.5 -122.5q0 -76 44 -124t115 -48z" />
    <glyph glyph-name="aring" unicode="&#xe5;" horiz-adv-x="699" 
d="M312 601q-62 0 -102.5 41t-40.5 102t40.5 102t102.5 41t102.5 -41t40.5 -102t-40.5 -102t-102.5 -41zM312 666q34 0 54.5 22.5t20.5 55.5t-20.5 55.5t-54.5 22.5t-54.5 -22.5t-20.5 -55.5t20.5 -55.5t54.5 -22.5zM660 96l22 -73q-46 -29 -94 -29q-46 0 -78.5 27t-38.5 76
q-55 -103 -189 -103q-111 0 -175.5 74.5t-64.5 183.5t64 185.5t176 76.5q130 0 180 -96v84h96v-360q0 -29 15.5 -44t38.5 -15q24 0 48 13zM299 82q71 0 116 48t45 124q0 77 -45 124.5t-118 47.5q-74 0 -115.5 -49.5t-41.5 -122.5q0 -76 44 -124t115 -48z" />
    <glyph glyph-name="ae" unicode="&#xe6;" horiz-adv-x="890" 
d="M848 270v-49h-371q6 -59 48 -99.5t112 -40.5q93 0 144 74l55 -59q-83 -102 -209 -102q-77 0 -131 34t-82 92q-62 -126 -198 -126q-81 0 -127.5 44t-46.5 111t48 107t140 40h150v20q0 53 -35 80t-85 27q-92 0 -142 -64l-60 60q34 46 88 70.5t116 24.5q63 0 110.5 -25.5
t66.5 -71.5q67 97 190 97q104 0 161.5 -64.5t57.5 -179.5zM475 296h275q0 64 -32 99.5t-93 35.5q-63 0 -102 -38t-48 -97zM235 82q61 0 101.5 39t43.5 106h-145q-94 0 -94 -70q0 -33 24 -54t70 -21z" />
    <glyph glyph-name="ccedilla" unicode="&#xe7;" horiz-adv-x="529" 
d="M508 116q-78 -118 -207 -122l-12 -46q132 -13 132 -106q0 -48 -37.5 -81.5t-100.5 -33.5q-84 0 -140 58l42 50q46 -44 97 -44q30 0 50.5 15t20.5 42q0 48 -127 59l25 90q-99 12 -154 83.5t-55 170.5q0 110 69 186.5t184 76.5q127 0 199 -98l-70 -59q-46 68 -128 68
q-75 0 -115.5 -48t-40.5 -120q0 -73 43 -123.5t116 -50.5q44 0 81.5 22t60.5 60z" />
    <glyph glyph-name="egrave" unicode="&#xe8;" horiz-adv-x="555" 
d="M144 765l265 -86l-25 -79l-265 77zM513 270v-49h-371q5 -58 48 -99t112 -41q95 0 144 74l55 -59q-82 -102 -208 -102q-116 0 -183.5 74t-67.5 182q0 111 68.5 187.5t183.5 76.5q104 0 161.5 -64.5t57.5 -179.5zM140 296h275q0 64 -32 99.5t-94 35.5q-63 0 -101.5 -37.5
t-47.5 -97.5z" />
    <glyph glyph-name="eacute" unicode="&#xe9;" horiz-adv-x="555" 
d="M211 679l264 86l26 -88l-265 -77zM513 270v-49h-371q5 -58 48 -99t112 -41q95 0 144 74l55 -59q-82 -102 -208 -102q-116 0 -183.5 74t-67.5 182q0 111 68.5 187.5t183.5 76.5q104 0 161.5 -64.5t57.5 -179.5zM140 296h275q0 64 -32 99.5t-94 35.5q-63 0 -101.5 -37.5
t-47.5 -97.5z" />
    <glyph glyph-name="ecircumflex" unicode="&#xea;" horiz-adv-x="555" 
d="M294 813l188 -144l-49 -64l-139 105l-139 -105l-49 64zM513 270v-49h-371q5 -58 48 -99t112 -41q95 0 144 74l55 -59q-82 -102 -208 -102q-116 0 -183.5 74t-67.5 182q0 111 68.5 187.5t183.5 76.5q104 0 161.5 -64.5t57.5 -179.5zM140 296h275q0 64 -32 99.5t-94 35.5
q-63 0 -101.5 -37.5t-47.5 -97.5z" />
    <glyph glyph-name="edieresis" unicode="&#xeb;" horiz-adv-x="555" 
d="M183 729q28 0 47.5 -18.5t19.5 -45.5t-19.5 -45.5t-47.5 -18.5t-47 18.5t-19 45.5t19 45.5t47 18.5zM392 729q28 0 47 -18.5t19 -45.5t-19 -45.5t-47 -18.5t-47.5 18.5t-19.5 45.5t19.5 45.5t47.5 18.5zM513 270v-49h-371q5 -58 48 -99t112 -41q95 0 144 74l55 -59
q-82 -102 -208 -102q-116 0 -183.5 74t-67.5 182q0 111 68.5 187.5t183.5 76.5q104 0 161.5 -64.5t57.5 -179.5zM140 296h275q0 64 -32 99.5t-94 35.5q-63 0 -101.5 -37.5t-47.5 -97.5z" />
    <glyph glyph-name="igrave" unicode="&#xec;" horiz-adv-x="260" 
d="M-60 765l265 -86l-25 -79l-265 77zM81 0v502h99v-502h-99z" />
    <glyph glyph-name="iacute" unicode="&#xed;" horiz-adv-x="260" 
d="M50 679l264 86l26 -88l-265 -77zM81 0v502h99v-502h-99z" />
    <glyph glyph-name="icircumflex" unicode="&#xee;" horiz-adv-x="260" 
d="M130 813l188 -144l-49 -64l-139 105l-139 -105l-49 64zM80 0v502h99v-502h-99z" />
    <glyph glyph-name="idieresis" unicode="&#xef;" horiz-adv-x="260" 
d="M26 729q28 0 47.5 -18.5t19.5 -45.5t-19.5 -45.5t-47.5 -18.5t-47 18.5t-19 45.5t19 45.5t47 18.5zM235 729q28 0 47 -18.5t19 -45.5t-19 -45.5t-47 -18.5t-47.5 18.5t-19.5 45.5t19.5 45.5t47.5 18.5zM80 0v502h99v-502h-99z" />
    <glyph glyph-name="eth" unicode="&#xf0;" horiz-adv-x="606" 
d="M334 670q106 -46 163 -140.5t57 -218.5q0 -148 -77 -232.5t-193 -84.5q-103 0 -172.5 65t-69.5 173q0 99 62.5 159t154.5 60q67 0 123 -32t80 -91q-2 92 -43.5 158.5t-118.5 100.5l-35 -85l-50 19l34 84q-59 14 -112 14l3 88q76 0 142 -19l34 85l54 -18zM285 87
q65 0 106 40t41 102q0 64 -43.5 101t-102.5 37t-100.5 -36t-41.5 -103q0 -62 38 -101.5t103 -39.5z" />
    <glyph glyph-name="ntilde" unicode="&#xf1;" horiz-adv-x="593" 
d="M450 748l57 -32q-50 -115 -120 -115q-31 0 -86 36q-44 28 -64 28q-12 0 -22 -5t-19 -16t-14 -19t-15 -25l-56 36q53 112 130 112q33 0 91 -38q36 -23 56 -23t33 14t29 47zM338 514q80 0 131.5 -50.5t51.5 -138.5v-325h-98v306q0 56 -31.5 88t-80.5 32q-56 0 -98.5 -42.5
t-42.5 -118.5v-265h-98v502h96v-83q23 44 68.5 69.5t101.5 25.5z" />
    <glyph glyph-name="ograve" unicode="&#xf2;" horiz-adv-x="594" 
d="M142 765l265 -86l-25 -79l-265 77zM297 514q111 0 183 -73.5t72 -186.5q0 -112 -72 -186t-183 -74t-183 74t-72 186q0 113 72 186.5t183 73.5zM297 425q-70 0 -113.5 -48t-43.5 -123t43.5 -123t113.5 -48t113.5 48t43.5 123t-43.5 123t-113.5 48z" />
    <glyph glyph-name="oacute" unicode="&#xf3;" horiz-adv-x="594" 
d="M215 679l264 86l26 -88l-265 -77zM297 514q111 0 183 -73.5t72 -186.5q0 -112 -72 -186t-183 -74t-183 74t-72 186q0 113 72 186.5t183 73.5zM297 425q-70 0 -113.5 -48t-43.5 -123t43.5 -123t113.5 -48t113.5 48t43.5 123t-43.5 123t-113.5 48z" />
    <glyph glyph-name="ocircumflex" unicode="&#xf4;" horiz-adv-x="594" 
d="M298 813l188 -144l-49 -64l-139 105l-139 -105l-49 64zM297 514q111 0 183 -73.5t72 -186.5q0 -112 -72 -186t-183 -74t-183 74t-72 186q0 113 72 186.5t183 73.5zM297 425q-70 0 -113.5 -48t-43.5 -123t43.5 -123t113.5 -48t113.5 48t43.5 123t-43.5 123t-113.5 48z" />
    <glyph glyph-name="otilde" unicode="&#xf5;" horiz-adv-x="594" 
d="M449 749l57 -32q-50 -115 -120 -115q-31 0 -86 36q-44 28 -64 28q-12 0 -22 -5t-19 -16t-14 -19t-15 -25l-56 36q53 112 130 112q33 0 91 -38q36 -23 56 -23t33 14t29 47zM297 514q111 0 183 -73.5t72 -186.5q0 -112 -72 -186t-183 -74t-183 74t-72 186q0 113 72 186.5
t183 73.5zM297 425q-70 0 -113.5 -48t-43.5 -123t43.5 -123t113.5 -48t113.5 48t43.5 123t-43.5 123t-113.5 48z" />
    <glyph glyph-name="odieresis" unicode="&#xf6;" horiz-adv-x="594" 
d="M193 729q28 0 47.5 -18.5t19.5 -45.5t-19.5 -45.5t-47.5 -18.5t-47 18.5t-19 45.5t19 45.5t47 18.5zM402 729q28 0 47 -18.5t19 -45.5t-19 -45.5t-47 -18.5t-47.5 18.5t-19.5 45.5t19.5 45.5t47.5 18.5zM297 514q111 0 183 -73.5t72 -186.5q0 -112 -72 -186t-183 -74
t-183 74t-72 186q0 113 72 186.5t183 73.5zM297 425q-70 0 -113.5 -48t-43.5 -123t43.5 -123t113.5 -48t113.5 48t43.5 123t-43.5 123t-113.5 48z" />
    <glyph glyph-name="divide" unicode="&#xf7;" 
d="M301 542q28 0 45.5 -18t17.5 -43q0 -27 -17.5 -44.5t-45.5 -17.5q-29 0 -46.5 17.5t-17.5 44.5q0 25 17.5 43t46.5 18zM504 356v-87h-408v87h408zM301 206q28 0 45.5 -18t17.5 -43q0 -27 -17.5 -44.5t-45.5 -17.5q-29 0 -46.5 17.5t-17.5 44.5q0 25 17.5 43t46.5 18z" />
    <glyph glyph-name="oslash" unicode="&#xf8;" horiz-adv-x="594" 
d="M474 447q78 -75 78 -193q0 -112 -72 -186t-183 -74q-72 0 -130 33l-68 -92l-46 35l67 92q-78 73 -78 192q0 113 72 186.5t183 73.5q73 0 131 -33l68 92l45 -35zM140 254q0 -70 37 -115l197 267q-35 19 -77 19q-70 0 -113.5 -48t-43.5 -123zM297 83q70 0 113.5 48
t43.5 123q0 70 -37 115l-196 -268q36 -18 76 -18z" />
    <glyph glyph-name="ugrave" unicode="&#xf9;" horiz-adv-x="578" 
d="M132 765l265 -86l-25 -79l-265 77zM243 -6q-80 0 -130.5 50t-50.5 139v319h98v-300q0 -56 30.5 -88t79.5 -32q56 0 97 42.5t41 119.5v258h98v-502h-96v89q-24 -44 -68 -69.5t-99 -25.5z" />
    <glyph glyph-name="uacute" unicode="&#xfa;" horiz-adv-x="578" 
d="M194 679l264 86l26 -88l-265 -77zM243 -6q-80 0 -130.5 50t-50.5 139v319h98v-300q0 -56 30.5 -88t79.5 -32q56 0 97 42.5t41 119.5v258h98v-502h-96v89q-24 -44 -68 -69.5t-99 -25.5z" />
    <glyph glyph-name="ucircumflex" unicode="&#xfb;" horiz-adv-x="578" 
d="M277 813l188 -144l-49 -64l-139 105l-139 -105l-49 64zM243 -6q-80 0 -130.5 50t-50.5 139v319h98v-300q0 -56 30.5 -88t79.5 -32q56 0 97 42.5t41 119.5v258h98v-502h-96v89q-24 -44 -68 -69.5t-99 -25.5z" />
    <glyph glyph-name="udieresis" unicode="&#xfc;" horiz-adv-x="578" 
d="M180 729q28 0 47.5 -18.5t19.5 -45.5t-19.5 -45.5t-47.5 -18.5t-47 18.5t-19 45.5t19 45.5t47 18.5zM389 729q28 0 47 -18.5t19 -45.5t-19 -45.5t-47 -18.5t-47.5 18.5t-19.5 45.5t19.5 45.5t47.5 18.5zM243 -6q-80 0 -130.5 50t-50.5 139v319h98v-300q0 -56 30.5 -88
t79.5 -32q56 0 97 42.5t41 119.5v258h98v-502h-96v89q-24 -44 -68 -69.5t-99 -25.5z" />
    <glyph glyph-name="yacute" unicode="&#xfd;" horiz-adv-x="594" 
d="M192 679l264 86l26 -88l-265 -77zM424 502h99v-484q0 -116 -67 -184t-179 -68q-92 0 -157.5 46.5t-87.5 126.5l91 34q35 -118 156 -118q69 0 107 39.5t38 112.5v96q-22 -45 -66 -70.5t-101 -25.5q-81 0 -137 50t-56 141v304h98v-281q0 -58 32.5 -91.5t86.5 -33.5
q62 0 102.5 44.5t40.5 117.5v244z" />
    <glyph glyph-name="thorn" unicode="&#xfe;" horiz-adv-x="629" 
d="M347 514q112 0 176 -75.5t64 -182.5q0 -106 -64 -181t-176 -75q-121 0 -177 88v-309h-98v921h98v-276q52 90 177 90zM332 88q70 0 113.5 47.5t43.5 121.5q0 71 -41.5 120t-115.5 49q-72 0 -117 -47.5t-45 -121.5t45 -121.5t117 -47.5z" />
    <glyph glyph-name="ydieresis" unicode="&#xff;" horiz-adv-x="594" 
d="M188 729q28 0 47.5 -18.5t19.5 -45.5t-19.5 -45.5t-47.5 -18.5t-47 18.5t-19 45.5t19 45.5t47 18.5zM397 729q28 0 47 -18.5t19 -45.5t-19 -45.5t-47 -18.5t-47.5 18.5t-19.5 45.5t19.5 45.5t47.5 18.5zM424 502h99v-484q0 -116 -67 -184t-179 -68q-92 0 -157.5 46.5
t-87.5 126.5l91 34q35 -118 156 -118q69 0 107 39.5t38 112.5v96q-22 -45 -66 -70.5t-101 -25.5q-81 0 -137 50t-56 141v304h98v-281q0 -58 32.5 -91.5t86.5 -33.5q62 0 102.5 44.5t40.5 117.5v244z" />
    <glyph glyph-name="Amacron" unicode="&#x100;" horiz-adv-x="695" 
d="M193 857h310v-80h-310v80zM564 0l-68 175h-298l-67 -175h-109l277 700h97l277 -700h-109zM234 270h227l-114 296z" />
    <glyph glyph-name="amacron" unicode="&#x101;" horiz-adv-x="699" 
d="M158 680h310v-80h-310v80zM660 96l22 -73q-46 -29 -94 -29q-46 0 -78.5 27t-38.5 76q-55 -103 -189 -103q-111 0 -175.5 74.5t-64.5 183.5t64 185.5t176 76.5q130 0 180 -96v84h96v-360q0 -29 15.5 -44t38.5 -15q24 0 48 13zM299 82q71 0 116 48t45 124q0 77 -45 124.5
t-118 47.5q-74 0 -115.5 -49.5t-41.5 -122.5q0 -76 44 -124t115 -48z" />
    <glyph glyph-name="Abreve" unicode="&#x102;" horiz-adv-x="695" 
d="M429 939h81q-1 -68 -42 -115.5t-120 -47.5q-80 0 -121 47.5t-42 115.5h82q2 -85 81 -85q78 0 81 85zM564 0l-68 175h-298l-67 -175h-109l277 700h97l277 -700h-109zM234 270h227l-114 296z" />
    <glyph glyph-name="abreve" unicode="&#x103;" horiz-adv-x="699" 
d="M389 764h81q-1 -68 -42 -115.5t-120 -47.5q-80 0 -121 47.5t-42 115.5h82q2 -85 81 -85q78 0 81 85zM660 96l22 -73q-46 -29 -94 -29q-46 0 -78.5 27t-38.5 76q-55 -103 -189 -103q-111 0 -175.5 74.5t-64.5 183.5t64 185.5t176 76.5q130 0 180 -96v84h96v-360
q0 -29 15.5 -44t38.5 -15q24 0 48 13zM299 82q71 0 116 48t45 124q0 77 -45 124.5t-118 47.5q-74 0 -115.5 -49.5t-41.5 -122.5q0 -76 44 -124t115 -48z" />
    <glyph glyph-name="Aogonek" unicode="&#x104;" horiz-adv-x="695" 
d="M550 -99q0 -34 31 -59t95 -32l-14 -89q-95 6 -147.5 50t-52.5 103q0 38 25.5 73t73.5 59l-65 169h-298l-67 -175h-109l277 700h97l277 -700h-43q-80 -33 -80 -99zM234 270h227l-114 296z" />
    <glyph glyph-name="aogonek" unicode="&#x105;" horiz-adv-x="696" 
d="M525 -99q0 -34 31 -59t95 -32l-14 -89q-95 6 -147.5 50t-52.5 103q0 38 25 72.5t72 58.5q-56 25 -63 92q-55 -103 -189 -103q-111 0 -175.5 74.5t-64.5 183.5t64 185.5t176 76.5q130 0 180 -96v84h96v-360q0 -29 15.5 -44t38.5 -15q24 0 48 13l22 -73q-44 -27 -90 -29
q-67 -34 -67 -93zM299 82q71 0 116 48t45 124q0 77 -45 124.5t-118 47.5q-74 0 -115.5 -49.5t-41.5 -122.5q0 -76 44 -124t115 -48z" />
    <glyph glyph-name="Cacute" unicode="&#x106;" horiz-adv-x="750" 
d="M359 855l264 86l26 -88l-265 -77zM409 82q75 0 134 39t88 110l87 -37q-44 -102 -127 -156t-194 -54q-156 0 -250.5 102.5t-94.5 258.5q0 164 103 267.5t258 103.5q91 0 165 -38.5t119 -111.5l-83 -57q-33 53 -87 81.5t-119 28.5q-109 0 -181 -73t-72 -195t73 -195.5
t181 -73.5z" />
    <glyph glyph-name="cacute" unicode="&#x107;" horiz-adv-x="529" 
d="M218 679l264 86l26 -88l-265 -77zM508 116q-81 -122 -217 -122q-117 0 -183 74t-66 183q0 110 69 186.5t184 76.5q127 0 199 -98l-70 -59q-46 68 -128 68q-75 0 -115.5 -48t-40.5 -120q0 -73 43 -123.5t116 -50.5q44 0 81.5 22t60.5 60z" />
    <glyph glyph-name="Ccircumflex" unicode="&#x108;" horiz-adv-x="750" 
d="M411 984l188 -144l-49 -64l-139 105l-139 -105l-49 64zM409 82q75 0 134 39t88 110l87 -37q-44 -102 -127 -156t-194 -54q-156 0 -250.5 102.5t-94.5 258.5q0 164 103 267.5t258 103.5q91 0 165 -38.5t119 -111.5l-83 -57q-33 53 -87 81.5t-119 28.5q-109 0 -181 -73
t-72 -195t73 -195.5t181 -73.5z" />
    <glyph glyph-name="ccircumflex" unicode="&#x109;" horiz-adv-x="529" 
d="M288 813l188 -144l-49 -64l-139 105l-139 -105l-49 64zM508 116q-81 -122 -217 -122q-117 0 -183 74t-66 183q0 110 69 186.5t184 76.5q127 0 199 -98l-70 -59q-46 68 -128 68q-75 0 -115.5 -48t-40.5 -120q0 -73 43 -123.5t116 -50.5q44 0 81.5 22t60.5 60z" />
    <glyph glyph-name="Cdotaccent" unicode="&#x10a;" horiz-adv-x="750" 
d="M423 914q31 0 50.5 -20t19.5 -48q0 -29 -19.5 -49t-50.5 -20q-32 0 -51.5 20t-19.5 49q0 28 20 48t51 20zM409 82q75 0 134 39t88 110l87 -37q-44 -102 -127 -156t-194 -54q-156 0 -250.5 102.5t-94.5 258.5q0 164 103 267.5t258 103.5q91 0 165 -38.5t119 -111.5
l-83 -57q-33 53 -87 81.5t-119 28.5q-109 0 -181 -73t-72 -195t73 -195.5t181 -73.5z" />
    <glyph glyph-name="cdotaccent" unicode="&#x10b;" horiz-adv-x="529" 
d="M302 738q31 0 50.5 -20t19.5 -48q0 -29 -19.5 -49t-50.5 -20q-32 0 -51.5 20t-19.5 49q0 28 19.5 48t51.5 20zM508 116q-81 -122 -217 -122q-117 0 -183 74t-66 183q0 110 69 186.5t184 76.5q127 0 199 -98l-70 -59q-46 68 -128 68q-75 0 -115.5 -48t-40.5 -120
q0 -73 43 -123.5t116 -50.5q44 0 81.5 22t60.5 60z" />
    <glyph glyph-name="Ccaron" unicode="&#x10c;" horiz-adv-x="750" 
d="M416 776l-188 144l49 64l139 -105l139 105l49 -64zM409 82q75 0 134 39t88 110l87 -37q-44 -102 -127 -156t-194 -54q-156 0 -250.5 102.5t-94.5 258.5q0 164 103 267.5t258 103.5q91 0 165 -38.5t119 -111.5l-83 -57q-33 53 -87 81.5t-119 28.5q-109 0 -181 -73
t-72 -195t73 -195.5t181 -73.5z" />
    <glyph glyph-name="ccaron" unicode="&#x10d;" horiz-adv-x="529" 
d="M297 601l-188 144l49 64l139 -105l139 105l49 -64zM508 116q-81 -122 -217 -122q-117 0 -183 74t-66 183q0 110 69 186.5t184 76.5q127 0 199 -98l-70 -59q-46 68 -128 68q-75 0 -115.5 -48t-40.5 -120q0 -73 43 -123.5t116 -50.5q44 0 81.5 22t60.5 60z" />
    <glyph glyph-name="Dcaron" unicode="&#x10e;" horiz-adv-x="721" 
d="M288 776l-188 144l49 64l139 -105l139 105l49 -64zM82 0v700h229q86 0 156 -29t113 -78t66 -110t23 -127q0 -68 -23.5 -130.5t-68 -113.5t-116 -81.5t-159.5 -30.5h-220zM310 604h-127v-508h126q121 0 189 75.5t68 179.5q0 103 -68 178t-188 75z" />
    <glyph glyph-name="dcaron" unicode="&#x10f;" horiz-adv-x="872" 
d="M642 441l100 280l98 -38l-118 -273zM282 514q61 0 107.5 -24t69.5 -67v277h99v-700h-95v87q-51 -93 -181 -93q-112 0 -176 75t-64 184t64 185t176 76zM298 82q72 0 117 48t45 124t-45 124t-118 48q-74 0 -115.5 -49.5t-41.5 -122.5q0 -76 43.5 -124t114.5 -48z" />
    <glyph glyph-name="dcroat" unicode="&#x111;" horiz-adv-x="706" 
d="M674 638v-50h-116v-588h-95v87q-51 -93 -181 -93q-112 0 -176 75t-64 184t64 185t176 76q61 0 107.5 -24t69.5 -67v165h-122v50h122v62h99v-62h116zM298 82q72 0 117 48t45 124t-45 124t-118 48q-74 0 -115.5 -49.5t-41.5 -122.5q0 -76 43.5 -124t114.5 -48z" />
    <glyph glyph-name="Emacron" unicode="&#x112;" horiz-adv-x="589" 
d="M153 857h310v-80h-310v80zM518 604h-335v-204h283v-96h-283v-208h344v-96h-445v700h436v-96z" />
    <glyph glyph-name="emacron" unicode="&#x113;" horiz-adv-x="555" 
d="M142 680h310v-80h-310v80zM513 270v-49h-371q5 -58 48 -99t112 -41q95 0 144 74l55 -59q-82 -102 -208 -102q-116 0 -183.5 74t-67.5 182q0 111 68.5 187.5t183.5 76.5q104 0 161.5 -64.5t57.5 -179.5zM140 296h275q0 64 -32 99.5t-94 35.5q-63 0 -101.5 -37.5
t-47.5 -97.5z" />
    <glyph glyph-name="Ebreve" unicode="&#x114;" horiz-adv-x="589" 
d="M389 939h81q-1 -68 -42 -115.5t-120 -47.5q-80 0 -121 47.5t-42 115.5h82q2 -85 81 -85q78 0 81 85zM518 604h-335v-204h283v-96h-283v-208h344v-96h-445v700h436v-96z" />
    <glyph glyph-name="ebreve" unicode="&#x115;" horiz-adv-x="555" 
d="M387 764h81q-1 -68 -42 -115.5t-120 -47.5q-80 0 -121 47.5t-42 115.5h82q2 -85 81 -85q78 0 81 85zM513 270v-49h-371q5 -58 48 -99t112 -41q95 0 144 74l55 -59q-82 -102 -208 -102q-116 0 -183.5 74t-67.5 182q0 111 68.5 187.5t183.5 76.5q104 0 161.5 -64.5
t57.5 -179.5zM140 296h275q0 64 -32 99.5t-94 35.5q-63 0 -101.5 -37.5t-47.5 -97.5z" />
    <glyph glyph-name="Edotaccent" unicode="&#x116;" horiz-adv-x="589" 
d="M328 914q31 0 50.5 -20t19.5 -48q0 -29 -19.5 -49t-50.5 -20q-32 0 -51.5 20t-19.5 49q0 28 19.5 48t51.5 20zM518 604h-335v-204h283v-96h-283v-208h344v-96h-445v700h436v-96z" />
    <glyph glyph-name="edotaccent" unicode="&#x117;" horiz-adv-x="555" 
d="M301 738q31 0 50.5 -20t19.5 -48q0 -29 -19.5 -49t-50.5 -20q-32 0 -51.5 20t-19.5 49q0 28 20 48t51 20zM513 270v-49h-371q5 -58 48 -99t112 -41q95 0 144 74l55 -59q-82 -102 -208 -102q-116 0 -183.5 74t-67.5 182q0 111 68.5 187.5t183.5 76.5q104 0 161.5 -64.5
t57.5 -179.5zM140 296h275q0 64 -32 99.5t-94 35.5q-63 0 -101.5 -37.5t-47.5 -97.5z" />
    <glyph glyph-name="Eogonek" unicode="&#x118;" horiz-adv-x="589" 
d="M481 0q-80 -33 -80 -99q0 -34 31 -59t95 -32l-14 -89q-95 6 -147.5 50t-52.5 103q0 76 87 126h-318v700h436v-96h-335v-204h283v-96h-283v-208h344v-96h-46z" />
    <glyph glyph-name="eogonek" unicode="&#x119;" horiz-adv-x="555" 
d="M513 270v-49h-371q5 -58 48 -99t112 -41q95 0 144 74l55 -59q-70 -87 -173 -100q-71 -34 -71 -95q0 -34 31 -59t95 -32l-14 -89q-95 6 -147.5 50t-52.5 103q0 73 82 123q-98 14 -153.5 84.5t-55.5 168.5q0 111 68.5 187.5t183.5 76.5q104 0 161.5 -64.5t57.5 -179.5z
M140 296h275q0 64 -32 99.5t-94 35.5q-63 0 -101.5 -37.5t-47.5 -97.5z" />
    <glyph glyph-name="Ecaron" unicode="&#x11a;" horiz-adv-x="589" 
d="M304 776l-188 144l49 64l139 -105l139 105l49 -64zM518 604h-335v-204h283v-96h-283v-208h344v-96h-445v700h436v-96z" />
    <glyph glyph-name="ecaron" unicode="&#x11b;" horiz-adv-x="555" 
d="M295 601l-188 144l49 64l139 -105l139 105l49 -64zM513 270v-49h-371q5 -58 48 -99t112 -41q95 0 144 74l55 -59q-82 -102 -208 -102q-116 0 -183.5 74t-67.5 182q0 111 68.5 187.5t183.5 76.5q104 0 161.5 -64.5t57.5 -179.5zM140 296h275q0 64 -32 99.5t-94 35.5
q-63 0 -101.5 -37.5t-47.5 -97.5z" />
    <glyph glyph-name="Gcircumflex" unicode="&#x11c;" horiz-adv-x="753" 
d="M403 984l188 -144l-49 -64l-139 105l-139 -105l-49 64zM390 279v94h289v-286q-113 -103 -281 -103q-157 0 -251.5 102.5t-94.5 258.5q0 164 103 267.5t258 103.5q189 0 283 -150l-82 -57q-33 53 -87 81.5t-119 28.5q-109 0 -181 -73.5t-72 -196.5q0 -127 74 -199t181 -72
q104 0 168 47v154h-188z" />
    <glyph glyph-name="gcircumflex" unicode="&#x11d;" horiz-adv-x="627" 
d="M314 813l188 -144l-49 -64l-139 105l-139 -105l-49 64zM470 502h96v-484q0 -115 -73 -184t-188 -69q-93 0 -163 45.5t-97 123.5l88 41q19 -57 66 -89t109 -32q73 0 116 41t43 112v93q-50 -90 -178 -90q-109 0 -176.5 69.5t-67.5 181.5q0 107 65.5 180t178.5 73
q134 0 181 -87v75zM305 97q73 0 118 45.5t45 120.5t-45 119.5t-119 44.5q-71 0 -115.5 -45t-44.5 -119q0 -72 43 -119t118 -47z" />
    <glyph glyph-name="Gbreve" unicode="&#x11e;" horiz-adv-x="753" 
d="M487 939h81q-1 -68 -42 -115.5t-120 -47.5q-80 0 -121 47.5t-42 115.5h82q2 -85 81 -85q78 0 81 85zM390 279v94h289v-286q-113 -103 -281 -103q-157 0 -251.5 102.5t-94.5 258.5q0 164 103 267.5t258 103.5q189 0 283 -150l-82 -57q-33 53 -87 81.5t-119 28.5
q-109 0 -181 -73.5t-72 -196.5q0 -127 74 -199t181 -72q104 0 168 47v154h-188z" />
    <glyph glyph-name="gbreve" unicode="&#x11f;" horiz-adv-x="627" 
d="M392 764h81q-1 -68 -42 -115.5t-120 -47.5q-80 0 -121 47.5t-42 115.5h82q2 -85 81 -85q78 0 81 85zM470 502h96v-484q0 -115 -73 -184t-188 -69q-93 0 -163 45.5t-97 123.5l88 41q19 -57 66 -89t109 -32q73 0 116 41t43 112v93q-50 -90 -178 -90q-109 0 -176.5 69.5
t-67.5 181.5q0 107 65.5 180t178.5 73q134 0 181 -87v75zM305 97q73 0 118 45.5t45 120.5t-45 119.5t-119 44.5q-71 0 -115.5 -45t-44.5 -119q0 -72 43 -119t118 -47z" />
    <glyph glyph-name="Gdotaccent" unicode="&#x120;" horiz-adv-x="753" 
d="M405 914q31 0 50.5 -20t19.5 -48q0 -29 -19.5 -49t-50.5 -20q-32 0 -51.5 20t-19.5 49q0 28 20 48t51 20zM390 279v94h289v-286q-113 -103 -281 -103q-157 0 -251.5 102.5t-94.5 258.5q0 164 103 267.5t258 103.5q189 0 283 -150l-82 -57q-33 53 -87 81.5t-119 28.5
q-109 0 -181 -73.5t-72 -196.5q0 -127 74 -199t181 -72q104 0 168 47v154h-188z" />
    <glyph glyph-name="gdotaccent" unicode="&#x121;" horiz-adv-x="627" 
d="M301 738q31 0 50.5 -20t19.5 -48q0 -29 -19.5 -49t-50.5 -20q-32 0 -51.5 20t-19.5 49q0 28 20 48t51 20zM470 502h96v-484q0 -115 -73 -184t-188 -69q-93 0 -163 45.5t-97 123.5l88 41q19 -57 66 -89t109 -32q73 0 116 41t43 112v93q-50 -90 -178 -90
q-109 0 -176.5 69.5t-67.5 181.5q0 107 65.5 180t178.5 73q134 0 181 -87v75zM305 97q73 0 118 45.5t45 120.5t-45 119.5t-119 44.5q-71 0 -115.5 -45t-44.5 -119q0 -72 43 -119t118 -47z" />
    <glyph glyph-name="uni0122" unicode="&#x122;" horiz-adv-x="753" 
d="M390 279v94h289v-286q-113 -103 -281 -103q-157 0 -251.5 102.5t-94.5 258.5q0 164 103 267.5t258 103.5q189 0 283 -150l-82 -57q-33 53 -87 81.5t-119 28.5q-109 0 -181 -73.5t-72 -196.5q0 -127 74 -199t181 -72q104 0 168 47v154h-188zM298 -220l75 163l81 -38
l-92 -156z" />
    <glyph glyph-name="uni0123" unicode="&#x123;" horiz-adv-x="627" 
d="M410 757l-75 -163l-81 38l92 156zM470 502h96v-484q0 -115 -73 -184t-188 -69q-93 0 -163 45.5t-97 123.5l88 41q19 -57 66 -89t109 -32q73 0 116 41t43 112v93q-50 -90 -178 -90q-109 0 -176.5 69.5t-67.5 181.5q0 107 65.5 180t178.5 73q134 0 181 -87v75zM305 97
q73 0 118 45.5t45 120.5t-45 119.5t-119 44.5q-71 0 -115.5 -45t-44.5 -119q0 -72 43 -119t118 -47z" />
    <glyph glyph-name="Hcircumflex" unicode="&#x124;" horiz-adv-x="719" 
d="M360 984l188 -144l-49 -64l-139 105l-139 -105l-49 64zM82 0v700h101v-300h353v300h101v-700h-101v304h-353v-304h-101z" />
    <glyph glyph-name="hcircumflex" unicode="&#x125;" horiz-adv-x="603" 
d="M371 798l160 -122l-41 -55l-119 90l-118 -90l-42 55zM334 514q80 0 131.5 -50.5t51.5 -138.5v-325h-98v306q0 56 -31.5 88t-80.5 32q-56 0 -98.5 -42.5t-42.5 -118.5v-265h-98v700h98v-278q24 43 68.5 67.5t99.5 24.5z" />
    <glyph glyph-name="Hbar" unicode="&#x126;" horiz-adv-x="773" 
d="M755 575v-74h-91v-501h-101v304h-353v-304h-101v501h-91v74h91v125h101v-125h353v125h101v-125h91zM563 400v101h-353v-101h353z" />
    <glyph glyph-name="hbar" unicode="&#x127;" horiz-adv-x="633" 
d="M378 514q80 0 131.5 -50.5t51.5 -138.5v-325h-98v306q0 56 -31.5 88t-80.5 32q-56 0 -98.5 -42.5t-42.5 -118.5v-265h-98v582h-90v50h90v68h98v-68h162v-50h-162v-160q24 43 68.5 67.5t99.5 24.5z" />
    <glyph glyph-name="Itilde" unicode="&#x128;" horiz-adv-x="265" 
d="M281 924l57 -32q-50 -115 -120 -115q-31 0 -86 36q-44 28 -64 28q-12 0 -22 -5t-19 -16t-14 -19t-15 -25l-56 36q53 112 130 112q33 0 91 -38q36 -23 56 -23t33 14t29 47zM82 0v700h101v-700h-101z" />
    <glyph glyph-name="itilde" unicode="&#x129;" horiz-adv-x="260" 
d="M273 748l57 -32q-50 -115 -120 -115q-31 0 -86 36q-44 28 -64 28q-12 0 -22 -5t-19 -16t-14 -19t-15 -25l-56 36q53 112 130 112q33 0 91 -38q36 -23 56 -23t33 14t29 47zM81 0v502h99v-502h-99z" />
    <glyph glyph-name="Imacron" unicode="&#x12a;" horiz-adv-x="265" 
d="M-23 857h310v-80h-310v80zM82 0v700h101v-700h-101z" />
    <glyph glyph-name="imacron" unicode="&#x12b;" horiz-adv-x="260" 
d="M-25 680h310v-80h-310v80zM80 0v502h99v-502h-99z" />
    <glyph glyph-name="Iogonek" unicode="&#x12e;" horiz-adv-x="265" 
d="M66 -99q0 -34 31 -59t95 -32l-14 -89q-95 6 -147.5 50t-52.5 103q0 39 26.5 75t77.5 60v691h101v-700h-37q-80 -33 -80 -99z" />
    <glyph glyph-name="iogonek" unicode="&#x12f;" horiz-adv-x="260" 
d="M130 597q-30 0 -50 19.5t-20 47.5q0 29 20 49t50 20q29 0 49.5 -20t20.5 -49q0 -28 -20.5 -47.5t-49.5 -19.5zM73 -99q0 -34 31 -59t95 -32l-14 -89q-95 6 -147.5 50t-52.5 103q0 37 25 72t71 59v497h99v-502h-27q-80 -33 -80 -99z" />
    <glyph glyph-name="Idotaccent" unicode="&#x130;" horiz-adv-x="265" 
d="M133 914q31 0 50.5 -20t19.5 -48q0 -29 -19.5 -49t-50.5 -20q-32 0 -51.5 20t-19.5 49q0 28 20 48t51 20zM82 0v700h101v-700h-101z" />
    <glyph glyph-name="dotlessi" unicode="&#x131;" horiz-adv-x="260" 
d="M81 0v502h99v-502h-99z" />
    <glyph glyph-name="IJ" unicode="&#x132;" horiz-adv-x="780" 
d="M82 0v700h101v-700h-101zM498 -16q-78 0 -138 47.5t-67 129.5l98 19q4 -48 35.5 -74t74.5 -26q44 0 74.5 29.5t30.5 84.5v506h102v-494q0 -108 -61.5 -165t-148.5 -57z" />
    <glyph glyph-name="ij" unicode="&#x133;" horiz-adv-x="528" 
d="M130 733q29 0 49.5 -20t20.5 -49q0 -28 -20.5 -47.5t-49.5 -19.5q-30 0 -50 19.5t-20 47.5q0 29 20 49t50 20zM396 733q29 0 49.5 -20t20.5 -49q0 -28 -20.5 -47.5t-49.5 -19.5q-30 0 -50 19.5t-20 47.5q0 29 20 49t50 20zM81 0v502h99v-502h-99zM347 -70v572h98v-571
q0 -74 -42 -120t-111 -46q-51 0 -100 28l32 78q26 -17 55 -17q30 0 49 19.5t19 56.5z" />
    <glyph glyph-name="Jcircumflex" unicode="&#x134;" horiz-adv-x="509" 
d="M383 984l188 -144l-49 -64l-139 105l-139 -105l-49 64zM227 -16q-78 0 -138 47.5t-67 129.5l98 19q4 -48 35.5 -74t74.5 -26q44 0 74.5 29.5t30.5 84.5v506h102v-494q0 -108 -61.5 -165t-148.5 -57z" />
    <glyph glyph-name="jcircumflex" unicode="&#x135;" horiz-adv-x="268" 
d="M132 813l188 -144l-49 -64l-139 105l-139 -105l-49 64zM87 502h98v-571q0 -75 -45 -120.5t-113 -45.5q-60 0 -105 33l38 74q23 -20 57 -20q32 0 51 21.5t19 60.5v568z" />
    <glyph glyph-name="uni0136" unicode="&#x136;" horiz-adv-x="673" 
d="M657 0h-145l-329 330v-330h-101v700h101v-315l309 315h142l-341 -338zM256 -220l75 163l81 -38l-92 -156z" />
    <glyph glyph-name="uni0137" unicode="&#x137;" horiz-adv-x="557" 
d="M550 0h-142l-238 230v-230h-98v700h98v-407l214 209h135l-249 -235zM176 -220l75 163l81 -38l-92 -156z" />
    <glyph glyph-name="kgreenlandic" unicode="&#x138;" horiz-adv-x="557" 
d="M550 0h-142l-238 230v-230h-98v502h98v-209l214 209h135l-249 -235z" />
    <glyph glyph-name="Lacute" unicode="&#x139;" horiz-adv-x="526" 
d="M111 855l264 86l26 -88l-265 -77zM183 96h311v-96h-412v700h101v-604z" />
    <glyph glyph-name="lacute" unicode="&#x13a;" horiz-adv-x="341" 
d="M78 855l264 86l26 -88l-265 -77zM324 24q-52 -30 -105 -30q-63 0 -105 42t-42 116v548h98v-537q0 -38 20 -59t50 -21q32 0 59 17z" />
    <glyph glyph-name="uni013B" unicode="&#x13b;" horiz-adv-x="526" 
d="M183 96h311v-96h-412v700h101v-604zM215 -220l75 163l81 -38l-92 -156z" />
    <glyph glyph-name="uni013C" unicode="&#x13c;" horiz-adv-x="341" 
d="M324 24q-52 -30 -105 -30q-63 0 -105 42t-42 116v548h98v-537q0 -38 20 -59t50 -21q32 0 59 17zM94 -220l75 163l81 -38l-92 -156z" />
    <glyph glyph-name="Lcaron" unicode="&#x13d;" horiz-adv-x="676" 
d="M446 478l100 280l98 -38l-118 -273zM183 96h311v-96h-412v700h101v-604z" />
    <glyph glyph-name="lcaron" unicode="&#x13e;" horiz-adv-x="483" 
d="M253 440l100 280l98 -38l-118 -273zM324 24q-52 -30 -105 -30q-63 0 -105 42t-42 116v548h98v-537q0 -38 20 -59t50 -21q32 0 59 17z" />
    <glyph glyph-name="Ldot" unicode="&#x13f;" horiz-adv-x="576" 
d="M183 96h311v-96h-412v700h101v-604zM474 551q31 0 50.5 -20t19.5 -48q0 -29 -19.5 -49t-50.5 -20q-32 0 -51.5 20t-19.5 49t19.5 48.5t51.5 19.5z" />
    <glyph glyph-name="ldot" unicode="&#x140;" horiz-adv-x="456" 
d="M324 24q-52 -30 -105 -30q-63 0 -105 42t-42 116v548h98v-537q0 -38 20 -59t50 -21q32 0 59 17zM354 483q31 0 50.5 -20t19.5 -48q0 -29 -19.5 -49t-50.5 -20q-32 0 -51.5 20t-19.5 49t19.5 48.5t51.5 19.5z" />
    <glyph glyph-name="Lslash" unicode="&#x141;" horiz-adv-x="568" 
d="M225 96h311v-96h-412v262l-120 -68l-39 71l159 90v345h101v-288l168 95l40 -70l-208 -118v-223z" />
    <glyph glyph-name="lslash" unicode="&#x142;" horiz-adv-x="380" 
d="M267 83q32 0 59 17l25 -76q-53 -30 -105 -30q-63 0 -105 42t-42 116v186l-101 -53l-26 53l127 66v296h98v-245l140 72l26 -52l-166 -86v-226q0 -38 20 -59t50 -21z" />
    <glyph glyph-name="Nacute" unicode="&#x143;" horiz-adv-x="748" 
d="M291 855l264 86l26 -88l-265 -77zM564 700h102v-700h-110l-373 530v-530h-101v700h110l372 -539v539z" />
    <glyph glyph-name="nacute" unicode="&#x144;" horiz-adv-x="593" 
d="M214 679l264 86l26 -88l-265 -77zM338 514q80 0 131.5 -50.5t51.5 -138.5v-325h-98v306q0 56 -31.5 88t-80.5 32q-56 0 -98.5 -42.5t-42.5 -118.5v-265h-98v502h96v-83q23 44 68.5 69.5t101.5 25.5z" />
    <glyph glyph-name="uni0145" unicode="&#x145;" horiz-adv-x="748" 
d="M564 700h102v-700h-110l-373 530v-530h-101v700h110l372 -539v539zM280 -220l75 163l81 -38l-92 -156z" />
    <glyph glyph-name="uni0146" unicode="&#x146;" horiz-adv-x="593" 
d="M338 514q80 0 131.5 -50.5t51.5 -138.5v-325h-98v306q0 56 -31.5 88t-80.5 32q-56 0 -98.5 -42.5t-42.5 -118.5v-265h-98v502h96v-83q23 44 68.5 69.5t101.5 25.5zM202 -220l75 163l81 -38l-92 -156z" />
    <glyph glyph-name="Ncaron" unicode="&#x147;" horiz-adv-x="748" 
d="M371 776l-188 144l49 64l139 -105l139 105l49 -64zM564 700h102v-700h-110l-373 530v-530h-101v700h110l372 -539v539z" />
    <glyph glyph-name="ncaron" unicode="&#x148;" horiz-adv-x="593" 
d="M309 601l-188 144l49 64l139 -105l139 105l49 -64zM338 514q80 0 131.5 -50.5t51.5 -138.5v-325h-98v306q0 56 -31.5 88t-80.5 32q-56 0 -98.5 -42.5t-42.5 -118.5v-265h-98v502h96v-83q23 44 68.5 69.5t101.5 25.5z" />
    <glyph glyph-name="napostrophe" unicode="&#x149;" horiz-adv-x="782" 
d="M22 440l100 280l98 -38l-118 -273zM527 514q80 0 131.5 -50.5t51.5 -138.5v-325h-98v306q0 56 -31.5 88t-80.5 32q-56 0 -98.5 -42.5t-42.5 -118.5v-265h-98v502h96v-83q23 44 68.5 69.5t101.5 25.5z" />
    <glyph glyph-name="Eng" unicode="&#x14a;" horiz-adv-x="748" 
d="M564 700h102v-769q0 -75 -45 -120.5t-113 -45.5q-60 0 -105 33l38 74q26 -17 57 -17q32 0 51 20t19 59v66l-385 530v-530h-101v700h110l372 -522v522z" />
    <glyph glyph-name="eng" unicode="&#x14b;" horiz-adv-x="583" 
d="M338 514q80 0 131.5 -50.5t51.5 -138.5v-394q0 -75 -45 -120.5t-113 -45.5q-60 0 -105 33l38 74q26 -17 57 -17q32 0 51 20t19 59v372q0 56 -31.5 88t-80.5 32q-56 0 -98.5 -42.5t-42.5 -118.5v-265h-98v502h96v-83q23 44 68.5 69.5t101.5 25.5z" />
    <glyph glyph-name="Omacron" unicode="&#x14c;" horiz-adv-x="826" 
d="M258 857h310v-80h-310v80zM413 716q155 0 258 -104.5t103 -261.5t-103 -261.5t-258 -104.5t-258 104.5t-103 261.5t103 261.5t258 104.5zM413 81q112 0 185 76.5t73 192.5t-73 192.5t-185 76.5t-185 -76.5t-73 -192.5t73 -192.5t185 -76.5z" />
    <glyph glyph-name="omacron" unicode="&#x14d;" horiz-adv-x="594" 
d="M143 680h310v-80h-310v80zM297 514q111 0 183 -73.5t72 -186.5q0 -112 -72 -186t-183 -74t-183 74t-72 186q0 113 72 186.5t183 73.5zM297 425q-70 0 -113.5 -48t-43.5 -123t43.5 -123t113.5 -48t113.5 48t43.5 123t-43.5 123t-113.5 48z" />
    <glyph glyph-name="Obreve" unicode="&#x14e;" horiz-adv-x="826" 
d="M494 939h81q-1 -68 -42 -115.5t-120 -47.5q-80 0 -121 47.5t-42 115.5h82q2 -85 81 -85q78 0 81 85zM413 716q155 0 258 -104.5t103 -261.5t-103 -261.5t-258 -104.5t-258 104.5t-103 261.5t103 261.5t258 104.5zM413 81q112 0 185 76.5t73 192.5t-73 192.5t-185 76.5
t-185 -76.5t-73 -192.5t73 -192.5t185 -76.5z" />
    <glyph glyph-name="obreve" unicode="&#x14f;" horiz-adv-x="594" 
d="M379 764h81q-1 -68 -42 -115.5t-120 -47.5q-80 0 -121 47.5t-42 115.5h82q2 -85 81 -85q78 0 81 85zM297 514q111 0 183 -73.5t72 -186.5q0 -112 -72 -186t-183 -74t-183 74t-72 186q0 113 72 186.5t183 73.5zM297 425q-70 0 -113.5 -48t-43.5 -123t43.5 -123t113.5 -48
t113.5 48t43.5 123t-43.5 123t-113.5 48z" />
    <glyph glyph-name="Ohungarumlaut" unicode="&#x150;" horiz-adv-x="826" 
d="M465 947l-82 -171h-89l73 171h98zM630 947l-82 -171h-89l73 171h98zM413 716q155 0 258 -104.5t103 -261.5t-103 -261.5t-258 -104.5t-258 104.5t-103 261.5t103 261.5t258 104.5zM413 81q112 0 185 76.5t73 192.5t-73 192.5t-185 76.5t-185 -76.5t-73 -192.5t73 -192.5
t185 -76.5z" />
    <glyph glyph-name="ohungarumlaut" unicode="&#x151;" horiz-adv-x="594" 
d="M341 772l-82 -171h-89l73 171h98zM506 772l-82 -171h-89l73 171h98zM297 514q111 0 183 -73.5t72 -186.5q0 -112 -72 -186t-183 -74t-183 74t-72 186q0 113 72 186.5t183 73.5zM297 425q-70 0 -113.5 -48t-43.5 -123t43.5 -123t113.5 -48t113.5 48t43.5 123t-43.5 123
t-113.5 48z" />
    <glyph glyph-name="OE" unicode="&#x152;" horiz-adv-x="940" 
d="M534 96h344v-96h-461q-160 0 -262.5 97t-102.5 253t102.5 253t262.5 97h452v-96h-335v-204h283v-96h-283v-208zM433 97v506q-127 0 -202.5 -68.5t-75.5 -184.5t75.5 -184.5t202.5 -68.5z" />
    <glyph glyph-name="oe" unicode="&#x153;" horiz-adv-x="979" 
d="M937 270v-49h-371q6 -59 48 -99.5t112 -40.5q93 0 144 74l55 -59q-82 -102 -209 -102q-76 0 -129.5 33.5t-81.5 91.5q-29 -59 -83 -92t-126 -33q-111 0 -182.5 74t-71.5 186q0 113 71.5 186.5t182.5 73.5q73 0 127.5 -34.5t82.5 -94.5q29 60 83 94.5t129 34.5
q104 0 161.5 -64.5t57.5 -179.5zM564 296h275q0 64 -32 99.5t-93 35.5q-63 0 -102 -38t-48 -97zM297 83q70 0 113.5 48t43.5 123t-43.5 123t-113.5 48t-113 -47.5t-43 -123.5t43 -123.5t113 -47.5z" />
    <glyph glyph-name="Racute" unicode="&#x154;" horiz-adv-x="616" 
d="M219 855l264 86l26 -88l-265 -77zM396 322l193 -322h-119l-176 298h-111v-298h-101v700h241q105 0 161 -56.5t56 -137.5q0 -62 -38 -112.5t-106 -71.5zM183 607v-219h131q57 0 90.5 32.5t33.5 78.5q0 45 -33 76.5t-90 31.5h-132z" />
    <glyph glyph-name="racute" unicode="&#x155;" horiz-adv-x="422" 
d="M170 679l264 86l26 -88l-265 -77zM382 496l-17 -92q-35 15 -70 15q-54 0 -89.5 -37t-35.5 -107v-275h-98v502h96v-82q17 44 54.5 66.5t85.5 22.5q38 0 74 -13z" />
    <glyph glyph-name="uni0156" unicode="&#x156;" horiz-adv-x="616" 
d="M396 322l193 -322h-119l-176 298h-111v-298h-101v700h241q105 0 161 -56.5t56 -137.5q0 -62 -38 -112.5t-106 -71.5zM183 607v-219h131q57 0 90.5 32.5t33.5 78.5q0 45 -33 76.5t-90 31.5h-132zM230 -220l75 163l81 -38l-92 -156z" />
    <glyph glyph-name="uni0157" unicode="&#x157;" horiz-adv-x="397" 
d="M382 496l-17 -92q-35 15 -70 15q-54 0 -89.5 -37t-35.5 -107v-275h-98v502h96v-82q17 44 54.5 66.5t85.5 22.5q38 0 74 -13zM17 -220l75 163l81 -38l-92 -156z" />
    <glyph glyph-name="Rcaron" unicode="&#x158;" horiz-adv-x="616" 
d="M286 776l-188 144l49 64l139 -105l139 105l49 -64zM396 322l193 -322h-119l-176 298h-111v-298h-101v700h241q105 0 161 -56.5t56 -137.5q0 -62 -38 -112.5t-106 -71.5zM183 607v-219h131q57 0 90.5 32.5t33.5 78.5q0 45 -33 76.5t-90 31.5h-132z" />
    <glyph glyph-name="rcaron" unicode="&#x159;" horiz-adv-x="397" 
d="M226 601l-188 144l49 64l139 -105l139 105l49 -64zM382 496l-17 -92q-35 15 -70 15q-54 0 -89.5 -37t-35.5 -107v-275h-98v502h96v-82q17 44 54.5 66.5t85.5 22.5q38 0 74 -13z" />
    <glyph glyph-name="Sacute" unicode="&#x15a;" horiz-adv-x="567" 
d="M230 855l264 86l26 -88l-265 -77zM525 194q0 -97 -68.5 -153.5t-167.5 -56.5q-68 0 -133.5 29t-113.5 85l72 75q34 -44 83.5 -67.5t99.5 -23.5q56 0 90.5 28t34.5 72q0 32 -24.5 56t-46 33t-75.5 27q-3 1 -5 2t-4.5 1.5t-4.5 1.5q-36 12 -59 20.5t-54 26t-48.5 37
t-30.5 51t-13 69.5q0 97 68 153t164 56q132 0 213 -96l-67 -71q-26 33 -67.5 52t-83.5 19q-52 0 -88 -26.5t-36 -74.5q0 -22 8.5 -39.5t21 -29.5t34 -23t39.5 -17.5t46 -15.5q102 -32 139 -56q77 -50 77 -144z" />
    <glyph glyph-name="sacute" unicode="&#x15b;" horiz-adv-x="495" 
d="M163 679l264 86l26 -88l-265 -77zM458 153q0 -74 -57.5 -116.5t-139.5 -42.5q-65 0 -125 27t-99 76l62 67q28 -40 75 -61.5t94 -21.5q41 0 66.5 15t25.5 45q0 29 -25 42.5t-81 24.5q-35 7 -53.5 11.5t-49 16.5t-46.5 26.5t-29 39.5t-13 58q0 73 53.5 113.5t131.5 40.5
q113 0 181 -71l-53 -65q-48 51 -131 51q-37 0 -61 -16t-24 -47q0 -23 16.5 -37.5t38 -20.5t63.5 -14q23 -5 32 -7t30.5 -7.5t31.5 -10t26.5 -12.5t25 -17.5t17.5 -22t13 -29t4 -35.5z" />
    <glyph glyph-name="Scircumflex" unicode="&#x15c;" horiz-adv-x="567" 
d="M290 984l188 -144l-49 -64l-139 105l-139 -105l-49 64zM525 194q0 -97 -68.5 -153.5t-167.5 -56.5q-68 0 -133.5 29t-113.5 85l72 75q34 -44 83.5 -67.5t99.5 -23.5q56 0 90.5 28t34.5 72q0 32 -24.5 56t-46 33t-75.5 27q-3 1 -5 2t-4.5 1.5t-4.5 1.5q-36 12 -59 20.5
t-54 26t-48.5 37t-30.5 51t-13 69.5q0 97 68 153t164 56q132 0 213 -96l-67 -71q-26 33 -67.5 52t-83.5 19q-52 0 -88 -26.5t-36 -74.5q0 -22 8.5 -39.5t21 -29.5t34 -23t39.5 -17.5t46 -15.5q102 -32 139 -56q77 -50 77 -144z" />
    <glyph glyph-name="scircumflex" unicode="&#x15d;" horiz-adv-x="495" 
d="M250 813l188 -144l-49 -64l-139 105l-139 -105l-49 64zM458 153q0 -74 -57.5 -116.5t-139.5 -42.5q-65 0 -125 27t-99 76l62 67q28 -40 75 -61.5t94 -21.5q41 0 66.5 15t25.5 45q0 29 -25 42.5t-81 24.5q-35 7 -53.5 11.5t-49 16.5t-46.5 26.5t-29 39.5t-13 58
q0 73 53.5 113.5t131.5 40.5q113 0 181 -71l-53 -65q-48 51 -131 51q-37 0 -61 -16t-24 -47q0 -23 16.5 -37.5t38 -20.5t63.5 -14q23 -5 32 -7t30.5 -7.5t31.5 -10t26.5 -12.5t25 -17.5t17.5 -22t13 -29t4 -35.5z" />
    <glyph glyph-name="Scedilla" unicode="&#x15e;" horiz-adv-x="567" 
d="M525 194q0 -91 -60 -146t-150 -63l-11 -43q132 -13 132 -106q0 -48 -37.5 -81.5t-100.5 -33.5q-84 0 -140 58l42 50q46 -44 97 -44q30 0 50.5 15t20.5 42q0 48 -127 59l24 84q-136 10 -223 113l72 75q34 -44 83.5 -67.5t99.5 -23.5q56 0 90.5 28t34.5 72q0 32 -24.5 56
t-46 33t-75.5 27q-3 1 -5 2t-4.5 1.5t-4.5 1.5q-36 12 -59 20.5t-54 26t-48.5 37t-30.5 51t-13 69.5q0 97 68 153t164 56q132 0 213 -96l-67 -71q-26 33 -67.5 52t-83.5 19q-52 0 -88 -26.5t-36 -74.5q0 -22 8.5 -39.5t21 -29.5t34 -23t39.5 -17.5t46 -15.5q102 -32 139 -56
q77 -50 77 -144z" />
    <glyph glyph-name="scedilla" unicode="&#x15f;" horiz-adv-x="495" 
d="M458 153q0 -73 -56.5 -115.5t-138.5 -43.5l-13 -52q132 -13 132 -106q0 -48 -37.5 -81.5t-100.5 -33.5q-84 0 -140 58l42 50q46 -44 97 -44q30 0 50.5 15t20.5 42q0 48 -127 59l27 97q-113 17 -177 99l62 67q28 -40 75 -61.5t94 -21.5q41 0 66.5 15t25.5 45
q0 29 -25 42.5t-81 24.5q-35 7 -53.5 11.5t-49 16.5t-46.5 26.5t-29 39.5t-13 58q0 73 53.5 113.5t131.5 40.5q113 0 181 -71l-53 -65q-48 51 -131 51q-37 0 -61 -16t-24 -47q0 -23 16.5 -37.5t38 -20.5t63.5 -14q23 -5 32 -7t30.5 -7.5t31.5 -10t26.5 -12.5t25 -17.5
t17.5 -22t13 -29t4 -35.5z" />
    <glyph glyph-name="Scaron" unicode="&#x160;" horiz-adv-x="567" 
d="M305 776l-188 144l49 64l139 -105l139 105l49 -64zM525 194q0 -97 -68.5 -153.5t-167.5 -56.5q-68 0 -133.5 29t-113.5 85l72 75q34 -44 83.5 -67.5t99.5 -23.5q56 0 90.5 28t34.5 72q0 32 -24.5 56t-46 33t-75.5 27q-3 1 -5 2t-4.5 1.5t-4.5 1.5q-36 12 -59 20.5t-54 26
t-48.5 37t-30.5 51t-13 69.5q0 97 68 153t164 56q132 0 213 -96l-67 -71q-26 33 -67.5 52t-83.5 19q-52 0 -88 -26.5t-36 -74.5q0 -22 8.5 -39.5t21 -29.5t34 -23t39.5 -17.5t46 -15.5q102 -32 139 -56q77 -50 77 -144z" />
    <glyph glyph-name="scaron" unicode="&#x161;" horiz-adv-x="495" 
d="M250 601l-188 144l49 64l139 -105l139 105l49 -64zM458 153q0 -74 -57.5 -116.5t-139.5 -42.5q-65 0 -125 27t-99 76l62 67q28 -40 75 -61.5t94 -21.5q41 0 66.5 15t25.5 45q0 29 -25 42.5t-81 24.5q-35 7 -53.5 11.5t-49 16.5t-46.5 26.5t-29 39.5t-13 58
q0 73 53.5 113.5t131.5 40.5q113 0 181 -71l-53 -65q-48 51 -131 51q-37 0 -61 -16t-24 -47q0 -23 16.5 -37.5t38 -20.5t63.5 -14q23 -5 32 -7t30.5 -7.5t31.5 -10t26.5 -12.5t25 -17.5t17.5 -22t13 -29t4 -35.5z" />
    <glyph glyph-name="uni0162" unicode="&#x162;" horiz-adv-x="611" 
d="M356 0h-52l-15 -58q132 -13 132 -106q0 -48 -37.5 -81.5t-100.5 -33.5q-84 0 -140 58l42 50q46 -44 97 -44q30 0 50.5 15t20.5 42q0 48 -127 59l28 100h1v603h-233v96h567v-96h-233v-604z" />
    <glyph glyph-name="uni0163" unicode="&#x163;" horiz-adv-x="436" 
d="M274 -58q132 -13 132 -106q0 -48 -37.5 -81.5t-100.5 -33.5q-84 0 -140 58l42 50q46 -44 97 -44q30 0 50.5 15t20.5 42q0 48 -127 59l27 97q-54 13 -87.5 54t-33.5 107v255h-105v88h105v134h99v-134h154v-88h-154v-244q0 -42 24.5 -64.5t62.5 -22.5q44 0 83 28l28 -70
q-59 -44 -127 -47z" />
    <glyph glyph-name="Tcaron" unicode="&#x164;" horiz-adv-x="611" 
d="M306 776l-188 144l49 64l139 -105l139 105l49 -64zM356 604v-604h-101v604h-233v96h567v-96h-233z" />
    <glyph glyph-name="tcaron" unicode="&#x165;" horiz-adv-x="687" 
d="M457 440l100 280l98 -38l-118 -273zM414 41q-62 -47 -134 -47q-69 0 -116 43t-47 122v255h-105v88h105v134h99v-134h154v-88h-154v-244q0 -42 24.5 -64.5t62.5 -22.5q44 0 83 28z" />
    <glyph glyph-name="Tbar" unicode="&#x166;" horiz-adv-x="611" 
d="M589 604h-233v-207h167v-83h-167v-314h-101v314h-165v83h165v207h-233v96h567v-96z" />
    <glyph glyph-name="tbar" unicode="&#x167;" horiz-adv-x="436" 
d="M386 111l28 -70q-62 -47 -134 -47q-69 0 -116 43t-47 122v89h-97v66h97v100h-105v88h105v134h99v-134h154v-88h-154v-100h162v-66h-162v-78q0 -42 24.5 -64.5t62.5 -22.5q44 0 83 28z" />
    <glyph glyph-name="Utilde" unicode="&#x168;" horiz-adv-x="684" 
d="M493 924l57 -32q-50 -115 -120 -115q-31 0 -86 36q-44 28 -64 28q-12 0 -22 -5t-19 -16t-14 -19t-15 -25l-56 36q53 112 130 112q33 0 91 -38q36 -23 56 -23t33 14t29 47zM511 700h101v-454q0 -119 -71.5 -190.5t-198.5 -71.5t-198.5 71.5t-71.5 190.5v454h101v-449
q0 -79 45.5 -124.5t123.5 -45.5t123.5 45.5t45.5 124.5v449z" />
    <glyph glyph-name="utilde" unicode="&#x169;" horiz-adv-x="578" 
d="M437 748l57 -32q-50 -115 -120 -115q-31 0 -86 36q-44 28 -64 28q-12 0 -22 -5t-19 -16t-14 -19t-15 -25l-56 36q53 112 130 112q33 0 91 -38q36 -23 56 -23t33 14t29 47zM243 -6q-80 0 -130.5 50t-50.5 139v319h98v-300q0 -56 30.5 -88t79.5 -32q56 0 97 42.5t41 119.5
v258h98v-502h-96v89q-24 -44 -68 -69.5t-99 -25.5z" />
    <glyph glyph-name="Umacron" unicode="&#x16a;" horiz-adv-x="684" 
d="M187 857h310v-80h-310v80zM511 700h101v-454q0 -119 -71.5 -190.5t-198.5 -71.5t-198.5 71.5t-71.5 190.5v454h101v-449q0 -79 45.5 -124.5t123.5 -45.5t123.5 45.5t45.5 124.5v449z" />
    <glyph glyph-name="umacron" unicode="&#x16b;" horiz-adv-x="578" 
d="M127 680h310v-80h-310v80zM243 -6q-80 0 -130.5 50t-50.5 139v319h98v-300q0 -56 30.5 -88t79.5 -32q56 0 97 42.5t41 119.5v258h98v-502h-96v89q-24 -44 -68 -69.5t-99 -25.5z" />
    <glyph glyph-name="Ubreve" unicode="&#x16c;" horiz-adv-x="684" 
d="M423 939h81q-1 -68 -42 -115.5t-120 -47.5q-80 0 -121 47.5t-42 115.5h82q2 -85 81 -85q78 0 81 85zM511 700h101v-454q0 -119 -71.5 -190.5t-198.5 -71.5t-198.5 71.5t-71.5 190.5v454h101v-449q0 -79 45.5 -124.5t123.5 -45.5t123.5 45.5t45.5 124.5v449z" />
    <glyph glyph-name="ubreve" unicode="&#x16d;" horiz-adv-x="578" 
d="M370 764h81q-1 -68 -42 -115.5t-120 -47.5q-80 0 -121 47.5t-42 115.5h82q2 -85 81 -85q78 0 81 85zM243 -6q-80 0 -130.5 50t-50.5 139v319h98v-300q0 -56 30.5 -88t79.5 -32q56 0 97 42.5t41 119.5v258h98v-502h-96v89q-24 -44 -68 -69.5t-99 -25.5z" />
    <glyph glyph-name="Uring" unicode="&#x16e;" horiz-adv-x="684" 
d="M343 758q-60 0 -99 39t-39 98t39 98.5t99 39.5t98.5 -39.5t38.5 -98.5t-38.5 -98t-98.5 -39zM343 820q32 0 52 22t20 53q0 32 -20 53.5t-52 21.5q-33 0 -53 -21.5t-20 -53.5q0 -31 20 -53t53 -22zM511 700h101v-454q0 -119 -71.5 -190.5t-198.5 -71.5t-198.5 71.5
t-71.5 190.5v454h101v-449q0 -79 45.5 -124.5t123.5 -45.5t123.5 45.5t45.5 124.5v449z" />
    <glyph glyph-name="uring" unicode="&#x16f;" horiz-adv-x="578" 
d="M284 601q-62 0 -102.5 41t-40.5 102t40.5 102t102.5 41t102.5 -41t40.5 -102t-40.5 -102t-102.5 -41zM284 666q34 0 54.5 22.5t20.5 55.5t-20.5 55.5t-54.5 22.5t-54.5 -22.5t-20.5 -55.5t20.5 -55.5t54.5 -22.5zM243 -6q-80 0 -130.5 50t-50.5 139v319h98v-300
q0 -56 30.5 -88t79.5 -32q56 0 97 42.5t41 119.5v258h98v-502h-96v89q-24 -44 -68 -69.5t-99 -25.5z" />
    <glyph glyph-name="Uhungarumlaut" unicode="&#x170;" horiz-adv-x="684" 
d="M375 947l-82 -171h-89l73 171h98zM540 947l-82 -171h-89l73 171h98zM511 700h101v-454q0 -119 -71.5 -190.5t-198.5 -71.5t-198.5 71.5t-71.5 190.5v454h101v-449q0 -79 45.5 -124.5t123.5 -45.5t123.5 45.5t45.5 124.5v449z" />
    <glyph glyph-name="uhungarumlaut" unicode="&#x171;" horiz-adv-x="578" 
d="M313 772l-82 -171h-89l73 171h98zM478 772l-82 -171h-89l73 171h98zM243 -6q-80 0 -130.5 50t-50.5 139v319h98v-300q0 -56 30.5 -88t79.5 -32q56 0 97 42.5t41 119.5v258h98v-502h-96v89q-24 -44 -68 -69.5t-99 -25.5z" />
    <glyph glyph-name="Uogonek" unicode="&#x172;" horiz-adv-x="684" 
d="M511 700h101v-454q0 -112 -63.5 -182.5t-178.5 -78.5q-51 -33 -51 -84q0 -34 31 -59t95 -32l-14 -89q-95 6 -147.5 50t-52.5 103q0 65 66 113q-107 12 -166 81.5t-59 177.5v454h101v-449q0 -79 45.5 -124.5t123.5 -45.5t123.5 45.5t45.5 124.5v449z" />
    <glyph glyph-name="uogonek" unicode="&#x173;" horiz-adv-x="555" 
d="M406 -99q0 -34 31 -59t95 -32l-14 -89q-95 6 -147.5 50t-52.5 103q0 78 92 129v86q-24 -44 -68 -69.5t-99 -25.5q-80 0 -130.5 50t-50.5 139v319h98v-300q0 -56 30.5 -88t79.5 -32q56 0 97 42.5t41 119.5v258h98v-502h-20q-80 -33 -80 -99z" />
    <glyph glyph-name="Wcircumflex" unicode="&#x174;" horiz-adv-x="1008" 
d="M504 984l188 -144l-49 -64l-139 105l-139 -105l-49 64zM883 700h109l-226 -700h-96l-166 518l-166 -518h-97l-225 700h108l166 -537l165 537h98l165 -537z" />
    <glyph glyph-name="wcircumflex" unicode="&#x175;" horiz-adv-x="858" 
d="M430 813l188 -144l-49 -64l-139 105l-139 -105l-49 64zM726 502h110l-186 -502h-92l-129 360l-130 -360h-91l-186 502h105l127 -370l127 370h96l127 -369z" />
    <glyph glyph-name="Ycircumflex" unicode="&#x176;" horiz-adv-x="646" 
d="M323 984l188 -144l-49 -64l-139 105l-139 -105l-49 64zM634 700l-260 -401v-299h-102v299l-260 401h123l188 -310l188 310h123z" />
    <glyph glyph-name="ycircumflex" unicode="&#x177;" horiz-adv-x="594" 
d="M298 813l188 -144l-49 -64l-139 105l-139 -105l-49 64zM424 502h99v-484q0 -116 -67 -184t-179 -68q-92 0 -157.5 46.5t-87.5 126.5l91 34q35 -118 156 -118q69 0 107 39.5t38 112.5v96q-22 -45 -66 -70.5t-101 -25.5q-81 0 -137 50t-56 141v304h98v-281
q0 -58 32.5 -91.5t86.5 -33.5q62 0 102.5 44.5t40.5 117.5v244z" />
    <glyph glyph-name="Ydieresis" unicode="&#x178;" horiz-adv-x="646" 
d="M209 904q28 0 47.5 -18.5t19.5 -45.5t-19.5 -45.5t-47.5 -18.5t-47 18.5t-19 45.5t19 45.5t47 18.5zM438 904q28 0 47 -18.5t19 -45.5t-19 -45.5t-47 -18.5t-47.5 18.5t-19.5 45.5t19.5 45.5t47.5 18.5zM634 700l-260 -401v-299h-102v299l-260 401h123l188 -310l188 310
h123z" />
    <glyph glyph-name="Zacute" unicode="&#x179;" horiz-adv-x="634" 
d="M235 855l264 86l26 -88l-265 -77zM592 96v-96h-550v92l407 512h-392v96h521v-92l-406 -512h420z" />
    <glyph glyph-name="zacute" unicode="&#x17a;" horiz-adv-x="521" 
d="M170 679l264 86l26 -88l-265 -77zM171 88h309v-88h-438v84l290 330h-283v88h415v-84z" />
    <glyph glyph-name="Zdotaccent" unicode="&#x17b;" horiz-adv-x="634" 
d="M335 914q31 0 50.5 -20t19.5 -48q0 -29 -19.5 -49t-50.5 -20q-32 0 -51.5 20t-19.5 49q0 28 20 48t51 20zM592 96v-96h-550v92l407 512h-392v96h521v-92l-406 -512h420z" />
    <glyph glyph-name="zdotaccent" unicode="&#x17c;" horiz-adv-x="521" 
d="M291 738q31 0 50.5 -20t19.5 -48q0 -29 -19.5 -49t-50.5 -20q-32 0 -51.5 20t-19.5 49q0 28 20 48t51 20zM171 88h309v-88h-438v84l290 330h-283v88h415v-84z" />
    <glyph glyph-name="Zcaron" unicode="&#x17d;" horiz-adv-x="634" 
d="M340 776l-188 144l49 64l139 -105l139 105l49 -64zM592 96v-96h-550v92l407 512h-392v96h521v-92l-406 -512h420z" />
    <glyph glyph-name="zcaron" unicode="&#x17e;" horiz-adv-x="521" 
d="M281 601l-188 144l49 64l139 -105l139 105l49 -64zM171 88h309v-88h-438v84l290 330h-283v88h415v-84z" />
    <glyph glyph-name="longs" unicode="&#x17f;" horiz-adv-x="390" 
d="M365 606q-31 30 -76 30q-38 0 -59.5 -21.5t-21.5 -60.5v-554h-98v414h-98v88h98v52q0 80 47.5 125.5t124.5 45.5q75 0 126 -45z" />
    <glyph glyph-name="florin" unicode="&#x192;" horiz-adv-x="413" 
d="M305 725q75 0 126 -45l-44 -74q-30 30 -75 30q-38 0 -59.5 -21.5t-21.5 -60.5v-110h135v-59h-135v-230q0 -80 -48 -125.5t-125 -45.5q-76 0 -126 46l44 73q31 -29 75 -29q38 0 59.5 21.5t21.5 60.5v229h-107v59h107v110q0 80 48 125.5t125 45.5z" />
    <glyph glyph-name="Aringacute" unicode="&#x1fa;" horiz-adv-x="695" 
d="M225 1094l211 69l21 -71l-212 -61zM348 758q-57 0 -94 37t-37 94q0 56 37 93t94 37t94 -37t37 -93q0 -57 -37 -94t-94 -37zM348 817q31 0 49.5 21t18.5 51t-18.5 50.5t-49.5 20.5t-50 -20.5t-19 -50.5t19 -51t50 -21zM564 0l-68 175h-298l-67 -175h-109l277 700h97
l277 -700h-109zM234 270h227l-114 296z" />
    <glyph glyph-name="aringacute" unicode="&#x1fb;" horiz-adv-x="699" 
d="M172 889l238 78l23 -79l-239 -70zM304 550q-54 0 -89 35.5t-35 88.5t35 88.5t89 35.5t89 -35.5t35 -88.5t-35 -88.5t-89 -35.5zM304 606q29 0 47 19.5t18 48.5q0 28 -18 47.5t-47 19.5q-30 0 -47.5 -19.5t-17.5 -47.5q0 -29 17.5 -48.5t47.5 -19.5zM660 96l22 -73
q-46 -29 -94 -29q-46 0 -78.5 27t-38.5 76q-55 -103 -189 -103q-111 0 -175.5 74.5t-64.5 183.5t64 185.5t176 76.5q130 0 180 -96v84h96v-360q0 -29 15.5 -44t38.5 -15q24 0 48 13zM299 82q71 0 116 48t45 124q0 77 -45 124.5t-118 47.5q-74 0 -115.5 -49.5t-41.5 -122.5
q0 -76 44 -124t115 -48z" />
    <glyph glyph-name="AEacute" unicode="&#x1fc;" horiz-adv-x="997" 
d="M490 855l264 86l26 -88l-265 -77zM592 96h343v-96h-445v186h-266l-89 -186h-113l344 700h560v-96h-334v-204h282v-96h-282v-208zM268 280h222v326h-65z" />
    <glyph glyph-name="aeacute" unicode="&#x1fd;" horiz-adv-x="890" 
d="M380 679l264 86l26 -88l-265 -77zM848 270v-49h-371q6 -59 48 -99.5t112 -40.5q93 0 144 74l55 -59q-83 -102 -209 -102q-77 0 -131 34t-82 92q-62 -126 -198 -126q-81 0 -127.5 44t-46.5 111t48 107t140 40h150v20q0 53 -35 80t-85 27q-92 0 -142 -64l-60 60
q34 46 88 70.5t116 24.5q63 0 110.5 -25.5t66.5 -71.5q67 97 190 97q104 0 161.5 -64.5t57.5 -179.5zM475 296h275q0 64 -32 99.5t-93 35.5q-63 0 -102 -38t-48 -97zM235 82q61 0 101.5 39t43.5 106h-145q-94 0 -94 -70q0 -33 24 -54t70 -21z" />
    <glyph glyph-name="Oslashacute" unicode="&#x1fe;" horiz-adv-x="826" 
d="M620 853l-265 -77l-25 79l264 86zM655 627q119 -106 119 -277q0 -157 -103 -261.5t-258 -104.5q-105 0 -192 52l-83 -114l-47 35l83 113q-122 106 -122 280q0 157 103 261.5t258 104.5q109 0 195 -54l80 110l47 -35zM155 350q0 -122 79 -198l315 430q-60 37 -136 37
q-112 0 -185 -76.5t-73 -192.5zM413 81q112 0 185 76.5t73 192.5q0 120 -76 196l-315 -430q60 -35 133 -35z" />
    <glyph glyph-name="oslashacute" unicode="&#x1ff;" horiz-adv-x="594" 
d="M520 677l-265 -77l-25 79l264 86zM474 447q78 -75 78 -193q0 -112 -72 -186t-183 -74q-72 0 -130 33l-68 -92l-46 35l67 92q-78 73 -78 192q0 113 72 186.5t183 73.5q73 0 131 -33l68 92l45 -35zM140 254q0 -70 37 -115l197 267q-35 19 -77 19q-70 0 -113.5 -48
t-43.5 -123zM297 83q70 0 113.5 48t43.5 123q0 70 -37 115l-196 -268q36 -18 76 -18z" />
    <glyph glyph-name="uni0218" unicode="&#x218;" horiz-adv-x="567" 
d="M525 194q0 -97 -68.5 -153.5t-167.5 -56.5q-68 0 -133.5 29t-113.5 85l72 75q34 -44 83.5 -67.5t99.5 -23.5q56 0 90.5 28t34.5 72q0 32 -24.5 56t-46 33t-75.5 27q-3 1 -5 2t-4.5 1.5t-4.5 1.5q-36 12 -59 20.5t-54 26t-48.5 37t-30.5 51t-13 69.5q0 97 68 153t164 56
q132 0 213 -96l-67 -71q-26 33 -67.5 52t-83.5 19q-52 0 -88 -26.5t-36 -74.5q0 -22 8.5 -39.5t21 -29.5t34 -23t39.5 -17.5t46 -15.5q102 -32 139 -56q77 -50 77 -144zM220 -220l75 163l81 -38l-92 -156z" />
    <glyph glyph-name="uni0219" unicode="&#x219;" horiz-adv-x="495" 
d="M458 153q0 -74 -57.5 -116.5t-139.5 -42.5q-65 0 -125 27t-99 76l62 67q28 -40 75 -61.5t94 -21.5q41 0 66.5 15t25.5 45q0 29 -25 42.5t-81 24.5q-35 7 -53.5 11.5t-49 16.5t-46.5 26.5t-29 39.5t-13 58q0 73 53.5 113.5t131.5 40.5q113 0 181 -71l-53 -65
q-48 51 -131 51q-37 0 -61 -16t-24 -47q0 -23 16.5 -37.5t38 -20.5t63.5 -14q23 -5 32 -7t30.5 -7.5t31.5 -10t26.5 -12.5t25 -17.5t17.5 -22t13 -29t4 -35.5zM154 -220l75 163l81 -38l-92 -156z" />
    <glyph glyph-name="uni021A" unicode="&#x21a;" horiz-adv-x="611" 
d="M356 604v-604h-101v604h-233v96h567v-96h-233zM198 -220l75 163l81 -38l-92 -156z" />
    <glyph glyph-name="uni021B" unicode="&#x21b;" horiz-adv-x="436" 
d="M414 41q-62 -47 -134 -47q-69 0 -116 43t-47 122v255h-105v88h105v134h99v-134h154v-88h-154v-244q0 -42 24.5 -64.5t62.5 -22.5q44 0 83 28zM170 -220l75 163l81 -38l-92 -156z" />
    <glyph glyph-name="circumflex" unicode="&#x2c6;" horiz-adv-x="376" 
d="M188 813l188 -144l-49 -64l-139 105l-139 -105l-49 64z" />
    <glyph glyph-name="caron" unicode="&#x2c7;" horiz-adv-x="376" 
d="M188 601l-188 144l49 64l139 -105l139 105l49 -64z" />
    <glyph glyph-name="breve" unicode="&#x2d8;" horiz-adv-x="325" 
d="M244 764h81q-1 -68 -42 -115.5t-120 -47.5q-80 0 -121 47.5t-42 115.5h82q2 -85 81 -85q78 0 81 85z" />
    <glyph glyph-name="dotaccent" unicode="&#x2d9;" horiz-adv-x="141" 
d="M71 738q31 0 50.5 -20t19.5 -48q0 -29 -19.5 -49t-50.5 -20q-32 0 -51.5 20t-19.5 49q0 28 20 48t51 20z" />
    <glyph glyph-name="ring" unicode="&#x2da;" horiz-adv-x="286" 
d="M143 601q-62 0 -102.5 41t-40.5 102t40.5 102t102.5 41t102.5 -41t40.5 -102t-40.5 -102t-102.5 -41zM143 666q34 0 54.5 22.5t20.5 55.5t-20.5 55.5t-54.5 22.5t-54.5 -22.5t-20.5 -55.5t20.5 -55.5t54.5 -22.5z" />
    <glyph glyph-name="ogonek" unicode="&#x2db;" horiz-adv-x="214" 
d="M200 -279q-95 6 -147.5 50t-52.5 103q0 40 28 76.5t81 60.5l59 -11q-80 -33 -80 -99q0 -34 31 -59t95 -32z" />
    <glyph glyph-name="tilde" unicode="&#x2dc;" horiz-adv-x="396" 
d="M339 748l57 -32q-50 -115 -120 -115q-31 0 -86 36q-44 28 -64 28q-12 0 -22 -5t-19 -16t-14 -19t-15 -25l-56 36q53 112 130 112q33 0 91 -38q36 -23 56 -23t33 14t29 47z" />
    <glyph glyph-name="hungarumlaut" unicode="&#x2dd;" horiz-adv-x="336" 
d="M171 772l-82 -171h-89l73 171h98zM336 772l-82 -171h-89l73 171h98z" />
    <glyph glyph-name="uni0326" unicode="&#x326;" horiz-adv-x="0" 
d="M-156 -220l75 163l81 -38l-92 -156z" />
    <glyph glyph-name="uni0394" unicode="&#x394;" horiz-adv-x="742" 
d="M421 700l299 -700h-698l299 700h100zM570 94l-199 477l-199 -477h398z" />
    <glyph glyph-name="uni03A9" unicode="&#x3a9;" horiz-adv-x="764" 
d="M508 170v-76h161v-94h-246v222q85 18 135.5 71.5t50.5 131.5q0 87 -65.5 140.5t-161.5 53.5t-161.5 -53.5t-65.5 -140.5q0 -78 50.5 -131.5t135.5 -71.5v-222h-246v94h160v76q-203 71 -203 260q0 130 95 208t235 78t235 -78t95 -208q0 -189 -204 -260z" />
    <glyph glyph-name="uni03BC" unicode="&#x3bc;" horiz-adv-x="576" 
d="M406 502h98v-502h-96v89q-24 -44 -67 -69.5t-98 -25.5t-85 41v-256h-98v723h98v-300q0 -56 30.5 -88t79.5 -32q56 0 97 42.5t41 119.5v258z" />
    <glyph glyph-name="pi" unicode="&#x3c0;" horiz-adv-x="808" 
d="M698 101l38 -74q-46 -33 -106 -33q-68 0 -113 45.5t-45 120.5v249h-174v-409h-101v409h-125v93h648v-93h-150v-246q0 -39 19 -60.5t52 -21.5t57 20z" />
    <glyph glyph-name="uni1E02" unicode="&#x1e02;" horiz-adv-x="609" 
d="M296 914q31 0 50.5 -20t19.5 -48q0 -29 -19.5 -49t-50.5 -20q-32 0 -51.5 20t-19.5 49q0 28 19.5 48t51.5 20zM408 373q73 -14 111 -61t38 -106q0 -81 -62.5 -143.5t-167.5 -62.5h-245v700h252q92 0 143 -51t51 -120q0 -54 -31.5 -97.5t-88.5 -58.5zM183 607v-204h125
q55 0 86 32t31 74q0 40 -29.5 69t-82.5 29h-130zM330 93q59 0 92 34t33 79q0 46 -33.5 80.5t-93.5 34.5h-145v-228h147z" />
    <glyph glyph-name="uni1E03" unicode="&#x1e03;" horiz-adv-x="629" 
d="M364 738q31 0 50.5 -20t19.5 -48q0 -29 -19.5 -49t-50.5 -20q-32 0 -51.5 20t-19.5 49q0 28 19.5 48t51.5 20zM347 514q112 0 176 -76t64 -185t-64 -184t-176 -75q-61 0 -108.5 25t-72.5 68v-87h-94v700h98v-279q50 93 177 93zM332 82q70 0 113.5 48t43.5 124
q0 73 -41.5 122.5t-115.5 49.5q-72 0 -117 -48t-45 -124t45 -124t117 -48z" />
    <glyph glyph-name="uni1E0A" unicode="&#x1e0a;" horiz-adv-x="721" 
d="M304 914q31 0 50.5 -20t19.5 -48q0 -29 -19.5 -49t-50.5 -20q-32 0 -51.5 20t-19.5 49q0 28 19.5 48t51.5 20zM82 0v700h229q86 0 156 -29t113 -78t66 -110t23 -127q0 -68 -23.5 -130.5t-68 -113.5t-116 -81.5t-159.5 -30.5h-220zM310 604h-127v-508h126q121 0 189 75.5
t68 179.5q0 103 -68 178t-188 75z" />
    <glyph glyph-name="uni1E0B" unicode="&#x1e0b;" horiz-adv-x="630" 
d="M273 738q31 0 50.5 -20t19.5 -48q0 -29 -19.5 -49t-50.5 -20q-32 0 -51.5 20t-19.5 49q0 28 20 48t51 20zM282 514q61 0 107.5 -24t69.5 -67v277h99v-700h-95v87q-51 -93 -181 -93q-112 0 -176 75t-64 184t64 185t176 76zM298 82q72 0 117 48t45 124t-45 124t-118 48
q-74 0 -115.5 -49.5t-41.5 -122.5q0 -76 43.5 -124t114.5 -48z" />
    <glyph glyph-name="uni1E1E" unicode="&#x1e1e;" horiz-adv-x="569" 
d="M302 914q31 0 50.5 -20t19.5 -48q0 -29 -19.5 -49t-50.5 -20q-32 0 -51.5 20t-19.5 49q0 28 19.5 48t51.5 20zM466 299h-283v-299h-101v700h436v-96h-335v-209h283v-96z" />
    <glyph glyph-name="uni1E1F" unicode="&#x1e1f;" horiz-adv-x="390" 
d="M279 914q31 0 50.5 -20t19.5 -48q0 -29 -19.5 -49t-50.5 -20q-32 0 -51.5 20t-19.5 49q0 28 20 48t51 20zM208 554v-52h135v-88h-135v-414h-98v414h-98v88h98v52q0 80 47.5 125.5t124.5 45.5q75 0 126 -45l-43 -74q-31 30 -76 30q-38 0 -59.5 -21.5t-21.5 -60.5z" />
    <glyph glyph-name="uni1E40" unicode="&#x1e40;" horiz-adv-x="862" 
d="M442 914q31 0 50.5 -20t19.5 -48q0 -29 -19.5 -49t-50.5 -20q-32 0 -51.5 20t-19.5 49q0 28 19.5 48t51.5 20zM658 700h122v-700h-101v519l-200 -368h-96l-200 368v-519h-101v700h122l227 -437z" />
    <glyph glyph-name="uni1E41" unicode="&#x1e41;" horiz-adv-x="886" 
d="M449 738q31 0 50.5 -20t19.5 -48q0 -29 -19.5 -49t-50.5 -20q-32 0 -51.5 20t-19.5 49q0 28 20 48t51 20zM643 514q79 0 125.5 -49.5t46.5 -139.5v-325h-98v306q0 56 -27 88t-73 32q-53 0 -89 -42t-36 -119v-265h-98v306q0 57 -26.5 88.5t-73.5 31.5q-53 0 -88.5 -42
t-35.5 -119v-265h-98v502h96v-83q50 95 153 95q122 0 158 -107q48 107 164 107z" />
    <glyph glyph-name="uni1E56" unicode="&#x1e56;" horiz-adv-x="575" 
d="M283 914q31 0 50.5 -20t19.5 -48q0 -29 -19.5 -49t-50.5 -20q-32 0 -51.5 20t-19.5 49q0 28 20 48t51 20zM320 700q103 0 158.5 -59t55.5 -142q0 -86 -61.5 -150.5t-165.5 -64.5h-124v-284h-101v700h238zM183 377h123q59 0 92 36t33 84q0 45 -30.5 77.5t-85.5 32.5h-132
v-230z" />
    <glyph glyph-name="uni1E57" unicode="&#x1e57;" horiz-adv-x="629" 
d="M351 738q31 0 50.5 -20t19.5 -48q0 -29 -19.5 -49t-50.5 -20q-32 0 -51.5 20t-19.5 49q0 28 20 48t51 20zM347 514q112 0 176 -75.5t64 -182.5q0 -106 -64 -181t-176 -75q-121 0 -177 88v-309h-98v723h96v-81q24 44 70.5 68.5t108.5 24.5zM332 88q70 0 113.5 47.5
t43.5 121.5q0 71 -41.5 120t-115.5 49q-72 0 -117 -47.5t-45 -121.5t45 -121.5t117 -47.5z" />
    <glyph glyph-name="uni1E60" unicode="&#x1e60;" horiz-adv-x="567" 
d="M301 914q31 0 50.5 -20t19.5 -48q0 -29 -19.5 -49t-50.5 -20q-32 0 -51.5 20t-19.5 49q0 28 20 48t51 20zM525 194q0 -97 -68.5 -153.5t-167.5 -56.5q-68 0 -133.5 29t-113.5 85l72 75q34 -44 83.5 -67.5t99.5 -23.5q56 0 90.5 28t34.5 72q0 32 -24.5 56t-46 33t-75.5 27
q-3 1 -5 2t-4.5 1.5t-4.5 1.5q-36 12 -59 20.5t-54 26t-48.5 37t-30.5 51t-13 69.5q0 97 68 153t164 56q132 0 213 -96l-67 -71q-26 33 -67.5 52t-83.5 19q-52 0 -88 -26.5t-36 -74.5q0 -22 8.5 -39.5t21 -29.5t34 -23t39.5 -17.5t46 -15.5q102 -32 139 -56q77 -50 77 -144z
" />
    <glyph glyph-name="uni1E61" unicode="&#x1e61;" horiz-adv-x="495" 
d="M257 738q31 0 50.5 -20t19.5 -48q0 -29 -19.5 -49t-50.5 -20q-32 0 -51.5 20t-19.5 49q0 28 20 48t51 20zM458 153q0 -74 -57.5 -116.5t-139.5 -42.5q-65 0 -125 27t-99 76l62 67q28 -40 75 -61.5t94 -21.5q41 0 66.5 15t25.5 45q0 29 -25 42.5t-81 24.5
q-35 7 -53.5 11.5t-49 16.5t-46.5 26.5t-29 39.5t-13 58q0 73 53.5 113.5t131.5 40.5q113 0 181 -71l-53 -65q-48 51 -131 51q-37 0 -61 -16t-24 -47q0 -23 16.5 -37.5t38 -20.5t63.5 -14q23 -5 32 -7t30.5 -7.5t31.5 -10t26.5 -12.5t25 -17.5t17.5 -22t13 -29t4 -35.5z" />
    <glyph glyph-name="uni1E6A" unicode="&#x1e6a;" horiz-adv-x="611" 
d="M306 914q31 0 50.5 -20t19.5 -48q0 -29 -19.5 -49t-50.5 -20q-32 0 -51.5 20t-19.5 49q0 28 19.5 48t51.5 20zM356 604v-604h-101v604h-233v96h567v-96h-233z" />
    <glyph glyph-name="uni1E6B" unicode="&#x1e6b;" horiz-adv-x="436" 
d="M175 831q31 0 50.5 -20t19.5 -48q0 -29 -19.5 -49t-50.5 -20q-32 0 -51.5 20t-19.5 49t20 48.5t51 19.5zM414 41q-62 -47 -134 -47q-69 0 -116 43t-47 122v255h-105v88h105v134h99v-134h154v-88h-154v-244q0 -42 24.5 -64.5t62.5 -22.5q44 0 83 28z" />
    <glyph glyph-name="Wgrave" unicode="&#x1e80;" horiz-adv-x="1008" 
d="M333 941l265 -86l-25 -79l-265 77zM883 700h109l-226 -700h-96l-166 518l-166 -518h-97l-225 700h108l166 -537l165 537h98l165 -537z" />
    <glyph glyph-name="wgrave" unicode="&#x1e81;" horiz-adv-x="858" 
d="M255 765l265 -86l-25 -79l-265 77zM726 502h110l-186 -502h-92l-129 360l-130 -360h-91l-186 502h105l127 -370l127 370h96l127 -369z" />
    <glyph glyph-name="Wacute" unicode="&#x1e82;" horiz-adv-x="1008" 
d="M430 855l264 86l26 -88l-265 -77zM883 700h109l-226 -700h-96l-166 518l-166 -518h-97l-225 700h108l166 -537l165 537h98l165 -537z" />
    <glyph glyph-name="wacute" unicode="&#x1e83;" horiz-adv-x="858" 
d="M340 679l264 86l26 -88l-265 -77zM726 502h110l-186 -502h-92l-129 360l-130 -360h-91l-186 502h105l127 -370l127 370h96l127 -369z" />
    <glyph glyph-name="Wdieresis" unicode="&#x1e84;" horiz-adv-x="1008" 
d="M390 904q28 0 47.5 -18.5t19.5 -45.5t-19.5 -45.5t-47.5 -18.5t-47 18.5t-19 45.5t19 45.5t47 18.5zM619 904q28 0 47 -18.5t19 -45.5t-19 -45.5t-47 -18.5t-47.5 18.5t-19.5 45.5t19.5 45.5t47.5 18.5zM883 700h109l-226 -700h-96l-166 518l-166 -518h-97l-225 700h108
l166 -537l165 537h98l165 -537z" />
    <glyph glyph-name="wdieresis" unicode="&#x1e85;" horiz-adv-x="858" 
d="M325 729q28 0 47.5 -18.5t19.5 -45.5t-19.5 -45.5t-47.5 -18.5t-47 18.5t-19 45.5t19 45.5t47 18.5zM534 729q28 0 47 -18.5t19 -45.5t-19 -45.5t-47 -18.5t-47.5 18.5t-19.5 45.5t19.5 45.5t47.5 18.5zM726 502h110l-186 -502h-92l-129 360l-130 -360h-91l-186 502h105
l127 -370l127 370h96l127 -369z" />
    <glyph glyph-name="Ygrave" unicode="&#x1ef2;" horiz-adv-x="646" 
d="M161 941l265 -86l-25 -79l-265 77zM634 700l-260 -401v-299h-102v299l-260 401h123l188 -310l188 310h123z" />
    <glyph glyph-name="ygrave" unicode="&#x1ef3;" horiz-adv-x="594" 
d="M147 765l265 -86l-25 -79l-265 77zM424 502h99v-484q0 -116 -67 -184t-179 -68q-92 0 -157.5 46.5t-87.5 126.5l91 34q35 -118 156 -118q69 0 107 39.5t38 112.5v96q-22 -45 -66 -70.5t-101 -25.5q-81 0 -137 50t-56 141v304h98v-281q0 -58 32.5 -91.5t86.5 -33.5
q62 0 102.5 44.5t40.5 117.5v244z" />
    <glyph glyph-name="endash" unicode="&#x2013;" horiz-adv-x="499" 
d="M54 350h391v-89h-391v89z" />
    <glyph glyph-name="emdash" unicode="&#x2014;" horiz-adv-x="690" 
d="M54 350h582v-89h-582v89z" />
    <glyph glyph-name="quoteleft" unicode="&#x2018;" horiz-adv-x="252" 
d="M220 670l-100 -280l-98 38l118 273z" />
    <glyph glyph-name="quoteright" unicode="&#x2019;" horiz-adv-x="252" 
d="M22 466l100 280l98 -38l-118 -273z" />
    <glyph glyph-name="quotesinglbase" unicode="&#x201a;" horiz-adv-x="252" 
d="M22 -139l100 280l98 -38l-118 -273z" />
    <glyph glyph-name="quotedblleft" unicode="&#x201c;" horiz-adv-x="452" 
d="M220 670l-100 -280l-98 38l118 273zM420 670l-100 -280l-98 38l118 273z" />
    <glyph glyph-name="quotedblright" unicode="&#x201d;" horiz-adv-x="452" 
d="M22 466l100 280l98 -38l-118 -273zM222 466l100 280l98 -38l-118 -273z" />
    <glyph glyph-name="quotedblbase" unicode="&#x201e;" horiz-adv-x="452" 
d="M22 -139l100 280l98 -38l-118 -273zM222 -139l100 280l98 -38l-118 -273z" />
    <glyph glyph-name="dagger" unicode="&#x2020;" horiz-adv-x="531" 
d="M315 707v-194h162v-93h-162v-420h-99v420h-162v93h162v194h99z" />
    <glyph glyph-name="daggerdbl" unicode="&#x2021;" horiz-adv-x="531" 
d="M477 449h-162v-191h162v-93h-162v-165h-99v165h-162v93h162v191h-162v93h162v165h99v-165h162v-93z" />
    <glyph glyph-name="bullet" unicode="&#x2022;" horiz-adv-x="229" 
d="M199 271q0 -34 -25 -59.5t-58 -25.5q-35 0 -60.5 25.5t-25.5 59.5t25.5 59t60.5 25q33 0 58 -25t25 -59z" />
    <glyph glyph-name="ellipsis" unicode="&#x2026;" horiz-adv-x="801" 
d="M134 131q31 0 50.5 -20t19.5 -48q0 -29 -19.5 -49t-50.5 -20q-32 0 -51.5 20t-19.5 49t19.5 48.5t51.5 19.5zM401 131q31 0 50.5 -20t19.5 -48q0 -29 -19.5 -49t-50.5 -20q-32 0 -51.5 20t-19.5 49t20 48.5t51 19.5zM668 131q31 0 50.5 -20t19.5 -48q0 -29 -19.5 -49
t-50.5 -20q-32 0 -51.5 20t-19.5 49t19.5 48.5t51.5 19.5z" />
    <glyph glyph-name="perthousand" unicode="&#x2030;" horiz-adv-x="1423" 
d="M289 -16l-60 43l476 689l61 -43zM225 712q79 0 132 -53t53 -130t-53 -130.5t-132 -53.5t-132 53.5t-53 130.5t53 130t132 53zM225 421q45 0 75 31t30 77t-30 77t-75 31t-75 -31t-30 -77t30 -77t75 -31zM770 351q79 0 132 -53t53 -130q0 -78 -53.5 -131t-131.5 -53
t-131.5 53t-53.5 131q0 77 53 130t132 53zM1198 351q79 0 132 -53t53 -130q0 -78 -53.5 -131t-131.5 -53t-131.5 53t-53.5 131q0 77 53 130t132 53zM770 60q45 0 75 31t30 77t-30 77t-75 31t-75 -31t-30 -77t30 -77t75 -31zM1198 60q45 0 75 31t30 77t-30 77t-75 31t-75 -31
t-30 -77t30 -77t75 -31z" />
    <glyph glyph-name="guilsinglleft" unicode="&#x2039;" horiz-adv-x="321" 
d="M131 278l148 -174l-63 -54l-194 228l194 227l63 -54z" />
    <glyph glyph-name="guilsinglright" unicode="&#x203a;" horiz-adv-x="321" 
d="M190 278l-148 173l63 54l194 -227l-194 -228l-63 54z" />
    <glyph glyph-name="fraction" unicode="&#x2044;" horiz-adv-x="679" 
d="M132 -16l-60 43l476 689l61 -43z" />
    <glyph glyph-name="Euro" unicode="&#x20ac;" horiz-adv-x="839" 
d="M723 232l84 -36q-43 -98 -123 -150t-187 -52q-121 0 -205.5 65.5t-113.5 174.5h-126v55h115q-3 25 -3 53q0 26 3 50h-115v55h125q31 116 122 184.5t214 68.5q88 0 159 -37t115 -107l-80 -55q-32 51 -84 78.5t-115 27.5q-80 0 -141.5 -42.5t-86.5 -117.5h306v-55h-319
q-3 -21 -3 -44q0 -27 5 -59h317v-55h-301q29 -69 89 -107.5t135 -38.5q73 0 130 37.5t84 106.5z" />
    <glyph glyph-name="uni2113" unicode="&#x2113;" horiz-adv-x="542" 
d="M404 716q50 0 85.5 -28t35.5 -80q0 -102 -142 -177l-93 -49l-47 -205q-5 -18 -5 -31q0 -29 17.5 -46.5t46.5 -17.5q27 0 61 17l17 -75q-57 -30 -110 -30q-60 0 -98 36t-38 95q0 21 5 44l39 165l-80 -42l-26 60l124 63l34 151q17 74 66.5 112t107.5 38zM361 494
q89 44 89 106q0 23 -13 37t-32 14q-51 0 -66 -62l-29 -121z" />
    <glyph glyph-name="uni2116" unicode="&#x2116;" horiz-adv-x="1170" 
d="M947 712q79 0 132 -53t53 -130t-53 -130.5t-132 -53.5t-132 53.5t-53 130.5t53 130t132 53zM564 700h102v-700h-110l-373 530v-530h-101v700h110l372 -539v539zM947 421q45 0 75 31t30 77t-30 77t-75 31t-75 -31t-30 -77t30 -77t75 -31z" />
    <glyph glyph-name="trademark" unicode="&#x2122;" horiz-adv-x="830" 
d="M42 631v69h313v-69h-120v-285h-74v285h-119zM697 700h91v-354h-72v239l-90 -159h-56l-91 158v-238h-71v354h89l101 -189z" />
    <glyph glyph-name="estimated" unicode="&#x212e;" horiz-adv-x="505" 
d="M267 31q123 0 146 118h45q-11 -79 -65 -119.5t-129 -40.5q-96 0 -159 63.5t-63 189.5q0 127 62.5 193.5t155.5 66.5q85 0 144 -55t59 -155q0 -32 -3 -50h-339v-127q44 -84 146 -84zM121 287h253v118q-39 55 -114 55q-43 0 -80.5 -20t-58.5 -55v-98z" />
    <glyph glyph-name="uni2153" unicode="&#x2153;" horiz-adv-x="930" 
d="M237 -16l-60 43l476 689l61 -43zM142 275v347h-60v71h135v-418h-75zM767 219q81 -26 81 -102q0 -54 -41 -89t-103 -35q-50 0 -91 26t-60 71l65 33q27 -61 90 -61q29 0 47 14.5t18 39.5q0 63 -100 63h-29v64q54 0 83 16.5t29 46.5q0 22 -15.5 35t-41.5 13q-56 0 -82 -52
l-56 37q19 39 57.5 62t85.5 23q55 0 91.5 -30t36.5 -76q0 -31 -17.5 -57.5t-47.5 -41.5z" />
    <glyph glyph-name="uni2154" unicode="&#x2154;" horiz-adv-x="1065" 
d="M374 -16l-60 43l476 689l61 -43zM195 347h191v-71h-294v64l131 117q23 22 33.5 32.5t24 33.5t13.5 44q0 27 -18 44.5t-46 17.5q-35 0 -56 -25t-21 -64l-71 6q0 67 43 110.5t108 43.5q59 0 98 -37t39 -93q0 -27 -9 -51.5t-26.5 -45t-27 -29.5t-26.5 -23zM902 219
q81 -26 81 -102q0 -54 -41 -89t-103 -35q-50 0 -91 26t-60 71l65 33q27 -61 90 -61q29 0 47 14.5t18 39.5q0 63 -100 63h-29v64q54 0 83 16.5t29 46.5q0 22 -15.5 35t-41.5 13q-56 0 -82 -52l-56 37q19 39 57.5 62t85.5 23q55 0 91.5 -30t36.5 -76q0 -31 -17.5 -57.5
t-47.5 -41.5z" />
    <glyph glyph-name="uni2155" unicode="&#x2155;" horiz-adv-x="991" 
d="M237 -16l-60 43l476 689l61 -43zM142 275v347h-60v71h135v-418h-75zM771 277q64 0 101 -38.5t37 -97.5q0 -62 -41.5 -105t-111.5 -43q-53 0 -95 26.5t-58 72.5l69 32q7 -28 30.5 -44.5t55.5 -16.5q35 0 55 21.5t20 52.5q0 30 -20.5 52.5t-54.5 22.5q-51 0 -75 -39h-60
v245h251v-70h-185v-98q33 27 82 27z" />
    <glyph glyph-name="uni2156" unicode="&#x2156;" horiz-adv-x="1128" 
d="M374 -16l-60 43l476 689l61 -43zM195 347h191v-71h-294v64l131 117q23 22 33.5 32.5t24 33.5t13.5 44q0 27 -18 44.5t-46 17.5q-35 0 -56 -25t-21 -64l-71 6q0 67 43 110.5t108 43.5q59 0 98 -37t39 -93q0 -27 -9 -51.5t-26.5 -45t-27 -29.5t-26.5 -23zM908 277
q64 0 101 -38.5t37 -97.5q0 -62 -41.5 -105t-111.5 -43q-53 0 -95 26.5t-58 72.5l69 32q7 -28 30.5 -44.5t55.5 -16.5q35 0 55 21.5t20 52.5q0 30 -20.5 52.5t-54.5 22.5q-51 0 -75 -39h-60v245h251v-70h-185v-98q33 27 82 27z" />
    <glyph glyph-name="uni2157" unicode="&#x2157;" horiz-adv-x="1126" 
d="M370 -16l-60 43l476 689l61 -43zM296 495q81 -26 81 -102q0 -54 -41 -89t-103 -35q-50 0 -91 26t-60 71l65 33q27 -61 90 -61q29 0 47 14.5t18 39.5q0 63 -100 63h-29v64q54 0 83 16.5t29 46.5q0 22 -15.5 35t-41.5 13q-56 0 -82 -52l-56 37q19 39 57.5 62t85.5 23
q55 0 91.5 -30t36.5 -76q0 -31 -17.5 -57.5t-47.5 -41.5zM906 277q64 0 101 -38.5t37 -97.5q0 -62 -41.5 -105t-111.5 -43q-53 0 -95 26.5t-58 72.5l69 32q7 -28 30.5 -44.5t55.5 -16.5q35 0 55 21.5t20 52.5q0 30 -20.5 52.5t-54.5 22.5q-51 0 -75 -39h-60v245h251v-70
h-185v-98q33 27 82 27z" />
    <glyph glyph-name="uni2158" unicode="&#x2158;" horiz-adv-x="1152" 
d="M397 -16l-60 43l476 689l61 -43zM343 446h73v-70h-73v-100h-75v100h-186v63l187 255h74v-248zM159 446h109v149zM932 277q64 0 101 -38.5t37 -97.5q0 -62 -41.5 -105t-111.5 -43q-53 0 -95 26.5t-58 72.5l69 32q7 -28 30.5 -44.5t55.5 -16.5q35 0 55 21.5t20 52.5
q0 30 -20.5 52.5t-54.5 22.5q-51 0 -75 -39h-60v245h251v-70h-185v-98q33 27 82 27z" />
    <glyph glyph-name="uni2159" unicode="&#x2159;" horiz-adv-x="953" 
d="M237 -16l-60 43l476 689l61 -43zM142 275v347h-60v71h135v-418h-75zM733 277q62 0 100 -38t38 -99q0 -64 -42.5 -105.5t-108.5 -41.5q-75 0 -121 53.5t-46 139.5q0 111 70 174.5t190 63.5l2 -71q-158 0 -179 -116q38 40 97 40zM720 63q34 0 54.5 21t20.5 55t-21 55
t-54 21q-34 0 -56.5 -21.5t-22.5 -54.5t22.5 -54.5t56.5 -21.5z" />
    <glyph glyph-name="uni215A" unicode="&#x215a;" horiz-adv-x="1071" 
d="M355 -16l-60 43l476 689l61 -43zM250 553q64 0 101 -38.5t37 -97.5q0 -62 -41.5 -105t-111.5 -43q-53 0 -95 26.5t-58 72.5l69 32q7 -28 30.5 -44.5t55.5 -16.5q35 0 55 21.5t20 52.5q0 30 -20.5 52.5t-54.5 22.5q-51 0 -75 -39h-60v245h251v-70h-185v-98q33 27 82 27z
M851 277q62 0 100 -38t38 -99q0 -64 -42.5 -105.5t-108.5 -41.5q-75 0 -121 53.5t-46 139.5q0 111 70 174.5t190 63.5l2 -71q-158 0 -179 -116q38 40 97 40zM838 63q34 0 54.5 21t20.5 55t-21 55t-54 21q-34 0 -56.5 -21.5t-22.5 -54.5t22.5 -54.5t56.5 -21.5z" />
    <glyph glyph-name="oneeighth" unicode="&#x215b;" horiz-adv-x="961" 
d="M237 -16l-60 43l476 689l61 -43zM142 275v347h-60v71h135v-418h-75zM796 219q83 -30 83 -106q0 -52 -43.5 -85.5t-110.5 -33.5q-68 0 -110.5 33t-42.5 86q0 36 21.5 65.5t57.5 42.5q-61 31 -61 93q0 49 37.5 79.5t99.5 30.5q61 0 97.5 -29.5t36.5 -78.5q0 -31 -17 -57
t-48 -40zM664 305q0 -45 73 -60q23 8 37 24.5t14 36.5q0 22 -16.5 35t-45.5 13q-28 0 -45 -13t-17 -36zM728 63q35 0 55.5 15.5t20.5 39.5q0 50 -99 72q-27 -9 -42.5 -27t-15.5 -40q0 -27 21.5 -43.5t59.5 -16.5z" />
    <glyph glyph-name="threeeighths" unicode="&#x215c;" horiz-adv-x="1094" 
d="M370 -16l-60 43l476 689l61 -43zM296 495q81 -26 81 -102q0 -54 -41 -89t-103 -35q-50 0 -91 26t-60 71l65 33q27 -61 90 -61q29 0 47 14.5t18 39.5q0 63 -100 63h-29v64q54 0 83 16.5t29 46.5q0 22 -15.5 35t-41.5 13q-56 0 -82 -52l-56 37q19 39 57.5 62t85.5 23
q55 0 91.5 -30t36.5 -76q0 -31 -17.5 -57.5t-47.5 -41.5zM929 219q83 -30 83 -106q0 -52 -43.5 -85.5t-110.5 -33.5q-68 0 -110.5 33t-42.5 86q0 36 21.5 65.5t57.5 42.5q-61 31 -61 93q0 49 37.5 79.5t99.5 30.5q61 0 97.5 -29.5t36.5 -78.5q0 -31 -17 -57t-48 -40z
M797 305q0 -45 73 -60q23 8 37 24.5t14 36.5q0 22 -16.5 35t-45.5 13q-28 0 -45 -13t-17 -36zM861 63q35 0 55.5 15.5t20.5 39.5q0 50 -99 72q-27 -9 -42.5 -27t-15.5 -40q0 -27 21.5 -43.5t59.5 -16.5z" />
    <glyph glyph-name="fiveeighths" unicode="&#x215d;" horiz-adv-x="1078" 
d="M355 -16l-60 43l476 689l61 -43zM250 553q64 0 101 -38.5t37 -97.5q0 -62 -41.5 -105t-111.5 -43q-53 0 -95 26.5t-58 72.5l69 32q7 -28 30.5 -44.5t55.5 -16.5q35 0 55 21.5t20 52.5q0 30 -20.5 52.5t-54.5 22.5q-51 0 -75 -39h-60v245h251v-70h-185v-98q33 27 82 27z
M913 219q83 -30 83 -106q0 -52 -43.5 -85.5t-110.5 -33.5q-68 0 -110.5 33t-42.5 86q0 36 21.5 65.5t57.5 42.5q-61 31 -61 93q0 49 37.5 79.5t99.5 30.5q61 0 97.5 -29.5t36.5 -78.5q0 -31 -17 -57t-48 -40zM781 305q0 -45 73 -60q23 8 37 24.5t14 36.5q0 22 -16.5 35
t-45.5 13q-28 0 -45 -13t-17 -36zM845 63q35 0 55.5 15.5t20.5 39.5q0 50 -99 72q-27 -9 -42.5 -27t-15.5 -40q0 -27 21.5 -43.5t59.5 -16.5z" />
    <glyph glyph-name="seveneighths" unicode="&#x215e;" horiz-adv-x="1032" 
d="M306 -16l-60 43l476 689l61 -43zM135 276l176 344h-229v74h312v-65l-174 -353h-85zM867 219q83 -30 83 -106q0 -52 -43.5 -85.5t-110.5 -33.5q-68 0 -110.5 33t-42.5 86q0 36 21.5 65.5t57.5 42.5q-61 31 -61 93q0 49 37.5 79.5t99.5 30.5q61 0 97.5 -29.5t36.5 -78.5
q0 -31 -17 -57t-48 -40zM735 305q0 -45 73 -60q23 8 37 24.5t14 36.5q0 22 -16.5 35t-45.5 13q-28 0 -45 -13t-17 -36zM799 63q35 0 55.5 15.5t20.5 39.5q0 50 -99 72q-27 -9 -42.5 -27t-15.5 -40q0 -27 21.5 -43.5t59.5 -16.5z" />
    <glyph glyph-name="arrowleft" unicode="&#x2190;" horiz-adv-x="655" 
d="M299 50l-259 257l259 258l51 -50l-173 -171h438v-73h-438l173 -171z" />
    <glyph glyph-name="arrowup" unicode="&#x2191;" horiz-adv-x="595" 
d="M555 316l-50 -51l-171 173v-438h-73v438l-171 -173l-50 51l258 259z" />
    <glyph glyph-name="arrowright" unicode="&#x2192;" horiz-adv-x="655" 
d="M356 50l-51 50l173 171h-438v73h438l-173 171l51 50l259 -258z" />
    <glyph glyph-name="arrowdown" unicode="&#x2193;" horiz-adv-x="595" 
d="M555 259l-257 -259l-258 259l50 51l171 -173v438h73v-438l171 173z" />
    <glyph glyph-name="partialdiff" unicode="&#x2202;" horiz-adv-x="606" 
d="M42 232q0 102 62.5 163.5t154.5 61.5q63 0 117 -31t77 -87q-9 135 -93.5 201.5t-222.5 67.5l3 92q195 0 304.5 -107t109.5 -282q0 -148 -77 -232.5t-193 -84.5q-103 0 -172.5 65t-69.5 173zM285 87q65 0 105.5 40t40.5 102q0 64 -43 101t-102 37t-100.5 -36t-41.5 -103
q0 -62 38 -101.5t103 -39.5z" />
    <glyph glyph-name="product" unicode="&#x220f;" horiz-adv-x="797" 
d="M621 612v-612h-101v612h-244v-612h-100v612h-94v88h633v-88h-94z" />
    <glyph glyph-name="summation" unicode="&#x2211;" horiz-adv-x="670" 
d="M608 97v-97h-566v92l281 257l-263 261v90h518v-97h-367l250 -254l-269 -252h416z" />
    <glyph glyph-name="minus" unicode="&#x2212;" 
d="M504 356v-87h-408v87h408z" />
    <glyph glyph-name="radical" unicode="&#x221a;" horiz-adv-x="615" 
d="M487 700h106l-279 -700h-87l-205 502h107l142 -371z" />
    <glyph glyph-name="infinity" unicode="&#x221e;" horiz-adv-x="885" 
d="M637 514q86 0 146 -62.5t60 -160.5q0 -99 -61 -161t-151 -62q-129 0 -193 130q-64 -130 -190 -130q-87 0 -146.5 62t-59.5 160q0 99 60.5 161.5t149.5 62.5q133 0 196 -131q66 131 189 131zM253 156q53 0 95 38t57 104q-14 57 -56 92.5t-95 35.5q-54 0 -87.5 -36.5
t-33.5 -99.5q0 -61 33.5 -97.5t86.5 -36.5zM630 156q54 0 88.5 35.5t34.5 97.5t-34.5 99.5t-87.5 37.5q-52 0 -93.5 -39t-57.5 -105q15 -58 56 -92t94 -34z" />
    <glyph glyph-name="integral" unicode="&#x222b;" horiz-adv-x="413" 
d="M305 725q75 0 126 -45l-44 -74q-30 30 -75 30q-38 0 -59.5 -21.5t-21.5 -60.5v-399q0 -80 -48 -125.5t-125 -45.5q-76 0 -126 46l44 73q31 -29 75 -29q38 0 59.5 21.5t21.5 60.5v398q0 80 48 125.5t125 45.5z" />
    <glyph glyph-name="approxequal" unicode="&#x2248;" 
d="M504 442v-90q-40 -20 -98 -20q-37 0 -99.5 21.5t-101.5 21.5q-67 0 -109 -32v87q44 29 111 29q38 0 100 -22t102 -22q64 0 95 27zM504 273v-90q-40 -20 -98 -20q-37 0 -99.5 21.5t-101.5 21.5q-67 0 -109 -32v87q44 29 111 29q38 0 100 -21.5t102 -21.5q65 0 95 26z" />
    <glyph glyph-name="notequal" unicode="&#x2260;" 
d="M504 351h-145l-42 -77h187v-84h-233l-67 -121l-62 35l47 86h-93v84h140l42 77h-182v84h228l72 130l61 -36l-52 -94h99v-84z" />
    <glyph glyph-name="lessequal" unicode="&#x2264;" 
d="M483 541l-277 -160l277 -161l-42 -72l-323 187v91l323 187zM119 88h364v-88h-364v88z" />
    <glyph glyph-name="greaterequal" unicode="&#x2265;" 
d="M118 541l42 72l323 -187v-91l-323 -187l-42 72l277 161zM482 88v-88h-364v88h364z" />
    <glyph glyph-name="lozenge" unicode="&#x25ca;" horiz-adv-x="686" 
d="M604 336l-261 -347l-261 347l261 346zM486 336l-143 197l-143 -197l143 -198z" />
    <glyph glyph-name="uniA729" unicode="&#xa729;" horiz-adv-x="792" 
d="M538 188q105 -13 159 -66.5t54 -133.5q0 -98 -69 -160.5t-177 -62.5q-68 0 -127.5 29t-98.5 82l71 63q28 -41 70.5 -63t88.5 -22q63 0 103.5 35.5t40.5 91.5q0 61 -56 98.5t-167 36.5v79l195 219h-399v-414h-99v414h-115v89h115v133h99v-133h525v-85z" />
    <glyph glyph-name="a.ss01" horiz-adv-x="630" 
d="M558 502v-502h-95v87q-51 -93 -181 -93q-112 0 -176 75t-64 184t64 185t176 76q63 0 110 -25.5t69 -70.5v84h97zM298 82q72 0 117 48t45 124t-45 124t-118 48q-74 0 -115.5 -49.5t-41.5 -122.5q0 -76 43.5 -124t114.5 -48z" />
    <glyph glyph-name="aacute.ss01" horiz-adv-x="630" 
d="M224 679l264 86l26 -88l-265 -77zM558 502v-502h-95v87q-51 -93 -181 -93q-112 0 -176 75t-64 184t64 185t176 76q63 0 110 -25.5t69 -70.5v84h97zM298 82q72 0 117 48t45 124t-45 124t-118 48q-74 0 -115.5 -49.5t-41.5 -122.5q0 -76 43.5 -124t114.5 -48z" />
    <glyph glyph-name="abreve.ss01" horiz-adv-x="630" 
d="M389 764h81q-1 -68 -42 -115.5t-120 -47.5q-80 0 -121 47.5t-42 115.5h82q2 -85 81 -85q78 0 81 85zM558 502v-502h-95v87q-51 -93 -181 -93q-112 0 -176 75t-64 184t64 185t176 76q63 0 110 -25.5t69 -70.5v84h97zM298 82q72 0 117 48t45 124t-45 124t-118 48
q-74 0 -115.5 -49.5t-41.5 -122.5q0 -76 43.5 -124t114.5 -48z" />
    <glyph glyph-name="acircumflex.ss01" horiz-adv-x="630" 
d="M314 813l188 -144l-49 -64l-139 105l-139 -105l-49 64zM558 502v-502h-95v87q-51 -93 -181 -93q-112 0 -176 75t-64 184t64 185t176 76q63 0 110 -25.5t69 -70.5v84h97zM298 82q72 0 117 48t45 124t-45 124t-118 48q-74 0 -115.5 -49.5t-41.5 -122.5q0 -76 43.5 -124
t114.5 -48z" />
    <glyph glyph-name="adieresis.ss01" horiz-adv-x="630" 
d="M213 729q28 0 47.5 -18.5t19.5 -45.5t-19.5 -45.5t-47.5 -18.5t-47 18.5t-19 45.5t19 45.5t47 18.5zM422 729q28 0 47 -18.5t19 -45.5t-19 -45.5t-47 -18.5t-47.5 18.5t-19.5 45.5t19.5 45.5t47.5 18.5zM558 502v-502h-95v87q-51 -93 -181 -93q-112 0 -176 75t-64 184
t64 185t176 76q63 0 110 -25.5t69 -70.5v84h97zM298 82q72 0 117 48t45 124t-45 124t-118 48q-74 0 -115.5 -49.5t-41.5 -122.5q0 -76 43.5 -124t114.5 -48z" />
    <glyph glyph-name="agrave.ss01" horiz-adv-x="630" 
d="M158 765l265 -86l-25 -79l-265 77zM558 502v-502h-95v87q-51 -93 -181 -93q-112 0 -176 75t-64 184t64 185t176 76q63 0 110 -25.5t69 -70.5v84h97zM298 82q72 0 117 48t45 124t-45 124t-118 48q-74 0 -115.5 -49.5t-41.5 -122.5q0 -76 43.5 -124t114.5 -48z" />
    <glyph glyph-name="amacron.ss01" horiz-adv-x="630" 
d="M154 680h310v-80h-310v80zM558 502v-502h-95v87q-51 -93 -181 -93q-112 0 -176 75t-64 184t64 185t176 76q63 0 110 -25.5t69 -70.5v84h97zM298 82q72 0 117 48t45 124t-45 124t-118 48q-74 0 -115.5 -49.5t-41.5 -122.5q0 -76 43.5 -124t114.5 -48z" />
    <glyph glyph-name="aogonek.ss01" horiz-adv-x="630" 
d="M460 -99q0 -34 31 -59t95 -32l-14 -89q-95 6 -147.5 50t-52.5 103q0 78 91 128v85q-51 -93 -181 -93q-112 0 -176 75t-64 184t64 185t176 76q63 0 110 -25.5t69 -70.5v84h97v-502h-18q-80 -33 -80 -99zM298 82q72 0 117 48t45 124t-45 124t-118 48q-74 0 -115.5 -49.5
t-41.5 -122.5q0 -76 43.5 -124t114.5 -48z" />
    <glyph glyph-name="aring.ss01" horiz-adv-x="630" 
d="M308 601q-62 0 -102.5 41t-40.5 102t40.5 102t102.5 41t102.5 -41t40.5 -102t-40.5 -102t-102.5 -41zM308 666q34 0 54.5 22.5t20.5 55.5t-20.5 55.5t-54.5 22.5t-54.5 -22.5t-20.5 -55.5t20.5 -55.5t54.5 -22.5zM558 502v-502h-95v87q-51 -93 -181 -93q-112 0 -176 75
t-64 184t64 185t176 76q63 0 110 -25.5t69 -70.5v84h97zM298 82q72 0 117 48t45 124t-45 124t-118 48q-74 0 -115.5 -49.5t-41.5 -122.5q0 -76 43.5 -124t114.5 -48z" />
    <glyph glyph-name="atilde.ss01" horiz-adv-x="630" 
d="M461 748l57 -32q-50 -115 -120 -115q-31 0 -86 36q-44 28 -64 28q-12 0 -22 -5t-19 -16t-14 -19t-15 -25l-56 36q53 112 130 112q33 0 91 -38q36 -23 56 -23t33 14t29 47zM558 502v-502h-95v87q-51 -93 -181 -93q-112 0 -176 75t-64 184t64 185t176 76q63 0 110 -25.5
t69 -70.5v84h97zM298 82q72 0 117 48t45 124t-45 124t-118 48q-74 0 -115.5 -49.5t-41.5 -122.5q0 -76 43.5 -124t114.5 -48z" />
    <glyph glyph-name="l.ss01" horiz-adv-x="242" 
d="M72 0v700h98v-700h-98z" />
    <glyph glyph-name="lacute.ss01" horiz-adv-x="242" 
d="M72 855l264 86l26 -88l-265 -77zM72 0v700h98v-700h-98z" />
    <glyph glyph-name="lcaron.ss01" horiz-adv-x="483" 
d="M253 441l100 280l98 -38l-118 -273zM72 0v700h98v-700h-98z" />
    <glyph glyph-name="uni013C.ss01" horiz-adv-x="242" 
d="M72 0v700h98v-700h-98zM8 -220l75 163l81 -38l-92 -156z" />
    <glyph glyph-name="ldot.ss01" horiz-adv-x="464" 
d="M72 0v700h98v-700h-98zM354 483q31 0 50.5 -20t19.5 -48q0 -29 -19.5 -49t-50.5 -20q-32 0 -51.5 20t-19.5 49t19.5 48.5t51.5 19.5z" />
    <glyph glyph-name="lslash.ss01" horiz-adv-x="391" 
d="M391 475l-150 -78v-397h-98v346l-117 -61l-26 53l143 74v288h98v-237l124 64z" />
    <glyph glyph-name="f_f_j" horiz-adv-x="992" 
d="M910 502v-571q0 -74 -42.5 -120t-110.5 -46q-51 0 -100 28l31 78q28 -17 55 -17q30 0 49.5 19.5t19.5 56.5v484h-253v-414h-98v414h-253v-414h-98v414h-98v88h98v52q0 80 47.5 125.5t124.5 45.5q61 0 104 -34l-35 -78q-28 23 -62 23q-38 0 -59.5 -21.5t-21.5 -60.5v-52
h253v52q0 80 47.5 125.5t124.5 45.5q75 0 127 -45l-44 -74q-31 30 -76 30q-38 0 -59.5 -21.5t-21.5 -60.5v-52h351z" />
    <glyph glyph-name="f_f_t" horiz-adv-x="1131" 
d="M1080 111l29 -70q-62 -47 -134 -47q-69 0 -116 43t-47 122v255h-253v-414h-98v414h-253v-414h-98v414h-98v88h98v52q0 80 47.5 125.5t124.5 45.5q61 0 104 -34l-35 -78q-28 23 -62 23q-38 0 -59.5 -21.5t-21.5 -60.5v-52h253v52q0 80 47.5 125.5t124.5 45.5q62 0 103 -34
l-33 -79q-27 24 -63 24q-38 0 -59.5 -21.5t-21.5 -60.5v-52h253v134h98v-134h154v-88h-154v-244q0 -42 24.5 -64.5t62.5 -22.5q44 0 83 28z" />
    <glyph glyph-name="f_j" horiz-adv-x="641" 
d="M559 502v-571q0 -74 -42.5 -120t-110.5 -46q-52 0 -101 28l32 78q28 -17 55 -17q30 0 49.5 19.5t19.5 56.5v484h-253v-414h-98v414h-98v88h98v52q0 80 47.5 125.5t124.5 45.5q75 0 126 -45l-43 -74q-31 30 -76 30q-38 0 -59.5 -21.5t-21.5 -60.5v-52h351z" />
    <glyph glyph-name="f_t" horiz-adv-x="780" 
d="M729 111l29 -70q-62 -47 -135 -47q-69 0 -115.5 43t-46.5 122v255h-253v-414h-98v414h-98v88h98v52q0 80 47.5 125.5t124.5 45.5q62 0 103 -34l-33 -79q-27 24 -63 24q-38 0 -59.5 -21.5t-21.5 -60.5v-52h253v134h98v-134h154v-88h-154v-244q0 -42 24.5 -64.5t62.5 -22.5
q44 0 83 28z" />
    <glyph glyph-name="t_t" horiz-adv-x="788" 
d="M568 414v-244q0 -42 24.5 -64.5t61.5 -22.5q44 0 84 28l28 -70q-62 -47 -134 -47q-69 0 -116 43t-47 122v255h-253v-244q0 -42 24.5 -64.5t62.5 -22.5q37 0 66 21l24 -74q-51 -36 -113 -36q-69 0 -116 43t-47 122v255h-105v88h105v134h99v-134h253v134h99v-134h154v-88
h-154z" />
    <glyph glyph-name="ordfeminine.ss01" horiz-adv-x="491" 
d="M449 703v-388h-78v60q-43 -68 -136 -68q-89 0 -141 57t-52 141q0 85 53.5 146t141.5 61q85 0 127 -57v48h85zM244 385q53 0 86 34.5t33 88.5q0 57 -33 91.5t-86 34.5t-84.5 -34.5t-31.5 -92.5q0 -54 32.5 -88t83.5 -34z" />
    <glyph glyph-name="zero.tf" 
d="M300 700q122 0 188.5 -90t66.5 -252v-22q0 -162 -66.5 -252t-188.5 -90q-123 0 -189 90t-66 252v22q0 162 66 252t189 90zM453 358q0 249 -153 249t-153 -249v-22q0 -249 153 -249t153 249v22z" />
    <glyph glyph-name="one.tf" 
d="M97 601q54 5 108.5 29t84.5 60h84v-601h178v-89h-455v89h177v483q-29 -21 -76.5 -36t-90.5 -19z" />
    <glyph glyph-name="two.tf" 
d="M200 93h345v-93h-474v89l219 202q29 26 43 39.5t37.5 42t34.5 56.5t11 58q0 56 -36 88t-87 32q-56 0 -98.5 -39t-45.5 -110l-93 7q5 112 76.5 174t166.5 62q91 0 154.5 -56.5t63.5 -150.5q0 -21 -3 -40.5t-10.5 -38t-13 -32.5t-18.5 -30.5t-19.5 -26t-22.5 -25t-20.5 -20
t-21 -19t-17.5 -15.5z" />
    <glyph glyph-name="three.tf" 
d="M368 362q80 -15 124 -59.5t44 -111.5q0 -88 -67.5 -142.5t-162.5 -54.5q-77 0 -142 38.5t-99 110.5l89 48q23 -52 64.5 -79t92.5 -27q53 0 89 28t36 76q0 58 -48 90t-136 32h-32v82q88 0 137.5 31t49.5 88q0 45 -31.5 70t-79.5 25q-43 0 -82.5 -22t-63.5 -62l-72 46
q33 63 93.5 97t132.5 34q86 0 145 -46t59 -120q0 -59 -38.5 -106.5t-101.5 -65.5z" />
    <glyph glyph-name="four.tf" 
d="M456 263h125v-93h-125v-170h-100v170h-316v89l312 431h104v-427zM141 263h215v297z" />
    <glyph glyph-name="five.tf" 
d="M325 456q106 0 163 -64t57 -158q0 -103 -68 -171.5t-178 -68.5q-80 0 -147.5 40.5t-96.5 114.5l90 43q17 -50 61.5 -77.5t96.5 -27.5q66 0 103 39.5t37 98.5q0 60 -37.5 100.5t-102.5 40.5q-89 0 -135 -66h-81v390h399v-93h-313v-195q57 54 152 54z" />
    <glyph glyph-name="six.tf" 
d="M556 232q0 -108 -69.5 -173t-172.5 -65q-116 0 -193 84.5t-77 232.5q0 175 109.5 282t304.5 107l3 -92q-138 -1 -222.5 -67.5t-93.5 -201.5q23 56 77 87t117 31q92 0 154.5 -61.5t62.5 -163.5zM313 87q65 0 103 39.5t38 101.5q0 67 -41.5 103t-100.5 36t-102 -37
t-43 -101q0 -62 40.5 -102t105.5 -40z" />
    <glyph glyph-name="seven.tf" 
d="M148 0l299 592h-397v98h501v-94l-293 -596h-110z" />
    <glyph glyph-name="eight.tf" 
d="M409 363q139 -49 139 -172q0 -88 -69 -142.5t-180 -54.5q-110 0 -178.5 54t-68.5 142q0 62 34 108t99 68q-105 49 -105 153q0 82 62.5 131.5t160.5 49.5q96 0 156.5 -48t60.5 -128q0 -53 -29 -95t-82 -66zM181 511q0 -71 100 -101l40 -12q43 13 71 46t28 71
q0 41 -32 67.5t-86 26.5t-87.5 -27.5t-33.5 -70.5zM301 85q65 0 105.5 30t40.5 77q0 87 -133 119l-51 12q-49 -12 -79.5 -47.5t-30.5 -80.5q0 -50 40.5 -80t107.5 -30z" />
    <glyph glyph-name="nine.tf" 
d="M44 462q0 108 69.5 173t172.5 65q116 0 193 -84.5t77 -232.5q0 -175 -109.5 -282t-304.5 -107l-3 92q138 1 222.5 67.5t93.5 201.5q-23 -56 -77 -87t-117 -31q-92 0 -154.5 61.5t-62.5 163.5zM287 607q-65 0 -103 -39.5t-38 -101.5q0 -67 41.5 -103t100.5 -36t102.5 37
t43.5 101q0 62 -41 102t-106 40z" />
    <glyph glyph-name="zero.dnom" horiz-adv-x="350" 
d="M162 424q75 0 116.5 -55.5t41.5 -153.5v-13q0 -98 -41.5 -153.5t-116.5 -55.5t-116.5 55.5t-41.5 153.5v13q0 98 41.5 153.5t116.5 55.5zM244 215q0 139 -82 139t-82 -139v-13q0 -139 82 -139t82 139v13z" />
    <glyph glyph-name="one.dnom" horiz-adv-x="355" 
d="M163 0v347h-60v71h135v-418h-75z" />
    <glyph glyph-name="two.dnom" horiz-adv-x="359" 
d="M128 71h191v-71h-294v64l131 117q23 22 33.5 32.5t24 33.5t13.5 44q0 27 -18 44.5t-46 17.5q-35 0 -56 -25t-21 -64l-71 6q0 67 43 110.5t108 43.5q59 0 98 -37t39 -93q0 -27 -9 -51.5t-26.5 -45t-27 -29.5t-26.5 -23z" />
    <glyph glyph-name="three.dnom" horiz-adv-x="359" 
d="M233 219q81 -26 81 -102q0 -54 -41 -89t-103 -35q-50 0 -91 26t-60 71l65 33q27 -61 90 -61q29 0 47 14.5t18 39.5q0 63 -100 63h-29v64q54 0 83 16.5t29 46.5q0 22 -15.5 35t-41.5 13q-56 0 -82 -52l-56 37q19 39 57.5 62t85.5 23q55 0 91.5 -30t36.5 -76
q0 -31 -17.5 -57.5t-47.5 -41.5z" />
    <glyph glyph-name="four.dnom" horiz-adv-x="364" 
d="M263 170h73v-70h-73v-100h-75v100h-186v63l187 255h74v-248zM79 170h109v149z" />
    <glyph glyph-name="five.dnom" horiz-adv-x="353" 
d="M180 277q64 0 101 -38.5t37 -97.5q0 -62 -41.5 -105t-111.5 -43q-53 0 -95 26.5t-58 72.5l69 32q7 -28 30.5 -44.5t55.5 -16.5q35 0 55 21.5t20 52.5q0 30 -20.5 52.5t-54.5 22.5q-51 0 -75 -39h-60v245h251v-70h-185v-98q33 27 82 27z" />
    <glyph glyph-name="six.dnom" horiz-adv-x="351" 
d="M185 277q62 0 100 -38t38 -99q0 -64 -42.5 -105.5t-108.5 -41.5q-75 0 -121 53.5t-46 139.5q0 111 70 174.5t190 63.5l2 -71q-158 0 -179 -116q38 40 97 40zM172 63q34 0 54.5 21t20.5 55t-21 55t-54 21q-34 0 -56.5 -21.5t-22.5 -54.5t22.5 -54.5t56.5 -21.5z" />
    <glyph glyph-name="seven.dnom" horiz-adv-x="358" 
d="M64 0l176 344h-229v74h312v-65l-174 -353h-85z" />
    <glyph glyph-name="eight.dnom" horiz-adv-x="343" 
d="M231 219q83 -30 83 -106q0 -52 -43.5 -85.5t-110.5 -33.5q-68 0 -110.5 33t-42.5 86q0 36 21.5 65.5t57.5 42.5q-61 31 -61 93q0 49 37.5 79.5t99.5 30.5q61 0 97.5 -29.5t36.5 -78.5q0 -31 -17 -57t-48 -40zM99 305q0 -45 73 -60q23 8 37 24.5t14 36.5q0 22 -16.5 35
t-45.5 13q-28 0 -45 -13t-17 -36zM163 63q35 0 55.5 15.5t20.5 39.5q0 50 -99 72q-27 -9 -42.5 -27t-15.5 -40q0 -27 21.5 -43.5t59.5 -16.5z" />
    <glyph glyph-name="nine.dnom" horiz-adv-x="351" 
d="M156 424q75 0 121 -53.5t46 -140.5q0 -110 -70 -173.5t-190 -63.5l-2 70q155 0 179 117q-38 -40 -97 -40q-62 0 -100 38t-38 99q0 64 42.5 105.5t108.5 41.5zM156 202q35 0 57 21t22 55q0 33 -22.5 54.5t-56.5 21.5t-54.5 -21t-20.5 -55t20.5 -55t54.5 -21z" />
    <glyph glyph-name="zero.numr" horiz-adv-x="340" 
d="M170 700q75 0 116.5 -55.5t41.5 -153.5v-13q0 -98 -41.5 -153.5t-116.5 -55.5t-116.5 55.5t-41.5 153.5v13q0 98 41.5 153.5t116.5 55.5zM252 491q0 139 -82 139t-82 -139v-13q0 -139 82 -139t82 139v13z" />
    <glyph glyph-name="one.numr" horiz-adv-x="340" 
d="M163 276v347h-60v71h135v-418h-75z" />
    <glyph glyph-name="two.numr" horiz-adv-x="340" 
d="M130 347h191v-71h-294v64l131 117q23 22 33.5 32.5t24 33.5t13.5 44q0 27 -18 44.5t-46 17.5q-35 0 -56 -25t-21 -64l-71 6q0 67 43 110.5t108 43.5q59 0 98 -37t39 -93q0 -27 -9 -51.5t-26.5 -45t-27 -29.5t-26.5 -23z" />
    <glyph glyph-name="three.numr" horiz-adv-x="340" 
d="M237 495q81 -26 81 -102q0 -54 -41 -89t-103 -35q-50 0 -91 26t-60 71l65 33q27 -61 90 -61q29 0 47 14.5t18 39.5q0 63 -100 63h-29v64q54 0 83 16.5t29 46.5q0 22 -15.5 35t-41.5 13q-56 0 -82 -52l-56 37q19 39 57.5 62t85.5 23q55 0 91.5 -30t36.5 -76
q0 -31 -17.5 -57.5t-47.5 -41.5z" />
    <glyph glyph-name="four.numr" horiz-adv-x="340" 
d="M264 446h73v-70h-73v-100h-75v100h-186v63l187 255h74v-248zM80 446h109v149z" />
    <glyph glyph-name="five.numr" horiz-adv-x="340" 
d="M186 553q64 0 101 -38.5t37 -97.5q0 -62 -41.5 -105t-111.5 -43q-53 0 -95 26.5t-58 72.5l69 32q7 -28 30.5 -44.5t55.5 -16.5q35 0 55 21.5t20 52.5q0 30 -20.5 52.5t-54.5 22.5q-51 0 -75 -39h-60v245h251v-70h-185v-98q33 27 82 27z" />
    <glyph glyph-name="six.numr" horiz-adv-x="340" 
d="M191 553q62 0 100 -38t38 -99q0 -64 -42.5 -105.5t-108.5 -41.5q-75 0 -121 53.5t-46 139.5q0 111 70 174.5t190 63.5l2 -71q-158 0 -179 -116q38 40 97 40zM178 339q34 0 54.5 21t20.5 55t-21 55t-54 21q-34 0 -56.5 -21.5t-22.5 -54.5t22.5 -54.5t56.5 -21.5z" />
    <glyph glyph-name="seven.numr" horiz-adv-x="340" 
d="M67 276l176 344h-229v74h312v-65l-174 -353h-85z" />
    <glyph glyph-name="eight.numr" horiz-adv-x="340" 
d="M241 495q83 -30 83 -106q0 -52 -43.5 -85.5t-110.5 -33.5q-68 0 -110.5 33t-42.5 86q0 36 21.5 65.5t57.5 42.5q-61 31 -61 93q0 49 37.5 79.5t99.5 30.5q61 0 97.5 -29.5t36.5 -78.5q0 -31 -17 -57t-48 -40zM109 581q0 -45 73 -60q23 8 37 24.5t14 36.5q0 22 -16.5 35
t-45.5 13q-28 0 -45 -13t-17 -36zM173 339q35 0 55.5 15.5t20.5 39.5q0 50 -99 72q-27 -9 -42.5 -27t-15.5 -40q0 -27 21.5 -43.5t59.5 -16.5z" />
    <glyph glyph-name="nine.numr" horiz-adv-x="340" 
d="M162 700q75 0 121 -53.5t46 -140.5q0 -110 -70 -173.5t-190 -63.5l-2 70q155 0 179 117q-38 -40 -97 -40q-62 0 -100 38t-38 99q0 64 42.5 105.5t108.5 41.5zM162 478q35 0 57 21t22 55q0 33 -22.5 54.5t-56.5 21.5t-54.5 -21t-20.5 -55t20.5 -55t54.5 -21z" />
    <glyph glyph-name="exclamdown.cap" horiz-adv-x="345" 
d="M172 519q-31 0 -50.5 20t-19.5 48q0 29 19.5 49t50.5 20q32 0 51.5 -20t19.5 -49t-19.5 -48.5t-51.5 -19.5zM134 438h77l16 -504h-110z" />
    <glyph glyph-name="questiondown.cap" horiz-adv-x="520" 
d="M297 536q-31 0 -50.5 20t-19.5 48q0 29 19.5 49t50.5 20q32 0 51.5 -20t19.5 -49q0 -28 -20 -48t-51 -20zM247 346v109h100v-177q-106 0 -157 -29.5t-51 -95.5q0 -52 34 -80t84 -28q47 0 88.5 23t66.5 66l66 -51q-36 -65 -97 -98.5t-131 -33.5q-88 0 -150.5 52.5
t-62.5 143.5q0 81 58 136t152 63z" />
    <glyph glyph-name="periodcentered.cap" horiz-adv-x="239" 
d="M119 474q33 0 56.5 -24t23.5 -56t-23.5 -56t-56.5 -24q-32 0 -55.5 24t-23.5 56t23.5 56t55.5 24z" />
    <glyph glyph-name="bullet.cap" horiz-adv-x="249" 
d="M209 321q0 -34 -25 -59.5t-58 -25.5q-35 0 -60.5 25.5t-25.5 59.5t25.5 59t60.5 25q33 0 58 -25t25 -59z" />
    <glyph glyph-name="hyphen.cap" horiz-adv-x="408" 
d="M54 394h300v-89h-300v89z" />
    <glyph glyph-name="endash.cap" horiz-adv-x="499" 
d="M54 422h391v-89h-391v89z" />
    <glyph glyph-name="emdash.cap" horiz-adv-x="690" 
d="M54 422h582v-89h-582v89z" />
    <glyph glyph-name="guillemotleft.cap" horiz-adv-x="576" 
d="M131 343l148 -174l-63 -54l-194 228l194 227l63 -54zM386 343l148 -174l-63 -54l-194 228l194 227l63 -54z" />
    <glyph glyph-name="guillemotright.cap" horiz-adv-x="576" 
d="M190 343l-148 173l63 54l194 -227l-194 -228l-63 54zM445 343l-148 173l63 54l194 -227l-194 -228l-63 54z" />
    <glyph glyph-name="guilsinglleft.cap" horiz-adv-x="321" 
d="M131 343l148 -174l-63 -54l-194 228l194 227l63 -54z" />
    <glyph glyph-name="guilsinglright.cap" horiz-adv-x="321" 
d="M190 343l-148 173l63 54l194 -227l-194 -228l-63 54z" />
    <glyph glyph-name="at.cap" horiz-adv-x="907" 
d="M494 768q96 0 175.5 -35.5t132.5 -114t53 -188.5q0 -116 -54.5 -196t-138.5 -80q-46 0 -77.5 25t-42.5 68q-47 -89 -151 -89q-76 0 -119 52.5t-43 128.5q0 92 59.5 164t156.5 72q95 0 118 -76l14 67h88l-46 -200q-11 -51 -11 -75q0 -73 59 -73q55 0 85.5 61t30.5 140
q0 133 -86 208t-210 75q-84 0 -154 -32.5t-115 -85t-69.5 -117t-24.5 -131.5q0 -122 78.5 -206t223.5 -84q67 0 127 27l21 -62q-73 -34 -161 -34t-158.5 29t-114 78t-66 110.5t-22.5 130.5q0 81 30 159t84 142t139.5 103t188.5 39zM409 234q57 0 92.5 50t35.5 113
q0 45 -22 75t-66 30q-58 0 -95.5 -48t-37.5 -110q0 -48 24 -79t69 -31z" />
    <glyph glyph-name="acute.cap" horiz-adv-x="290" 
d="M0 855l264 86l26 -88l-265 -77z" />
    <glyph glyph-name="breve.cap" horiz-adv-x="325" 
d="M244 939h81q-1 -68 -42 -115.5t-120 -47.5q-80 0 -121 47.5t-42 115.5h82q2 -85 81 -85q78 0 81 85z" />
    <glyph glyph-name="caron.cap" horiz-adv-x="376" 
d="M188 776l-188 144l49 64l139 -105l139 105l49 -64z" />
    <glyph glyph-name="cedilla.cap" horiz-adv-x="278" 
d="M161 1l-15 -59q132 -13 132 -106q0 -48 -37.5 -81.5t-100.5 -33.5q-84 0 -140 58l42 50q46 -44 97 -44q30 0 50.5 15t20.5 42q0 48 -127 59l28 100h50z" />
    <glyph glyph-name="circumflex.cap" horiz-adv-x="376" 
d="M188 984l188 -144l-49 -64l-139 105l-139 -105l-49 64z" />
    <glyph glyph-name="dieresis.cap" horiz-adv-x="361" 
d="M66 904q28 0 47.5 -18.5t19.5 -45.5t-19.5 -45.5t-47.5 -18.5t-47 18.5t-19 45.5t19 45.5t47 18.5zM295 904q28 0 47 -18.5t19 -45.5t-19 -45.5t-47 -18.5t-47.5 18.5t-19.5 45.5t19.5 45.5t47.5 18.5z" />
    <glyph glyph-name="dotaccent.cap" horiz-adv-x="141" 
d="M71 914q31 0 50.5 -20t19.5 -48q0 -29 -19.5 -49t-50.5 -20q-32 0 -51.5 20t-19.5 49q0 28 20 48t51 20z" />
    <glyph glyph-name="grave.cap" horiz-adv-x="290" 
d="M25 941l265 -86l-25 -79l-265 77z" />
    <glyph glyph-name="hungarumlaut.cap" horiz-adv-x="336" 
d="M171 947l-82 -171h-89l73 171h98zM336 947l-82 -171h-89l73 171h98z" />
    <glyph glyph-name="macron.cap" horiz-adv-x="310" 
d="M0 857h310v-80h-310v80z" />
    <glyph glyph-name="ogonek.cap" horiz-adv-x="214" 
d="M200 -279q-95 6 -147.5 50t-52.5 103q0 40 28 76.5t81 60.5l59 -11q-80 -33 -80 -99q0 -34 31 -59t95 -32z" />
    <glyph glyph-name="ring.cap" horiz-adv-x="275" 
d="M138 758q-60 0 -99 39t-39 98t39 98.5t99 39.5t98.5 -39.5t38.5 -98.5t-38.5 -98t-98.5 -39zM138 820q32 0 52 22t20 53q0 32 -20 53.5t-52 21.5q-33 0 -53 -21.5t-20 -53.5q0 -31 20 -53t53 -22z" />
    <glyph glyph-name="tilde.cap" horiz-adv-x="396" 
d="M339 924l57 -32q-50 -115 -120 -115q-31 0 -86 36q-44 28 -64 28q-12 0 -22 -5t-19 -16t-14 -19t-15 -25l-56 36q53 112 130 112q33 0 91 -38q36 -23 56 -23t33 14t29 47z" />
    <glyph glyph-name="null" horiz-adv-x="25" 
 />
    <glyph glyph-name="ffi" horiz-adv-x="991" 
d="M559 502h352v-502h-98v414h-254v-414h-98v414h-253v-414h-98v414h-98v88h98v52q0 80 47.5 125.5t124.5 45.5q61 0 104 -34l-35 -78q-28 23 -62 23q-38 0 -59.5 -21.5t-21.5 -60.5v-52h253v52q0 80 47.5 125.5t125.5 45.5q75 0 126 -45l-44 -74q-30 30 -76 30
q-38 0 -59.5 -21.5t-21.5 -60.5v-52z" />
    </font>
</defs>
</svg>
