<?xml version="1.0" standalone="no"?>
<!DOCTYPE svg PUBLIC "-//W3C//DTD SVG 1.1//EN" "http://www.w3.org/Graphics/SVG/1.1/DTD/svg11.dtd" >
<svg xmlns="http://www.w3.org/2000/svg" xmlns:xlink="http://www.w3.org/1999/xlink" version="1.1">
<metadata>
Created by FontForge 20170731 at Mon Aug 27 19:25:23 2018
 By Aleksey,,,
Copyright (c) 2018 by Luzi Type All rights reserved.
</metadata>
<defs>
<font id="BuenosAires-Book" horiz-adv-x="600" >
  <font-face 
    font-family="Buenos Aires Book"
    font-weight="350"
    font-stretch="normal"
    units-per-em="1000"
    panose-1="0 0 4 0 0 0 0 0 0 0"
    ascent="757"
    descent="-243"
    x-height="497"
    cap-height="700"
    bbox="-143 -277 1375 1148"
    underline-thickness="50"
    underline-position="-200"
    unicode-range="U+000D-FB01"
  />
<missing-glyph horiz-adv-x="295" 
 />
    <glyph glyph-name="fi" unicode="fi" horiz-adv-x="635" 
d="M551 497v-497h-78v426h-281v-426h-78v426h-99v71h99v61q0 76 44 119.5t117 43.5q74 0 121 -46l-39 -58q-31 32 -79 32q-41 0 -63.5 -23.5t-22.5 -67.5v-61h359z" />
    <glyph glyph-name="ff" unicode="ff" horiz-adv-x="740" 
d="M634 721q74 0 121 -46l-39 -58q-31 32 -79 32q-41 0 -63.5 -23.5t-22.5 -67.5v-61h140v-71h-140v-426h-78v426h-281v-426h-78v426h-99v71h99v61q0 76 44 119.5t117 43.5q65 0 108 -40l-34 -60q-28 28 -71 28q-41 0 -63.5 -23.5t-22.5 -67.5v-61h281v61q0 76 44 119.5
t117 43.5z" />
    <glyph glyph-name=".notdef" horiz-adv-x="295" 
 />
    <glyph glyph-name=".null" horiz-adv-x="0" 
 />
    <glyph glyph-name="nonmarkingreturn" horiz-adv-x="333" 
 />
    <glyph glyph-name="CR" unicode="&#xd;" horiz-adv-x="273" 
 />
    <glyph glyph-name="space" unicode=" " horiz-adv-x="256" 
 />
    <glyph glyph-name="exclam" unicode="!" horiz-adv-x="333" 
d="M197 207h-61l-15 509h91zM166 114q27 0 44 -17.5t17 -42.5t-17 -42.5t-44 -17.5t-44 17.5t-17 42.5t17.5 42.5t43.5 17.5z" />
    <glyph glyph-name="quotedbl" unicode="&#x22;" horiz-adv-x="334" 
d="M123 716v-224h-79v224h79zM290 716v-224h-79v224h79z" />
    <glyph glyph-name="numbersign" unicode="#" horiz-adv-x="831" 
d="M746 473h-152l-34 -226h148v-67h-159l-24 -155h-69l24 155h-182l-24 -155h-68l24 155h-145v67h156l34 226h-160v66h171l24 155h69l-25 -155h182l25 155h68l-25 -155h142v-66zM309 247h182l35 226h-182z" />
    <glyph glyph-name="dollar" unicode="$" horiz-adv-x="541" 
d="M495 195q0 -84 -56 -135.5t-140 -58.5v-112h-50v112q-125 12 -204 104l57 58q61 -73 147 -86v239q-33 11 -55.5 19.5t-50.5 24.5t-44.5 35t-28.5 48t-12 64q0 83 55 133.5t136 58.5v111h50v-111q106 -10 171 -87l-52 -54q-45 55 -119 66v-244q29 -10 41.5 -14t38.5 -14.5
t38 -19t30 -23t26.5 -30t15 -37t6.5 -47.5zM138 516q0 -45 29 -72t82 -47v228q-48 -6 -79.5 -33.5t-31.5 -75.5zM299 75q52 4 84 34.5t32 75.5q0 43 -30 68.5t-86 44.5v-223z" />
    <glyph glyph-name="percent" unicode="%" horiz-adv-x="993" 
d="M282 -16l-51 36l481 696l51 -36zM226 711q77 0 129.5 -52t52.5 -128t-53 -128.5t-129 -52.5t-129 52.5t-53 128.5t52.5 128t129.5 52zM226 414q49 0 81.5 33.5t32.5 83.5t-32.5 83.5t-81.5 33.5q-48 0 -81 -33.5t-33 -83.5t33 -83.5t81 -33.5zM767 345q77 0 129.5 -52
t52.5 -128t-53 -128.5t-129 -52.5t-129 52.5t-53 128.5t52.5 128t129.5 52zM767 48q49 0 81.5 33.5t32.5 83.5t-32.5 83.5t-81.5 33.5q-48 0 -81 -33.5t-33 -83.5t33 -83.5t81 -33.5z" />
    <glyph glyph-name="ampersand" unicode="&#x26;" horiz-adv-x="709" 
d="M561 149l102 -107l-56 -53l-96 100q-83 -95 -217 -95q-94 0 -157.5 51t-63.5 138q0 135 168 194l-24 26q-24 26 -36 41.5t-23.5 44.5t-11.5 61q0 79 54 122.5t129 43.5q76 0 128 -43t52 -117q0 -59 -38.5 -109t-113.5 -84l156 -164q24 44 42 113l68 -11q-15 -71 -62 -152
zM226 547q0 -13 4 -25.5t7 -20.5t13.5 -22t13.5 -17t18 -19l15 -16l19 -20q115 56 115 140q0 46 -30 72.5t-73 26.5q-42 0 -72 -26t-30 -73zM307 65q46 0 89 18.5t71 52.5l-184 196q-127 -42 -127 -144q0 -58 43 -90.5t108 -32.5z" />
    <glyph glyph-name="quotesingle" unicode="'" horiz-adv-x="167" 
d="M123 716v-224h-79v224h79z" />
    <glyph glyph-name="parenleft" unicode="(" horiz-adv-x="298" 
d="M104 337q0 -254 188 -439l-52 -48q-216 205 -216 487t216 488l52 -49q-188 -185 -188 -439z" />
    <glyph glyph-name="parenright" unicode=")" horiz-adv-x="294" 
d="M186 337q0 251 -185 433l51 48q213 -203 213 -481q0 -279 -213 -481l-51 47q185 184 185 434z" />
    <glyph glyph-name="asterisk" unicode="*" horiz-adv-x="474" 
d="M291 503l86 -110l-60 -44l-79 118l-81 -118l-59 44l86 110l-135 44l22 65l134 -45l-3 143h74l-5 -143l133 45l22 -65z" />
    <glyph glyph-name="plus" unicode="+" 
d="M500 348v-71h-164v-174h-72v174h-165v71h165v175h72v-175h164z" />
    <glyph glyph-name="comma" unicode="," horiz-adv-x="239" 
d="M25 -141l101 266l78 -32l-116 -260z" />
    <glyph glyph-name="hyphen" unicode="-" horiz-adv-x="406" 
d="M56 344h293v-70h-293v70z" />
    <glyph glyph-name="period" unicode="." horiz-adv-x="210" 
d="M105 114q27 0 44 -17.5t17 -42.5t-17 -42.5t-44 -17.5t-44 17.5t-17 42.5t17.5 42.5t43.5 17.5z" />
    <glyph glyph-name="slash" unicode="/" horiz-adv-x="359" 
d="M79 -16l-75 29l277 703l74 -28z" />
    <glyph glyph-name="zero" unicode="0" horiz-adv-x="609" 
d="M304 700q120 0 184.5 -90.5t64.5 -251.5v-22q0 -161 -64.5 -251.5t-184.5 -90.5t-184.5 90.5t-64.5 251.5v22q0 161 64.5 251.5t184.5 90.5zM471 358q0 267 -167 267q-83 0 -125 -68.5t-42 -198.5v-22q0 -130 42 -198.5t125 -68.5q167 0 167 267v22z" />
    <glyph glyph-name="one" unicode="1" horiz-adv-x="347" 
d="M162 0v616h-107v74h187v-690h-80z" />
    <glyph glyph-name="two" unicode="2" horiz-adv-x="569" 
d="M159 74h365v-74h-466v72l231 215q37 34 57 54.5t44 64.5t24 86q0 62 -40.5 98t-96.5 36q-60 0 -106.5 -41.5t-50.5 -117.5l-75 7q7 109 76.5 168t161.5 59q88 0 150.5 -55t62.5 -148q0 -19 -3 -37.5t-7.5 -34t-13 -32.5t-15 -28.5t-18.5 -26.5t-18.5 -23t-20.5 -21.5
t-19 -18.5t-19 -17t-16 -14z" />
    <glyph glyph-name="three" unicode="3" horiz-adv-x="553" 
d="M321 360q83 -14 130 -58.5t47 -114.5q0 -86 -66 -139.5t-159 -53.5q-74 0 -138.5 37t-99.5 107l72 40q26 -55 71 -83t99 -28q59 0 99.5 31.5t40.5 86.5q0 62 -52.5 98t-146.5 36h-28v68q91 0 144 35.5t53 97.5q0 50 -35.5 77.5t-87.5 27.5q-46 0 -87.5 -22t-67.5 -65
l-57 38q33 60 92 92t127 32q82 0 139.5 -45t57.5 -119q0 -61 -40.5 -109t-106.5 -67z" />
    <glyph glyph-name="four" unicode="4" horiz-adv-x="602" 
d="M437 254h130v-74h-130v-180h-80v180h-322v72l316 438h86v-436zM118 254h239v329z" />
    <glyph glyph-name="five" unicode="5" horiz-adv-x="593" 
d="M317 453q106 0 163 -64.5t57 -157.5q0 -99 -65.5 -168t-176.5 -69q-78 0 -144 39t-96 112l73 35q18 -52 66.5 -81.5t105.5 -29.5q74 0 114.5 44.5t40.5 109.5t-41 111t-114 46q-95 0 -147 -71h-67v381h392v-74h-322v-224q58 61 161 61z" />
    <glyph glyph-name="six" unicode="6" horiz-adv-x="615" 
d="M560 229q0 -108 -69 -171.5t-169 -63.5q-112 0 -189.5 82t-77.5 233q0 177 110.5 284t300.5 107l3 -74q-151 -1 -239.5 -77.5t-94.5 -225.5q21 62 78.5 97t126.5 35q94 0 157 -62.5t63 -163.5zM321 69q72 0 114.5 44.5t42.5 112.5q0 74 -46.5 114.5t-111.5 40.5
t-113.5 -41.5t-48.5 -112.5q0 -69 45 -113.5t118 -44.5z" />
    <glyph glyph-name="seven" unicode="7" horiz-adv-x="546" 
d="M125 0l309 613h-414v77h496v-75l-302 -615h-89z" />
    <glyph glyph-name="eight" unicode="8" horiz-adv-x="599" 
d="M401 362q143 -50 143 -174q0 -87 -68 -140.5t-178 -53.5q-109 0 -176 53t-67 140q0 63 35.5 109t100.5 69q-106 51 -106 155q0 81 60.5 130.5t156.5 49.5q95 0 154 -47.5t59 -126.5q0 -113 -114 -164zM166 516q0 -82 112 -114l44 -13q48 14 79.5 51t31.5 81q0 46 -36 76
t-95 30q-61 0 -98.5 -31.5t-37.5 -79.5zM299 67q73 0 118.5 34.5t45.5 87.5q0 47 -38 81t-110 50l-56 13q-55 -14 -88.5 -54t-33.5 -89q0 -54 44.5 -88.5t117.5 -34.5z" />
    <glyph glyph-name="nine" unicode="9" horiz-adv-x="615" 
d="M55 465q0 108 69 171.5t169 63.5q112 0 189.5 -82t77.5 -233q0 -177 -110.5 -284t-300.5 -107l-3 74q151 1 240 77.5t94 225.5q-20 -62 -78 -97t-127 -35q-94 0 -157 62.5t-63 163.5zM294 625q-72 0 -114.5 -44.5t-42.5 -112.5q0 -74 46.5 -114.5t111.5 -40.5t113.5 41.5
t48.5 112.5q0 69 -45 113.5t-118 44.5z" />
    <glyph glyph-name="colon" unicode=":" horiz-adv-x="253" 
d="M126 512q27 0 44 -17.5t17 -42.5t-17 -42.5t-44 -17.5t-44 17.5t-17 42.5t17.5 42.5t43.5 17.5zM126 114q27 0 44 -17.5t17 -42.5t-17 -42.5t-44 -17.5t-44 17.5t-17 42.5t17.5 42.5t43.5 17.5z" />
    <glyph glyph-name="semicolon" unicode=";" horiz-adv-x="284" 
d="M157 512q27 0 44 -17.5t17 -42.5t-17 -42.5t-44 -17.5t-44 17.5t-17 42.5t17.5 42.5t43.5 17.5zM25 -141l101 266l78 -32l-116 -260z" />
    <glyph glyph-name="less" unicode="&#x3c;" 
d="M479 493l-285 -165l285 -165l-34 -59l-323 187v74l323 187z" />
    <glyph glyph-name="equal" unicode="=" 
d="M501 423v-68h-401v68h401zM501 271v-69h-401v69h401z" />
    <glyph glyph-name="greater" unicode="&#x3e;" 
d="M122 493l34 59l323 -187v-74l-323 -187l-34 59l285 165z" />
    <glyph glyph-name="question" unicode="?" horiz-adv-x="530" 
d="M267 326v-119h-80v176q108 0 161.5 33t53.5 104q0 57 -37.5 88.5t-92.5 31.5q-50 0 -92.5 -24.5t-68.5 -71.5l-56 39q33 65 92.5 99t129.5 34q85 0 146 -52t61 -141q0 -82 -60 -136t-157 -61zM227 114q27 0 44 -17.5t17 -42.5t-17 -42.5t-44 -17.5t-44 17.5t-17 42.5
t17 42.5t44 17.5z" />
    <glyph glyph-name="at" unicode="@" horiz-adv-x="892" 
d="M492 703q67 0 129 -20.5t113 -59.5t81.5 -105t30.5 -150q0 -113 -53 -193.5t-134 -80.5q-45 0 -76.5 25.5t-41.5 68.5q-46 -90 -151 -90q-75 0 -117 51.5t-42 127.5q0 92 58 164t155 72q101 0 121 -84l16 75h73l-45 -200q-11 -46 -11 -76q0 -80 64 -80q59 0 90.5 65
t31.5 146q0 134 -87 210.5t-212 76.5q-85 0 -156.5 -33t-116.5 -86.5t-70 -119t-25 -133.5q0 -79 32.5 -144.5t103.5 -108t171 -42.5q65 0 123 26l18 -53q-69 -32 -154 -32q-170 0 -263 100t-93 243q0 80 29.5 158t83 141t138 102t186.5 39zM403 162q62 0 100 54t38 122
q0 49 -23.5 81t-71.5 32q-63 0 -103.5 -52t-40.5 -119q0 -51 26.5 -84.5t74.5 -33.5z" />
    <glyph glyph-name="A" unicode="A" horiz-adv-x="685" 
d="M572 0l-74 189h-311l-74 -189h-88l279 700h78l278 -700h-88zM216 264h253l-126 329z" />
    <glyph glyph-name="B" unicode="B" horiz-adv-x="603" 
d="M397 371q74 -14 112.5 -61t38.5 -108q0 -80 -61.5 -141t-164.5 -61h-237v700h240q93 0 143 -50t50 -120q0 -56 -32 -100.5t-89 -58.5zM166 625v-229h137q61 0 96.5 36t35.5 84q0 45 -33 77t-93 32h-143zM328 75q64 0 100.5 37.5t36.5 87.5q0 51 -37.5 89.5t-103.5 38.5
h-158v-253h162z" />
    <glyph glyph-name="C" unicode="C" horiz-adv-x="749" 
d="M410 63q79 0 141 40t93 113l70 -30q-44 -99 -125.5 -150.5t-188.5 -51.5q-154 0 -249.5 102t-95.5 261q0 168 104.5 268.5t255.5 100.5q88 0 160.5 -37t117.5 -108l-68 -46q-33 55 -89.5 84.5t-125.5 29.5q-114 0 -193 -78t-79 -211q0 -134 79 -210.5t193 -76.5z" />
    <glyph glyph-name="D" unicode="D" horiz-adv-x="722" 
d="M85 0v700h221q87 0 157 -29.5t113.5 -78.5t66.5 -110t23 -127q0 -68 -23.5 -130.5t-67.5 -113t-115.5 -81t-159.5 -30.5h-215zM306 624h-139v-548h138q89 0 154 41t94.5 102t29.5 132q0 111 -73.5 192t-203.5 81z" />
    <glyph glyph-name="E" unicode="E" horiz-adv-x="590" 
d="M515 624h-348v-234h294v-76h-294v-238h357v-76h-439v700h430v-76z" />
    <glyph glyph-name="F" unicode="F" horiz-adv-x="570" 
d="M461 311h-294v-311h-82v700h430v-76h-348v-237h294v-76z" />
    <glyph glyph-name="G" unicode="G" horiz-adv-x="752" 
d="M399 289v75h279v-279q-52 -48 -125.5 -74.5t-152.5 -26.5q-154 0 -249.5 102t-95.5 261q0 168 104.5 268.5t255.5 100.5q185 0 277 -145l-67 -46q-33 55 -89.5 84.5t-125.5 29.5q-114 0 -193 -78t-79 -212q0 -137 80 -213t193 -76q52 0 103.5 14.5t82.5 40.5v174h-198z
" />
    <glyph glyph-name="H" unicode="H" horiz-adv-x="715" 
d="M85 0v700h82v-310h382v310h81v-700h-81v314h-382v-314h-82z" />
    <glyph glyph-name="I" unicode="I" horiz-adv-x="252" 
d="M85 0v700h82v-700h-82z" />
    <glyph glyph-name="J" unicode="J" horiz-adv-x="506" 
d="M225 -16q-76 0 -134 46t-66 125l80 15q4 -52 40.5 -81t83.5 -29q50 0 85 33.5t35 96.5v510h82v-496q0 -108 -60 -164t-146 -56z" />
    <glyph glyph-name="K" unicode="K" horiz-adv-x="644" 
d="M626 0h-118l-341 338v-338h-82v700h82v-324l323 324h115l-347 -340z" />
    <glyph glyph-name="L" unicode="L" horiz-adv-x="526" 
d="M167 76h324v-76h-406v700h82v-624z" />
    <glyph glyph-name="M" unicode="M" horiz-adv-x="862" 
d="M681 700h96v-700h-82v556l-225 -400h-78l-225 400v-556h-82v700h96l250 -455z" />
    <glyph glyph-name="N" unicode="N" horiz-adv-x="742" 
d="M576 700h81v-700h-89l-401 568v-568h-82v700h89l402 -572v572z" />
    <glyph glyph-name="O" unicode="O" horiz-adv-x="833" 
d="M416 716q156 0 258.5 -104t102.5 -262t-102.5 -262t-258.5 -104q-155 0 -258 104.5t-103 261.5t103 261.5t258 104.5zM416 61q120 0 199 82t79 207t-79 207t-199 82t-199 -82t-79 -207t79 -207t199 -82z" />
    <glyph glyph-name="P" unicode="P" horiz-adv-x="571" 
d="M314 700q102 0 156.5 -57t54.5 -137q0 -83 -60.5 -146t-164.5 -63h-133v-297h-82v700h229zM167 372h136q66 0 103 39.5t37 92.5q0 49 -34.5 85t-95.5 36h-146v-253z" />
    <glyph glyph-name="Q" unicode="Q" horiz-adv-x="836" 
d="M579 18q21 -41 64 -72.5t101 -47.5l-36 -79q-71 21 -125 66.5t-80 106.5q-41 -9 -85 -9q-156 0 -259.5 104.5t-103.5 262.5t103.5 263t259.5 105t259 -105t103 -263q0 -112 -54 -200t-147 -132zM139 350q0 -125 79 -207.5t200 -82.5q120 0 199.5 82.5t79.5 207.5
t-79.5 208t-199.5 83q-121 0 -200 -83t-79 -208z" />
    <glyph glyph-name="R" unicode="R" horiz-adv-x="609" 
d="M380 329l199 -329h-96l-186 311h-130v-311h-82v700h232q103 0 157.5 -55t54.5 -132q0 -62 -39.5 -113.5t-109.5 -70.5zM167 625v-241h143q63 0 99.5 36t36.5 86q0 49 -36 84t-100 35h-143z" />
    <glyph glyph-name="S" unicode="S" horiz-adv-x="561" 
d="M515 188q0 -94 -66.5 -149t-162.5 -55q-66 0 -130 27.5t-111 82.5l60 61q76 -93 188 -93q62 0 100.5 32.5t38.5 83.5q0 22 -9.5 40.5t-21.5 30.5t-36.5 24t-41.5 18.5t-48 16.5q-8 3 -12 4q-37 12 -59 21t-53 26.5t-48.5 36.5t-30.5 50t-13 68q0 94 66 148t159 54
q127 0 205 -92l-54 -57q-59 71 -155 71q-58 0 -98 -29.5t-40 -84.5t40 -84.5t116 -53.5q101 -34 134 -54q83 -49 83 -144z" />
    <glyph glyph-name="T" unicode="T" horiz-adv-x="613" 
d="M347 624v-624h-81v624h-241v76h563v-76h-241z" />
    <glyph glyph-name="U" unicode="U" horiz-adv-x="682" 
d="M526 700h81v-456q0 -118 -71.5 -189t-194.5 -71t-194.5 71t-71.5 189v456h82v-454q0 -85 50 -135t134 -50q85 0 135 50t50 135v454z" />
    <glyph glyph-name="V" unicode="V" horiz-adv-x="677" 
d="M564 700h88l-275 -700h-77l-275 700h89l225 -585z" />
    <glyph glyph-name="W" unicode="W" horiz-adv-x="998" 
d="M894 700h87l-226 -700h-78l-178 554l-178 -554h-77l-226 700h87l178 -568l177 568h78l178 -568z" />
    <glyph glyph-name="X" unicode="X" horiz-adv-x="670" 
d="M645 0h-100l-209 296l-210 -296h-101l263 363l-242 337h97l193 -270l191 270h98l-242 -337z" />
    <glyph glyph-name="Y" unicode="Y" horiz-adv-x="631" 
d="M615 700l-259 -401v-299h-81v299l-260 401h99l201 -328l202 328h98z" />
    <glyph glyph-name="Z" unicode="Z" horiz-adv-x="639" 
d="M594 76v-76h-549v75l432 549h-415v76h518v-74l-432 -550h446z" />
    <glyph glyph-name="bracketleft" unicode="[" horiz-adv-x="292" 
d="M258 -161h-184v954h184v-72h-106v-810h106v-72z" />
    <glyph glyph-name="backslash" unicode="\" horiz-adv-x="359" 
d="M281 -16l-277 704l75 28l276 -703z" />
    <glyph glyph-name="bracketright" unicode="]" horiz-adv-x="302" 
d="M36 -161v72h106v810h-106v72h184v-954h-184z" />
    <glyph glyph-name="asciicircum" unicode="^" horiz-adv-x="537" 
d="M269 704l233 -239l-50 -53l-183 189l-184 -189l-50 53z" />
    <glyph glyph-name="underscore" unicode="_" horiz-adv-x="473" 
d="M43 -16h387v-71h-387v71z" />
    <glyph glyph-name="grave" unicode="`" horiz-adv-x="274" 
d="M21 747l253 -82l-21 -65l-253 75z" />
    <glyph glyph-name="a" unicode="a" horiz-adv-x="698" 
d="M659 80l19 -60q-44 -26 -89 -26t-76.5 28t-35.5 79q-56 -107 -191 -107q-113 0 -177 74.5t-64 180.5q0 107 63.5 183.5t176.5 76.5q133 0 188 -102v90h77v-368q0 -32 16 -47.5t41 -15.5q27 0 52 14zM297 65q77 0 126 52t49 135t-49 134.5t-128 51.5q-82 0 -127 -54
t-45 -133q0 -82 48 -134t126 -52z" />
    <glyph glyph-name="b" unicode="b" horiz-adv-x="625" 
d="M340 509q113 0 176.5 -76.5t63.5 -182.5t-63.5 -181t-177.5 -75q-64 0 -112.5 26.5t-75.5 74.5v-95h-76v700h78v-292q55 101 187 101zM330 65q76 0 124 52t48 135q0 78 -45 132t-127 54q-79 0 -128 -52t-49 -134q0 -83 49 -135t128 -52z" />
    <glyph glyph-name="c" unicode="c" horiz-adv-x="525" 
d="M500 112q-79 -118 -210 -118q-116 0 -180.5 74.5t-64.5 180.5q0 107 67 183.5t182 76.5q120 0 193 -94l-56 -48q-51 71 -137 71q-82 0 -126.5 -53.5t-44.5 -130.5q0 -78 46 -133t127 -55q100 0 150 85z" />
    <glyph glyph-name="d" unicode="d" horiz-adv-x="625" 
d="M285 509q132 0 187 -99v290h78v-700h-76v94q-55 -100 -188 -100q-114 0 -177.5 75t-63.5 181t63.5 182.5t176.5 76.5zM295 65q79 0 128 52t49 135q0 82 -49 134t-128 52q-82 0 -127 -54t-45 -132q0 -83 48 -135t124 -52z" />
    <glyph glyph-name="e" unicode="e" horiz-adv-x="551" 
d="M506 272v-47h-382q4 -67 50.5 -114t123.5 -47q48 0 87.5 21.5t63.5 59.5l48 -45q-81 -106 -206 -106q-115 0 -180.5 74t-65.5 180q0 108 66.5 184.5t180.5 76.5q101 0 157.5 -63.5t56.5 -173.5zM123 288h305q0 74 -36 113.5t-103 39.5q-72 0 -114.5 -42.5t-51.5 -110.5z
" />
    <glyph glyph-name="f" unicode="f" horiz-adv-x="381" 
d="M192 558v-61h140v-71h-140v-426h-78v426h-99v71h99v61q0 76 44 119.5t117 43.5q74 0 121 -46l-39 -58q-31 32 -79 32q-41 0 -63.5 -23.5t-22.5 -67.5z" />
    <glyph glyph-name="g" unicode="g" horiz-adv-x="620" 
d="M477 497h77v-485q0 -112 -68.5 -179.5t-179.5 -67.5q-94 0 -162.5 46t-93.5 125l71 32q19 -63 69 -97.5t118 -34.5q77 0 122.5 45t45.5 122v105q-52 -98 -186 -98q-109 0 -176 68t-67 180q0 105 64.5 178t177.5 73q137 0 188 -92v80zM299 79q79 0 128 50t49 131
t-48.5 130t-128.5 49q-78 0 -125.5 -49t-47.5 -130q0 -78 45 -129.5t128 -51.5z" />
    <glyph glyph-name="h" unicode="h" horiz-adv-x="588" 
d="M330 509q80 0 131.5 -50t51.5 -135v-324h-78v305q0 61 -34 97.5t-89 36.5q-63 0 -111 -48.5t-48 -133.5v-257h-78v700h78v-293q24 47 71.5 74.5t105.5 27.5z" />
    <glyph glyph-name="i" unicode="i" horiz-adv-x="248" 
d="M124 725q25 0 42.5 -17t17.5 -42q0 -24 -17.5 -41t-42.5 -17t-42.5 17t-17.5 41q0 25 17.5 42t42.5 17zM85 0v497h79v-497h-79z" />
    <glyph glyph-name="j" unicode="j" horiz-adv-x="256" 
d="M130 725q25 0 42.5 -17t17.5 -42q0 -24 -17.5 -41t-42.5 -17t-42.5 17t-17.5 41q0 25 17.5 42t42.5 17zM92 -84v581h78v-577q0 -69 -39.5 -112t-102.5 -43q-48 0 -93 27l28 62q26 -17 58 -17q31 0 51 20.5t20 58.5z" />
    <glyph glyph-name="k" unicode="k" horiz-adv-x="531" 
d="M521 0h-115l-252 237v-237h-79v700h79v-417l226 214h110l-253 -233z" />
    <glyph glyph-name="l" unicode="l" horiz-adv-x="333" 
d="M313 23q-49 -29 -99 -29q-60 0 -99.5 40t-39.5 109v557h78v-548q0 -41 21.5 -63.5t54.5 -22.5q34 0 63 18z" />
    <glyph glyph-name="m" unicode="m" horiz-adv-x="888" 
d="M641 509q80 0 126 -49.5t46 -135.5v-324h-78v305q0 62 -30 98t-81 36q-59 0 -100 -48t-41 -134v-257h-78v305q0 62 -30 98t-81 36q-59 0 -100 -48t-41 -134v-257h-78v497h77v-92q53 104 159 104q61 0 103 -30t59 -84q22 53 64.5 83.5t103.5 30.5z" />
    <glyph glyph-name="n" unicode="n" horiz-adv-x="588" 
d="M330 509q80 0 131.5 -50t51.5 -135v-324h-78v305q0 61 -34 97.5t-89 36.5q-63 0 -111 -48.5t-48 -133.5v-257h-78v497h77v-92q24 48 71.5 76t106.5 28z" />
    <glyph glyph-name="o" unicode="o" horiz-adv-x="591" 
d="M295 509q110 0 180 -72.5t70 -184.5t-70 -185t-180 -73q-109 0 -179.5 73t-70.5 185q0 111 70.5 184t179.5 73zM295 438q-76 0 -124 -52.5t-48 -133.5q0 -82 48 -134t124 -52t124 52t48 134q0 81 -48 133.5t-124 52.5z" />
    <glyph glyph-name="p" unicode="p" horiz-adv-x="625" 
d="M340 509q112 0 176 -76t64 -180t-64 -178.5t-177 -74.5q-127 0 -186 98v-319h-78v718h77v-90q55 102 188 102zM330 71q76 0 124 51.5t48 132.5q0 76 -45.5 129.5t-126.5 53.5q-78 0 -127.5 -51.5t-49.5 -131.5q0 -81 49.5 -132.5t127.5 -51.5z" />
    <glyph glyph-name="q" unicode="q" horiz-adv-x="625" 
d="M550 497v-718h-78v319q-59 -98 -186 -98q-113 0 -177 74.5t-64 178.5t64 180t176 76q133 0 188 -104v92h77zM295 71q78 0 127.5 51.5t49.5 132.5q0 80 -49.5 131.5t-127.5 51.5q-81 0 -126.5 -53.5t-45.5 -129.5q0 -81 48 -132.5t124 -51.5z" />
    <glyph glyph-name="r" unicode="r" horiz-adv-x="387" 
d="M369 489l-15 -72q-34 15 -70 15q-56 0 -93.5 -39.5t-37.5 -115.5v-277h-78v497h77v-84q17 45 55 67.5t86 22.5q41 0 76 -14z" />
    <glyph glyph-name="s" unicode="s" horiz-adv-x="487" 
d="M447 146q0 -71 -55 -111.5t-135 -40.5q-62 0 -120.5 26.5t-96.5 75.5l53 53q27 -41 74.5 -63t95.5 -22q46 0 76 18.5t30 53.5q0 34 -28.5 49t-88.5 27q-34 7 -53.5 11.5t-48.5 16.5t-45 26t-28.5 38.5t-12.5 55.5q0 71 51.5 110t126.5 39q111 0 175 -70l-44 -54
q-48 55 -135 55q-42 0 -69.5 -19t-27.5 -55q0 -17 7.5 -29.5t16.5 -20t29.5 -15t34.5 -10.5l42 -9q33 -6 51 -10.5t45.5 -15t42 -23.5t26 -35.5t11.5 -51.5z" />
    <glyph glyph-name="t" unicode="t" horiz-adv-x="429" 
d="M404 41q-59 -47 -129 -47q-65 0 -109 41t-44 117v274h-107v71h107v137h78v-137h158v-71h-158v-270q0 -44 26 -67t65 -23q49 0 88 30z" />
    <glyph glyph-name="u" unicode="u" horiz-adv-x="575" 
d="M248 -6q-80 0 -131.5 50t-51.5 135v318h78v-299q0 -61 34 -97t89 -36q63 0 109 47.5t46 133.5v251h78v-497h-76v98q-24 -48 -70.5 -76t-104.5 -28z" />
    <glyph glyph-name="v" unicode="v" horiz-adv-x="530" 
d="M419 497h85l-204 -497h-70l-205 497h86l154 -394z" />
    <glyph glyph-name="w" unicode="w" horiz-adv-x="846" 
d="M735 497h86l-186 -497h-72l-139 380l-141 -380h-72l-186 497h84l138 -392l138 392h76l138 -392z" />
    <glyph glyph-name="x" unicode="x" horiz-adv-x="525" 
d="M509 0h-98l-148 194l-149 -194h-99l201 255l-191 242h97l141 -183l139 183h97l-190 -242z" />
    <glyph glyph-name="y" unicode="y" horiz-adv-x="585" 
d="M432 497h78v-485q0 -115 -63 -180.5t-172 -65.5q-91 0 -154.5 46t-85.5 128l75 26q37 -129 167 -129q74 0 114.5 43t40.5 123v106q-23 -48 -69 -75.5t-105 -27.5q-78 0 -135.5 49.5t-57.5 137.5v304h78v-283q0 -63 35.5 -99.5t94.5 -36.5q69 0 114 50.5t45 131.5v237z
" />
    <glyph glyph-name="z" unicode="z" horiz-adv-x="518" 
d="M147 71h328v-71h-432v67l310 359h-300v71h406v-66z" />
    <glyph glyph-name="braceleft" unicode="{" horiz-adv-x="369" 
d="M216 -7q0 -82 89 -83l-5 -55q-76 1 -118.5 34t-42.5 97v202q0 96 -105 96v67q52 0 78.5 22.5t26.5 73.5v201q0 64 42.5 97t118.5 34l5 -54q-89 -3 -89 -84v-206q0 -103 -106 -118q106 -15 106 -118v-206z" />
    <glyph glyph-name="bar" unicode="|" horiz-adv-x="250" 
d="M165 749v-888h-80v888h80z" />
    <glyph glyph-name="braceright" unicode="}" horiz-adv-x="369" 
d="M156 -7v206q0 103 106 118q-106 15 -106 118v206q0 81 -89 84l5 54q76 -1 118.5 -34t42.5 -97v-201q0 -51 26.5 -73.5t78.5 -22.5v-67q-105 0 -105 -96v-202q0 -64 -42.5 -97t-118.5 -34l-5 55q89 1 89 83z" />
    <glyph glyph-name="asciitilde" unicode="~" 
d="M518 406l58 -35q-59 -127 -166 -127q-55 0 -123 44q-59 40 -95 40q-61 0 -109 -84l-59 35q60 127 167 127q56 0 127 -48q56 -37 90 -37q63 0 110 85z" />
    <glyph glyph-name="exclamdown" unicode="&#xa1;" horiz-adv-x="333" 
d="M166 498q-26 0 -43.5 17.5t-17.5 42.5t17 42.5t44 17.5t44 -17.5t17 -42.5t-17 -42.5t-44 -17.5zM197 405l15 -509h-91l15 509h61z" />
    <glyph glyph-name="cent" unicode="&#xa2;" horiz-adv-x="525" 
d="M500 112q-73 -111 -194 -118v-105h-49v107q-101 11 -156.5 83t-55.5 170t56.5 171.5t155.5 86.5v111h49v-109q111 -4 181 -94l-56 -48q-48 67 -125 71v-372q93 5 140 85zM123 254q0 -67 35.5 -119t98.5 -65v365q-65 -12 -99.5 -63t-34.5 -118z" />
    <glyph glyph-name="sterling" unicode="&#xa3;" horiz-adv-x="686" 
d="M591 146l60 -35q-58 -118 -164 -118q-78 0 -184 96q-44 -95 -135 -95q-57 0 -90 34t-33 84q0 52 35 89.5t86 37.5q57 0 104 -38q4 49 4 94v96h-121v55h121v87q0 77 45.5 122t119.5 45t123 -47l-39 -59q-33 33 -81 33q-43 0 -65.5 -25t-22.5 -70v-86h163v-55h-163v-103
q0 -78 -19 -137q96 -82 151 -82q31 0 59 20.5t46 56.5zM173 57q32 0 53.5 21t29.5 58q-36 39 -82 39q-29 0 -46.5 -16.5t-17.5 -42.5q0 -25 17 -42t46 -17z" />
    <glyph glyph-name="currency" unicode="&#xa4;" horiz-adv-x="699" 
d="M584 287q0 -80 -45 -141l114 -115l-51 -51l-114 114q-61 -43 -139 -43q-80 0 -138 44l-115 -115l-51 51l115 114q-46 61 -46 142q0 77 45 139l-114 114l49 54l116 -117q61 45 139 45q79 0 140 -44l115 116l49 -54l-113 -114q44 -59 44 -139zM349 132q66 0 110.5 44.5
t44.5 110.5q0 65 -44.5 109.5t-110.5 44.5t-110 -44t-44 -110t44 -110.5t110 -44.5z" />
    <glyph glyph-name="yen" unicode="&#xa5;" horiz-adv-x="503" 
d="M292 397v-81h182v-52h-182v-112h182v-52h-182v-100h-81v100h-181v52h181v112h-181v52h181v81l-196 303h94l142 -231l142 231h94z" />
    <glyph glyph-name="brokenbar" unicode="&#xa6;" horiz-adv-x="250" 
d="M165 749v-379h-80v379h80zM165 239v-378h-80v378h80z" />
    <glyph glyph-name="section" unicode="&#xa7;" horiz-adv-x="502" 
d="M455 339q0 -65 -64 -99q65 -34 65 -99q0 -68 -56 -107.5t-137 -39.5q-62 0 -120.5 24t-97.5 70l50 55q28 -37 78 -58t100 -21q45 0 75 18.5t30 51.5q0 12 -4 21.5t-15 17t-19 12.5t-27.5 10.5t-28 7.5t-32.5 8q-32 7 -52 12.5t-47.5 17.5t-43.5 25.5t-27.5 36.5t-11.5 51
q0 59 55 97q-56 35 -56 101q0 69 52.5 108.5t128.5 39.5q106 0 175 -68l-46 -53q-47 51 -129 51q-44 0 -73.5 -18.5t-29.5 -54.5q0 -16 8 -29t18 -21t30 -15.5t34.5 -11t40.5 -9.5q95 -22 127 -42q50 -31 50 -90zM326 263q51 20 51 65q0 24 -18 40t-38 23t-59 16
q-60 15 -74 20q-41 -21 -41 -63q0 -38 30 -55t92 -32z" />
    <glyph glyph-name="dieresis" unicode="&#xa8;" horiz-adv-x="319" 
d="M58 713q24 0 40.5 -16t16.5 -40q0 -23 -16.5 -39.5t-40.5 -16.5q-25 0 -41.5 16.5t-16.5 39.5q0 24 16.5 40t41.5 16zM262 713q24 0 40.5 -16t16.5 -40q0 -23 -16.5 -39.5t-40.5 -16.5q-25 0 -41.5 16.5t-16.5 39.5q0 24 16.5 40t41.5 16z" />
    <glyph glyph-name="copyright" unicode="&#xa9;" horiz-adv-x="835" 
d="M417 716q157 0 259.5 -104t102.5 -262t-102.5 -262t-259.5 -104t-259.5 104t-102.5 262t102.5 262t259.5 104zM417 35q132 0 219 88.5t87 226.5t-87 226.5t-219 88.5q-131 0 -218 -88.5t-87 -226.5t87 -226.5t218 -88.5zM587 251q-61 -97 -170 -97q-87 0 -140.5 56
t-53.5 146q0 89 55.5 147t142.5 58q99 0 156 -78l-52 -46q-38 57 -104 57q-57 0 -91.5 -36.5t-34.5 -97.5t35.5 -100t91.5 -39q78 0 113 69z" />
    <glyph glyph-name="ordfeminine" unicode="&#xaa;" horiz-adv-x="587" 
d="M524 382l17 -52q-37 -24 -75 -24q-72 0 -88 69q-44 -69 -141 -69q-84 0 -138 56t-54 144q0 83 52.5 143.5t139.5 60.5q89 0 135 -62v53h70v-286q0 -21 11 -32.5t29 -11.5q23 0 42 11zM243 371q57 0 92.5 37.5t35.5 98.5t-36 99t-93 38t-91 -37.5t-34 -99.5
q0 -61 35 -98.5t91 -37.5z" />
    <glyph glyph-name="guillemotleft" unicode="&#xab;" horiz-adv-x="563" 
d="M117 278l154 -182l-52 -45l-194 227l194 226l52 -45zM363 278l154 -182l-52 -45l-194 227l194 226l52 -45z" />
    <glyph glyph-name="logicalnot" unicode="&#xac;" 
d="M131 277v72h338v-246h-74v174h-264z" />
    <glyph glyph-name="registered" unicode="&#xae;" horiz-adv-x="835" 
d="M417 716q157 0 259.5 -104t102.5 -262t-102.5 -262t-259.5 -104t-259.5 104t-102.5 262t102.5 262t259.5 104zM417 35q132 0 219 88.5t87 226.5t-87 226.5t-219 88.5q-131 0 -218 -88.5t-87 -226.5t87 -226.5t218 -88.5zM511 172l-79 131h-90v-131h-65v386h169
q62 0 100.5 -34t38.5 -89q0 -40 -23.5 -72t-61.5 -46l89 -145h-78zM342 495v-135h100q33 0 54.5 19.5t21.5 48.5t-21.5 48t-55.5 19h-99z" />
    <glyph glyph-name="macron" unicode="&#xaf;" horiz-adv-x="305" 
d="M0 666h305v-66h-305v66z" />
    <glyph glyph-name="degree" unicode="&#xb0;" horiz-adv-x="450" 
d="M225 711q77 0 129.5 -52t52.5 -128t-53 -128.5t-129 -52.5t-129 52.5t-53 128.5t52.5 128t129.5 52zM225 414q49 0 81.5 33.5t32.5 83.5t-32.5 83.5t-81.5 33.5q-48 0 -81 -33.5t-33 -83.5t33 -83.5t81 -33.5z" />
    <glyph glyph-name="plusminus" unicode="&#xb1;" 
d="M500 508v-71h-164v-174h-72v174h-165v71h165v175h72v-175h164zM500 174v-71h-401v71h401z" />
    <glyph glyph-name="uni00B2" unicode="&#xb2;" horiz-adv-x="340" 
d="M115 336h202v-60h-289v54l137 124q71 64 71 115q0 31 -20 50.5t-52 19.5q-38 0 -61 -26t-23 -68l-60 6q1 65 42.5 107t104.5 42q58 0 96 -36.5t38 -91.5q0 -28 -9 -52.5t-27.5 -46.5t-27.5 -30.5t-27 -23.5z" />
    <glyph glyph-name="uni00B3" unicode="&#xb3;" horiz-adv-x="340" 
d="M231 494q85 -25 85 -103q0 -53 -40 -87.5t-101 -34.5q-50 0 -90 25.5t-60 69.5l56 30q30 -66 97 -66q33 0 53.5 16.5t20.5 44.5q0 33 -28.5 52t-80.5 19h-25v56q55 0 85.5 18t30.5 52q0 25 -17 40t-47 15q-59 0 -88 -55l-47 32q19 38 56.5 60t82.5 22q54 0 89 -29.5
t35 -75.5q0 -32 -18 -59t-49 -42z" />
    <glyph glyph-name="acute" unicode="&#xb4;" horiz-adv-x="274" 
d="M0 665l253 82l21 -72l-253 -75z" />
    <glyph glyph-name="paragraph" unicode="&#xb6;" horiz-adv-x="603" 
d="M456 628h-70v-728h-62v416h-62q-98 0 -157.5 59.5t-59.5 140.5q0 77 54 130.5t150 53.5h269v-800h-62v728zM259 389h65v238h-73q-59 0 -92 -33t-33 -81q0 -51 35.5 -87.5t97.5 -36.5z" />
    <glyph glyph-name="periodcentered" unicode="&#xb7;" horiz-adv-x="237" 
d="M118 421q31 0 53 -22t22 -53q0 -30 -22 -52.5t-53 -22.5q-30 0 -52 22.5t-22 52.5q0 31 22 53t52 22z" />
    <glyph glyph-name="cedilla" unicode="&#xb8;" horiz-adv-x="267" 
d="M153 1l-15 -60q129 -13 129 -106q0 -48 -36.5 -80t-97.5 -32q-76 0 -133 52l37 48q45 -42 98 -42q31 0 50.5 16t19.5 43q0 53 -125 65l27 96h46z" />
    <glyph glyph-name="uni00B9" unicode="&#xb9;" horiz-adv-x="340" 
d="M170 276v358h-62v60h125v-418h-63z" />
    <glyph glyph-name="ordmasculine" unicode="&#xba;" horiz-adv-x="487" 
d="M243 716q86 0 142 -57.5t56 -146.5q0 -88 -56 -145.5t-142 -57.5t-142 57.5t-56 145.5q0 89 55.5 146.5t142.5 57.5zM243 650q-57 0 -92 -38t-35 -100q0 -61 35 -99t92 -38q56 0 91.5 38t35.5 99t-35.5 99.5t-91.5 38.5z" />
    <glyph glyph-name="guillemotright" unicode="&#xbb;" horiz-adv-x="563" 
d="M200 278l-154 181l52 45l194 -226l-194 -227l-52 45zM446 278l-154 181l52 45l194 -226l-194 -227l-52 45z" />
    <glyph glyph-name="onequarter" unicode="&#xbc;" horiz-adv-x="945" 
d="M229 -16l-51 36l481 696l51 -36zM147 275v358h-62v60h125v-418h-63zM784 165h76v-59h-76v-106h-64v106h-190v53l191 259h63v-253zM599 165h121v166z" />
    <glyph glyph-name="onehalf" unicode="&#xbd;" horiz-adv-x="973" 
d="M229 -16l-51 36l481 696l51 -36zM147 275v358h-62v60h125v-418h-63zM686 60h202v-60h-289v54l137 124q71 64 71 115q0 31 -20 50.5t-52 19.5q-38 0 -61 -26t-23 -68l-60 6q1 65 42.5 107t104.5 42q58 0 96 -36.5t38 -91.5q0 -28 -9 -52.5t-27.5 -46.5t-27.5 -30.5
t-27 -23.5z" />
    <glyph glyph-name="threequarters" unicode="&#xbe;" horiz-adv-x="1080" 
d="M365 -16l-51 36l481 696l51 -36zM291 494q85 -25 85 -103q0 -53 -40 -87.5t-101 -34.5q-50 0 -90 25.5t-60 69.5l56 30q30 -66 97 -66q33 0 53.5 16.5t20.5 44.5q0 33 -28.5 52t-80.5 19h-25v56q55 0 85.5 18t30.5 52q0 25 -17 40t-47 15q-59 0 -88 -55l-47 32
q19 38 56.5 60t82.5 22q54 0 89 -29.5t35 -75.5q0 -32 -18 -59t-49 -42zM919 165h76v-59h-76v-106h-64v106h-190v53l191 259h63v-253zM734 165h121v166z" />
    <glyph glyph-name="questiondown" unicode="&#xbf;" horiz-adv-x="530" 
d="M313 480q-27 0 -44 17.5t-17 42.5t17 42.5t44 17.5t44 -17.5t17 -42.5t-17 -42.5t-44 -17.5zM273 268v119h80v-176q-108 0 -161.5 -33t-53.5 -104q0 -57 37.5 -88.5t92.5 -31.5q50 0 92.5 24.5t68.5 71.5l56 -39q-33 -65 -92.5 -99t-129.5 -34q-85 0 -146 52t-61 141
q0 82 60 136t157 61z" />
    <glyph glyph-name="Agrave" unicode="&#xc0;" horiz-adv-x="685" 
d="M158 923l253 -82l-21 -65l-253 75zM572 0l-74 189h-311l-74 -189h-88l279 700h78l278 -700h-88zM216 264h253l-126 329z" />
    <glyph glyph-name="Aacute" unicode="&#xc1;" horiz-adv-x="685" 
d="M281 841l253 82l21 -72l-253 -75zM572 0l-74 189h-311l-74 -189h-88l279 700h78l278 -700h-88zM216 264h253l-126 329z" />
    <glyph glyph-name="Acircumflex" unicode="&#xc2;" horiz-adv-x="685" 
d="M343 972l181 -142l-42 -54l-139 109l-139 -109l-42 54zM572 0l-74 189h-311l-74 -189h-88l279 700h78l278 -700h-88zM216 264h253l-126 329z" />
    <glyph glyph-name="Atilde" unicode="&#xc3;" horiz-adv-x="685" 
d="M499 915l50 -27q-20 -50 -51 -80.5t-66 -30.5q-30 0 -85 36q-48 32 -69 32q-23 0 -37.5 -17.5t-32.5 -51.5l-49 29q47 109 123 109q7 0 14 -1t12 -2.5t12.5 -5t11.5 -5t12 -6.5t10 -6t11 -7t10 -7q37 -26 59 -26t35 15.5t30 51.5zM572 0l-74 189h-311l-74 -189h-88
l279 700h78l278 -700h-88zM216 264h253l-126 329z" />
    <glyph glyph-name="Adieresis" unicode="&#xc4;" horiz-adv-x="685" 
d="M231 888q24 0 40.5 -16t16.5 -40q0 -23 -16.5 -39.5t-40.5 -16.5q-25 0 -41.5 16.5t-16.5 39.5q0 24 16.5 40t41.5 16zM455 888q24 0 40.5 -16t16.5 -40q0 -23 -16.5 -39.5t-40.5 -16.5q-25 0 -41.5 16.5t-16.5 39.5q0 24 16.5 40t41.5 16zM572 0l-74 189h-311l-74 -189
h-88l279 700h78l278 -700h-88zM216 264h253l-126 329z" />
    <glyph glyph-name="Aring" unicode="&#xc5;" horiz-adv-x="685" 
d="M343 757q-58 0 -95.5 38t-37.5 95t37.5 94.5t95.5 37.5t95.5 -37.5t37.5 -94.5t-37.5 -95t-95.5 -38zM343 812q33 0 53.5 22.5t20.5 55.5t-20.5 55.5t-53.5 22.5q-34 0 -54 -22.5t-20 -55.5t20 -55.5t54 -22.5zM572 0l-74 189h-311l-74 -189h-88l279 700h78l278 -700h-88
zM216 264h253l-126 329z" />
    <glyph glyph-name="AE" unicode="&#xc6;" horiz-adv-x="993" 
d="M569 76h358v-76h-439v194h-277l-95 -194h-91l348 700h545v-76h-349v-234h295v-76h-295v-238zM247 270h241v355h-67z" />
    <glyph glyph-name="Ccedilla" unicode="&#xc7;" horiz-adv-x="749" 
d="M714 186q-43 -97 -123 -148.5t-185 -53.5l-11 -43q129 -13 129 -106q0 -48 -36.5 -80t-97.5 -32q-76 0 -133 52l37 48q45 -42 98 -42q31 0 50.5 16t19.5 43q0 53 -125 65l23 81q-138 13 -221.5 113t-83.5 248q0 168 104.5 268.5t255.5 100.5q88 0 160.5 -37t117.5 -108
l-68 -46q-33 55 -89.5 84.5t-125.5 29.5q-114 0 -193 -78t-79 -211q0 -134 79 -210.5t193 -76.5q79 0 141 40t93 113z" />
    <glyph glyph-name="Egrave" unicode="&#xc8;" horiz-adv-x="590" 
d="M169 923l253 -82l-21 -65l-253 75zM515 624h-348v-234h294v-76h-294v-238h357v-76h-439v700h430v-76z" />
    <glyph glyph-name="Eacute" unicode="&#xc9;" horiz-adv-x="590" 
d="M215 841l253 82l21 -72l-253 -75zM515 624h-348v-234h294v-76h-294v-238h357v-76h-439v700h430v-76z" />
    <glyph glyph-name="Ecircumflex" unicode="&#xca;" horiz-adv-x="590" 
d="M301 972l181 -142l-42 -54l-139 109l-139 -109l-42 54zM515 624h-348v-234h294v-76h-294v-238h357v-76h-439v700h430v-76z" />
    <glyph glyph-name="Edieresis" unicode="&#xcb;" horiz-adv-x="590" 
d="M195 888q24 0 40.5 -16t16.5 -40q0 -23 -16.5 -39.5t-40.5 -16.5q-25 0 -41.5 16.5t-16.5 39.5q0 24 16.5 40t41.5 16zM419 888q24 0 40.5 -16t16.5 -40q0 -23 -16.5 -39.5t-40.5 -16.5q-25 0 -41.5 16.5t-16.5 39.5q0 24 16.5 40t41.5 16zM515 624h-348v-234h294v-76
h-294v-238h357v-76h-439v700h430v-76z" />
    <glyph glyph-name="Igrave" unicode="&#xcc;" horiz-adv-x="252" 
d="M-51 923l253 -82l-21 -65l-253 75zM85 0v700h82v-700h-82z" />
    <glyph glyph-name="Iacute" unicode="&#xcd;" horiz-adv-x="252" 
d="M53 841l253 82l21 -72l-253 -75zM85 0v700h82v-700h-82z" />
    <glyph glyph-name="Icircumflex" unicode="&#xce;" horiz-adv-x="252" 
d="M126 972l181 -142l-42 -54l-139 109l-139 -109l-42 54zM85 0v700h82v-700h-82z" />
    <glyph glyph-name="Idieresis" unicode="&#xcf;" horiz-adv-x="252" 
d="M14 888q24 0 40.5 -16t16.5 -40q0 -23 -16.5 -39.5t-40.5 -16.5q-25 0 -41.5 16.5t-16.5 39.5q0 24 16.5 40t41.5 16zM238 888q24 0 40.5 -16t16.5 -40q0 -23 -16.5 -39.5t-40.5 -16.5q-25 0 -41.5 16.5t-16.5 39.5q0 24 16.5 40t41.5 16zM85 0v700h82v-700h-82z" />
    <glyph glyph-name="Eth" unicode="&#xd0;" horiz-adv-x="722" 
d="M306 700q87 0 157 -29.5t113.5 -78.5t66.5 -110t23 -127q0 -68 -23.5 -130.5t-67.5 -113t-115.5 -81t-159.5 -30.5h-215v316h-115v68h115v316h221zM305 76q89 0 154 41t94.5 102t29.5 132q0 111 -73.5 192t-203.5 81h-139v-240h191v-68h-191v-240h138z" />
    <glyph glyph-name="Ntilde" unicode="&#xd1;" horiz-adv-x="742" 
d="M533 915l50 -27q-20 -50 -51 -80.5t-66 -30.5q-30 0 -85 36q-48 32 -69 32q-23 0 -37.5 -17.5t-32.5 -51.5l-49 29q47 109 123 109q7 0 14 -1t12 -2.5t12.5 -5t11.5 -5t12 -6.5t10 -6t11 -7t10 -7q37 -26 59 -26t35 15.5t30 51.5zM576 700h81v-700h-89l-401 568v-568h-82
v700h89l402 -572v572z" />
    <glyph glyph-name="Ograve" unicode="&#xd2;" horiz-adv-x="833" 
d="M268 923l253 -82l-21 -65l-253 75zM416 716q156 0 258.5 -104t102.5 -262t-102.5 -262t-258.5 -104q-155 0 -258 104.5t-103 261.5t103 261.5t258 104.5zM416 61q120 0 199 82t79 207t-79 207t-199 82t-199 -82t-79 -207t79 -207t199 -82z" />
    <glyph glyph-name="Oacute" unicode="&#xd3;" horiz-adv-x="833" 
d="M348 841l253 82l21 -72l-253 -75zM416 716q156 0 258.5 -104t102.5 -262t-102.5 -262t-258.5 -104q-155 0 -258 104.5t-103 261.5t103 261.5t258 104.5zM416 61q120 0 199 82t79 207t-79 207t-199 82t-199 -82t-79 -207t79 -207t199 -82z" />
    <glyph glyph-name="Ocircumflex" unicode="&#xd4;" horiz-adv-x="833" 
d="M416 972l181 -142l-42 -54l-139 109l-139 -109l-42 54zM416 716q156 0 258.5 -104t102.5 -262t-102.5 -262t-258.5 -104q-155 0 -258 104.5t-103 261.5t103 261.5t258 104.5zM416 61q120 0 199 82t79 207t-79 207t-199 82t-199 -82t-79 -207t79 -207t199 -82z" />
    <glyph glyph-name="Otilde" unicode="&#xd5;" horiz-adv-x="833" 
d="M558 915l50 -27q-20 -50 -51 -80.5t-66 -30.5q-30 0 -85 36q-48 32 -69 32q-23 0 -37.5 -17.5t-32.5 -51.5l-49 29q47 109 123 109q7 0 14 -1t12 -2.5t12.5 -5t11.5 -5t12 -6.5t10 -6t11 -7t10 -7q37 -26 59 -26t35 15.5t30 51.5zM416 716q156 0 258.5 -104t102.5 -262
t-102.5 -262t-258.5 -104q-155 0 -258 104.5t-103 261.5t103 261.5t258 104.5zM416 61q120 0 199 82t79 207t-79 207t-199 82t-199 -82t-79 -207t79 -207t199 -82z" />
    <glyph glyph-name="Odieresis" unicode="&#xd6;" horiz-adv-x="833" 
d="M305 888q24 0 40.5 -16t16.5 -40q0 -23 -16.5 -39.5t-40.5 -16.5q-25 0 -41.5 16.5t-16.5 39.5q0 24 16.5 40t41.5 16zM529 888q24 0 40.5 -16t16.5 -40q0 -23 -16.5 -39.5t-40.5 -16.5q-25 0 -41.5 16.5t-16.5 39.5q0 24 16.5 40t41.5 16zM416 716q156 0 258.5 -104
t102.5 -262t-102.5 -262t-258.5 -104q-155 0 -258 104.5t-103 261.5t103 261.5t258 104.5zM416 61q120 0 199 82t79 207t-79 207t-199 82t-199 -82t-79 -207t79 -207t199 -82z" />
    <glyph glyph-name="multiply" unicode="&#xd7;" 
d="M177 486l123 -124l123 124l49 -50l-123 -123l123 -123l-49 -49l-123 123l-123 -123l-49 49l123 123l-124 123z" />
    <glyph glyph-name="Oslash" unicode="&#xd8;" horiz-adv-x="833" 
d="M657 629q120 -106 120 -279q0 -158 -102.5 -262t-258.5 -104q-107 0 -193 53l-84 -115l-44 33l83 114q-123 107 -123 281q0 157 103 261.5t258 104.5q109 0 196 -54l82 111l44 -33zM138 350q0 -133 88 -216l339 463q-65 42 -149 42q-120 0 -199 -82t-79 -207zM416 61
q120 0 199 82t79 207q0 130 -85 213l-339 -462q65 -40 146 -40z" />
    <glyph glyph-name="Ugrave" unicode="&#xd9;" horiz-adv-x="682" 
d="M196 923l253 -82l-21 -65l-253 75zM526 700h81v-456q0 -118 -71.5 -189t-194.5 -71t-194.5 71t-71.5 189v456h82v-454q0 -85 50 -135t134 -50q85 0 135 50t50 135v454z" />
    <glyph glyph-name="Uacute" unicode="&#xda;" horiz-adv-x="682" 
d="M250 841l253 82l21 -72l-253 -75zM526 700h81v-456q0 -118 -71.5 -189t-194.5 -71t-194.5 71t-71.5 189v456h82v-454q0 -85 50 -135t134 -50q85 0 135 50t50 135v454z" />
    <glyph glyph-name="Ucircumflex" unicode="&#xdb;" horiz-adv-x="682" 
d="M341 972l181 -142l-42 -54l-139 109l-139 -109l-42 54zM526 700h81v-456q0 -118 -71.5 -189t-194.5 -71t-194.5 71t-71.5 189v456h82v-454q0 -85 50 -135t134 -50q85 0 135 50t50 135v454z" />
    <glyph glyph-name="Udieresis" unicode="&#xdc;" horiz-adv-x="682" 
d="M230 888q24 0 40.5 -16t16.5 -40q0 -23 -16.5 -39.5t-40.5 -16.5q-25 0 -41.5 16.5t-16.5 39.5q0 24 16.5 40t41.5 16zM454 888q24 0 40.5 -16t16.5 -40q0 -23 -16.5 -39.5t-40.5 -16.5q-25 0 -41.5 16.5t-16.5 39.5q0 24 16.5 40t41.5 16zM526 700h81v-456
q0 -118 -71.5 -189t-194.5 -71t-194.5 71t-71.5 189v456h82v-454q0 -85 50 -135t134 -50q85 0 135 50t50 135v454z" />
    <glyph glyph-name="Yacute" unicode="&#xdd;" horiz-adv-x="631" 
d="M250 841l253 82l21 -72l-253 -75zM615 700l-259 -401v-299h-81v299l-260 401h99l201 -328l202 328h98z" />
    <glyph glyph-name="Thorn" unicode="&#xde;" horiz-adv-x="571" 
d="M314 600q102 0 156.5 -57t54.5 -137q0 -83 -60.5 -146t-164.5 -63h-133v-197h-82v700h82v-100h147zM303 272q66 0 103 39.5t37 92.5q0 49 -34.5 85t-95.5 36h-146v-253h136z" />
    <glyph glyph-name="germandbls" unicode="&#xdf;" horiz-adv-x="599" 
d="M388 370q79 -16 122 -63t43 -116q0 -86 -63.5 -138.5t-164.5 -52.5h-59v72h64q64 0 104 31.5t40 87.5q0 63 -49.5 97.5t-122.5 34.5h-30v67h16q68 0 110 38t42 91q0 60 -38.5 93t-98.5 33q-65 0 -107.5 -39.5t-42.5 -115.5v-490h-78v496q0 105 66.5 162.5t162.5 57.5
q92 0 153.5 -47t61.5 -133q0 -58 -34.5 -102t-96.5 -64z" />
    <glyph glyph-name="agrave" unicode="&#xe0;" horiz-adv-x="698" 
d="M158 747l253 -82l-21 -65l-253 75zM659 80l19 -60q-44 -26 -89 -26t-76.5 28t-35.5 79q-56 -107 -191 -107q-113 0 -177 74.5t-64 180.5q0 107 63.5 183.5t176.5 76.5q133 0 188 -102v90h77v-368q0 -32 16 -47.5t41 -15.5q27 0 52 14zM297 65q77 0 126 52t49 135
t-49 134.5t-128 51.5q-82 0 -127 -54t-45 -133q0 -82 48 -134t126 -52z" />
    <glyph glyph-name="aacute" unicode="&#xe1;" horiz-adv-x="698" 
d="M228 665l253 82l21 -72l-253 -75zM659 80l19 -60q-44 -26 -89 -26t-76.5 28t-35.5 79q-56 -107 -191 -107q-113 0 -177 74.5t-64 180.5q0 107 63.5 183.5t176.5 76.5q133 0 188 -102v90h77v-368q0 -32 16 -47.5t41 -15.5q27 0 52 14zM297 65q77 0 126 52t49 135
t-49 134.5t-128 51.5q-82 0 -127 -54t-45 -133q0 -82 48 -134t126 -52z" />
    <glyph glyph-name="acircumflex" unicode="&#xe2;" horiz-adv-x="698" 
d="M311 802l181 -142l-42 -54l-139 109l-139 -109l-42 54zM659 80l19 -60q-44 -26 -89 -26t-76.5 28t-35.5 79q-56 -107 -191 -107q-113 0 -177 74.5t-64 180.5q0 107 63.5 183.5t176.5 76.5q133 0 188 -102v90h77v-368q0 -32 16 -47.5t41 -15.5q27 0 52 14zM297 65
q77 0 126 52t49 135t-49 134.5t-128 51.5q-82 0 -127 -54t-45 -133q0 -82 48 -134t126 -52z" />
    <glyph glyph-name="atilde" unicode="&#xe3;" horiz-adv-x="698" 
d="M469 739l50 -27q-20 -50 -51 -80.5t-66 -30.5q-30 0 -85 36q-48 32 -69 32q-23 0 -37.5 -17.5t-32.5 -51.5l-49 29q47 109 123 109q7 0 14 -1t12 -2.5t12.5 -5t11.5 -5t12 -6.5t10 -6t11 -7t10 -7q37 -26 59 -26t35 15.5t30 51.5zM659 80l19 -60q-44 -26 -89 -26
t-76.5 28t-35.5 79q-56 -107 -191 -107q-113 0 -177 74.5t-64 180.5q0 107 63.5 183.5t176.5 76.5q133 0 188 -102v90h77v-368q0 -32 16 -47.5t41 -15.5q27 0 52 14zM297 65q77 0 126 52t49 135t-49 134.5t-128 51.5q-82 0 -127 -54t-45 -133q0 -82 48 -134t126 -52z" />
    <glyph glyph-name="adieresis" unicode="&#xe4;" horiz-adv-x="698" 
d="M211 713q24 0 40.5 -16t16.5 -40q0 -23 -16.5 -39.5t-40.5 -16.5q-25 0 -41.5 16.5t-16.5 39.5q0 24 16.5 40t41.5 16zM415 713q24 0 40.5 -16t16.5 -40q0 -23 -16.5 -39.5t-40.5 -16.5q-25 0 -41.5 16.5t-16.5 39.5q0 24 16.5 40t41.5 16zM659 80l19 -60
q-44 -26 -89 -26t-76.5 28t-35.5 79q-56 -107 -191 -107q-113 0 -177 74.5t-64 180.5q0 107 63.5 183.5t176.5 76.5q133 0 188 -102v90h77v-368q0 -32 16 -47.5t41 -15.5q27 0 52 14zM297 65q77 0 126 52t49 135t-49 134.5t-128 51.5q-82 0 -127 -54t-45 -133q0 -82 48 -134
t126 -52z" />
    <glyph glyph-name="aring" unicode="&#xe5;" horiz-adv-x="698" 
d="M310 601q-59 0 -97.5 39t-38.5 97t38.5 96.5t97.5 38.5t97.5 -38.5t38.5 -96.5t-38.5 -97t-97.5 -39zM310 657q34 0 55 23.5t21 56.5t-21 56t-55 23q-35 0 -55.5 -22.5t-20.5 -56.5t20.5 -57t55.5 -23zM659 80l19 -60q-44 -26 -89 -26t-76.5 28t-35.5 79
q-56 -107 -191 -107q-113 0 -177 74.5t-64 180.5q0 107 63.5 183.5t176.5 76.5q133 0 188 -102v90h77v-368q0 -32 16 -47.5t41 -15.5q27 0 52 14zM297 65q77 0 126 52t49 135t-49 134.5t-128 51.5q-82 0 -127 -54t-45 -133q0 -82 48 -134t126 -52z" />
    <glyph glyph-name="ae" unicode="&#xe6;" horiz-adv-x="891" 
d="M846 272v-47h-382q6 -67 51.5 -114t122.5 -47q48 0 87.5 21.5t63.5 59.5l48 -45q-81 -106 -206 -106q-79 0 -134 36.5t-81 97.5q-61 -134 -202 -134q-79 0 -124 43t-45 107t46.5 104t137.5 40h158v26q0 60 -36.5 91t-90.5 31q-98 0 -149 -71l-51 48q35 47 88.5 71.5
t113.5 24.5q63 0 110.5 -27t65.5 -76q68 103 194 103q101 0 157.5 -63.5t56.5 -173.5zM463 288h305q0 74 -35.5 113.5t-103.5 39.5q-71 0 -114 -43.5t-52 -109.5zM229 65q67 0 112 43.5t47 120.5h-158q-54 0 -80 -21t-26 -57q0 -37 27 -61.5t78 -24.5z" />
    <glyph glyph-name="ccedilla" unicode="&#xe7;" horiz-adv-x="525" 
d="M500 112q-75 -114 -202 -118l-11 -45q129 -13 129 -106q0 -48 -36.5 -80t-97.5 -32q-76 0 -133 52l37 48q45 -42 98 -42q31 0 50.5 16t19.5 43q0 53 -125 65l23 83q-98 13 -152.5 84.5t-54.5 168.5q0 107 67 183.5t182 76.5q120 0 193 -94l-56 -48q-51 71 -137 71
q-82 0 -126.5 -53.5t-44.5 -130.5q0 -78 46 -133t127 -55q100 0 150 85z" />
    <glyph glyph-name="egrave" unicode="&#xe8;" horiz-adv-x="551" 
d="M147 747l253 -82l-21 -65l-253 75zM506 272v-47h-382q4 -67 50.5 -114t123.5 -47q48 0 87.5 21.5t63.5 59.5l48 -45q-81 -106 -206 -106q-115 0 -180.5 74t-65.5 180q0 108 66.5 184.5t180.5 76.5q101 0 157.5 -63.5t56.5 -173.5zM123 288h305q0 74 -36 113.5t-103 39.5
q-72 0 -114.5 -42.5t-51.5 -110.5z" />
    <glyph glyph-name="eacute" unicode="&#xe9;" horiz-adv-x="551" 
d="M216 665l253 82l21 -72l-253 -75zM506 272v-47h-382q4 -67 50.5 -114t123.5 -47q48 0 87.5 21.5t63.5 59.5l48 -45q-81 -106 -206 -106q-115 0 -180.5 74t-65.5 180q0 108 66.5 184.5t180.5 76.5q101 0 157.5 -63.5t56.5 -173.5zM123 288h305q0 74 -36 113.5t-103 39.5
q-72 0 -114.5 -42.5t-51.5 -110.5z" />
    <glyph glyph-name="ecircumflex" unicode="&#xea;" horiz-adv-x="551" 
d="M290 802l181 -142l-42 -54l-139 109l-139 -109l-42 54zM506 272v-47h-382q4 -67 50.5 -114t123.5 -47q48 0 87.5 21.5t63.5 59.5l48 -45q-81 -106 -206 -106q-115 0 -180.5 74t-65.5 180q0 108 66.5 184.5t180.5 76.5q101 0 157.5 -63.5t56.5 -173.5zM123 288h305
q0 74 -36 113.5t-103 39.5q-72 0 -114.5 -42.5t-51.5 -110.5z" />
    <glyph glyph-name="edieresis" unicode="&#xeb;" horiz-adv-x="551" 
d="M183 713q24 0 40.5 -16t16.5 -40q0 -23 -16.5 -39.5t-40.5 -16.5q-25 0 -41.5 16.5t-16.5 39.5q0 24 16.5 40t41.5 16zM387 713q24 0 40.5 -16t16.5 -40q0 -23 -16.5 -39.5t-40.5 -16.5q-25 0 -41.5 16.5t-16.5 39.5q0 24 16.5 40t41.5 16zM506 272v-47h-382
q4 -67 50.5 -114t123.5 -47q48 0 87.5 21.5t63.5 59.5l48 -45q-81 -106 -206 -106q-115 0 -180.5 74t-65.5 180q0 108 66.5 184.5t180.5 76.5q101 0 157.5 -63.5t56.5 -173.5zM123 288h305q0 74 -36 113.5t-103 39.5q-72 0 -114.5 -42.5t-51.5 -110.5z" />
    <glyph glyph-name="igrave" unicode="&#xec;" horiz-adv-x="248" 
d="M-66 747l253 -82l-21 -65l-253 75zM85 0v497h79v-497h-79z" />
    <glyph glyph-name="iacute" unicode="&#xed;" horiz-adv-x="248" 
d="M55 665l253 82l21 -72l-253 -75zM85 0v497h79v-497h-79z" />
    <glyph glyph-name="icircumflex" unicode="&#xee;" horiz-adv-x="248" 
d="M124 802l181 -142l-42 -54l-139 109l-139 -109l-42 54zM84 0v497h79v-497h-79z" />
    <glyph glyph-name="idieresis" unicode="&#xef;" horiz-adv-x="248" 
d="M22 713q24 0 40.5 -16t16.5 -40q0 -23 -16.5 -39.5t-40.5 -16.5q-25 0 -41.5 16.5t-16.5 39.5q0 24 16.5 40t41.5 16zM226 713q24 0 40.5 -16t16.5 -40q0 -23 -16.5 -39.5t-40.5 -16.5q-25 0 -41.5 16.5t-16.5 39.5q0 24 16.5 40t41.5 16zM84 0v497h79v-497h-79z" />
    <glyph glyph-name="eth" unicode="&#xf0;" horiz-adv-x="606" 
d="M330 668q105 -45 162.5 -139t57.5 -220q0 -151 -77.5 -233t-189.5 -82q-100 0 -169 63.5t-69 171.5q0 100 63 161t157 61q71 0 130 -35.5t80 -99.5q-1 104 -46 176.5t-127 108.5l-38 -94l-48 18l37 93q-56 14 -117 14l3 72q77 0 141 -18l34 85l51 -17zM284 69
q73 0 118 44.5t45 113.5q0 71 -48.5 112.5t-113.5 41.5t-111.5 -40.5t-46.5 -114.5q0 -68 42.5 -112.5t114.5 -44.5z" />
    <glyph glyph-name="ntilde" unicode="&#xf1;" horiz-adv-x="588" 
d="M448 739l50 -27q-20 -50 -51 -80.5t-66 -30.5q-30 0 -85 36q-48 32 -69 32q-23 0 -37.5 -17.5t-32.5 -51.5l-49 29q47 109 123 109q7 0 14 -1t12 -2.5t12.5 -5t11.5 -5t12 -6.5t10 -6t11 -7t10 -7q37 -26 59 -26t35 15.5t30 51.5zM330 509q80 0 131.5 -50t51.5 -135v-324
h-78v305q0 61 -34 97.5t-89 36.5q-63 0 -111 -48.5t-48 -133.5v-257h-78v497h77v-92q24 48 71.5 76t106.5 28z" />
    <glyph glyph-name="ograve" unicode="&#xf2;" horiz-adv-x="591" 
d="M143 747l253 -82l-21 -65l-253 75zM295 509q110 0 180 -72.5t70 -184.5t-70 -185t-180 -73q-109 0 -179.5 73t-70.5 185q0 111 70.5 184t179.5 73zM295 438q-76 0 -124 -52.5t-48 -133.5q0 -82 48 -134t124 -52t124 52t48 134q0 81 -48 133.5t-124 52.5z" />
    <glyph glyph-name="oacute" unicode="&#xf3;" horiz-adv-x="591" 
d="M223 665l253 82l21 -72l-253 -75zM295 509q110 0 180 -72.5t70 -184.5t-70 -185t-180 -73q-109 0 -179.5 73t-70.5 185q0 111 70.5 184t179.5 73zM295 438q-76 0 -124 -52.5t-48 -133.5q0 -82 48 -134t124 -52t124 52t48 134q0 81 -48 133.5t-124 52.5z" />
    <glyph glyph-name="ocircumflex" unicode="&#xf4;" horiz-adv-x="591" 
d="M295 802l181 -142l-42 -54l-139 109l-139 -109l-42 54zM295 509q110 0 180 -72.5t70 -184.5t-70 -185t-180 -73q-109 0 -179.5 73t-70.5 185q0 111 70.5 184t179.5 73zM295 438q-76 0 -124 -52.5t-48 -133.5q0 -82 48 -134t124 -52t124 52t48 134q0 81 -48 133.5
t-124 52.5z" />
    <glyph glyph-name="otilde" unicode="&#xf5;" horiz-adv-x="591" 
d="M450 741l50 -27q-20 -50 -51 -80.5t-66 -30.5q-30 0 -85 36q-48 32 -69 32q-23 0 -37.5 -17.5t-32.5 -51.5l-49 29q47 109 123 109q7 0 14 -1t12 -2.5t12.5 -5t11.5 -5t12 -6.5t10 -6t11 -7t10 -7q37 -26 59 -26t35 15.5t30 51.5zM295 509q110 0 180 -72.5t70 -184.5
t-70 -185t-180 -73q-109 0 -179.5 73t-70.5 185q0 111 70.5 184t179.5 73zM295 438q-76 0 -124 -52.5t-48 -133.5q0 -82 48 -134t124 -52t124 52t48 134q0 81 -48 133.5t-124 52.5z" />
    <glyph glyph-name="odieresis" unicode="&#xf6;" horiz-adv-x="591" 
d="M194 713q24 0 40.5 -16t16.5 -40q0 -23 -16.5 -39.5t-40.5 -16.5q-25 0 -41.5 16.5t-16.5 39.5q0 24 16.5 40t41.5 16zM398 713q24 0 40.5 -16t16.5 -40q0 -23 -16.5 -39.5t-40.5 -16.5q-25 0 -41.5 16.5t-16.5 39.5q0 24 16.5 40t41.5 16zM295 509q110 0 180 -72.5
t70 -184.5t-70 -185t-180 -73q-109 0 -179.5 73t-70.5 185q0 111 70.5 184t179.5 73zM295 438q-76 0 -124 -52.5t-48 -133.5q0 -82 48 -134t124 -52t124 52t48 134q0 81 -48 133.5t-124 52.5z" />
    <glyph glyph-name="divide" unicode="&#xf7;" 
d="M300 527q25 0 40 -16t15 -38q0 -23 -15 -38.5t-40 -15.5q-24 0 -39 15.5t-15 38.5q0 22 15.5 38t38.5 16zM500 348v-71h-401v71h401zM300 207q25 0 40 -16t15 -38q0 -23 -15 -38.5t-40 -15.5q-24 0 -39 15.5t-15 38.5q0 22 15.5 38t38.5 16z" />
    <glyph glyph-name="oslash" unicode="&#xf8;" horiz-adv-x="591" 
d="M470 442q75 -73 75 -190q0 -112 -70 -185t-180 -73q-73 0 -130 34l-70 -96l-43 33l70 95q-77 75 -77 192q0 111 70.5 184t179.5 73q74 0 132 -35l69 95l43 -33zM123 252q0 -78 44 -130l216 293q-38 23 -88 23q-76 0 -124 -52.5t-48 -133.5zM295 66q76 0 124 52t48 134
q0 75 -43 128l-215 -292q39 -22 86 -22z" />
    <glyph glyph-name="ugrave" unicode="&#xf9;" horiz-adv-x="575" 
d="M137 747l253 -82l-21 -65l-253 75zM248 -6q-80 0 -131.5 50t-51.5 135v318h78v-299q0 -61 34 -97t89 -36q63 0 109 47.5t46 133.5v251h78v-497h-76v98q-24 -48 -70.5 -76t-104.5 -28z" />
    <glyph glyph-name="uacute" unicode="&#xfa;" horiz-adv-x="575" 
d="M198 665l253 82l21 -72l-253 -75zM248 -6q-80 0 -131.5 50t-51.5 135v318h78v-299q0 -61 34 -97t89 -36q63 0 109 47.5t46 133.5v251h78v-497h-76v98q-24 -48 -70.5 -76t-104.5 -28z" />
    <glyph glyph-name="ucircumflex" unicode="&#xfb;" horiz-adv-x="575" 
d="M273 802l181 -142l-42 -54l-139 109l-139 -109l-42 54zM248 -6q-80 0 -131.5 50t-51.5 135v318h78v-299q0 -61 34 -97t89 -36q63 0 109 47.5t46 133.5v251h78v-497h-76v98q-24 -48 -70.5 -76t-104.5 -28z" />
    <glyph glyph-name="udieresis" unicode="&#xfc;" horiz-adv-x="575" 
d="M182 713q24 0 40.5 -16t16.5 -40q0 -23 -16.5 -39.5t-40.5 -16.5q-25 0 -41.5 16.5t-16.5 39.5q0 24 16.5 40t41.5 16zM386 713q24 0 40.5 -16t16.5 -40q0 -23 -16.5 -39.5t-40.5 -16.5q-25 0 -41.5 16.5t-16.5 39.5q0 24 16.5 40t41.5 16zM248 -6q-80 0 -131.5 50
t-51.5 135v318h78v-299q0 -61 34 -97t89 -36q63 0 109 47.5t46 133.5v251h78v-497h-76v98q-24 -48 -70.5 -76t-104.5 -28z" />
    <glyph glyph-name="yacute" unicode="&#xfd;" horiz-adv-x="585" 
d="M196 665l253 82l21 -72l-253 -75zM432 497h78v-485q0 -115 -63 -180.5t-172 -65.5q-91 0 -154.5 46t-85.5 128l75 26q37 -129 167 -129q74 0 114.5 43t40.5 123v106q-23 -48 -69 -75.5t-105 -27.5q-78 0 -135.5 49.5t-57.5 137.5v304h78v-283q0 -63 35.5 -99.5
t94.5 -36.5q69 0 114 50.5t45 131.5v237z" />
    <glyph glyph-name="thorn" unicode="&#xfe;" horiz-adv-x="625" 
d="M340 509q112 0 176 -76t64 -180t-64 -178.5t-177 -74.5q-127 0 -186 98v-319h-78v921h78v-291q56 100 187 100zM330 71q76 0 123.5 51.5t47.5 132.5q0 76 -45 129.5t-126 53.5q-78 0 -127.5 -51.5t-49.5 -131.5q0 -81 49.5 -132.5t127.5 -51.5z" />
    <glyph glyph-name="ydieresis" unicode="&#xff;" horiz-adv-x="585" 
d="M184 713q24 0 40.5 -16t16.5 -40q0 -23 -16.5 -39.5t-40.5 -16.5q-25 0 -41.5 16.5t-16.5 39.5q0 24 16.5 40t41.5 16zM388 713q24 0 40.5 -16t16.5 -40q0 -23 -16.5 -39.5t-40.5 -16.5q-25 0 -41.5 16.5t-16.5 39.5q0 24 16.5 40t41.5 16zM432 497h78v-485
q0 -115 -63 -180.5t-172 -65.5q-91 0 -154.5 46t-85.5 128l75 26q37 -129 167 -129q74 0 114.5 43t40.5 123v106q-23 -48 -69 -75.5t-105 -27.5q-78 0 -135.5 49.5t-57.5 137.5v304h78v-283q0 -63 35.5 -99.5t94.5 -36.5q69 0 114 50.5t45 131.5v237z" />
    <glyph glyph-name="Amacron" unicode="&#x100;" horiz-adv-x="685" 
d="M191 843h305v-66h-305v66zM572 0l-74 189h-311l-74 -189h-88l279 700h78l278 -700h-88zM216 264h253l-126 329z" />
    <glyph glyph-name="amacron" unicode="&#x101;" horiz-adv-x="698" 
d="M156 666h305v-66h-305v66zM659 80l19 -60q-44 -26 -89 -26t-76.5 28t-35.5 79q-56 -107 -191 -107q-113 0 -177 74.5t-64 180.5q0 107 63.5 183.5t176.5 76.5q133 0 188 -102v90h77v-368q0 -32 16 -47.5t41 -15.5q27 0 52 14zM297 65q77 0 126 52t49 135t-49 134.5
t-128 51.5q-82 0 -127 -54t-45 -133q0 -82 48 -134t126 -52z" />
    <glyph glyph-name="Abreve" unicode="&#x102;" horiz-adv-x="685" 
d="M424 928h70q-1 -63 -39.5 -107.5t-112.5 -44.5t-112 44.5t-40 107.5h70q3 -86 82 -86t82 86zM572 0l-74 189h-311l-74 -189h-88l279 700h78l278 -700h-88zM216 264h253l-126 329z" />
    <glyph glyph-name="abreve" unicode="&#x103;" horiz-adv-x="698" 
d="M389 753h70q-1 -63 -39.5 -107.5t-112.5 -44.5t-112 44.5t-40 107.5h70q3 -86 82 -86t82 86zM659 80l19 -60q-44 -26 -89 -26t-76.5 28t-35.5 79q-56 -107 -191 -107q-113 0 -177 74.5t-64 180.5q0 107 63.5 183.5t176.5 76.5q133 0 188 -102v90h77v-368q0 -32 16 -47.5
t41 -15.5q27 0 52 14zM297 65q77 0 126 52t49 135t-49 134.5t-128 51.5q-82 0 -127 -54t-45 -133q0 -82 48 -134t126 -52z" />
    <glyph glyph-name="Aogonek" unicode="&#x104;" horiz-adv-x="685" 
d="M554 -102q0 -35 32 -60.5t96 -34.5l-13 -74q-89 9 -138 51.5t-49 98.5q0 75 88 125l-72 185h-311l-74 -189h-88l279 700h78l278 -700h-25q-81 -36 -81 -102zM216 264h253l-126 329z" />
    <glyph glyph-name="aogonek" unicode="&#x105;" horiz-adv-x="694" 
d="M523 -102q0 -35 32 -60.5t96 -34.5l-13 -74q-89 9 -138 51.5t-49 98.5q0 75 88 125q-56 25 -62 97q-56 -107 -191 -107q-113 0 -177 74.5t-64 180.5q0 107 63.5 183.5t176.5 76.5q133 0 188 -102v90h77v-368q0 -32 16 -47.5t41 -15.5q27 0 52 14l19 -60q-40 -24 -86 -26
q-69 -35 -69 -96zM297 65q77 0 126 52t49 135t-49 134.5t-128 51.5q-82 0 -127 -54t-45 -133q0 -82 48 -134t126 -52z" />
    <glyph glyph-name="Cacute" unicode="&#x106;" horiz-adv-x="749" 
d="M362 841l253 82l21 -72l-253 -75zM410 63q79 0 141 40t93 113l70 -30q-44 -99 -125.5 -150.5t-188.5 -51.5q-154 0 -249.5 102t-95.5 261q0 168 104.5 268.5t255.5 100.5q88 0 160.5 -37t117.5 -108l-68 -46q-33 55 -89.5 84.5t-125.5 29.5q-114 0 -193 -78t-79 -211
q0 -134 79 -210.5t193 -76.5z" />
    <glyph glyph-name="cacute" unicode="&#x107;" horiz-adv-x="525" 
d="M226 665l253 82l21 -72l-253 -75zM500 112q-79 -118 -210 -118q-116 0 -180.5 74.5t-64.5 180.5q0 107 67 183.5t182 76.5q120 0 193 -94l-56 -48q-51 71 -137 71q-82 0 -126.5 -53.5t-44.5 -130.5q0 -78 46 -133t127 -55q100 0 150 85z" />
    <glyph glyph-name="Ccircumflex" unicode="&#x108;" horiz-adv-x="749" 
d="M408 972l181 -142l-42 -54l-139 109l-139 -109l-42 54zM410 63q79 0 141 40t93 113l70 -30q-44 -99 -125.5 -150.5t-188.5 -51.5q-154 0 -249.5 102t-95.5 261q0 168 104.5 268.5t255.5 100.5q88 0 160.5 -37t117.5 -108l-68 -46q-33 55 -89.5 84.5t-125.5 29.5
q-114 0 -193 -78t-79 -211q0 -134 79 -210.5t193 -76.5z" />
    <glyph glyph-name="ccircumflex" unicode="&#x109;" horiz-adv-x="525" 
d="M286 802l181 -142l-42 -54l-139 109l-139 -109l-42 54zM500 112q-79 -118 -210 -118q-116 0 -180.5 74.5t-64.5 180.5q0 107 67 183.5t182 76.5q120 0 193 -94l-56 -48q-51 71 -137 71q-82 0 -126.5 -53.5t-44.5 -130.5q0 -78 46 -133t127 -55q100 0 150 85z" />
    <glyph glyph-name="Cdotaccent" unicode="&#x10a;" horiz-adv-x="749" 
d="M425 897q27 0 44 -17.5t17 -42.5t-17 -42.5t-44 -17.5t-44 17.5t-17 42.5t17.5 42.5t43.5 17.5zM410 63q79 0 141 40t93 113l70 -30q-44 -99 -125.5 -150.5t-188.5 -51.5q-154 0 -249.5 102t-95.5 261q0 168 104.5 268.5t255.5 100.5q88 0 160.5 -37t117.5 -108l-68 -46
q-33 55 -89.5 84.5t-125.5 29.5q-114 0 -193 -78t-79 -211q0 -134 79 -210.5t193 -76.5z" />
    <glyph glyph-name="cdotaccent" unicode="&#x10b;" horiz-adv-x="525" 
d="M298 721q27 0 44 -17.5t17 -42.5t-17 -42.5t-44 -17.5t-44 17.5t-17 42.5t17.5 42.5t43.5 17.5zM500 112q-79 -118 -210 -118q-116 0 -180.5 74.5t-64.5 180.5q0 107 67 183.5t182 76.5q120 0 193 -94l-56 -48q-51 71 -137 71q-82 0 -126.5 -53.5t-44.5 -130.5
q0 -78 46 -133t127 -55q100 0 150 85z" />
    <glyph glyph-name="Ccaron" unicode="&#x10c;" horiz-adv-x="749" 
d="M415 776l-181 142l42 54l139 -109l139 109l42 -54zM410 63q79 0 141 40t93 113l70 -30q-44 -99 -125.5 -150.5t-188.5 -51.5q-154 0 -249.5 102t-95.5 261q0 168 104.5 268.5t255.5 100.5q88 0 160.5 -37t117.5 -108l-68 -46q-33 55 -89.5 84.5t-125.5 29.5
q-114 0 -193 -78t-79 -211q0 -134 79 -210.5t193 -76.5z" />
    <glyph glyph-name="ccaron" unicode="&#x10d;" horiz-adv-x="525" 
d="M293 601l-181 142l42 54l139 -109l139 109l42 -54zM500 112q-79 -118 -210 -118q-116 0 -180.5 74.5t-64.5 180.5q0 107 67 183.5t182 76.5q120 0 193 -94l-56 -48q-51 71 -137 71q-82 0 -126.5 -53.5t-44.5 -130.5q0 -78 46 -133t127 -55q100 0 150 85z" />
    <glyph glyph-name="Dcaron" unicode="&#x10e;" horiz-adv-x="722" 
d="M285 776l-181 142l42 54l139 -109l139 109l42 -54zM85 0v700h221q87 0 157 -29.5t113.5 -78.5t66.5 -110t23 -127q0 -68 -23.5 -130.5t-67.5 -113t-115.5 -81t-159.5 -30.5h-215zM306 624h-139v-548h138q89 0 154 41t94.5 102t29.5 132q0 111 -73.5 192t-203.5 81z" />
    <glyph glyph-name="dcaron" unicode="&#x10f;" horiz-adv-x="852" 
d="M638 454l101 266l78 -32l-116 -260zM285 509q132 0 187 -99v290h78v-700h-76v94q-55 -100 -188 -100q-114 0 -177.5 75t-63.5 181t63.5 182.5t176.5 76.5zM295 65q79 0 128 52t49 135q0 82 -49 134t-128 52q-82 0 -127 -54t-45 -132q0 -83 48 -135t124 -52z" />
    <glyph glyph-name="dcroat" unicode="&#x111;" horiz-adv-x="700" 
d="M665 640v-49h-115v-591h-76v94q-55 -100 -188 -100q-114 0 -177.5 75t-63.5 181t63.5 182.5t176.5 76.5q132 0 187 -99v181h-118v49h118v60h78v-60h115zM295 65q79 0 128 52t49 135q0 82 -49 134t-128 52q-82 0 -127 -54t-45 -132q0 -83 48 -135t124 -52z" />
    <glyph glyph-name="Emacron" unicode="&#x112;" horiz-adv-x="590" 
d="M155 843h305v-66h-305v66zM515 624h-348v-234h294v-76h-294v-238h357v-76h-439v700h430v-76z" />
    <glyph glyph-name="emacron" unicode="&#x113;" horiz-adv-x="551" 
d="M142 666h305v-66h-305v66zM506 272v-47h-382q4 -67 50.5 -114t123.5 -47q48 0 87.5 21.5t63.5 59.5l48 -45q-81 -106 -206 -106q-115 0 -180.5 74t-65.5 180q0 108 66.5 184.5t180.5 76.5q101 0 157.5 -63.5t56.5 -173.5zM123 288h305q0 74 -36 113.5t-103 39.5
q-72 0 -114.5 -42.5t-51.5 -110.5z" />
    <glyph glyph-name="Ebreve" unicode="&#x114;" horiz-adv-x="590" 
d="M387 928h70q-1 -63 -39.5 -107.5t-112.5 -44.5t-112 44.5t-40 107.5h70q3 -86 82 -86t82 86zM515 624h-348v-234h294v-76h-294v-238h357v-76h-439v700h430v-76z" />
    <glyph glyph-name="ebreve" unicode="&#x115;" horiz-adv-x="551" 
d="M383 753h70q-1 -63 -39.5 -107.5t-112.5 -44.5t-112 44.5t-40 107.5h70q3 -86 82 -86t82 86zM506 272v-47h-382q4 -67 50.5 -114t123.5 -47q48 0 87.5 21.5t63.5 59.5l48 -45q-81 -106 -206 -106q-115 0 -180.5 74t-65.5 180q0 108 66.5 184.5t180.5 76.5
q101 0 157.5 -63.5t56.5 -173.5zM123 288h305q0 74 -36 113.5t-103 39.5q-72 0 -114.5 -42.5t-51.5 -110.5z" />
    <glyph glyph-name="Edotaccent" unicode="&#x116;" horiz-adv-x="590" 
d="M327 897q27 0 44 -17.5t17 -42.5t-17 -42.5t-44 -17.5t-44 17.5t-17 42.5t17.5 42.5t43.5 17.5zM515 624h-348v-234h294v-76h-294v-238h357v-76h-439v700h430v-76z" />
    <glyph glyph-name="edotaccent" unicode="&#x117;" horiz-adv-x="551" 
d="M298 721q27 0 44 -17.5t17 -42.5t-17 -42.5t-44 -17.5t-44 17.5t-17 42.5t17.5 42.5t43.5 17.5zM506 272v-47h-382q4 -67 50.5 -114t123.5 -47q48 0 87.5 21.5t63.5 59.5l48 -45q-81 -106 -206 -106q-115 0 -180.5 74t-65.5 180q0 108 66.5 184.5t180.5 76.5
q101 0 157.5 -63.5t56.5 -173.5zM123 288h305q0 74 -36 113.5t-103 39.5q-72 0 -114.5 -42.5t-51.5 -110.5z" />
    <glyph glyph-name="Eogonek" unicode="&#x118;" horiz-adv-x="590" 
d="M477 0q-81 -36 -81 -102q0 -35 32 -60.5t96 -34.5l-13 -74q-89 9 -138 51.5t-49 98.5q0 71 81 121h-320v700h430v-76h-348v-234h294v-76h-294v-238h357v-76h-47z" />
    <glyph glyph-name="eogonek" unicode="&#x119;" horiz-adv-x="551" 
d="M506 272v-47h-382q4 -67 50.5 -114t123.5 -47q48 0 87.5 21.5t63.5 59.5l48 -45q-71 -93 -173 -104q-72 -35 -72 -98q0 -35 32 -60.5t96 -34.5l-13 -74q-89 9 -138 51.5t-49 98.5q0 68 75 117q-99 12 -154.5 83.5t-55.5 168.5q0 108 66.5 184.5t180.5 76.5
q101 0 157.5 -63.5t56.5 -173.5zM123 288h305q0 74 -36 113.5t-103 39.5q-72 0 -114.5 -42.5t-51.5 -110.5z" />
    <glyph glyph-name="Ecaron" unicode="&#x11a;" horiz-adv-x="590" 
d="M302 776l-181 142l42 54l139 -109l139 109l42 -54zM515 624h-348v-234h294v-76h-294v-238h357v-76h-439v700h430v-76z" />
    <glyph glyph-name="ecaron" unicode="&#x11b;" horiz-adv-x="551" 
d="M291 601l-181 142l42 54l139 -109l139 109l42 -54zM506 272v-47h-382q4 -67 50.5 -114t123.5 -47q48 0 87.5 21.5t63.5 59.5l48 -45q-81 -106 -206 -106q-115 0 -180.5 74t-65.5 180q0 108 66.5 184.5t180.5 76.5q101 0 157.5 -63.5t56.5 -173.5zM123 288h305
q0 74 -36 113.5t-103 39.5q-72 0 -114.5 -42.5t-51.5 -110.5z" />
    <glyph glyph-name="Gcircumflex" unicode="&#x11c;" horiz-adv-x="752" 
d="M401 972l181 -142l-42 -54l-139 109l-139 -109l-42 54zM399 289v75h279v-279q-52 -48 -125.5 -74.5t-152.5 -26.5q-154 0 -249.5 102t-95.5 261q0 168 104.5 268.5t255.5 100.5q185 0 277 -145l-67 -46q-33 55 -89.5 84.5t-125.5 29.5q-114 0 -193 -78t-79 -212
q0 -137 80 -213t193 -76q52 0 103.5 14.5t82.5 40.5v174h-198z" />
    <glyph glyph-name="gcircumflex" unicode="&#x11d;" horiz-adv-x="620" 
d="M308 802l181 -142l-42 -54l-139 109l-139 -109l-42 54zM477 497h77v-485q0 -112 -68.5 -179.5t-179.5 -67.5q-94 0 -162.5 46t-93.5 125l71 32q19 -63 69 -97.5t118 -34.5q77 0 122.5 45t45.5 122v105q-52 -98 -186 -98q-109 0 -176 68t-67 180q0 105 64.5 178t177.5 73
q137 0 188 -92v80zM299 79q79 0 128 50t49 131t-48.5 130t-128.5 49q-78 0 -125.5 -49t-47.5 -130q0 -78 45 -129.5t128 -51.5z" />
    <glyph glyph-name="Gbreve" unicode="&#x11e;" horiz-adv-x="752" 
d="M488 928h70q-1 -63 -39.5 -107.5t-112.5 -44.5t-112 44.5t-40 107.5h70q3 -86 82 -86t82 86zM399 289v75h279v-279q-52 -48 -125.5 -74.5t-152.5 -26.5q-154 0 -249.5 102t-95.5 261q0 168 104.5 268.5t255.5 100.5q185 0 277 -145l-67 -46q-33 55 -89.5 84.5
t-125.5 29.5q-114 0 -193 -78t-79 -212q0 -137 80 -213t193 -76q52 0 103.5 14.5t82.5 40.5v174h-198z" />
    <glyph glyph-name="gbreve" unicode="&#x11f;" horiz-adv-x="620" 
d="M389 753h70q-1 -63 -39.5 -107.5t-112.5 -44.5t-112 44.5t-40 107.5h70q3 -86 82 -86t82 86zM477 497h77v-485q0 -112 -68.5 -179.5t-179.5 -67.5q-94 0 -162.5 46t-93.5 125l71 32q19 -63 69 -97.5t118 -34.5q77 0 122.5 45t45.5 122v105q-52 -98 -186 -98
q-109 0 -176 68t-67 180q0 105 64.5 178t177.5 73q137 0 188 -92v80zM299 79q79 0 128 50t49 131t-48.5 130t-128.5 49q-78 0 -125.5 -49t-47.5 -130q0 -78 45 -129.5t128 -51.5z" />
    <glyph glyph-name="Gdotaccent" unicode="&#x120;" horiz-adv-x="752" 
d="M405 897q27 0 44 -17.5t17 -42.5t-17 -42.5t-44 -17.5t-44 17.5t-17 42.5t17.5 42.5t43.5 17.5zM399 289v75h279v-279q-52 -48 -125.5 -74.5t-152.5 -26.5q-154 0 -249.5 102t-95.5 261q0 168 104.5 268.5t255.5 100.5q185 0 277 -145l-67 -46q-33 55 -89.5 84.5
t-125.5 29.5q-114 0 -193 -78t-79 -212q0 -137 80 -213t193 -76q52 0 103.5 14.5t82.5 40.5v174h-198z" />
    <glyph glyph-name="gdotaccent" unicode="&#x121;" horiz-adv-x="620" 
d="M299 721q27 0 44 -17.5t17 -42.5t-17 -42.5t-44 -17.5t-44 17.5t-17 42.5t17.5 42.5t43.5 17.5zM477 497h77v-485q0 -112 -68.5 -179.5t-179.5 -67.5q-94 0 -162.5 46t-93.5 125l71 32q19 -63 69 -97.5t118 -34.5q77 0 122.5 45t45.5 122v105q-52 -98 -186 -98
q-109 0 -176 68t-67 180q0 105 64.5 178t177.5 73q137 0 188 -92v80zM299 79q79 0 128 50t49 131t-48.5 130t-128.5 49q-78 0 -125.5 -49t-47.5 -130q0 -78 45 -129.5t128 -51.5z" />
    <glyph glyph-name="uni0122" unicode="&#x122;" horiz-adv-x="752" 
d="M399 289v75h279v-279q-52 -48 -125.5 -74.5t-152.5 -26.5q-154 0 -249.5 102t-95.5 261q0 168 104.5 268.5t255.5 100.5q185 0 277 -145l-67 -46q-33 55 -89.5 84.5t-125.5 29.5q-114 0 -193 -78t-79 -212q0 -137 80 -213t193 -76q52 0 103.5 14.5t82.5 40.5v174h-198z
M303 -218l75 156l68 -33l-90 -149z" />
    <glyph glyph-name="uni0123" unicode="&#x123;" horiz-adv-x="620" 
d="M403 748l-75 -156l-68 33l90 149zM477 497h77v-485q0 -112 -68.5 -179.5t-179.5 -67.5q-94 0 -162.5 46t-93.5 125l71 32q19 -63 69 -97.5t118 -34.5q77 0 122.5 45t45.5 122v105q-52 -98 -186 -98q-109 0 -176 68t-67 180q0 105 64.5 178t177.5 73q137 0 188 -92v80z
M299 79q79 0 128 50t49 131t-48.5 130t-128.5 49q-78 0 -125.5 -49t-47.5 -130q0 -78 45 -129.5t128 -51.5z" />
    <glyph glyph-name="Hcircumflex" unicode="&#x124;" horiz-adv-x="715" 
d="M358 972l181 -142l-42 -54l-139 109l-139 -109l-42 54zM85 0v700h82v-310h382v310h81v-700h-81v314h-382v-314h-82z" />
    <glyph glyph-name="hcircumflex" unicode="&#x125;" horiz-adv-x="593" 
d="M360 791l158 -125l-37 -47l-121 95l-122 -95l-37 47zM328 509q80 0 131.5 -50t51.5 -135v-324h-78v305q0 61 -34 97.5t-89 36.5q-63 0 -111 -48.5t-48 -133.5v-257h-78v700h78v-293q24 47 71.5 74.5t105.5 27.5z" />
    <glyph glyph-name="Hbar" unicode="&#x126;" horiz-adv-x="775" 
d="M756 562v-64h-96v-498h-81v314h-382v-314h-82v498h-96v64h96v138h82v-138h382v138h81v-138h96zM579 390v108h-382v-108h382z" />
    <glyph glyph-name="hbar" unicode="&#x127;" horiz-adv-x="632" 
d="M374 509q80 0 131.5 -50t51.5 -135v-324h-78v305q0 61 -34 97.5t-89 36.5q-63 0 -111 -48.5t-48 -133.5v-257h-78v583h-94v49h94v68h78v-68h160v-49h-160v-176q24 47 71.5 74.5t105.5 27.5z" />
    <glyph glyph-name="Itilde" unicode="&#x128;" horiz-adv-x="252" 
d="M280 915l50 -27q-20 -50 -51 -80.5t-66 -30.5q-30 0 -85 36q-48 32 -69 32q-23 0 -37.5 -17.5t-32.5 -51.5l-49 29q47 109 123 109q7 0 14 -1t12 -2.5t12.5 -5t11.5 -5t12 -6.5t10 -6t11 -7t10 -7q37 -26 59 -26t35 15.5t30 51.5zM85 0v700h82v-700h-82z" />
    <glyph glyph-name="itilde" unicode="&#x129;" horiz-adv-x="248" 
d="M271 739l50 -27q-20 -50 -51 -80.5t-66 -30.5q-30 0 -85 36q-48 32 -69 32q-23 0 -37.5 -17.5t-32.5 -51.5l-49 29q47 109 123 109q7 0 14 -1t12 -2.5t12.5 -5t11.5 -5t12 -6.5t10 -6t11 -7t10 -7q37 -26 59 -26t35 15.5t30 51.5zM85 0v497h79v-497h-79z" />
    <glyph glyph-name="Imacron" unicode="&#x12a;" horiz-adv-x="252" 
d="M-27 843h305v-66h-305v66zM85 0v700h82v-700h-82z" />
    <glyph glyph-name="imacron" unicode="&#x12b;" horiz-adv-x="248" 
d="M-29 666h305v-66h-305v66zM84 0v497h79v-497h-79z" />
    <glyph glyph-name="Iogonek" unicode="&#x12e;" horiz-adv-x="252" 
d="M64 -102q0 -35 32 -60.5t96 -34.5l-13 -74q-89 9 -138 51.5t-49 98.5q0 76 93 128v693h82v-700h-22q-81 -36 -81 -102z" />
    <glyph glyph-name="iogonek" unicode="&#x12f;" horiz-adv-x="248" 
d="M124 608q-25 0 -42.5 17t-17.5 41q0 25 17.5 42t42.5 17t42.5 -17t17.5 -42q0 -24 -17.5 -41t-42.5 -17zM68 -102q0 -35 32 -60.5t96 -34.5l-13 -74q-89 9 -138 51.5t-49 98.5q0 74 89 126v492h79v-497h-15q-81 -36 -81 -102z" />
    <glyph glyph-name="Idotaccent" unicode="&#x130;" horiz-adv-x="252" 
d="M126 897q27 0 44 -17.5t17 -42.5t-17 -42.5t-44 -17.5t-44 17.5t-17 42.5t17.5 42.5t43.5 17.5zM85 0v700h82v-700h-82z" />
    <glyph glyph-name="dotlessi" unicode="&#x131;" horiz-adv-x="248" 
d="M85 0v497h79v-497h-79z" />
    <glyph glyph-name="IJ" unicode="&#x132;" horiz-adv-x="772" 
d="M85 0v700h82v-700h-82zM491 -16q-76 0 -134 46t-66 125l80 15q4 -52 40.5 -81t83.5 -29q50 0 85 33.5t35 96.5v510h82v-496q0 -108 -60 -164t-146 -56z" />
    <glyph glyph-name="ij" unicode="&#x133;" horiz-adv-x="504" 
d="M124 725q25 0 42.5 -17t17.5 -42q0 -24 -17.5 -41t-42.5 -17t-42.5 17t-17.5 41q0 25 17.5 42t42.5 17zM378 725q25 0 42.5 -17t17.5 -42q0 -24 -17.5 -41t-42.5 -17t-42.5 17t-17.5 41q0 25 17.5 42t42.5 17zM85 0v497h79v-497h-79zM340 -84v581h78v-577
q0 -69 -39.5 -112t-102.5 -43q-48 0 -93 27l28 62q25 -17 58 -17q31 0 51 20.5t20 58.5z" />
    <glyph glyph-name="Jcircumflex" unicode="&#x134;" horiz-adv-x="506" 
d="M386 972l181 -142l-42 -54l-139 109l-139 -109l-42 54zM225 -16q-76 0 -134 46t-66 125l80 15q4 -52 40.5 -81t83.5 -29q50 0 85 33.5t35 96.5v510h82v-496q0 -108 -60 -164t-146 -56z" />
    <glyph glyph-name="jcircumflex" unicode="&#x135;" horiz-adv-x="256" 
d="M127 802l181 -142l-42 -54l-139 109l-139 -109l-42 54zM92 497h78v-575q0 -70 -41 -113.5t-105 -43.5q-57 0 -99 33l33 58q25 -22 61 -22q34 0 53.5 22.5t19.5 64.5v576z" />
    <glyph glyph-name="uni0136" unicode="&#x136;" horiz-adv-x="644" 
d="M626 0h-118l-341 338v-338h-82v700h82v-324l323 324h115l-347 -340zM249 -218l75 156l68 -33l-90 -149z" />
    <glyph glyph-name="uni0137" unicode="&#x137;" horiz-adv-x="531" 
d="M521 0h-115l-252 237v-237h-79v700h79v-417l226 214h110l-253 -233zM169 -218l75 156l68 -33l-90 -149z" />
    <glyph glyph-name="kgreenlandic" unicode="&#x138;" horiz-adv-x="531" 
d="M521 0h-115l-252 237v-237h-79v497h79v-214l226 214h110l-253 -233z" />
    <glyph glyph-name="Lacute" unicode="&#x139;" horiz-adv-x="526" 
d="M111 841l253 82l21 -72l-253 -75zM167 76h324v-76h-406v700h82v-624z" />
    <glyph glyph-name="lacute" unicode="&#x13a;" horiz-adv-x="333" 
d="M80 841l253 82l21 -72l-253 -75zM313 23q-49 -29 -99 -29q-60 0 -99.5 40t-39.5 109v557h78v-548q0 -41 21.5 -63.5t54.5 -22.5q34 0 63 18z" />
    <glyph glyph-name="uni013B" unicode="&#x13b;" horiz-adv-x="526" 
d="M167 76h324v-76h-406v700h82v-624zM222 -218l75 156l68 -33l-90 -149z" />
    <glyph glyph-name="uni013C" unicode="&#x13c;" horiz-adv-x="333" 
d="M313 23q-49 -29 -99 -29q-60 0 -99.5 40t-39.5 109v557h78v-548q0 -41 21.5 -63.5t54.5 -22.5q34 0 63 18zM96 -218l75 156l68 -33l-90 -149z" />
    <glyph glyph-name="Lcaron" unicode="&#x13d;" horiz-adv-x="663" 
d="M449 481l101 266l78 -32l-116 -260zM167 76h324v-76h-406v700h82v-624z" />
    <glyph glyph-name="lcaron" unicode="&#x13e;" horiz-adv-x="455" 
d="M241 453l101 266l78 -32l-116 -260zM313 23q-49 -29 -99 -29q-60 0 -99.5 40t-39.5 109v557h78v-548q0 -41 21.5 -63.5t54.5 -22.5q34 0 63 18z" />
    <glyph glyph-name="Ldot" unicode="&#x13f;" horiz-adv-x="563" 
d="M167 76h324v-76h-406v700h82v-624zM467 534q27 0 44 -17.5t17 -42.5t-17 -42.5t-44 -17.5t-44 17.5t-17 42.5t17.5 42.5t43.5 17.5z" />
    <glyph glyph-name="ldot" unicode="&#x140;" horiz-adv-x="429" 
d="M313 23q-49 -29 -99 -29q-60 0 -99.5 40t-39.5 109v557h78v-548q0 -41 21.5 -63.5t54.5 -22.5q34 0 63 18zM333 469q27 0 44 -17.5t17 -42.5t-17 -42.5t-44 -17.5t-44 17.5t-17 42.5t17.5 42.5t43.5 17.5z" />
    <glyph glyph-name="Lslash" unicode="&#x141;" horiz-adv-x="565" 
d="M206 76h324v-76h-406v273l-127 -72l-33 62l160 91v346h82v-300l177 100l33 -61l-210 -119v-244z" />
    <glyph glyph-name="lslash" unicode="&#x142;" horiz-adv-x="376" 
d="M260 66q34 0 63 18l21 -61q-49 -29 -99 -29q-60 0 -99.5 40t-39.5 109v199l-106 -57l-25 49l131 70v296h78v-254l148 80l24 -48l-172 -93v-233q0 -41 21.5 -63.5t54.5 -22.5z" />
    <glyph glyph-name="Nacute" unicode="&#x143;" horiz-adv-x="742" 
d="M291 841l253 82l21 -72l-253 -75zM576 700h81v-700h-89l-401 568v-568h-82v700h89l402 -572v572z" />
    <glyph glyph-name="nacute" unicode="&#x144;" horiz-adv-x="588" 
d="M216 665l253 82l21 -72l-253 -75zM330 509q80 0 131.5 -50t51.5 -135v-324h-78v305q0 61 -34 97.5t-89 36.5q-63 0 -111 -48.5t-48 -133.5v-257h-78v497h77v-92q24 48 71.5 76t106.5 28z" />
    <glyph glyph-name="uni0145" unicode="&#x145;" horiz-adv-x="742" 
d="M576 700h81v-700h-89l-401 568v-568h-82v700h89l402 -572v572zM280 -218l75 156l68 -33l-90 -149z" />
    <glyph glyph-name="uni0146" unicode="&#x146;" horiz-adv-x="588" 
d="M330 509q80 0 131.5 -50t51.5 -135v-324h-78v305q0 61 -34 97.5t-89 36.5q-63 0 -111 -48.5t-48 -133.5v-257h-78v497h77v-92q24 48 71.5 76t106.5 28zM199 -218l75 156l68 -33l-90 -149z" />
    <glyph glyph-name="Ncaron" unicode="&#x147;" horiz-adv-x="742" 
d="M366 776l-181 142l42 54l139 -109l139 109l42 -54zM576 700h81v-700h-89l-401 568v-568h-82v700h89l402 -572v572z" />
    <glyph glyph-name="ncaron" unicode="&#x148;" horiz-adv-x="588" 
d="M303 601l-181 142l42 54l139 -109l139 109l42 -54zM330 509q80 0 131.5 -50t51.5 -135v-324h-78v305q0 61 -34 97.5t-89 36.5q-63 0 -111 -48.5t-48 -133.5v-257h-78v497h77v-92q24 48 71.5 76t106.5 28z" />
    <glyph glyph-name="napostrophe" unicode="&#x149;" horiz-adv-x="763" 
d="M25 453l101 266l78 -32l-116 -260zM505 509q80 0 131.5 -50t51.5 -135v-324h-78v305q0 61 -34 97.5t-89 36.5q-63 0 -111 -48.5t-48 -133.5v-257h-78v497h77v-92q24 48 71.5 76t106.5 28z" />
    <glyph glyph-name="Eng" unicode="&#x14a;" horiz-adv-x="742" 
d="M576 700h81v-778q0 -70 -41 -113.5t-105 -43.5q-57 0 -99 33l33 58q26 -20 61 -20q34 0 53.5 22t19.5 63v79l-412 568v-568h-82v700h89l402 -557v557z" />
    <glyph glyph-name="eng" unicode="&#x14b;" horiz-adv-x="579" 
d="M330 509q80 0 131.5 -50t51.5 -135v-402q0 -70 -41 -113.5t-105 -43.5q-57 0 -99 33l33 58q26 -20 61 -20q34 0 53.5 22t19.5 63v384q-1 62 -34.5 98t-88.5 36q-63 0 -111 -48.5t-48 -133.5v-257h-78v497h77v-92q24 48 71.5 76t106.5 28z" />
    <glyph glyph-name="Omacron" unicode="&#x14c;" horiz-adv-x="833" 
d="M265 843h305v-66h-305v66zM416 716q156 0 258.5 -104t102.5 -262t-102.5 -262t-258.5 -104q-155 0 -258 104.5t-103 261.5t103 261.5t258 104.5zM416 61q120 0 199 82t79 207t-79 207t-199 82t-199 -82t-79 -207t79 -207t199 -82z" />
    <glyph glyph-name="omacron" unicode="&#x14d;" horiz-adv-x="591" 
d="M144 666h305v-66h-305v66zM295 509q110 0 180 -72.5t70 -184.5t-70 -185t-180 -73q-109 0 -179.5 73t-70.5 185q0 111 70.5 184t179.5 73zM295 438q-76 0 -124 -52.5t-48 -133.5q0 -82 48 -134t124 -52t124 52t48 134q0 81 -48 133.5t-124 52.5z" />
    <glyph glyph-name="Obreve" unicode="&#x14e;" horiz-adv-x="833" 
d="M498 928h70q-1 -63 -39.5 -107.5t-112.5 -44.5t-112 44.5t-40 107.5h70q3 -86 82 -86t82 86zM416 716q156 0 258.5 -104t102.5 -262t-102.5 -262t-258.5 -104q-155 0 -258 104.5t-103 261.5t103 261.5t258 104.5zM416 61q120 0 199 82t79 207t-79 207t-199 82t-199 -82
t-79 -207t79 -207t199 -82z" />
    <glyph glyph-name="obreve" unicode="&#x14f;" horiz-adv-x="591" 
d="M377 753h70q-1 -63 -39.5 -107.5t-112.5 -44.5t-112 44.5t-40 107.5h70q3 -86 82 -86t82 86zM295 509q110 0 180 -72.5t70 -184.5t-70 -185t-180 -73q-109 0 -179.5 73t-70.5 185q0 111 70.5 184t179.5 73zM295 438q-76 0 -124 -52.5t-48 -133.5q0 -82 48 -134t124 -52
t124 52t48 134q0 81 -48 133.5t-124 52.5z" />
    <glyph glyph-name="Ohungarumlaut" unicode="&#x150;" horiz-adv-x="833" 
d="M460 934l-75 -158h-76l68 158h83zM614 934l-75 -158h-76l68 158h83zM416 716q156 0 258.5 -104t102.5 -262t-102.5 -262t-258.5 -104q-155 0 -258 104.5t-103 261.5t103 261.5t258 104.5zM416 61q120 0 199 82t79 207t-79 207t-199 82t-199 -82t-79 -207t79 -207t199 -82
z" />
    <glyph glyph-name="ohungarumlaut" unicode="&#x151;" horiz-adv-x="591" 
d="M330 759l-75 -158h-76l68 158h83zM484 759l-75 -158h-76l68 158h83zM295 509q110 0 180 -72.5t70 -184.5t-70 -185t-180 -73q-109 0 -179.5 73t-70.5 185q0 111 70.5 184t179.5 73zM295 438q-76 0 -124 -52.5t-48 -133.5q0 -82 48 -134t124 -52t124 52t48 134
q0 81 -48 133.5t-124 52.5z" />
    <glyph glyph-name="OE" unicode="&#x152;" horiz-adv-x="941" 
d="M518 76h357v-76h-456q-159 0 -261.5 97t-102.5 253t102.5 253t261.5 97h447v-76h-348v-234h294v-76h-294v-238zM436 77v546q-135 0 -216.5 -74.5t-81.5 -198.5t81.5 -198.5t216.5 -74.5z" />
    <glyph glyph-name="oe" unicode="&#x153;" horiz-adv-x="979" 
d="M934 272v-47h-382q6 -67 51.5 -114t122.5 -47q101 0 151 81l48 -45q-79 -106 -206 -106q-78 0 -131.5 35.5t-80.5 94.5q-28 -61 -83 -95.5t-129 -34.5q-110 0 -180 73t-70 185t70 184.5t180 72.5q74 0 129.5 -36t83.5 -98q28 61 82 97.5t130 36.5q101 0 157.5 -63.5
t56.5 -173.5zM551 288h305q0 74 -35.5 113.5t-102.5 39.5q-72 0 -115 -43.5t-52 -109.5zM295 66q76 0 124 52t48 134q0 81 -48 133.5t-124 52.5t-123.5 -52t-47.5 -134t47.5 -134t123.5 -52z" />
    <glyph glyph-name="Racute" unicode="&#x154;" horiz-adv-x="609" 
d="M222 841l253 82l21 -72l-253 -75zM380 329l199 -329h-96l-186 311h-130v-311h-82v700h232q103 0 157.5 -55t54.5 -132q0 -62 -39.5 -113.5t-109.5 -70.5zM167 625v-241h143q63 0 99.5 36t36.5 86q0 49 -36 84t-100 35h-143z" />
    <glyph glyph-name="racute" unicode="&#x155;" horiz-adv-x="411" 
d="M172 665l253 82l21 -72l-253 -75zM369 489l-15 -72q-34 15 -70 15q-56 0 -93.5 -39.5t-37.5 -115.5v-277h-78v497h77v-84q17 45 55 67.5t86 22.5q41 0 76 -14z" />
    <glyph glyph-name="uni0156" unicode="&#x156;" horiz-adv-x="609" 
d="M380 329l199 -329h-96l-186 311h-130v-311h-82v700h232q103 0 157.5 -55t54.5 -132q0 -62 -39.5 -113.5t-109.5 -70.5zM167 625v-241h143q63 0 99.5 36t36.5 86q0 49 -36 84t-100 35h-143zM230 -218l75 156l68 -33l-90 -149z" />
    <glyph glyph-name="uni0157" unicode="&#x157;" horiz-adv-x="387" 
d="M369 489l-15 -72q-34 15 -70 15q-56 0 -93.5 -39.5t-37.5 -115.5v-277h-78v497h77v-84q17 45 55 67.5t86 22.5q41 0 76 -14zM17 -218l75 156l68 -33l-90 -149z" />
    <glyph glyph-name="Rcaron" unicode="&#x158;" horiz-adv-x="609" 
d="M280 776l-181 142l42 54l139 -109l139 109l42 -54zM380 329l199 -329h-96l-186 311h-130v-311h-82v700h232q103 0 157.5 -55t54.5 -132q0 -62 -39.5 -113.5t-109.5 -70.5zM167 625v-241h143q63 0 99.5 36t36.5 86q0 49 -36 84t-100 35h-143z" />
    <glyph glyph-name="rcaron" unicode="&#x159;" horiz-adv-x="387" 
d="M215 601l-181 142l42 54l139 -109l139 109l42 -54zM369 489l-15 -72q-34 15 -70 15q-56 0 -93.5 -39.5t-37.5 -115.5v-277h-78v497h77v-84q17 45 55 67.5t86 22.5q41 0 76 -14z" />
    <glyph glyph-name="Sacute" unicode="&#x15a;" horiz-adv-x="561" 
d="M234 841l253 82l21 -72l-253 -75zM515 188q0 -94 -66.5 -149t-162.5 -55q-66 0 -130 27.5t-111 82.5l60 61q76 -93 188 -93q62 0 100.5 32.5t38.5 83.5q0 22 -9.5 40.5t-21.5 30.5t-36.5 24t-41.5 18.5t-48 16.5q-8 3 -12 4q-37 12 -59 21t-53 26.5t-48.5 36.5t-30.5 50
t-13 68q0 94 66 148t159 54q127 0 205 -92l-54 -57q-59 71 -155 71q-58 0 -98 -29.5t-40 -84.5t40 -84.5t116 -53.5q101 -34 134 -54q83 -49 83 -144z" />
    <glyph glyph-name="sacute" unicode="&#x15b;" horiz-adv-x="487" 
d="M168 665l253 82l21 -72l-253 -75zM447 146q0 -71 -55 -111.5t-135 -40.5q-62 0 -120.5 26.5t-96.5 75.5l53 53q27 -41 74.5 -63t95.5 -22q46 0 76 18.5t30 53.5q0 34 -28.5 49t-88.5 27q-34 7 -53.5 11.5t-48.5 16.5t-45 26t-28.5 38.5t-12.5 55.5q0 71 51.5 110
t126.5 39q111 0 175 -70l-44 -54q-48 55 -135 55q-42 0 -69.5 -19t-27.5 -55q0 -17 7.5 -29.5t16.5 -20t29.5 -15t34.5 -10.5l42 -9q33 -6 51 -10.5t45.5 -15t42 -23.5t26 -35.5t11.5 -51.5z" />
    <glyph glyph-name="Scircumflex" unicode="&#x15c;" horiz-adv-x="561" 
d="M283 972l181 -142l-42 -54l-139 109l-139 -109l-42 54zM515 188q0 -94 -66.5 -149t-162.5 -55q-66 0 -130 27.5t-111 82.5l60 61q76 -93 188 -93q62 0 100.5 32.5t38.5 83.5q0 22 -9.5 40.5t-21.5 30.5t-36.5 24t-41.5 18.5t-48 16.5q-8 3 -12 4q-37 12 -59 21t-53 26.5
t-48.5 36.5t-30.5 50t-13 68q0 94 66 148t159 54q127 0 205 -92l-54 -57q-59 71 -155 71q-58 0 -98 -29.5t-40 -84.5t40 -84.5t116 -53.5q101 -34 134 -54q83 -49 83 -144z" />
    <glyph glyph-name="scircumflex" unicode="&#x15d;" horiz-adv-x="487" 
d="M241 802l181 -142l-42 -54l-139 109l-139 -109l-42 54zM447 146q0 -71 -55 -111.5t-135 -40.5q-62 0 -120.5 26.5t-96.5 75.5l53 53q27 -41 74.5 -63t95.5 -22q46 0 76 18.5t30 53.5q0 34 -28.5 49t-88.5 27q-34 7 -53.5 11.5t-48.5 16.5t-45 26t-28.5 38.5t-12.5 55.5
q0 71 51.5 110t126.5 39q111 0 175 -70l-44 -54q-48 55 -135 55q-42 0 -69.5 -19t-27.5 -55q0 -17 7.5 -29.5t16.5 -20t29.5 -15t34.5 -10.5l42 -9q33 -6 51 -10.5t45.5 -15t42 -23.5t26 -35.5t11.5 -51.5z" />
    <glyph glyph-name="Scedilla" unicode="&#x15e;" horiz-adv-x="561" 
d="M515 188q0 -88 -58.5 -142t-145.5 -61l-11 -44q129 -13 129 -106q0 -48 -36.5 -80t-97.5 -32q-76 0 -133 52l37 48q45 -42 98 -42q31 0 50.5 16t19.5 43q0 53 -125 65l22 80q-132 9 -219 109l60 61q76 -93 188 -93q62 0 100.5 32.5t38.5 83.5q0 22 -9.5 40.5t-21.5 30.5
t-36.5 24t-41.5 18.5t-48 16.5q-8 3 -12 4q-37 12 -59 21t-53 26.5t-48.5 36.5t-30.5 50t-13 68q0 94 66 148t159 54q127 0 205 -92l-54 -57q-59 71 -155 71q-58 0 -98 -29.5t-40 -84.5t40 -84.5t116 -53.5q101 -34 134 -54q83 -49 83 -144z" />
    <glyph glyph-name="scedilla" unicode="&#x15f;" horiz-adv-x="487" 
d="M447 146q0 -71 -54.5 -111.5t-134.5 -40.5l-13 -53q129 -13 129 -106q0 -48 -36.5 -80t-97.5 -32q-76 0 -133 52l37 48q45 -42 98 -42q31 0 50.5 16t19.5 43q0 53 -125 65l26 92q-113 19 -173 99l53 53q27 -41 74.5 -63t95.5 -22q46 0 76 18.5t30 53.5q0 34 -28.5 49
t-88.5 27q-34 7 -53.5 11.5t-48.5 16.5t-45 26t-28.5 38.5t-12.5 55.5q0 71 51.5 110t126.5 39q111 0 175 -70l-44 -54q-48 55 -135 55q-42 0 -69.5 -19t-27.5 -55q0 -17 7.5 -29.5t16.5 -20t29.5 -15t34.5 -10.5l42 -9q33 -6 51 -10.5t45.5 -15t42 -23.5t26 -35.5
t11.5 -51.5z" />
    <glyph glyph-name="Scaron" unicode="&#x160;" horiz-adv-x="561" 
d="M296 776l-181 142l42 54l139 -109l139 109l42 -54zM515 188q0 -94 -66.5 -149t-162.5 -55q-66 0 -130 27.5t-111 82.5l60 61q76 -93 188 -93q62 0 100.5 32.5t38.5 83.5q0 22 -9.5 40.5t-21.5 30.5t-36.5 24t-41.5 18.5t-48 16.5q-8 3 -12 4q-37 12 -59 21t-53 26.5
t-48.5 36.5t-30.5 50t-13 68q0 94 66 148t159 54q127 0 205 -92l-54 -57q-59 71 -155 71q-58 0 -98 -29.5t-40 -84.5t40 -84.5t116 -53.5q101 -34 134 -54q83 -49 83 -144z" />
    <glyph glyph-name="scaron" unicode="&#x161;" horiz-adv-x="487" 
d="M245 601l-181 142l42 54l139 -109l139 109l42 -54zM447 146q0 -71 -55 -111.5t-135 -40.5q-62 0 -120.5 26.5t-96.5 75.5l53 53q27 -41 74.5 -63t95.5 -22q46 0 76 18.5t30 53.5q0 34 -28.5 49t-88.5 27q-34 7 -53.5 11.5t-48.5 16.5t-45 26t-28.5 38.5t-12.5 55.5
q0 71 51.5 110t126.5 39q111 0 175 -70l-44 -54q-48 55 -135 55q-42 0 -69.5 -19t-27.5 -55q0 -17 7.5 -29.5t16.5 -20t29.5 -15t34.5 -10.5l42 -9q33 -6 51 -10.5t45.5 -15t42 -23.5t26 -35.5t11.5 -51.5z" />
    <glyph glyph-name="uni0162" unicode="&#x162;" horiz-adv-x="613" 
d="M347 0h-35l-15 -59q129 -13 129 -106q0 -48 -36.5 -80t-97.5 -32q-76 0 -133 52l37 48q45 -42 98 -42q31 0 50.5 16t19.5 43q0 53 -125 65l27 96v623h-241v76h563v-76h-241v-624z" />
    <glyph glyph-name="uni0163" unicode="&#x163;" horiz-adv-x="429" 
d="M267 -59q129 -13 129 -106q0 -48 -36.5 -80t-97.5 -32q-76 0 -133 52l37 48q45 -42 98 -42q31 0 50.5 16t19.5 43q0 53 -125 65l26 93q-50 12 -81.5 51t-31.5 103v274h-107v71h107v137h78v-137h158v-71h-158v-270q0 -44 26 -67t65 -23q49 0 88 30l25 -55
q-56 -45 -124 -47z" />
    <glyph glyph-name="Tcaron" unicode="&#x164;" horiz-adv-x="613" 
d="M307 776l-181 142l42 54l139 -109l139 109l42 -54zM347 624v-624h-81v624h-241v76h563v-76h-241z" />
    <glyph glyph-name="tcaron" unicode="&#x165;" horiz-adv-x="662" 
d="M448 453l101 266l78 -32l-116 -260zM404 41q-59 -47 -129 -47q-65 0 -109 41t-44 117v274h-107v71h107v137h78v-137h158v-71h-158v-270q0 -44 26 -67t65 -23q49 0 88 30z" />
    <glyph glyph-name="Tbar" unicode="&#x166;" horiz-adv-x="613" 
d="M588 624h-241v-222h177v-69h-177v-333h-81v333h-175v69h175v222h-241v76h563v-76z" />
    <glyph glyph-name="tbar" unicode="&#x167;" horiz-adv-x="429" 
d="M379 96l25 -55q-59 -47 -129 -47q-65 0 -109 41t-44 117v100h-102v59h102v115h-107v71h107v137h78v-137h158v-71h-158v-115h163v-59h-163v-96q0 -44 26 -67t65 -23q49 0 88 30z" />
    <glyph glyph-name="Utilde" unicode="&#x168;" horiz-adv-x="682" 
d="M494 915l50 -27q-20 -50 -51 -80.5t-66 -30.5q-30 0 -85 36q-48 32 -69 32q-23 0 -37.5 -17.5t-32.5 -51.5l-49 29q47 109 123 109q7 0 14 -1t12 -2.5t12.5 -5t11.5 -5t12 -6.5t10 -6t11 -7t10 -7q37 -26 59 -26t35 15.5t30 51.5zM526 700h81v-456q0 -118 -71.5 -189
t-194.5 -71t-194.5 71t-71.5 189v456h82v-454q0 -85 50 -135t134 -50q85 0 135 50t50 135v454z" />
    <glyph glyph-name="utilde" unicode="&#x169;" horiz-adv-x="575" 
d="M438 739l50 -27q-20 -50 -51 -80.5t-66 -30.5q-30 0 -85 36q-48 32 -69 32q-23 0 -37.5 -17.5t-32.5 -51.5l-49 29q47 109 123 109q7 0 14 -1t12 -2.5t12.5 -5t11.5 -5t12 -6.5t10 -6t11 -7t10 -7q37 -26 59 -26t35 15.5t30 51.5zM248 -6q-80 0 -131.5 50t-51.5 135v318
h78v-299q0 -61 34 -97t89 -36q63 0 109 47.5t46 133.5v251h78v-497h-76v98q-24 -48 -70.5 -76t-104.5 -28z" />
    <glyph glyph-name="Umacron" unicode="&#x16a;" horiz-adv-x="682" 
d="M189 843h305v-66h-305v66zM526 700h81v-456q0 -118 -71.5 -189t-194.5 -71t-194.5 71t-71.5 189v456h82v-454q0 -85 50 -135t134 -50q85 0 135 50t50 135v454z" />
    <glyph glyph-name="umacron" unicode="&#x16b;" horiz-adv-x="575" 
d="M126 666h305v-66h-305v66zM248 -6q-80 0 -131.5 50t-51.5 135v318h78v-299q0 -61 34 -97t89 -36q63 0 109 47.5t46 133.5v251h78v-497h-76v98q-24 -48 -70.5 -76t-104.5 -28z" />
    <glyph glyph-name="Ubreve" unicode="&#x16c;" horiz-adv-x="682" 
d="M423 928h70q-1 -63 -39.5 -107.5t-112.5 -44.5t-112 44.5t-40 107.5h70q3 -86 82 -86t82 86zM526 700h81v-456q0 -118 -71.5 -189t-194.5 -71t-194.5 71t-71.5 189v456h82v-454q0 -85 50 -135t134 -50q85 0 135 50t50 135v454z" />
    <glyph glyph-name="ubreve" unicode="&#x16d;" horiz-adv-x="575" 
d="M370 753h70q-1 -63 -39.5 -107.5t-112.5 -44.5t-112 44.5t-40 107.5h70q3 -86 82 -86t82 86zM248 -6q-80 0 -131.5 50t-51.5 135v318h78v-299q0 -61 34 -97t89 -36q63 0 109 47.5t46 133.5v251h78v-497h-76v98q-24 -48 -70.5 -76t-104.5 -28z" />
    <glyph glyph-name="Uring" unicode="&#x16e;" horiz-adv-x="682" 
d="M342 757q-58 0 -95.5 38t-37.5 95t37.5 94.5t95.5 37.5t95.5 -37.5t37.5 -94.5t-37.5 -95t-95.5 -38zM342 812q33 0 53.5 22.5t20.5 55.5t-20.5 55.5t-53.5 22.5q-34 0 -54 -22.5t-20 -55.5t20 -55.5t54 -22.5zM526 700h81v-456q0 -118 -71.5 -189t-194.5 -71t-194.5 71
t-71.5 189v456h82v-454q0 -85 50 -135t134 -50q85 0 135 50t50 135v454z" />
    <glyph glyph-name="uring" unicode="&#x16f;" horiz-adv-x="575" 
d="M280 601q-59 0 -97.5 39t-38.5 97t38.5 96.5t97.5 38.5t97.5 -38.5t38.5 -96.5t-38.5 -97t-97.5 -39zM280 657q34 0 55 23.5t21 56.5t-21 56t-55 23q-35 0 -55.5 -22.5t-20.5 -56.5t20.5 -57t55.5 -23zM248 -6q-80 0 -131.5 50t-51.5 135v318h78v-299q0 -61 34 -97
t89 -36q63 0 109 47.5t46 133.5v251h78v-497h-76v98q-24 -48 -70.5 -76t-104.5 -28z" />
    <glyph glyph-name="Uhungarumlaut" unicode="&#x170;" horiz-adv-x="682" 
d="M367 934l-75 -158h-76l68 158h83zM521 934l-75 -158h-76l68 158h83zM526 700h81v-456q0 -118 -71.5 -189t-194.5 -71t-194.5 71t-71.5 189v456h82v-454q0 -85 50 -135t134 -50q85 0 135 50t50 135v454z" />
    <glyph glyph-name="uhungarumlaut" unicode="&#x171;" horiz-adv-x="575" 
d="M309 759l-75 -158h-76l68 158h83zM463 759l-75 -158h-76l68 158h83zM248 -6q-80 0 -131.5 50t-51.5 135v318h78v-299q0 -61 34 -97t89 -36q63 0 109 47.5t46 133.5v251h78v-497h-76v98q-24 -48 -70.5 -76t-104.5 -28z" />
    <glyph glyph-name="Uogonek" unicode="&#x172;" horiz-adv-x="682" 
d="M526 700h81v-456q0 -112 -64.5 -182t-176.5 -77q-53 -35 -53 -87q0 -35 32 -60.5t96 -34.5l-13 -74q-89 9 -138 51.5t-49 98.5q0 60 61 107q-106 11 -166.5 80.5t-60.5 177.5v456h82v-454q0 -85 50 -135t134 -50q85 0 135 50t50 135v454z" />
    <glyph glyph-name="uogonek" unicode="&#x173;" horiz-adv-x="545" 
d="M407 -102q0 -35 32 -60.5t96 -34.5l-13 -74q-89 9 -138 51.5t-49 98.5q0 73 88 125v94q-24 -48 -70.5 -76t-104.5 -28q-80 0 -131.5 50t-51.5 135v318h78v-299q0 -61 34 -97t89 -36q63 0 109 47.5t46 133.5v251h78v-497h-11q-81 -36 -81 -102z" />
    <glyph glyph-name="Wcircumflex" unicode="&#x174;" horiz-adv-x="998" 
d="M499 972l181 -142l-42 -54l-139 109l-139 -109l-42 54zM894 700h87l-226 -700h-78l-178 554l-178 -554h-77l-226 700h87l178 -568l177 568h78l178 -568z" />
    <glyph glyph-name="wcircumflex" unicode="&#x175;" horiz-adv-x="846" 
d="M424 802l181 -142l-42 -54l-139 109l-139 -109l-42 54zM735 497h86l-186 -497h-72l-139 380l-141 -380h-72l-186 497h84l138 -392l138 392h76l138 -392z" />
    <glyph glyph-name="Ycircumflex" unicode="&#x176;" horiz-adv-x="631" 
d="M315 972l181 -142l-42 -54l-139 109l-139 -109l-42 54zM615 700l-259 -401v-299h-81v299l-260 401h99l201 -328l202 328h98z" />
    <glyph glyph-name="ycircumflex" unicode="&#x177;" horiz-adv-x="585" 
d="M291 802l181 -142l-42 -54l-139 109l-139 -109l-42 54zM432 497h78v-485q0 -115 -63 -180.5t-172 -65.5q-91 0 -154.5 46t-85.5 128l75 26q37 -129 167 -129q74 0 114.5 43t40.5 123v106q-23 -48 -69 -75.5t-105 -27.5q-78 0 -135.5 49.5t-57.5 137.5v304h78v-283
q0 -63 35.5 -99.5t94.5 -36.5q69 0 114 50.5t45 131.5v237z" />
    <glyph glyph-name="Ydieresis" unicode="&#x178;" horiz-adv-x="631" 
d="M204 888q24 0 40.5 -16t16.5 -40q0 -23 -16.5 -39.5t-40.5 -16.5q-25 0 -41.5 16.5t-16.5 39.5q0 24 16.5 40t41.5 16zM428 888q24 0 40.5 -16t16.5 -40q0 -23 -16.5 -39.5t-40.5 -16.5q-25 0 -41.5 16.5t-16.5 39.5q0 24 16.5 40t41.5 16zM615 700l-259 -401v-299h-81
v299l-260 401h99l201 -328l202 328h98z" />
    <glyph glyph-name="Zacute" unicode="&#x179;" horiz-adv-x="639" 
d="M240 841l253 82l21 -72l-253 -75zM594 76v-76h-549v75l432 549h-415v76h518v-74l-432 -550h446z" />
    <glyph glyph-name="zacute" unicode="&#x17a;" horiz-adv-x="518" 
d="M177 665l253 82l21 -72l-253 -75zM147 71h328v-71h-432v67l310 359h-300v71h406v-66z" />
    <glyph glyph-name="Zdotaccent" unicode="&#x17b;" horiz-adv-x="639" 
d="M337 897q27 0 44 -17.5t17 -42.5t-17 -42.5t-44 -17.5t-44 17.5t-17 42.5t17.5 42.5t43.5 17.5zM594 76v-76h-549v75l432 549h-415v76h518v-74l-432 -550h446z" />
    <glyph glyph-name="zdotaccent" unicode="&#x17c;" horiz-adv-x="518" 
d="M287 721q27 0 44 -17.5t17 -42.5t-17 -42.5t-44 -17.5t-44 17.5t-17 42.5t17.5 42.5t43.5 17.5zM147 71h328v-71h-432v67l310 359h-300v71h406v-66z" />
    <glyph glyph-name="Zcaron" unicode="&#x17d;" horiz-adv-x="639" 
d="M341 776l-181 142l42 54l139 -109l139 109l42 -54zM594 76v-76h-549v75l432 549h-415v76h518v-74l-432 -550h446z" />
    <glyph glyph-name="zcaron" unicode="&#x17e;" horiz-adv-x="518" 
d="M279 601l-181 142l42 54l139 -109l139 109l42 -54zM147 71h328v-71h-432v67l310 359h-300v71h406v-66z" />
    <glyph glyph-name="longs" unicode="&#x17f;" horiz-adv-x="381" 
d="M357 617q-31 32 -79 32q-41 0 -63.5 -23.5t-22.5 -67.5v-558h-78v426h-99v71h99v61q0 76 44 119.5t117 43.5q74 0 121 -46z" />
    <glyph glyph-name="florin" unicode="&#x192;" horiz-adv-x="406" 
d="M300 721q74 0 121 -46l-39 -58q-31 32 -79 32q-41 0 -63.5 -23.5t-22.5 -67.5v-116h140v-54h-140v-240q0 -76 -44 -120t-117 -44q-72 0 -121 47l39 57q32 -32 79 -32q41 0 63.5 23.5t22.5 67.5v241h-109v54h109v116q0 75 44.5 119t116.5 44z" />
    <glyph glyph-name="Aringacute" unicode="&#x1fa;" horiz-adv-x="685" 
d="M253 1083l202 65l17 -57l-202 -60zM340 757q-55 0 -90.5 36.5t-35.5 90.5q0 53 35.5 89t90.5 36q56 0 91.5 -36t35.5 -89q0 -55 -35.5 -91t-91.5 -36zM340 809q32 0 51.5 22t19.5 53t-19.5 52t-51.5 21t-51 -21t-19 -52t19 -53t51 -22zM572 0l-74 189h-311l-74 -189h-88
l279 700h78l278 -700h-88zM216 264h253l-126 329z" />
    <glyph glyph-name="aringacute" unicode="&#x1fb;" horiz-adv-x="698" 
d="M192 877l228 74l19 -65l-228 -68zM310 549q-53 0 -86.5 34t-33.5 86q0 51 33.5 85t86.5 34q52 0 86 -34t34 -85t-34 -85.5t-86 -34.5zM310 599q30 0 48.5 20.5t18.5 49.5t-18.5 49.5t-48.5 20.5q-31 0 -49 -20t-18 -50t18 -50t49 -20zM659 80l19 -60q-44 -26 -89 -26
t-76.5 28t-35.5 79q-56 -107 -191 -107q-113 0 -177 74.5t-64 180.5q0 107 63.5 183.5t176.5 76.5q133 0 188 -102v90h77v-368q0 -32 16 -47.5t41 -15.5q27 0 52 14zM297 65q77 0 126 52t49 135t-49 134.5t-128 51.5q-82 0 -127 -54t-45 -133q0 -82 48 -134t126 -52z" />
    <glyph glyph-name="AEacute" unicode="&#x1fc;" horiz-adv-x="993" 
d="M490 841l253 82l21 -72l-253 -75zM569 76h358v-76h-439v194h-277l-95 -194h-91l348 700h545v-76h-349v-234h295v-76h-295v-238zM247 270h241v355h-67z" />
    <glyph glyph-name="aeacute" unicode="&#x1fd;" horiz-adv-x="891" 
d="M390 665l253 82l21 -72l-253 -75zM846 272v-47h-382q6 -67 51.5 -114t122.5 -47q48 0 87.5 21.5t63.5 59.5l48 -45q-81 -106 -206 -106q-79 0 -134 36.5t-81 97.5q-61 -134 -202 -134q-79 0 -124 43t-45 107t46.5 104t137.5 40h158v26q0 60 -36.5 91t-90.5 31
q-98 0 -149 -71l-51 48q35 47 88.5 71.5t113.5 24.5q63 0 110.5 -27t65.5 -76q68 103 194 103q101 0 157.5 -63.5t56.5 -173.5zM463 288h305q0 74 -35.5 113.5t-103.5 39.5q-71 0 -114 -43.5t-52 -109.5zM229 65q67 0 112 43.5t47 120.5h-158q-54 0 -80 -21t-26 -57
q0 -37 27 -61.5t78 -24.5z" />
    <glyph glyph-name="Oslashacute" unicode="&#x1fe;" horiz-adv-x="833" 
d="M614 851l-253 -75l-21 65l253 82zM657 629q120 -106 120 -279q0 -158 -102.5 -262t-258.5 -104q-107 0 -193 53l-84 -115l-44 33l83 114q-123 107 -123 281q0 157 103 261.5t258 104.5q109 0 196 -54l82 111l44 -33zM138 350q0 -133 88 -216l339 463q-65 42 -149 42
q-120 0 -199 -82t-79 -207zM416 61q120 0 199 82t79 207q0 130 -85 213l-339 -462q65 -40 146 -40z" />
    <glyph glyph-name="oslashacute" unicode="&#x1ff;" horiz-adv-x="591" 
d="M504 675l-253 -75l-21 65l253 82zM470 442q75 -73 75 -190q0 -112 -70 -185t-180 -73q-73 0 -130 34l-70 -96l-43 33l70 95q-77 75 -77 192q0 111 70.5 184t179.5 73q74 0 132 -35l69 95l43 -33zM123 252q0 -78 44 -130l216 293q-38 23 -88 23q-76 0 -124 -52.5
t-48 -133.5zM295 66q76 0 124 52t48 134q0 75 -43 128l-215 -292q39 -22 86 -22z" />
    <glyph glyph-name="uni0218" unicode="&#x218;" horiz-adv-x="561" 
d="M515 188q0 -94 -66.5 -149t-162.5 -55q-66 0 -130 27.5t-111 82.5l60 61q76 -93 188 -93q62 0 100.5 32.5t38.5 83.5q0 22 -9.5 40.5t-21.5 30.5t-36.5 24t-41.5 18.5t-48 16.5q-8 3 -12 4q-37 12 -59 21t-53 26.5t-48.5 36.5t-30.5 50t-13 68q0 94 66 148t159 54
q127 0 205 -92l-54 -57q-59 71 -155 71q-58 0 -98 -29.5t-40 -84.5t40 -84.5t116 -53.5q101 -34 134 -54q83 -49 83 -144zM220 -218l75 156l68 -33l-90 -149z" />
    <glyph glyph-name="uni0219" unicode="&#x219;" horiz-adv-x="487" 
d="M447 146q0 -71 -55 -111.5t-135 -40.5q-62 0 -120.5 26.5t-96.5 75.5l53 53q27 -41 74.5 -63t95.5 -22q46 0 76 18.5t30 53.5q0 34 -28.5 49t-88.5 27q-34 7 -53.5 11.5t-48.5 16.5t-45 26t-28.5 38.5t-12.5 55.5q0 71 51.5 110t126.5 39q111 0 175 -70l-44 -54
q-48 55 -135 55q-42 0 -69.5 -19t-27.5 -55q0 -17 7.5 -29.5t16.5 -20t29.5 -15t34.5 -10.5l42 -9q33 -6 51 -10.5t45.5 -15t42 -23.5t26 -35.5t11.5 -51.5zM152 -218l75 156l68 -33l-90 -149z" />
    <glyph glyph-name="uni021A" unicode="&#x21a;" horiz-adv-x="613" 
d="M347 624v-624h-81v624h-241v76h563v-76h-241zM206 -218l75 156l68 -33l-90 -149z" />
    <glyph glyph-name="uni021B" unicode="&#x21b;" horiz-adv-x="429" 
d="M404 41q-59 -47 -129 -47q-65 0 -109 41t-44 117v274h-107v71h107v137h78v-137h158v-71h-158v-270q0 -44 26 -67t65 -23q49 0 88 30zM170 -218l75 156l68 -33l-90 -149z" />
    <glyph glyph-name="circumflex" unicode="&#x2c6;" horiz-adv-x="362" 
d="M181 802l181 -142l-42 -54l-139 109l-139 -109l-42 54z" />
    <glyph glyph-name="caron" unicode="&#x2c7;" horiz-adv-x="362" 
d="M181 601l-181 142l42 54l139 -109l139 109l42 -54z" />
    <glyph glyph-name="breve" unicode="&#x2d8;" horiz-adv-x="304" 
d="M234 753h70q-1 -63 -39.5 -107.5t-112.5 -44.5t-112 44.5t-40 107.5h70q3 -86 82 -86t82 86z" />
    <glyph glyph-name="dotaccent" unicode="&#x2d9;" horiz-adv-x="122" 
d="M61 721q27 0 44 -17.5t17 -42.5t-17 -42.5t-44 -17.5t-44 17.5t-17 42.5t17.5 42.5t43.5 17.5z" />
    <glyph glyph-name="ring" unicode="&#x2da;" horiz-adv-x="272" 
d="M136 601q-59 0 -97.5 39t-38.5 97t38.5 96.5t97.5 38.5t97.5 -38.5t38.5 -96.5t-38.5 -97t-97.5 -39zM136 657q34 0 55 23.5t21 56.5t-21 56t-55 23q-35 0 -55.5 -22.5t-20.5 -56.5t20.5 -57t55.5 -23z" />
    <glyph glyph-name="ogonek" unicode="&#x2db;" horiz-adv-x="200" 
d="M187 -271q-89 9 -138 51.5t-49 98.5q0 79 99 131l54 -10q-81 -36 -81 -102q0 -35 32 -60.5t96 -34.5z" />
    <glyph glyph-name="tilde" unicode="&#x2dc;" horiz-adv-x="390" 
d="M340 739l50 -27q-20 -50 -51 -80.5t-66 -30.5q-30 0 -85 36q-48 32 -69 32q-23 0 -37.5 -17.5t-32.5 -51.5l-49 29q47 109 123 109q7 0 14 -1t12 -2.5t12.5 -5t11.5 -5t12 -6.5t10 -6t11 -7t10 -7q37 -26 59 -26t35 15.5t30 51.5z" />
    <glyph glyph-name="hungarumlaut" unicode="&#x2dd;" horiz-adv-x="305" 
d="M151 759l-75 -158h-76l68 158h83zM305 759l-75 -158h-76l68 158h83z" />
    <glyph glyph-name="uni0326" unicode="&#x326;" horiz-adv-x="0" 
d="M-143 -218l75 156l68 -33l-90 -149z" />
    <glyph glyph-name="uni0394" unicode="&#x394;" horiz-adv-x="731" 
d="M406 700l300 -700h-681l301 700h80zM586 75l-220 519l-220 -519h440z" />
    <glyph glyph-name="uni03A9" unicode="&#x3a9;" horiz-adv-x="762" 
d="M494 157v-82h168v-75h-238v204q91 19 145 78t54 143q0 95 -69.5 154.5t-172.5 59.5q-104 0 -173.5 -59.5t-69.5 -154.5q0 -84 54 -143t145 -78v-204h-237v75h168v82q-213 74 -213 267q0 131 92.5 211.5t233.5 80.5q140 0 232.5 -80.5t92.5 -211.5q0 -193 -212 -267z" />
    <glyph glyph-name="uni03BC" unicode="&#x3bc;" horiz-adv-x="574" 
d="M420 497h78v-497h-77v98q-24 -48 -69.5 -76t-103.5 -28q-69 0 -106 53v-268h-78v718h78v-299q0 -61 34 -97t88 -36q63 0 109.5 48t46.5 133v251z" />
    <glyph glyph-name="pi" unicode="&#x3c0;" horiz-adv-x="803" 
d="M695 85l33 -58q-42 -33 -99 -33q-63 0 -104.5 43.5t-41.5 113.5v272h-196v-423h-80v423h-132v74h643v-74h-156v-273q0 -41 19.5 -64t52.5 -23q36 0 61 22z" />
    <glyph glyph-name="uni1E02" unicode="&#x1e02;" horiz-adv-x="603" 
d="M290 897q27 0 44 -17.5t17 -42.5t-17 -42.5t-44 -17.5t-44 17.5t-17 42.5t17.5 42.5t43.5 17.5zM397 371q74 -14 112.5 -61t38.5 -108q0 -80 -61.5 -141t-164.5 -61h-237v700h240q93 0 143 -50t50 -120q0 -56 -32 -100.5t-89 -58.5zM166 625v-229h137q61 0 96.5 36
t35.5 84q0 45 -33 77t-93 32h-143zM328 75q64 0 100.5 37.5t36.5 87.5q0 51 -37.5 89.5t-103.5 38.5h-158v-253h162z" />
    <glyph glyph-name="uni1E03" unicode="&#x1e03;" horiz-adv-x="625" 
d="M356 721q27 0 44 -17.5t17 -42.5t-17 -42.5t-44 -17.5t-44 17.5t-17 42.5t17.5 42.5t43.5 17.5zM340 509q113 0 176.5 -76.5t63.5 -182.5t-63.5 -181t-177.5 -75q-64 0 -112.5 26.5t-75.5 74.5v-95h-76v700h78v-292q55 101 187 101zM330 65q76 0 124 52t48 135
q0 78 -45 132t-127 54q-79 0 -128 -52t-49 -134q0 -83 49 -135t128 -52z" />
    <glyph glyph-name="uni1E0A" unicode="&#x1e0a;" horiz-adv-x="722" 
d="M299 897q27 0 44 -17.5t17 -42.5t-17 -42.5t-44 -17.5t-44 17.5t-17 42.5t17.5 42.5t43.5 17.5zM85 0v700h221q87 0 157 -29.5t113.5 -78.5t66.5 -110t23 -127q0 -68 -23.5 -130.5t-67.5 -113t-115.5 -81t-159.5 -30.5h-215zM306 624h-139v-548h138q89 0 154 41t94.5 102
t29.5 132q0 111 -73.5 192t-203.5 81z" />
    <glyph glyph-name="uni1E0B" unicode="&#x1e0b;" horiz-adv-x="625" 
d="M277 721q27 0 44 -17.5t17 -42.5t-17 -42.5t-44 -17.5t-44 17.5t-17 42.5t17.5 42.5t43.5 17.5zM285 509q132 0 187 -99v290h78v-700h-76v94q-55 -100 -188 -100q-114 0 -177.5 75t-63.5 181t63.5 182.5t176.5 76.5zM295 65q79 0 128 52t49 135q0 82 -49 134t-128 52
q-82 0 -127 -54t-45 -132q0 -83 48 -135t124 -52z" />
    <glyph glyph-name="uni1E1E" unicode="&#x1e1e;" horiz-adv-x="570" 
d="M302 897q27 0 44 -17.5t17 -42.5t-17 -42.5t-44 -17.5t-44 17.5t-17 42.5t17.5 42.5t43.5 17.5zM461 311h-294v-311h-82v700h430v-76h-348v-237h294v-76z" />
    <glyph glyph-name="uni1E1F" unicode="&#x1e1f;" horiz-adv-x="381" 
d="M269 897q27 0 44 -17.5t17 -42.5t-17 -42.5t-44 -17.5t-44 17.5t-17 42.5t17.5 42.5t43.5 17.5zM192 558v-61h140v-71h-140v-426h-78v426h-99v71h99v61q0 76 44 119.5t117 43.5q74 0 121 -46l-39 -58q-31 32 -79 32q-41 0 -63.5 -23.5t-22.5 -67.5z" />
    <glyph glyph-name="uni1E40" unicode="&#x1e40;" horiz-adv-x="862" 
d="M437 897q27 0 44 -17.5t17 -42.5t-17 -42.5t-44 -17.5t-44 17.5t-17 42.5t17.5 42.5t43.5 17.5zM681 700h96v-700h-82v556l-225 -400h-78l-225 400v-556h-82v700h96l250 -455z" />
    <glyph glyph-name="uni1E41" unicode="&#x1e41;" horiz-adv-x="888" 
d="M447 721q27 0 44 -17.5t17 -42.5t-17 -42.5t-44 -17.5t-44 17.5t-17 42.5t17.5 42.5t43.5 17.5zM641 509q80 0 126 -49.5t46 -135.5v-324h-78v305q0 62 -30 98t-81 36q-59 0 -100 -48t-41 -134v-257h-78v305q0 62 -30 98t-81 36q-59 0 -100 -48t-41 -134v-257h-78v497h77
v-92q53 104 159 104q61 0 103 -30t59 -84q22 53 64.5 83.5t103.5 30.5z" />
    <glyph glyph-name="uni1E56" unicode="&#x1e56;" horiz-adv-x="571" 
d="M278 897q27 0 44 -17.5t17 -42.5t-17 -42.5t-44 -17.5t-44 17.5t-17 42.5t17.5 42.5t43.5 17.5zM314 700q102 0 156.5 -57t54.5 -137q0 -83 -60.5 -146t-164.5 -63h-133v-297h-82v700h229zM167 372h136q66 0 103 39.5t37 92.5q0 49 -34.5 85t-95.5 36h-146v-253z" />
    <glyph glyph-name="uni1E57" unicode="&#x1e57;" horiz-adv-x="625" 
d="M347 721q27 0 44 -17.5t17 -42.5t-17 -42.5t-44 -17.5t-44 17.5t-17 42.5t17.5 42.5t43.5 17.5zM340 509q112 0 176 -76t64 -180t-64 -178.5t-177 -74.5q-127 0 -186 98v-319h-78v718h77v-90q55 102 188 102zM330 71q76 0 124 51.5t48 132.5q0 76 -45.5 129.5
t-126.5 53.5q-78 0 -127.5 -51.5t-49.5 -131.5q0 -81 49.5 -132.5t127.5 -51.5z" />
    <glyph glyph-name="uni1E60" unicode="&#x1e60;" horiz-adv-x="561" 
d="M295 897q27 0 44 -17.5t17 -42.5t-17 -42.5t-44 -17.5t-44 17.5t-17 42.5t17.5 42.5t43.5 17.5zM515 188q0 -94 -66.5 -149t-162.5 -55q-66 0 -130 27.5t-111 82.5l60 61q76 -93 188 -93q62 0 100.5 32.5t38.5 83.5q0 22 -9.5 40.5t-21.5 30.5t-36.5 24t-41.5 18.5
t-48 16.5q-8 3 -12 4q-37 12 -59 21t-53 26.5t-48.5 36.5t-30.5 50t-13 68q0 94 66 148t159 54q127 0 205 -92l-54 -57q-59 71 -155 71q-58 0 -98 -29.5t-40 -84.5t40 -84.5t116 -53.5q101 -34 134 -54q83 -49 83 -144z" />
    <glyph glyph-name="uni1E61" unicode="&#x1e61;" horiz-adv-x="487" 
d="M250 721q27 0 44 -17.5t17 -42.5t-17 -42.5t-44 -17.5t-44 17.5t-17 42.5t17.5 42.5t43.5 17.5zM447 146q0 -71 -55 -111.5t-135 -40.5q-62 0 -120.5 26.5t-96.5 75.5l53 53q27 -41 74.5 -63t95.5 -22q46 0 76 18.5t30 53.5q0 34 -28.5 49t-88.5 27q-34 7 -53.5 11.5
t-48.5 16.5t-45 26t-28.5 38.5t-12.5 55.5q0 71 51.5 110t126.5 39q111 0 175 -70l-44 -54q-48 55 -135 55q-42 0 -69.5 -19t-27.5 -55q0 -17 7.5 -29.5t16.5 -20t29.5 -15t34.5 -10.5l42 -9q33 -6 51 -10.5t45.5 -15t42 -23.5t26 -35.5t11.5 -51.5z" />
    <glyph glyph-name="uni1E6A" unicode="&#x1e6a;" horiz-adv-x="613" 
d="M307 897q27 0 44 -17.5t17 -42.5t-17 -42.5t-44 -17.5t-44 17.5t-17 42.5t17.5 42.5t43.5 17.5zM347 624v-624h-81v624h-241v76h563v-76h-241z" />
    <glyph glyph-name="uni1E6B" unicode="&#x1e6b;" horiz-adv-x="429" 
d="M167 814q27 0 44 -17.5t17 -42.5t-17 -42.5t-44 -17.5t-44 17.5t-17 42.5t17.5 42.5t43.5 17.5zM404 41q-59 -47 -129 -47q-65 0 -109 41t-44 117v274h-107v71h107v137h78v-137h158v-71h-158v-270q0 -44 26 -67t65 -23q49 0 88 30z" />
    <glyph glyph-name="Wgrave" unicode="&#x1e80;" horiz-adv-x="998" 
d="M326 923l253 -82l-21 -65l-253 75zM894 700h87l-226 -700h-78l-178 554l-178 -554h-77l-226 700h87l178 -568l177 568h78l178 -568z" />
    <glyph glyph-name="wgrave" unicode="&#x1e81;" horiz-adv-x="846" 
d="M254 747l253 -82l-21 -65l-253 75zM735 497h86l-186 -497h-72l-139 380l-141 -380h-72l-186 497h84l138 -392l138 392h76l138 -392z" />
    <glyph glyph-name="Wacute" unicode="&#x1e82;" horiz-adv-x="998" 
d="M436 841l253 82l21 -72l-253 -75zM894 700h87l-226 -700h-78l-178 554l-178 -554h-77l-226 700h87l178 -568l177 568h78l178 -568z" />
    <glyph glyph-name="wacute" unicode="&#x1e83;" horiz-adv-x="846" 
d="M343 665l253 82l21 -72l-253 -75zM735 497h86l-186 -497h-72l-139 380l-141 -380h-72l-186 497h84l138 -392l138 392h76l138 -392z" />
    <glyph glyph-name="Wdieresis" unicode="&#x1e84;" horiz-adv-x="998" 
d="M388 888q24 0 40.5 -16t16.5 -40q0 -23 -16.5 -39.5t-40.5 -16.5q-25 0 -41.5 16.5t-16.5 39.5q0 24 16.5 40t41.5 16zM612 888q24 0 40.5 -16t16.5 -40q0 -23 -16.5 -39.5t-40.5 -16.5q-25 0 -41.5 16.5t-16.5 39.5q0 24 16.5 40t41.5 16zM894 700h87l-226 -700h-78
l-178 554l-178 -554h-77l-226 700h87l178 -568l177 568h78l178 -568z" />
    <glyph glyph-name="wdieresis" unicode="&#x1e85;" horiz-adv-x="846" 
d="M322 713q24 0 40.5 -16t16.5 -40q0 -23 -16.5 -39.5t-40.5 -16.5q-25 0 -41.5 16.5t-16.5 39.5q0 24 16.5 40t41.5 16zM526 713q24 0 40.5 -16t16.5 -40q0 -23 -16.5 -39.5t-40.5 -16.5q-25 0 -41.5 16.5t-16.5 39.5q0 24 16.5 40t41.5 16zM735 497h86l-186 -497h-72
l-139 380l-141 -380h-72l-186 497h84l138 -392l138 392h76l138 -392z" />
    <glyph glyph-name="Ygrave" unicode="&#x1ef2;" horiz-adv-x="631" 
d="M161 923l253 -82l-21 -65l-253 75zM615 700l-259 -401v-299h-81v299l-260 401h99l201 -328l202 328h98z" />
    <glyph glyph-name="ygrave" unicode="&#x1ef3;" horiz-adv-x="585" 
d="M150 747l253 -82l-21 -65l-253 75zM432 497h78v-485q0 -115 -63 -180.5t-172 -65.5q-91 0 -154.5 46t-85.5 128l75 26q37 -129 167 -129q74 0 114.5 43t40.5 123v106q-23 -48 -69 -75.5t-105 -27.5q-78 0 -135.5 49.5t-57.5 137.5v304h78v-283q0 -63 35.5 -99.5
t94.5 -36.5q69 0 114 50.5t45 131.5v237z" />
    <glyph glyph-name="endash" unicode="&#x2013;" horiz-adv-x="498" 
d="M56 344h386v-70h-386v70z" />
    <glyph glyph-name="emdash" unicode="&#x2014;" horiz-adv-x="689" 
d="M56 344h577v-70h-577v70z" />
    <glyph glyph-name="quoteleft" unicode="&#x2018;" horiz-adv-x="239" 
d="M204 672l-101 -266l-78 32l116 260z" />
    <glyph glyph-name="quoteright" unicode="&#x2019;" horiz-adv-x="239" 
d="M25 464l101 266l78 -32l-116 -260z" />
    <glyph glyph-name="quotesinglbase" unicode="&#x201a;" horiz-adv-x="239" 
d="M25 -141l101 266l78 -32l-116 -260z" />
    <glyph glyph-name="quotedblleft" unicode="&#x201c;" horiz-adv-x="426" 
d="M204 672l-101 -266l-78 32l116 260zM391 672l-101 -266l-78 32l116 260z" />
    <glyph glyph-name="quotedblright" unicode="&#x201d;" horiz-adv-x="426" 
d="M25 464l101 266l78 -32l-116 -260zM212 464l101 266l78 -32l-116 -260z" />
    <glyph glyph-name="quotedblbase" unicode="&#x201e;" horiz-adv-x="426" 
d="M25 -141l101 266l78 -32l-116 -260zM212 -141l101 266l78 -32l-116 -260z" />
    <glyph glyph-name="dagger" unicode="&#x2020;" horiz-adv-x="527" 
d="M303 704v-197h167v-74h-167v-433h-79v433h-168v74h168v197h79z" />
    <glyph glyph-name="daggerdbl" unicode="&#x2021;" horiz-adv-x="527" 
d="M470 458h-167v-212h167v-74h-167v-172h-79v172h-168v74h168v212h-168v74h168v172h79v-172h167v-74z" />
    <glyph glyph-name="bullet" unicode="&#x2022;" horiz-adv-x="232" 
d="M198 271q0 -33 -24 -57.5t-57 -24.5q-34 0 -58.5 24.5t-24.5 57.5t24.5 57t58.5 24q33 0 57 -24t24 -57z" />
    <glyph glyph-name="ellipsis" unicode="&#x2026;" horiz-adv-x="774" 
d="M129 114q27 0 44 -17.5t17 -42.5t-17 -42.5t-44 -17.5t-44 17.5t-17 42.5t17.5 42.5t43.5 17.5zM387 114q27 0 44 -17.5t17 -42.5t-17 -42.5t-44 -17.5t-44 17.5t-17 42.5t17.5 42.5t43.5 17.5zM645 114q27 0 44 -17.5t17 -42.5t-17 -42.5t-44 -17.5t-44 17.5t-17 42.5
t17.5 42.5t43.5 17.5z" />
    <glyph glyph-name="perthousand" unicode="&#x2030;" horiz-adv-x="1419" 
d="M282 -16l-51 36l481 696l51 -36zM226 711q77 0 129.5 -52t52.5 -128t-53 -128.5t-129 -52.5t-129 52.5t-53 128.5t52.5 128t129.5 52zM226 414q49 0 81.5 33.5t32.5 83.5t-32.5 83.5t-81.5 33.5q-48 0 -81 -33.5t-33 -83.5t33 -83.5t81 -33.5zM767 345q77 0 129.5 -52
t52.5 -128t-53 -128.5t-129 -52.5t-129 52.5t-53 128.5t52.5 128t129.5 52zM1193 345q77 0 129.5 -52t52.5 -128t-53 -128.5t-129 -52.5t-129 52.5t-53 128.5t52.5 128t129.5 52zM767 48q49 0 81.5 33.5t32.5 83.5t-32.5 83.5t-81.5 33.5q-48 0 -81 -33.5t-33 -83.5
t33 -83.5t81 -33.5zM1193 48q49 0 81.5 33.5t32.5 83.5t-32.5 83.5t-81.5 33.5q-48 0 -81 -33.5t-33 -83.5t33 -83.5t81 -33.5z" />
    <glyph glyph-name="guilsinglleft" unicode="&#x2039;" horiz-adv-x="317" 
d="M117 278l154 -182l-52 -45l-194 227l194 226l52 -45z" />
    <glyph glyph-name="guilsinglright" unicode="&#x203a;" horiz-adv-x="317" 
d="M200 278l-154 181l52 45l194 -226l-194 -227l-52 45z" />
    <glyph glyph-name="fraction" unicode="&#x2044;" horiz-adv-x="677" 
d="M126 -16l-51 36l481 696l51 -36z" />
    <glyph glyph-name="Euro" unicode="&#x20ac;" horiz-adv-x="841" 
d="M738 218l68 -29q-42 -95 -121 -145t-183 -50q-118 0 -203 64.5t-115 173.5h-129v52h118q-4 25 -4 60q0 27 3 51h-117v52h126q31 118 123.5 185.5t212.5 67.5q85 0 154.5 -35.5t113.5 -104.5l-65 -44q-33 53 -87.5 81.5t-120.5 28.5q-86 0 -154 -47t-94 -132h329v-52h-341
q-3 -23 -3 -48q0 -30 5 -63h339v-52h-324q29 -77 95.5 -119.5t147.5 -42.5q76 0 136 38.5t90 109.5z" />
    <glyph glyph-name="uni2113" unicode="&#x2113;" horiz-adv-x="531" 
d="M398 716q46 0 79.5 -27t33.5 -76q0 -97 -137 -172l-99 -54l-52 -221q-4 -16 -4 -32q0 -32 19 -51t50 -19q32 0 65 18l16 -60q-53 -28 -104 -28q-58 0 -94 34.5t-36 90.5q0 19 7 45l43 184l-86 -45l-24 53l125 63l35 153q16 71 62 107.5t101 36.5zM347 490q98 49 98 113
q0 26 -14.5 41t-35.5 15q-55 0 -72 -68l-31 -129z" />
    <glyph glyph-name="uni2116" unicode="&#x2116;" horiz-adv-x="1162" 
d="M937 711q77 0 129.5 -52t52.5 -128t-53 -128.5t-129 -52.5t-129 52.5t-53 128.5t52.5 128t129.5 52zM576 700h81v-700h-89l-401 568v-568h-82v700h89l402 -572v572zM937 414q49 0 81.5 33.5t32.5 83.5t-32.5 83.5t-81.5 33.5q-48 0 -81 -33.5t-33 -83.5t33 -83.5
t81 -33.5z" />
    <glyph glyph-name="trademark" unicode="&#x2122;" horiz-adv-x="828" 
d="M45 641v59h310v-59h-124v-295h-63v295h-123zM704 700h79v-354h-62v256l-98 -169h-50l-98 168v-255h-62v354h77l108 -194z" />
    <glyph glyph-name="estimated" unicode="&#x212e;" horiz-adv-x="513" 
d="M271 31q123 0 146 118h45q-11 -79 -65 -119.5t-130 -40.5q-96 0 -159 63.5t-63 189.5q0 127 62.5 193.5t155.5 66.5q85 0 144.5 -55t59.5 -155q0 -32 -3 -50h-339v-127q44 -84 146 -84zM125 287h253v118q-40 55 -115 55q-43 0 -80 -20t-58 -55v-98z" />
    <glyph glyph-name="uni2153" unicode="&#x2153;" horiz-adv-x="930" 
d="M229 -16l-51 36l481 696l51 -36zM147 275v358h-62v60h125v-418h-63zM760 218q85 -25 85 -103q0 -53 -40 -87.5t-101 -34.5q-50 0 -90 25.5t-60 69.5l56 30q30 -66 97 -66q33 0 53.5 16.5t20.5 44.5q0 33 -28.5 52t-80.5 19h-25v56q55 0 85.5 18t30.5 52q0 25 -17 40
t-47 15q-59 0 -88 -55l-47 32q19 38 56.5 60t82.5 22q54 0 89 -29.5t35 -75.5q0 -32 -18 -59t-49 -42z" />
    <glyph glyph-name="uni2154" unicode="&#x2154;" horiz-adv-x="1067" 
d="M368 -16l-51 36l481 696l51 -36zM180 336h202v-60h-289v54l137 124q71 64 71 115q0 31 -20 50.5t-52 19.5q-38 0 -61 -26t-23 -68l-60 6q1 65 42.5 107t104.5 42q58 0 96 -36.5t38 -91.5q0 -28 -9 -52.5t-27.5 -46.5t-27.5 -30.5t-27 -23.5zM897 218q85 -25 85 -103
q0 -53 -40 -87.5t-101 -34.5q-50 0 -90 25.5t-60 69.5l56 30q30 -66 97 -66q33 0 53.5 16.5t20.5 44.5q0 33 -28.5 52t-80.5 19h-25v56q55 0 85.5 18t30.5 52q0 25 -17 40t-47 15q-59 0 -88 -55l-47 32q19 38 56.5 60t82.5 22q54 0 89 -29.5t35 -75.5q0 -32 -18 -59t-49 -42
z" />
    <glyph glyph-name="uni2155" unicode="&#x2155;" horiz-adv-x="992" 
d="M229 -16l-51 36l481 696l51 -36zM147 275v358h-62v60h125v-418h-63zM768 276q65 0 102 -39t37 -97q0 -61 -40.5 -104t-111.5 -43q-52 0 -93 26.5t-58 72.5l59 27q8 -30 34 -48.5t61 -18.5q39 0 62 24.5t23 58.5t-23 59.5t-61 25.5q-53 0 -84 -42h-51v240h248v-60h-191
v-113q34 31 87 31z" />
    <glyph glyph-name="uni2156" unicode="&#x2156;" horiz-adv-x="1129" 
d="M368 -16l-51 36l481 696l51 -36zM180 336h202v-60h-289v54l137 124q71 64 71 115q0 31 -20 50.5t-52 19.5q-38 0 -61 -26t-23 -68l-60 6q1 65 42.5 107t104.5 42q58 0 96 -36.5t38 -91.5q0 -28 -9 -52.5t-27.5 -46.5t-27.5 -30.5t-27 -23.5zM905 276q65 0 102 -39t37 -97
q0 -61 -40.5 -104t-111.5 -43q-52 0 -93 26.5t-58 72.5l59 27q8 -30 34 -48.5t61 -18.5q39 0 62 24.5t23 58.5t-23 59.5t-61 25.5q-53 0 -84 -42h-51v240h248v-60h-191v-113q34 31 87 31z" />
    <glyph glyph-name="uni2157" unicode="&#x2157;" horiz-adv-x="1130" 
d="M365 -16l-51 36l481 696l51 -36zM291 494q85 -25 85 -103q0 -53 -40 -87.5t-101 -34.5q-50 0 -90 25.5t-60 69.5l56 30q30 -66 97 -66q33 0 53.5 16.5t20.5 44.5q0 33 -28.5 52t-80.5 19h-25v56q55 0 85.5 18t30.5 52q0 25 -17 40t-47 15q-59 0 -88 -55l-47 32
q19 38 56.5 60t82.5 22q54 0 89 -29.5t35 -75.5q0 -32 -18 -59t-49 -42zM906 276q65 0 102 -39t37 -97q0 -61 -40.5 -104t-111.5 -43q-52 0 -93 26.5t-58 72.5l59 27q8 -30 34 -48.5t61 -18.5q39 0 62 24.5t23 58.5t-23 59.5t-61 25.5q-53 0 -84 -42h-51v240h248v-60h-191
v-113q34 31 87 31z" />
    <glyph glyph-name="uni2158" unicode="&#x2158;" horiz-adv-x="1155" 
d="M392 -16l-51 36l481 696l51 -36zM339 441h76v-59h-76v-106h-64v106h-190v53l191 259h63v-253zM154 441h121v166zM931 276q65 0 102 -39t37 -97q0 -61 -40.5 -104t-111.5 -43q-52 0 -93 26.5t-58 72.5l59 27q8 -30 34 -48.5t61 -18.5q39 0 62 24.5t23 58.5t-23 59.5
t-61 25.5q-53 0 -84 -42h-51v240h248v-60h-191v-113q34 31 87 31z" />
    <glyph glyph-name="uni2159" unicode="&#x2159;" horiz-adv-x="952" 
d="M229 -16l-51 36l481 696l51 -36zM147 275v358h-62v60h125v-418h-63zM729 277q62 0 100 -38.5t38 -100.5q0 -63 -42 -104t-106 -41q-74 0 -119 53t-45 139q0 111 69.5 175t187.5 64l2 -60q-169 0 -191 -135q40 48 106 48zM719 52q38 0 61 23.5t23 61.5t-23 61.5t-60 23.5
q-39 0 -64 -24t-25 -61t25 -61t63 -24z" />
    <glyph glyph-name="uni215A" unicode="&#x215a;" horiz-adv-x="1075" 
d="M351 -16l-51 36l481 696l51 -36zM249 552q65 0 102 -39t37 -97q0 -61 -40.5 -104t-111.5 -43q-52 0 -93 26.5t-58 72.5l59 27q8 -30 34 -48.5t61 -18.5q39 0 62 24.5t23 58.5t-23 59.5t-61 25.5q-53 0 -84 -42h-51v240h248v-60h-191v-113q34 31 87 31zM852 277
q62 0 100 -38.5t38 -100.5q0 -63 -42 -104t-106 -41q-74 0 -119 53t-45 139q0 111 69.5 175t187.5 64l2 -60q-169 0 -191 -135q40 48 106 48zM842 52q38 0 61 23.5t23 61.5t-23 61.5t-60 23.5q-39 0 -64 -24t-25 -61t25 -61t63 -24z" />
    <glyph glyph-name="oneeighth" unicode="&#x215b;" horiz-adv-x="960" 
d="M229 -16l-51 36l481 696l51 -36zM147 275v358h-62v60h125v-418h-63zM791 218q84 -32 84 -107q0 -52 -43 -85t-110 -33q-66 0 -108 32.5t-42 84.5q0 37 21.5 67t58.5 44q-62 32 -62 93q0 49 37.5 79.5t97.5 30.5q59 0 95 -29t36 -78q0 -67 -65 -99zM654 309q0 -51 81 -68
q58 22 58 69q0 26 -18.5 40.5t-50.5 14.5t-51 -15.5t-19 -40.5zM725 53q40 0 63 16.5t23 43.5q0 56 -109 81q-66 -23 -66 -76q0 -30 23.5 -47.5t65.5 -17.5z" />
    <glyph glyph-name="threeeighths" unicode="&#x215c;" horiz-adv-x="1097" 
d="M365 -16l-51 36l481 696l51 -36zM291 494q85 -25 85 -103q0 -53 -40 -87.5t-101 -34.5q-50 0 -90 25.5t-60 69.5l56 30q30 -66 97 -66q33 0 53.5 16.5t20.5 44.5q0 33 -28.5 52t-80.5 19h-25v56q55 0 85.5 18t30.5 52q0 25 -17 40t-47 15q-59 0 -88 -55l-47 32
q19 38 56.5 60t82.5 22q54 0 89 -29.5t35 -75.5q0 -32 -18 -59t-49 -42zM928 218q84 -32 84 -107q0 -52 -43 -85t-110 -33q-66 0 -108 32.5t-42 84.5q0 37 21.5 67t58.5 44q-62 32 -62 93q0 49 37.5 79.5t97.5 30.5q59 0 95 -29t36 -78q0 -67 -65 -99zM791 309q0 -51 81 -68
q58 22 58 69q0 26 -18.5 40.5t-50.5 14.5t-51 -15.5t-19 -40.5zM862 53q40 0 63 16.5t23 43.5q0 56 -109 81q-66 -23 -66 -76q0 -30 23.5 -47.5t65.5 -17.5z" />
    <glyph glyph-name="fiveeighths" unicode="&#x215d;" horiz-adv-x="1082" 
d="M351 -16l-51 36l481 696l51 -36zM249 552q65 0 102 -39t37 -97q0 -61 -40.5 -104t-111.5 -43q-52 0 -93 26.5t-58 72.5l59 27q8 -30 34 -48.5t61 -18.5q39 0 62 24.5t23 58.5t-23 59.5t-61 25.5q-53 0 -84 -42h-51v240h248v-60h-191v-113q34 31 87 31zM913 218
q84 -32 84 -107q0 -52 -43 -85t-110 -33q-66 0 -108 32.5t-42 84.5q0 37 21.5 67t58.5 44q-62 32 -62 93q0 49 37.5 79.5t97.5 30.5q59 0 95 -29t36 -78q0 -67 -65 -99zM776 309q0 -51 81 -68q58 22 58 69q0 26 -18.5 40.5t-50.5 14.5t-51 -15.5t-19 -40.5zM847 53
q40 0 63 16.5t23 43.5q0 56 -109 81q-66 -23 -66 -76q0 -30 23.5 -47.5t65.5 -17.5z" />
    <glyph glyph-name="seveneighths" unicode="&#x215e;" horiz-adv-x="1034" 
d="M301 -16l-51 36l481 696l51 -36zM142 276l181 357h-238v61h308v-54l-180 -364h-71zM865 218q84 -32 84 -107q0 -52 -43 -85t-110 -33q-66 0 -108 32.5t-42 84.5q0 37 21.5 67t58.5 44q-62 32 -62 93q0 49 37.5 79.5t97.5 30.5q59 0 95 -29t36 -78q0 -67 -65 -99zM728 309
q0 -51 81 -68q58 22 58 69q0 26 -18.5 40.5t-50.5 14.5t-51 -15.5t-19 -40.5zM799 53q40 0 63 16.5t23 43.5q0 56 -109 81q-66 -23 -66 -76q0 -30 23.5 -47.5t65.5 -17.5z" />
    <glyph glyph-name="arrowleft" unicode="&#x2190;" horiz-adv-x="663" 
d="M292 54l-248 248l248 247l44 -42l-175 -174h458v-63h-458l175 -172z" />
    <glyph glyph-name="arrowup" unicode="&#x2191;" horiz-adv-x="583" 
d="M539 327l-44 -44l-172 175v-458h-63v458l-174 -175l-42 44l247 248z" />
    <glyph glyph-name="arrowright" unicode="&#x2192;" horiz-adv-x="663" 
d="M371 55l-44 44l175 172h-458v63h458l-175 174l44 42l248 -247z" />
    <glyph glyph-name="arrowdown" unicode="&#x2193;" horiz-adv-x="583" 
d="M539 248l-248 -248l-247 248l42 44l174 -175v458h63v-458l172 175z" />
    <glyph glyph-name="partialdiff" unicode="&#x2202;" horiz-adv-x="606" 
d="M45 229q0 101 63 163.5t157 62.5q69 0 126.5 -35t78.5 -97q-6 149 -94.5 225.5t-239.5 77.5l3 74q190 0 300.5 -107t110.5 -284q0 -151 -77.5 -233t-189.5 -82q-100 0 -169 63.5t-69 171.5zM284 69q73 0 118 44.5t45 113.5q0 71 -48.5 112.5t-113.5 41.5t-111.5 -40.5
t-46.5 -114.5q0 -68 42.5 -112.5t114.5 -44.5z" />
    <glyph glyph-name="product" unicode="&#x220f;" horiz-adv-x="800" 
d="M614 630v-630h-81v630h-267v-630h-80v630h-101v70h630v-70h-101z" />
    <glyph glyph-name="summation" unicode="&#x2211;" horiz-adv-x="670" 
d="M604 77v-77h-559v74l295 275l-276 278v73h510v-77h-391l266 -274l-286 -272h441z" />
    <glyph glyph-name="minus" unicode="&#x2212;" 
d="M500 348v-71h-401v71h401z" />
    <glyph glyph-name="radical" unicode="&#x221a;" horiz-adv-x="608" 
d="M498 700h85l-283 -700h-70l-205 497h86l154 -394z" />
    <glyph glyph-name="infinity" unicode="&#x221e;" horiz-adv-x="886" 
d="M640 509q86 0 143 -60.5t57 -156.5t-58 -156t-148 -60q-132 0 -196 137q-66 -137 -193 -137q-86 0 -143 60t-57 156t58 156.5t147 60.5q136 0 198 -137q68 137 192 137zM250 147q57 0 101.5 41t60.5 111q-13 62 -58.5 100.5t-103.5 38.5t-94.5 -39.5t-36.5 -106.5
q0 -65 36.5 -105t94.5 -40zM635 147q58 0 94.5 39t36.5 105t-36.5 106.5t-94.5 40.5q-56 0 -99.5 -41.5t-63.5 -111.5q15 -63 59.5 -100.5t103.5 -37.5z" />
    <glyph glyph-name="integral" unicode="&#x222b;" horiz-adv-x="406" 
d="M300 721q74 0 121 -46l-39 -58q-31 32 -79 32q-41 0 -63.5 -23.5t-22.5 -67.5v-410q0 -76 -44 -120t-117 -44q-72 0 -121 47l39 57q32 -32 79 -32q41 0 63.5 23.5t22.5 67.5v411q0 75 44.5 119t116.5 44z" />
    <glyph glyph-name="approxequal" unicode="&#x2248;" 
d="M501 427v-75q-42 -20 -97 -20q-37 0 -98 21.5t-100 21.5q-65 0 -106 -32v72q42 29 108 29q38 0 98.5 -22t100.5 -22q62 0 94 27zM501 269v-75q-42 -20 -97 -20q-37 0 -98 21.5t-100 21.5q-65 0 -106 -32v72q42 29 108 29q38 0 98.5 -21.5t100.5 -21.5q63 0 94 26z" />
    <glyph glyph-name="notequal" unicode="&#x2260;" 
d="M501 355h-148l-46 -84h194v-69h-232l-67 -123l-53 31l51 92h-100v69h138l46 84h-184v68h222l73 132l51 -30l-56 -102h111v-68z" />
    <glyph glyph-name="lessequal" unicode="&#x2264;" 
d="M479 530l-285 -165l285 -165l-34 -59l-323 187v74l323 187zM123 72h356v-72h-356v72z" />
    <glyph glyph-name="greaterequal" unicode="&#x2265;" 
d="M122 530l34 59l323 -187v-74l-323 -187l-34 59l285 165zM478 72v-72h-356v72h356z" />
    <glyph glyph-name="lozenge" unicode="&#x25ca;" horiz-adv-x="686" 
d="M601 336l-258 -347l-258 347l258 346zM503 336l-160 220l-160 -220l160 -221z" />
    <glyph glyph-name="uniA729" unicode="&#xa729;" horiz-adv-x="796" 
d="M525 183q111 -11 168 -63.5t57 -134.5q0 -95 -67 -157.5t-176 -62.5q-66 0 -123.5 28.5t-94.5 80.5l58 50q60 -87 165 -87q71 0 115.5 39.5t44.5 100.5q0 66 -58 106t-176 40v65l214 239h-442v-427h-78v427h-117v70h117v137h78v-137h543v-68z" />
    <glyph glyph-name="a.ss01" horiz-adv-x="625" 
d="M550 497v-497h-76v94q-55 -100 -188 -100q-114 0 -177.5 75t-63.5 181t63.5 182.5t176.5 76.5q134 0 188 -102l-1 90h78zM295 65q79 0 128 52t49 135q0 82 -49 134t-128 52q-82 0 -127 -54t-45 -132q0 -83 48 -135t124 -52z" />
    <glyph glyph-name="aacute.ss01" horiz-adv-x="625" 
d="M228 665l253 82l21 -72l-253 -75zM550 497v-497h-76v94q-55 -100 -188 -100q-114 0 -177.5 75t-63.5 181t63.5 182.5t176.5 76.5q134 0 188 -102l-1 90h78zM295 65q79 0 128 52t49 135q0 82 -49 134t-128 52q-82 0 -127 -54t-45 -132q0 -83 48 -135t124 -52z" />
    <glyph glyph-name="abreve.ss01" horiz-adv-x="625" 
d="M389 753h70q-1 -63 -39.5 -107.5t-112.5 -44.5t-112 44.5t-40 107.5h70q3 -86 82 -86t82 86zM550 497v-497h-76v94q-55 -100 -188 -100q-114 0 -177.5 75t-63.5 181t63.5 182.5t176.5 76.5q134 0 188 -102l-1 90h78zM295 65q79 0 128 52t49 135q0 82 -49 134t-128 52
q-82 0 -127 -54t-45 -132q0 -83 48 -135t124 -52z" />
    <glyph glyph-name="acircumflex.ss01" horiz-adv-x="625" 
d="M311 802l181 -142l-42 -54l-139 109l-139 -109l-42 54zM550 497v-497h-76v94q-55 -100 -188 -100q-114 0 -177.5 75t-63.5 181t63.5 182.5t176.5 76.5q134 0 188 -102l-1 90h78zM295 65q79 0 128 52t49 135q0 82 -49 134t-128 52q-82 0 -127 -54t-45 -132q0 -83 48 -135
t124 -52z" />
    <glyph glyph-name="adieresis.ss01" horiz-adv-x="625" 
d="M214 713q24 0 40.5 -16t16.5 -40q0 -23 -16.5 -39.5t-40.5 -16.5q-25 0 -41.5 16.5t-16.5 39.5q0 24 16.5 40t41.5 16zM418 713q24 0 40.5 -16t16.5 -40q0 -23 -16.5 -39.5t-40.5 -16.5q-25 0 -41.5 16.5t-16.5 39.5q0 24 16.5 40t41.5 16zM550 497v-497h-76v94
q-55 -100 -188 -100q-114 0 -177.5 75t-63.5 181t63.5 182.5t176.5 76.5q134 0 188 -102l-1 90h78zM295 65q79 0 128 52t49 135q0 82 -49 134t-128 52q-82 0 -127 -54t-45 -132q0 -83 48 -135t124 -52z" />
    <glyph glyph-name="agrave.ss01" horiz-adv-x="625" 
d="M159 747l253 -82l-21 -65l-253 75zM550 497v-497h-76v94q-55 -100 -188 -100q-114 0 -177.5 75t-63.5 181t63.5 182.5t176.5 76.5q134 0 188 -102l-1 90h78zM295 65q79 0 128 52t49 135q0 82 -49 134t-128 52q-82 0 -127 -54t-45 -132q0 -83 48 -135t124 -52z" />
    <glyph glyph-name="amacron.ss01" horiz-adv-x="625" 
d="M154 666h305v-66h-305v66zM550 497v-497h-76v94q-55 -100 -188 -100q-114 0 -177.5 75t-63.5 181t63.5 182.5t176.5 76.5q134 0 188 -102l-1 90h78zM295 65q79 0 128 52t49 135q0 82 -49 134t-128 52q-82 0 -127 -54t-45 -132q0 -83 48 -135t124 -52z" />
    <glyph glyph-name="aogonek.ss01" horiz-adv-x="625" 
d="M459 -102q0 -35 32 -60.5t96 -34.5l-13 -74q-89 9 -138 51.5t-49 98.5q0 74 87 124v91q-55 -100 -188 -100q-114 0 -177.5 75t-63.5 181t63.5 182.5t176.5 76.5q134 0 188 -102l-1 90h78v-497h-10q-81 -36 -81 -102zM295 65q79 0 128 52t49 135q0 82 -49 134t-128 52
q-82 0 -127 -54t-45 -132q0 -83 48 -135t124 -52z" />
    <glyph glyph-name="aring.ss01" horiz-adv-x="625" 
d="M307 601q-59 0 -97.5 39t-38.5 97t38.5 96.5t97.5 38.5t97.5 -38.5t38.5 -96.5t-38.5 -97t-97.5 -39zM307 657q34 0 55 23.5t21 56.5t-21 56t-55 23q-35 0 -55.5 -22.5t-20.5 -56.5t20.5 -57t55.5 -23zM550 497v-497h-76v94q-55 -100 -188 -100q-114 0 -177.5 75
t-63.5 181t63.5 182.5t176.5 76.5q134 0 188 -102l-1 90h78zM295 65q79 0 128 52t49 135q0 82 -49 134t-128 52q-82 0 -127 -54t-45 -132q0 -83 48 -135t124 -52z" />
    <glyph glyph-name="atilde.ss01" horiz-adv-x="625" 
d="M462 739l50 -27q-20 -50 -51 -80.5t-66 -30.5q-30 0 -85 36q-48 32 -69 32q-23 0 -37.5 -17.5t-32.5 -51.5l-49 29q47 109 123 109q7 0 14 -1t12 -2.5t12.5 -5t11.5 -5t12 -6.5t10 -6t11 -7t10 -7q37 -26 59 -26t35 15.5t30 51.5zM550 497v-497h-76v94
q-55 -100 -188 -100q-114 0 -177.5 75t-63.5 181t63.5 182.5t176.5 76.5q134 0 188 -102l-1 90h78zM295 65q79 0 128 52t49 135q0 82 -49 134t-128 52q-82 0 -127 -54t-45 -132q0 -83 48 -135t124 -52z" />
    <glyph glyph-name="l.ss01" horiz-adv-x="229" 
d="M75 0v700h78v-700h-78z" />
    <glyph glyph-name="lacute.ss01" horiz-adv-x="229" 
d="M75 841l253 82l21 -72l-253 -75zM75 0v700h78v-700h-78z" />
    <glyph glyph-name="lcaron.ss01" horiz-adv-x="455" 
d="M241 453l101 266l78 -32l-116 -260zM75 0v700h78v-700h-78z" />
    <glyph glyph-name="uni013C.ss01" horiz-adv-x="229" 
d="M75 0v700h78v-700h-78zM13 -218l75 156l68 -33l-90 -149z" />
    <glyph glyph-name="ldot.ss01" horiz-adv-x="438" 
d="M75 0v700h78v-700h-78zM333 469q27 0 44 -17.5t17 -42.5t-17 -42.5t-44 -17.5t-44 17.5t-17 42.5t17.5 42.5t43.5 17.5z" />
    <glyph glyph-name="lslash.ss01" horiz-adv-x="381" 
d="M381 478l-154 -83v-395h-78v352l-124 -67l-25 49l149 80v286h78v-244l129 70z" />
    <glyph glyph-name="f_f_j" horiz-adv-x="996" 
d="M911 497v-577q0 -69 -39.5 -112t-102.5 -43q-48 0 -93 27l28 62q26 -17 58 -17q30 0 50.5 20.5t20.5 58.5v510h-282v-426h-78v426h-281v-426h-78v426h-99v71h99v61q0 76 44 119.5t117 43.5q65 0 108 -40l-34 -60q-28 28 -71 28q-41 0 -63.5 -23.5t-22.5 -67.5v-61h281v61
q0 76 44 119.5t117 43.5q74 0 121 -46l-39 -58q-31 32 -79 32q-41 0 -63.5 -23.5t-22.5 -67.5v-61h360z" />
    <glyph glyph-name="f_f_t" horiz-adv-x="1138" 
d="M1088 96l25 -55q-58 -47 -129 -47q-64 0 -108 41t-44 117v274h-281v-426h-78v426h-281v-426h-78v426h-99v71h99v61q0 76 44 119.5t117 43.5q65 0 108 -40l-34 -60q-28 28 -71 28q-41 0 -63.5 -23.5t-22.5 -67.5v-61h281v61q0 76 44 119.5t117 43.5q66 0 107 -40l-32 -60
q-29 28 -72 28q-41 0 -63.5 -23.5t-22.5 -67.5v-61h281v137h78v-137h157v-71h-157v-270q0 -44 25.5 -67t64.5 -23q50 0 88 30z" />
    <glyph glyph-name="f_j" horiz-adv-x="637" 
d="M552 497v-577q0 -69 -39.5 -112t-102.5 -43q-48 0 -93 27l28 62q25 -17 58 -17q30 0 50 20.5t20 58.5v510h-281v-426h-78v426h-99v71h99v61q0 76 44 119.5t117 43.5q74 0 121 -46l-39 -58q-31 32 -79 32q-41 0 -63.5 -23.5t-22.5 -67.5v-61h360z" />
    <glyph glyph-name="f_t" horiz-adv-x="779" 
d="M729 96l25 -55q-58 -47 -129 -47q-64 0 -108.5 41t-44.5 117v274h-280v-426h-78v426h-99v71h99v61q0 76 44 119.5t117 43.5q66 0 107 -40l-32 -60q-29 28 -72 28q-41 0 -63.5 -23.5t-22.5 -67.5v-61h280v137h79v-137h157v-71h-157v-270q0 -44 25.5 -67t64.5 -23
q49 0 88 30z" />
    <glyph glyph-name="t_t" horiz-adv-x="788" 
d="M560 426v-270q0 -44 25.5 -67t64.5 -23q49 0 88 30l25 -55q-58 -47 -129 -47q-64 0 -108.5 41t-44.5 117v274h-281v-270q0 -44 26 -67t65 -23q44 0 78 26l23 -57q-53 -41 -117 -41q-65 0 -109 41t-44 117v274h-107v71h107v137h78v-137h281v137h79v-137h157v-71h-157z" />
    <glyph glyph-name="ordfeminine.ss01" horiz-adv-x="491" 
d="M445 702v-387h-67v62q-46 -70 -141 -70q-89 0 -140.5 58t-51.5 140q0 84 52.5 145t141.5 61q90 0 135 -63v54h71zM243 372q58 0 94 38t36 98q0 61 -36 99t-94 38q-57 0 -91.5 -38t-34.5 -100q0 -59 35 -97t91 -38z" />
    <glyph glyph-name="zero.tf" 
d="M300 700q120 0 184.5 -90.5t64.5 -251.5v-22q0 -161 -64.5 -251.5t-184.5 -90.5t-184.5 90.5t-64.5 251.5v22q0 161 64.5 251.5t184.5 90.5zM467 358q0 267 -167 267q-83 0 -125 -68.5t-42 -198.5v-22q0 -130 42 -198.5t125 -68.5q167 0 167 267v22z" />
    <glyph glyph-name="one.tf" 
d="M105 602q51 5 104.5 28t83.5 60h70v-618h183v-72h-446v72h183v522q-30 -23 -78.5 -39.5t-91.5 -20.5z" />
    <glyph glyph-name="two.tf" 
d="M175 74h365v-74h-466v72l231 215q37 34 57 54.5t44 64.5t24 86q0 62 -40.5 98t-96.5 36q-60 0 -106.5 -41.5t-50.5 -117.5l-75 7q7 109 76.5 168t161.5 59q88 0 150.5 -55t62.5 -148q0 -19 -3 -37.5t-7.5 -34t-13 -32.5t-15 -28.5t-18.5 -26.5t-18.5 -23t-20.5 -21.5
t-19 -18.5t-19 -17t-16 -14z" />
    <glyph glyph-name="three.tf" 
d="M355 360q83 -14 130 -58.5t47 -114.5q0 -86 -66 -139.5t-159 -53.5q-74 0 -138.5 37t-99.5 107l72 40q26 -55 71 -83t99 -28q59 0 99.5 31.5t40.5 86.5q0 62 -52.5 98t-146.5 36h-28v68q91 0 144 35.5t53 97.5q0 50 -35 77.5t-88 27.5q-46 0 -87.5 -22t-67.5 -65l-57 38
q33 60 92 92t127 32q82 0 139.5 -45t57.5 -119q0 -61 -40.5 -109t-106.5 -67z" />
    <glyph glyph-name="four.tf" 
d="M446 254h130v-74h-130v-180h-80v180h-322v72l316 438h86v-436zM127 254h239v329z" />
    <glyph glyph-name="five.tf" 
d="M321 453q106 0 163 -64.5t57 -157.5q0 -99 -65.5 -168t-176.5 -69q-78 0 -144 39t-96 112l73 35q18 -52 66.5 -81.5t105.5 -29.5q74 0 114.5 44.5t40.5 109.5t-41 111t-114 46q-95 0 -147 -71h-67v381h392v-74h-322v-224q58 61 161 61z" />
    <glyph glyph-name="six.tf" 
d="M552 229q0 -108 -69 -171.5t-169 -63.5q-112 0 -189.5 82t-77.5 233q0 177 110.5 284t300.5 107l3 -74q-151 -1 -239.5 -77.5t-94.5 -225.5q21 62 78.5 97t126.5 35q94 0 157 -62.5t63 -163.5zM313 69q72 0 114.5 44.5t42.5 112.5q0 74 -46.5 114.5t-111.5 40.5
t-113.5 -41.5t-48.5 -112.5q0 -69 45 -113.5t118 -44.5z" />
    <glyph glyph-name="seven.tf" 
d="M157 0l309 613h-414v77h496v-75l-302 -615h-89z" />
    <glyph glyph-name="eight.tf" 
d="M402 362q143 -50 143 -174q0 -87 -68 -140.5t-178 -53.5q-109 0 -176 53t-67 140q0 63 35.5 109t100.5 69q-106 51 -106 155q0 81 60.5 130.5t156.5 49.5q95 0 154 -47.5t59 -126.5q0 -113 -114 -164zM167 516q0 -82 112 -114l44 -13q48 14 79.5 51t31.5 81q0 46 -36 76
t-95 30q-61 0 -98.5 -31.5t-37.5 -79.5zM300 67q73 0 118.5 34.5t45.5 87.5q0 47 -38 81t-110 50l-56 13q-55 -14 -88.5 -54t-33.5 -89q0 -54 44.5 -88.5t117.5 -34.5z" />
    <glyph glyph-name="nine.tf" 
d="M48 465q0 108 69 171.5t169 63.5q112 0 189.5 -82t77.5 -233q0 -177 -110.5 -284t-300.5 -107l-3 74q151 1 240 77.5t94 225.5q-20 -62 -78 -97t-127 -35q-94 0 -157 62.5t-63 163.5zM287 625q-72 0 -114.5 -44.5t-42.5 -112.5q0 -74 46.5 -114.5t111.5 -40.5t113.5 41.5
t48.5 112.5q0 69 -45 113.5t-118 44.5z" />
    <glyph glyph-name="zero.dnom" horiz-adv-x="345" 
d="M161 424q73 0 114 -55.5t41 -154.5v-12q0 -98 -41 -153.5t-114 -55.5t-114 55.5t-41 153.5v12q0 99 41 154.5t114 55.5zM251 214q0 150 -90 150t-90 -150v-12q0 -149 90 -149t90 149v12z" />
    <glyph glyph-name="one.dnom" horiz-adv-x="351" 
d="M168 0v358h-62v60h125v-418h-63z" />
    <glyph glyph-name="two.dnom" horiz-adv-x="357" 
d="M112 60h202v-60h-289v54l137 124q71 64 71 115q0 31 -20 50.5t-52 19.5q-38 0 -61 -26t-23 -68l-60 6q1 65 42.5 107t104.5 42q58 0 96 -36.5t38 -91.5q0 -28 -9 -52.5t-27.5 -46.5t-27.5 -30.5t-27 -23.5z" />
    <glyph glyph-name="three.dnom" horiz-adv-x="360" 
d="M228 218q85 -25 85 -103q0 -53 -40 -87.5t-101 -34.5q-50 0 -90 25.5t-60 69.5l56 30q30 -66 97 -66q33 0 53.5 16.5t20.5 44.5q0 33 -28.5 52t-80.5 19h-25v56q55 0 85.5 18t30.5 52q0 25 -17 40t-47 15q-59 0 -88 -55l-47 32q19 38 56.5 60t82.5 22q54 0 89 -29.5
t35 -75.5q0 -32 -18 -59t-49 -42z" />
    <glyph glyph-name="four.dnom" horiz-adv-x="362" 
d="M258 165h76v-59h-76v-106h-64v106h-190v53l191 259h63v-253zM73 165h121v166z" />
    <glyph glyph-name="five.dnom" horiz-adv-x="353" 
d="M178 276q65 0 102 -39t37 -97q0 -61 -40.5 -104t-111.5 -43q-52 0 -93 26.5t-58 72.5l59 27q8 -30 34 -48.5t61 -18.5q39 0 62 24.5t23 58.5t-23 59.5t-61 25.5q-53 0 -84 -42h-51v240h248v-60h-191v-113q34 31 87 31z" />
    <glyph glyph-name="six.dnom" horiz-adv-x="351" 
d="M183 277q62 0 100 -38.5t38 -100.5q0 -63 -42 -104t-106 -41q-74 0 -119 53t-45 139q0 111 69.5 175t187.5 64l2 -60q-169 0 -191 -135q40 48 106 48zM173 52q38 0 61 23.5t23 61.5t-23 61.5t-60 23.5q-39 0 -64 -24t-25 -61t25 -61t63 -24z" />
    <glyph glyph-name="seven.dnom" horiz-adv-x="359" 
d="M71 0l181 357h-238v61h308v-54l-180 -364h-71z" />
    <glyph glyph-name="eight.dnom" horiz-adv-x="341" 
d="M228 218q84 -32 84 -107q0 -52 -43 -85t-110 -33q-66 0 -108 32.5t-42 84.5q0 37 21.5 67t58.5 44q-62 32 -62 93q0 49 37.5 79.5t97.5 30.5q59 0 95 -29t36 -78q0 -67 -65 -99zM91 309q0 -51 81 -68q58 22 58 69q0 26 -18.5 40.5t-50.5 14.5t-51 -15.5t-19 -40.5z
M162 53q40 0 63 16.5t23 43.5q0 56 -109 81q-66 -23 -66 -76q0 -30 23.5 -47.5t65.5 -17.5z" />
    <glyph glyph-name="nine.dnom" horiz-adv-x="351" 
d="M157 424q73 0 118.5 -53t45.5 -139q0 -111 -69.5 -175t-187.5 -64l-2 59q167 0 191 136q-40 -48 -106 -48q-62 0 -100 38.5t-38 100.5q0 63 42 104t106 41zM156 195q39 0 64 24t25 61t-25 60.5t-63 23.5t-61 -23t-23 -61t23 -61.5t60 -23.5z" />
    <glyph glyph-name="zero.numr" horiz-adv-x="340" 
d="M170 700q73 0 114 -55.5t41 -154.5v-12q0 -98 -41 -153.5t-114 -55.5t-114 55.5t-41 153.5v12q0 99 41 154.5t114 55.5zM260 490q0 150 -90 150t-90 -150v-12q0 -149 90 -149t90 149v12z" />
    <glyph glyph-name="one.numr" horiz-adv-x="340" 
d="M170 276v358h-62v60h125v-418h-63z" />
    <glyph glyph-name="two.numr" horiz-adv-x="340" 
d="M115 336h202v-60h-289v54l137 124q71 64 71 115q0 31 -20 50.5t-52 19.5q-38 0 -61 -26t-23 -68l-60 6q1 65 42.5 107t104.5 42q58 0 96 -36.5t38 -91.5q0 -28 -9 -52.5t-27.5 -46.5t-27.5 -30.5t-27 -23.5z" />
    <glyph glyph-name="three.numr" horiz-adv-x="340" 
d="M231 494q85 -25 85 -103q0 -53 -40 -87.5t-101 -34.5q-50 0 -90 25.5t-60 69.5l56 30q30 -66 97 -66q33 0 53.5 16.5t20.5 44.5q0 33 -28.5 52t-80.5 19h-25v56q55 0 85.5 18t30.5 52q0 25 -17 40t-47 15q-59 0 -88 -55l-47 32q19 38 56.5 60t82.5 22q54 0 89 -29.5
t35 -75.5q0 -32 -18 -59t-49 -42z" />
    <glyph glyph-name="four.numr" horiz-adv-x="340" 
d="M259 441h76v-59h-76v-106h-64v106h-190v53l191 259h63v-253zM74 441h121v166z" />
    <glyph glyph-name="five.numr" horiz-adv-x="340" 
d="M183 552q65 0 102 -39t37 -97q0 -61 -40.5 -104t-111.5 -43q-52 0 -93 26.5t-58 72.5l59 27q8 -30 34 -48.5t61 -18.5q39 0 62 24.5t23 58.5t-23 59.5t-61 25.5q-53 0 -84 -42h-51v240h248v-60h-191v-113q34 31 87 31z" />
    <glyph glyph-name="six.numr" horiz-adv-x="340" 
d="M188 553q62 0 100 -38.5t38 -100.5q0 -63 -42 -104t-106 -41q-74 0 -119 53t-45 139q0 111 69.5 175t187.5 64l2 -60q-169 0 -191 -135q40 48 106 48zM178 328q38 0 61 23.5t23 61.5t-23 61.5t-60 23.5q-39 0 -64 -24t-25 -61t25 -61t63 -24z" />
    <glyph glyph-name="seven.numr" horiz-adv-x="340" 
d="M73 276l181 357h-238v61h308v-54l-180 -364h-71z" />
    <glyph glyph-name="eight.numr" horiz-adv-x="340" 
d="M238 494q84 -32 84 -107q0 -52 -43 -85t-110 -33q-66 0 -108 32.5t-42 84.5q0 37 21.5 67t58.5 44q-62 32 -62 93q0 49 37.5 79.5t97.5 30.5q59 0 95 -29t36 -78q0 -67 -65 -99zM101 585q0 -51 81 -68q58 22 58 69q0 26 -18.5 40.5t-50.5 14.5t-51 -15.5t-19 -40.5z
M172 329q40 0 63 16.5t23 43.5q0 56 -109 81q-66 -23 -66 -76q0 -30 23.5 -47.5t65.5 -17.5z" />
    <glyph glyph-name="nine.numr" horiz-adv-x="340" 
d="M162 700q73 0 118.5 -53t45.5 -139q0 -111 -69.5 -175t-187.5 -64l-2 59q167 0 191 136q-40 -48 -106 -48q-62 0 -100 38.5t-38 100.5q0 63 42 104t106 41zM161 471q39 0 64 24t25 61t-25 60.5t-63 23.5t-61 -23t-23 -61t23 -61.5t60 -23.5z" />
    <glyph glyph-name="exclamdown.cap" horiz-adv-x="333" 
d="M166 536q-27 0 -44 17.5t-17 42.5t17 42.5t44 17.5t44 -17.5t17 -42.5t-17.5 -42.5t-43.5 -17.5zM135 443h61l15 -509h-91z" />
    <glyph glyph-name="questiondown.cap" horiz-adv-x="515" 
d="M297 553q-27 0 -44 17.5t-17 42.5t17 42.5t44 17.5t44 -17.5t17 -42.5t-17 -42.5t-44 -17.5zM257 341v119h80v-176q-108 0 -161.5 -33t-53.5 -104q0 -57 37.5 -88.5t92.5 -31.5q50 0 92.5 24.5t68.5 71.5l56 -39q-33 -65 -92.5 -99t-129.5 -34q-85 0 -146 52t-61 141
q0 82 60 136t157 61z" />
    <glyph glyph-name="periodcentered.cap" horiz-adv-x="237" 
d="M118 471q31 0 53 -22t22 -53q0 -30 -22 -52.5t-53 -22.5q-30 0 -52 22.5t-22 52.5q0 31 22 53t52 22z" />
    <glyph glyph-name="bullet.cap" horiz-adv-x="252" 
d="M208 321q0 -33 -24 -57.5t-57 -24.5q-34 0 -58.5 24.5t-24.5 57.5t24.5 57t58.5 24q33 0 57 -24t24 -57z" />
    <glyph glyph-name="hyphen.cap" horiz-adv-x="406" 
d="M56 388h293v-70h-293v70z" />
    <glyph glyph-name="endash.cap" horiz-adv-x="498" 
d="M56 416h386v-70h-386v70z" />
    <glyph glyph-name="emdash.cap" horiz-adv-x="689" 
d="M56 416h577v-70h-577v70z" />
    <glyph glyph-name="guillemotleft.cap" horiz-adv-x="563" 
d="M117 343l154 -182l-52 -45l-194 227l194 226l52 -45zM363 343l154 -182l-52 -45l-194 227l194 226l52 -45z" />
    <glyph glyph-name="guillemotright.cap" horiz-adv-x="563" 
d="M200 343l-154 181l52 45l194 -226l-194 -227l-52 45zM446 343l-154 181l52 45l194 -226l-194 -227l-52 45z" />
    <glyph glyph-name="guilsinglleft.cap" horiz-adv-x="317" 
d="M117 343l154 -182l-52 -45l-194 227l194 226l52 -45z" />
    <glyph glyph-name="guilsinglright.cap" horiz-adv-x="317" 
d="M200 343l-154 181l52 45l194 -226l-194 -227l-52 45z" />
    <glyph glyph-name="at.cap" horiz-adv-x="902" 
d="M492 760q67 0 129 -20.5t113 -59.5t81.5 -105t30.5 -150q0 -113 -53 -193.5t-134 -80.5q-45 0 -76.5 25.5t-41.5 68.5q-46 -90 -151 -90q-75 0 -117 51.5t-42 127.5q0 92 58 164t155 72q101 0 121 -84l16 75h73l-45 -200q-11 -46 -11 -76q0 -80 64 -80q59 0 90.5 65
t31.5 146q0 134 -87 210.5t-212 76.5q-85 0 -156.5 -33t-116.5 -86.5t-70 -119t-25 -133.5q0 -79 32.5 -144.5t103.5 -108t171 -42.5q65 0 123 26l18 -53q-69 -32 -154 -32q-170 0 -263 100t-93 243q0 80 29.5 158t83 141t138 102t186.5 39zM403 219q62 0 100 54t38 122
q0 49 -23.5 81t-71.5 32q-63 0 -103.5 -52t-40.5 -119q0 -51 26.5 -84.5t74.5 -33.5z" />
    <glyph glyph-name="acute.cap" horiz-adv-x="274" 
d="M0 841l253 82l21 -72l-253 -75z" />
    <glyph glyph-name="breve.cap" horiz-adv-x="304" 
d="M234 928h70q-1 -63 -39.5 -107.5t-112.5 -44.5t-112 44.5t-40 107.5h70q3 -86 82 -86t82 86z" />
    <glyph glyph-name="caron.cap" horiz-adv-x="362" 
d="M181 776l-181 142l42 54l139 -109l139 109l42 -54z" />
    <glyph glyph-name="cedilla.cap" horiz-adv-x="267" 
d="M153 1l-15 -60q129 -13 129 -106q0 -48 -36.5 -80t-97.5 -32q-76 0 -133 52l37 48q45 -42 98 -42q31 0 50.5 16t19.5 43q0 53 -125 65l27 96h46z" />
    <glyph glyph-name="circumflex.cap" horiz-adv-x="362" 
d="M181 972l181 -142l-42 -54l-139 109l-139 -109l-42 54z" />
    <glyph glyph-name="dieresis.cap" horiz-adv-x="339" 
d="M58 888q24 0 40.5 -16t16.5 -40q0 -23 -16.5 -39.5t-40.5 -16.5q-25 0 -41.5 16.5t-16.5 39.5q0 24 16.5 40t41.5 16zM282 888q24 0 40.5 -16t16.5 -40q0 -23 -16.5 -39.5t-40.5 -16.5q-25 0 -41.5 16.5t-16.5 39.5q0 24 16.5 40t41.5 16z" />
    <glyph glyph-name="dotaccent.cap" horiz-adv-x="122" 
d="M61 897q27 0 44 -17.5t17 -42.5t-17 -42.5t-44 -17.5t-44 17.5t-17 42.5t17.5 42.5t43.5 17.5z" />
    <glyph glyph-name="grave.cap" horiz-adv-x="274" 
d="M21 923l253 -82l-21 -65l-253 75z" />
    <glyph glyph-name="hungarumlaut.cap" horiz-adv-x="305" 
d="M151 934l-75 -158h-76l68 158h83zM305 934l-75 -158h-76l68 158h83z" />
    <glyph glyph-name="macron.cap" horiz-adv-x="305" 
d="M0 843h305v-66h-305v66z" />
    <glyph glyph-name="ogonek.cap" horiz-adv-x="200" 
d="M187 -271q-89 9 -138 51.5t-49 98.5q0 79 99 131l54 -10q-81 -36 -81 -102q0 -35 32 -60.5t96 -34.5z" />
    <glyph glyph-name="ring.cap" horiz-adv-x="266" 
d="M133 757q-58 0 -95.5 38t-37.5 95t37.5 94.5t95.5 37.5t95.5 -37.5t37.5 -94.5t-37.5 -95t-95.5 -38zM133 812q33 0 53.5 22.5t20.5 55.5t-20.5 55.5t-53.5 22.5q-34 0 -54 -22.5t-20 -55.5t20 -55.5t54 -22.5z" />
    <glyph glyph-name="tilde.cap" horiz-adv-x="390" 
d="M340 915l50 -27q-20 -50 -51 -80.5t-66 -30.5q-30 0 -85 36q-48 32 -69 32q-23 0 -37.5 -17.5t-32.5 -51.5l-49 29q47 109 123 109q7 0 14 -1t12 -2.5t12.5 -5t11.5 -5t12 -6.5t10 -6t11 -7t10 -7q37 -26 59 -26t35 15.5t30 51.5z" />
    <glyph glyph-name="null" horiz-adv-x="33" 
 />
    <glyph glyph-name="ffi" horiz-adv-x="995" 
d="M551 497h360v-497h-78v426h-282v-426h-78v426h-281v-426h-78v426h-99v71h99v61q0 76 44 119.5t117 43.5q65 0 108 -40l-34 -60q-28 28 -71 28q-41 0 -63.5 -23.5t-22.5 -67.5v-61h281v61q0 75 44.5 119t116.5 44q74 0 121 -46l-39 -58q-31 32 -79 32q-41 0 -63.5 -24
t-22.5 -67v-61z" />
    </font>
</defs>
</svg>
