<?xml version="1.0" standalone="no"?>
<!DOCTYPE svg PUBLIC "-//W3C//DTD SVG 1.1//EN" "http://www.w3.org/Graphics/SVG/1.1/DTD/svg11.dtd" >
<svg xmlns="http://www.w3.org/2000/svg" xmlns:xlink="http://www.w3.org/1999/xlink" version="1.1">
<metadata>
Created by FontForge 20170731 at Mon Aug 27 19:25:32 2018
 By Aleksey,,,
Copyright (c) 2018 by Luzi Type All rights reserved.
</metadata>
<defs>
<font id="BuenosAires-Bold" horiz-adv-x="600" >
  <font-face 
    font-family="Buenos Aires"
    font-weight="700"
    font-stretch="normal"
    units-per-em="1000"
    panose-1="0 0 8 0 0 0 0 0 0 0"
    ascent="757"
    descent="-243"
    x-height="514"
    cap-height="700"
    bbox="-188 -299 1400 1206"
    underline-thickness="50"
    underline-position="-200"
    unicode-range="U+000D-FB01"
  />
<missing-glyph horiz-adv-x="260" 
 />
    <glyph glyph-name="fi" unicode="fi" horiz-adv-x="646" 
d="M576 514v-514h-144v385h-189v-385h-145v385h-94v129h94v31q0 90 55 140t144 50q78 0 139 -43l-55 -111q-29 23 -69 23q-30 0 -49.5 -16.5t-19.5 -45.5v-28h333z" />
    <glyph glyph-name="ff" unicode="ff" horiz-adv-x="743" 
d="M630 735q78 0 139 -43l-56 -111q-28 23 -68 23q-31 0 -50 -16.5t-19 -45.5v-28h124v-129h-124v-385h-145v385h-188v-385h-145v385h-94v129h94v31q0 90 55 140t144 50q51 0 95 -21l-38 -120q-19 10 -42 10q-30 0 -49.5 -16.5t-19.5 -45.5v-28h188v31q0 90 55 140t144 50z
" />
    <glyph glyph-name=".notdef" horiz-adv-x="260" 
 />
    <glyph glyph-name=".null" horiz-adv-x="0" 
 />
    <glyph glyph-name="nonmarkingreturn" horiz-adv-x="333" 
 />
    <glyph glyph-name="CR" unicode="&#xd;" horiz-adv-x="238" 
 />
    <glyph glyph-name="space" unicode=" " horiz-adv-x="243" 
 />
    <glyph glyph-name="exclam" unicode="!" horiz-adv-x="374" 
d="M244 224h-113l-21 492h155zM187 171q41 0 67 -25.5t26 -62.5t-26 -63t-67 -26t-67 25.5t-26 63.5q0 37 26 62.5t67 25.5z" />
    <glyph glyph-name="quotedbl" unicode="&#x22;" horiz-adv-x="407" 
d="M170 716v-253h-140v253h140zM377 716v-253h-140v253h140z" />
    <glyph glyph-name="numbersign" unicode="#" horiz-adv-x="821" 
d="M747 442h-142l-25 -165h129v-115h-147l-23 -143h-115l23 143h-138l-22 -143h-114l22 143h-121v115h139l26 165h-136v114h153l23 144h114l-22 -144h137l23 144h114l-23 -144h125v-114zM327 277h138l25 165h-137z" />
    <glyph glyph-name="dollar" unicode="$" horiz-adv-x="559" 
d="M525 215q0 -92 -59 -147.5t-149 -65.5v-113h-55v112q-65 4 -124.5 33.5t-103.5 83.5l96 102q47 -66 132 -80v141q-3 1 -13 4q-34 10 -56.5 18.5t-52.5 25t-47.5 36t-30 50.5t-12.5 70q0 92 61 148.5t151 65.5v111h55v-111q119 -12 192 -102l-91 -97q-34 46 -101 60v-150
l4 -1q38 -10 58.5 -17t52.5 -23t49 -34t30.5 -49.5t13.5 -70.5zM192 499q0 -46 70 -72v136q-31 -4 -50.5 -20.5t-19.5 -43.5zM317 139q31 5 48.5 21t17.5 41q0 23 -17 37.5t-49 26.5v-126z" />
    <glyph glyph-name="percent" unicode="%" horiz-adv-x="999" 
d="M304 -16l-82 60l467 672l82 -59zM222 715q83 0 138 -55.5t55 -136.5t-55 -136t-138 -55q-82 0 -137 55t-55 136t55 136.5t137 55.5zM222 436q38 0 62 24.5t24 62.5t-24 63t-62 25q-37 0 -61.5 -25t-24.5 -63t24 -62.5t62 -24.5zM776 366q83 0 138 -55.5t55 -136.5
t-55 -136t-138 -55q-82 0 -137 55t-55 136t55 136.5t137 55.5zM776 87q38 0 62 24.5t24 62.5t-24 63t-62 25q-37 0 -61.5 -25t-24.5 -63t24 -62.5t62 -24.5z" />
    <glyph glyph-name="ampersand" unicode="&#x26;" horiz-adv-x="730" 
d="M600 176l96 -95l-107 -90l-86 82q-90 -79 -211 -79q-102 0 -169 55t-67 142q0 65 40.5 114.5t113.5 72.5l-18 19q-19 19 -30 33.5t-22.5 44.5t-11.5 64q0 84 58.5 130.5t147.5 46.5t147 -47.5t58 -123.5q0 -58 -35 -107t-92 -74l99 -101q17 43 26 89l117 -13
q-11 -88 -54 -163zM269 531q0 -6 1 -11.5t3 -11t4 -10t6 -9.5t6.5 -8t7.5 -8t7 -6.5t7.5 -6.5t6.5 -6l19 -16q68 40 68 92q0 29 -19.5 45t-49.5 16q-28 0 -47.5 -15.5t-19.5 -44.5zM315 123q67 0 107 34l-141 144q-77 -30 -77 -92q0 -40 31.5 -63t79.5 -23z" />
    <glyph glyph-name="quotesingle" unicode="'" horiz-adv-x="200" 
d="M170 716v-253h-140v253h140z" />
    <glyph glyph-name="parenleft" unicode="(" horiz-adv-x="325" 
d="M149 337q0 -228 178 -403l-90 -83q-227 204 -227 486t227 486l90 -83q-178 -175 -178 -403z" />
    <glyph glyph-name="parenright" unicode=")" horiz-adv-x="311" 
d="M175 337q0 216 -170 385l86 79q216 -195 216 -464t-216 -464l-86 79q170 169 170 385z" />
    <glyph glyph-name="asterisk" unicode="*" horiz-adv-x="522" 
d="M349 477l82 -104l-96 -69l-74 110l-76 -110l-93 69l81 104l-127 40l36 106l125 -43l-3 135h118l-6 -134l126 42l34 -106z" />
    <glyph glyph-name="plus" unicode="+" 
d="M511 374v-125h-148v-157h-127v157h-148v125h148v160h127v-160h148z" />
    <glyph glyph-name="comma" unicode="," horiz-adv-x="283" 
d="M14 -134l100 312l145 -54l-125 -304z" />
    <glyph glyph-name="hyphen" unicode="-" horiz-adv-x="414" 
d="M48 362h318v-129h-318v129z" />
    <glyph glyph-name="period" unicode="." horiz-adv-x="246" 
d="M123 171q41 0 67 -25.5t26 -62.5t-26 -63t-67 -26t-67 25.5t-26 63.5q0 37 26 62.5t67 25.5z" />
    <glyph glyph-name="slash" unicode="/" horiz-adv-x="386" 
d="M127 -16l-137 53l270 679l137 -50z" />
    <glyph glyph-name="zero" unicode="0" horiz-adv-x="625" 
d="M312 700q128 0 198.5 -88.5t70.5 -252.5v-24q0 -164 -70.5 -252.5t-198.5 -88.5q-127 0 -197.5 88.5t-70.5 252.5v24q0 164 70.5 252.5t197.5 88.5zM433 359q0 109 -29.5 157.5t-91.5 48.5q-61 0 -90.5 -49t-29.5 -157v-24q0 -108 29.5 -157t90.5 -49q62 0 91.5 48.5
t29.5 157.5v24z" />
    <glyph glyph-name="one" unicode="1" horiz-adv-x="382" 
d="M142 0v554h-98v136h244v-690h-146z" />
    <glyph glyph-name="two" unicode="2" horiz-adv-x="580" 
d="M246 136h301v-136h-491v128l190 171q3 3 21 18.5t23.5 20.5t20.5 20t21 22.5t16.5 21.5t15 24.5t8 23.5t3.5 26q0 40 -27.5 64t-65.5 24q-45 0 -79 -33.5t-35 -93.5l-134 6q1 83 39.5 143t95 87t122.5 27q99 0 165 -59.5t66 -155.5q0 -33 -10 -64.5t-20.5 -51.5
t-34.5 -46.5t-33 -34t-35 -29.5q-5 -5 -8 -7z" />
    <glyph glyph-name="three" unicode="3" horiz-adv-x="559" 
d="M366 365q73 -16 111 -60t38 -107q0 -90 -70 -147t-173 -57q-85 0 -151 43t-97 118l128 65q16 -45 49 -70t78 -25q41 0 66.5 20t25.5 56q0 89 -149 89h-41v115q164 0 164 90q0 32 -23.5 51t-59.5 19q-38 0 -73 -21.5t-53 -56.5l-105 66q30 68 95 107.5t146 39.5
q93 0 156 -48t63 -123q0 -55 -34.5 -100t-90.5 -64z" />
    <glyph glyph-name="four" unicode="4" horiz-adv-x="610" 
d="M473 284h113v-137h-113v-147h-147v147h-302v128l301 415h148v-406zM166 284h160v222z" />
    <glyph glyph-name="five" unicode="5" horiz-adv-x="597" 
d="M334 464q105 0 162 -63.5t57 -161.5q0 -112 -72.5 -178.5t-181.5 -66.5q-86 0 -157.5 43.5t-97.5 121.5l131 60q13 -43 48.5 -66.5t77.5 -23.5q46 0 75 27.5t29 74.5t-30 75t-76 28q-72 0 -106 -55h-114v411h416v-136h-291v-129q51 39 130 39z" />
    <glyph glyph-name="six" unicode="6" horiz-adv-x="618" 
d="M574 238q0 -109 -71.5 -176.5t-181.5 -67.5q-126 0 -201.5 89.5t-75.5 232.5q0 81 26 149.5t76.5 121.5t132 83t186.5 30l5 -134q-242 -2 -276 -188q60 85 168 85q87 0 149.5 -61.5t62.5 -163.5zM320 129q48 0 77 28.5t29 74.5q0 50 -31 76.5t-75 26.5t-75.5 -27
t-31.5 -75q0 -46 29.5 -75t77.5 -29z" />
    <glyph glyph-name="seven" unicode="7" horiz-adv-x="563" 
d="M102 0l277 544h-359v146h513v-138l-271 -552h-160z" />
    <glyph glyph-name="eight" unicode="8" horiz-adv-x="601" 
d="M427 364q130 -44 130 -166q0 -90 -71.5 -147t-184.5 -57q-115 0 -186 56.5t-71 147.5q0 59 32.5 104t94.5 65q-101 48 -101 149q0 84 66 134t170 50q101 0 164 -48.5t63 -133.5q0 -48 -27.5 -89.5t-78.5 -64.5zM215 501q0 -51 72 -72l33 -10q30 11 49 34.5t19 48.5
q0 29 -23 48t-62 19t-63.5 -19t-24.5 -49zM305 125q48 0 77 20.5t29 54.5q0 65 -100 90l-40 11q-35 -10 -58 -36t-23 -58q0 -39 31 -60.5t84 -21.5z" />
    <glyph glyph-name="nine" unicode="9" horiz-adv-x="618" 
d="M44 456q0 109 71.5 176.5t181.5 67.5q126 0 201.5 -89.5t75.5 -232.5q0 -81 -26 -149.5t-76.5 -121.5t-132 -83t-186.5 -30l-5 135q242 0 276 187q-28 -41 -73 -63t-95 -22q-87 0 -149.5 61.5t-62.5 163.5zM298 565q-48 0 -77 -28.5t-29 -74.5q0 -50 31 -76.5t75 -26.5
t76 27t32 75q0 46 -30 75t-78 29z" />
    <glyph glyph-name="colon" unicode=":" horiz-adv-x="294" 
d="M147 541q41 0 67 -25.5t26 -62.5t-26 -63t-67 -26t-67 25.5t-26 63.5q0 37 26 62.5t67 25.5zM147 171q41 0 67 -25.5t26 -62.5t-26 -63t-67 -26t-67 25.5t-26 63.5q0 37 26 62.5t67 25.5z" />
    <glyph glyph-name="semicolon" unicode=";" horiz-adv-x="321" 
d="M174 541q41 0 67 -25.5t26 -62.5t-26 -63t-67 -26t-67 25.5t-26 63.5q0 37 26 62.5t67 25.5zM14 -134l100 312l145 -54l-125 -304z" />
    <glyph glyph-name="less" unicode="&#x3c;" 
d="M491 473l-257 -150l258 -149l-59 -101l-324 187v127l324 187z" />
    <glyph glyph-name="equal" unicode="=" 
d="M512 461v-120h-423v120h423zM512 282v-119h-423v119h423z" />
    <glyph glyph-name="greater" unicode="&#x3e;" 
d="M110 473l58 101l324 -187v-127l-324 -187l-59 101l258 149z" />
    <glyph glyph-name="question" unicode="?" horiz-adv-x="546" 
d="M320 313v-89h-147v180q103 0 146.5 21.5t43.5 76.5q0 39 -25 58.5t-63 19.5q-40 0 -79 -20t-61 -55l-91 82q42 63 107.5 96t136.5 33q92 0 158 -54.5t66 -147.5q0 -81 -52.5 -136t-139.5 -65zM247 171q41 0 66.5 -25.5t25.5 -62.5t-25.5 -63t-66.5 -26t-67.5 26t-26.5 63
t26.5 62.5t67.5 25.5z" />
    <glyph glyph-name="at" unicode="@" horiz-adv-x="908" 
d="M499 731q161 0 268.5 -92.5t107.5 -254.5q0 -121 -59 -200.5t-147 -79.5q-94 0 -126 92q-48 -87 -149 -87q-79 0 -123.5 53t-44.5 130q0 92 61 165t161 73q81 0 109 -59l11 50h121l-46 -200q-12 -51 -12 -73q0 -58 48 -58q46 0 73.5 51t27.5 126q0 131 -83 203t-207 72
q-105 0 -187 -53t-122 -132t-40 -165q0 -117 75 -198.5t216 -81.5q73 0 134 30l29 -82q-76 -40 -176 -40q-121 0 -208 52t-127 132t-40 176q0 83 31 162.5t87 144t144 104.5t193 40zM423 212q47 0 75.5 41t28.5 93q0 85 -71 85q-49 0 -79 -38.5t-30 -88.5q0 -39 19.5 -65.5
t56.5 -26.5z" />
    <glyph glyph-name="A" unicode="A" horiz-adv-x="718" 
d="M546 0l-54 144h-266l-54 -144h-158l274 700h142l274 -700h-158zM277 282h164l-82 222z" />
    <glyph glyph-name="B" unicode="B" horiz-adv-x="621" 
d="M435 378q70 -17 106.5 -62t36.5 -102q0 -83 -66 -148.5t-172 -65.5h-266v700h279q91 0 144.5 -52t53.5 -121q0 -51 -29.5 -92t-86.5 -57zM221 564v-146h98q38 0 60.5 23.5t22.5 53.5t-20.5 49.5t-59.5 19.5h-101zM336 136q44 0 69 25.5t25 59.5t-24.5 59.5t-67.5 25.5
h-117v-170h115z" />
    <glyph glyph-name="C" unicode="C" horiz-adv-x="751" 
d="M406 127q67 0 118 36t76 102l127 -53q-44 -109 -131 -168.5t-206 -59.5q-109 0 -189 51t-118.5 130.5t-38.5 175.5q0 101 42 185t126.5 137t196.5 53q199 0 296 -163l-119 -82q-59 104 -184 104q-95 0 -152 -64t-57 -159t59 -160t154 -65z" />
    <glyph glyph-name="D" unicode="D" horiz-adv-x="718" 
d="M74 0v700h247q167 0 260 -101.5t93 -241.5q0 -68 -23.5 -131t-68 -114t-116 -81.5t-160.5 -30.5h-232zM322 559h-100v-418h94q99 0 154.5 62t55.5 149q0 85 -54.5 146t-149.5 61z" />
    <glyph glyph-name="E" unicode="E" horiz-adv-x="586" 
d="M524 559h-302v-137h256v-141h-256v-140h310v-141h-458v700h450v-141z" />
    <glyph glyph-name="F" unicode="F" horiz-adv-x="568" 
d="M478 271h-256v-271h-148v700h450v-141h-302v-147h256v-141z" />
    <glyph glyph-name="G" unicode="G" horiz-adv-x="754" 
d="M368 256v138h315v-301q-119 -109 -289 -109q-163 0 -256.5 104t-93.5 253q0 101 42 185t126.5 137t196.5 53q200 0 296 -163l-119 -82q-59 104 -184 104q-96 0 -152.5 -64.5t-56.5 -162.5q0 -103 61 -165t153 -62q70 0 127 29v106h-166z" />
    <glyph glyph-name="H" unicode="H" horiz-adv-x="728" 
d="M74 0v700h148v-278h284v278h148v-700h-148v281h-284v-281h-148z" />
    <glyph glyph-name="I" unicode="I" horiz-adv-x="296" 
d="M74 0v700h148v-700h-148z" />
    <glyph glyph-name="J" unicode="J" horiz-adv-x="514" 
d="M233 -16q-85 0 -149 51.5t-70 140.5l142 27q2 -38 23.5 -58t51.5 -20t50 20.5t20 57.5v497h149v-489q0 -110 -63.5 -168.5t-153.5 -58.5z" />
    <glyph glyph-name="K" unicode="K" horiz-adv-x="739" 
d="M727 0h-205l-300 313v-313h-148v700h148v-294l276 294h200l-326 -334z" />
    <glyph glyph-name="L" unicode="L" horiz-adv-x="525" 
d="M222 141h279v-141h-427v700h148v-559z" />
    <glyph glyph-name="M" unicode="M" horiz-adv-x="862" 
d="M605 700h183v-700h-148v434l-139 -295h-140l-139 295v-434h-148v700h183l174 -395z" />
    <glyph glyph-name="N" unicode="N" horiz-adv-x="760" 
d="M538 700h149v-700h-158l-307 444v-444h-148v700h158l306 -461v461z" />
    <glyph glyph-name="O" unicode="O" horiz-adv-x="809" 
d="M405 716q155 0 258 -104.5t103 -261.5t-103 -261.5t-258 -104.5t-258 104.5t-103 261.5t103 261.5t258 104.5zM405 125q92 0 151.5 63.5t59.5 161.5t-59.5 161.5t-151.5 63.5t-152 -63.5t-60 -161.5t60 -161.5t152 -63.5z" />
    <glyph glyph-name="P" unicode="P" horiz-adv-x="587" 
d="M335 700q105 0 161.5 -63.5t56.5 -153.5q0 -92 -62 -160.5t-170 -68.5h-99v-254h-148v700h261zM222 389h92q43 0 67 27.5t24 63.5q0 35 -22.5 59.5t-63.5 24.5h-97v-175z" />
    <glyph glyph-name="Q" unicode="Q" horiz-adv-x="812" 
d="M603 38q36 -66 152 -107l-76 -134q-71 25 -126 76t-82 115q-35 -5 -64 -5q-156 0 -259.5 105t-103.5 262q0 158 103.5 263t259.5 105q155 0 258.5 -105.5t103.5 -262.5q0 -100 -44.5 -181.5t-121.5 -130.5zM194 350q0 -98 60 -162t153 -64q92 0 151.5 64t59.5 162
t-59.5 162t-151.5 64q-93 0 -153 -64t-60 -162z" />
    <glyph glyph-name="R" unicode="R" horiz-adv-x="630" 
d="M433 306l179 -306h-173l-151 268h-66v-268h-148v700h264q111 0 169.5 -61.5t58.5 -148.5q0 -61 -35 -110.5t-98 -73.5zM222 564v-166h100q44 0 69.5 23.5t25.5 61.5q0 37 -24 59t-66 22h-105z" />
    <glyph glyph-name="S" unicode="S" horiz-adv-x="582" 
d="M548 209q0 -105 -73.5 -165t-178.5 -60q-74 0 -143.5 31.5t-118.5 92.5l101 106q29 -41 76.5 -63.5t94.5 -22.5q41 0 67 18t26 48q0 23 -20 40t-38.5 23.5t-64.5 19.5q-11 3 -17 5q-45 13 -74.5 25.5t-64 36t-52 60.5t-17.5 87q0 103 74 164t177 61q65 0 125.5 -27.5
t103.5 -80.5l-95 -101q-23 31 -62.5 49t-79.5 18q-41 0 -67.5 -17.5t-26.5 -50.5q0 -26 20.5 -44.5t39 -25.5t65.5 -21l3 -1.5t3 -1t3 -0.5q39 -11 61.5 -18t55.5 -23.5t51 -36t32 -52t14 -73.5z" />
    <glyph glyph-name="T" unicode="T" horiz-adv-x="606" 
d="M377 559v-559h-148v559h-215v141h579v-141h-216z" />
    <glyph glyph-name="U" unicode="U" horiz-adv-x="688" 
d="M476 700h148v-448q0 -123 -71 -195t-209 -72q-137 0 -208.5 72t-71.5 195v448h148v-437q0 -64 35 -100.5t97 -36.5t97 36.5t35 100.5v437z" />
    <glyph glyph-name="V" unicode="V" horiz-adv-x="703" 
d="M529 700h160l-267 -700h-142l-266 700h160l178 -493z" />
    <glyph glyph-name="W" unicode="W" horiz-adv-x="1029" 
d="M859 700h158l-223 -700h-143l-136 435l-137 -435h-142l-224 700h158l137 -466l136 466h143l136 -466z" />
    <glyph glyph-name="X" unicode="X" horiz-adv-x="728" 
d="M714 0h-182l-168 241l-168 -241h-182l263 363l-242 337h178l151 -216l151 216h178l-243 -337z" />
    <glyph glyph-name="Y" unicode="Y" horiz-adv-x="682" 
d="M678 700l-263 -402v-298h-148v298l-263 402h179l158 -268l158 268h179z" />
    <glyph glyph-name="Z" unicode="Z" horiz-adv-x="622" 
d="M589 141v-141h-555v133l348 426h-338v141h530v-133l-347 -426h362z" />
    <glyph glyph-name="bracketleft" unicode="[" horiz-adv-x="321" 
d="M301 -163h-241v958h241v-128h-103v-702h103v-128z" />
    <glyph glyph-name="backslash" unicode="\" horiz-adv-x="386" 
d="M260 -16l-270 682l137 50l270 -679z" />
    <glyph glyph-name="bracketright" unicode="]" horiz-adv-x="331" 
d="M28 -163v128h103v702h-103v128h241v-958h-241z" />
    <glyph glyph-name="asciicircum" unicode="^" horiz-adv-x="530" 
d="M265 715l242 -224l-85 -98l-157 148l-157 -148l-84 98z" />
    <glyph glyph-name="underscore" unicode="_" horiz-adv-x="459" 
d="M26 -16h408v-129h-408v129z" />
    <glyph glyph-name="grave" unicode="`" horiz-adv-x="327" 
d="M35 807l292 -94l-35 -112l-292 82z" />
    <glyph glyph-name="a" unicode="a" horiz-adv-x="700" 
d="M661 134l31 -106q-49 -34 -107 -34q-47 0 -82.5 25t-46.5 71q-52 -96 -181 -96q-109 0 -175 75.5t-66 190.5t65 190.5t176 75.5q120 0 161 -80v68h140v-341q0 -24 13.5 -37t33.5 -13q19 0 38 11zM304 122q57 0 92.5 38.5t35.5 99.5q0 62 -35.5 100.5t-93.5 38.5
q-57 0 -91 -39.5t-34 -99.5q0 -62 35 -100t91 -38z" />
    <glyph glyph-name="b" unicode="b" horiz-adv-x="639" 
d="M364 526q111 0 176.5 -76t65.5 -190t-65.5 -190t-175.5 -76q-55 0 -99.5 20.5t-65.5 55.5v-70h-136v700h144v-247q19 34 60 53.5t96 19.5zM336 122q56 0 90.5 38t34.5 100q0 61 -34 100t-91 39t-92.5 -38.5t-35.5 -100.5t35 -100t93 -38z" />
    <glyph glyph-name="c" unicode="c" horiz-adv-x="539" 
d="M525 128q-39 -64 -99 -99t-132 -35q-121 0 -190.5 74t-69.5 189q0 116 74 192.5t190 76.5q140 0 213 -106l-103 -84q-39 61 -109 61q-56 0 -88.5 -37t-32.5 -98t36 -100t93 -39q35 0 68 20t54 55z" />
    <glyph glyph-name="d" unicode="d" horiz-adv-x="640" 
d="M275 526q55 0 96.5 -19.5t59.5 -52.5v246h145v-700h-137v70q-21 -35 -65 -55.5t-99 -20.5q-111 0 -176 75.5t-65 190.5q0 114 65 190t176 76zM303 122q58 0 93.5 38t35.5 100t-35.5 100.5t-93.5 38.5q-57 0 -91 -39.5t-34 -99.5q0 -62 34.5 -100t90.5 -38z" />
    <glyph glyph-name="e" unicode="e" horiz-adv-x="563" 
d="M529 265v-54h-346q7 -39 41.5 -65.5t87.5 -26.5q77 0 128 58l73 -90q-88 -93 -216 -93q-119 0 -191 73t-72 189q0 117 73.5 193.5t192.5 76.5q109 0 169 -68t60 -193zM180 314h206q0 41 -25 67.5t-71 26.5q-44 0 -73 -25t-37 -69z" />
    <glyph glyph-name="f" unicode="f" horiz-adv-x="410" 
d="M243 542v-28h124v-129h-124v-385h-145v385h-94v129h94v31q0 90 55 140t144 50q78 0 139 -43l-55 -111q-29 23 -69 23q-30 0 -49.5 -16.5t-19.5 -45.5z" />
    <glyph glyph-name="g" unicode="g" horiz-adv-x="646" 
d="M451 514h141v-483q0 -120 -82 -193t-206 -73q-93 0 -165.5 44.5t-103.5 118.5l125 64q19 -45 59.5 -71.5t89.5 -26.5q62 0 100 33t38 90v65q-42 -71 -159 -71q-110 0 -178.5 72t-68.5 186q0 112 67.5 184.5t180.5 72.5q60 0 103.5 -20.5t58.5 -55.5v64zM317 139
q59 0 95 34.5t36 95.5t-36 95.5t-95 34.5q-58 0 -94.5 -35t-36.5 -95q0 -59 36 -94.5t95 -35.5z" />
    <glyph glyph-name="h" unicode="h" horiz-adv-x="605" 
d="M358 526q80 0 131.5 -51t51.5 -148v-327h-144v307q0 44 -25 67.5t-62 23.5q-41 0 -71.5 -30t-30.5 -86v-282h-144v700h144v-242q51 68 150 68z" />
    <glyph glyph-name="i" unicode="i" horiz-adv-x="287" 
d="M144 750q40 0 67 -26t27 -64t-27 -64t-67 -26t-67 26t-27 64t27 64t67 26zM71 0v514h146v-514h-146z" />
    <glyph glyph-name="j" unicode="j" horiz-adv-x="296" 
d="M148 750q40 0 67 -26t27 -64t-27 -64t-67 -26t-67 26t-27 64t27 64t67 26zM77 -39v553h144v-555q0 -86 -49 -140t-130 -54q-57 0 -118 29l41 115q28 -15 48 -15q28 0 46 17.5t18 49.5z" />
    <glyph glyph-name="k" unicode="k" horiz-adv-x="616" 
d="M618 0h-205l-205 211v-211h-144v700h144v-382l185 196h193l-242 -240z" />
    <glyph glyph-name="l" unicode="l" horiz-adv-x="359" 
d="M350 26q-61 -32 -118 -32q-73 0 -120.5 47t-47.5 132v526h144v-511q0 -30 17 -47.5t43 -17.5q23 0 48 14z" />
    <glyph glyph-name="m" unicode="m" horiz-adv-x="882" 
d="M649 526q77 0 123 -50t46 -149v-327h-144v307q0 91 -74 91q-39 0 -63 -29.5t-24 -86.5v-282h-144v307q0 91 -74 91q-39 0 -63 -29.5t-24 -86.5v-282h-144v514h140v-62q49 74 140 74q112 0 150 -93q49 93 155 93z" />
    <glyph glyph-name="n" unicode="n" horiz-adv-x="605" 
d="M358 526q80 0 131.5 -51t51.5 -148v-327h-144v307q0 44 -25 67.5t-62 23.5q-41 0 -71.5 -30t-30.5 -86v-282h-144v514h140v-62q49 74 154 74z" />
    <glyph glyph-name="o" unicode="o" horiz-adv-x="602" 
d="M301 526q115 0 191.5 -76t76.5 -190t-76.5 -190t-191.5 -76t-191 76t-76 190t76 190t191 76zM301 397q-56 0 -89.5 -38t-33.5 -99t33.5 -99t89.5 -38t89.5 38t33.5 99t-33.5 99t-89.5 38z" />
    <glyph glyph-name="p" unicode="p" horiz-adv-x="639" 
d="M364 526q111 0 176.5 -75.5t65.5 -187.5t-65.5 -187.5t-175.5 -75.5q-105 0 -157 65v-286h-144v735h140v-62q19 34 62 54t98 20zM336 128q56 0 90.5 37.5t34.5 97.5q0 59 -34 97.5t-91 38.5t-92.5 -38t-35.5 -98t35.5 -97.5t92.5 -37.5z" />
    <glyph glyph-name="q" unicode="q" horiz-adv-x="639" 
d="M576 514v-735h-145v286q-50 -65 -156 -65q-111 0 -176 75t-65 188q0 112 65 187.5t176 75.5q59 0 100.5 -22t59.5 -60v70h141zM303 128q57 0 93 37.5t36 97.5t-36 98t-93 38t-91 -39t-34 -97q0 -60 34.5 -97.5t90.5 -37.5z" />
    <glyph glyph-name="r" unicode="r" horiz-adv-x="422" 
d="M411 511l-21 -135q-34 12 -66 12q-52 0 -84 -32t-32 -89v-267h-144v514h140v-77q15 42 52 63t85 21q36 0 70 -10z" />
    <glyph glyph-name="s" unicode="s" horiz-adv-x="512" 
d="M483 169q0 -81 -62.5 -128t-152.5 -47q-69 0 -133.5 28t-105.5 76l84 99q29 -37 76 -57.5t90 -20.5q60 0 60 34q0 18 -17.5 27.5t-62.5 17.5q-33 6 -52.5 10.5t-50.5 17t-49 28t-31.5 43t-13.5 62.5q0 80 57.5 123.5t141.5 43.5q120 0 195 -73l-73 -94q-49 46 -122 46
q-56 0 -56 -39q0 -19 18.5 -27.5t71.5 -18.5q28 -5 43 -8.5t41 -11.5t41 -18t31.5 -25.5t24 -37.5t7.5 -50z" />
    <glyph glyph-name="t" unicode="t" horiz-adv-x="451" 
d="M438 40q-71 -46 -147 -46q-79 0 -132.5 49t-53.5 135v207h-101v129h101v126h145v-126h147v-129h-147v-182q0 -39 21.5 -59.5t56.5 -20.5q38 0 74 24z" />
    <glyph glyph-name="u" unicode="u" horiz-adv-x="584" 
d="M231 -6q-78 0 -127.5 51t-49.5 148v321h144v-300q0 -45 22.5 -68.5t59.5 -23.5q40 0 68 30t28 86v276h144v-514h-140v68q-49 -74 -149 -74z" />
    <glyph glyph-name="v" unicode="v" horiz-adv-x="565" 
d="M395 514h157l-206 -514h-127l-205 514h157l112 -319z" />
    <glyph glyph-name="w" unicode="w" horiz-adv-x="884" 
d="M707 514h163l-187 -514h-135l-106 316l-106 -316h-135l-187 514h155l100 -318l100 318h146l100 -317z" />
    <glyph glyph-name="x" unicode="x" horiz-adv-x="582" 
d="M579 0h-182l-105 151l-107 -151h-181l201 263l-191 251h180l98 -139l96 139h181l-191 -251z" />
    <glyph glyph-name="y" unicode="y" horiz-adv-x="615" 
d="M407 514h145v-483q0 -122 -75 -194t-196 -72q-93 0 -162.5 47t-92.5 121l128 57q29 -95 131 -95q57 0 89.5 32t32.5 90v73q-41 -81 -154 -81q-85 0 -138.5 52t-53.5 150v303h145v-279q0 -46 25 -71.5t68 -25.5q48 0 78 30.5t30 85.5v260z" />
    <glyph glyph-name="z" unicode="z" horiz-adv-x="528" 
d="M228 129h263v-129h-453v124l245 261h-244v129h437v-124z" />
    <glyph glyph-name="braceleft" unicode="{" horiz-adv-x="390" 
d="M259 39q0 -43 18 -65.5t64 -25.5l-11 -91q-99 0 -154 41.5t-55 118.5v165q0 81 -101 81v111q101 0 101 81v165q0 77 55 118.5t154 41.5l11 -91q-46 -3 -64 -25.5t-18 -64.5v-154q0 -49 -31 -84t-94 -42q63 -8 94 -43t31 -84v-153z" />
    <glyph glyph-name="bar" unicode="|" horiz-adv-x="293" 
d="M219 758v-906h-145v906h145z" />
    <glyph glyph-name="braceright" unicode="}" horiz-adv-x="390" 
d="M139 39v153q0 49 31 84t94 43q-63 7 -94 42t-31 84v154q0 42 -18 64.5t-64 25.5l11 91q99 0 154 -41.5t55 -118.5v-165q0 -81 101 -81v-111q-101 0 -101 -81v-165q0 -77 -55 -118.5t-154 -41.5l-11 91q46 3 64 25.5t18 65.5z" />
    <glyph glyph-name="asciitilde" unicode="~" 
d="M499 430l101 -57q-28 -73 -79.5 -115t-114.5 -42q-52 0 -120 38q-4 2 -16 9t-17 9.5l-15 7.5t-16.5 7t-15 4t-15.5 2q-50 0 -90 -77l-100 57q28 74 79 115.5t114 41.5q53 0 130 -43q57 -33 85 -33q51 0 90 76z" />
    <glyph glyph-name="exclamdown" unicode="&#xa1;" horiz-adv-x="374" 
d="M187 441q-41 0 -67 25.5t-26 62.5q0 38 26 63.5t67 25.5t67 -26t26 -63t-26 -62.5t-67 -25.5zM244 388l21 -492h-155l21 492h113z" />
    <glyph glyph-name="cent" unicode="&#xa2;" horiz-adv-x="539" 
d="M525 128q-74 -121 -207 -133v-106h-55v106q-107 10 -168 82.5t-61 179.5q0 106 63.5 180.5t165.5 86.5v105h55v-104q127 -8 193 -105l-103 -84q-33 52 -90 60v-272q70 7 111 74zM178 262q0 -48 23 -83t62 -49v262q-40 -10 -62.5 -45t-22.5 -85z" />
    <glyph glyph-name="sterling" unicode="&#xa3;" horiz-adv-x="708" 
d="M576 203l108 -60q-30 -70 -79 -109.5t-110 -39.5q-84 0 -185 87q-52 -87 -141 -87q-60 0 -97.5 37t-37.5 95q0 60 39.5 101.5t97.5 41.5q45 0 86 -24q3 41 3 73v53h-115v71h115v68q0 90 55.5 140t144.5 50q81 0 140 -43l-56 -111q-29 23 -69 23q-35 0 -52.5 -19
t-17.5 -51v-57h145v-71h-145v-77q0 -66 -29 -117q58 -44 112 -44q55 0 88 70zM175 88q48 0 61 56q-22 29 -59 29q-22 0 -34 -11.5t-12 -31.5q0 -18 12 -30t32 -12z" />
    <glyph glyph-name="currency" unicode="&#xa4;" horiz-adv-x="731" 
d="M634 287q0 -82 -43 -148l107 -108l-79 -79l-108 108q-67 -42 -145 -42q-79 0 -146 42l-107 -109l-79 80l107 108q-43 65 -43 148q0 81 42 146l-105 106l75 84l109 -111q66 43 147 43q80 0 146 -43l110 111l75 -84l-105 -106q42 -67 42 -146zM366 160q53 0 89.5 36.5
t36.5 90.5q0 53 -36.5 89.5t-89.5 36.5t-89.5 -36.5t-36.5 -89.5q0 -54 36 -90.5t90 -36.5z" />
    <glyph glyph-name="yen" unicode="&#xa5;" horiz-adv-x="543" 
d="M345 402v-86h169v-63h-169v-101h169v-63h-169v-89h-147v89h-168v63h168v101h-168v63h168v86l-194 298h169l99 -166l98 166h169z" />
    <glyph glyph-name="brokenbar" unicode="&#xa6;" horiz-adv-x="293" 
d="M219 758v-397h-145v397h145zM219 248v-396h-145v396h145z" />
    <glyph glyph-name="section" unicode="&#xa7;" horiz-adv-x="536" 
d="M502 358q0 -64 -65 -96q32 -20 48.5 -42t16.5 -59q0 -77 -64.5 -122t-157.5 -45q-69 0 -135 26.5t-111 75.5l82 98q30 -35 81 -55t97 -20q64 0 64 33q0 28 -94 44q-7 1 -10 2q-36 6 -63.5 14.5t-57.5 23.5t-46.5 41t-16.5 61q0 60 59 93q-59 29 -59 103q0 79 59 122.5
t145 43.5q121 0 204 -77l-83 -95q-46 49 -120 49q-63 0 -63 -37q0 -31 99 -49q2 -1 3.5 -1t3 -0.5t3.5 -0.5q27 -5 41.5 -8t40 -10t39.5 -16t30 -22t23 -32t7 -43zM332 296q26 16 26 42q0 21 -17 32t-52 20l-50 11q-27 -13 -27 -41q0 -22 18 -33.5t56 -19.5q6 -1 46 -11z
" />
    <glyph glyph-name="dieresis" unicode="&#xa8;" horiz-adv-x="391" 
d="M86 766q37 0 62 -24t25 -59t-25 -58.5t-62 -23.5q-36 0 -61 24t-25 58q0 35 25 59t61 24zM305 766q36 0 61 -24t25 -59q0 -34 -25 -58t-61 -24q-37 0 -62 23.5t-25 58.5t25 59t62 24z" />
    <glyph glyph-name="copyright" unicode="&#xa9;" horiz-adv-x="811" 
d="M406 716q157 0 259.5 -104t102.5 -262t-102.5 -262t-259.5 -104t-259.5 104t-102.5 262t102.5 262t259.5 104zM406 39q130 0 216 87.5t86 223.5t-86 223.5t-216 87.5q-131 0 -216.5 -87.5t-85.5 -223.5t85.5 -223.5t216.5 -87.5zM586 255q-64 -105 -180 -105
q-92 0 -147 56.5t-55 147.5t58 150t147 59q109 0 166 -84l-82 -67q-31 48 -83 48q-42 0 -67 -27.5t-25 -74.5t27.5 -76t69.5 -29q61 0 94 58z" />
    <glyph glyph-name="ordfeminine" unicode="&#xaa;" horiz-adv-x="582" 
d="M523 411l26 -81q-35 -35 -88 -35q-35 0 -61.5 16.5t-36.5 47.5q-35 -64 -130 -64q-86 0 -142.5 59.5t-56.5 150.5q0 89 56 149.5t143 60.5q70 0 109 -41v32h118v-263q0 -18 10 -28.5t25 -10.5t28 7zM246 404q42 0 67.5 27.5t25.5 73.5q0 45 -26 73t-67 28t-66 -28
t-25 -73q0 -46 25 -73.5t66 -27.5z" />
    <glyph glyph-name="guillemotleft" unicode="&#xab;" horiz-adv-x="608" 
d="M162 278l135 -156l-88 -74l-195 230l195 230l88 -74zM439 278l135 -156l-88 -74l-195 230l195 230l88 -74z" />
    <glyph glyph-name="logicalnot" unicode="&#xac;" 
d="M112 249v126h376v-283h-128v157h-248z" />
    <glyph glyph-name="registered" unicode="&#xae;" horiz-adv-x="811" 
d="M406 716q157 0 259.5 -104t102.5 -262t-102.5 -262t-259.5 -104t-259.5 104t-102.5 262t102.5 262t259.5 104zM406 39q130 0 216 87.5t86 223.5t-86 223.5t-216 87.5q-131 0 -216.5 -87.5t-85.5 -223.5t85.5 -223.5t216.5 -87.5zM484 172l-71 117h-55v-117h-98v386h177
q63 0 103.5 -36.5t40.5 -94.5q0 -73 -67 -114l86 -141h-116zM358 462v-94h74q22 0 36 14t14 34q0 19 -14 32.5t-37 13.5h-73z" />
    <glyph glyph-name="macron" unicode="&#xaf;" horiz-adv-x="323" 
d="M0 713h323v-113h-323v113z" />
    <glyph glyph-name="degree" unicode="&#xb0;" horiz-adv-x="436" 
d="M218 715q83 0 138 -55.5t55 -136.5t-55 -136t-138 -55q-82 0 -137 55t-55 136t55 136.5t137 55.5zM218 436q38 0 62 24.5t24 62.5t-24 63t-62 25q-37 0 -61.5 -25t-24.5 -63t24 -62.5t62 -24.5z" />
    <glyph glyph-name="plusminus" unicode="&#xb1;" 
d="M512 534v-125h-148v-157h-127v157h-148v125h148v160h127v-160h148zM512 192v-125h-423v125h423z" />
    <glyph glyph-name="uni00B2" unicode="&#xb2;" horiz-adv-x="340" 
d="M166 372h164v-96h-304v88l113 101q3 2 13 11t13 12t11.5 11t12 12t9 11.5t8 13t4.5 12t2 13.5q0 19 -12.5 31t-33.5 12q-28 0 -43.5 -21.5t-15.5 -54.5l-96 5q0 73 45 120t115 47q63 0 103.5 -38t40.5 -96q0 -26 -8 -49t-24.5 -42t-26 -28t-27.5 -23z" />
    <glyph glyph-name="uni00B3" unicode="&#xb3;" horiz-adv-x="340" 
d="M251 496q73 -26 73 -99q0 -55 -43 -91.5t-108 -36.5q-54 0 -95.5 27.5t-60.5 75.5l87 39q23 -50 73 -50q21 0 33 10t12 27q0 45 -79 45h-36v83q101 0 101 46q0 33 -42 33q-21 0 -39.5 -12.5t-27.5 -32.5l-77 47q18 42 59 67.5t92 25.5q59 0 97.5 -31t38.5 -78
q0 -63 -58 -95z" />
    <glyph glyph-name="acute" unicode="&#xb4;" horiz-adv-x="327" 
d="M0 713l292 94l35 -124l-292 -82z" />
    <glyph glyph-name="paragraph" unicode="&#xb6;" horiz-adv-x="629" 
d="M464 568h-70v-668h-90v375h-41q-99 0 -164 64t-65 156q0 88 61 146.5t157 58.5h303v-800h-91v668zM273 407h31v160h-36q-40 0 -62.5 -21.5t-22.5 -55.5q0 -36 24.5 -59.5t65.5 -23.5z" />
    <glyph glyph-name="periodcentered" unicode="&#xb7;" horiz-adv-x="244" 
d="M122 430q37 0 64.5 -27.5t27.5 -64.5t-27.5 -65t-64.5 -28t-64.5 28t-27.5 65t27.5 64.5t64.5 27.5z" />
    <glyph glyph-name="cedilla" unicode="&#xb8;" horiz-adv-x="306" 
d="M180 1l-14 -56q77 -7 108.5 -34.5t31.5 -73.5q0 -49 -41 -84.5t-109 -35.5q-98 0 -156 69l54 58q43 -49 97 -49q27 0 48 12.5t21 37.5q0 42 -132 46l35 110h57z" />
    <glyph glyph-name="uni00B9" unicode="&#xb9;" horiz-adv-x="340" 
d="M148 276v322h-57v96h159v-418h-102z" />
    <glyph glyph-name="ordmasculine" unicode="&#xba;" horiz-adv-x="488" 
d="M244 716q91 0 151 -60t60 -150t-60 -150t-151 -60t-150.5 60t-59.5 150t59.5 150t150.5 60zM244 606q-40 0 -64.5 -27.5t-24.5 -72.5t24.5 -72.5t64.5 -27.5q41 0 65.5 27t24.5 73t-24.5 73t-65.5 27z" />
    <glyph glyph-name="guillemotright" unicode="&#xbb;" horiz-adv-x="608" 
d="M169 278l-135 156l88 74l195 -230l-195 -230l-88 74zM446 278l-135 156l88 74l195 -230l-195 -230l-88 74z" />
    <glyph glyph-name="onequarter" unicode="&#xbc;" horiz-adv-x="949" 
d="M255 -16l-82 60l467 672l82 -59zM131 275v322h-57v96h159v-418h-102zM809 182h66v-95h-66v-87h-102v87h-178v86l181 245h99v-236zM627 182h80v109z" />
    <glyph glyph-name="onehalf" unicode="&#xbd;" horiz-adv-x="983" 
d="M255 -16l-82 60l467 672l82 -59zM131 275v322h-57v96h159v-418h-102zM745 96h164v-96h-304v88l113 101q3 2 13 11t13 12t11.5 11t12 12t9 11.5t8 13t4.5 12t2 13.5q0 19 -12.5 31t-33.5 12q-28 0 -43.5 -21.5t-15.5 -54.5l-96 5q0 73 45 120t115 47q63 0 103.5 -38
t40.5 -96q0 -26 -8 -49t-24.5 -42t-26 -28t-27.5 -23z" />
    <glyph glyph-name="threequarters" unicode="&#xbe;" horiz-adv-x="1075" 
d="M382 -16l-82 60l467 672l82 -59zM308 496q73 -26 73 -99q0 -55 -43 -91.5t-108 -36.5q-54 0 -95.5 27.5t-60.5 75.5l87 39q23 -50 73 -50q21 0 33 10t12 27q0 45 -79 45h-36v83q101 0 101 46q0 33 -42 33q-21 0 -39.5 -12.5t-27.5 -32.5l-77 47q18 42 59 67.5t92 25.5
q59 0 97.5 -31t38.5 -78q0 -63 -58 -95zM935 182h66v-95h-66v-87h-102v87h-178v86l181 245h99v-236zM753 182h80v109z" />
    <glyph glyph-name="questiondown" unicode="&#xbf;" horiz-adv-x="546" 
d="M309 423q-41 0 -66.5 25.5t-25.5 62.5t25.5 63t66.5 26t67.5 -26t26.5 -63t-26.5 -62.5t-67.5 -25.5zM236 281v89h147v-180q-103 0 -146.5 -21.5t-43.5 -76.5q0 -39 25 -58.5t63 -19.5q40 0 79 20t61 55l91 -82q-42 -63 -107.5 -96t-136.5 -33q-92 0 -158 54.5t-66 147.5
q0 81 52.5 136t139.5 65z" />
    <glyph glyph-name="Agrave" unicode="&#xc0;" horiz-adv-x="718" 
d="M182 983l292 -94l-35 -112l-292 82zM546 0l-54 144h-266l-54 -144h-158l274 700h142l274 -700h-158zM277 282h164l-82 222z" />
    <glyph glyph-name="Aacute" unicode="&#xc1;" horiz-adv-x="718" 
d="M260 889l292 94l35 -124l-292 -82zM546 0l-54 144h-266l-54 -144h-158l274 700h142l274 -700h-158zM277 282h164l-82 222z" />
    <glyph glyph-name="Acircumflex" unicode="&#xc2;" horiz-adv-x="718" 
d="M360 1013l203 -148l-63 -89l-140 95l-138 -95l-66 89zM546 0l-54 144h-266l-54 -144h-158l274 700h142l274 -700h-158zM277 282h164l-82 222z" />
    <glyph glyph-name="Atilde" unicode="&#xc3;" horiz-adv-x="718" 
d="M499 947l74 -45q-13 -26 -23 -43t-26 -38.5t-35 -32t-41 -10.5q-31 0 -88 35q-36 22 -53 22q-33 0 -70 -59l-73 52q33 57 67 88.5t77 31.5q31 0 88 -32q32 -19 50 -19q27 0 53 50zM546 0l-54 144h-266l-54 -144h-158l274 700h142l274 -700h-158zM277 282h164l-82 222z
" />
    <glyph glyph-name="Adieresis" unicode="&#xc4;" horiz-adv-x="718" 
d="M239 941q37 0 62 -24t25 -59t-25 -58.5t-62 -23.5q-36 0 -61 24t-25 58q0 35 25 59t61 24zM478 941q36 0 61 -24t25 -59q0 -34 -25 -58t-61 -24q-37 0 -62 23.5t-25 58.5t25 59t62 24zM546 0l-54 144h-266l-54 -144h-158l274 700h142l274 -700h-158zM277 282h164l-82 222
z" />
    <glyph glyph-name="Aring" unicode="&#xc5;" horiz-adv-x="718" 
d="M359 758q-64 0 -105.5 42t-41.5 105t41.5 105.5t105.5 42.5q65 0 107 -42t42 -106q0 -63 -42 -105t-107 -42zM359 835q30 0 49 20.5t19 49.5t-18.5 49.5t-49.5 20.5q-30 0 -48 -20.5t-18 -49.5t18 -49.5t48 -20.5zM546 0l-54 144h-266l-54 -144h-158l274 700h142
l274 -700h-158zM277 282h164l-82 222z" />
    <glyph glyph-name="AE" unicode="&#xc6;" horiz-adv-x="1008" 
d="M644 141h310v-141h-458v166h-241l-76 -166h-165l336 700h596v-141h-302v-137h255v-141h-255v-140zM317 304h179v258h-59z" />
    <glyph glyph-name="Ccedilla" unicode="&#xc7;" horiz-adv-x="751" 
d="M727 212q-43 -106 -127 -165.5t-198 -62.5l-10 -39q77 -7 108.5 -34.5t31.5 -73.5q0 -49 -41 -84.5t-109 -35.5q-98 0 -156 69l54 58q43 -49 97 -49q27 0 48 12.5t21 37.5q0 42 -132 46l30 95q-141 16 -220.5 117t-79.5 238q0 101 42 185t126.5 137t196.5 53
q199 0 296 -163l-119 -82q-59 104 -184 104q-95 0 -152 -64t-57 -159t59 -160t154 -65q67 0 118 36t76 102z" />
    <glyph glyph-name="Egrave" unicode="&#xc8;" horiz-adv-x="586" 
d="M159 983l292 -94l-35 -112l-292 82zM524 559h-302v-137h256v-141h-256v-140h310v-141h-458v700h450v-141z" />
    <glyph glyph-name="Eacute" unicode="&#xc9;" horiz-adv-x="586" 
d="M181 889l292 94l35 -124l-292 -82zM524 559h-302v-137h256v-141h-256v-140h310v-141h-458v700h450v-141z" />
    <glyph glyph-name="Ecircumflex" unicode="&#xca;" horiz-adv-x="586" 
d="M307 1013l203 -148l-63 -89l-140 95l-138 -95l-66 89zM524 559h-302v-137h256v-141h-256v-140h310v-141h-458v700h450v-141z" />
    <glyph glyph-name="Edieresis" unicode="&#xcb;" horiz-adv-x="586" 
d="M184 941q37 0 62 -24t25 -59t-25 -58.5t-62 -23.5q-36 0 -61 24t-25 58q0 35 25 59t61 24zM423 941q36 0 61 -24t25 -59q0 -34 -25 -58t-61 -24q-37 0 -62 23.5t-25 58.5t25 59t62 24zM524 559h-302v-137h256v-141h-256v-140h310v-141h-458v700h450v-141z" />
    <glyph glyph-name="Igrave" unicode="&#xcc;" horiz-adv-x="296" 
d="M-29 983l292 -94l-35 -112l-292 82zM74 0v700h148v-700h-148z" />
    <glyph glyph-name="Iacute" unicode="&#xcd;" horiz-adv-x="296" 
d="M36 889l292 94l35 -124l-292 -82zM74 0v700h148v-700h-148z" />
    <glyph glyph-name="Icircumflex" unicode="&#xce;" horiz-adv-x="296" 
d="M148 1013l203 -148l-63 -89l-140 95l-138 -95l-66 89zM73 0v700h148v-700h-148z" />
    <glyph glyph-name="Idieresis" unicode="&#xcf;" horiz-adv-x="296" 
d="M28 941q37 0 62 -24t25 -59t-25 -58.5t-62 -23.5q-36 0 -61 24t-25 58q0 35 25 59t61 24zM267 941q36 0 61 -24t25 -59q0 -34 -25 -58t-61 -24q-37 0 -62 23.5t-25 58.5t25 59t62 24zM74 0v700h148v-700h-148z" />
    <glyph glyph-name="Eth" unicode="&#xd0;" horiz-adv-x="718" 
d="M321 700q167 0 260 -101.5t93 -241.5q0 -68 -23.5 -131t-68 -114t-116 -81.5t-160.5 -30.5h-232v293h-87v115h87v292h247zM316 141q99 0 154.5 62t55.5 149q0 85 -54.5 146t-149.5 61h-100v-151h153v-115h-153v-152h94z" />
    <glyph glyph-name="Ntilde" unicode="&#xd1;" horiz-adv-x="760" 
d="M526 947l74 -45q-13 -26 -23 -43t-26 -38.5t-35 -32t-41 -10.5q-31 0 -88 35q-36 22 -53 22q-33 0 -70 -59l-73 52q33 57 67 88.5t77 31.5q31 0 88 -32q32 -19 50 -19q27 0 53 50zM538 700h149v-700h-158l-307 444v-444h-148v700h158l306 -461v461z" />
    <glyph glyph-name="Ograve" unicode="&#xd2;" horiz-adv-x="809" 
d="M244 983l292 -94l-35 -112l-292 82zM405 716q155 0 258 -104.5t103 -261.5t-103 -261.5t-258 -104.5t-258 104.5t-103 261.5t103 261.5t258 104.5zM405 125q92 0 151.5 63.5t59.5 161.5t-59.5 161.5t-151.5 63.5t-152 -63.5t-60 -161.5t60 -161.5t152 -63.5z" />
    <glyph glyph-name="Oacute" unicode="&#xd3;" horiz-adv-x="809" 
d="M318 889l292 94l35 -124l-292 -82zM405 716q155 0 258 -104.5t103 -261.5t-103 -261.5t-258 -104.5t-258 104.5t-103 261.5t103 261.5t258 104.5zM405 125q92 0 151.5 63.5t59.5 161.5t-59.5 161.5t-151.5 63.5t-152 -63.5t-60 -161.5t60 -161.5t152 -63.5z" />
    <glyph glyph-name="Ocircumflex" unicode="&#xd4;" horiz-adv-x="809" 
d="M406 1013l203 -148l-63 -89l-140 95l-138 -95l-66 89zM405 716q155 0 258 -104.5t103 -261.5t-103 -261.5t-258 -104.5t-258 104.5t-103 261.5t103 261.5t258 104.5zM405 125q92 0 151.5 63.5t59.5 161.5t-59.5 161.5t-151.5 63.5t-152 -63.5t-60 -161.5t60 -161.5
t152 -63.5z" />
    <glyph glyph-name="Otilde" unicode="&#xd5;" horiz-adv-x="809" 
d="M541 947l74 -45q-13 -26 -23 -43t-26 -38.5t-35 -32t-41 -10.5q-31 0 -88 35q-36 22 -53 22q-33 0 -70 -59l-73 52q33 57 67 88.5t77 31.5q31 0 88 -32q32 -19 50 -19q27 0 53 50zM405 716q155 0 258 -104.5t103 -261.5t-103 -261.5t-258 -104.5t-258 104.5t-103 261.5
t103 261.5t258 104.5zM405 125q92 0 151.5 63.5t59.5 161.5t-59.5 161.5t-151.5 63.5t-152 -63.5t-60 -161.5t60 -161.5t152 -63.5z" />
    <glyph glyph-name="Odieresis" unicode="&#xd6;" horiz-adv-x="809" 
d="M285 941q37 0 62 -24t25 -59t-25 -58.5t-62 -23.5q-36 0 -61 24t-25 58q0 35 25 59t61 24zM524 941q36 0 61 -24t25 -59q0 -34 -25 -58t-61 -24q-37 0 -62 23.5t-25 58.5t25 59t62 24zM405 716q155 0 258 -104.5t103 -261.5t-103 -261.5t-258 -104.5t-258 104.5
t-103 261.5t103 261.5t258 104.5zM405 125q92 0 151.5 63.5t59.5 161.5t-59.5 161.5t-151.5 63.5t-152 -63.5t-60 -161.5t60 -161.5t152 -63.5z" />
    <glyph glyph-name="multiply" unicode="&#xd7;" 
d="M187 512l113 -114l115 114l83 -85l-113 -113l113 -115l-84 -84l-114 114l-114 -114l-84 84l114 114l-115 115z" />
    <glyph glyph-name="Oslash" unicode="&#xd8;" horiz-adv-x="809" 
d="M649 624q117 -106 117 -274q0 -157 -103 -261.5t-258 -104.5q-104 0 -188 50l-82 -112l-54 39l82 112q-119 106 -119 277q0 157 103 261.5t258 104.5q106 0 191 -52l79 107l53 -39zM193 350q0 -96 57 -158l261 355q-47 28 -106 28q-92 0 -152 -63.5t-60 -161.5zM405 125
q92 0 151.5 63.5t59.5 161.5q0 93 -54 155l-260 -355q47 -25 103 -25z" />
    <glyph glyph-name="Ugrave" unicode="&#xd9;" horiz-adv-x="688" 
d="M168 983l292 -94l-35 -112l-292 82zM476 700h148v-448q0 -123 -71 -195t-209 -72q-137 0 -208.5 72t-71.5 195v448h148v-437q0 -64 35 -100.5t97 -36.5t97 36.5t35 100.5v437z" />
    <glyph glyph-name="Uacute" unicode="&#xda;" horiz-adv-x="688" 
d="M244 889l292 94l35 -124l-292 -82zM476 700h148v-448q0 -123 -71 -195t-209 -72q-137 0 -208.5 72t-71.5 195v448h148v-437q0 -64 35 -100.5t97 -36.5t97 36.5t35 100.5v437z" />
    <glyph glyph-name="Ucircumflex" unicode="&#xdb;" horiz-adv-x="688" 
d="M345 1013l203 -148l-63 -89l-140 95l-138 -95l-66 89zM476 700h148v-448q0 -123 -71 -195t-209 -72q-137 0 -208.5 72t-71.5 195v448h148v-437q0 -64 35 -100.5t97 -36.5t97 36.5t35 100.5v437z" />
    <glyph glyph-name="Udieresis" unicode="&#xdc;" horiz-adv-x="688" 
d="M225 941q37 0 62 -24t25 -59t-25 -58.5t-62 -23.5q-36 0 -61 24t-25 58q0 35 25 59t61 24zM464 941q36 0 61 -24t25 -59q0 -34 -25 -58t-61 -24q-37 0 -62 23.5t-25 58.5t25 59t62 24zM476 700h148v-448q0 -123 -71 -195t-209 -72q-137 0 -208.5 72t-71.5 195v448h148
v-437q0 -64 35 -100.5t97 -36.5t97 36.5t35 100.5v437z" />
    <glyph glyph-name="Yacute" unicode="&#xdd;" horiz-adv-x="682" 
d="M261 889l292 94l35 -124l-292 -82zM678 700l-263 -402v-298h-148v298l-263 402h179l158 -268l158 268h179z" />
    <glyph glyph-name="Thorn" unicode="&#xde;" horiz-adv-x="587" 
d="M335 600q105 0 161.5 -63.5t56.5 -153.5q0 -92 -62 -160.5t-170 -68.5h-99v-154h-148v700h148v-100h113zM314 289q43 0 67 27.5t24 63.5q0 35 -22.5 59.5t-63.5 24.5h-97v-175h92z" />
    <glyph glyph-name="germandbls" unicode="&#xdf;" horiz-adv-x="618" 
d="M436 380q149 -42 149 -171q0 -90 -68.5 -149.5t-172.5 -59.5h-69v129h75q40 0 65 22t25 58q0 40 -31 62t-81 22h-45v113h20q52 0 80 27.5t28 65.5q0 42 -28 64t-70 22q-44 0 -74.5 -25t-30.5 -79v-481h-144v488q0 111 75 169.5t179 58.5q96 0 165 -49t69 -134
q0 -50 -28 -91.5t-88 -61.5z" />
    <glyph glyph-name="agrave" unicode="&#xe0;" horiz-adv-x="700" 
d="M154 807l292 -94l-35 -112l-292 82zM661 134l31 -106q-49 -34 -107 -34q-47 0 -82.5 25t-46.5 71q-52 -96 -181 -96q-109 0 -175 75.5t-66 190.5t65 190.5t176 75.5q120 0 161 -80v68h140v-341q0 -24 13.5 -37t33.5 -13q19 0 38 11zM304 122q57 0 92.5 38.5t35.5 99.5
q0 62 -35.5 100.5t-93.5 38.5q-57 0 -91 -39.5t-34 -99.5q0 -62 35 -100t91 -38z" />
    <glyph glyph-name="aacute" unicode="&#xe1;" horiz-adv-x="700" 
d="M217 713l292 94l35 -124l-292 -82zM661 134l31 -106q-49 -34 -107 -34q-47 0 -82.5 25t-46.5 71q-52 -96 -181 -96q-109 0 -175 75.5t-66 190.5t65 190.5t176 75.5q120 0 161 -80v68h140v-341q0 -24 13.5 -37t33.5 -13q19 0 38 11zM304 122q57 0 92.5 38.5t35.5 99.5
q0 62 -35.5 100.5t-93.5 38.5q-57 0 -91 -39.5t-34 -99.5q0 -62 35 -100t91 -38z" />
    <glyph glyph-name="acircumflex" unicode="&#xe2;" horiz-adv-x="700" 
d="M320 839l203 -148l-63 -89l-140 95l-138 -95l-66 89zM661 134l31 -106q-49 -34 -107 -34q-47 0 -82.5 25t-46.5 71q-52 -96 -181 -96q-109 0 -175 75.5t-66 190.5t65 190.5t176 75.5q120 0 161 -80v68h140v-341q0 -24 13.5 -37t33.5 -13q19 0 38 11zM304 122
q57 0 92.5 38.5t35.5 99.5q0 62 -35.5 100.5t-93.5 38.5q-57 0 -91 -39.5t-34 -99.5q0 -62 35 -100t91 -38z" />
    <glyph glyph-name="atilde" unicode="&#xe3;" horiz-adv-x="700" 
d="M458 770l74 -45q-13 -26 -23 -43t-26 -38.5t-35 -32t-41 -10.5q-31 0 -88 35q-36 22 -53 22q-33 0 -70 -59l-73 52q33 57 67 88.5t77 31.5q31 0 88 -32q32 -19 50 -19q27 0 53 50zM661 134l31 -106q-49 -34 -107 -34q-47 0 -82.5 25t-46.5 71q-52 -96 -181 -96
q-109 0 -175 75.5t-66 190.5t65 190.5t176 75.5q120 0 161 -80v68h140v-341q0 -24 13.5 -37t33.5 -13q19 0 38 11zM304 122q57 0 92.5 38.5t35.5 99.5q0 62 -35.5 100.5t-93.5 38.5q-57 0 -91 -39.5t-34 -99.5q0 -62 35 -100t91 -38z" />
    <glyph glyph-name="adieresis" unicode="&#xe4;" horiz-adv-x="700" 
d="M214 766q37 0 62 -24t25 -59t-25 -58.5t-62 -23.5q-36 0 -61 24t-25 58q0 35 25 59t61 24zM433 766q36 0 61 -24t25 -59q0 -34 -25 -58t-61 -24q-37 0 -62 23.5t-25 58.5t25 59t62 24zM661 134l31 -106q-49 -34 -107 -34q-47 0 -82.5 25t-46.5 71q-52 -96 -181 -96
q-109 0 -175 75.5t-66 190.5t65 190.5t176 75.5q120 0 161 -80v68h140v-341q0 -24 13.5 -37t33.5 -13q19 0 38 11zM304 122q57 0 92.5 38.5t35.5 99.5q0 62 -35.5 100.5t-93.5 38.5q-57 0 -91 -39.5t-34 -99.5q0 -62 35 -100t91 -38z" />
    <glyph glyph-name="aring" unicode="&#xe5;" horiz-adv-x="700" 
d="M317 601q-69 0 -114 46t-45 113q0 69 45 114.5t114 45.5q71 0 116 -45.5t45 -114.5q0 -68 -45.5 -113.5t-115.5 -45.5zM317 685q33 0 53 22t20 53q0 32 -20 54t-53 22t-52 -22t-19 -54q0 -31 19 -53t52 -22zM661 134l31 -106q-49 -34 -107 -34q-47 0 -82.5 25t-46.5 71
q-52 -96 -181 -96q-109 0 -175 75.5t-66 190.5t65 190.5t176 75.5q120 0 161 -80v68h140v-341q0 -24 13.5 -37t33.5 -13q19 0 38 11zM304 122q57 0 92.5 38.5t35.5 99.5q0 62 -35.5 100.5t-93.5 38.5q-57 0 -91 -39.5t-34 -99.5q0 -62 35 -100t91 -38z" />
    <glyph glyph-name="ae" unicode="&#xe6;" horiz-adv-x="886" 
d="M852 265v-54h-346q7 -39 41 -65.5t88 -26.5q77 0 128 58l72 -90q-87 -93 -215 -93q-144 0 -209 109q-66 -109 -191 -109q-85 0 -135.5 46.5t-50.5 119.5q0 74 51.5 113.5t147.5 39.5h128v7q0 37 -29.5 55t-71.5 18q-80 0 -125 -48l-83 87q68 94 211 94q64 0 111 -21.5
t69 -59.5q66 81 180 81q109 0 169 -68t60 -193zM502 314h206q0 41 -24.5 67.5t-70.5 26.5q-44 0 -73 -25t-38 -69zM247 122q46 0 77.5 28t38.5 74h-117q-31 0 -49 -14.5t-18 -37.5t18 -36.5t50 -13.5z" />
    <glyph glyph-name="ccedilla" unicode="&#xe7;" horiz-adv-x="539" 
d="M525 128q-37 -60 -93.5 -95t-124.5 -39l-12 -47q77 -7 108.5 -34.5t31.5 -73.5q0 -49 -41 -84.5t-109 -35.5q-98 0 -156 69l54 58q43 -49 97 -49q27 0 48 12.5t21 37.5q0 42 -132 46l33 104q-101 13 -158.5 84.5t-57.5 175.5q0 116 74 192.5t190 76.5q140 0 213 -106
l-103 -84q-39 61 -109 61q-56 0 -88.5 -37t-32.5 -98t36 -100t93 -39q35 0 68 20t54 55z" />
    <glyph glyph-name="egrave" unicode="&#xe8;" horiz-adv-x="563" 
d="M138 807l292 -94l-35 -112l-292 82zM529 265v-54h-346q7 -39 41.5 -65.5t87.5 -26.5q77 0 128 58l73 -90q-88 -93 -216 -93q-119 0 -191 73t-72 189q0 117 73.5 193.5t192.5 76.5q109 0 169 -68t60 -193zM180 314h206q0 41 -25 67.5t-71 26.5q-44 0 -73 -25t-37 -69z" />
    <glyph glyph-name="eacute" unicode="&#xe9;" horiz-adv-x="563" 
d="M199 713l292 94l35 -124l-292 -82zM529 265v-54h-346q7 -39 41.5 -65.5t87.5 -26.5q77 0 128 58l73 -90q-88 -93 -216 -93q-119 0 -191 73t-72 189q0 117 73.5 193.5t192.5 76.5q109 0 169 -68t60 -193zM180 314h206q0 41 -25 67.5t-71 26.5q-44 0 -73 -25t-37 -69z" />
    <glyph glyph-name="ecircumflex" unicode="&#xea;" horiz-adv-x="563" 
d="M305 839l203 -148l-63 -89l-140 95l-138 -95l-66 89zM529 265v-54h-346q7 -39 41.5 -65.5t87.5 -26.5q77 0 128 58l73 -90q-88 -93 -216 -93q-119 0 -191 73t-72 189q0 117 73.5 193.5t192.5 76.5q109 0 169 -68t60 -193zM180 314h206q0 41 -25 67.5t-71 26.5
q-44 0 -73 -25t-37 -69z" />
    <glyph glyph-name="edieresis" unicode="&#xeb;" horiz-adv-x="563" 
d="M186 766q37 0 62 -24t25 -59t-25 -58.5t-62 -23.5q-36 0 -61 24t-25 58q0 35 25 59t61 24zM405 766q36 0 61 -24t25 -59q0 -34 -25 -58t-61 -24q-37 0 -62 23.5t-25 58.5t25 59t62 24zM529 265v-54h-346q7 -39 41.5 -65.5t87.5 -26.5q77 0 128 58l73 -90
q-88 -93 -216 -93q-119 0 -191 73t-72 189q0 117 73.5 193.5t192.5 76.5q109 0 169 -68t60 -193zM180 314h206q0 41 -25 67.5t-71 26.5q-44 0 -73 -25t-37 -69z" />
    <glyph glyph-name="igrave" unicode="&#xec;" horiz-adv-x="287" 
d="M-44 807l292 -94l-35 -112l-292 82zM71 0v514h146v-514h-146z" />
    <glyph glyph-name="iacute" unicode="&#xed;" horiz-adv-x="287" 
d="M38 714l292 94l35 -124l-292 -82zM71 0v514h146v-514h-146z" />
    <glyph glyph-name="icircumflex" unicode="&#xee;" horiz-adv-x="287" 
d="M144 839l203 -148l-63 -89l-140 95l-138 -95l-66 89zM71 0v514h146v-514h-146z" />
    <glyph glyph-name="idieresis" unicode="&#xef;" horiz-adv-x="287" 
d="M34 766q37 0 62 -24t25 -59t-25 -58.5t-62 -23.5q-36 0 -61 24t-25 58q0 35 25 59t61 24zM253 766q36 0 61 -24t25 -59q0 -34 -25 -58t-61 -24q-37 0 -62 23.5t-25 58.5t25 59t62 24zM70 0v514h146v-514h-146z" />
    <glyph glyph-name="eth" unicode="&#xf0;" horiz-adv-x="607" 
d="M346 674q107 -47 162.5 -143t55.5 -215q0 -143 -75.5 -232.5t-201.5 -89.5q-110 0 -181.5 67.5t-71.5 176.5q0 97 62.5 155.5t149.5 58.5q56 0 105.5 -24.5t79.5 -71.5q-5 64 -39 116.5t-96 81.5l-27 -65l-56 20l26 66q-51 12 -101 12l5 126q77 0 145 -19l34 84l60 -19z
M288 129q48 0 78 29t30 75q0 48 -32 75t-76 27t-75 -26.5t-31 -76.5q0 -46 29 -74.5t77 -28.5z" />
    <glyph glyph-name="ntilde" unicode="&#xf1;" horiz-adv-x="605" 
d="M451 770l74 -45q-13 -26 -23 -43t-26 -38.5t-35 -32t-41 -10.5q-31 0 -88 35q-36 22 -53 22q-33 0 -70 -59l-73 52q33 57 67 88.5t77 31.5q31 0 88 -32q32 -19 50 -19q27 0 53 50zM358 526q80 0 131.5 -51t51.5 -148v-327h-144v307q0 44 -25 67.5t-62 23.5
q-41 0 -71.5 -30t-30.5 -86v-282h-144v514h140v-62q49 74 154 74z" />
    <glyph glyph-name="ograve" unicode="&#xf2;" horiz-adv-x="602" 
d="M139 807l292 -94l-35 -112l-292 82zM301 526q115 0 191.5 -76t76.5 -190t-76.5 -190t-191.5 -76t-191 76t-76 190t76 190t191 76zM301 397q-56 0 -89.5 -38t-33.5 -99t33.5 -99t89.5 -38t89.5 38t33.5 99t-33.5 99t-89.5 38z" />
    <glyph glyph-name="oacute" unicode="&#xf3;" horiz-adv-x="602" 
d="M198 713l292 94l35 -124l-292 -82zM301 526q115 0 191.5 -76t76.5 -190t-76.5 -190t-191.5 -76t-191 76t-76 190t76 190t191 76zM301 397q-56 0 -89.5 -38t-33.5 -99t33.5 -99t89.5 -38t89.5 38t33.5 99t-33.5 99t-89.5 38z" />
    <glyph glyph-name="ocircumflex" unicode="&#xf4;" horiz-adv-x="602" 
d="M302 839l203 -148l-63 -89l-140 95l-138 -95l-66 89zM301 526q115 0 191.5 -76t76.5 -190t-76.5 -190t-191.5 -76t-191 76t-76 190t76 190t191 76zM301 397q-56 0 -89.5 -38t-33.5 -99t33.5 -99t89.5 -38t89.5 38t33.5 99t-33.5 99t-89.5 38z" />
    <glyph glyph-name="otilde" unicode="&#xf5;" horiz-adv-x="602" 
d="M446 770l74 -45q-13 -26 -23 -43t-26 -38.5t-35 -32t-41 -10.5q-31 0 -88 35q-36 22 -53 22q-33 0 -70 -59l-73 52q33 57 67 88.5t77 31.5q31 0 88 -32q32 -19 50 -19q27 0 53 50zM301 526q115 0 191.5 -76t76.5 -190t-76.5 -190t-191.5 -76t-191 76t-76 190t76 190
t191 76zM301 397q-56 0 -89.5 -38t-33.5 -99t33.5 -99t89.5 -38t89.5 38t33.5 99t-33.5 99t-89.5 38z" />
    <glyph glyph-name="odieresis" unicode="&#xf6;" horiz-adv-x="602" 
d="M192 766q37 0 62 -24t25 -59t-25 -58.5t-62 -23.5q-36 0 -61 24t-25 58q0 35 25 59t61 24zM411 766q36 0 61 -24t25 -59q0 -34 -25 -58t-61 -24q-37 0 -62 23.5t-25 58.5t25 59t62 24zM301 526q115 0 191.5 -76t76.5 -190t-76.5 -190t-191.5 -76t-191 76t-76 190t76 190
t191 76zM301 397q-56 0 -89.5 -38t-33.5 -99t33.5 -99t89.5 -38t89.5 38t33.5 99t-33.5 99t-89.5 38z" />
    <glyph glyph-name="divide" unicode="&#xf7;" 
d="M301 577q36 0 59.5 -23t23.5 -56q0 -34 -23.5 -57t-59.5 -23q-37 0 -60.5 23t-23.5 57t23 56.5t61 22.5zM512 374v-125h-423v125h423zM301 206q36 0 59.5 -23t23.5 -56q0 -34 -23.5 -57t-59.5 -23q-37 0 -60.5 23t-23.5 57t23 56.5t61 22.5z" />
    <glyph glyph-name="oslash" unicode="&#xf8;" horiz-adv-x="602" 
d="M485 457q84 -76 84 -197q0 -114 -76.5 -190t-191.5 -76q-73 0 -131 32l-61 -83l-53 39l60 82q-82 77 -82 196q0 114 76 190t191 76q72 0 131 -31l63 86l52 -40zM178 260q0 -46 21 -83l154 210q-27 10 -52 10q-56 0 -89.5 -38t-33.5 -99zM301 123q56 0 89.5 38t33.5 99
q0 48 -22 83l-153 -209q24 -11 52 -11z" />
    <glyph glyph-name="ugrave" unicode="&#xf9;" horiz-adv-x="584" 
d="M121 807l292 -94l-35 -112l-292 82zM231 -6q-78 0 -127.5 51t-49.5 148v321h144v-300q0 -45 22.5 -68.5t59.5 -23.5q40 0 68 30t28 86v276h144v-514h-140v68q-49 -74 -149 -74z" />
    <glyph glyph-name="uacute" unicode="&#xfa;" horiz-adv-x="584" 
d="M187 713l292 94l35 -124l-292 -82zM231 -6q-78 0 -127.5 51t-49.5 148v321h144v-300q0 -45 22.5 -68.5t59.5 -23.5q40 0 68 30t28 86v276h144v-514h-140v68q-49 -74 -149 -74z" />
    <glyph glyph-name="ucircumflex" unicode="&#xfb;" horiz-adv-x="584" 
d="M285 839l203 -148l-63 -89l-140 95l-138 -95l-66 89zM231 -6q-78 0 -127.5 51t-49.5 148v321h144v-300q0 -45 22.5 -68.5t59.5 -23.5q40 0 68 30t28 86v276h144v-514h-140v68q-49 -74 -149 -74z" />
    <glyph glyph-name="udieresis" unicode="&#xfc;" horiz-adv-x="584" 
d="M176 766q37 0 62 -24t25 -59t-25 -58.5t-62 -23.5q-36 0 -61 24t-25 58q0 35 25 59t61 24zM395 766q36 0 61 -24t25 -59q0 -34 -25 -58t-61 -24q-37 0 -62 23.5t-25 58.5t25 59t62 24zM231 -6q-78 0 -127.5 51t-49.5 148v321h144v-300q0 -45 22.5 -68.5t59.5 -23.5
q40 0 68 30t28 86v276h144v-514h-140v68q-49 -74 -149 -74z" />
    <glyph glyph-name="yacute" unicode="&#xfd;" horiz-adv-x="615" 
d="M184 713l292 94l35 -124l-292 -82zM407 514h145v-483q0 -122 -75 -194t-196 -72q-93 0 -162.5 47t-92.5 121l128 57q29 -95 131 -95q57 0 89.5 32t32.5 90v73q-41 -81 -154 -81q-85 0 -138.5 52t-53.5 150v303h145v-279q0 -46 25 -71.5t68 -25.5q48 0 78 30.5t30 85.5
v260z" />
    <glyph glyph-name="thorn" unicode="&#xfe;" horiz-adv-x="639" 
d="M364 526q111 0 176.5 -75.5t65.5 -187.5t-65.5 -187.5t-175.5 -75.5q-105 0 -157 65v-286h-144v921h144v-241q21 31 62.5 49t93.5 18zM336 128q56 0 90.5 37.5t34.5 97.5q0 59 -34 97.5t-91 38.5t-92.5 -38t-35.5 -98t35.5 -97.5t92.5 -37.5z" />
    <glyph glyph-name="ydieresis" unicode="&#xff;" horiz-adv-x="615" 
d="M198 766q37 0 62 -24t25 -59t-25 -58.5t-62 -23.5q-36 0 -61 24t-25 58q0 35 25 59t61 24zM417 766q36 0 61 -24t25 -59q0 -34 -25 -58t-61 -24q-37 0 -62 23.5t-25 58.5t25 59t62 24zM407 514h145v-483q0 -122 -75 -194t-196 -72q-93 0 -162.5 47t-92.5 121l128 57
q29 -95 131 -95q57 0 89.5 32t32.5 90v73q-41 -81 -154 -81q-85 0 -138.5 52t-53.5 150v303h145v-279q0 -46 25 -71.5t68 -25.5q48 0 78 30.5t30 85.5v260z" />
    <glyph glyph-name="Amacron" unicode="&#x100;" horiz-adv-x="718" 
d="M198 890h323v-113h-323v113zM546 0l-54 144h-266l-54 -144h-158l274 700h142l274 -700h-158zM277 282h164l-82 222z" />
    <glyph glyph-name="amacron" unicode="&#x101;" horiz-adv-x="700" 
d="M162 713h323v-113h-323v113zM661 134l31 -106q-49 -34 -107 -34q-47 0 -82.5 25t-46.5 71q-52 -96 -181 -96q-109 0 -175 75.5t-66 190.5t65 190.5t176 75.5q120 0 161 -80v68h140v-341q0 -24 13.5 -37t33.5 -13q19 0 38 11zM304 122q57 0 92.5 38.5t35.5 99.5
q0 62 -35.5 100.5t-93.5 38.5q-57 0 -91 -39.5t-34 -99.5q0 -62 35 -100t91 -38z" />
    <glyph glyph-name="Abreve" unicode="&#x102;" horiz-adv-x="718" 
d="M438 967h108q-1 -81 -47.5 -136t-139.5 -55q-94 0 -140.5 55t-46.5 136h108q0 -86 79 -86q77 0 79 86zM546 0l-54 144h-266l-54 -144h-158l274 700h142l274 -700h-158zM277 282h164l-82 222z" />
    <glyph glyph-name="abreve" unicode="&#x103;" horiz-adv-x="700" 
d="M390 792h108q-1 -81 -47.5 -136t-139.5 -55q-94 0 -140.5 55t-46.5 136h108q0 -86 79 -86q77 0 79 86zM661 134l31 -106q-49 -34 -107 -34q-47 0 -82.5 25t-46.5 71q-52 -96 -181 -96q-109 0 -175 75.5t-66 190.5t65 190.5t176 75.5q120 0 161 -80v68h140v-341
q0 -24 13.5 -37t33.5 -13q19 0 38 11zM304 122q57 0 92.5 38.5t35.5 99.5q0 62 -35.5 100.5t-93.5 38.5q-57 0 -91 -39.5t-34 -99.5q0 -62 35 -100t91 -38z" />
    <glyph glyph-name="Aogonek" unicode="&#x104;" horiz-adv-x="718" 
d="M540 -91q0 -32 30.5 -55t91.5 -28l-18 -125q-107 1 -168 49t-61 113q0 45 32.5 84.5t93.5 65.5l-49 131h-266l-54 -144h-158l274 700h142l274 -700h-85q-36 -12 -57.5 -37t-21.5 -54zM277 282h164l-82 222z" />
    <glyph glyph-name="aogonek" unicode="&#x105;" horiz-adv-x="699" 
d="M528 -91q0 -32 30.5 -55t91.5 -28l-18 -125q-107 1 -168 49t-61 113q0 42 30.5 81t86.5 65q-51 25 -64 81q-52 -96 -181 -96q-109 0 -175 75.5t-66 190.5t65 190.5t176 75.5q120 0 161 -80v68h140v-341q0 -24 13.5 -37t33.5 -13q19 0 38 11l31 -106q-45 -31 -100 -34
q-29 -14 -46.5 -37t-17.5 -48zM304 122q57 0 92.5 38.5t35.5 99.5q0 62 -35.5 100.5t-93.5 38.5q-57 0 -91 -39.5t-34 -99.5q0 -62 35 -100t91 -38z" />
    <glyph glyph-name="Cacute" unicode="&#x106;" horiz-adv-x="751" 
d="M351 889l292 94l35 -124l-292 -82zM406 127q67 0 118 36t76 102l127 -53q-44 -109 -131 -168.5t-206 -59.5q-109 0 -189 51t-118.5 130.5t-38.5 175.5q0 101 42 185t126.5 137t196.5 53q199 0 296 -163l-119 -82q-59 104 -184 104q-95 0 -152 -64t-57 -159t59 -160
t154 -65z" />
    <glyph glyph-name="cacute" unicode="&#x107;" horiz-adv-x="539" 
d="M198 713l292 94l35 -124l-292 -82zM525 128q-39 -64 -99 -99t-132 -35q-121 0 -190.5 74t-69.5 189q0 116 74 192.5t190 76.5q140 0 213 -106l-103 -84q-39 61 -109 61q-56 0 -88.5 -37t-32.5 -98t36 -100t93 -39q35 0 68 20t54 55z" />
    <glyph glyph-name="Ccircumflex" unicode="&#x108;" horiz-adv-x="751" 
d="M415 1013l203 -148l-63 -89l-140 95l-138 -95l-66 89zM406 127q67 0 118 36t76 102l127 -53q-44 -109 -131 -168.5t-206 -59.5q-109 0 -189 51t-118.5 130.5t-38.5 175.5q0 101 42 185t126.5 137t196.5 53q199 0 296 -163l-119 -82q-59 104 -184 104q-95 0 -152 -64
t-57 -159t59 -160t154 -65z" />
    <glyph glyph-name="ccircumflex" unicode="&#x109;" horiz-adv-x="539" 
d="M292 839l203 -148l-63 -89l-140 95l-138 -95l-66 89zM525 128q-39 -64 -99 -99t-132 -35q-121 0 -190.5 74t-69.5 189q0 116 74 192.5t190 76.5q140 0 213 -106l-103 -84q-39 61 -109 61q-56 0 -88.5 -37t-32.5 -98t36 -100t93 -39q35 0 68 20t54 55z" />
    <glyph glyph-name="Cdotaccent" unicode="&#x10a;" horiz-adv-x="751" 
d="M417 954q41 0 67 -25.5t26 -62.5t-26 -63t-67 -26t-67 25.5t-26 63.5q0 37 26 62.5t67 25.5zM406 127q67 0 118 36t76 102l127 -53q-44 -109 -131 -168.5t-206 -59.5q-109 0 -189 51t-118.5 130.5t-38.5 175.5q0 101 42 185t126.5 137t196.5 53q199 0 296 -163l-119 -82
q-59 104 -184 104q-95 0 -152 -64t-57 -159t59 -160t154 -65z" />
    <glyph glyph-name="cdotaccent" unicode="&#x10b;" horiz-adv-x="539" 
d="M310 778q41 0 67 -25.5t26 -62.5t-26 -63t-67 -26t-67 25.5t-26 63.5q0 37 26 62.5t67 25.5zM525 128q-39 -64 -99 -99t-132 -35q-121 0 -190.5 74t-69.5 189q0 116 74 192.5t190 76.5q140 0 213 -106l-103 -84q-39 61 -109 61q-56 0 -88.5 -37t-32.5 -98t36 -100t93 -39
q35 0 68 20t54 55z" />
    <glyph glyph-name="Ccaron" unicode="&#x10c;" horiz-adv-x="751" 
d="M418 776l-204 148l66 89l138 -95l140 95l63 -89zM406 127q67 0 118 36t76 102l127 -53q-44 -109 -131 -168.5t-206 -59.5q-109 0 -189 51t-118.5 130.5t-38.5 175.5q0 101 42 185t126.5 137t196.5 53q199 0 296 -163l-119 -82q-59 104 -184 104q-95 0 -152 -64t-57 -159
t59 -160t154 -65z" />
    <glyph glyph-name="ccaron" unicode="&#x10d;" horiz-adv-x="539" 
d="M305 601l-204 148l66 89l138 -95l140 95l63 -89zM525 128q-39 -64 -99 -99t-132 -35q-121 0 -190.5 74t-69.5 189q0 116 74 192.5t190 76.5q140 0 213 -106l-103 -84q-39 61 -109 61q-56 0 -88.5 -37t-32.5 -98t36 -100t93 -39q35 0 68 20t54 55z" />
    <glyph glyph-name="Dcaron" unicode="&#x10e;" horiz-adv-x="718" 
d="M297 776l-204 148l66 89l138 -95l140 95l63 -89zM74 0v700h247q167 0 260 -101.5t93 -241.5q0 -68 -23.5 -131t-68 -114t-116 -81.5t-160.5 -30.5h-232zM322 559h-100v-418h94q99 0 154.5 62t55.5 149q0 85 -54.5 146t-149.5 61z" />
    <glyph glyph-name="dcaron" unicode="&#x10f;" horiz-adv-x="918" 
d="M649 411l100 312l145 -54l-125 -304zM275 526q55 0 96.5 -19.5t59.5 -52.5v246h145v-700h-137v70q-21 -35 -65 -55.5t-99 -20.5q-111 0 -176 75.5t-65 190.5q0 114 65 190t176 76zM303 122q58 0 93.5 38t35.5 100t-35.5 100.5t-93.5 38.5q-57 0 -91 -39.5t-34 -99.5
q0 -62 34.5 -100t90.5 -38z" />
    <glyph glyph-name="dcroat" unicode="&#x111;" horiz-adv-x="718" 
d="M694 634v-53h-118v-581h-137v70q-21 -35 -65 -55.5t-99 -20.5q-111 0 -176 75.5t-65 190.5q0 114 65 190t176 76q55 0 96.5 -19.5t59.5 -52.5v127h-134v53h134v66h145v-66h118zM303 122q58 0 93.5 38t35.5 100t-35.5 100.5t-93.5 38.5q-57 0 -91 -39.5t-34 -99.5
q0 -62 34.5 -100t90.5 -38z" />
    <glyph glyph-name="Emacron" unicode="&#x112;" horiz-adv-x="586" 
d="M147 890h323v-113h-323v113zM524 559h-302v-137h256v-141h-256v-140h310v-141h-458v700h450v-141z" />
    <glyph glyph-name="emacron" unicode="&#x113;" horiz-adv-x="563" 
d="M142 713h323v-113h-323v113zM529 265v-54h-346q7 -39 41.5 -65.5t87.5 -26.5q77 0 128 58l73 -90q-88 -93 -216 -93q-119 0 -191 73t-72 189q0 117 73.5 193.5t192.5 76.5q109 0 169 -68t60 -193zM180 314h206q0 41 -25 67.5t-71 26.5q-44 0 -73 -25t-37 -69z" />
    <glyph glyph-name="Ebreve" unicode="&#x114;" horiz-adv-x="586" 
d="M393 967h108q-1 -81 -47.5 -136t-139.5 -55q-94 0 -140.5 55t-46.5 136h108q0 -86 79 -86q77 0 79 86zM524 559h-302v-137h256v-141h-256v-140h310v-141h-458v700h450v-141z" />
    <glyph glyph-name="ebreve" unicode="&#x115;" horiz-adv-x="563" 
d="M395 792h108q-1 -81 -47.5 -136t-139.5 -55q-94 0 -140.5 55t-46.5 136h108q0 -86 79 -86q77 0 79 86zM529 265v-54h-346q7 -39 41.5 -65.5t87.5 -26.5q77 0 128 58l73 -90q-88 -93 -216 -93q-119 0 -191 73t-72 189q0 117 73.5 193.5t192.5 76.5q109 0 169 -68t60 -193z
M180 314h206q0 41 -25 67.5t-71 26.5q-44 0 -73 -25t-37 -69z" />
    <glyph glyph-name="Edotaccent" unicode="&#x116;" horiz-adv-x="586" 
d="M329 954q41 0 67 -25.5t26 -62.5t-26 -63t-67 -26t-67 25.5t-26 63.5q0 37 26 62.5t67 25.5zM524 559h-302v-137h256v-141h-256v-140h310v-141h-458v700h450v-141z" />
    <glyph glyph-name="edotaccent" unicode="&#x117;" horiz-adv-x="563" 
d="M306 778q41 0 67 -25.5t26 -62.5t-26 -63t-67 -26t-67 25.5t-26 63.5q0 37 26 62.5t67 25.5zM529 265v-54h-346q7 -39 41.5 -65.5t87.5 -26.5q77 0 128 58l73 -90q-88 -93 -216 -93q-119 0 -191 73t-72 189q0 117 73.5 193.5t192.5 76.5q109 0 169 -68t60 -193zM180 314
h206q0 41 -25 67.5t-71 26.5q-44 0 -73 -25t-37 -69z" />
    <glyph glyph-name="Eogonek" unicode="&#x118;" horiz-adv-x="586" 
d="M489 0q-36 -12 -57.5 -37t-21.5 -54q0 -32 30.5 -55t91.5 -28l-18 -125q-107 1 -168 49t-61 113q0 39 25.5 75t73.5 62h-310v700h450v-141h-302v-137h256v-141h-256v-140h310v-141h-43z" />
    <glyph glyph-name="eogonek" unicode="&#x119;" horiz-adv-x="563" 
d="M529 265v-54h-346q7 -39 41.5 -65.5t87.5 -26.5q77 0 128 58l73 -90q-73 -78 -176 -91q-31 -13 -50 -37t-19 -50q0 -32 30.5 -55t91.5 -28l-18 -125q-107 1 -168 49t-61 113q0 83 97 136q-95 17 -150.5 87t-55.5 170q0 117 73.5 193.5t192.5 76.5q109 0 169 -68t60 -193z
M180 314h206q0 41 -25 67.5t-71 26.5q-44 0 -73 -25t-37 -69z" />
    <glyph glyph-name="Ecaron" unicode="&#x11a;" horiz-adv-x="586" 
d="M309 776l-204 148l66 89l138 -95l140 95l63 -89zM524 559h-302v-137h256v-141h-256v-140h310v-141h-458v700h450v-141z" />
    <glyph glyph-name="ecaron" unicode="&#x11b;" horiz-adv-x="563" 
d="M304 601l-204 148l66 89l138 -95l140 95l63 -89zM529 265v-54h-346q7 -39 41.5 -65.5t87.5 -26.5q77 0 128 58l73 -90q-88 -93 -216 -93q-119 0 -191 73t-72 189q0 117 73.5 193.5t192.5 76.5q109 0 169 -68t60 -193zM180 314h206q0 41 -25 67.5t-71 26.5q-44 0 -73 -25
t-37 -69z" />
    <glyph glyph-name="Gcircumflex" unicode="&#x11c;" horiz-adv-x="754" 
d="M407 1013l203 -148l-63 -89l-140 95l-138 -95l-66 89zM368 256v138h315v-301q-119 -109 -289 -109q-163 0 -256.5 104t-93.5 253q0 101 42 185t126.5 137t196.5 53q200 0 296 -163l-119 -82q-59 104 -184 104q-96 0 -152.5 -64.5t-56.5 -162.5q0 -103 61 -165t153 -62
q70 0 127 29v106h-166z" />
    <glyph glyph-name="gcircumflex" unicode="&#x11d;" horiz-adv-x="646" 
d="M327 839l203 -148l-63 -89l-140 95l-138 -95l-66 89zM451 514h141v-483q0 -120 -82 -193t-206 -73q-93 0 -165.5 44.5t-103.5 118.5l125 64q19 -45 59.5 -71.5t89.5 -26.5q62 0 100 33t38 90v65q-42 -71 -159 -71q-110 0 -178.5 72t-68.5 186q0 112 67.5 184.5
t180.5 72.5q60 0 103.5 -20.5t58.5 -55.5v64zM317 139q59 0 95 34.5t36 95.5t-36 95.5t-95 34.5q-58 0 -94.5 -35t-36.5 -95q0 -59 36 -94.5t95 -35.5z" />
    <glyph glyph-name="Gbreve" unicode="&#x11e;" horiz-adv-x="754" 
d="M483 967h108q-1 -81 -47.5 -136t-139.5 -55q-94 0 -140.5 55t-46.5 136h108q0 -86 79 -86q77 0 79 86zM368 256v138h315v-301q-119 -109 -289 -109q-163 0 -256.5 104t-93.5 253q0 101 42 185t126.5 137t196.5 53q200 0 296 -163l-119 -82q-59 104 -184 104
q-96 0 -152.5 -64.5t-56.5 -162.5q0 -103 61 -165t153 -62q70 0 127 29v106h-166z" />
    <glyph glyph-name="gbreve" unicode="&#x11f;" horiz-adv-x="646" 
d="M397 792h108q-1 -81 -47.5 -136t-139.5 -55q-94 0 -140.5 55t-46.5 136h108q0 -86 79 -86q77 0 79 86zM451 514h141v-483q0 -120 -82 -193t-206 -73q-93 0 -165.5 44.5t-103.5 118.5l125 64q19 -45 59.5 -71.5t89.5 -26.5q62 0 100 33t38 90v65q-42 -71 -159 -71
q-110 0 -178.5 72t-68.5 186q0 112 67.5 184.5t180.5 72.5q60 0 103.5 -20.5t58.5 -55.5v64zM317 139q59 0 95 34.5t36 95.5t-36 95.5t-95 34.5q-58 0 -94.5 -35t-36.5 -95q0 -59 36 -94.5t95 -35.5z" />
    <glyph glyph-name="Gdotaccent" unicode="&#x120;" horiz-adv-x="754" 
d="M404 954q41 0 67 -25.5t26 -62.5t-26 -63t-67 -26t-67 25.5t-26 63.5q0 37 26 62.5t67 25.5zM368 256v138h315v-301q-119 -109 -289 -109q-163 0 -256.5 104t-93.5 253q0 101 42 185t126.5 137t196.5 53q200 0 296 -163l-119 -82q-59 104 -184 104q-96 0 -152.5 -64.5
t-56.5 -162.5q0 -103 61 -165t153 -62q70 0 127 29v106h-166z" />
    <glyph glyph-name="gdotaccent" unicode="&#x121;" horiz-adv-x="646" 
d="M305 778q41 0 67 -25.5t26 -62.5t-26 -63t-67 -26t-67 25.5t-26 63.5q0 37 26 62.5t67 25.5zM451 514h141v-483q0 -120 -82 -193t-206 -73q-93 0 -165.5 44.5t-103.5 118.5l125 64q19 -45 59.5 -71.5t89.5 -26.5q62 0 100 33t38 90v65q-42 -71 -159 -71q-110 0 -178.5 72
t-68.5 186q0 112 67.5 184.5t180.5 72.5q60 0 103.5 -20.5t58.5 -55.5v64zM317 139q59 0 95 34.5t36 95.5t-36 95.5t-95 34.5q-58 0 -94.5 -35t-36.5 -95q0 -59 36 -94.5t95 -35.5z" />
    <glyph glyph-name="uni0122" unicode="&#x122;" horiz-adv-x="754" 
d="M368 256v138h315v-301q-119 -109 -289 -109q-163 0 -256.5 104t-93.5 253q0 101 42 185t126.5 137t196.5 53q200 0 296 -163l-119 -82q-59 104 -184 104q-96 0 -152.5 -64.5t-56.5 -162.5q0 -103 61 -165t153 -62q70 0 127 29v106h-166zM286 -226l74 181l114 -51
l-96 -172z" />
    <glyph glyph-name="uni0123" unicode="&#x123;" horiz-adv-x="646" 
d="M427 780l-74 -181l-114 51l96 172zM451 514h141v-483q0 -120 -82 -193t-206 -73q-93 0 -165.5 44.5t-103.5 118.5l125 64q19 -45 59.5 -71.5t89.5 -26.5q62 0 100 33t38 90v65q-42 -71 -159 -71q-110 0 -178.5 72t-68.5 186q0 112 67.5 184.5t180.5 72.5
q60 0 103.5 -20.5t58.5 -55.5v64zM317 139q59 0 95 34.5t36 95.5t-36 95.5t-95 34.5q-58 0 -94.5 -35t-36.5 -95q0 -59 36 -94.5t95 -35.5z" />
    <glyph glyph-name="Hcircumflex" unicode="&#x124;" horiz-adv-x="728" 
d="M365 1013l203 -148l-63 -89l-140 95l-138 -95l-66 89zM74 0v700h148v-278h284v278h148v-700h-148v281h-284v-281h-148z" />
    <glyph glyph-name="hcircumflex" unicode="&#x125;" horiz-adv-x="620" 
d="M394 816l162 -118l-50 -70l-112 75l-110 -75l-52 70zM350 526q80 0 131.5 -51t51.5 -148v-327h-144v307q0 44 -25 67.5t-62 23.5q-41 0 -71.5 -30t-30.5 -86v-282h-144v700h144v-242q51 68 150 68z" />
    <glyph glyph-name="Hbar" unicode="&#x126;" horiz-adv-x="769" 
d="M753 607v-98h-78v-509h-148v281h-284v-281h-148v509h-79v98h79v93h148v-93h284v93h148v-93h78zM527 422v87h-284v-87h284z" />
    <glyph glyph-name="hbar" unicode="&#x127;" horiz-adv-x="635" 
d="M388 526q80 0 131.5 -51t51.5 -148v-327h-144v307q0 44 -25 67.5t-62 23.5q-41 0 -71.5 -30t-30.5 -86v-282h-144v579h-80v53h80v68h144v-68h170v-53h-170v-121q51 68 150 68z" />
    <glyph glyph-name="Itilde" unicode="&#x128;" horiz-adv-x="296" 
d="M283 947l74 -45q-13 -26 -23 -43t-26 -38.5t-35 -32t-41 -10.5q-31 0 -88 35q-36 22 -53 22q-33 0 -70 -59l-73 52q33 57 67 88.5t77 31.5q31 0 88 -32q32 -19 50 -19q27 0 53 50zM74 0v700h148v-700h-148z" />
    <glyph glyph-name="itilde" unicode="&#x129;" horiz-adv-x="287" 
d="M277 770l74 -45q-13 -26 -23 -43t-26 -38.5t-35 -32t-41 -10.5q-31 0 -88 35q-36 22 -53 22q-33 0 -70 -59l-73 52q33 57 67 88.5t77 31.5q31 0 88 -32q32 -19 50 -19q27 0 53 50zM71 0v514h146v-514h-146z" />
    <glyph glyph-name="Imacron" unicode="&#x12a;" horiz-adv-x="296" 
d="M-14 890h323v-113h-323v113zM74 0v700h148v-700h-148z" />
    <glyph glyph-name="imacron" unicode="&#x12b;" horiz-adv-x="288" 
d="M-18 713h323v-113h-323v113zM71 0v514h146v-514h-146z" />
    <glyph glyph-name="Iogonek" unicode="&#x12e;" horiz-adv-x="296" 
d="M148 0q-36 -12 -57.5 -37t-21.5 -54q0 -32 30.5 -55t91.5 -28l-18 -125q-107 1 -168 49t-61 113q0 46 33.5 86t96.5 65v686h148v-700h-74z" />
    <glyph glyph-name="iogonek" unicode="&#x12f;" horiz-adv-x="287" 
d="M144 570q-40 0 -67 26t-27 64t27 64t67 26t67 -26t27 -64t-27 -64t-67 -26zM71 5v509h146v-514h-52q-36 -12 -57.5 -37t-21.5 -54q0 -32 30.5 -55t91.5 -28l-18 -125q-107 1 -168 49t-61 113q0 42 28.5 79.5t81.5 62.5z" />
    <glyph glyph-name="Idotaccent" unicode="&#x130;" horiz-adv-x="296" 
d="M148 954q41 0 67 -25.5t26 -62.5t-26 -63t-67 -26t-67 25.5t-26 63.5q0 37 26 62.5t67 25.5zM74 0v700h148v-700h-148z" />
    <glyph glyph-name="dotlessi" unicode="&#x131;" horiz-adv-x="287" 
d="M71 0v514h146v-514h-146z" />
    <glyph glyph-name="IJ" unicode="&#x132;" horiz-adv-x="798" 
d="M74 0v700h148v-700h-148zM517 -16q-85 0 -149 51.5t-70 140.5l142 27q2 -38 23.5 -58t51.5 -20t50 20.5t20 57.5v497h149v-489q0 -110 -63.5 -168.5t-153.5 -58.5z" />
    <glyph glyph-name="ij" unicode="&#x133;" horiz-adv-x="583" 
d="M144 750q40 0 67 -26t27 -64t-27 -64t-67 -26t-67 26t-27 64t27 64t67 26zM435 750q40 0 67 -26t27 -64t-27 -64t-67 -26t-67 26t-27 64t27 64t67 26zM71 0v514h146v-514h-146zM364 -39v553h144v-555q0 -86 -49 -140t-130 -54q-57 0 -118 29l41 115q28 -15 48 -15
q28 0 46 17.5t18 49.5z" />
    <glyph glyph-name="Jcircumflex" unicode="&#x134;" horiz-adv-x="514" 
d="M377 1013l203 -148l-63 -89l-140 95l-138 -95l-66 89zM233 -16q-85 0 -149 51.5t-70 140.5l142 27q2 -38 23.5 -58t51.5 -20t50 20.5t20 57.5v497h149v-489q0 -110 -63.5 -168.5t-153.5 -58.5z" />
    <glyph glyph-name="jcircumflex" unicode="&#x135;" horiz-adv-x="296" 
d="M142 839l203 -148l-63 -89l-140 95l-138 -95l-66 89zM77 514h144v-562q0 -85 -54.5 -136t-132.5 -51q-65 0 -120 34l49 110q24 -15 48 -15q29 0 47.5 18t18.5 52v550z" />
    <glyph glyph-name="uni0136" unicode="&#x136;" horiz-adv-x="739" 
d="M727 0h-205l-300 313v-313h-148v700h148v-294l276 294h200l-326 -334zM273 -226l74 181l114 -51l-96 -172z" />
    <glyph glyph-name="uni0137" unicode="&#x137;" horiz-adv-x="616" 
d="M618 0h-205l-205 211v-211h-144v700h144v-382l185 196h193l-242 -240zM193 -226l74 181l114 -51l-96 -172z" />
    <glyph glyph-name="kgreenlandic" unicode="&#x138;" horiz-adv-x="617" 
d="M619 0h-205l-205 211v-211h-145v514h145v-196l185 196h193l-242 -240z" />
    <glyph glyph-name="Lacute" unicode="&#x139;" horiz-adv-x="525" 
d="M111 889l292 94l35 -124l-292 -82zM222 141h279v-141h-427v700h148v-559z" />
    <glyph glyph-name="lacute" unicode="&#x13a;" horiz-adv-x="359" 
d="M73 889l292 94l35 -124l-292 -82zM350 26q-61 -32 -118 -32q-73 0 -120.5 47t-47.5 132v526h144v-511q0 -30 17 -47.5t43 -17.5q23 0 48 14z" />
    <glyph glyph-name="uni013B" unicode="&#x13b;" horiz-adv-x="525" 
d="M222 141h279v-141h-427v700h148v-559zM198 -226l74 181l114 -51l-96 -172z" />
    <glyph glyph-name="uni013C" unicode="&#x13c;" horiz-adv-x="359" 
d="M350 26q-61 -32 -118 -32q-73 0 -120.5 47t-47.5 132v526h144v-511q0 -30 17 -47.5t43 -17.5q23 0 48 14zM88 -226l74 181l114 -51l-96 -172z" />
    <glyph glyph-name="Lcaron" unicode="&#x13d;" horiz-adv-x="707" 
d="M438 471l100 312l145 -54l-125 -304zM222 141h279v-141h-427v700h148v-559z" />
    <glyph glyph-name="lcaron" unicode="&#x13e;" horiz-adv-x="549" 
d="M280 411l100 312l145 -54l-125 -304zM350 26q-61 -32 -118 -32q-73 0 -120.5 47t-47.5 132v526h144v-511q0 -30 17 -47.5t43 -17.5q23 0 48 14z" />
    <glyph glyph-name="Ldot" unicode="&#x13f;" horiz-adv-x="605" 
d="M222 141h279v-141h-427v700h148v-559zM488 591q41 0 67 -25.5t26 -62.5t-26 -63t-67 -26t-67 25.5t-26 63.5q0 37 26 62.5t67 25.5z" />
    <glyph glyph-name="ldot" unicode="&#x140;" horiz-adv-x="517" 
d="M350 26q-61 -32 -118 -32q-73 0 -120.5 47t-47.5 132v526h144v-511q0 -30 17 -47.5t43 -17.5q23 0 48 14zM400 517q41 0 67 -25.5t26 -62.5t-26 -63t-67 -26t-67 25.5t-26 63.5q0 37 26 62.5t67 25.5z" />
    <glyph glyph-name="Lslash" unicode="&#x141;" horiz-adv-x="575" 
d="M272 141h279v-141h-427v235l-106 -60l-51 96l157 89v340h148v-257l146 83l53 -95l-199 -112v-178z" />
    <glyph glyph-name="lslash" unicode="&#x142;" horiz-adv-x="387" 
d="M286 123q23 0 48 14l34 -111q-61 -32 -118 -32q-73 0 -120.5 47t-47.5 132v154l-90 -43l-28 63l118 56v296h144v-228l124 59l28 -63l-152 -72v-207q0 -30 17 -47.5t43 -17.5z" />
    <glyph glyph-name="Nacute" unicode="&#x143;" horiz-adv-x="760" 
d="M291 889l292 94l35 -124l-292 -82zM538 700h149v-700h-158l-307 444v-444h-148v700h158l306 -461v461z" />
    <glyph glyph-name="nacute" unicode="&#x144;" horiz-adv-x="605" 
d="M208 713l292 94l35 -124l-292 -82zM358 526q80 0 131.5 -51t51.5 -148v-327h-144v307q0 44 -25 67.5t-62 23.5q-41 0 -71.5 -30t-30.5 -86v-282h-144v514h140v-62q49 74 154 74z" />
    <glyph glyph-name="uni0145" unicode="&#x145;" horiz-adv-x="760" 
d="M538 700h149v-700h-158l-307 444v-444h-148v700h158l306 -461v461zM280 -226l74 181l114 -51l-96 -172z" />
    <glyph glyph-name="uni0146" unicode="&#x146;" horiz-adv-x="605" 
d="M358 526q80 0 131.5 -51t51.5 -148v-327h-144v307q0 44 -25 67.5t-62 23.5q-41 0 -71.5 -30t-30.5 -86v-282h-144v514h140v-62q49 74 154 74zM207 -226l74 181l114 -51l-96 -172z" />
    <glyph glyph-name="Ncaron" unicode="&#x147;" horiz-adv-x="760" 
d="M384 776l-204 148l66 89l138 -95l140 95l63 -89zM538 700h149v-700h-158l-307 444v-444h-148v700h158l306 -461v461z" />
    <glyph glyph-name="ncaron" unicode="&#x148;" horiz-adv-x="605" 
d="M321 601l-204 148l66 89l138 -95l140 95l63 -89zM358 526q80 0 131.5 -51t51.5 -148v-327h-144v307q0 44 -25 67.5t-62 23.5q-41 0 -71.5 -30t-30.5 -86v-282h-144v514h140v-62q49 74 154 74z" />
    <glyph glyph-name="napostrophe" unicode="&#x149;" horiz-adv-x="828" 
d="M14 411l100 312l145 -54l-125 -304zM581 526q80 0 131.5 -51t51.5 -148v-327h-144v307q0 44 -25 67.5t-62 23.5q-41 0 -71.5 -30t-30.5 -86v-282h-144v514h140v-62q49 74 154 74z" />
    <glyph glyph-name="Eng" unicode="&#x14a;" horiz-adv-x="760" 
d="M687 700v-748q0 -86 -54.5 -136.5t-133.5 -50.5q-65 0 -120 34l49 110q24 -15 48 -15q30 0 48 18t18 52v36l-320 444v-444h-148v700h158l306 -443v443h149z" />
    <glyph glyph-name="eng" unicode="&#x14b;" horiz-adv-x="595" 
d="M358 526q80 0 131.5 -51t51.5 -148v-375q0 -86 -54.5 -136.5t-133.5 -50.5q-65 0 -120 34l50 110q23 -15 48 -15q29 0 47 18.5t18 51.5v343q0 44 -24.5 67.5t-61.5 23.5q-41 0 -71.5 -30t-30.5 -86v-282h-144v514h140v-62q49 74 154 74z" />
    <glyph glyph-name="Omacron" unicode="&#x14c;" horiz-adv-x="809" 
d="M244 890h323v-113h-323v113zM405 716q155 0 258 -104.5t103 -261.5t-103 -261.5t-258 -104.5t-258 104.5t-103 261.5t103 261.5t258 104.5zM405 125q92 0 151.5 63.5t59.5 161.5t-59.5 161.5t-151.5 63.5t-152 -63.5t-60 -161.5t60 -161.5t152 -63.5z" />
    <glyph glyph-name="omacron" unicode="&#x14d;" horiz-adv-x="602" 
d="M140 713h323v-113h-323v113zM301 526q115 0 191.5 -76t76.5 -190t-76.5 -190t-191.5 -76t-191 76t-76 190t76 190t191 76zM301 397q-56 0 -89.5 -38t-33.5 -99t33.5 -99t89.5 -38t89.5 38t33.5 99t-33.5 99t-89.5 38z" />
    <glyph glyph-name="Obreve" unicode="&#x14e;" horiz-adv-x="809" 
d="M484 967h108q-1 -81 -47.5 -136t-139.5 -55q-94 0 -140.5 55t-46.5 136h108q0 -86 79 -86q77 0 79 86zM405 716q155 0 258 -104.5t103 -261.5t-103 -261.5t-258 -104.5t-258 104.5t-103 261.5t103 261.5t258 104.5zM405 125q92 0 151.5 63.5t59.5 161.5t-59.5 161.5
t-151.5 63.5t-152 -63.5t-60 -161.5t60 -161.5t152 -63.5z" />
    <glyph glyph-name="obreve" unicode="&#x14f;" horiz-adv-x="602" 
d="M380 792h108q-1 -81 -47.5 -136t-139.5 -55q-94 0 -140.5 55t-46.5 136h108q0 -86 79 -86q77 0 79 86zM301 526q115 0 191.5 -76t76.5 -190t-76.5 -190t-191.5 -76t-191 76t-76 190t76 190t191 76zM301 397q-56 0 -89.5 -38t-33.5 -99t33.5 -99t89.5 -38t89.5 38t33.5 99
t-33.5 99t-89.5 38z" />
    <glyph glyph-name="Ohungarumlaut" unicode="&#x150;" horiz-adv-x="809" 
d="M477 977l-97 -201h-121l86 201h132zM666 977l-97 -201h-121l86 201h132zM405 716q155 0 258 -104.5t103 -261.5t-103 -261.5t-258 -104.5t-258 104.5t-103 261.5t103 261.5t258 104.5zM405 125q92 0 151.5 63.5t59.5 161.5t-59.5 161.5t-151.5 63.5t-152 -63.5
t-60 -161.5t60 -161.5t152 -63.5z" />
    <glyph glyph-name="ohungarumlaut" unicode="&#x151;" horiz-adv-x="602" 
d="M366 802l-97 -201h-121l86 201h132zM555 802l-97 -201h-121l86 201h132zM301 526q115 0 191.5 -76t76.5 -190t-76.5 -190t-191.5 -76t-191 76t-76 190t76 190t191 76zM301 397q-56 0 -89.5 -38t-33.5 -99t33.5 -99t89.5 -38t89.5 38t33.5 99t-33.5 99t-89.5 38z" />
    <glyph glyph-name="OE" unicode="&#x152;" horiz-adv-x="937" 
d="M573 141h310v-141h-470q-162 0 -265.5 97t-103.5 253t103.5 253t265.5 97h462v-141h-302v-137h256v-141h-256v-140zM425 141v418q-107 0 -169.5 -56t-62.5 -153t62.5 -153t169.5 -56z" />
    <glyph glyph-name="oe" unicode="&#x153;" horiz-adv-x="977" 
d="M943 265v-54h-346q7 -39 41.5 -65.5t87.5 -26.5q77 0 128 58l72 -90q-87 -93 -215 -93q-147 0 -211 113q-62 -113 -201 -113q-115 0 -190 76t-75 190t75 190t190 76q140 0 203 -117q66 117 212 117q109 0 169 -68t60 -193zM593 314h206q0 41 -24.5 67.5t-70.5 26.5
q-44 0 -73 -25t-38 -69zM301 123q56 0 89.5 38t33.5 99t-33.5 99t-89.5 38t-89 -38t-33 -99t33 -99t89 -38z" />
    <glyph glyph-name="Racute" unicode="&#x154;" horiz-adv-x="630" 
d="M211 889l292 94l35 -124l-292 -82zM433 306l179 -306h-173l-151 268h-66v-268h-148v700h264q111 0 169.5 -61.5t58.5 -148.5q0 -61 -35 -110.5t-98 -73.5zM222 564v-166h100q44 0 69.5 23.5t25.5 61.5q0 37 -24 59t-66 22h-105z" />
    <glyph glyph-name="racute" unicode="&#x155;" horiz-adv-x="447" 
d="M167 713l292 94l35 -124l-292 -82zM411 511l-21 -135q-34 12 -66 12q-52 0 -84 -32t-32 -89v-267h-144v514h140v-77q15 42 52 63t85 21q36 0 70 -10z" />
    <glyph glyph-name="uni0156" unicode="&#x156;" horiz-adv-x="630" 
d="M433 306l179 -306h-173l-151 268h-66v-268h-148v700h264q111 0 169.5 -61.5t58.5 -148.5q0 -61 -35 -110.5t-98 -73.5zM222 564v-166h100q44 0 69.5 23.5t25.5 61.5q0 37 -24 59t-66 22h-105zM230 -226l74 181l114 -51l-96 -172z" />
    <glyph glyph-name="uni0157" unicode="&#x157;" horiz-adv-x="422" 
d="M411 511l-21 -135q-34 12 -66 12q-52 0 -84 -32t-32 -89v-267h-144v514h140v-77q15 42 52 63t85 21q36 0 70 -10zM16 -226l74 181l114 -51l-96 -172z" />
    <glyph glyph-name="Rcaron" unicode="&#x158;" horiz-adv-x="630" 
d="M300 776l-204 148l66 89l138 -95l140 95l63 -89zM433 306l179 -306h-173l-151 268h-66v-268h-148v700h264q111 0 169.5 -61.5t58.5 -148.5q0 -61 -35 -110.5t-98 -73.5zM222 564v-166h100q44 0 69.5 23.5t25.5 61.5q0 37 -24 59t-66 22h-105z" />
    <glyph glyph-name="rcaron" unicode="&#x159;" horiz-adv-x="422" 
d="M251 601l-204 148l66 89l138 -95l140 95l63 -89zM411 511l-21 -135q-34 12 -66 12q-52 0 -84 -32t-32 -89v-267h-144v514h140v-77q15 42 52 63t85 21q36 0 70 -10z" />
    <glyph glyph-name="Sacute" unicode="&#x15a;" horiz-adv-x="582" 
d="M220 889l292 94l35 -124l-292 -82zM548 209q0 -105 -73.5 -165t-178.5 -60q-74 0 -143.5 31.5t-118.5 92.5l101 106q29 -41 76.5 -63.5t94.5 -22.5q41 0 67 18t26 48q0 23 -20 40t-38.5 23.5t-64.5 19.5q-11 3 -17 5q-45 13 -74.5 25.5t-64 36t-52 60.5t-17.5 87
q0 103 74 164t177 61q65 0 125.5 -27.5t103.5 -80.5l-95 -101q-23 31 -62.5 49t-79.5 18q-41 0 -67.5 -17.5t-26.5 -50.5q0 -26 20.5 -44.5t39 -25.5t65.5 -21l3 -1.5t3 -1t3 -0.5q39 -11 61.5 -18t55.5 -23.5t51 -36t32 -52t14 -73.5z" />
    <glyph glyph-name="sacute" unicode="&#x15b;" horiz-adv-x="512" 
d="M151 713l292 94l35 -124l-292 -82zM483 169q0 -81 -62.5 -128t-152.5 -47q-69 0 -133.5 28t-105.5 76l84 99q29 -37 76 -57.5t90 -20.5q60 0 60 34q0 18 -17.5 27.5t-62.5 17.5q-33 6 -52.5 10.5t-50.5 17t-49 28t-31.5 43t-13.5 62.5q0 80 57.5 123.5t141.5 43.5
q120 0 195 -73l-73 -94q-49 46 -122 46q-56 0 -56 -39q0 -19 18.5 -27.5t71.5 -18.5q28 -5 43 -8.5t41 -11.5t41 -18t31.5 -25.5t24 -37.5t7.5 -50z" />
    <glyph glyph-name="Scircumflex" unicode="&#x15c;" horiz-adv-x="582" 
d="M307 1013l203 -148l-63 -89l-140 95l-138 -95l-66 89zM548 209q0 -105 -73.5 -165t-178.5 -60q-74 0 -143.5 31.5t-118.5 92.5l101 106q29 -41 76.5 -63.5t94.5 -22.5q41 0 67 18t26 48q0 23 -20 40t-38.5 23.5t-64.5 19.5q-11 3 -17 5q-45 13 -74.5 25.5t-64 36
t-52 60.5t-17.5 87q0 103 74 164t177 61q65 0 125.5 -27.5t103.5 -80.5l-95 -101q-23 31 -62.5 49t-79.5 18q-41 0 -67.5 -17.5t-26.5 -50.5q0 -26 20.5 -44.5t39 -25.5t65.5 -21l3 -1.5t3 -1t3 -0.5q39 -11 61.5 -18t55.5 -23.5t51 -36t32 -52t14 -73.5z" />
    <glyph glyph-name="scircumflex" unicode="&#x15d;" horiz-adv-x="512" 
d="M266 839l203 -148l-63 -89l-140 95l-138 -95l-66 89zM483 169q0 -81 -62.5 -128t-152.5 -47q-69 0 -133.5 28t-105.5 76l84 99q29 -37 76 -57.5t90 -20.5q60 0 60 34q0 18 -17.5 27.5t-62.5 17.5q-33 6 -52.5 10.5t-50.5 17t-49 28t-31.5 43t-13.5 62.5q0 80 57.5 123.5
t141.5 43.5q120 0 195 -73l-73 -94q-49 46 -122 46q-56 0 -56 -39q0 -19 18.5 -27.5t71.5 -18.5q28 -5 43 -8.5t41 -11.5t41 -18t31.5 -25.5t24 -37.5t7.5 -50z" />
    <glyph glyph-name="Scedilla" unicode="&#x15e;" horiz-adv-x="582" 
d="M548 209q0 -98 -64 -156.5t-160 -67.5l-10 -40q77 -7 108.5 -34.5t31.5 -73.5q0 -49 -41 -84.5t-109 -35.5q-98 0 -156 69l54 58q43 -49 97 -49q27 0 48 12.5t21 37.5q0 42 -132 46l30 94q-144 14 -232 123l101 106q29 -41 76.5 -63.5t94.5 -22.5q41 0 67 18t26 48
q0 23 -20 40t-38.5 23.5t-64.5 19.5q-11 3 -17 5q-45 13 -74.5 25.5t-64 36t-52 60.5t-17.5 87q0 103 74 164t177 61q65 0 125.5 -27.5t103.5 -80.5l-95 -101q-23 31 -62.5 49t-79.5 18q-41 0 -67.5 -17.5t-26.5 -50.5q0 -26 20.5 -44.5t39 -25.5t65.5 -21l3 -1.5t3 -1
t3 -0.5q39 -11 61.5 -18t55.5 -23.5t51 -36t32 -52t14 -73.5z" />
    <glyph glyph-name="scedilla" unicode="&#x15f;" horiz-adv-x="512" 
d="M483 169q0 -79 -59.5 -126t-146.5 -49l-12 -49q77 -7 108.5 -34.5t31.5 -73.5q0 -49 -41 -84.5t-109 -35.5q-98 0 -156 69l54 58q43 -49 97 -49q27 0 48 12.5t21 37.5q0 42 -132 46l34 106q-121 18 -192 101l84 99q29 -37 76 -57.5t90 -20.5q60 0 60 34q0 18 -17.5 27.5
t-62.5 17.5q-33 6 -52.5 10.5t-50.5 17t-49 28t-31.5 43t-13.5 62.5q0 80 57.5 123.5t141.5 43.5q120 0 195 -73l-73 -94q-49 46 -122 46q-56 0 -56 -39q0 -19 18.5 -27.5t71.5 -18.5q28 -5 43 -8.5t41 -11.5t41 -18t31.5 -25.5t24 -37.5t7.5 -50z" />
    <glyph glyph-name="Scaron" unicode="&#x160;" horiz-adv-x="582" 
d="M317 776l-204 148l66 89l138 -95l140 95l63 -89zM548 209q0 -105 -73.5 -165t-178.5 -60q-74 0 -143.5 31.5t-118.5 92.5l101 106q29 -41 76.5 -63.5t94.5 -22.5q41 0 67 18t26 48q0 23 -20 40t-38.5 23.5t-64.5 19.5q-11 3 -17 5q-45 13 -74.5 25.5t-64 36t-52 60.5
t-17.5 87q0 103 74 164t177 61q65 0 125.5 -27.5t103.5 -80.5l-95 -101q-23 31 -62.5 49t-79.5 18q-41 0 -67.5 -17.5t-26.5 -50.5q0 -26 20.5 -44.5t39 -25.5t65.5 -21l3 -1.5t3 -1t3 -0.5q39 -11 61.5 -18t55.5 -23.5t51 -36t32 -52t14 -73.5z" />
    <glyph glyph-name="scaron" unicode="&#x161;" horiz-adv-x="512" 
d="M260 601l-204 148l66 89l138 -95l140 95l63 -89zM483 169q0 -81 -62.5 -128t-152.5 -47q-69 0 -133.5 28t-105.5 76l84 99q29 -37 76 -57.5t90 -20.5q60 0 60 34q0 18 -17.5 27.5t-62.5 17.5q-33 6 -52.5 10.5t-50.5 17t-49 28t-31.5 43t-13.5 62.5q0 80 57.5 123.5
t141.5 43.5q120 0 195 -73l-73 -94q-49 46 -122 46q-56 0 -56 -39q0 -19 18.5 -27.5t71.5 -18.5q28 -5 43 -8.5t41 -11.5t41 -18t31.5 -25.5t24 -37.5t7.5 -50z" />
    <glyph glyph-name="uni0162" unicode="&#x162;" horiz-adv-x="606" 
d="M377 0h-91l-14 -55q77 -7 108.5 -34.5t31.5 -73.5q0 -49 -41 -84.5t-109 -35.5q-98 0 -156 69l54 58q43 -49 97 -49q27 0 48 12.5t21 37.5q0 42 -132 46l35 110v558h-215v141h579v-141h-216v-559z" />
    <glyph glyph-name="uni0163" unicode="&#x163;" horiz-adv-x="451" 
d="M292 -55q77 -7 108.5 -34.5t31.5 -73.5q0 -49 -41 -84.5t-109 -35.5q-98 0 -156 69l54 58q43 -49 97 -49q27 0 48 12.5t21 37.5q0 42 -132 46l34 107q-64 13 -103.5 59.5t-39.5 120.5v207h-101v129h101v126h145v-126h147v-129h-147v-182q0 -39 21.5 -59.5t56.5 -20.5
q38 0 74 24l36 -107q-65 -41 -134 -46z" />
    <glyph glyph-name="Tcaron" unicode="&#x164;" horiz-adv-x="606" 
d="M304 776l-204 148l66 89l138 -95l140 95l63 -89zM377 559v-559h-148v559h-215v141h579v-141h-216z" />
    <glyph glyph-name="tcaron" unicode="&#x165;" horiz-adv-x="745" 
d="M476 411l100 312l145 -54l-125 -304zM438 40q-71 -46 -147 -46q-79 0 -132.5 49t-53.5 135v207h-101v129h101v126h145v-126h147v-129h-147v-182q0 -39 21.5 -59.5t56.5 -20.5q38 0 74 24z" />
    <glyph glyph-name="Tbar" unicode="&#x166;" horiz-adv-x="606" 
d="M593 559h-216v-174h143v-115h-143v-270h-148v270h-142v115h142v174h-215v141h579v-141z" />
    <glyph glyph-name="tbar" unicode="&#x167;" horiz-adv-x="451" 
d="M402 147l36 -107q-71 -46 -147 -46q-79 0 -132.5 49t-53.5 135v60h-85v83h85v64h-101v129h101v126h145v-126h147v-129h-147v-64h163v-83h-163v-35q0 -39 21.5 -59.5t56.5 -20.5q38 0 74 24z" />
    <glyph glyph-name="Utilde" unicode="&#x168;" horiz-adv-x="688" 
d="M488 947l74 -45q-13 -26 -23 -43t-26 -38.5t-35 -32t-41 -10.5q-31 0 -88 35q-36 22 -53 22q-33 0 -70 -59l-73 52q33 57 67 88.5t77 31.5q31 0 88 -32q32 -19 50 -19q27 0 53 50zM476 700h148v-448q0 -123 -71 -195t-209 -72q-137 0 -208.5 72t-71.5 195v448h148v-437
q0 -64 35 -100.5t97 -36.5t97 36.5t35 100.5v437z" />
    <glyph glyph-name="utilde" unicode="&#x169;" horiz-adv-x="584" 
d="M434 770l74 -45q-13 -26 -23 -43t-26 -38.5t-35 -32t-41 -10.5q-31 0 -88 35q-36 22 -53 22q-33 0 -70 -59l-73 52q33 57 67 88.5t77 31.5q31 0 88 -32q32 -19 50 -19q27 0 53 50zM231 -6q-78 0 -127.5 51t-49.5 148v321h144v-300q0 -45 22.5 -68.5t59.5 -23.5
q40 0 68 30t28 86v276h144v-514h-140v68q-49 -74 -149 -74z" />
    <glyph glyph-name="Umacron" unicode="&#x16a;" horiz-adv-x="688" 
d="M183 890h323v-113h-323v113zM476 700h148v-448q0 -123 -71 -195t-209 -72q-137 0 -208.5 72t-71.5 195v448h148v-437q0 -64 35 -100.5t97 -36.5t97 36.5t35 100.5v437z" />
    <glyph glyph-name="umacron" unicode="&#x16b;" horiz-adv-x="584" 
d="M128 713h323v-113h-323v113zM231 -6q-78 0 -127.5 51t-49.5 148v321h144v-300q0 -45 22.5 -68.5t59.5 -23.5q40 0 68 30t28 86v276h144v-514h-140v68q-49 -74 -149 -74z" />
    <glyph glyph-name="Ubreve" unicode="&#x16c;" horiz-adv-x="688" 
d="M423 967h108q-1 -81 -47.5 -136t-139.5 -55q-94 0 -140.5 55t-46.5 136h108q0 -86 79 -86q77 0 79 86zM476 700h148v-448q0 -123 -71 -195t-209 -72q-137 0 -208.5 72t-71.5 195v448h148v-437q0 -64 35 -100.5t97 -36.5t97 36.5t35 100.5v437z" />
    <glyph glyph-name="ubreve" unicode="&#x16d;" horiz-adv-x="584" 
d="M369 792h108q-1 -81 -47.5 -136t-139.5 -55q-94 0 -140.5 55t-46.5 136h108q0 -86 79 -86q77 0 79 86zM231 -6q-78 0 -127.5 51t-49.5 148v321h144v-300q0 -45 22.5 -68.5t59.5 -23.5q40 0 68 30t28 86v276h144v-514h-140v68q-49 -74 -149 -74z" />
    <glyph glyph-name="Uring" unicode="&#x16e;" horiz-adv-x="688" 
d="M344 758q-64 0 -105.5 42t-41.5 105t41.5 105.5t105.5 42.5q65 0 107 -42t42 -106q0 -63 -42 -105t-107 -42zM344 835q30 0 49 20.5t19 49.5t-18.5 49.5t-49.5 20.5q-30 0 -48 -20.5t-18 -49.5t18 -49.5t48 -20.5zM476 700h148v-448q0 -123 -71 -195t-209 -72
q-137 0 -208.5 72t-71.5 195v448h148v-437q0 -64 35 -100.5t97 -36.5t97 36.5t35 100.5v437z" />
    <glyph glyph-name="uring" unicode="&#x16f;" horiz-adv-x="584" 
d="M293 601q-69 0 -114 46t-45 113q0 69 45 114.5t114 45.5q71 0 116 -45.5t45 -114.5q0 -68 -45.5 -113.5t-115.5 -45.5zM293 685q33 0 53 22t20 53q0 32 -20 54t-53 22t-52 -22t-19 -54q0 -31 19 -53t52 -22zM231 -6q-78 0 -127.5 51t-49.5 148v321h144v-300
q0 -45 22.5 -68.5t59.5 -23.5q40 0 68 30t28 86v276h144v-514h-140v68q-49 -74 -149 -74z" />
    <glyph glyph-name="Uhungarumlaut" unicode="&#x170;" horiz-adv-x="688" 
d="M396 977l-97 -201h-121l86 201h132zM585 977l-97 -201h-121l86 201h132zM476 700h148v-448q0 -123 -71 -195t-209 -72q-137 0 -208.5 72t-71.5 195v448h148v-437q0 -64 35 -100.5t97 -36.5t97 36.5t35 100.5v437z" />
    <glyph glyph-name="uhungarumlaut" unicode="&#x171;" horiz-adv-x="584" 
d="M323 802l-97 -201h-121l86 201h132zM512 802l-97 -201h-121l86 201h132zM231 -6q-78 0 -127.5 51t-49.5 148v321h144v-300q0 -45 22.5 -68.5t59.5 -23.5q40 0 68 30t28 86v276h144v-514h-140v68q-49 -74 -149 -74z" />
    <glyph glyph-name="Uogonek" unicode="&#x172;" horiz-adv-x="688" 
d="M476 700h148v-448q0 -113 -61 -184t-179 -81q-50 -31 -50 -78q0 -32 30.5 -55t91.5 -28l-18 -125q-107 1 -168 49t-61 113q0 74 80 125q-111 15 -168 85t-57 179v448h148v-437q0 -64 35 -100.5t97 -36.5t97 36.5t35 100.5v437z" />
    <glyph glyph-name="uogonek" unicode="&#x173;" horiz-adv-x="577" 
d="M403 -91q0 -32 30.5 -55t91.5 -28l-18 -125q-107 1 -168 49t-61 113q0 40 26.5 76.5t75.5 61.5v67q-49 -74 -149 -74q-78 0 -127.5 51t-49.5 148v321h144v-300q0 -45 22.5 -68.5t59.5 -23.5q40 0 68 30t28 86v276h144v-514h-38q-36 -12 -57.5 -37t-21.5 -54z" />
    <glyph glyph-name="Wcircumflex" unicode="&#x174;" horiz-adv-x="1029" 
d="M515 1013l203 -148l-63 -89l-140 95l-138 -95l-66 89zM859 700h158l-223 -700h-143l-136 435l-137 -435h-142l-224 700h158l137 -466l136 466h143l136 -466z" />
    <glyph glyph-name="wcircumflex" unicode="&#x175;" horiz-adv-x="884" 
d="M443 839l203 -148l-63 -89l-140 95l-138 -95l-66 89zM707 514h163l-187 -514h-135l-106 316l-106 -316h-135l-187 514h155l100 -318l100 318h146l100 -317z" />
    <glyph glyph-name="Ycircumflex" unicode="&#x176;" horiz-adv-x="682" 
d="M342 1013l203 -148l-63 -89l-140 95l-138 -95l-66 89zM678 700l-263 -402v-298h-148v298l-263 402h179l158 -268l158 268h179z" />
    <glyph glyph-name="ycircumflex" unicode="&#x177;" horiz-adv-x="615" 
d="M313 839l203 -148l-63 -89l-140 95l-138 -95l-66 89zM407 514h145v-483q0 -122 -75 -194t-196 -72q-93 0 -162.5 47t-92.5 121l128 57q29 -95 131 -95q57 0 89.5 32t32.5 90v73q-41 -81 -154 -81q-85 0 -138.5 52t-53.5 150v303h145v-279q0 -46 25 -71.5t68 -25.5
q48 0 78 30.5t30 85.5v260z" />
    <glyph glyph-name="Ydieresis" unicode="&#x178;" horiz-adv-x="682" 
d="M221 941q37 0 62 -24t25 -59t-25 -58.5t-62 -23.5q-36 0 -61 24t-25 58q0 35 25 59t61 24zM460 941q36 0 61 -24t25 -59q0 -34 -25 -58t-61 -24q-37 0 -62 23.5t-25 58.5t25 59t62 24zM678 700l-263 -402v-298h-148v298l-263 402h179l158 -268l158 268h179z" />
    <glyph glyph-name="Zacute" unicode="&#x179;" horiz-adv-x="622" 
d="M223 889l292 94l35 -124l-292 -82zM589 141v-141h-555v133l348 426h-338v141h530v-133l-347 -426h362z" />
    <glyph glyph-name="zacute" unicode="&#x17a;" horiz-adv-x="528" 
d="M154 713l292 94l35 -124l-292 -82zM228 129h263v-129h-453v124l245 261h-244v129h437v-124z" />
    <glyph glyph-name="Zdotaccent" unicode="&#x17b;" horiz-adv-x="622" 
d="M329 954q41 0 67 -25.5t26 -62.5t-26 -63t-67 -26t-67 25.5t-26 63.5q0 37 26 62.5t67 25.5zM589 141v-141h-555v133l348 426h-338v141h530v-133l-347 -426h362z" />
    <glyph glyph-name="zdotaccent" unicode="&#x17c;" horiz-adv-x="528" 
d="M299 778q41 0 67 -25.5t26 -62.5t-26 -63t-67 -26t-67 25.5t-26 63.5q0 37 26 62.5t67 25.5zM228 129h263v-129h-453v124l245 261h-244v129h437v-124z" />
    <glyph glyph-name="Zcaron" unicode="&#x17d;" horiz-adv-x="622" 
d="M338 776l-204 148l66 89l138 -95l140 95l63 -89zM589 141v-141h-555v133l348 426h-338v141h530v-133l-347 -426h362z" />
    <glyph glyph-name="zcaron" unicode="&#x17e;" horiz-adv-x="528" 
d="M285 601l-204 148l66 89l138 -95l140 95l63 -89zM228 129h263v-129h-453v124l245 261h-244v129h437v-124z" />
    <glyph glyph-name="longs" unicode="&#x17f;" horiz-adv-x="410" 
d="M381 581q-29 23 -69 23q-30 0 -49.5 -16.5t-19.5 -45.5v-541h-145v384h-94v129h94v31q0 90 55 140t144 50q78 0 139 -43z" />
    <glyph glyph-name="florin" unicode="&#x192;" horiz-adv-x="429" 
d="M316 735q78 0 139 -43l-56 -111q-28 23 -68 23q-31 0 -50 -16.5t-19 -45.5v-94h124v-71h-124v-203q0 -90 -55 -140t-144 -50q-80 0 -139 43l55 111q29 -23 69 -23q31 0 50 16.5t19 45.5v200h-104v71h104v97q0 90 55 140t144 50z" />
    <glyph glyph-name="Aringacute" unicode="&#x1fa;" horiz-adv-x="718" 
d="M215 1131l234 75l28 -99l-234 -65zM358 748q-61 0 -100.5 40t-39.5 100t39.5 100t100.5 40q62 0 101.5 -40t39.5 -100t-39.5 -100t-101.5 -40zM358 822q29 0 46.5 19t17.5 47t-17.5 47t-46.5 19t-46 -19t-17 -47t17 -47t46 -19zM546 0l-54 144h-266l-54 -144h-158
l274 700h142l274 -700h-158zM277 282h164l-82 222z" />
    <glyph glyph-name="aringacute" unicode="&#x1fb;" horiz-adv-x="700" 
d="M142 936l248 80l30 -106l-248 -70zM303 560q-58 0 -95.5 38t-37.5 94q0 57 37.5 95.5t95.5 38.5q59 0 96.5 -38t37.5 -96q0 -56 -37.5 -94t-96.5 -38zM303 630q27 0 43.5 18t16.5 44t-16.5 45t-43.5 19t-43.5 -18.5t-16.5 -45.5q0 -26 16.5 -44t43.5 -18zM661 134
l31 -106q-49 -34 -107 -34q-47 0 -82.5 25t-46.5 71q-52 -96 -181 -96q-109 0 -175 75.5t-66 190.5t65 190.5t176 75.5q120 0 161 -80v68h140v-341q0 -24 13.5 -37t33.5 -13q19 0 38 11zM304 122q57 0 92.5 38.5t35.5 99.5q0 62 -35.5 100.5t-93.5 38.5q-57 0 -91 -39.5
t-34 -99.5q0 -62 35 -100t91 -38z" />
    <glyph glyph-name="AEacute" unicode="&#x1fc;" horiz-adv-x="1008" 
d="M500 889l292 94l35 -124l-292 -82zM644 141h310v-141h-458v166h-241l-76 -166h-165l336 700h596v-141h-302v-137h255v-141h-255v-140zM317 304h179v258h-59z" />
    <glyph glyph-name="aeacute" unicode="&#x1fd;" horiz-adv-x="886" 
d="M370 713l292 94l35 -124l-292 -82zM852 265v-54h-346q7 -39 41 -65.5t88 -26.5q77 0 128 58l72 -90q-87 -93 -215 -93q-144 0 -209 109q-66 -109 -191 -109q-85 0 -135.5 46.5t-50.5 119.5q0 74 51.5 113.5t147.5 39.5h128v7q0 37 -29.5 55t-71.5 18q-80 0 -125 -48
l-83 87q68 94 211 94q64 0 111 -21.5t69 -59.5q66 81 180 81q109 0 169 -68t60 -193zM502 314h206q0 41 -24.5 67.5t-70.5 26.5q-44 0 -73 -25t-38 -69zM247 122q46 0 77.5 28t38.5 74h-117q-31 0 -49 -14.5t-18 -37.5t18 -36.5t50 -13.5z" />
    <glyph glyph-name="Oslashacute" unicode="&#x1fe;" horiz-adv-x="809" 
d="M597 859l-292 -82l-35 112l292 94zM649 624q117 -106 117 -274q0 -157 -103 -261.5t-258 -104.5q-104 0 -188 50l-82 -112l-54 39l82 112q-119 106 -119 277q0 157 103 261.5t258 104.5q106 0 191 -52l79 107l53 -39zM193 350q0 -96 57 -158l261 355q-47 28 -106 28
q-92 0 -152 -63.5t-60 -161.5zM405 125q92 0 151.5 63.5t59.5 161.5q0 93 -54 155l-260 -355q47 -25 103 -25z" />
    <glyph glyph-name="oslashacute" unicode="&#x1ff;" 
d="M557 683l-292 -82l-35 112l292 94zM485 457q84 -76 84 -197q0 -114 -76.5 -190t-191.5 -76q-73 0 -131 32l-61 -83l-53 39l60 82q-82 77 -82 196q0 114 76 190t191 76q72 0 131 -31l63 86l52 -40zM178 260q0 -46 21 -83l154 210q-27 10 -52 10q-56 0 -89.5 -38t-33.5 -99
zM301 123q56 0 89.5 38t33.5 99q0 48 -22 83l-153 -209q24 -11 52 -11z" />
    <glyph glyph-name="uni0218" unicode="&#x218;" horiz-adv-x="582" 
d="M548 209q0 -105 -73.5 -165t-178.5 -60q-74 0 -143.5 31.5t-118.5 92.5l101 106q29 -41 76.5 -63.5t94.5 -22.5q41 0 67 18t26 48q0 23 -20 40t-38.5 23.5t-64.5 19.5q-11 3 -17 5q-45 13 -74.5 25.5t-64 36t-52 60.5t-17.5 87q0 103 74 164t177 61q65 0 125.5 -27.5
t103.5 -80.5l-95 -101q-23 31 -62.5 49t-79.5 18q-41 0 -67.5 -17.5t-26.5 -50.5q0 -26 20.5 -44.5t39 -25.5t65.5 -21l3 -1.5t3 -1t3 -0.5q39 -11 61.5 -18t55.5 -23.5t51 -36t32 -52t14 -73.5zM220 -226l74 181l114 -51l-96 -172z" />
    <glyph glyph-name="uni0219" unicode="&#x219;" horiz-adv-x="512" 
d="M483 169q0 -81 -62.5 -128t-152.5 -47q-69 0 -133.5 28t-105.5 76l84 99q29 -37 76 -57.5t90 -20.5q60 0 60 34q0 18 -17.5 27.5t-62.5 17.5q-33 6 -52.5 10.5t-50.5 17t-49 28t-31.5 43t-13.5 62.5q0 80 57.5 123.5t141.5 43.5q120 0 195 -73l-73 -94q-49 46 -122 46
q-56 0 -56 -39q0 -19 18.5 -27.5t71.5 -18.5q28 -5 43 -8.5t41 -11.5t41 -18t31.5 -25.5t24 -37.5t7.5 -50zM158 -226l74 181l114 -51l-96 -172z" />
    <glyph glyph-name="uni021A" unicode="&#x21a;" horiz-adv-x="606" 
d="M377 559v-559h-148v559h-215v141h579v-141h-216zM179 -226l74 181l114 -51l-96 -172z" />
    <glyph glyph-name="uni021B" unicode="&#x21b;" horiz-adv-x="451" 
d="M438 40q-71 -46 -147 -46q-79 0 -132.5 49t-53.5 135v207h-101v129h101v126h145v-126h147v-129h-147v-182q0 -39 21.5 -59.5t56.5 -20.5q38 0 74 24zM170 -226l74 181l114 -51l-96 -172z" />
    <glyph glyph-name="circumflex" unicode="&#x2c6;" horiz-adv-x="407" 
d="M204 839l203 -148l-63 -89l-140 95l-138 -95l-66 89z" />
    <glyph glyph-name="caron" unicode="&#x2c7;" horiz-adv-x="407" 
d="M204 601l-204 148l66 89l138 -95l140 95l63 -89z" />
    <glyph glyph-name="breve" unicode="&#x2d8;" horiz-adv-x="374" 
d="M266 792h108q-1 -81 -47.5 -136t-139.5 -55q-94 0 -140.5 55t-46.5 136h108q0 -86 79 -86q77 0 79 86z" />
    <glyph glyph-name="dotaccent" unicode="&#x2d9;" horiz-adv-x="186" 
d="M93 778q41 0 67 -25.5t26 -62.5t-26 -63t-67 -26t-67 25.5t-26 63.5q0 37 26 62.5t67 25.5z" />
    <glyph glyph-name="ring" unicode="&#x2da;" horiz-adv-x="320" 
d="M159 601q-69 0 -114 46t-45 113q0 69 45 114.5t114 45.5q71 0 116 -45.5t45 -114.5q0 -68 -45.5 -113.5t-115.5 -45.5zM159 685q33 0 53 22t20 53q0 32 -20 54t-53 22t-52 -22t-19 -54q0 -31 19 -53t52 -22z" />
    <glyph glyph-name="ogonek" unicode="&#x2db;" horiz-adv-x="247" 
d="M229 -299q-107 1 -168 49t-61 113q0 46 34 86.5t98 65.5l72 -15q-36 -12 -57.5 -37t-21.5 -54q0 -32 30.5 -55t91.5 -28z" />
    <glyph glyph-name="tilde" unicode="&#x2dc;" horiz-adv-x="409" 
d="M335 770l74 -45q-13 -26 -23 -43t-26 -38.5t-35 -32t-41 -10.5q-31 0 -88 35q-36 22 -53 22q-33 0 -70 -59l-73 52q33 57 67 88.5t77 31.5q31 0 88 -32q32 -19 50 -19q27 0 53 50z" />
    <glyph glyph-name="hungarumlaut" unicode="&#x2dd;" horiz-adv-x="407" 
d="M218 802l-97 -201h-121l86 201h132zM407 802l-97 -201h-121l86 201h132z" />
    <glyph glyph-name="uni0326" unicode="&#x326;" horiz-adv-x="0" 
d="M-188 -226l74 181l114 -51l-96 -172z" />
    <glyph glyph-name="uni0394" unicode="&#x394;" horiz-adv-x="766" 
d="M457 700l295 -700h-738l295 700h148zM532 138l-149 380l-150 -380h299z" />
    <glyph glyph-name="uni03A9" unicode="&#x3a9;" horiz-adv-x="769" 
d="M542 199v-61h143v-138h-266v264q73 14 115 54.5t42 106.5q0 69 -56 109.5t-135 40.5t-135.5 -40.5t-56.5 -109.5q0 -66 42 -106.5t115 -54.5v-264h-266v138h143v61q-85 31 -134 91.5t-49 151.5q0 128 100 201t241 73q140 0 240.5 -73t100.5 -201q0 -91 -49 -151.5
t-135 -91.5z" />
    <glyph glyph-name="uni03BC" unicode="&#x3bc;" horiz-adv-x="580" 
d="M372 514h144v-514h-140v68q-49 -74 -145 -74q-20 0 -37 14v-229h-144v735h144v-300q0 -45 22.5 -68.5t58.5 -23.5q41 0 69 30t28 86v276z" />
    <glyph glyph-name="pi" unicode="&#x3c0;" horiz-adv-x="817" 
d="M703 138l50 -110q-55 -34 -120 -34q-79 0 -133.5 50.5t-54.5 136.5v197h-123v-378h-147v378h-111v136h660v-136h-134v-185q0 -33 18 -51t47 -18q27 0 48 14z" />
    <glyph glyph-name="uni1E02" unicode="&#x1e02;" horiz-adv-x="621" 
d="M310 954q41 0 67 -25.5t26 -62.5t-26 -63t-67 -26t-67 25.5t-26 63.5q0 37 26 62.5t67 25.5zM435 378q70 -17 106.5 -62t36.5 -102q0 -83 -66 -148.5t-172 -65.5h-266v700h279q91 0 144.5 -52t53.5 -121q0 -51 -29.5 -92t-86.5 -57zM221 564v-146h98q38 0 60.5 23.5
t22.5 53.5t-20.5 49.5t-59.5 19.5h-101zM336 136q44 0 69 25.5t25 59.5t-24.5 59.5t-67.5 25.5h-117v-170h115z" />
    <glyph glyph-name="uni1E03" unicode="&#x1e03;" horiz-adv-x="639" 
d="M383 778q41 0 67 -25.5t26 -62.5t-26 -63t-67 -26t-67 25.5t-26 63.5q0 37 26 62.5t67 25.5zM364 526q111 0 176.5 -76t65.5 -190t-65.5 -190t-175.5 -76q-55 0 -99.5 20.5t-65.5 55.5v-70h-136v700h144v-247q19 34 60 53.5t96 19.5zM336 122q56 0 90.5 38t34.5 100
q0 61 -34 100t-91 39t-92.5 -38.5t-35.5 -100.5t35 -100t93 -38z" />
    <glyph glyph-name="uni1E0A" unicode="&#x1e0a;" horiz-adv-x="718" 
d="M314 954q41 0 67 -25.5t26 -62.5t-26 -63t-67 -26t-67 25.5t-26 63.5q0 37 26 62.5t67 25.5zM74 0v700h247q167 0 260 -101.5t93 -241.5q0 -68 -23.5 -131t-68 -114t-116 -81.5t-160.5 -30.5h-232zM322 559h-100v-418h94q99 0 154.5 62t55.5 149q0 85 -54.5 146
t-149.5 61z" />
    <glyph glyph-name="uni1E0B" unicode="&#x1e0b;" horiz-adv-x="640" 
d="M261 778q41 0 67 -25.5t26 -62.5t-26 -63t-67 -26t-67 25.5t-26 63.5q0 37 26 62.5t67 25.5zM275 526q55 0 96.5 -19.5t59.5 -52.5v246h145v-700h-137v70q-21 -35 -65 -55.5t-99 -20.5q-111 0 -176 75.5t-65 190.5q0 114 65 190t176 76zM303 122q58 0 93.5 38t35.5 100
t-35.5 100.5t-93.5 38.5q-57 0 -91 -39.5t-34 -99.5q0 -62 34.5 -100t90.5 -38z" />
    <glyph glyph-name="uni1E1E" unicode="&#x1e1e;" horiz-adv-x="568" 
d="M303 954q41 0 67 -25.5t26 -62.5t-26 -63t-67 -26t-67 25.5t-26 63.5q0 37 26 62.5t67 25.5zM478 271h-256v-271h-148v700h450v-141h-302v-147h256v-141z" />
    <glyph glyph-name="uni1E1F" unicode="&#x1e1f;" horiz-adv-x="410" 
d="M301 954q41 0 67 -25.5t26 -62.5t-26 -63t-67 -26t-67 25.5t-26 63.5q0 37 26 62.5t67 25.5zM243 542v-28h124v-129h-124v-385h-145v385h-94v129h94v31q0 90 55 140t144 50q78 0 139 -43l-55 -111q-29 23 -69 23q-30 0 -49.5 -16.5t-19.5 -45.5z" />
    <glyph glyph-name="uni1E40" unicode="&#x1e40;" horiz-adv-x="862" 
d="M452 954q41 0 67 -25.5t26 -62.5t-26 -63t-67 -26t-67 25.5t-26 63.5q0 37 26 62.5t67 25.5zM605 700h183v-700h-148v434l-139 -295h-140l-139 295v-434h-148v700h183l174 -395z" />
    <glyph glyph-name="uni1E41" unicode="&#x1e41;" horiz-adv-x="882" 
d="M450 778q41 0 67 -25.5t26 -62.5t-26 -63t-67 -26t-67 25.5t-26 63.5q0 37 26 62.5t67 25.5zM649 526q77 0 123 -50t46 -149v-327h-144v307q0 91 -74 91q-39 0 -63 -29.5t-24 -86.5v-282h-144v307q0 91 -74 91q-39 0 -63 -29.5t-24 -86.5v-282h-144v514h140v-62
q49 74 140 74q112 0 150 -93q49 93 155 93z" />
    <glyph glyph-name="uni1E56" unicode="&#x1e56;" horiz-adv-x="587" 
d="M293 954q41 0 67 -25.5t26 -62.5t-26 -63t-67 -26t-67 25.5t-26 63.5q0 37 26 62.5t67 25.5zM335 700q105 0 161.5 -63.5t56.5 -153.5q0 -92 -62 -160.5t-170 -68.5h-99v-254h-148v700h261zM222 389h92q43 0 67 27.5t24 63.5q0 35 -22.5 59.5t-63.5 24.5h-97v-175z" />
    <glyph glyph-name="uni1E57" unicode="&#x1e57;" horiz-adv-x="639" 
d="M361 778q41 0 67 -25.5t26 -62.5t-26 -63t-67 -26t-67 25.5t-26 63.5q0 37 26 62.5t67 25.5zM364 526q111 0 176.5 -75.5t65.5 -187.5t-65.5 -187.5t-175.5 -75.5q-105 0 -157 65v-286h-144v735h140v-62q19 34 62 54t98 20zM336 128q56 0 90.5 37.5t34.5 97.5
q0 59 -34 97.5t-91 38.5t-92.5 -38t-35.5 -98t35.5 -97.5t92.5 -37.5z" />
    <glyph glyph-name="uni1E60" unicode="&#x1e60;" horiz-adv-x="582" 
d="M313 954q41 0 67 -25.5t26 -62.5t-26 -63t-67 -26t-67 25.5t-26 63.5q0 37 26 62.5t67 25.5zM548 209q0 -105 -73.5 -165t-178.5 -60q-74 0 -143.5 31.5t-118.5 92.5l101 106q29 -41 76.5 -63.5t94.5 -22.5q41 0 67 18t26 48q0 23 -20 40t-38.5 23.5t-64.5 19.5
q-11 3 -17 5q-45 13 -74.5 25.5t-64 36t-52 60.5t-17.5 87q0 103 74 164t177 61q65 0 125.5 -27.5t103.5 -80.5l-95 -101q-23 31 -62.5 49t-79.5 18q-41 0 -67.5 -17.5t-26.5 -50.5q0 -26 20.5 -44.5t39 -25.5t65.5 -21l3 -1.5t3 -1t3 -0.5q39 -11 61.5 -18t55.5 -23.5
t51 -36t32 -52t14 -73.5z" />
    <glyph glyph-name="uni1E61" unicode="&#x1e61;" horiz-adv-x="512" 
d="M272 778q41 0 67 -25.5t26 -62.5t-26 -63t-67 -26t-67 25.5t-26 63.5q0 37 26 62.5t67 25.5zM483 169q0 -81 -62.5 -128t-152.5 -47q-69 0 -133.5 28t-105.5 76l84 99q29 -37 76 -57.5t90 -20.5q60 0 60 34q0 18 -17.5 27.5t-62.5 17.5q-33 6 -52.5 10.5t-50.5 17t-49 28
t-31.5 43t-13.5 62.5q0 80 57.5 123.5t141.5 43.5q120 0 195 -73l-73 -94q-49 46 -122 46q-56 0 -56 -39q0 -19 18.5 -27.5t71.5 -18.5q28 -5 43 -8.5t41 -11.5t41 -18t31.5 -25.5t24 -37.5t7.5 -50z" />
    <glyph glyph-name="uni1E6A" unicode="&#x1e6a;" horiz-adv-x="606" 
d="M303 954q41 0 67 -25.5t26 -62.5t-26 -63t-67 -26t-67 25.5t-26 63.5q0 37 26 62.5t67 25.5zM377 559v-559h-148v559h-215v141h579v-141h-216z" />
    <glyph glyph-name="uni1E6B" unicode="&#x1e6b;" horiz-adv-x="451" 
d="M191 871q41 0 67 -25.5t26 -62.5t-26 -63t-67 -26t-67 25.5t-26 63.5q0 37 26 62.5t67 25.5zM438 40q-71 -46 -147 -46q-79 0 -132.5 49t-53.5 135v207h-101v129h101v126h145v-126h147v-129h-147v-182q0 -39 21.5 -59.5t56.5 -20.5q38 0 74 24z" />
    <glyph glyph-name="Wgrave" unicode="&#x1e80;" horiz-adv-x="1029" 
d="M348 983l292 -94l-35 -112l-292 82zM859 700h158l-223 -700h-143l-136 435l-137 -435h-142l-224 700h158l137 -466l136 466h143l136 -466z" />
    <glyph glyph-name="wgrave" unicode="&#x1e81;" horiz-adv-x="884" 
d="M257 807l292 -94l-35 -112l-292 82zM707 514h163l-187 -514h-135l-106 316l-106 -316h-135l-187 514h155l100 -318l100 318h146l100 -317z" />
    <glyph glyph-name="Wacute" unicode="&#x1e82;" horiz-adv-x="1029" 
d="M416 889l292 94l35 -124l-292 -82zM859 700h158l-223 -700h-143l-136 435l-137 -435h-142l-224 700h158l137 -466l136 466h143l136 -466z" />
    <glyph glyph-name="wacute" unicode="&#x1e83;" horiz-adv-x="884" 
d="M332 713l292 94l35 -124l-292 -82zM707 514h163l-187 -514h-135l-106 316l-106 -316h-135l-187 514h155l100 -318l100 318h146l100 -317z" />
    <glyph glyph-name="Wdieresis" unicode="&#x1e84;" horiz-adv-x="1029" 
d="M396 941q37 0 62 -24t25 -59t-25 -58.5t-62 -23.5q-36 0 -61 24t-25 58q0 35 25 59t61 24zM635 941q36 0 61 -24t25 -59q0 -34 -25 -58t-61 -24q-37 0 -62 23.5t-25 58.5t25 59t62 24zM859 700h158l-223 -700h-143l-136 435l-137 -435h-142l-224 700h158l137 -466
l136 466h143l136 -466z" />
    <glyph glyph-name="wdieresis" unicode="&#x1e85;" horiz-adv-x="884" 
d="M333 766q37 0 62 -24t25 -59t-25 -58.5t-62 -23.5q-36 0 -61 24t-25 58q0 35 25 59t61 24zM552 766q36 0 61 -24t25 -59q0 -34 -25 -58t-61 -24q-37 0 -62 23.5t-25 58.5t25 59t62 24zM707 514h163l-187 -514h-135l-106 316l-106 -316h-135l-187 514h155l100 -318
l100 318h146l100 -317z" />
    <glyph glyph-name="Ygrave" unicode="&#x1ef2;" horiz-adv-x="682" 
d="M162 983l292 -94l-35 -112l-292 82zM678 700l-263 -402v-298h-148v298l-263 402h179l158 -268l158 268h179z" />
    <glyph glyph-name="ygrave" unicode="&#x1ef3;" horiz-adv-x="615" 
d="M140 807l292 -94l-35 -112l-292 82zM407 514h145v-483q0 -122 -75 -194t-196 -72q-93 0 -162.5 47t-92.5 121l128 57q29 -95 131 -95q57 0 89.5 32t32.5 90v73q-41 -81 -154 -81q-85 0 -138.5 52t-53.5 150v303h145v-279q0 -46 25 -71.5t68 -25.5q48 0 78 30.5t30 85.5
v260z" />
    <glyph glyph-name="endash" unicode="&#x2013;" horiz-adv-x="500" 
d="M48 362h404v-129h-404v129z" />
    <glyph glyph-name="emdash" unicode="&#x2014;" horiz-adv-x="691" 
d="M48 362h595v-129h-595v129z" />
    <glyph glyph-name="quoteleft" unicode="&#x2018;" horiz-adv-x="283" 
d="M259 665l-100 -312l-145 54l125 304z" />
    <glyph glyph-name="quoteright" unicode="&#x2019;" horiz-adv-x="283" 
d="M14 471l100 312l145 -54l-125 -304z" />
    <glyph glyph-name="quotesinglbase" unicode="&#x201a;" horiz-adv-x="283" 
d="M14 -134l100 312l145 -54l-125 -304z" />
    <glyph glyph-name="quotedblleft" unicode="&#x201c;" horiz-adv-x="514" 
d="M259 665l-100 -312l-145 54l125 304zM490 665l-100 -312l-145 54l125 304z" />
    <glyph glyph-name="quotedblright" unicode="&#x201d;" horiz-adv-x="514" 
d="M14 471l100 312l145 -54l-125 -304zM245 471l100 312l145 -54l-125 -304z" />
    <glyph glyph-name="quotedblbase" unicode="&#x201e;" horiz-adv-x="514" 
d="M14 -134l100 312l145 -54l-125 -304zM245 -134l100 312l145 -54l-125 -304z" />
    <glyph glyph-name="dagger" unicode="&#x2020;" horiz-adv-x="542" 
d="M343 713v-185h151v-137h-151v-391h-145v391h-150v137h150v185h145z" />
    <glyph glyph-name="daggerdbl" unicode="&#x2021;" horiz-adv-x="542" 
d="M494 428h-151v-143h151v-136h-151v-149h-145v149h-150v136h150v143h-150v136h150v149h145v-149h151v-136z" />
    <glyph glyph-name="bullet" unicode="&#x2022;" horiz-adv-x="222" 
d="M203 271q0 -36 -28 -63.5t-63 -27.5q-37 0 -64.5 27.5t-27.5 63.5t27.5 63t64.5 27q36 0 63.5 -27t27.5 -63z" />
    <glyph glyph-name="ellipsis" unicode="&#x2026;" horiz-adv-x="852" 
d="M142 171q41 0 67 -25.5t26 -62.5t-26 -63t-67 -26t-67 25.5t-26 63.5q0 37 26 62.5t67 25.5zM426 171q41 0 67 -25.5t26 -62.5t-26 -63t-67 -26t-67 25.5t-26 63.5q0 37 26 62.5t67 25.5zM710 171q41 0 67 -25.5t26 -62.5t-26 -63t-67 -26t-67 25.5t-26 63.5
q0 37 26 62.5t67 25.5z" />
    <glyph glyph-name="perthousand" unicode="&#x2030;" horiz-adv-x="1430" 
d="M304 -16l-82 60l467 672l82 -59zM222 715q83 0 138 -55.5t55 -136.5t-55 -136t-138 -55q-82 0 -137 55t-55 136t55 136.5t137 55.5zM222 436q38 0 62 24.5t24 62.5t-24 63t-62 25q-37 0 -61.5 -25t-24.5 -63t24 -62.5t62 -24.5zM776 366q83 0 138 -55.5t55 -136.5
t-55 -136t-138 -55q-82 0 -137 55t-55 136t55 136.5t137 55.5zM1207 366q83 0 138 -55.5t55 -136.5t-55 -136t-138 -55q-82 0 -137 55t-55 136t55 136.5t137 55.5zM776 87q38 0 62 24.5t24 62.5t-24 63t-62 25q-37 0 -61.5 -25t-24.5 -63t24 -62.5t62 -24.5zM1207 87
q38 0 62 24.5t24 62.5t-24 63t-62 25q-37 0 -61.5 -25t-24.5 -63t24 -62.5t62 -24.5z" />
    <glyph glyph-name="guilsinglleft" unicode="&#x2039;" horiz-adv-x="331" 
d="M162 278l135 -156l-88 -74l-195 230l195 230l88 -74z" />
    <glyph glyph-name="guilsinglright" unicode="&#x203a;" horiz-adv-x="331" 
d="M169 278l-135 156l88 74l195 -230l-195 -230l-88 74z" />
    <glyph glyph-name="fraction" unicode="&#x2044;" horiz-adv-x="683" 
d="M146 -16l-82 60l467 672l82 -59z" />
    <glyph glyph-name="Euro" unicode="&#x20ac;" horiz-adv-x="836" 
d="M689 265l123 -51q-42 -105 -126 -162.5t-199 -57.5q-127 0 -210.5 68t-111.5 176h-121v63h110q-2 24 -2 37q0 24 3 46h-111v63h123q31 112 119.5 182.5t218.5 70.5q193 0 286 -157l-115 -79q-57 100 -178 100q-64 0 -111.5 -31.5t-70.5 -85.5h253v-63h-271q-2 -22 -2 -35
q0 -23 5 -48h268v-63h-246q26 -49 72 -77.5t107 -28.5q65 0 114.5 35t72.5 98z" />
    <glyph glyph-name="uni2113" unicode="&#x2113;" horiz-adv-x="568" 
d="M418 716q58 0 99.5 -30.5t41.5 -88.5q0 -56 -41 -99t-120 -88l-72 -40l-39 -165q-4 -20 -4 -31q0 -23 14 -37t37 -14q22 0 50 14l23 -109q-64 -34 -124 -34q-67 0 -109.5 40t-42.5 104q0 24 5 47l28 115l-67 -35l-33 77l124 65l32 147q18 80 74 121t124 41zM390 503
q33 17 53 40.5t20 48.5q0 19 -10.5 30t-26.5 11q-35 0 -48 -46l-27 -104z" />
    <glyph glyph-name="uni2116" unicode="&#x2116;" horiz-adv-x="1189" 
d="M971 715q83 0 138 -55.5t55 -136.5t-55 -136t-138 -55q-82 0 -137 55t-55 136t55 136.5t137 55.5zM538 700h149v-700h-158l-307 444v-444h-148v700h158l306 -461v461zM971 436q38 0 62 24.5t24 62.5t-24 63t-62 25q-37 0 -61.5 -25t-24.5 -63t24 -62.5t62 -24.5z" />
    <glyph glyph-name="trademark" unicode="&#x2122;" horiz-adv-x="833" 
d="M34 607v93h320v-93h-112v-260h-98v260h-110zM682 700h118v-353h-96v198l-72 -135h-70l-71 134v-197h-95v353h115l86 -177z" />
    <glyph glyph-name="estimated" unicode="&#x212e;" horiz-adv-x="489" 
d="M260 31q123 0 146 118h45q-11 -79 -65 -119.5t-130 -40.5q-96 0 -159 63.5t-63 189.5q0 127 62.5 193.5t155.5 66.5q85 0 144.5 -55t59.5 -155q0 -32 -3 -50h-339v-127q44 -84 146 -84zM114 287h253v118q-40 55 -115 55q-43 0 -80 -20t-58 -55v-98z" />
    <glyph glyph-name="uni2153" unicode="&#x2153;" horiz-adv-x="928" 
d="M255 -16l-82 60l467 672l82 -59zM131 275v322h-57v96h159v-418h-102zM781 220q73 -26 73 -99q0 -55 -43 -91.5t-108 -36.5q-54 0 -95.5 27.5t-60.5 75.5l87 39q23 -50 73 -50q21 0 33 10t12 27q0 45 -79 45h-36v83q101 0 101 46q0 33 -42 33q-21 0 -39.5 -12.5
t-27.5 -32.5l-77 47q18 42 59 67.5t92 25.5q59 0 97.5 -31t38.5 -78q0 -63 -58 -95z" />
    <glyph glyph-name="uni2154" unicode="&#x2154;" horiz-adv-x="1058" 
d="M386 -16l-82 60l467 672l82 -59zM229 372h164v-96h-304v88l113 101q3 2 13 11t13 12t11.5 11t12 12t9 11.5t8 13t4.5 12t2 13.5q0 19 -12.5 31t-33.5 12q-28 0 -43.5 -21.5t-15.5 -54.5l-96 5q0 73 45 120t115 47q63 0 103.5 -38t40.5 -96q0 -26 -8 -49t-24.5 -42
t-26 -28t-27.5 -23zM911 220q73 -26 73 -99q0 -55 -43 -91.5t-108 -36.5q-54 0 -95.5 27.5t-60.5 75.5l87 39q23 -50 73 -50q21 0 33 10t12 27q0 45 -79 45h-36v83q101 0 101 46q0 33 -42 33q-21 0 -39.5 -12.5t-27.5 -32.5l-77 47q18 42 59 67.5t92 25.5q59 0 97.5 -31
t38.5 -78q0 -63 -58 -95z" />
    <glyph glyph-name="uni2155" unicode="&#x2155;" horiz-adv-x="989" 
d="M255 -16l-82 60l467 672l82 -59zM131 275v322h-57v96h159v-418h-102zM779 278q64 0 100 -36t36 -98q0 -66 -43 -108.5t-113 -42.5q-55 0 -98 27t-59 73l92 43q6 -22 24 -35.5t42 -13.5q23 0 38 16t15 38q0 23 -15 38t-39 15q-41 0 -57 -31h-79v255h259v-95h-171v-62
q28 17 68 17z" />
    <glyph glyph-name="uni2156" unicode="&#x2156;" horiz-adv-x="1122" 
d="M386 -16l-82 60l467 672l82 -59zM229 372h164v-96h-304v88l113 101q3 2 13 11t13 12t11.5 11t12 12t9 11.5t8 13t4.5 12t2 13.5q0 19 -12.5 31t-33.5 12q-28 0 -43.5 -21.5t-15.5 -54.5l-96 5q0 73 45 120t115 47q63 0 103.5 -38t40.5 -96q0 -26 -8 -49t-24.5 -42
t-26 -28t-27.5 -23zM912 278q64 0 100 -36t36 -98q0 -66 -43 -108.5t-113 -42.5q-55 0 -98 27t-59 73l92 43q6 -22 24 -35.5t42 -13.5q23 0 38 16t15 38q0 23 -15 38t-39 15q-41 0 -57 -31h-79v255h259v-95h-171v-62q28 17 68 17z" />
    <glyph glyph-name="uni2157" unicode="&#x2157;" horiz-adv-x="1117" 
d="M382 -16l-82 60l467 672l82 -59zM308 496q73 -26 73 -99q0 -55 -43 -91.5t-108 -36.5q-54 0 -95.5 27.5t-60.5 75.5l87 39q23 -50 73 -50q21 0 33 10t12 27q0 45 -79 45h-36v83q101 0 101 46q0 33 -42 33q-21 0 -39.5 -12.5t-27.5 -32.5l-77 47q18 42 59 67.5t92 25.5
q59 0 97.5 -31t38.5 -78q0 -63 -58 -95zM907 278q64 0 100 -36t36 -98q0 -66 -43 -108.5t-113 -42.5q-55 0 -98 27t-59 73l92 43q6 -22 24 -35.5t42 -13.5q23 0 38 16t15 38q0 23 -15 38t-39 15q-41 0 -57 -31h-79v255h259v-95h-171v-62q28 17 68 17z" />
    <glyph glyph-name="uni2158" unicode="&#x2158;" horiz-adv-x="1142" 
d="M409 -16l-82 60l467 672l82 -59zM354 458h66v-95h-66v-87h-102v87h-178v86l181 245h99v-236zM172 458h80v109zM932 278q64 0 100 -36t36 -98q0 -66 -43 -108.5t-113 -42.5q-55 0 -98 27t-59 73l92 43q6 -22 24 -35.5t42 -13.5q23 0 38 16t15 38q0 23 -15 38t-39 15
q-41 0 -57 -31h-79v255h259v-95h-171v-62q28 17 68 17z" />
    <glyph glyph-name="uni2159" unicode="&#x2159;" horiz-adv-x="951" 
d="M255 -16l-82 60l467 672l82 -59zM131 275v322h-57v96h159v-418h-102zM739 277q62 0 100 -36.5t38 -96.5q0 -67 -44 -109t-113 -42q-77 0 -124 54.5t-47 142.5q0 109 71 171.5t193 62.5l3 -94q-130 0 -152 -76q31 23 75 23zM720 88q25 0 39.5 15t14.5 40t-14.5 40
t-39.5 15t-40.5 -15t-15.5 -40t15.5 -40t40.5 -15z" />
    <glyph glyph-name="uni215A" unicode="&#x215a;" horiz-adv-x="1060" 
d="M364 -16l-82 60l467 672l82 -59zM251 554q64 0 100 -36t36 -98q0 -66 -43 -108.5t-113 -42.5q-55 0 -98 27t-59 73l92 43q6 -22 24 -35.5t42 -13.5q23 0 38 16t15 38q0 23 -15 38t-39 15q-41 0 -57 -31h-79v255h259v-95h-171v-62q28 17 68 17zM848 277q62 0 100 -36.5
t38 -96.5q0 -67 -44 -109t-113 -42q-77 0 -124 54.5t-47 142.5q0 109 71 171.5t193 62.5l3 -94q-130 0 -152 -76q31 23 75 23zM829 88q25 0 39.5 15t14.5 40t-14.5 40t-39.5 15t-40.5 -15t-15.5 -40t15.5 -40t40.5 -15z" />
    <glyph glyph-name="oneeighth" unicode="&#x215b;" horiz-adv-x="963" 
d="M255 -16l-82 60l467 672l82 -59zM131 275v322h-57v96h159v-418h-102zM808 220q38 -12 59.5 -38.5t21.5 -62.5q0 -54 -45 -89t-114 -35q-70 0 -115 34.5t-45 89.5q0 35 21.5 64t56.5 39q-28 13 -44 37.5t-16 53.5q0 51 39 81t105 30q65 0 103 -30t38 -81q0 -28 -17.5 -54
t-47.5 -39zM686 297q0 -31 55 -44q34 15 34 43q0 33 -45 33q-44 0 -44 -32zM733 88q26 0 40 12t14 30q0 32 -74 53q-41 -14 -41 -49q0 -21 15.5 -33.5t45.5 -12.5z" />
    <glyph glyph-name="threeeighths" unicode="&#x215c;" horiz-adv-x="1090" 
d="M382 -16l-82 60l467 672l82 -59zM308 496q73 -26 73 -99q0 -55 -43 -91.5t-108 -36.5q-54 0 -95.5 27.5t-60.5 75.5l87 39q23 -50 73 -50q21 0 33 10t12 27q0 45 -79 45h-36v83q101 0 101 46q0 33 -42 33q-21 0 -39.5 -12.5t-27.5 -32.5l-77 47q18 42 59 67.5t92 25.5
q59 0 97.5 -31t38.5 -78q0 -63 -58 -95zM935 220q38 -12 59.5 -38.5t21.5 -62.5q0 -54 -45 -89t-114 -35q-70 0 -115 34.5t-45 89.5q0 35 21.5 64t56.5 39q-28 13 -44 37.5t-16 53.5q0 51 39 81t105 30q65 0 103 -30t38 -81q0 -28 -17.5 -54t-47.5 -39zM813 297
q0 -31 55 -44q34 15 34 43q0 33 -45 33q-44 0 -44 -32zM860 88q26 0 40 12t14 30q0 32 -74 53q-41 -14 -41 -49q0 -21 15.5 -33.5t45.5 -12.5z" />
    <glyph glyph-name="fiveeighths" unicode="&#x215d;" horiz-adv-x="1071" 
d="M364 -16l-82 60l467 672l82 -59zM251 554q64 0 100 -36t36 -98q0 -66 -43 -108.5t-113 -42.5q-55 0 -98 27t-59 73l92 43q6 -22 24 -35.5t42 -13.5q23 0 38 16t15 38q0 23 -15 38t-39 15q-41 0 -57 -31h-79v255h259v-95h-171v-62q28 17 68 17zM916 220q38 -12 59.5 -38.5
t21.5 -62.5q0 -54 -45 -89t-114 -35q-70 0 -115 34.5t-45 89.5q0 35 21.5 64t56.5 39q-28 13 -44 37.5t-16 53.5q0 51 39 81t105 30q65 0 103 -30t38 -81q0 -28 -17.5 -54t-47.5 -39zM794 297q0 -31 55 -44q34 15 34 43q0 33 -45 33q-44 0 -44 -32zM841 88q26 0 40 12t14 30
q0 32 -74 53q-41 -14 -41 -49q0 -21 15.5 -33.5t45.5 -12.5z" />
    <glyph glyph-name="seveneighths" unicode="&#x215e;" horiz-adv-x="1025" 
d="M315 -16l-82 60l467 672l82 -59zM117 276l161 316h-204v102h318v-91l-160 -327h-115zM870 220q38 -12 59.5 -38.5t21.5 -62.5q0 -54 -45 -89t-114 -35q-70 0 -115 34.5t-45 89.5q0 35 21.5 64t56.5 39q-28 13 -44 37.5t-16 53.5q0 51 39 81t105 30q65 0 103 -30t38 -81
q0 -28 -17.5 -54t-47.5 -39zM748 297q0 -31 55 -44q34 15 34 43q0 33 -45 33q-44 0 -44 -32zM795 88q26 0 40 12t14 30q0 32 -74 53q-41 -14 -41 -49q0 -21 15.5 -33.5t45.5 -12.5z" />
    <glyph glyph-name="arrowleft" unicode="&#x2190;" horiz-adv-x="634" 
d="M313 37l-283 282l283 282l69 -67l-171 -165h394v-100h-394l171 -164z" />
    <glyph glyph-name="arrowup" unicode="&#x2191;" horiz-adv-x="624" 
d="M594 292l-68 -69l-164 171v-394h-100v394l-165 -171l-67 69l282 283z" />
    <glyph glyph-name="arrowright" unicode="&#x2192;" horiz-adv-x="634" 
d="M322 38l-69 68l171 164h-394v100h394l-171 165l69 67l283 -282z" />
    <glyph glyph-name="arrowdown" unicode="&#x2193;" horiz-adv-x="624" 
d="M594 283l-282 -283l-282 283l67 69l165 -171v394h100v-394l164 171z" />
    <glyph glyph-name="partialdiff" unicode="&#x2202;" horiz-adv-x="607" 
d="M34 238q0 102 62.5 163.5t149.5 61.5q108 0 168 -85q-34 186 -276 188l5 134q105 0 186.5 -30t132 -83t76.5 -121.5t26 -149.5q0 -143 -75.5 -232.5t-201.5 -89.5q-110 0 -181.5 67.5t-71.5 176.5zM288 129q48 0 77.5 29t29.5 75q0 48 -31.5 75t-75.5 27t-75 -26.5
t-31 -76.5q0 -46 29 -74.5t77 -28.5z" />
    <glyph glyph-name="product" unicode="&#x220f;" horiz-adv-x="788" 
d="M637 572v-572h-147v572h-192v-572h-146v572h-78v128h640v-128h-77z" />
    <glyph glyph-name="summation" unicode="&#x2211;" horiz-adv-x="672" 
d="M618 145v-145h-584v133l251 216l-233 221v130h536v-144h-312l213 -207l-230 -204h359z" />
    <glyph glyph-name="minus" unicode="&#x2212;" 
d="M511 374v-125h-423v125h423z" />
    <glyph glyph-name="radical" unicode="&#x221a;" horiz-adv-x="630" 
d="M459 700h157l-270 -700h-127l-205 514h157l112 -319z" />
    <glyph glyph-name="infinity" unicode="&#x221e;" horiz-adv-x="884" 
d="M629 526q89 0 155.5 -66.5t66.5 -172.5t-67 -172t-159 -66q-57 0 -107 29t-81 85q-28 -56 -76 -85t-105 -29q-89 0 -155.5 65.5t-66.5 171.5t67 173t157 67q58 0 108 -29t81 -86q29 57 77 86t105 29zM261 175q43 0 79.5 32.5t45.5 87.5q-13 48 -47 76.5t-75 28.5
q-43 0 -71 -30t-28 -85q0 -52 27 -81t69 -29zM620 175q43 0 72 28.5t29 81.5q0 52 -28.5 83.5t-69.5 31.5q-43 0 -79 -34t-47 -90q15 -47 48 -74t75 -27z" />
    <glyph glyph-name="integral" unicode="&#x222b;" horiz-adv-x="429" 
d="M316 735q78 0 139 -43l-56 -111q-28 23 -68 23q-31 0 -50 -16.5t-19 -45.5v-368q0 -90 -55 -140t-144 -50q-80 0 -139 43l55 111q29 -23 69 -23q31 0 50 16.5t19 45.5v368q0 90 55 140t144 50z" />
    <glyph glyph-name="approxequal" unicode="&#x2248;" 
d="M512 476v-125q-42 -20 -103 -20q-37 0 -101 21.5t-106 21.5q-71 0 -113 -32v122q45 29 115 29q40 0 104 -22t104 -22q68 0 100 27zM512 282v-126q-42 -20 -103 -20q-37 0 -101 21.5t-106 21.5q-71 0 -113 -32v123q45 29 115 29q40 0 104 -21.5t104 -21.5q69 0 100 26z
" />
    <glyph glyph-name="notequal" unicode="&#x2260;" 
d="M511 341h-139l-32 -59h171v-119h-237l-66 -119l-83 48l39 71h-76v119h142l33 59h-175v120h241l70 127l83 -49l-43 -78h72v-120z" />
    <glyph glyph-name="lessequal" unicode="&#x2264;" 
d="M491 567l-257 -150l258 -149l-59 -101l-324 187v127l324 187zM109 126h383v-126h-383v126z" />
    <glyph glyph-name="greaterequal" unicode="&#x2265;" 
d="M110 567l58 101l324 -187v-127l-324 -187l-59 101l258 149zM492 126v-126h-383v126h383z" />
    <glyph glyph-name="lozenge" unicode="&#x25ca;" horiz-adv-x="686" 
d="M612 336l-269 -347l-269 347l269 346zM448 336l-105 142l-105 -142l105 -143z" />
    <glyph glyph-name="uniA729" unicode="&#xa729;" horiz-adv-x="788" 
d="M568 201q86 -19 134.5 -73.5t48.5 -131.5q0 -106 -73.5 -168.5t-180.5 -62.5q-71 0 -135.5 29.5t-105.5 86.5l100 93q24 -38 63.5 -58.5t81.5 -20.5q46 0 76 25t30 68q0 52 -50.5 82.5t-149.5 28.5v111l153 176h-300v-386h-145v386h-111v129h111v125h145v-125h486v-121z
" />
    <glyph glyph-name="a.ss01" horiz-adv-x="640" 
d="M576 514v-514h-137v70q-21 -35 -65 -55.5t-99 -20.5q-111 0 -176 75.5t-65 190.5q0 114 65 190t176 76q59 0 102.5 -22.5t57.5 -59.5l-1 70h142zM303 122q58 0 93.5 38t35.5 100t-35.5 100.5t-93.5 38.5q-57 0 -91 -39.5t-34 -99.5q0 -62 34.5 -100t90.5 -38z" />
    <glyph glyph-name="aacute.ss01" horiz-adv-x="640" 
d="M214 713l292 94l35 -124l-292 -82zM576 514v-514h-137v70q-21 -35 -65 -55.5t-99 -20.5q-111 0 -176 75.5t-65 190.5q0 114 65 190t176 76q59 0 102.5 -22.5t57.5 -59.5l-1 70h142zM303 122q58 0 93.5 38t35.5 100t-35.5 100.5t-93.5 38.5q-57 0 -91 -39.5t-34 -99.5
q0 -62 34.5 -100t90.5 -38z" />
    <glyph glyph-name="abreve.ss01" horiz-adv-x="640" 
d="M390 792h108q-1 -81 -47.5 -136t-139.5 -55q-94 0 -140.5 55t-46.5 136h108q0 -86 79 -86q77 0 79 86zM576 514v-514h-137v70q-21 -35 -65 -55.5t-99 -20.5q-111 0 -176 75.5t-65 190.5q0 114 65 190t176 76q59 0 102.5 -22.5t57.5 -59.5l-1 70h142zM303 122
q58 0 93.5 38t35.5 100t-35.5 100.5t-93.5 38.5q-57 0 -91 -39.5t-34 -99.5q0 -62 34.5 -100t90.5 -38z" />
    <glyph glyph-name="acircumflex.ss01" horiz-adv-x="640" 
d="M320 839l203 -148l-63 -89l-140 95l-138 -95l-66 89zM576 514v-514h-137v70q-21 -35 -65 -55.5t-99 -20.5q-111 0 -176 75.5t-65 190.5q0 114 65 190t176 76q59 0 102.5 -22.5t57.5 -59.5l-1 70h142zM303 122q58 0 93.5 38t35.5 100t-35.5 100.5t-93.5 38.5
q-57 0 -91 -39.5t-34 -99.5q0 -62 34.5 -100t90.5 -38z" />
    <glyph glyph-name="adieresis.ss01" horiz-adv-x="640" 
d="M208 766q37 0 62 -24t25 -59t-25 -58.5t-62 -23.5q-36 0 -61 24t-25 58q0 35 25 59t61 24zM427 766q36 0 61 -24t25 -59q0 -34 -25 -58t-61 -24q-37 0 -62 23.5t-25 58.5t25 59t62 24zM576 514v-514h-137v70q-21 -35 -65 -55.5t-99 -20.5q-111 0 -176 75.5t-65 190.5
q0 114 65 190t176 76q59 0 102.5 -22.5t57.5 -59.5l-1 70h142zM303 122q58 0 93.5 38t35.5 100t-35.5 100.5t-93.5 38.5q-57 0 -91 -39.5t-34 -99.5q0 -62 34.5 -100t90.5 -38z" />
    <glyph glyph-name="agrave.ss01" horiz-adv-x="640" 
d="M157 807l292 -94l-35 -112l-292 82zM576 514v-514h-137v70q-21 -35 -65 -55.5t-99 -20.5q-111 0 -176 75.5t-65 190.5q0 114 65 190t176 76q59 0 102.5 -22.5t57.5 -59.5l-1 70h142zM303 122q58 0 93.5 38t35.5 100t-35.5 100.5t-93.5 38.5q-57 0 -91 -39.5t-34 -99.5
q0 -62 34.5 -100t90.5 -38z" />
    <glyph glyph-name="amacron.ss01" horiz-adv-x="640" 
d="M154 713h323v-113h-323v113zM576 514v-514h-137v70q-21 -35 -65 -55.5t-99 -20.5q-111 0 -176 75.5t-65 190.5q0 114 65 190t176 76q59 0 102.5 -22.5t57.5 -59.5l-1 70h142zM303 122q58 0 93.5 38t35.5 100t-35.5 100.5t-93.5 38.5q-57 0 -91 -39.5t-34 -99.5
q0 -62 34.5 -100t90.5 -38z" />
    <glyph glyph-name="aogonek.ss01" horiz-adv-x="640" 
d="M462 -91q0 -32 30.5 -55t91.5 -28l-18 -125q-107 1 -168 49t-61 113q0 40 26.5 76.5t75.5 61.5v69q-21 -35 -65 -55.5t-99 -20.5q-111 0 -176 75.5t-65 190.5q0 114 65 190t176 76q59 0 102.5 -22.5t57.5 -59.5l-1 70h142v-514h-35q-36 -12 -57.5 -37t-21.5 -54zM303 122
q58 0 93.5 38t35.5 100t-35.5 100.5t-93.5 38.5q-57 0 -91 -39.5t-34 -99.5q0 -62 34.5 -100t90.5 -38z" />
    <glyph glyph-name="aring.ss01" horiz-adv-x="640" 
d="M309 601q-69 0 -114 46t-45 113q0 69 45 114.5t114 45.5q71 0 116 -45.5t45 -114.5q0 -68 -45.5 -113.5t-115.5 -45.5zM309 685q33 0 53 22t20 53q0 32 -20 54t-53 22t-52 -22t-19 -54q0 -31 19 -53t52 -22zM576 514v-514h-137v70q-21 -35 -65 -55.5t-99 -20.5
q-111 0 -176 75.5t-65 190.5q0 114 65 190t176 76q59 0 102.5 -22.5t57.5 -59.5l-1 70h142zM303 122q58 0 93.5 38t35.5 100t-35.5 100.5t-93.5 38.5q-57 0 -91 -39.5t-34 -99.5q0 -62 34.5 -100t90.5 -38z" />
    <glyph glyph-name="atilde.ss01" horiz-adv-x="640" 
d="M456 770l74 -45q-13 -26 -23 -43t-26 -38.5t-35 -32t-41 -10.5q-31 0 -88 35q-36 22 -53 22q-33 0 -70 -59l-73 52q33 57 67 88.5t77 31.5q31 0 88 -32q32 -19 50 -19q27 0 53 50zM576 514v-514h-137v70q-21 -35 -65 -55.5t-99 -20.5q-111 0 -176 75.5t-65 190.5
q0 114 65 190t176 76q59 0 102.5 -22.5t57.5 -59.5l-1 70h142zM303 122q58 0 93.5 38t35.5 100t-35.5 100.5t-93.5 38.5q-57 0 -91 -39.5t-34 -99.5q0 -62 34.5 -100t90.5 -38z" />
    <glyph glyph-name="l.ss01" horiz-adv-x="272" 
d="M64 0v699h144v-699h-144z" />
    <glyph glyph-name="lacute.ss01" horiz-adv-x="272" 
d="M64 889l292 94l35 -124l-292 -82zM64 0v699h144v-699h-144z" />
    <glyph glyph-name="lcaron.ss01" horiz-adv-x="550" 
d="M281 412l100 312l145 -54l-125 -304zM64 0v699h144v-699h-144z" />
    <glyph glyph-name="uni013C.ss01" horiz-adv-x="272" 
d="M64 0v699h144v-699h-144zM-4 -226l74 181l114 -51l-96 -172z" />
    <glyph glyph-name="ldot.ss01" horiz-adv-x="523" 
d="M64 0v699h144v-699h-144zM400 517q41 0 67 -25.5t26 -62.5t-26 -63t-67 -26t-67 25.5t-26 63.5q0 37 26 62.5t67 25.5z" />
    <glyph glyph-name="lslash.ss01" horiz-adv-x="414" 
d="M414 467l-141 -67v-400h-144v332l-100 -48l-29 63l129 61v291h144v-223l113 54z" />
    <glyph glyph-name="f_f_j" horiz-adv-x="982" 
d="M907 514v-555q0 -86 -49 -140t-130 -54q-57 0 -118 29l41 115q28 -15 48 -15q28 0 46 17.5t18 49.5v424h-187v-385h-145v385h-188v-385h-145v385h-94v129h94v31q0 90 55 140t144 50q51 0 95 -21l-38 -120q-19 10 -42 10q-30 0 -49.5 -16.5t-19.5 -45.5v-28h188v31
q0 90 55 140t144 50q78 0 139 -43l-56 -111q-28 23 -68 23q-31 0 -50 -16.5t-19 -45.5v-28h331z" />
    <glyph glyph-name="f_f_t" horiz-adv-x="1110" 
d="M1061 147l36 -107q-70 -46 -147 -46q-79 0 -132.5 49t-53.5 135v207h-188v-385h-145v385h-188v-385h-145v385h-94v129h94v31q0 90 55 140t144 50q51 0 95 -21l-38 -120q-19 10 -42 10q-30 0 -49.5 -16.5t-19.5 -45.5v-28h188v31q0 90 55 140t144 50q53 0 92 -21l-33 -121
q-19 11 -44 11q-31 0 -50 -16.5t-19 -45.5v-28h188v126h146v-126h146v-129h-146v-182q0 -39 21 -59.5t56 -20.5q38 0 74 24z" />
    <glyph glyph-name="f_j" horiz-adv-x="650" 
d="M575 514v-555q0 -86 -49.5 -140t-130.5 -54q-57 0 -118 29l42 115q27 -15 48 -15q27 0 45 17.5t18 49.5v424h-187v-385h-145v385h-94v129h94v31q0 90 55 140t144 50q78 0 139 -43l-55 -111q-29 23 -69 23q-30 0 -49.5 -16.5t-19.5 -45.5v-28h332z" />
    <glyph glyph-name="f_t" horiz-adv-x="777" 
d="M729 147l35 -107q-70 -46 -146 -46q-80 0 -133 49t-53 135v207h-189v-385h-145v385h-94v129h94v31q0 90 55 140t144 50q52 0 93 -21l-34 -121q-19 11 -44 11q-30 0 -49.5 -16.5t-19.5 -45.5v-28h189v126h145v-126h147v-129h-147v-182q0 -39 21.5 -59.5t55.5 -20.5
q38 0 75 24z" />
    <glyph glyph-name="t_t" horiz-adv-x="784" 
d="M584 385v-182q0 -39 21 -59.5t56 -20.5q38 0 74 24l36 -107q-70 -46 -147 -46q-79 0 -132.5 49t-53.5 135v207h-188v-182q0 -39 21.5 -59.5t56.5 -20.5q22 0 41 10l26 -114q-53 -25 -104 -25q-79 0 -132.5 49t-53.5 135v207h-101v129h101v126h145v-126h188v126h146v-126
h146v-129h-146z" />
    <glyph glyph-name="ordfeminine.ss01" horiz-adv-x="494" 
d="M461 706v-391h-106v54q-18 -29 -51.5 -45.5t-73.5 -16.5q-88 0 -142 54.5t-54 143.5t56.5 149.5t143.5 60.5q70 0 108 -41v32h119zM246 415q42 0 68 26t26 67q0 45 -26 71.5t-68 26.5t-66.5 -26.5t-24.5 -71.5q0 -41 25.5 -67t65.5 -26z" />
    <glyph glyph-name="zero.tf" 
d="M300 700q128 0 198.5 -88.5t70.5 -252.5v-24q0 -164 -70.5 -252.5t-198.5 -88.5q-127 0 -197.5 88.5t-70.5 252.5v24q0 164 70.5 252.5t197.5 88.5zM421 359q0 109 -29.5 157.5t-91.5 48.5q-61 0 -90.5 -49t-29.5 -157v-24q0 -108 29.5 -157t90.5 -49q62 0 91.5 48.5
t29.5 157.5v24z" />
    <glyph glyph-name="one.tf" 
d="M79 597q59 4 117 31t87 62h119v-562h165v-128h-478v128h166v393q-55 -34 -162 -45z" />
    <glyph glyph-name="two.tf" 
d="M256 136h301v-136h-491v128l190 171q3 3 21 18.5t23.5 20.5t20.5 20t21 22.5t16.5 21.5t15 24.5t8 23.5t3.5 26q0 40 -27.5 64t-65.5 24q-45 0 -79 -33.5t-35 -93.5l-134 6q1 83 39.5 143t95 87t122.5 27q99 0 165 -59.5t66 -155.5q0 -33 -10 -64.5t-20.5 -51.5
t-34.5 -46.5t-33 -34t-35 -29.5q-5 -5 -8 -7z" />
    <glyph glyph-name="three.tf" 
d="M397 365q73 -16 111 -60t38 -107q0 -90 -70 -147t-173 -57q-85 0 -151 43t-97 118l128 65q16 -45 49 -70t78 -25q41 0 66.5 20t25.5 56q0 89 -149 89h-41v115q164 0 164 90q0 32 -23.5 51t-59.5 19q-38 0 -73 -21.5t-53 -56.5l-105 66q30 68 95 107.5t146 39.5
q93 0 156 -48t63 -123q0 -55 -34.5 -100t-90.5 -64z" />
    <glyph glyph-name="four.tf" 
d="M478 284h113v-137h-113v-147h-147v147h-302v128l301 415h148v-406zM171 284h160v222z" />
    <glyph glyph-name="five.tf" 
d="M336 464q105 0 162 -63.5t57 -161.5q0 -112 -72.5 -178.5t-181.5 -66.5q-86 0 -157.5 43.5t-97.5 121.5l131 60q13 -43 48.5 -66.5t77.5 -23.5q46 0 75 27.5t29 74.5t-30 75t-76 28q-72 0 -106 -55h-114v411h416v-136h-291v-129q51 39 130 39z" />
    <glyph glyph-name="six.tf" 
d="M565 238q0 -109 -71.5 -176.5t-181.5 -67.5q-126 0 -201.5 89.5t-75.5 232.5q0 81 26 149.5t76.5 121.5t132 83t186.5 30l5 -134q-242 -2 -276 -188q60 85 168 85q87 0 149.5 -61.5t62.5 -163.5zM311 129q48 0 77 28.5t29 74.5q0 50 -31 76.5t-75 26.5t-75.5 -27
t-31.5 -75q0 -46 29.5 -75t77.5 -29z" />
    <glyph glyph-name="seven.tf" 
d="M126 0l277 544h-359v146h513v-138l-271 -552h-160z" />
    <glyph glyph-name="eight.tf" 
d="M426 364q130 -44 130 -166q0 -90 -71.5 -147t-184.5 -57q-115 0 -186 56.5t-71 147.5q0 59 32.5 104t94.5 65q-101 48 -101 149q0 84 66 134t170 50q101 0 164 -48.5t63 -133.5q0 -48 -27.5 -89.5t-78.5 -64.5zM214 501q0 -51 72 -72l33 -10q30 11 49 34.5t19 48.5
q0 29 -23 48t-62 19t-63.5 -19t-24.5 -49zM304 125q48 0 77 20.5t29 54.5q0 65 -100 90l-40 11q-35 -10 -58 -36t-23 -58q0 -39 31 -60.5t84 -21.5z" />
    <glyph glyph-name="nine.tf" 
d="M35 456q0 109 71.5 176.5t181.5 67.5q126 0 201.5 -89.5t75.5 -232.5q0 -81 -26 -149.5t-76.5 -121.5t-132 -83t-186.5 -30l-5 135q242 0 276 187q-28 -41 -73 -63t-95 -22q-87 0 -149.5 61.5t-62.5 163.5zM289 565q-48 0 -77 -28.5t-29 -74.5q0 -50 31 -76.5t75 -26.5
t76 27t32 75q0 46 -30 75t-78 29z" />
    <glyph glyph-name="zero.dnom" horiz-adv-x="361" 
d="M165 424q79 0 122.5 -54.5t43.5 -153.5v-15q0 -99 -43.5 -153.5t-122.5 -54.5t-122.5 54.5t-43.5 153.5v15q0 99 43.5 153.5t122.5 54.5zM228 216q0 113 -63 113t-63 -113v-15q0 -113 63 -113t63 113v15z" />
    <glyph glyph-name="one.dnom" horiz-adv-x="362" 
d="M154 0v322h-57v96h159v-418h-102z" />
    <glyph glyph-name="two.dnom" horiz-adv-x="365" 
d="M165 96h164v-96h-304v88l113 101q3 2 13 11t13 12t11.5 11t12 12t9 11.5t8 13t4.5 12t2 13.5q0 19 -12.5 31t-33.5 12q-28 0 -43.5 -21.5t-15.5 -54.5l-96 5q0 73 45 120t115 47q63 0 103.5 -38t40.5 -96q0 -26 -8 -49t-24.5 -42t-26 -28t-27.5 -23z" />
    <glyph glyph-name="three.dnom" horiz-adv-x="357" 
d="M244 220q73 -26 73 -99q0 -55 -43 -91.5t-108 -36.5q-54 0 -95.5 27.5t-60.5 75.5l87 39q23 -50 73 -50q21 0 33 10t12 27q0 45 -79 45h-36v83q101 0 101 46q0 33 -42 33q-21 0 -39.5 -12.5t-27.5 -32.5l-77 47q18 42 59 67.5t92 25.5q59 0 97.5 -31t38.5 -78
q0 -63 -58 -95z" />
    <glyph glyph-name="four.dnom" horiz-adv-x="368" 
d="M277 182h66v-95h-66v-87h-102v87h-178v86l181 245h99v-236zM95 182h80v109z" />
    <glyph glyph-name="five.dnom" horiz-adv-x="354" 
d="M184 278q64 0 100 -36t36 -98q0 -66 -43 -108.5t-113 -42.5q-55 0 -98 27t-59 73l92 43q6 -22 24 -35.5t42 -13.5q23 0 38 16t15 38q0 23 -15 38t-39 15q-41 0 -57 -31h-79v255h259v-95h-171v-62q28 17 68 17z" />
    <glyph glyph-name="six.dnom" horiz-adv-x="350" 
d="M187 277q62 0 100 -36.5t38 -96.5q0 -67 -44 -109t-113 -42q-77 0 -124 54.5t-47 142.5q0 109 71 171.5t193 62.5l3 -94q-130 0 -152 -76q31 23 75 23zM168 88q25 0 39.5 15t14.5 40t-14.5 40t-39.5 15t-40.5 -15t-15.5 -40t15.5 -40t40.5 -15z" />
    <glyph glyph-name="seven.dnom" horiz-adv-x="356" 
d="M48 0l161 316h-204v102h318v-91l-160 -327h-115z" />
    <glyph glyph-name="eight.dnom" horiz-adv-x="347" 
d="M239 220q38 -12 59.5 -38.5t21.5 -62.5q0 -54 -45 -89t-114 -35q-70 0 -115 34.5t-45 89.5q0 35 21.5 64t56.5 39q-28 13 -44 37.5t-16 53.5q0 51 39 81t105 30q65 0 103 -30t38 -81q0 -28 -17.5 -54t-47.5 -39zM117 297q0 -31 55 -44q34 15 34 43q0 33 -45 33
q-44 0 -44 -32zM164 88q26 0 40 12t14 30q0 32 -74 53q-41 -14 -41 -49q0 -21 15.5 -33.5t45.5 -12.5z" />
    <glyph glyph-name="nine.dnom" horiz-adv-x="350" 
d="M154 424q77 0 124 -54t47 -143q0 -109 -70.5 -171.5t-193.5 -62.5l-3 95q128 0 152 75q-32 -23 -75 -23q-62 0 -100 36.5t-38 96.5q0 67 44 109t113 42zM154 218q25 0 40.5 15.5t15.5 40.5q0 24 -15.5 39.5t-40.5 15.5t-39.5 -15t-14.5 -40q0 -26 14.5 -41t39.5 -15z" />
    <glyph glyph-name="zero.numr" horiz-adv-x="340" 
d="M170 700q79 0 122.5 -54.5t43.5 -153.5v-15q0 -99 -43.5 -153.5t-122.5 -54.5t-122.5 54.5t-43.5 153.5v15q0 99 43.5 153.5t122.5 54.5zM233 492q0 113 -63 113t-63 -113v-15q0 -113 63 -113t63 113v15z" />
    <glyph glyph-name="one.numr" horiz-adv-x="340" 
d="M148 276v322h-57v96h159v-418h-102z" />
    <glyph glyph-name="two.numr" horiz-adv-x="340" 
d="M166 372h164v-96h-304v88l113 101q3 2 13 11t13 12t11.5 11t12 12t9 11.5t8 13t4.5 12t2 13.5q0 19 -12.5 31t-33.5 12q-28 0 -43.5 -21.5t-15.5 -54.5l-96 5q0 73 45 120t115 47q63 0 103.5 -38t40.5 -96q0 -26 -8 -49t-24.5 -42t-26 -28t-27.5 -23z" />
    <glyph glyph-name="three.numr" horiz-adv-x="340" 
d="M251 496q73 -26 73 -99q0 -55 -43 -91.5t-108 -36.5q-54 0 -95.5 27.5t-60.5 75.5l87 39q23 -50 73 -50q21 0 33 10t12 27q0 45 -79 45h-36v83q101 0 101 46q0 33 -42 33q-21 0 -39.5 -12.5t-27.5 -32.5l-77 47q18 42 59 67.5t92 25.5q59 0 97.5 -31t38.5 -78
q0 -63 -58 -95z" />
    <glyph glyph-name="four.numr" horiz-adv-x="340" 
d="M277 458h66v-95h-66v-87h-102v87h-178v86l181 245h99v-236zM95 458h80v109z" />
    <glyph glyph-name="five.numr" horiz-adv-x="340" 
d="M192 554q64 0 100 -36t36 -98q0 -66 -43 -108.5t-113 -42.5q-55 0 -98 27t-59 73l92 43q6 -22 24 -35.5t42 -13.5q23 0 38 16t15 38q0 23 -15 38t-39 15q-41 0 -57 -31h-79v255h259v-95h-171v-62q28 17 68 17z" />
    <glyph glyph-name="six.numr" horiz-adv-x="340" 
d="M196 553q62 0 100 -36.5t38 -96.5q0 -67 -44 -109t-113 -42q-77 0 -124 54.5t-47 142.5q0 109 71 171.5t193 62.5l3 -94q-130 0 -152 -76q31 23 75 23zM177 364q25 0 39.5 15t14.5 40t-14.5 40t-39.5 15t-40.5 -15t-15.5 -40t15.5 -40t40.5 -15z" />
    <glyph glyph-name="seven.numr" horiz-adv-x="340" 
d="M54 276l161 316h-204v102h318v-91l-160 -327h-115z" />
    <glyph glyph-name="eight.numr" horiz-adv-x="340" 
d="M249 496q38 -12 59.5 -38.5t21.5 -62.5q0 -54 -45 -89t-114 -35q-70 0 -115 34.5t-45 89.5q0 35 21.5 64t56.5 39q-28 13 -44 37.5t-16 53.5q0 51 39 81t105 30q65 0 103 -30t38 -81q0 -28 -17.5 -54t-47.5 -39zM127 573q0 -31 55 -44q34 15 34 43q0 33 -45 33
q-44 0 -44 -32zM174 364q26 0 40 12t14 30q0 32 -74 53q-41 -14 -41 -49q0 -21 15.5 -33.5t45.5 -12.5z" />
    <glyph glyph-name="nine.numr" horiz-adv-x="340" 
d="M163 700q77 0 124 -54t47 -143q0 -109 -70.5 -171.5t-193.5 -62.5l-3 95q128 0 152 75q-32 -23 -75 -23q-62 0 -100 36.5t-38 96.5q0 67 44 109t113 42zM163 494q25 0 40.5 15.5t15.5 40.5q0 24 -15.5 39.5t-40.5 15.5t-39.5 -15t-14.5 -40q0 -26 14.5 -41t39.5 -15z" />
    <glyph glyph-name="exclamdown.cap" horiz-adv-x="374" 
d="M187 479q-41 0 -67 25.5t-26 62.5t26 63t67 26t67 -25.5t26 -63.5q0 -37 -26 -62.5t-67 -25.5zM130 426h113l21 -492h-155z" />
    <glyph glyph-name="questiondown.cap" horiz-adv-x="531" 
d="M294 496q-41 0 -66.5 25.5t-25.5 62.5q0 38 26 63.5t66 25.5q41 0 67.5 -26t26.5 -63t-26.5 -62.5t-67.5 -25.5zM221 354v89h147v-180q-103 0 -146.5 -21.5t-43.5 -76.5q0 -39 25 -58.5t63 -19.5q40 0 79 20t61 55l91 -82q-42 -63 -107.5 -96t-136.5 -33q-92 0 -158 54.5
t-66 147.5q0 81 52.5 136t139.5 65z" />
    <glyph glyph-name="periodcentered.cap" horiz-adv-x="244" 
d="M122 480q37 0 64.5 -27.5t27.5 -64.5t-27.5 -65t-64.5 -28t-64.5 28t-27.5 65t27.5 64.5t64.5 27.5z" />
    <glyph glyph-name="bullet.cap" horiz-adv-x="243" 
d="M213 321q0 -36 -28 -63.5t-63 -27.5q-37 0 -64.5 27.5t-27.5 63.5t27.5 63t64.5 27q36 0 63.5 -27t27.5 -63z" />
    <glyph glyph-name="hyphen.cap" horiz-adv-x="414" 
d="M48 406h318v-129h-318v129z" />
    <glyph glyph-name="endash.cap" horiz-adv-x="500" 
d="M48 434h404v-129h-404v129z" />
    <glyph glyph-name="emdash.cap" horiz-adv-x="691" 
d="M48 434h595v-129h-595v129z" />
    <glyph glyph-name="guillemotleft.cap" horiz-adv-x="608" 
d="M162 343l135 -156l-88 -74l-195 230l195 230l88 -74zM439 343l135 -156l-88 -74l-195 230l195 230l88 -74z" />
    <glyph glyph-name="guillemotright.cap" horiz-adv-x="608" 
d="M169 343l-135 156l88 74l195 -230l-195 -230l-88 74zM446 343l-135 156l88 74l195 -230l-195 -230l-88 74z" />
    <glyph glyph-name="guilsinglleft.cap" horiz-adv-x="331" 
d="M162 343l135 -156l-88 -74l-195 230l195 230l88 -74z" />
    <glyph glyph-name="guilsinglright.cap" horiz-adv-x="331" 
d="M169 343l-135 156l88 74l195 -230l-195 -230l-88 74z" />
    <glyph glyph-name="at.cap" horiz-adv-x="918" 
d="M499 788q161 0 268.5 -92.5t107.5 -254.5q0 -121 -59 -200.5t-147 -79.5q-94 0 -126 92q-48 -87 -149 -87q-79 0 -123.5 53t-44.5 130q0 92 61 165t161 73q81 0 109 -59l11 50h121l-46 -200q-12 -51 -12 -73q0 -58 48 -58q46 0 73.5 51t27.5 126q0 131 -83 203t-207 72
q-105 0 -187 -53t-122 -132t-40 -165q0 -117 75 -198.5t216 -81.5q73 0 134 30l29 -82q-76 -40 -176 -40q-121 0 -208 52t-127 132t-40 176q0 83 31 162.5t87 144t144 104.5t193 40zM423 269q47 0 75.5 41t28.5 93q0 85 -71 85q-49 0 -79 -38.5t-30 -88.5q0 -39 19.5 -65.5
t56.5 -26.5z" />
    <glyph glyph-name="acute.cap" horiz-adv-x="327" 
d="M0 889l292 94l35 -124l-292 -82z" />
    <glyph glyph-name="breve.cap" horiz-adv-x="374" 
d="M266 967h108q-1 -81 -47.5 -136t-139.5 -55q-94 0 -140.5 55t-46.5 136h108q0 -86 79 -86q77 0 79 86z" />
    <glyph glyph-name="caron.cap" horiz-adv-x="407" 
d="M204 776l-204 148l66 89l138 -95l140 95l63 -89z" />
    <glyph glyph-name="cedilla.cap" horiz-adv-x="306" 
d="M180 1l-14 -56q77 -7 108.5 -34.5t31.5 -73.5q0 -49 -41 -84.5t-109 -35.5q-98 0 -156 69l54 58q43 -49 97 -49q27 0 48 12.5t21 37.5q0 42 -132 46l35 110h57z" />
    <glyph glyph-name="circumflex.cap" horiz-adv-x="407" 
d="M204 1013l203 -148l-63 -89l-140 95l-138 -95l-66 89z" />
    <glyph glyph-name="dieresis.cap" horiz-adv-x="411" 
d="M86 941q37 0 62 -24t25 -59t-25 -58.5t-62 -23.5q-36 0 -61 24t-25 58q0 35 25 59t61 24zM325 941q36 0 61 -24t25 -59q0 -34 -25 -58t-61 -24q-37 0 -62 23.5t-25 58.5t25 59t62 24z" />
    <glyph glyph-name="dotaccent.cap" horiz-adv-x="186" 
d="M93 954q41 0 67 -25.5t26 -62.5t-26 -63t-67 -26t-67 25.5t-26 63.5q0 37 26 62.5t67 25.5z" />
    <glyph glyph-name="grave.cap" horiz-adv-x="327" 
d="M35 983l292 -94l-35 -112l-292 82z" />
    <glyph glyph-name="hungarumlaut.cap" horiz-adv-x="407" 
d="M218 977l-97 -201h-121l86 201h132zM407 977l-97 -201h-121l86 201h132z" />
    <glyph glyph-name="macron.cap" horiz-adv-x="323" 
d="M0 890h323v-113h-323v113z" />
    <glyph glyph-name="ogonek.cap" horiz-adv-x="247" 
d="M229 -299q-107 1 -168 49t-61 113q0 46 34 86.5t98 65.5l72 -15q-36 -12 -57.5 -37t-21.5 -54q0 -32 30.5 -55t91.5 -28z" />
    <glyph glyph-name="ring.cap" horiz-adv-x="296" 
d="M147 758q-64 0 -105.5 42t-41.5 105t41.5 105.5t105.5 42.5q65 0 107 -42t42 -106q0 -63 -42 -105t-107 -42zM147 835q30 0 49 20.5t19 49.5t-18.5 49.5t-49.5 20.5q-30 0 -48 -20.5t-18 -49.5t18 -49.5t48 -20.5z" />
    <glyph glyph-name="tilde.cap" horiz-adv-x="409" 
d="M335 947l74 -45q-13 -26 -23 -43t-26 -38.5t-35 -32t-41 -10.5q-31 0 -88 35q-36 22 -53 22q-33 0 -70 -59l-73 52q33 57 67 88.5t77 31.5q31 0 88 -32q32 -19 50 -19q27 0 53 50z" />
    <glyph glyph-name="null" horiz-adv-x="8" 
 />
    <glyph glyph-name="ffi" horiz-adv-x="980" 
d="M576 514h334v-514h-145v385h-189v-385h-144v385h-189v-385h-145v385h-94v129h94v31q0 90 55 140t144 50q51 0 95 -21l-38 -120q-19 10 -42 10q-30 0 -49.5 -16.5t-19.5 -45.5v-28h189v31q0 90 55 140t144 50q76 0 139 -43l-56 -111q-29 23 -68 23q-31 0 -50.5 -16.5
t-19.5 -45.5v-28z" />
    </font>
</defs>
</svg>
