<?xml version="1.0" standalone="no"?>
<!DOCTYPE svg PUBLIC "-//W3C//DTD SVG 1.1//EN" "http://www.w3.org/Graphics/SVG/1.1/DTD/svg11.dtd" >
<svg xmlns="http://www.w3.org/2000/svg" xmlns:xlink="http://www.w3.org/1999/xlink" version="1.1">
<metadata>
Created by FontForge 20170731 at Tue Aug 17 14:18:00 1999
 By Aleksey,,,
Typeface (c) The Monotype Corporation plc. Data (c) The Monotype Corporation plc, Type Solutions inc 1990-1992. All rights reserved. Portions (c) 1992 Microsoft Corp.
</metadata>
<defs>
<font id="BellMTBold" horiz-adv-x="1109" >
  <font-face 
    font-family="Bell MT"
    font-weight="700"
    font-stretch="normal"
    units-per-em="2048"
    panose-1="2 3 7 3 6 5 10 2 3 3"
    ascent="1638"
    descent="-410"
    x-height="859"
    cap-height="1323"
    bbox="-435 -547 2371 1869"
    underline-thickness="102"
    underline-position="-358"
    unicode-range="U+0020-F002"
  />
<missing-glyph horiz-adv-x="1536" 
d="M256 0v1280h1024v-1280h-1024zM288 32h960v1216h-960v-1216z" />
    <glyph glyph-name=".notdef" horiz-adv-x="1536" 
d="M256 0v1280h1024v-1280h-1024zM288 32h960v1216h-960v-1216z" />
    <glyph glyph-name="glyph1" horiz-adv-x="0" 
 />
    <glyph glyph-name="glyph2" horiz-adv-x="544" 
 />
    <glyph glyph-name="space" unicode=" " horiz-adv-x="544" 
 />
    <glyph glyph-name="exclam" unicode="!" horiz-adv-x="576" 
d="M256 362q-126 758 -126 818q0 73 48.5 118t109.5 45q66 0 111.5 -48t45.5 -113q0 -62 -126 -820h-63zM427 120q0 -58 -41 -99t-98 -41q-58 0 -99 41t-41 99q0 57 41 98t99 41q57 0 98 -41t41 -98z" />
    <glyph glyph-name="quotedbl" unicode="&#x22;" horiz-adv-x="1131" 
d="M832 721h-49l-102 384q-23 87 -23 133q0 57 42.5 103t108.5 46q67 0 106.5 -46t39.5 -102q0 -31 -26 -134zM350 721h-49l-104 385q-20 74 -20 129q0 64 42.5 108t105.5 44q68 0 107.5 -44t39.5 -104q0 -42 -24 -135z" />
    <glyph glyph-name="numbersign" unicode="#" horiz-adv-x="1365" 
d="M88 972h326l86 405h123l-86 -405h420l85 405h123l-85 -405h196v-122h-222l-75 -371h297v-123h-322l-86 -402h-123l86 402h-422l-85 -402h-123l85 402h-198v123h224l77 371h-301v122zM512 850l-78 -371h422l76 371h-420z" />
    <glyph glyph-name="dollar" unicode="$" horiz-adv-x="1088" 
d="M498 1231h93v-135q173 -11 257.5 -85.5t84.5 -151.5q0 -51 -32 -86t-86 -35q-50 0 -85.5 32t-35.5 82q0 32 32 84q17 28 17 36q0 44 -152 63v-366q181 -59 241 -89t109 -103.5t49 -167.5q0 -155 -105 -251.5t-294 -119.5v-249h-93v249q-140 0 -266 88t-126 214
q0 62 37.5 97.5t83.5 35.5q58 0 94 -38t36 -86q0 -55 -48 -94q-28 -23 -28 -37q0 -30 60 -68t157 -48v438q-217 64 -289.5 149t-72.5 192q0 130 104.5 222t257.5 93v135zM498 1031q-88 -4 -148.5 -53.5t-60.5 -111.5q0 -106 209 -171v336zM591 3q135 20 186.5 83t51.5 122
q0 46 -37 98.5t-201 103.5v-407z" />
    <glyph glyph-name="percent" unicode="%" horiz-adv-x="1685" 
d="M1316 1341l-829 -1377h-117l827 1377h119zM79 994q0 133 92 240t257 107q161 0 255 -105.5t94 -241.5q0 -143 -98 -244.5t-251 -101.5q-165 0 -257 106.5t-92 239.5zM281 994q0 -149 42.5 -220.5t104.5 -71.5q70 0 108.5 78.5t38.5 213.5q0 136 -39 214t-108 78t-108 -78
t-39 -214zM909 313q0 132 92 239t257 107q161 0 255 -105t94 -241q0 -144 -98 -245.5t-251 -101.5t-251 101t-98 246zM1111 312q0 -149 42.5 -220.5t104.5 -71.5q70 0 108.5 78.5t38.5 213.5q0 136 -39 214.5t-108 78.5t-108 -78.5t-39 -214.5z" />
    <glyph glyph-name="ampersand" unicode="&#x26;" horiz-adv-x="1515" 
d="M441 748q-161 164 -161 308q0 114 86 198t212 84q116 0 187.5 -65.5t71.5 -146.5q0 -124 -163 -266q189 -150 353 -438q85 138 85 265q0 106 -103 114q-42 4 -42 30q0 27 57 27l200 -4q59 0 137 6q37 3 50 3q35 0 35 -28q0 -20 -40 -30q-66 -17 -101 -44t-54 -58.5
t-90 -178.5q-46 -93 -96 -164q127 -260 235 -260q44 0 95 34q28 19 38 19q29 0 29 -28t-106.5 -88t-207.5 -60q-79 0 -137 49t-116 144q-236 -194 -439 -194q-156 0 -256 90t-100 240q0 85 48 180t293 262zM621 909q97 96 97 200q0 80 -46 122t-101 42q-47 0 -82 -36
t-35 -92q0 -105 167 -236zM486 700q-146 -119 -146 -260q0 -111 76.5 -213.5t199.5 -102.5q112 0 246 107q-147 275 -376 469z" />
    <glyph glyph-name="quotesingle" unicode="'" horiz-adv-x="576" 
d="M313 722h-48l-105 382q-20 72 -20 129q0 65 41.5 109.5t105.5 44.5q69 0 108.5 -44.5t39.5 -105.5q0 -42 -23 -132z" />
    <glyph glyph-name="parenleft" unicode="(" horiz-adv-x="683" 
d="M276 412q0 -301 112.5 -554.5t194.5 -350.5q23 -28 23 -37q0 -16 -21 -16q-76 0 -95.5 11t-94.5 99t-146.5 231.5t-111.5 291.5t-40 325q0 175 39 322.5t113 295.5t147 232.5t92.5 96t91.5 11.5q26 0 26 -15q0 -10 -23 -38q-86 -100 -196.5 -353.5t-110.5 -551.5z" />
    <glyph glyph-name="parenright" unicode=")" horiz-adv-x="683" 
d="M407 412q0 301 -112 555t-194 350q-24 28 -24 38q0 15 25 15q73 0 92.5 -11.5t94.5 -98.5t147.5 -234.5t111 -292.5t38.5 -321t-39.5 -325t-112 -293.5t-146.5 -230.5t-93.5 -97.5t-95.5 -11.5q-22 0 -22 15q0 10 24 38q85 100 195.5 354t110.5 551z" />
    <glyph glyph-name="asterisk" unicode="*" horiz-adv-x="1024" 
d="M939 927q0 -27 -19.5 -48.5t-51.5 -21.5q-30 0 -140 24.5t-130 30.5q-11 4 -19 4q-14 0 -14 -13q0 -11 18 -21q47 -27 132.5 -87t95.5 -73t10 -38q0 -67 -70 -67q-32 0 -61.5 36t-93.5 142l-35 55q-9 13 -11 18q-9 16 -20 16q-13 0 -13 -14q0 -10 38 -156q23 -88 23 -117
q0 -80 -70 -80q-28 0 -47 19.5t-19 53.5q0 30 14.5 125.5t31.5 153.5q2 6 2 11q0 13 -15 13q-13 0 -20 -16q-10 -23 -72 -119.5t-86.5 -113t-44.5 -16.5q-26 0 -47 18.5t-21 47.5q0 24 17.5 47t109.5 83.5t113 71.5q25 12 25 25q0 12 -15 12q-8 0 -21 -4q-26 -8 -131 -29
t-128 -21q-25 0 -46.5 19.5t-21.5 48.5q0 28 22 48.5t51 20.5q25 0 126.5 -19.5t125.5 -28.5q17 -6 26 -6q17 0 17 14q0 11 -23 23q-10 4 -109.5 68t-115 82.5t-15.5 39.5q0 30 20.5 49.5t46.5 19.5q21 0 47.5 -20.5t83.5 -110.5t63 -102q14 -32 27 -32q15 0 15 15
q0 10 -4 23q-7 25 -22 119.5t-15 134.5q0 82 65 82q73 0 73 -85q0 -33 -20 -104l-42 -153q-5 -15 -5 -20q0 -16 12 -16q10 0 27 25q106 153 149 196t76 43q28 0 45 -21t17 -47q0 -22 -15 -41t-110.5 -82.5t-136.5 -82.5q-22 -10 -22 -23q0 -15 15 -15q6 0 17 4
q32 12 131 30.5t141 18.5q30 0 49.5 -21.5t19.5 -45.5z" />
    <glyph glyph-name="plus" unicode="+" horiz-adv-x="1365" 
d="M139 606h478v478h132v-478h478v-131h-478v-478h-132v478h-478v131z" />
    <glyph glyph-name="comma" unicode="," horiz-adv-x="555" 
d="M448 73q0 -79 -59.5 -172.5t-151.5 -152t-124 -58.5q-22 0 -22 27q0 14 21 28q88 61 126 125t38 99q0 29 -45 40q-121 30 -121 121q0 56 47 92.5t103 36.5q86 0 137 -57t51 -129z" />
    <glyph glyph-name="hyphen" unicode="-" horiz-adv-x="747" 
d="M41 505q0 31 5.5 36t42.5 5h569q36 0 42 -5t6 -36v-112q0 -31 -5.5 -36t-42.5 -5h-569q-37 0 -42.5 5t-5.5 36v112z" />
    <glyph glyph-name="hyphen" unicode="&#xad;" horiz-adv-x="747" 
d="M41 505q0 31 5.5 36t42.5 5h569q36 0 42 -5t6 -36v-112q0 -31 -5.5 -36t-42.5 -5h-569q-37 0 -42.5 5t-5.5 36v112z" />
    <glyph glyph-name="period" unicode="." horiz-adv-x="491" 
d="M385 120q0 -58 -41 -99t-99 -41q-57 0 -98 41t-41 99q0 57 41 98t98 41q58 0 99 -41t41 -98z" />
    <glyph glyph-name="slash" unicode="/" horiz-adv-x="1088" 
d="M834 1426h136l-717 -1463h-136z" />
    <glyph glyph-name="zero" unicode="0" horiz-adv-x="1088" 
d="M1037 547q0 -129 -53 -261t-172 -219.5t-274 -87.5q-212 0 -349 161.5t-137 384.5q0 232 141.5 404.5t351.5 172.5q136 0 257.5 -76.5t178 -213.5t56.5 -265zM768 552q0 230 -56.5 358t-159.5 128q-102 0 -165 -135t-63 -387q0 -232 62 -351t161 -119q111 0 166 126.5
t55 379.5z" />
    <glyph glyph-name="one" unicode="1" horiz-adv-x="1088" 
d="M694 1047v-755q0 -157 24.5 -200.5t89.5 -45.5q47 -1 59 -7.5t12 -23.5q0 -27 -33 -27q-7 0 -17 1q-156 11 -229 11q-77 0 -223 -8q-52 -2 -70 -2q-39 0 -39 27q0 17 12.5 22.5t61.5 9.5q61 5 87.5 28.5t32.5 50.5t10 127v449q0 115 -13 159.5t-42 63t-93 25.5
q-51 6 -62 11t-11 21q0 18 12.5 23t53.5 8q183 14 323 84q17 8 28 8q26 0 26 -60z" />
    <glyph glyph-name="two" unicode="2" horiz-adv-x="1088" 
d="M852 0h-689q-50 0 -62 3.5t-12 16.5q0 17 31 37q94 63 261.5 214.5t238 292t70.5 285.5q0 83 -32.5 130t-88.5 47q-67 0 -129 -50t-98 -142.5t-36 -185.5q0 -52 17 -78t50 -26q42 0 80 46q37 45 51 78q14 31 34 31q27 0 27 -25q0 -39 -75 -137.5t-189 -98.5
q-91 0 -144.5 59.5t-53.5 134.5q0 173 184.5 320.5t358.5 147.5q139 0 226 -84.5t87 -209.5q0 -64 -28.5 -133t-72 -121t-177 -152t-256.5 -183h197q152 0 196.5 17.5t88.5 78.5q32 46 50 46q27 0 27 -28q0 -13 -9 -32q-61 -129 -123 -299z" />
    <glyph glyph-name="three" unicode="3" horiz-adv-x="1088" 
d="M667 616q150 0 219 -78.5t69 -164.5q0 -102 -72 -195t-184 -145.5t-247 -52.5q-146 0 -248 63.5t-102 158.5q0 61 37.5 97t89.5 36q45 0 81.5 -33t36.5 -81q0 -26 -17 -63q-12 -28 -12 -41q0 -32 35.5 -52.5t78.5 -20.5q111 0 191.5 178.5t80.5 254.5q0 41 -24 66t-53 25
q-37 0 -128 -70q-64 -49 -78 -49q-29 0 -29 26q0 18 23 36q175 139 224.5 220.5t49.5 153.5q0 67 -33 106t-84 39q-78 0 -140.5 -69t-62.5 -160q0 -32 16 -53t37 -21q44 0 89 78q10 18 28 18q27 0 27 -28q0 -29 -65.5 -105.5t-157.5 -76.5q-63 0 -107 44.5t-44 111.5
q0 139 141 235.5t312 96.5q142 0 211.5 -60.5t69.5 -137.5q0 -46 -31 -95t-65 -77t-163 -115z" />
    <glyph glyph-name="four" unicode="4" horiz-adv-x="1088" 
d="M529 395q-258 0 -487 -15q10 68 20.5 87t106.5 130.5t187 205.5t182 181.5t116.5 101t50.5 13.5q30 0 40 -8t10 -31l1 -49v-547q202 0 215 159q2 37 28 37q27 0 27 -38q0 -11 -2 -33q-6 -79 -6 -158q0 -47 2 -87q5 -69 5 -85q0 -43 -28 -43q-22 0 -34 53q-15 66 -47.5 97
t-117.5 31q-14 0 -42 -2v-172q0 -109 22 -143t101 -35q37 -1 37 -27q0 -29 -37 -29q-7 0 -69 3q-151 7 -225 7q-56 0 -146 -7q-18 -2 -26 -2q-48 0 -60 5t-12 22q0 27 65 33q50 5 72.5 22t31 59.5t19.5 263.5zM131 455l398 8q2 27 2 282q0 109 -2 141l-159 -164
q-152 -155 -239 -267z" />
    <glyph glyph-name="five" unicode="5" horiz-adv-x="1088" 
d="M374 875l-41 -256q67 55 139 82.5t149 27.5q145 0 234.5 -91t89.5 -224q0 -168 -146.5 -299.5t-385.5 -131.5q-157 0 -239.5 62t-82.5 148q0 58 40 93.5t94 35.5q55 0 87.5 -32.5t32.5 -73.5q0 -23 -12 -61q-10 -31 -10 -46q0 -23 24 -43t74 -20q134 0 194 126.5
t60 277.5q0 98 -44 145.5t-100 47.5q-71 0 -134 -54q-64 -54 -83 -126q-13 -49 -35 -49q-29 0 -29 32q0 22 44.5 309.5t59.5 338.5q102 -27 241 -27q177 0 255 109q25 35 40 35q32 0 32 -28q0 -93 -121 -202t-339 -109q-31 0 -88 3z" />
    <glyph glyph-name="six" unicode="6" horiz-adv-x="1088" 
d="M373 630q56 34 117 51t127 17q153 0 265 -93.5t112 -253.5q0 -165 -124 -270t-315 -105q-220 0 -339.5 135t-119.5 352q0 267 164.5 452.5t440.5 185.5q151 0 231 -55t80 -137q0 -52 -40.5 -90.5t-93.5 -38.5q-56 0 -91.5 36.5t-35.5 99.5l1 57q0 62 -76 62
q-108 0 -193 -101.5t-110 -303.5zM725 333q0 145 -44 217t-132 72q-93 0 -144.5 -74t-51.5 -200q0 -141 53.5 -223.5t138.5 -82.5q83 0 131.5 79.5t48.5 211.5z" />
    <glyph glyph-name="seven" unicode="7" horiz-adv-x="1088" 
d="M820 864h-351q-139 0 -178 -16t-86 -82q-37 -51 -52 -51q-28 0 -28 30q0 31 34.5 187t53 187t35.5 31q19 0 34 -29q10 -19 34.5 -29t145.5 -11.5t135 -1.5h398q-13 -44 -44 -104q-130 -246 -173 -407t-53 -376q-6 -141 -37.5 -194.5t-110.5 -53.5q-57 0 -95.5 36
t-38.5 92q0 53 31 143t136 278z" />
    <glyph glyph-name="eight" unicode="8" horiz-adv-x="1088" 
d="M724 622q112 -48 168 -122t56 -173q0 -145 -124.5 -248.5t-306.5 -103.5q-171 0 -281 81.5t-110 185.5q0 72 56.5 147t175.5 128q-99 48 -148.5 115t-49.5 154q0 147 114.5 237t283.5 90q161 0 257 -69t96 -175q0 -67 -41.5 -121.5t-145.5 -125.5zM649 657q50 34 83 88
t33 114q0 66 -54.5 129t-159.5 63q-97 0 -154.5 -55.5t-57.5 -119.5q0 -42 36 -89.5t190 -100.5q66 -22 84 -29zM428 484q-66 -52 -99 -111.5t-33 -127.5q0 -90 65 -147t166 -57q113 0 172 61.5t59 140.5q0 57 -46.5 107t-283.5 134z" />
    <glyph glyph-name="nine" unicode="9" horiz-adv-x="1088" 
d="M716 446q-56 -33 -117 -50t-127 -17q-154 0 -266 93.5t-112 253.5q0 163 125 269t315 106q220 0 339.5 -135.5t119.5 -351.5q0 -268 -165 -453t-440 -185q-157 0 -234 55.5t-77 136.5q0 51 40.5 90t93.5 39q47 0 86.5 -33t39.5 -104l-1 -56q0 -63 77 -63
q113 0 194.5 104.5t108.5 300.5zM364 743q0 -144 44 -216t132 -72q85 0 140.5 68t55.5 205q0 142 -53.5 224.5t-139.5 82.5q-83 0 -131 -79.5t-48 -212.5z" />
    <glyph glyph-name="colon" unicode=":" horiz-adv-x="491" 
d="M385 635q0 -57 -41 -98t-99 -41q-57 0 -98 40.5t-41 98.5t41 98.5t98 40.5q58 0 99 -40.5t41 -98.5zM385 120q0 -58 -41 -99t-99 -41q-57 0 -98 41t-41 99q0 57 41 98t98 41q58 0 99 -41t41 -98z" />
    <glyph glyph-name="semicolon" unicode=";" horiz-adv-x="555" 
d="M417 635q0 -57 -41 -98t-99 -41q-57 0 -98 41t-41 98t41 98t98 41q58 0 99 -40.5t41 -98.5zM448 73q0 -79 -59.5 -172.5t-151.5 -152t-124 -58.5q-22 0 -22 27q0 14 21 28q88 61 126 125t38 99q0 29 -45 40q-121 30 -121 121q0 56 47 92.5t103 36.5q86 0 137 -57t51 -129
z" />
    <glyph glyph-name="less" unicode="&#x3c;" horiz-adv-x="1365" 
d="M140 602l1087 456v-142l-911 -374l911 -374v-142l-1088 458z" />
    <glyph glyph-name="equal" unicode="=" horiz-adv-x="1365" 
d="M139 836h1088v-131h-1088v131zM139 376h1088v-131h-1088v131z" />
    <glyph glyph-name="greater" unicode="&#x3e;" horiz-adv-x="1365" 
d="M1225 482l-1086 -456v142l910 374l-910 374v142l1088 -457z" />
    <glyph glyph-name="question" unicode="?" horiz-adv-x="960" 
d="M323 636l-26 -274h-80l-7 419q110 -95 195 -95t139.5 88t54.5 221t-59 208t-127 75q-65 0 -65 -42q0 -7 3 -17q10 -29 10 -46q0 -48 -37 -82t-93 -34q-55 0 -88 32.5t-33 86.5q0 76 78.5 122t197.5 46q207 0 339.5 -128t132.5 -290q0 -143 -99 -242.5t-233 -99.5
q-118 0 -203 52zM417 120q0 -58 -41 -99t-99 -41q-57 0 -98 41t-41 99q0 57 41 98t98 41q58 0 99 -41t41 -98z" />
    <glyph glyph-name="at" unicode="@" horiz-adv-x="1899" 
d="M1179 925l244 10l-183 -628q-31 -103 -31 -154q0 -34 24 -57.5t58 -23.5q71 0 179 81t179.5 226t71.5 314q0 263 -171 447t-474 184q-230 0 -433.5 -110.5t-324.5 -335t-121 -477.5q0 -237 104 -416t283.5 -275t398.5 -96q270 0 498 150.5t318 400.5h61
q-115 -292 -348 -449.5t-534 -157.5q-376 0 -631 243t-255 635q0 402 269.5 676.5t697.5 274.5q215 0 380.5 -84.5t252 -245.5t86.5 -348q0 -289 -170 -499t-430 -210q-108 0 -155.5 54t-47.5 125q0 49 24 137q-183 -316 -345 -316q-80 0 -124 63t-44 163q0 154 69.5 318
t205 291.5t241.5 127.5q62 0 98 -39t45 -118zM1099 756q0 64 -20.5 99.5t-50.5 35.5q-85 0 -184.5 -235t-99.5 -378q0 -39 16 -67t42 -28q40 0 114 86.5t128.5 231t54.5 255.5z" />
    <glyph glyph-name="A" unicode="A" horiz-adv-x="1429" 
d="M660 1356h69q132 -286 373 -900q111 -282 153 -341.5t133 -72.5q30 -4 30 -26q0 -31 -39 -31q-21 0 -109 7q-104 9 -175 9q-69 0 -180 -8q-83 -6 -109 -6q-46 0 -46 29q0 22 32 25q123 11 123 96q0 40 -36 147.5t-77 195.5q-65 1 -101 1q-201 0 -313 -1
q-87 -237 -87 -314q0 -55 43 -85.5t93 -35.5q38 -4 38 -31t-41 -27q-16 0 -84 5q-88 7 -128 7q-79 0 -150 -10q-18 -3 -30 -3q-37 0 -37 30q0 22 24 29q60 17 94 42t73.5 96t94.5 227q124 350 369 946zM590 1007l-172 -446l352 5q-28 78 -86 214q-63 148 -94 227z" />
    <glyph glyph-name="B" unicode="B" horiz-adv-x="1301" 
d="M794 713q207 -44 310 -134.5t103 -228.5q0 -115 -75.5 -207t-185 -123.5t-318.5 -31.5q-51 0 -160 6q-90 5 -141 5q-68 0 -183 -9q-47 -4 -66 -4q-39 0 -39 29q0 22 31 26q63 8 91.5 21.5t46 45.5t17.5 104l8 467q0 218 -5 348.5t-17.5 168.5t-35 53t-67.5 18
q-40 2 -51.5 9t-11.5 23q0 21 23.5 26t132.5 5q200 0 374 14q103 8 165 8q184 0 294 -81.5t110 -218.5q0 -236 -350 -339zM519 728q344 0 344 297q0 131 -61 195.5t-142 64.5q-58 0 -141 -28q-8 -101 -8 -211q0 -93 8 -318zM519 651q-8 -211 -8 -352q0 -186 15 -213t95 -27
q144 0 215.5 77t71.5 212t-74 221.5t-225 86.5q-33 0 -90 -5z" />
    <glyph glyph-name="C" unicode="C" horiz-adv-x="1365" 
d="M1137 1229q21 26 44 58q27 39 45 39q20 0 26 -10t10 -62l20 -312l2 -40q0 -40 -32 -40q-21 0 -34 33q-41 106 -147.5 235.5t-268.5 129.5q-120 0 -201.5 -69.5t-127 -190.5t-45.5 -290q0 -289 127 -459.5t316 -170.5q205 0 376 248q21 30 40 30q32 0 32 -32
q0 -66 -157.5 -210t-394.5 -144q-314 0 -496 194t-182 477q0 282 183.5 489.5t463.5 207.5q197 0 401 -111z" />
    <glyph glyph-name="D" unicode="D" horiz-adv-x="1621" 
d="M788 -22q-44 0 -361 6l-220 -1l-129 2q-46 0 -57.5 5.5t-11.5 24.5q0 29 43 29q82 0 120 28t48 103t18.5 299t8.5 412q0 265 -25.5 325.5t-126.5 65.5q-36 3 -36 30t32 27q19 0 129 -11q122 -11 170 -11l379 8q190 0 366 -72.5t279.5 -237t103.5 -372.5
q0 -154 -60.5 -287.5t-175.5 -224.5t-228 -119.5t-266 -28.5zM720 51q210 0 332 147t122 420q0 277 -131.5 456.5t-373.5 179.5q-83 0 -99.5 -9.5t-20.5 -19.5t-12 -224l-12 -339q-3 -125 -3 -310q0 -139 12 -191.5t53 -81t133 -28.5z" />
    <glyph glyph-name="E" unicode="E" horiz-adv-x="1344" 
d="M1152 1310q32 -156 63 -312q0 -29 -29 -29q-16 0 -36 28q-103 150 -188.5 198t-246.5 48q-90 0 -174 -15q-18 -177 -18 -388q0 -36 2 -121l76 -1q71 0 122.5 19.5t87.5 83t41 81.5q9 32 31 32q28 0 28 -24q0 -7 -2 -16q-12 -62 -12 -371q0 -43 7 -78q2 -10 2 -17
q0 -28 -32 -28q-22 0 -34 53q-20 93 -91 141.5t-224 50.5q-5 -168 -5 -221q0 -228 7 -271t51 -69.5t149 -26.5q381 0 501 242q17 34 37 34q29 0 29 -24q0 -16 -6 -41l-65 -287l-362 1q-153 1 -285.5 7t-207.5 6q-84 0 -253 -10q-21 -2 -31 -2q-47 0 -47 31q0 28 38 28
q97 0 130.5 52.5t33.5 214.5l6 515q0 264 -6.5 324.5t-34.5 82t-105 32.5q-32 4 -32 28q0 30 37 30l241 -8z" />
    <glyph glyph-name="F" unicode="F" horiz-adv-x="1259" 
d="M1189 1314l51 -302l2 -14q0 -29 -21 -29q-14 0 -28 22q-77 120 -174 186.5t-313 66.5q-149 0 -167 -31.5t-18 -492.5q111 0 170.5 15.5t92 54.5t59.5 144q7 28 23 28q30 0 30 -38l-7 -319q-3 -166 -9 -178.5t-22 -12.5q-25 0 -30 40q-11 93 -63.5 146.5t-243.5 53.5
l-1 -371q0 -109 15.5 -155t46.5 -62.5t97 -18.5q48 -1 61 -6.5t13 -24.5q0 -32 -45 -32q-41 0 -156 7q-97 6 -146 6l-316 -11q-48 0 -48 29q0 27 59 29q102 4 122 91t20 632q0 354 -25.5 422t-124.5 68l-27 -1q-36 0 -36 30q0 28 58 28h1101z" />
    <glyph glyph-name="G" unicode="G" horiz-adv-x="1664" 
d="M1421 1219l29 -290q2 -20 2 -32q0 -31 -27 -31q-25 0 -42 35q-78 161 -205.5 262t-293.5 101q-214 0 -334.5 -179t-120.5 -423q0 -272 133.5 -445.5t314.5 -173.5q77 0 156.5 35.5t102 76t22.5 116.5q0 168 -13.5 209.5t-44.5 57.5t-126 27q-37 4 -37 29q0 29 35 29h151
l461 11q31 0 31 -26q0 -15 -12 -20.5t-84 -20.5q-54 -12 -69 -36t-23 -302q-2 -62 -4 -69.5t-118.5 -68t-240 -90t-245.5 -29.5q-206 0 -368 81t-261 228.5t-99 351.5q0 288 198.5 497.5t543.5 209.5q122 0 220.5 -29.5t223.5 -84.5q25 -11 43 -11q20 0 31 29q14 38 37 38
q27 0 33 -63z" />
    <glyph glyph-name="H" unicode="H" horiz-adv-x="1579" 
d="M1063 716l9 304q0 128 -26 182t-109 57q-68 3 -68 32q0 31 40 31q46 0 140 -5q121 -6 135 -6q170 0 298 8q24 2 34 2q38 0 38 -28q0 -31 -43 -32q-70 -1 -99.5 -19t-41 -55.5t-18.5 -264t-7 -311.5q0 -352 4.5 -431t36 -110t107.5 -31q47 0 47 -30q0 -26 -36 -26
q-12 0 -52 3l-277 9q-25 0 -96 -4q-136 -9 -176 -9q-36 0 -36 29q0 26 30 26q72 0 105 25t48 115t15 359q0 28 -2 84q-175 5 -310 5q-155 0 -245 -10q-12 -201 -12 -364q0 -116 25.5 -161t106.5 -49q39 -2 39 -29q0 -28 -41 -28q-15 0 -44 3q-119 11 -249 11q-61 0 -163 -6
q-72 -5 -93 -5q-52 0 -52 30q0 24 41 29q77 8 104.5 33t41 94.5t16 396.5t2.5 357q0 148 -10.5 214.5t-35.5 89.5t-77 29q-40 6 -50 11.5t-10 23.5q0 30 34 30q43 0 145 -8q57 -4 129 -4l282 9q49 0 49 -31q0 -30 -40 -30q-66 0 -91 -16t-37 -63t-12 -182l2 -284
q127 -13 274 -13q146 0 281 13z" />
    <glyph glyph-name="I" unicode="I" horiz-adv-x="789" 
d="M108 1323q35 0 144 -5q83 -4 132 -4l307 8q39 0 39 -27q0 -24 -35 -28q-79 -8 -105.5 -29.5t-41 -99.5t-14.5 -353q0 -316 10 -488.5t40.5 -213t101.5 -40.5q49 0 49 -26q0 -35 -53 -35q-15 0 -44 1q-188 13 -257 13q-151 0 -223 -9q-38 -4 -54 -4q-37 0 -37 29
q0 23 31 27q85 11 114.5 47.5t35.5 175.5t6 432q0 309 -11 413.5t-36.5 128.5t-97.5 30q-38 3 -38 31q0 26 37 26z" />
    <glyph glyph-name="J" unicode="J" horiz-adv-x="960" 
d="M570 1313l291 8q48 0 48 -29q0 -27 -46 -29q-66 -4 -97 -41t-36.5 -212t-5.5 -330l2 -207q0 -199 -47.5 -292t-151 -153.5t-231.5 -60.5q-138 0 -221 67t-83 161q0 61 43.5 108t116.5 47q66 0 103.5 -37t37.5 -85q0 -28 -29 -82q-22 -39 -22 -57q0 -25 16 -37.5t47 -12.5
q79 0 113 76.5t34 376.5q0 621 -17 696t-150 78q-41 1 -41 28q0 30 44 30q10 0 72 -4q130 -7 210 -7z" />
    <glyph glyph-name="K" unicode="K" horiz-adv-x="1429" 
d="M511 691q110 90 253 254t165.5 197t22.5 53q0 51 -93 70q-40 8 -40 33q0 30 38 30q13 0 34 -2q77 -11 221 -11q37 0 117 6q76 5 102 5q43 0 43 -30q0 -26 -41 -31q-57 -6 -115 -31.5t-139 -91t-168 -159.5l-197 -217l67 2q115 0 192 -49t109.5 -119t74.5 -246
q32 -131 53 -183t65.5 -89.5t97.5 -41.5q45 -4 45 -25q0 -30 -43 -30q-12 0 -35 2q-87 10 -180 10q-99 0 -197 -12q-34 53 -51.5 113t-53.5 289q-27 169 -74.5 227.5t-106.5 58.5q-71 0 -166 -92l-2 -258q0 -178 20 -222t109 -55q47 -6 47 -26q0 -35 -42 -35q-20 0 -59 4
q-101 11 -240 11q-90 0 -206 -13q-40 -4 -58 -4q-34 0 -34 33q0 16 11 22t51 10q48 6 69.5 25.5t31 66t15 224.5t5.5 394q0 218 -5.5 308t-22.5 132.5t-37.5 54t-83.5 17.5q-32 2 -32 28q0 31 50 31q36 0 108 -6q89 -8 146 -8q35 0 199 9q48 2 74 2q38 0 38 -27
q0 -28 -39 -32q-67 -6 -87 -32t-22 -80.5t-4 -463.5z" />
    <glyph glyph-name="L" unicode="L" horiz-adv-x="1280" 
d="M1183 -12q-250 13 -778 13q-184 0 -299 -11q-28 -2 -41 -2q-38 0 -38 30q0 14 10 19.5t49 11.5q62 9 95 36.5t46.5 82t15.5 278t2 531.5q0 123 -18 178.5t-51.5 81t-94.5 28.5q-43 2 -43 32t49 30l332 -9q77 0 215 7q50 2 68 2q42 0 42 -29q0 -16 -13.5 -22.5
t-67.5 -14.5q-67 -9 -94.5 -34t-37 -87t-9.5 -278v-607q1 -140 25 -166.5t91 -26.5q164 0 244 25.5t152.5 92.5t155.5 225q17 32 35 32q27 0 27 -29q0 -65 -69 -420z" />
    <glyph glyph-name="M" unicode="M" horiz-adv-x="1920" 
d="M521 1315q26 -62 96 -196.5t138.5 -273t154.5 -291.5q69 -121 78 -142q251 561 380 903q240 0 443 12q19 1 28 1q41 0 41 -32q0 -28 -32 -28q-114 0 -149.5 -77.5t-35.5 -377.5l-1 -490q0 -150 39.5 -210t128.5 -63q43 -1 43 -29q0 -15 -18 -25l-281 2q-129 0 -353 -9
q-19 13 -19 28q0 23 52 31q53 9 76.5 26t35.5 63t12 135l4 447q0 343 1 395q-272 -632 -337 -807l-101 -271q-17 -43 -34 -43q-18 0 -43 53q-73 154 -521 1017q-5 -248 -5 -669q0 -222 25 -280.5t140 -68.5q38 -4 38 -28q0 -26 -31 -26q-11 0 -24 1q-120 8 -172 8
q-142 0 -215 -10q-14 -2 -21 -2q-35 0 -35 29q0 14 8.5 19.5t45.5 13.5q96 18 125.5 69t29.5 167l5 571q0 195 -10 258t-49 97t-127 51q-33 7 -33 33q0 28 36 28q8 0 22 -1q102 -8 421 -8z" />
    <glyph glyph-name="N" unicode="N" horiz-adv-x="1557" 
d="M416 1321q479 -545 799 -874q1 68 1 88l1 396q0 140 -16 200.5t-68 95.5t-121 41q-37 4 -37 31q0 29 34 29q19 0 49 -4q57 -7 167 -7q138 0 210 8q30 3 51 3q38 0 38 -29q0 -28 -51 -33q-63 -6 -117.5 -53t-54.5 -185l5 -566l-7 -426q0 -55 -34 -55q-9 0 -21 6
t-137.5 138.5t-373 411t-347.5 399.5q-2 -27 -2 -503q0 -147 12.5 -230.5t78 -121t118.5 -37.5q34 0 34 -26q0 -30 -36 -30q-23 0 -58 4q-60 8 -153 8q-149 0 -216 -9q-42 -5 -60 -5q-39 0 -39 33q0 24 63 29q113 9 141.5 78t28.5 188q0 516 -5.5 631t-72 208t-160.5 111
q-39 7 -39 31q0 33 41 33q10 0 29 -2q23 -2 83 -2q130 0 242 -3z" />
    <glyph glyph-name="O" unicode="O" horiz-adv-x="1579" 
d="M805 1338q202 0 353.5 -81t243 -234.5t91.5 -334.5q0 -280 -209 -496.5t-518 -216.5q-281 0 -480.5 179t-199.5 484q0 288 206.5 494t512.5 206zM1154 658q0 303 -103 456t-261 153q-157 0 -260 -153.5t-103 -455.5q0 -290 98.5 -450t264.5 -160q147 0 255.5 144.5
t108.5 465.5z" />
    <glyph glyph-name="P" unicode="P" horiz-adv-x="1323" 
d="M511 617l-1 -380q0 -120 34 -155.5t103 -37.5q46 -1 58 -7.5t12 -24.5q0 -26 -58 -26q-26 0 -121 6q-128 7 -179 7q-56 0 -154 -7q-81 -6 -118 -6q-32 0 -32 28q0 22 55 30t78 28.5t33.5 72t11.5 275t1 393.5l-1 315q0 64 -31 102.5t-109 38.5q-35 0 -35 28q0 33 62 33
l26 -1q56 -3 130 -3l408 6q310 0 432.5 -93t122.5 -259t-131.5 -266.5t-429.5 -100.5q-69 0 -167 4zM511 688q57 -5 88 -5q159 0 238 96t79 229q0 126 -72.5 189t-178.5 63q-55 0 -154 -17v-555z" />
    <glyph glyph-name="Q" unicode="Q" horiz-adv-x="1579" 
d="M869 4q-90 -21 -156 -21q-153 0 -300 78t-237 232t-90 346q0 289 210.5 494t502.5 205q324 0 509.5 -192t185.5 -461q0 -114 -35.5 -219t-105 -196.5t-172.5 -169.5t-235 -142l-287 -136q49 6 73 6q65 0 132.5 -26t195.5 -102q90 -53 112.5 -61.5t61.5 -8.5
q111 0 187 118q18 27 39 27q37 0 37 -40q0 -32 -116.5 -155.5t-291.5 -123.5q-166 0 -347 112q-133 83 -186.5 110.5t-93.5 27.5q-52 0 -77 -30.5t-27 -101.5q-3 -70 -26 -95.5t-73 -25.5q-42 0 -70.5 25.5t-28.5 61.5q0 154 389 320q250 107 320 144zM1154 658
q0 303 -103 456t-261 153q-157 0 -260 -153.5t-103 -455.5q0 -290 98.5 -450t264.5 -160q147 0 255.5 144.5t108.5 465.5z" />
    <glyph glyph-name="R" unicode="R" horiz-adv-x="1429" 
d="M785 671q135 -19 222.5 -81.5t131.5 -248.5q41 -174 88 -229.5t132 -60.5q47 -3 47 -30q0 -29 -76 -29l-385 9q-60 60 -82 214q-28 197 -58 278t-90 116t-139 35q-23 0 -63 -3q0 -352 2.5 -433.5t32.5 -117t114 -39.5q45 -3 45 -30t-39 -27l-307 8q-62 0 -159 -5
q-89 -5 -113 -5q-41 0 -41 29q0 28 36 28q56 0 103.5 28t47.5 237l-1 186l1 359q0 278 -24.5 339.5t-131.5 63.5q-42 1 -42 29q0 29 56 29q282 0 478 12q87 6 157 6q227 0 356 -90.5t129 -236.5q0 -98 -61 -176t-152.5 -116t-214.5 -48zM513 713q26 -1 39 -1
q87 0 175.5 32.5t125 104t36.5 152.5q0 125 -74 195t-191 70q-49 0 -111 -18v-535z" />
    <glyph glyph-name="S" unicode="S" 
d="M823 1274q13 13 26 40q15 32 34 32q27 0 33 -44l35 -274l4 -33q0 -27 -27 -27q-20 0 -29 9.5t-34 61.5q-43 89 -142 160t-199 71q-97 0 -161.5 -55.5t-64.5 -139.5q0 -67 60 -121t231 -102q268 -76 363 -188q94 -112 94 -249q0 -140 -69 -235t-165 -149.5t-246 -54.5
q-85 0 -176 24.5t-188 73.5q-20 -23 -34 -60q-16 -41 -40 -41q-25 0 -30 54l-29 363q-2 24 -2 30q0 29 30 29q22 0 42 -50q61 -150 166 -250q104 -100 243 -100q118 0 190.5 70t72.5 159t-67 150t-241 117q-169 55 -251.5 105t-132 137.5t-49.5 177.5q0 157 121.5 267
t330.5 110q113 0 301 -68z" />
    <glyph glyph-name="T" unicode="T" horiz-adv-x="1536" 
d="M80 1330q519 -14 768 -14q189 0 416 11q81 4 133 4q20 0 67 -1q7 -41 18 -169l15 -158q0 -39 -33 -39q-25 0 -48 48q-38 81 -97.5 139t-138 77t-259.5 19q-16 -153 -16 -383q0 -235 9 -453.5t22 -263.5t44 -66t146 -29q39 -3 39 -28q0 -28 -34 -28l-28 1l-207 5
q-242 0 -294 -2l-126 -5q-15 0 -62 2q-23 5 -23 25q0 29 38 29q89 0 134 37t55.5 117.5t10.5 349.5q0 425 -26 692q-165 0 -238.5 -13.5t-141.5 -74t-111 -156.5q-17 -38 -39 -38q-34 0 -34 30q0 9 12.5 131.5t28.5 203.5z" />
    <glyph glyph-name="U" unicode="U" horiz-adv-x="1557" 
d="M83 1331l322 -11q46 0 105 5q94 7 148 7q51 0 51 -28q0 -27 -40 -29q-72 -4 -107.5 -51.5t-45.5 -195t-10 -324.5q0 -284 27 -381.5t116 -155.5t236 -58q149 0 225 63.5t104.5 199.5t28.5 505q0 218 -34 301t-116 91q-59 6 -59 35t48 29q23 0 77 -6q56 -5 117 -5
q56 0 125 6q52 4 72 4q50 0 50 -29q0 -23 -36 -27q-50 -5 -90.5 -46.5t-52 -137t-11.5 -490.5q0 -260 -52 -376.5t-181.5 -181t-322.5 -64.5q-149 0 -259 26.5t-174.5 81.5t-93 127t-28.5 212l4 533q0 112 -12.5 184t-39.5 95.5t-82 29.5q-35 4 -43.5 10.5t-8.5 21.5
q0 30 43 30z" />
    <glyph glyph-name="V" unicode="V" horiz-adv-x="1429" 
d="M746 -29h-79l-184 480q-69 182 -175 444.5t-136 304.5t-54.5 55.5t-74.5 17.5q-32 1 -32 27q0 29 38 29l270 -9q141 0 279 10q38 2 46 2q48 0 48 -33q0 -22 -43 -27q-114 -14 -114 -103q0 -154 263 -828q88 221 168 446l98 275q17 50 17 96q0 47 -32.5 80t-73.5 34
q-46 2 -46 27q0 32 37 32q28 0 70 -3q85 -7 153 -7q71 0 126 7q41 5 68 5q35 0 35 -31q0 -26 -35 -31q-53 -8 -91 -36.5t-74.5 -91.5t-121.5 -284l-178 -459q-128 -336 -172 -429z" />
    <glyph glyph-name="W" unicode="W" horiz-adv-x="2176" 
d="M801 -29h-73l-250 559q-150 333 -231 490t-121 191.5t-89 47.5q-31 8 -31 30q0 16 11.5 21.5t61.5 5.5l252 -5q46 0 123 4q111 6 171 6q36 0 36 -29q0 -27 -43 -30q-43 -4 -77 -30.5t-34 -65.5q0 -31 18.5 -79t155.5 -352l170 -369l216 583q-20 43 -65.5 153t-72.5 131
t-88 30q-33 5 -33 29q0 16 12.5 21t88.5 5l239 -5l195 5q102 0 115 -3t13 -24q0 -27 -37 -27q-65 0 -96 -32t-31 -75q0 -122 280 -769q58 142 150 396t103 294t11 76q0 56 -35 82t-69 27q-50 3 -50 28q0 27 45 27l169 -5q99 0 172 6q41 3 55 3q39 0 39 -28q0 -25 -41 -29
t-72 -23t-74.5 -83.5t-125.5 -279.5l-169 -450l-170 -458h-71q-23 47 -168 438q-76 202 -171 425l-166 -452z" />
    <glyph glyph-name="X" unicode="X" horiz-adv-x="1536" 
d="M805 842q215 265 215 332q0 34 -22.5 54t-91.5 35q-32 6 -32 31q0 26 38 26q23 0 77 -4q75 -5 127 -5q72 0 189 6q55 3 68 3q48 0 48 -29q0 -26 -37 -28q-68 -2 -137.5 -41t-128 -106.5t-265.5 -336.5q113 -194 263 -410t224 -267.5t130 -57.5q47 -5 47 -30
q0 -28 -48 -28l-369 12q-72 0 -143 -5q-62 -3 -80 -4q-43 0 -53 -1q-15 -2 -23 -2q-29 0 -29 28q0 25 34 28q110 10 110 77q0 77 -246 421q-263 -337 -263 -402q0 -70 160 -93q35 -5 35 -26q0 -30 -36 -30q-17 0 -91 4q-89 5 -178 5q-84 0 -131 -4q-60 -6 -80 -6
q-58 0 -58 31q0 23 31 27q91 12 144.5 43t131 126.5t290.5 390.5q-253 413 -352.5 527t-208.5 130q-40 6 -40 31q0 29 37 29q19 0 52 -4q64 -7 277 -7q89 0 215 6q76 4 88 4q54 0 54 -28t-43 -30q-25 -2 -66 -16.5t-41 -45.5q0 -28 42 -100.5t166 -259.5z" />
    <glyph glyph-name="Y" unicode="Y" horiz-adv-x="1472" 
d="M822 733q279 364 279 445q0 23 -15.5 47t-89.5 45q-30 8 -30 28q0 31 36 31q10 0 27 -2q128 -11 195 -11q73 0 173 10q19 2 32 2q29 0 29 -27q0 -25 -29 -28q-67 -7 -123.5 -44.5t-137 -143t-179 -249.5t-108.5 -175.5t-10 -217.5q0 -282 25.5 -338.5t126.5 -56.5
q36 0 36 -29q0 -30 -40 -30q-30 0 -165 9q-77 5 -110 5q-109 0 -247 -13q-26 -2 -41 -2q-38 0 -38 29q0 25 29 28q98 12 123.5 65.5t25.5 235.5q0 164 -19 218.5t-110 202t-181.5 283t-139 173.5t-104.5 48q-28 5 -28 27q0 31 35 31q16 0 50 -3q155 -11 227 -11
q114 0 256 11q29 2 49 2q34 0 34 -26q0 -25 -37 -29q-103 -10 -103 -73q0 -67 297 -467z" />
    <glyph glyph-name="Z" unicode="Z" horiz-adv-x="1387" 
d="M870 1233q-212 14 -305 14q-259 0 -386 -231q-32 -57 -59 -57q-29 0 -29 30q0 10 6 28q3 10 32 124q9 33 57 183l526 -12q443 0 520 20l6 2q18 0 18 -20q0 -19 -324 -497q-206 -303 -487 -751h214q180 0 268 20t185.5 97.5t142.5 157.5q19 34 44 34q26 0 26 -29
q0 -15 -9 -39q-46 -136 -88 -307h-1117q-34 0 -34 13q0 16 95 169t698 1051z" />
    <glyph glyph-name="bracketleft" unicode="[" horiz-adv-x="1045" 
d="M320 -333q279 96 429 96q101 0 176.5 -63t75.5 -126q0 -37 -20 -78.5t-45 -41.5q-26 0 -26 25l3 19l2 9q0 23 -27.5 34t-131.5 11q-224 0 -453 -23q-24 -3 -41 -3q-20 0 -30.5 20t-16 218t-5.5 521q0 554 4 760.5t15.5 229t32.5 22.5q17 0 41 -3q229 -23 454 -23
q100 0 129 11t29 34l-2 9q-3 15 -3 20q0 24 26 24q25 0 45 -41.5t20 -77.5q0 -64 -76 -127t-175 -63q-151 0 -430 97q-2 -35 -2 -41l8 -472l-2 -535l-6 -402q0 -6 2 -40z" />
    <glyph glyph-name="backslash" unicode="\" horiz-adv-x="1088" 
d="M252 1426l720 -1463h-136l-720 1463h136z" />
    <glyph glyph-name="bracketright" unicode="]" horiz-adv-x="1045" 
d="M726 1157q-279 -97 -430 -97q-100 0 -175.5 63t-75.5 126q0 31 18.5 75.5t45.5 44.5q26 0 26 -24q0 -5 -3 -20l-1 -9q0 -22 27.5 -33.5t131.5 -11.5q224 0 452 23q24 3 42 3q20 0 30.5 -19.5t16 -218t5.5 -521.5q0 -554 -4.5 -760t-16 -229t-31.5 -23q-18 0 -42 3
q-228 23 -453 23q-100 0 -129 -10.5t-29 -34.5l1 -9l3 -19q0 -25 -25 -25q-29 0 -47 45t-18 74q0 64 75.5 127t174.5 63q152 0 431 -96q1 34 1 40l-7 472l2 536l5 401q0 6 -1 41z" />
    <glyph glyph-name="asciicircum" unicode="^" horiz-adv-x="1195" 
d="M149 666l411 718h82l404 -718h-159l-295 512l-290 -512h-153z" />
    <glyph glyph-name="underscore" unicode="_" horiz-adv-x="1024" 
d="M-12 -154h1048v-102h-1048v102z" />
    <glyph glyph-name="grave" unicode="`" horiz-adv-x="683" 
d="M158 1362q44 0 88 -45t133 -177.5t89 -143.5t-13.5 -23t-25.5 -12q-23 0 -143 95l-154 121q-60 47 -60 100q0 34 26.5 59.5t59.5 25.5z" />
    <glyph glyph-name="a" unicode="a" horiz-adv-x="981" 
d="M547 96q-62 -59 -125 -88.5t-127 -29.5q-102 0 -157.5 61.5t-55.5 149.5q0 68 33.5 121.5t83 83t163.5 70.5q96 34 128.5 53.5t54.5 57t22 97.5q0 66 -33 105.5t-91 39.5q-50 0 -71 -25q-21 -26 -32 -83q-23 -114 -123 -114q-41 0 -70 24t-29 69q0 96 104.5 143.5
t249.5 47.5q125 0 203.5 -38t100.5 -88t22 -156l-2 -237q0 -187 12.5 -240t53.5 -53q6 0 16 1q20 2 27 2q41 0 41 -23q0 -15 -17 -25.5t-102.5 -26.5t-154.5 -16t-94.5 26.5t-30.5 90.5zM560 496q-24 -29 -115 -77q-83 -44 -111 -78q-28 -35 -28 -101q0 -70 29.5 -106.5
t72.5 -36.5q58 0 108 53.5t50 188.5q0 42 -6 157z" />
    <glyph glyph-name="b" unicode="b" horiz-adv-x="1131" 
d="M405 807q55 34 114 50.5t122 16.5q171 0 288 -125.5t117 -312.5q0 -126 -57.5 -228.5t-158.5 -167t-233 -64.5q-90 0 -157 24.5t-161 84.5q-13 8 -20 8q-21 0 -31 -39q-19 -67 -42 -67q-18 0 -22.5 15t-4.5 133l8 726q0 373 -8 408t-76 42q-43 4 -43 29q0 27 39 27
q22 0 95 -5q55 -3 96 -3l100 3q37 0 37 -28l1 -48q0 -409 -3 -479zM579 799q-62 0 -112 -43t-63 -204.5t-13 -251.5q0 -143 52.5 -200.5t124.5 -57.5q91 0 148 105t57 267t-51 273.5t-143 111.5z" />
    <glyph glyph-name="c" unicode="c" horiz-adv-x="960" 
d="M86 423q0 188 129 322t324 134q128 0 225.5 -61.5t97.5 -145.5q0 -50 -29.5 -78.5t-74.5 -28.5q-86 0 -123 124q-20 68 -44 97q-25 29 -72 29q-82 0 -123.5 -82t-41.5 -246q0 -188 68 -300.5t176 -112.5q144 0 203 171q19 54 45 54q28 0 28 -30q0 -87 -88.5 -188.5
t-264.5 -101.5q-193 0 -314 125.5t-121 318.5z" />
    <glyph glyph-name="d" unicode="d" horiz-adv-x="1131" 
d="M719 783q0 289 -3 385.5t-16 113t-71 26.5q-39 6 -39 28q0 17 13.5 21.5t86.5 4.5h264l-2 -710l-5 -441q0 -102 17.5 -129t80.5 -35q37 -4 37 -28q0 -26 -39 -26h-324v137q-43 -77 -105 -115.5t-144 -38.5q-153 0 -268.5 119t-115.5 307q0 206 132 338.5t294 132.5
q61 0 112.5 -22.5t94.5 -67.5zM356 431q0 -191 50.5 -279.5t128.5 -88.5q75 0 128.5 84.5t53.5 305.5q0 180 -45 270t-136 90q-90 0 -135 -95.5t-45 -286.5z" />
    <glyph glyph-name="e" unicode="e" horiz-adv-x="981" 
d="M350 456q-1 -29 -1 -42q0 -142 69.5 -240.5t187.5 -98.5q121 0 238 105q24 21 34 21q26 0 26 -28q0 -22 -60 -79t-147 -86t-180 -29q-204 0 -319.5 124.5t-115.5 293.5q0 203 132.5 340.5t330.5 137.5q186 0 283.5 -125t97.5 -238q0 -36 -19 -43t-123 -7zM356 529
q148 -2 171 -2q113 0 138.5 16t25.5 65q0 82 -47 145t-112 63q-154 0 -176 -287z" />
    <glyph glyph-name="f" unicode="f" horiz-adv-x="683" 
d="M436 862q137 0 178.5 -6t41.5 -20q0 -7 -11.5 -38.5t-19 -38t-26.5 -6.5l-163 -3q-4 -419 -4 -472q0 -136 29 -178t104 -53q46 -6 46 -30q0 -26 -48 -26q-28 0 -95 5q-64 5 -120 5q-70 0 -167 -7q-64 -4 -82 -4q-38 0 -38 28q0 19 24 25q70 17 87 40t21 120t4 547
q-30 1 -79 1q-75 0 -75 23q0 13 10 42t26.5 35t117.5 11q0 259 120 381.5t333 122.5q139 0 202 -48t63 -105q0 -37 -28 -63.5t-75 -26.5q-81 0 -145 108q-30 52 -50 63t-45 11q-70 0 -105 -75.5t-31 -367.5z" />
    <glyph glyph-name="g" unicode="g" horiz-adv-x="1152" 
d="M796 787q118 104 206 104q59 0 96.5 -34t37.5 -78q0 -37 -26 -67.5t-71 -30.5q-63 0 -91 68q-19 45 -37 45q-21 0 -79 -48q53 -80 53 -172q0 -94 -54 -172.5t-130.5 -111.5t-217.5 -46q-121 -11 -147 -37q-27 -27 -27 -60q0 -40 55 -52q54 -12 299 -19q376 -12 376 -247
q0 -160 -140.5 -265.5t-424.5 -105.5q-214 0 -309 62.5t-95 146.5q0 89 77.5 150.5t232.5 96.5q-118 12 -177 51.5t-59 107.5q0 72 55 121t164 75q-114 35 -171.5 102t-57.5 167q0 145 116 243.5t286 98.5q81 0 146 -23t114 -70zM374 578q0 -129 43.5 -199.5t103.5 -70.5
q62 0 93 60.5t31 181.5q0 128 -37.5 201t-96.5 73q-60 0 -98.5 -66t-38.5 -180zM267 -307q0 -68 67.5 -119t190.5 -51q149 0 247.5 68t98.5 161q0 75 -79 110.5t-203 35.5q-147 0 -234.5 -58.5t-87.5 -146.5z" />
    <glyph glyph-name="h" unicode="h" horiz-adv-x="1131" 
d="M422 1364q-4 -100 -4 -172l1 -267q0 -172 3 -211q59 81 131.5 121.5t159.5 40.5q70 0 133 -32.5t97.5 -108t34.5 -263.5l-3 -314q0 -103 81 -111q32 -3 32 -27q0 -29 -34 -29q-9 0 -27 2q-71 8 -207 8q-23 0 -83 -6q-42 -4 -73 -4q-41 0 -41 27q0 23 46 30t59 57t13 303
q0 231 -23.5 302t-95.5 71q-60 0 -118 -60.5t-76 -168.5t-18 -266q0 -81 8 -141.5t22.5 -75.5t49.5 -20q38 -4 38 -32q0 -26 -43 -26q-32 0 -93 6q-50 5 -89 5q-79 0 -147 -8q-34 -4 -89 -4q-29 0 -29 28q0 23 41 29q51 6 70.5 42.5t26.5 263.5t7 694q0 143 -22 185.5
t-74 59.5q-50 16 -50 37q0 27 43 27q153 0 342 8z" />
    <glyph glyph-name="i" unicode="i" horiz-adv-x="619" 
d="M414 1217q0 -59 -42.5 -101.5t-101.5 -42.5q-60 0 -102 42.5t-42 101.5q0 60 42 102t102 42q59 0 101.5 -42t42.5 -102zM428 879q4 -140 4 -499l-3 -215q0 -65 21.5 -87t70.5 -29q56 -7 56 -32q0 -27 -44 -27q-21 0 -73 3q-110 7 -218 7q-53 0 -108 -5q-33 -4 -45 -4
q-44 0 -44 27q0 26 58 31q77 7 86 51.5t9 180.5q0 176 -5.5 323.5t-20.5 168.5t-78 28q-49 5 -49 29t50 28l21 2z" />
    <glyph glyph-name="j" unicode="j" horiz-adv-x="619" 
d="M422 1222q0 -59 -42.5 -101.5t-101.5 -42.5t-101.5 42.5t-42.5 101.5q0 60 42 102t102 42q59 0 101.5 -42t42.5 -102zM436 877v-855q0 -181 -29 -295t-122 -192t-219 -78q-105 0 -168 51t-63 118q0 50 34 90.5t89 40.5t84 -32t29 -67q0 -24 -26 -78q-7 -16 -7 -28
q0 -14 14 -21.5t41 -7.5q121 0 121 221q0 16 -4.5 174.5t-4.5 596.5q0 171 -3 209t-24.5 61.5t-75.5 23.5q-57 0 -57 25q0 31 70 31q94 0 321 12z" />
    <glyph glyph-name="k" unicode="k" horiz-adv-x="1131" 
d="M418 1364v-911q71 43 180.5 148.5t109.5 150.5q0 38 -94 48q-48 5 -48 30q0 24 40 24q24 0 53 -2q80 -4 145 -4q43 0 90 2q66 4 87 4q36 0 36 -27q0 -25 -61 -32q-51 -5 -98 -35.5t-125 -111.5q-59 -61 -69 -68q64 -36 120.5 -100.5t112.5 -263.5q24 -87 37.5 -113.5
t46.5 -41.5t93 -16q29 -1 29 -28q0 -26 -33 -26q-7 0 -19 1q-113 8 -171 8q-50 0 -143 -13q-49 49 -70 168q-26 147 -66.5 194.5t-117.5 77.5q-30 -25 -65 -49q2 -266 20.5 -294t72.5 -33q47 -5 47 -34q0 -28 -43 -28q-13 0 -35 2q-107 11 -149 11q-65 0 -174 -9
q-39 -3 -53 -3q-48 0 -48 29q0 25 39 30q79 10 86 58t7 304l-7 693q0 99 -22 127t-75 37q-44 8 -44 30q0 25 47 28q163 11 331 38z" />
    <glyph glyph-name="l" unicode="l" horiz-adv-x="619" 
d="M419 1367l3 -839q1 -402 21 -439t80 -40q70 -3 70 -28q0 -31 -43 -31q-12 0 -35 2q-97 8 -188 8q-148 0 -219 -7q-20 -2 -36 -2q-45 0 -45 27q0 26 51 29q55 3 80.5 20t31 47.5t5.5 142.5l-4 393l3 312q0 194 -18.5 235.5t-109.5 56.5q-55 8 -55 32q0 15 12.5 20.5
t61.5 9.5q205 17 334 51z" />
    <glyph glyph-name="m" unicode="m" horiz-adv-x="1685" 
d="M419 723q72 78 145.5 116.5t149.5 38.5q54 0 114 -22t131 -103q72 63 148 94.5t156 31.5q137 0 201 -74q63 -75 63 -222l-5 -338q0 -143 14 -164.5t76 -30.5q35 -6 35 -27q0 -31 -41 -31q-7 0 -20 1q-84 7 -183 7q-54 0 -130 -5q-47 -3 -54 -3q-50 0 -50 28q0 25 33 29
q57 8 70 20t20 92.5t7 271.5q0 175 -9 240t-41 99.5t-80 34.5q-43 0 -87.5 -32.5t-91.5 -98.5q-31 -155 -31 -445q0 -123 18 -149t82 -33q38 -4 38 -26q0 -31 -48 -31q-11 0 -77 4q-91 5 -129 5q-65 0 -154 -7q-23 -2 -35 -2q-44 0 -44 29q0 26 43 29q57 4 72 63.5t15 416.5
q0 147 -26 202.5t-85 55.5q-102 0 -161 -108t-59 -417q0 -145 18.5 -177.5t69.5 -35.5q38 -2 38 -26q0 -32 -41 -32q-8 0 -28 3q-52 6 -178 6q-112 0 -173 -7q-24 -2 -36 -2q-33 0 -33 29q0 27 37 29q60 3 74 21t21 100.5t7 310.5q0 178 -4.5 223t-33 69t-78.5 25
q-41 1 -41 27t41 28q53 3 157 13.5t180 10.5q12 -29 12 -96q0 -17 1 -59z" />
    <glyph glyph-name="n" unicode="n" 
d="M407 684q68 96 147.5 144t170.5 48q76 0 139 -39t85.5 -93t22.5 -153l-9 -399q0 -82 15 -109t63 -35q40 -7 40 -32q0 -26 -39 -26q-33 0 -145 8q-39 2 -63 2q-23 0 -132 -9h-49q-41 0 -41 27q0 22 37 29q34 7 54 23t26.5 157t6.5 280q0 154 -24.5 211t-93.5 57
q-85 0 -157.5 -124.5t-72.5 -382.5q0 -100 10 -145t24.5 -56.5t61.5 -19.5q28 -5 28 -29q0 -28 -41 -28q-20 0 -44 2q-96 9 -104 9q-144 0 -236 -10q-15 -2 -24 -2q-37 0 -37 29q0 25 33 29q51 6 69 28t26.5 137.5t8.5 275.5q0 204 -15 252.5t-72 70.5q-41 16 -41 31
q0 24 59 24q166 0 269 13q38 -87 44 -195z" />
    <glyph glyph-name="o" unicode="o" 
d="M1026 452q0 -184 -137 -327t-348 -143q-194 0 -326 120t-132 320q0 203 139.5 328.5t339.5 125.5q203 0 333.5 -118.5t130.5 -305.5zM750 384q0 164 -54.5 296.5t-156.5 132.5q-90 0 -139 -92.5t-49 -259.5q0 -182 55.5 -298.5t152.5 -116.5q95 0 143 93t48 245z" />
    <glyph glyph-name="p" unicode="p" 
d="M390 749q54 61 115 91.5t129 30.5q140 0 266.5 -123.5t126.5 -316.5q0 -181 -125.5 -313.5t-296.5 -132.5q-61 0 -118 17.5t-111 52.5q0 -400 22 -466.5t118 -70.5q35 -1 35 -27q0 -27 -47 -27q-27 0 -83 3q-117 8 -204 8q-59 0 -143 -7q-41 -3 -52 -3q-52 0 -52 26
q0 24 56 29q91 9 109 111.5t18 700.5l-6 326q0 95 -23 123t-73 33q-38 4 -38 28q0 29 43 29q177 0 334 8l2 -100q0 -6 -2 -30zM745 396q0 182 -53.5 282.5t-139.5 100.5q-88 0 -132.5 -107t-44.5 -322q0 -170 43 -233.5t137 -63.5q95 0 142.5 86t47.5 257z" />
    <glyph glyph-name="q" unicode="q" horiz-adv-x="1131" 
d="M867 761q21 34 32.5 66t38.5 32q20 0 25.5 -18t5.5 -93l-2 -255q0 -842 15.5 -903.5t101.5 -65.5q46 -1 46 -28q0 -13 -9.5 -21.5t-63.5 -8.5q-13 0 -50 3q-50 5 -164 5q-50 0 -119 -4q-71 -5 -101 -5q-47 0 -47 30q0 25 49 28q67 5 89.5 37.5t22.5 108.5l-1 179l-1 161
v26q-53 -26 -106.5 -39t-106.5 -13q-196 0 -313.5 128t-117.5 301q0 186 129.5 325.5t339.5 139.5q179 0 307 -116zM373 436q0 -194 57 -289.5t149 -95.5q94 0 126.5 71.5t32.5 237.5q0 291 -39.5 376t-131.5 85q-97 0 -145.5 -96t-48.5 -289z" />
    <glyph glyph-name="r" unicode="r" horiz-adv-x="832" 
d="M391 677q50 101 115 151t145 50q76 0 121.5 -44t45.5 -110q0 -52 -32.5 -88.5t-79.5 -36.5q-35 0 -58 18t-49 64q-36 66 -63 66q-37 0 -84 -75t-47 -291q0 -273 18.5 -303.5t81.5 -30.5q55 0 55 -30q0 -28 -54 -28q-30 0 -87 6q-52 5 -98 5q-99 0 -196 -7q-41 -3 -48 -3
q-42 0 -42 31q0 27 49 29q48 2 67 22.5t19 89.5l4 250q0 76 -6 189t-11 134.5t-25.5 38.5t-55.5 20q-36 4 -45.5 9.5t-9.5 22.5q0 27 50 28q92 1 313 24z" />
    <glyph glyph-name="s" unicode="s" horiz-adv-x="853" 
d="M767 279q0 -72 -37.5 -140t-113 -112.5t-176.5 -44.5q-126 0 -213 52q-38 22 -49 22q-13 0 -20 -17q-16 -40 -38 -40q-13 0 -18.5 10t-9 89.5t-3.5 188.5q0 42 24 42t51 -62q96 -225 262 -225q58 0 98.5 30t40.5 87q0 48 -37.5 82.5t-143.5 86.5q-160 79 -219 138
q-60 59 -60 157q0 113 87 183.5t214 70.5q101 0 205 -60q14 -8 23 -8q13 0 20 22q10 28 29 28q13 0 18 -9t14 -93.5t9 -140.5q0 -39 -23 -39q-24 0 -49 56q-85 186 -245 186q-58 0 -94 -29t-36 -62q0 -42 46 -77q46 -36 179 -97q114 -52 158.5 -80.5t75.5 -82t31 -112.5z
" />
    <glyph glyph-name="t" unicode="t" horiz-adv-x="789" 
d="M451 862q61 3 187 3q57 0 94 -10q-15 -75 -26.5 -80t-254.5 -19l-11 -441q0 -94 9.5 -138t43.5 -74t88 -30q46 0 131 49q13 7 22 7q19 0 19 -20q0 -29 -81 -79t-190 -50q-129 0 -202.5 63t-73.5 266q0 224 8 447q-99 0 -140 5t-41 29q0 20 47 32q93 21 166.5 76
t125.5 175q21 49 28.5 59.5t21.5 10.5q29 0 29 -48v-233z" />
    <glyph glyph-name="u" unicode="u" 
d="M380 859q5 -103 5 -281q0 -270 5 -345.5t39.5 -113.5t78.5 -38q52 0 105.5 39t79 102t25.5 206l2 221q0 88 -9.5 116t-64.5 30q-60 3 -60 31q0 17 14.5 21.5t76.5 4.5q139 0 259 7q4 -39 4 -427q0 -312 6 -340.5t65 -33.5q35 -4 35 -29q0 -29 -40 -29q-8 0 -25 1
q-28 2 -66 2q-133 0 -147 -1q-16 -1 -27 -1q-19 0 -23.5 6.5t-4.5 38.5q0 52 7 105q-69 -84 -145.5 -126t-160.5 -42q-255 0 -255 286v309q0 160 -11.5 187.5t-60.5 34.5q-44 6 -44 26q0 27 39 27q268 0 298 6z" />
    <glyph glyph-name="v" unicode="v" horiz-adv-x="1024" 
d="M610 266q65 139 121 292.5t56 190.5q0 40 -46 52q-44 12 -44 33q0 25 36 25q18 0 74 -5q51 -4 71 -4q44 0 82 6q21 3 33 3q31 0 31 -28q0 -21 -42 -28q-95 -15 -158 -176q-72 -183 -137.5 -339t-100.5 -225.5t-42.5 -75t-18.5 -5.5q-13 0 -25 19t-103 201l-231 460
q-50 99 -76 118.5t-45 24.5q-39 9 -39 28q0 28 38 28q16 0 50 -3q81 -8 158 -8q31 0 70 3q71 7 85 7q66 0 66 -23q0 -28 -37 -32q-52 -5 -52 -49q0 -26 84 -206t142 -284z" />
    <glyph glyph-name="w" unicode="w" horiz-adv-x="1472" 
d="M1114 292q37 83 98 261.5t61 194.5q0 41 -62 49q-47 7 -47 33q0 28 37 28q15 0 37 -2q42 -5 72 -5q31 0 80 4q35 3 40 3q33 0 33 -30q0 -19 -34 -29q-37 -11 -64.5 -41t-60.5 -131l-204 -554q-31 -95 -59 -95q-22 0 -43 49l-209 457l-23 53l-142 -344
q-79 -187 -90 -200.5t-22 -13.5q-21 0 -43 51q-37 85 -90 194l-220 450q-41 82 -60 101.5t-51 25.5q-38 7 -38 31q0 27 41 27q25 0 90 -5q49 -4 91 -4q53 0 154 7q29 2 46 2q45 0 45 -30q0 -25 -44 -29q-53 -5 -53 -44q0 -36 213 -480q119 277 119 344q0 50 -28.5 107
t-78.5 72q-33 10 -33 33q0 27 37 27q12 0 41 -2q82 -6 180 -6q40 0 110 6q28 2 45 2q35 0 35 -28q0 -24 -36 -30q-60 -9 -60 -47q0 -34 21 -81q85 -191 169 -381z" />
    <glyph glyph-name="x" unicode="x" 
d="M588 543l49 59q86 102 101.5 125t15.5 40q0 29 -69 38q-35 4 -35 29q0 27 48 27q14 0 48 -4q43 -6 89 -6t86 5q26 4 33 4q38 0 38 -25t-50 -30q-36 -3 -60.5 -16.5t-71.5 -66.5l-105 -120l-84 -101l235 -306q55 -71 96.5 -100.5t92.5 -40.5q44 -9 44 -31q0 -30 -46 -30
q-24 0 -84 5q-55 4 -162 4q-100 0 -177 -7q-32 -3 -46 -3q-40 0 -40 28q0 24 48 31q62 10 62 40q0 23 -43 79q-38 49 -46 62q-8 10 -17 22l-58 74l-109 -127q-64 -75 -64 -103q0 -23 18.5 -32.5t79.5 -17.5q35 -5 35 -28q0 -28 -47 -28q-12 0 -33 2q-50 6 -125 6
q-48 0 -143 -8q-9 -1 -14 -1q-42 0 -42 30q0 24 53 30q53 7 95.5 33t90.5 88q6 9 14 18l155 184l-239 309q-51 65 -77 87t-73 35q-33 9 -33 27q0 29 40 29q15 0 66 -4q65 -6 101 -6q140 0 223 8q21 2 34 2q36 0 36 -29q0 -21 -54 -31q-40 -8 -40 -26q0 -27 51 -88
q11 -13 19 -25z" />
    <glyph glyph-name="y" unicode="y" horiz-adv-x="1024" 
d="M608 221l82 228q67 189 67 259q0 83 -94 96q-42 7 -42 29q0 28 41 28q16 0 58 -5q44 -5 104 -5q40 0 97 6q48 6 55 6q48 0 48 -30q0 -17 -31 -25q-77 -21 -114 -85.5t-156 -402.5q-155 -439 -224.5 -587t-154 -211t-180.5 -63q-86 0 -134.5 42.5t-48.5 109.5
q0 43 34.5 81.5t90.5 38.5q90 0 114 -107q13 -54 40 -54q68 0 146.5 138.5t78.5 206.5q0 34 -62.5 183.5t-168 387.5t-134.5 273.5t-67 44.5q-39 8 -39 28q0 29 51 29q12 0 81 -7q42 -5 108 -5q109 0 191 8l43 4q40 0 40 -27q0 -26 -48 -35q-32 -6 -50 -27.5t-18 -41.5
q0 -22 53.5 -167t142.5 -342z" />
    <glyph glyph-name="z" unicode="z" horiz-adv-x="939" 
d="M820 0h-678q-56 0 -68.5 3.5t-12.5 16.5q0 10 10 26q11 15 25 40q6 11 18 29l155 241q174 270 259 446q-110 0 -181.5 -17t-105.5 -43t-105 -120q-22 -30 -39 -30q-30 0 -30 30q0 11 7 28q24 63 57 209h559q99 0 117 -5.5t18 -18.5q0 -9 -32 -64l-80 -135l-358 -573
q195 3 248.5 10t94.5 40t97 121q34 53 53 53q28 0 28 -30q0 -16 -18 -84q-22 -80 -38 -173z" />
    <glyph glyph-name="braceleft" unicode="{" horiz-adv-x="811" 
d="M720 1338v-46q-101 -16 -148 -71t-47 -117q0 -65 23 -163q25 -103 25 -174q0 -100 -76.5 -192.5t-249.5 -135.5q186 -54 257 -147t71 -185q0 -55 -24 -156q-25 -101 -25 -170q0 -159 194 -198v-46q-89 0 -146 13t-124 58.5t-105 113t-38 136.5q0 64 31 184q23 90 23 156
q0 178 -196 209v61q105 15 150.5 79.5t45.5 138.5q0 65 -22 150q-31 119 -31 178q0 117 105.5 218.5t306.5 105.5z" />
    <glyph glyph-name="bar" unicode="|" horiz-adv-x="1088" 
d="M478 1366h132v-1908h-132v1908z" />
    <glyph glyph-name="braceright" unicode="}" horiz-adv-x="811" 
d="M91 -463v45q101 17 148 72t47 117q0 65 -23 162q-25 104 -25 174q0 100 76.5 193t249.5 135q-186 55 -257.5 147.5t-71.5 184.5q0 55 25 156q24 101 24 171q0 159 -193 197v47q89 0 145.5 -13t124 -59t105.5 -113.5t38 -135.5q0 -65 -31 -185q-23 -89 -23 -155
q0 -178 196 -210v-61q-105 -15 -150.5 -79.5t-45.5 -137.5q0 -66 22 -151q30 -119 30 -178q0 -90 -63.5 -172.5t-149 -114.5t-198.5 -36z" />
    <glyph glyph-name="asciitilde" unicode="~" horiz-adv-x="1365" 
d="M1171 695h52q-4 -142 -77 -223.5t-182 -81.5q-54 0 -114 18.5t-261 102.5q-149 62 -213 62q-148 0 -181 -181h-52q6 158 81.5 231.5t168.5 73.5q101 0 381 -121q150 -65 216 -65q74 0 123.5 48.5t57.5 135.5z" />
    <glyph glyph-name="nonbreakingspace" unicode="&#xa0;" horiz-adv-x="544" 
 />
    <glyph glyph-name="exclamdown" unicode="&#xa1;" horiz-adv-x="576" 
d="M427 721q0 -57 -41 -98t-98 -41q-58 0 -99 41t-41 98q0 58 41 99t99 41q57 0 98 -41t41 -99zM319 479l64 -377q62 -361 62 -441q0 -73 -48 -118t-109 -45q-67 0 -112.5 48t-45.5 113q0 62 126 820h63z" />
    <glyph glyph-name="cent" unicode="&#xa2;" horiz-adv-x="960" 
d="M697 850q165 -64 165 -178q0 -50 -30 -78.5t-74 -28.5q-82 0 -119 113l-183 -537q59 -67 142 -67q144 0 203 171q19 54 45 54q28 0 28 -30q0 -87 -88.5 -188.5t-264.5 -101.5q-60 0 -116 15l-98 -290l-64 22l99 288q-122 51 -189 160.5t-67 248.5q0 183 125.5 319.5
t327.5 136.5q48 0 95 -10l99 288l63 -18zM409 210l192 562q-29 43 -82 43q-82 0 -123.5 -82t-41.5 -247q0 -168 55 -276z" />
    <glyph glyph-name="sterling" unicode="&#xa3;" horiz-adv-x="1792" 
d="M975 427l384 31l43 3q22 0 22 -23v-42q0 -20 -5.5 -25t-33.5 -7l-433 -33q-41 -166 -156 -326q205 -44 336 -44q336 0 408 157q23 49 45 49q27 0 27 -35q0 -194 -101 -289t-258 -95q-67 0 -150.5 21.5t-377.5 158.5q-196 -182 -412 -182q-102 0 -181.5 49.5t-79.5 136.5
q0 84 70 131.5t182 47.5q123 0 310 -58q32 96 61 260l-353 -27q-25 -2 -39 -2t-17.5 4.5t-3.5 24.5v27q0 24 6 29.5t32 7.5l392 28q12 53 53.5 257.5t97.5 330t138 209t176 125t196 41.5q170 0 281 -99.5t111 -252.5q0 -131 -79.5 -228.5t-205.5 -97.5q-75 0 -124.5 30.5
t-49.5 49.5q0 27 27 27q9 0 24 -6q59 -25 86 -25q71 0 106.5 64.5t35.5 192.5q0 124 -55 201t-155 77q-68 0 -126 -32t-93.5 -87.5t-50 -110t-38.5 -215.5q-30 -207 -72 -429zM587 -17q-140 53 -220 53q-70 0 -105 -27.5t-35 -83.5q0 -39 35 -71.5t94 -32.5q149 0 231 162z
" />
    <glyph glyph-name="currency" unicode="&#xa4;" horiz-adv-x="1408" 
d="M977 903l127 127l88 -90l-126 -126q90 -125 90 -272q0 -148 -90 -272l126 -126l-88 -89l-127 126q-62 -45 -130.5 -68t-142.5 -23q-148 0 -272 90l-126 -125l-90 89l127 125q-91 125 -91 273q0 147 91 272l-127 126l89 90l127 -126q64 45 132 67.5t140 22.5
q139 0 273 -91zM1029 542q0 135 -95 230t-230 95t-230 -95t-95 -230t95 -230.5t230 -95.5q134 0 229.5 96t95.5 230z" />
    <glyph glyph-name="yen" unicode="&#xa5;" horiz-adv-x="1472" 
d="M1010 991q91 137 91 187q0 23 -15.5 47t-89.5 45q-30 8 -30 28q0 31 36 31q10 0 27 -2q128 -11 195 -11q73 0 173 10q19 2 32 2q29 0 29 -27q0 -25 -29 -28q-84 -9 -149.5 -64.5t-180.5 -217.5h344v-75h-398q-120 -170 -142.5 -209t-26.5 -78h567v-75h-571
q-1 -46 -1 -111q0 -282 25.5 -338.5t126.5 -56.5q36 0 36 -29q0 -30 -40 -30q-30 0 -165 9q-77 5 -110 5q-109 0 -247 -13q-26 -2 -41 -2q-38 0 -38 29q0 25 29 28q98 12 123.5 65.5t25.5 235.5q0 157 -15 208h-552v75h528q-85 154 -184 287h-344v75h296
q-105 162 -159.5 215t-123.5 65q-28 5 -28 27q0 31 35 31q16 0 50 -3q155 -11 227 -11q114 0 256 11q29 2 49 2q34 0 34 -26q0 -25 -37 -29q-103 -10 -103 -73q0 -45 112 -209h373zM958 916h-269l133 -183q80 103 136 183z" />
    <glyph glyph-name="brokenbar" unicode="&#xa6;" horiz-adv-x="1088" 
d="M478 1366h132v-725h-132v725zM478 182h132v-724h-132v724z" />
    <glyph glyph-name="section" unicode="&#xa7;" horiz-adv-x="1024" 
d="M722 2q93 -138 93 -260q0 -137 -82.5 -212.5t-222.5 -75.5q-120 0 -188.5 50t-68.5 132q0 61 41 104t103 43q47 0 74 -28t27 -58q0 -38 -34 -71q-35 -34 -35 -55q0 -25 21 -38t63 -13q67 0 101.5 41t34.5 90q0 77 -58.5 168.5t-279.5 335.5q-117 128 -172 223.5
t-55 194.5q0 108 64 167t149 66q-81 142 -81 269q0 114 83 203.5t224 89.5q122 0 192.5 -61t70.5 -136q0 -65 -44 -105.5t-92 -40.5q-45 0 -76.5 26.5t-31.5 68.5q0 45 53 88q29 24 29 39q0 23 -26.5 39.5t-62.5 16.5q-61 0 -101 -43.5t-40 -104.5q0 -95 52 -185t231 -304
q155 -186 207 -274.5t52 -175.5q0 -80 -56 -139t-158 -75zM679 61q48 2 77 24t29 49q0 38 -24.5 77.5t-93.5 121.5l-264 311q-75 88 -115 88q-22 0 -41.5 -21t-19.5 -45q0 -53 60 -138t185 -226q119 -133 207 -241z" />
    <glyph glyph-name="dieresis" unicode="&#xa8;" horiz-adv-x="683" 
d="M250 1142q0 -50 -35.5 -85.5t-85.5 -35.5q-49 0 -84.5 35.5t-35.5 85.5q0 49 35.5 84.5t84.5 35.5q50 0 85.5 -35.5t35.5 -84.5zM674 1142q0 -50 -35.5 -85.5t-84.5 -35.5q-50 0 -85.5 35.5t-35.5 85.5q0 49 35.5 84.5t85.5 35.5q49 0 84.5 -35.5t35.5 -84.5z" />
    <glyph glyph-name="copyright" unicode="&#xa9;" horiz-adv-x="1536" 
d="M768 1338q179 0 347 -91t265.5 -260.5t97.5 -358.5q0 -292 -208.5 -500.5t-501.5 -208.5q-292 0 -500.5 208.5t-208.5 500.5q0 294 208.5 502t500.5 208zM768 1248q-255 0 -437.5 -181.5t-182.5 -438.5q0 -255 182.5 -437.5t437.5 -182.5q256 0 438 182.5t182 437.5
q0 167 -84.5 313t-229.5 226.5t-306 80.5zM1103 1056v-264h-38q-17 101 -86.5 158.5t-159.5 57.5q-117 0 -187.5 -91.5t-70.5 -272.5q0 -213 77.5 -293.5t175.5 -80.5q148 0 261 138v-70q-121 -127 -318 -127q-180 0 -300.5 110.5t-120.5 297.5q0 193 127 316t313 123
q86 0 197 -41q32 -11 46 -11q39 0 46 50h38z" />
    <glyph glyph-name="ordfeminine" unicode="&#xaa;" horiz-adv-x="619" 
d="M336 850q-35 -28 -73 -42.5t-79 -14.5q-72 0 -110 39t-38 92q0 62 41.5 98t147.5 71q72 24 97 45.5t25 70.5q0 40 -16 59.5t-49 19.5q-28 0 -38 -12q-11 -12 -19 -47q-16 -72 -90 -72q-76 0 -76 61q0 59 70 89.5t169 30.5q84 0 137.5 -24t68 -55t14.5 -94l-1 -140
q0 -113 5.5 -139.5t24.5 -26.5l30 2q36 0 36 -21q0 -17 -59 -31.5t-121 -14.5q-46 0 -67 10.5t-30 45.5zM343 1084q-14 -9 -34 -19q-69 -33 -87 -51.5t-18 -59.5q0 -39 13.5 -58.5t39.5 -19.5q32 0 60.5 29.5t28.5 108.5q0 25 -3 70z" />
    <glyph glyph-name="guillemotleft" unicode="&#xab;" horiz-adv-x="1088" 
d="M59 431q337 282 429 380q17 17 52 17q25 0 25 -12l-3 -9q-13 -20 -101 -178l-119 -198q53 -83 103 -171l87 -154l35 -64q0 -11 -14 -11q-35 0 -43.5 7t-99.5 87zM521 431q123 102 271 232.5t158.5 147.5t52.5 17q24 0 24 -12l-3 -9q-13 -20 -101 -178l-119 -198
q54 -83 103 -171l87 -154l35 -64q0 -11 -13 -11q-31 0 -40 5t-149 128z" />
    <glyph glyph-name="logicalnot" unicode="&#xac;" horiz-adv-x="1365" 
d="M139 836h1088v-591h-132v460h-956v131z" />
    <glyph glyph-name="registered" unicode="&#xae;" horiz-adv-x="1536" 
d="M768 1338q179 0 347 -91t265.5 -260.5t97.5 -358.5q0 -292 -208.5 -500.5t-501.5 -208.5q-292 0 -500.5 208.5t-208.5 500.5q0 294 208.5 502t500.5 208zM768 1248q-255 0 -437.5 -181.5t-182.5 -438.5q0 -255 182.5 -437.5t437.5 -182.5q256 0 438 182.5t182 437.5
q0 167 -84.5 313t-229.5 226.5t-306 80.5zM389 1041h362q134 0 200 -20t110.5 -75t44.5 -125q0 -78 -44.5 -130t-134.5 -77l137 -249q52 -96 105 -100v-33h-242l-205 368h-46v-199q0 -84 22.5 -108.5t97.5 -27.5v-33h-423v33q57 0 81 22t24 114v472q0 89 -20 109t-69 24v35z
M676 650q34 -4 56 -4q64 0 111.5 48t47.5 131q0 86 -44 128.5t-133 42.5h-38v-346z" />
    <glyph glyph-name="degree" unicode="&#xb0;" horiz-adv-x="811" 
d="M405 1384q140 0 243 -99t103 -247q0 -142 -101.5 -244t-244.5 -102q-144 0 -245 101.5t-101 244.5q0 148 103 247t243 99zM405 1254q-88 0 -151.5 -62.5t-63.5 -152.5q0 -89 63.5 -152t151.5 -63q89 0 152 63.5t63 151.5q0 92 -64 153.5t-151 61.5z" />
    <glyph glyph-name="plusminus" unicode="&#xb1;" horiz-adv-x="1365" 
d="M139 806h478v478h132v-478h478v-131h-478v-478h-132v478h-478v131zM139 131h1088v-131h-1088v131z" />
    <glyph glyph-name="twosuperior" unicode="&#xb2;" horiz-adv-x="811" 
d="M631 694h-468q-53 0 -62 3.5t-9 16.5q0 16 40 42q187 122 271 226q83 104 83 217q0 51 -27.5 80t-66.5 29q-68 0 -117 -67.5t-49 -126.5q0 -26 8 -39t24 -13q13 0 41 15q23 12 32 12q23 0 23 -23q0 -25 -46 -53t-94 -28t-82 34.5t-34 84.5q0 95 95 180t242 85
q126 0 187.5 -47.5t61.5 -122.5q0 -81 -67.5 -155.5t-273.5 -203.5h136q96 0 118.5 7.5t64.5 62.5q13 17 31 17q25 0 25 -21q0 -7 -33 -84z" />
    <glyph glyph-name="threesuperior" unicode="&#xb3;" horiz-adv-x="811" 
d="M516 1067q74 0 123.5 -38.5t49.5 -109.5q0 -101 -102.5 -173.5t-257.5 -72.5q-123 0 -173 42t-50 85q0 37 29 64.5t70 27.5q34 0 54.5 -19.5t20.5 -41.5q0 -15 -11 -38q-6 -15 -6 -25q0 -19 15.5 -28.5t46.5 -9.5q84 0 129.5 85t45.5 150q0 26 -15 42.5t-32 16.5
q-18 0 -62 -25q-35 -20 -46 -20q-24 0 -24 23q0 17 46 46q79 49 99 90.5t20 70.5q0 35 -19 65t-57 30q-57 0 -97 -38.5t-40 -91.5q0 -29 16 -29q8 0 18 5q13 6 23 6q23 0 23 -24q0 -15 -34 -33.5t-67 -18.5q-36 0 -62.5 28t-26.5 66q0 83 91 138.5t213 55.5q99 0 148 -41
t49 -97q0 -40 -31.5 -76.5t-116.5 -86.5z" />
    <glyph glyph-name="acute" unicode="&#xb4;" horiz-adv-x="683" 
d="M524 1362q34 0 60 -25.5t26 -57.5q0 -61 -105 -138q-82 -60 -155 -120t-97 -60q-12 0 -25.5 12t-13.5 23t89.5 144.5t133 177.5t87.5 44z" />
    <glyph glyph-name="mu" unicode="&#xb5;" horiz-adv-x="1131" 
d="M128 935h235v-614q0 -80 8.5 -118.5t40 -66t77.5 -27.5q48 0 89.5 30.5t76.5 90.5v705h236v-625q0 -91 4.5 -118.5t29.5 -50.5t59 -23q82 0 94 149h43q-1 -146 -80 -220.5t-177 -74.5q-76 0 -126 39.5t-75 117.5q-68 -78 -140.5 -117.5t-150.5 -39.5q-35 0 -72 14t-77 42
q0 -92 35 -219q23 -84 23 -118q0 -60 -32 -96t-86 -36q-108 0 -108 120q0 41 24 135q32 125 40.5 198t8.5 247v676z" />
    <glyph glyph-name="paragraph" unicode="&#xb6;" horiz-adv-x="1557" 
d="M1356 1325v-41q-94 -16 -125 -46.5t-38.5 -62.5t-7.5 -190v-1433h-108v1710q-25 2 -42 2q-58 0 -130 -15v-1697h-108v707l-71 -1q-276 0 -399 155.5t-123 355.5q0 204 108 336t279 176t607 44h158z" />
    <glyph glyph-name="cedilla" unicode="&#xb8;" horiz-adv-x="683" 
d="M409 32q-27 -60 -42 -100q75 0 112.5 -35.5t37.5 -76.5q0 -77 -86 -126.5t-250 -49.5q-47 0 -47 29q0 28 62 36q101 12 101 66q0 47 -69 48q56 70 114 209h67z" />
    <glyph glyph-name="onesuperior" unicode="&#xb9;" horiz-adv-x="811" 
d="M169 1275q0 30 55 31q126 2 224 50q27 13 36 13q18 0 18 -24l-2 -98l3 -209l-1 -113q0 -102 13.5 -134t54.5 -36q46 -5 58 -11t12 -23q0 -27 -39 -27l-182 1l-119 -1l-38 1l-55 -2q-32 0 -32 27q0 26 54 32q66 8 79 45.5t13 272.5q0 122 -20 147.5t-82 29.5q-50 3 -50 28
z" />
    <glyph glyph-name="ordmasculine" unicode="&#xba;" horiz-adv-x="704" 
d="M666 1081q0 -111 -91.5 -197.5t-231.5 -86.5q-141 0 -223 78.5t-82 188.5q0 121 93 197.5t226 76.5q144 0 226.5 -75.5t82.5 -181.5zM465 1041q0 99 -34 172.5t-89 73.5q-52 0 -80 -53.5t-28 -146.5q0 -82 28 -160.5t92 -78.5q60 0 85.5 59t25.5 134z" />
    <glyph glyph-name="guillemotright" unicode="&#xbb;" horiz-adv-x="1088" 
d="M1029 429q-337 -282 -429 -380q-17 -18 -53 -18q-25 0 -25 13l4 9q13 20 101 177l118 199q-53 83 -102 170l-87 154l-35 65q0 10 13 10q36 0 44.5 -6.5t99.5 -86.5zM567 429q-123 -102 -271 -233t-158.5 -148t-52.5 -17q-25 0 -25 13l4 9q13 20 101 177l118 199
q-53 83 -102 170l-88 154l-34 65q0 10 13 10q31 0 39.5 -4.5t149.5 -127.5z" />
    <glyph glyph-name="onequarter" unicode="&#xbc;" horiz-adv-x="1707" 
d="M169 1275q0 30 55 31q126 2 224 50q27 13 36 13q18 0 18 -24l-2 -98l3 -209l-1 -113q0 -102 13.5 -134t54.5 -36q46 -5 58 -11t12 -23q0 -27 -39 -27l-182 1l-119 -1l-38 1l-55 -2q-32 0 -32 27q0 26 54 32q66 8 79 45.5t13 272.5q0 122 -20 147.5t-82 29.5q-50 3 -50 28
zM1331 1368l-839 -1397h-116l839 1397h116zM948 210l17 72q135 149 247.5 247t153.5 122.5t67 24.5q24 0 24 -27q0 -268 3 -359q86 0 106 14t25 60q4 45 26 45q29 0 29 -33l-1 -49l1 -105q0 -51 -5 -66t-21 -15q-24 0 -28 35q-4 32 -26.5 42t-105.5 10q0 -128 10 -150
t57 -26q42 -4 42 -26q0 -30 -48 -30l-231 1l-60 1l-30 -1q-38 0 -38 27q0 21 46 29q48 8 64.5 37t18.5 138q-210 -6 -343 -18zM1291 287q2 98 2 117q0 27 -2 114q-155 -140 -244 -237z" />
    <glyph glyph-name="onehalf" unicode="&#xbd;" horiz-adv-x="1707" 
d="M169 1275q0 30 55 31q126 2 224 50q27 13 36 13q18 0 18 -24l-2 -98l3 -209l-1 -113q0 -102 13.5 -134t54.5 -36q46 -5 58 -11t12 -23q0 -27 -39 -27l-182 1l-119 -1l-38 1l-55 -2q-32 0 -32 27q0 26 54 32q66 8 79 45.5t13 272.5q0 122 -20 147.5t-82 29.5q-50 3 -50 28
zM1331 1368l-839 -1397h-116l839 1397h116zM1526 0h-468q-52 0 -61.5 3.5t-9.5 16.5q0 16 41 42q187 122 271 226q83 103 83 217q0 51 -27.5 80t-67.5 29q-68 0 -117 -67t-49 -127q0 -26 8.5 -39t24.5 -13q13 0 40 14q23 13 33 13q23 0 23 -23q0 -25 -46 -53t-94 -28
t-82.5 34.5t-34.5 84.5q0 89 90.5 177t247.5 88q125 0 187 -47.5t62 -122.5q0 -80 -68.5 -156.5t-272.5 -202.5h135q96 0 119 7t64 63q14 17 31 17q25 0 25 -21q0 -7 -33 -84z" />
    <glyph glyph-name="threequarters" unicode="&#xbe;" horiz-adv-x="1707" 
d="M1331 1368l-839 -1397h-116l839 1397h116zM516 1067q74 0 123.5 -38.5t49.5 -109.5q0 -101 -102.5 -173.5t-257.5 -72.5q-123 0 -173 42t-50 85q0 37 29 64.5t70 27.5q34 0 54.5 -19.5t20.5 -41.5q0 -15 -11 -38q-6 -15 -6 -25q0 -19 15.5 -28.5t46.5 -9.5q84 0 129.5 85
t45.5 150q0 26 -15 42.5t-32 16.5q-18 0 -62 -25q-35 -20 -46 -20q-24 0 -24 23q0 17 46 46q79 49 99 90.5t20 70.5q0 35 -19 65t-57 30q-57 0 -97 -38.5t-40 -91.5q0 -29 16 -29q8 0 18 5q13 6 23 6q23 0 23 -24q0 -15 -34 -33.5t-67 -18.5q-36 0 -62.5 28t-26.5 66
q0 83 91 138.5t213 55.5q99 0 148 -41t49 -97q0 -40 -31.5 -76.5t-116.5 -86.5zM949 210l17 72q135 149 247.5 247t153 122.5t66.5 24.5q25 0 25 -27q0 -295 3 -359q85 0 105 14t25 60q5 45 27 45q29 0 29 -33l-2 -49l2 -105q0 -51 -5 -66t-21 -15q-25 0 -29 35
q-4 32 -26 42t-105 10q0 -128 10 -150t57 -26q42 -4 42 -26q0 -30 -48 -30l-231 1l-61 1l-29 -1q-39 0 -39 27q0 21 46 29q48 8 65 37t19 138q-210 -6 -343 -18zM1292 287q2 98 2 117q0 27 -2 114q-156 -140 -244 -237z" />
    <glyph glyph-name="questiondown" unicode="&#xbf;" horiz-adv-x="960" 
d="M821 722q0 -58 -41 -99t-98 -41q-58 0 -98.5 41t-40.5 99q0 57 40.5 98t98.5 41t98.5 -41t40.5 -98zM636 206l26 274h80l7 -420q-110 96 -195 96q-84 0 -139 -87.5t-55 -222.5q0 -130 58.5 -206t127.5 -76q66 0 66 42q0 6 -4 17q-9 29 -9 46q0 47 36.5 81t92.5 34
q55 0 88 -33t33 -86q0 -75 -79 -121t-196 -46q-203 0 -338 126.5t-135 291.5q0 141 99 241.5t233 100.5q118 0 203 -52z" />
    <glyph glyph-name="Agrave" unicode="&#xc0;" horiz-adv-x="1429" 
d="M660 1356h69q132 -286 373 -900q111 -282 153 -341.5t133 -72.5q30 -4 30 -26q0 -31 -39 -31q-21 0 -109 7q-104 9 -175 9q-69 0 -180 -8q-83 -6 -109 -6q-46 0 -46 29q0 22 32 25q123 11 123 96q0 40 -36 147.5t-77 195.5q-65 1 -101 1q-201 0 -313 -1
q-87 -237 -87 -314q0 -55 43 -85.5t93 -35.5q38 -4 38 -31t-41 -27q-16 0 -84 5q-88 7 -128 7q-79 0 -150 -10q-18 -3 -30 -3q-37 0 -37 30q0 22 24 29q60 17 94 42t73.5 96t94.5 227q124 350 369 946zM590 1007l-172 -446l352 5q-28 78 -86 214q-63 148 -94 227zM502 1772
q44 0 88 -45t133 -177.5t89 -143.5t-13.5 -23t-25.5 -12q-23 0 -143 95l-154 121q-60 47 -60 100q0 34 26.5 59.5t59.5 25.5z" />
    <glyph glyph-name="Aacute" unicode="&#xc1;" horiz-adv-x="1429" 
d="M660 1356h69q132 -286 373 -900q111 -282 153 -341.5t133 -72.5q30 -4 30 -26q0 -31 -39 -31q-21 0 -109 7q-104 9 -175 9q-69 0 -180 -8q-83 -6 -109 -6q-46 0 -46 29q0 22 32 25q123 11 123 96q0 40 -36 147.5t-77 195.5q-65 1 -101 1q-201 0 -313 -1
q-87 -237 -87 -314q0 -55 43 -85.5t93 -35.5q38 -4 38 -31t-41 -27q-16 0 -84 5q-88 7 -128 7q-79 0 -150 -10q-18 -3 -30 -3q-37 0 -37 30q0 22 24 29q60 17 94 42t73.5 96t94.5 227q124 350 369 946zM590 1007l-172 -446l352 5q-28 78 -86 214q-63 148 -94 227zM928 1772
q34 0 60 -25.5t26 -57.5q0 -61 -105 -138q-82 -60 -155 -120t-97 -60q-12 0 -25.5 12t-13.5 23t89.5 144.5t133 177.5t87.5 44z" />
    <glyph glyph-name="Acircumflex" unicode="&#xc2;" horiz-adv-x="1429" 
d="M660 1356h69q132 -286 373 -900q111 -282 153 -341.5t133 -72.5q30 -4 30 -26q0 -31 -39 -31q-21 0 -109 7q-104 9 -175 9q-69 0 -180 -8q-83 -6 -109 -6q-46 0 -46 29q0 22 32 25q123 11 123 96q0 40 -36 147.5t-77 195.5q-65 1 -101 1q-201 0 -313 -1
q-87 -237 -87 -314q0 -55 43 -85.5t93 -35.5q38 -4 38 -31t-41 -27q-16 0 -84 5q-88 7 -128 7q-79 0 -150 -10q-18 -3 -30 -3q-37 0 -37 30q0 22 24 29q60 17 94 42t73.5 96t94.5 227q124 350 369 946zM590 1007l-172 -446l352 5q-28 78 -86 214q-63 148 -94 227zM805 1761
l178 -343q16 -30 16 -35q0 -10 -33 -10h-51l-197 208l-206 -208h-50q-30 0 -30 10q0 5 13 29l184 349h176z" />
    <glyph glyph-name="Atilde" unicode="&#xc3;" horiz-adv-x="1429" 
d="M660 1356h69q132 -286 373 -900q111 -282 153 -341.5t133 -72.5q30 -4 30 -26q0 -31 -39 -31q-21 0 -109 7q-104 9 -175 9q-69 0 -180 -8q-83 -6 -109 -6q-46 0 -46 29q0 22 32 25q123 11 123 96q0 40 -36 147.5t-77 195.5q-65 1 -101 1q-201 0 -313 -1
q-87 -237 -87 -314q0 -55 43 -85.5t93 -35.5q38 -4 38 -31t-41 -27q-16 0 -84 5q-88 7 -128 7q-79 0 -150 -10q-18 -3 -30 -3q-37 0 -37 30q0 22 24 29q60 17 94 42t73.5 96t94.5 227q124 350 369 946zM590 1007l-172 -446l352 5q-28 78 -86 214q-63 148 -94 227zM831 1443
q-54 0 -139 45q-91 49 -128 49q-59 0 -72 -81q-1 -9 -5.5 -12t-49.5 -3q-25 0 -25 15q0 102 50.5 174.5t143.5 72.5q60 0 149 -51q80 -45 111 -45q67 0 72 78q1 13 5.5 16t38.5 3q36 0 36 -19q0 -97 -47 -169.5t-140 -72.5z" />
    <glyph glyph-name="Adieresis" unicode="&#xc4;" horiz-adv-x="1429" 
d="M660 1356h69q132 -286 373 -900q111 -282 153 -341.5t133 -72.5q30 -4 30 -26q0 -31 -39 -31q-21 0 -109 7q-104 9 -175 9q-69 0 -180 -8q-83 -6 -109 -6q-46 0 -46 29q0 22 32 25q123 11 123 96q0 40 -36 147.5t-77 195.5q-65 1 -101 1q-201 0 -313 -1
q-87 -237 -87 -314q0 -55 43 -85.5t93 -35.5q38 -4 38 -31t-41 -27q-16 0 -84 5q-88 7 -128 7q-79 0 -150 -10q-18 -3 -30 -3q-37 0 -37 30q0 22 24 29q60 17 94 42t73.5 96t94.5 227q124 350 369 946zM590 1007l-172 -446l352 5q-28 78 -86 214q-63 148 -94 227zM612 1557
q0 -50 -35.5 -85.5t-85.5 -35.5q-49 0 -84.5 35.5t-35.5 85.5q0 49 35.5 84.5t84.5 35.5q50 0 85.5 -35.5t35.5 -84.5zM1036 1557q0 -50 -35.5 -85.5t-84.5 -35.5q-50 0 -85.5 35.5t-35.5 85.5q0 49 35.5 84.5t85.5 35.5q49 0 84.5 -35.5t35.5 -84.5z" />
    <glyph glyph-name="Aring" unicode="&#xc5;" horiz-adv-x="1429" 
d="M768 1268l151 -358q70 -165 180.5 -447t141 -328t62 -65.5t85.5 -27.5q30 -4 30 -26q0 -31 -39 -31q-21 0 -109 7q-104 9 -175 9q-69 0 -180 -8q-83 -6 -109 -6q-46 0 -46 29q0 22 32 25q123 11 123 96q0 40 -36 147.5t-77 195.5q-65 1 -101 1q-201 0 -313 -1
q-87 -237 -87 -314q0 -47 37 -81t99 -40q38 -4 38 -31t-41 -27q-16 0 -84 5q-88 7 -128 7q-79 0 -150 -10q-18 -3 -30 -3q-37 0 -37 30q0 22 24 29q60 17 94 42t73.5 95.5t94.5 227.5q86 242 334 859q-60 26 -90.5 70.5t-30.5 108.5q0 80 56.5 136.5t136.5 56.5t136.5 -56.5
t56.5 -136.5q0 -60 -33.5 -109t-88.5 -71zM606 1448q0 -37 26 -64.5t65 -27.5q38 0 65 27t27 65q0 37 -27 64t-65 27q-39 0 -65 -27.5t-26 -63.5zM590 1007l-172 -446l352 5z" />
    <glyph glyph-name="AE" unicode="&#xc6;" horiz-adv-x="2048" 
d="M1857 1314l59 -272q7 -37 7 -42q0 -24 -24 -24q-20 0 -58 52q-163 222 -378 222q-82 0 -224 -17q-13 -120 -15 -510q169 0 219 28.5t90 117.5q20 44 27.5 53t24.5 9q26 0 26 -29q0 -8 -2 -21q-8 -48 -8 -330q0 -43 5 -75q2 -19 2 -31q0 -31 -27 -31q-15 0 -22 10t-19 50
q-28 90 -89.5 133t-226.5 43v-329q0 -171 32.5 -213t186.5 -42q189 0 312 68.5t179 178.5q17 33 35 33q28 0 28 -28q0 -8 -9 -48l-64 -280h-433q-74 0 -154 4q-173 8 -250 8q-180 0 -291 -11h-13q-29 0 -29 26q0 27 32 30q84 6 111 29t38 95.5t11 276.5v195q-53 -2 -66 -2
l-335 2q-123 -240 -158.5 -330t-35.5 -155q0 -92 94 -106q42 -7 42 -33q0 -28 -32 -28q-20 0 -53 3q-92 6 -156 6q-90 0 -174 -10q-19 -2 -32 -2q-34 0 -34 29q0 24 37 28q40 4 102 62.5t136 186t177 329.5l173 332q68 128 68 218q0 46 -29.5 72t-118.5 26q-38 0 -38 24
q0 32 44 32q13 0 38 -1q157 -12 410 -12h852zM946 723v436q0 92 -31 92q-36 0 -77.5 -57.5t-250.5 -470.5l277 2q19 0 82 -2z" />
    <glyph glyph-name="Ccedilla" unicode="&#xc7;" horiz-adv-x="1365" 
d="M754 -27q-287 0 -476 187.5t-189 482.5q0 288 188 492.5t459 204.5q197 0 401 -111q21 26 44 58q27 39 45 39q20 0 26 -10t10 -62l20 -312l2 -40q0 -40 -32 -40q-21 0 -34 33q-41 106 -147.5 235.5t-268.5 129.5q-120 0 -201.5 -69.5t-127 -190.5t-45.5 -290
q0 -289 127 -459.5t316 -170.5q205 0 376 248q21 30 40 30q32 0 32 -32q0 -46 -87.5 -143t-190 -147.5t-198.5 -59.5l-27 -53q61 0 109 -35.5t48 -99.5q0 -68 -44.5 -124.5t-118 -84.5t-205.5 -28q-60 0 -78 9t-18 30q0 28 54 29q83 1 136 31t53 79q0 64 -92 73
q62 104 94 171z" />
    <glyph glyph-name="Egrave" unicode="&#xc8;" horiz-adv-x="1344" 
d="M1152 1310q32 -156 63 -312q0 -29 -29 -29q-16 0 -36 28q-103 150 -188.5 198t-246.5 48q-90 0 -174 -15q-18 -177 -18 -388q0 -36 2 -121l76 -1q71 0 122.5 19.5t87.5 83t41 81.5q9 32 31 32q28 0 28 -24q0 -7 -2 -16q-12 -62 -12 -371q0 -43 7 -78q2 -10 2 -17
q0 -28 -32 -28q-22 0 -34 53q-20 93 -91 141.5t-224 50.5q-5 -168 -5 -221q0 -228 7 -271t51 -69.5t149 -26.5q381 0 501 242q17 34 37 34q29 0 29 -24q0 -16 -6 -41l-65 -287l-362 1q-153 1 -285.5 7t-207.5 6q-84 0 -253 -10q-21 -2 -31 -2q-47 0 -47 31q0 28 38 28
q97 0 130.5 52.5t33.5 214.5l6 515q0 264 -6.5 324.5t-34.5 82t-105 32.5q-32 4 -32 28q0 30 37 30l241 -8zM507 1772q44 0 88 -45t133 -177.5t89 -143.5t-13.5 -23t-25.5 -12q-23 0 -143 95l-154 121q-60 47 -60 100q0 34 26.5 59.5t59.5 25.5z" />
    <glyph glyph-name="Eacute" unicode="&#xc9;" horiz-adv-x="1344" 
d="M1152 1310q32 -156 63 -312q0 -29 -29 -29q-16 0 -36 28q-103 150 -188.5 198t-246.5 48q-90 0 -174 -15q-18 -177 -18 -388q0 -36 2 -121l76 -1q71 0 122.5 19.5t87.5 83t41 81.5q9 32 31 32q28 0 28 -24q0 -7 -2 -16q-12 -62 -12 -371q0 -43 7 -78q2 -10 2 -17
q0 -28 -32 -28q-22 0 -34 53q-20 93 -91 141.5t-224 50.5q-5 -168 -5 -221q0 -228 7 -271t51 -69.5t149 -26.5q381 0 501 242q17 34 37 34q29 0 29 -24q0 -16 -6 -41l-65 -287l-362 1q-153 1 -285.5 7t-207.5 6q-84 0 -253 -10q-21 -2 -31 -2q-47 0 -47 31q0 28 38 28
q97 0 130.5 52.5t33.5 214.5l6 515q0 264 -6.5 324.5t-34.5 82t-105 32.5q-32 4 -32 28q0 30 37 30l241 -8zM885 1772q34 0 60 -25.5t26 -57.5q0 -61 -105 -138q-82 -60 -155 -120t-97 -60q-12 0 -25.5 12t-13.5 23t89.5 144.5t133 177.5t87.5 44z" />
    <glyph glyph-name="Ecircumflex" unicode="&#xca;" horiz-adv-x="1344" 
d="M1152 1310q32 -156 63 -312q0 -29 -29 -29q-16 0 -36 28q-103 150 -188.5 198t-246.5 48q-90 0 -174 -15q-18 -177 -18 -388q0 -36 2 -121l76 -1q71 0 122.5 19.5t87.5 83t41 81.5q9 32 31 32q28 0 28 -24q0 -7 -2 -16q-12 -62 -12 -371q0 -43 7 -78q2 -10 2 -17
q0 -28 -32 -28q-22 0 -34 53q-20 93 -91 141.5t-224 50.5q-5 -168 -5 -221q0 -228 7 -271t51 -69.5t149 -26.5q381 0 501 242q17 34 37 34q29 0 29 -24q0 -16 -6 -41l-65 -287l-362 1q-153 1 -285.5 7t-207.5 6q-84 0 -253 -10q-21 -2 -31 -2q-47 0 -47 31q0 28 38 28
q97 0 130.5 52.5t33.5 214.5l6 515q0 264 -6.5 324.5t-34.5 82t-105 32.5q-32 4 -32 28q0 30 37 30l241 -8zM761 1761l178 -343q16 -30 16 -35q0 -10 -33 -10h-51l-197 208l-206 -208h-50q-30 0 -30 10q0 5 13 29l184 349h176z" />
    <glyph glyph-name="Edieresis" unicode="&#xcb;" horiz-adv-x="1344" 
d="M1152 1310q32 -156 63 -312q0 -29 -29 -29q-16 0 -36 28q-103 150 -188.5 198t-246.5 48q-90 0 -174 -15q-18 -177 -18 -388q0 -36 2 -121l76 -1q71 0 122.5 19.5t87.5 83t41 81.5q9 32 31 32q28 0 28 -24q0 -7 -2 -16q-12 -62 -12 -371q0 -43 7 -78q2 -10 2 -17
q0 -28 -32 -28q-22 0 -34 53q-20 93 -91 141.5t-224 50.5q-5 -168 -5 -221q0 -228 7 -271t51 -69.5t149 -26.5q381 0 501 242q17 34 37 34q29 0 29 -24q0 -16 -6 -41l-65 -287l-362 1q-153 1 -285.5 7t-207.5 6q-84 0 -253 -10q-21 -2 -31 -2q-47 0 -47 31q0 28 38 28
q97 0 130.5 52.5t33.5 214.5l6 515q0 264 -6.5 324.5t-34.5 82t-105 32.5q-32 4 -32 28q0 30 37 30l241 -8zM581 1557q0 -50 -35.5 -85.5t-85.5 -35.5q-49 0 -84.5 35.5t-35.5 85.5q0 49 35.5 84.5t84.5 35.5q50 0 85.5 -35.5t35.5 -84.5zM1005 1557q0 -50 -35.5 -85.5
t-84.5 -35.5q-50 0 -85.5 35.5t-35.5 85.5q0 49 35.5 84.5t85.5 35.5q49 0 84.5 -35.5t35.5 -84.5z" />
    <glyph glyph-name="Igrave" unicode="&#xcc;" horiz-adv-x="789" 
d="M108 1323q35 0 144 -5q83 -4 132 -4l307 8q39 0 39 -27q0 -24 -35 -28q-79 -8 -105.5 -29.5t-41 -99.5t-14.5 -353q0 -316 10 -488.5t40.5 -213t101.5 -40.5q49 0 49 -26q0 -35 -53 -35q-15 0 -44 1q-188 13 -257 13q-151 0 -223 -9q-38 -4 -54 -4q-37 0 -37 29
q0 23 31 27q85 11 114.5 47.5t35.5 175.5t6 432q0 309 -11 413.5t-36.5 128.5t-97.5 30q-38 3 -38 31q0 26 37 26zM198 1772q44 0 88 -45t133 -177.5t89 -143.5t-13.5 -23t-25.5 -12q-23 0 -143 95l-154 121q-60 47 -60 100q0 34 26.5 59.5t59.5 25.5z" />
    <glyph glyph-name="Iacute" unicode="&#xcd;" horiz-adv-x="789" 
d="M108 1323q35 0 144 -5q83 -4 132 -4l307 8q39 0 39 -27q0 -24 -35 -28q-79 -8 -105.5 -29.5t-41 -99.5t-14.5 -353q0 -316 10 -488.5t40.5 -213t101.5 -40.5q49 0 49 -26q0 -35 -53 -35q-15 0 -44 1q-188 13 -257 13q-151 0 -223 -9q-38 -4 -54 -4q-37 0 -37 29
q0 23 31 27q85 11 114.5 47.5t35.5 175.5t6 432q0 309 -11 413.5t-36.5 128.5t-97.5 30q-38 3 -38 31q0 26 37 26zM608 1772q34 0 60 -25.5t26 -57.5q0 -61 -105 -138q-82 -60 -155 -120t-97 -60q-12 0 -25.5 12t-13.5 23t89.5 144.5t133 177.5t87.5 44z" />
    <glyph glyph-name="Icircumflex" unicode="&#xce;" horiz-adv-x="789" 
d="M108 1323q35 0 144 -5q83 -4 132 -4l307 8q39 0 39 -27q0 -24 -35 -28q-79 -8 -105.5 -29.5t-41 -99.5t-14.5 -353q0 -316 10 -488.5t40.5 -213t101.5 -40.5q49 0 49 -26q0 -35 -53 -35q-15 0 -44 1q-188 13 -257 13q-151 0 -223 -9q-38 -4 -54 -4q-37 0 -37 29
q0 23 31 27q85 11 114.5 47.5t35.5 175.5t6 432q0 309 -11 413.5t-36.5 128.5t-97.5 30q-38 3 -38 31q0 26 37 26zM481 1761l178 -343q16 -30 16 -35q0 -10 -33 -10h-51l-197 208l-206 -208h-50q-30 0 -30 10q0 5 13 29l184 349h176z" />
    <glyph glyph-name="Idieresis" unicode="&#xcf;" horiz-adv-x="789" 
d="M108 1323q35 0 144 -5q83 -4 132 -4l307 8q39 0 39 -27q0 -24 -35 -28q-79 -8 -105.5 -29.5t-41 -99.5t-14.5 -353q0 -316 10 -488.5t40.5 -213t101.5 -40.5q49 0 49 -26q0 -35 -53 -35q-15 0 -44 1q-188 13 -257 13q-151 0 -223 -9q-38 -4 -54 -4q-37 0 -37 29
q0 23 31 27q85 11 114.5 47.5t35.5 175.5t6 432q0 309 -11 413.5t-36.5 128.5t-97.5 30q-38 3 -38 31q0 26 37 26zM300 1557q0 -50 -35.5 -85.5t-85.5 -35.5q-49 0 -84.5 35.5t-35.5 85.5q0 49 35.5 84.5t84.5 35.5q50 0 85.5 -35.5t35.5 -84.5zM724 1557q0 -50 -35.5 -85.5
t-84.5 -35.5q-50 0 -85.5 35.5t-35.5 85.5q0 49 35.5 84.5t85.5 35.5q49 0 84.5 -35.5t35.5 -84.5z" />
    <glyph glyph-name="Eth" unicode="&#xd0;" horiz-adv-x="1621" 
d="M242 614h-179v75h181q1 114 3 228q0 261 -31.5 308t-120.5 52q-36 3 -36 30t32 27q19 0 129 -11q122 -11 170 -11l379 8q186 0 365 -72t281.5 -239.5t102.5 -370.5q0 -154 -60.5 -287.5t-175.5 -224.5t-228 -119.5t-266 -28.5l-358 6l-352 1q-46 0 -57.5 5.5t-11.5 24.5
q0 29 43 29q128 0 154.5 76t35.5 494zM524 614l-2 -332q0 -136 43.5 -183.5t154.5 -47.5q198 0 326 141t128 426q0 276 -130 456t-375 180q-112 0 -120.5 -27.5t-22.5 -537.5h305v-75h-307z" />
    <glyph glyph-name="Ntilde" unicode="&#xd1;" horiz-adv-x="1557" 
d="M416 1321q479 -545 799 -874q1 68 1 88l1 396q0 140 -16 200.5t-68 95.5t-121 41q-37 4 -37 31q0 29 34 29q19 0 49 -4q57 -7 167 -7q138 0 210 8q30 3 51 3q38 0 38 -29q0 -28 -51 -33q-63 -6 -117.5 -53t-54.5 -185l5 -566l-7 -426q0 -55 -34 -55q-9 0 -21 6
t-137.5 138.5t-373 411t-347.5 399.5q-2 -27 -2 -503q0 -147 12.5 -230.5t78 -121t118.5 -37.5q34 0 34 -26q0 -30 -36 -30q-23 0 -58 4q-60 8 -153 8q-149 0 -216 -9q-42 -5 -60 -5q-39 0 -39 33q0 24 63 29q113 9 141.5 78t28.5 188q0 516 -5.5 631t-72 208t-160.5 111
q-39 7 -39 31q0 33 41 33q10 0 29 -2q23 -2 83 -2q130 0 242 -3zM895 1443q-54 0 -139 45q-91 49 -128 49q-59 0 -72 -81q-1 -9 -5.5 -12t-49.5 -3q-25 0 -25 15q0 102 50.5 174.5t143.5 72.5q60 0 149 -51q80 -45 111 -45q67 0 72 78q1 13 5.5 16t38.5 3q36 0 36 -19
q0 -97 -47 -169.5t-140 -72.5z" />
    <glyph glyph-name="Ograve" unicode="&#xd2;" horiz-adv-x="1579" 
d="M805 1338q202 0 353.5 -81t243 -234.5t91.5 -334.5q0 -280 -209 -496.5t-518 -216.5q-281 0 -480.5 179t-199.5 484q0 288 206.5 494t512.5 206zM1154 658q0 303 -103 456t-261 153q-157 0 -260 -153.5t-103 -455.5q0 -290 98.5 -450t264.5 -160q147 0 255.5 144.5
t108.5 465.5zM576 1772q44 0 88 -45t133 -177.5t89 -143.5t-13.5 -23t-25.5 -12q-23 0 -143 95l-154 121q-60 47 -60 100q0 34 26.5 59.5t59.5 25.5z" />
    <glyph glyph-name="Oacute" unicode="&#xd3;" horiz-adv-x="1579" 
d="M805 1338q202 0 353.5 -81t243 -234.5t91.5 -334.5q0 -280 -209 -496.5t-518 -216.5q-281 0 -480.5 179t-199.5 484q0 288 206.5 494t512.5 206zM1154 658q0 303 -103 456t-261 153q-157 0 -260 -153.5t-103 -455.5q0 -290 98.5 -450t264.5 -160q147 0 255.5 144.5
t108.5 465.5zM1003 1772q34 0 60 -25.5t26 -57.5q0 -61 -105 -138q-82 -60 -155 -120t-97 -60q-12 0 -25.5 12t-13.5 23t89.5 144.5t133 177.5t87.5 44z" />
    <glyph glyph-name="Ocircumflex" unicode="&#xd4;" horiz-adv-x="1579" 
d="M805 1338q202 0 353.5 -81t243 -234.5t91.5 -334.5q0 -280 -209 -496.5t-518 -216.5q-281 0 -480.5 179t-199.5 484q0 288 206.5 494t512.5 206zM1154 658q0 303 -103 456t-261 153q-157 0 -260 -153.5t-103 -455.5q0 -290 98.5 -450t264.5 -160q147 0 255.5 144.5
t108.5 465.5zM879 1761l178 -343q16 -30 16 -35q0 -10 -33 -10h-51l-197 208l-206 -208h-50q-30 0 -30 10q0 5 13 29l184 349h176z" />
    <glyph glyph-name="Otilde" unicode="&#xd5;" horiz-adv-x="1579" 
d="M805 1338q202 0 353.5 -81t243 -234.5t91.5 -334.5q0 -280 -209 -496.5t-518 -216.5q-281 0 -480.5 179t-199.5 484q0 288 206.5 494t512.5 206zM1154 658q0 303 -103 456t-261 153q-157 0 -260 -153.5t-103 -455.5q0 -290 98.5 -450t264.5 -160q147 0 255.5 144.5
t108.5 465.5zM906 1443q-54 0 -139 45q-91 49 -128 49q-59 0 -72 -81q-1 -9 -5.5 -12t-49.5 -3q-25 0 -25 15q0 102 50.5 174.5t143.5 72.5q60 0 149 -51q80 -45 111 -45q67 0 72 78q1 13 5.5 16t38.5 3q36 0 36 -19q0 -97 -47 -169.5t-140 -72.5z" />
    <glyph glyph-name="Odieresis" unicode="&#xd6;" horiz-adv-x="1579" 
d="M805 1338q202 0 353.5 -81t243 -234.5t91.5 -334.5q0 -280 -209 -496.5t-518 -216.5q-281 0 -480.5 179t-199.5 484q0 288 206.5 494t512.5 206zM1154 658q0 303 -103 456t-261 153q-157 0 -260 -153.5t-103 -455.5q0 -290 98.5 -450t264.5 -160q147 0 255.5 144.5
t108.5 465.5zM698 1557q0 -50 -35.5 -85.5t-85.5 -35.5q-49 0 -84.5 35.5t-35.5 85.5q0 49 35.5 84.5t84.5 35.5q50 0 85.5 -35.5t35.5 -84.5zM1122 1557q0 -50 -35.5 -85.5t-84.5 -35.5q-50 0 -85.5 35.5t-35.5 85.5q0 49 35.5 84.5t85.5 35.5q49 0 84.5 -35.5t35.5 -84.5z
" />
    <glyph glyph-name="multiply" unicode="&#xd7;" horiz-adv-x="1365" 
d="M682 633l408 409l93 -93l-408 -409l404 -404l-93 -92l-404 404l-404 -404l-92 92l404 404l-408 409l92 93z" />
    <glyph glyph-name="Oslash" unicode="&#xd8;" horiz-adv-x="1579" 
d="M1280 1171q213 -196 213 -483q0 -280 -209 -496.5t-518 -216.5q-239 0 -412 123l-129 -150l-55 49l127 147q-211 188 -211 494q0 205 96 355.5t250 247.5t373 97q242 0 416 -120l134 155l58 -49zM468 343l615 715q-41 91 -118 150t-175 59q-159 0 -261 -153.5
t-102 -459.5q0 -163 41 -311zM1112 976l-616 -714q37 -91 117 -152.5t177 -61.5q112 0 203 82.5t126 240t35 307.5q0 163 -42 298z" />
    <glyph glyph-name="Ugrave" unicode="&#xd9;" horiz-adv-x="1557" 
d="M83 1331l322 -11q46 0 105 5q94 7 148 7q51 0 51 -28q0 -27 -40 -29q-72 -4 -107.5 -51.5t-45.5 -195t-10 -324.5q0 -284 27 -381.5t116 -155.5t236 -58q149 0 225 63.5t104.5 199.5t28.5 505q0 218 -34 301t-116 91q-59 6 -59 35t48 29q23 0 77 -6q56 -5 117 -5
q56 0 125 6q52 4 72 4q50 0 50 -29q0 -23 -36 -27q-50 -5 -90.5 -46.5t-52 -137t-11.5 -490.5q0 -260 -52 -376.5t-181.5 -181t-322.5 -64.5q-149 0 -259 26.5t-174.5 81.5t-93 127t-28.5 212l4 533q0 112 -12.5 184t-39.5 95.5t-82 29.5q-35 4 -43.5 10.5t-8.5 21.5
q0 30 43 30zM566 1772q44 0 88 -45t133 -177.5t89 -143.5t-13.5 -23t-25.5 -12q-23 0 -143 95l-154 121q-60 47 -60 100q0 34 26.5 59.5t59.5 25.5z" />
    <glyph glyph-name="Uacute" unicode="&#xda;" horiz-adv-x="1557" 
d="M83 1331l322 -11q46 0 105 5q94 7 148 7q51 0 51 -28q0 -27 -40 -29q-72 -4 -107.5 -51.5t-45.5 -195t-10 -324.5q0 -284 27 -381.5t116 -155.5t236 -58q149 0 225 63.5t104.5 199.5t28.5 505q0 218 -34 301t-116 91q-59 6 -59 35t48 29q23 0 77 -6q56 -5 117 -5
q56 0 125 6q52 4 72 4q50 0 50 -29q0 -23 -36 -27q-50 -5 -90.5 -46.5t-52 -137t-11.5 -490.5q0 -260 -52 -376.5t-181.5 -181t-322.5 -64.5q-149 0 -259 26.5t-174.5 81.5t-93 127t-28.5 212l4 533q0 112 -12.5 184t-39.5 95.5t-82 29.5q-35 4 -43.5 10.5t-8.5 21.5
q0 30 43 30zM1064 1772q34 0 60 -25.5t26 -57.5q0 -61 -105 -138q-82 -60 -155 -120t-97 -60q-12 0 -25.5 12t-13.5 23t89.5 144.5t133 177.5t87.5 44z" />
    <glyph glyph-name="Ucircumflex" unicode="&#xdb;" horiz-adv-x="1557" 
d="M83 1331l322 -11q46 0 105 5q94 7 148 7q51 0 51 -28q0 -27 -40 -29q-72 -4 -107.5 -51.5t-45.5 -195t-10 -324.5q0 -284 27 -381.5t116 -155.5t236 -58q149 0 225 63.5t104.5 199.5t28.5 505q0 218 -34 301t-116 91q-59 6 -59 35t48 29q23 0 77 -6q56 -5 117 -5
q56 0 125 6q52 4 72 4q50 0 50 -29q0 -23 -36 -27q-50 -5 -90.5 -46.5t-52 -137t-11.5 -490.5q0 -260 -52 -376.5t-181.5 -181t-322.5 -64.5q-149 0 -259 26.5t-174.5 81.5t-93 127t-28.5 212l4 533q0 112 -12.5 184t-39.5 95.5t-82 29.5q-35 4 -43.5 10.5t-8.5 21.5
q0 30 43 30zM929 1761l178 -343q16 -30 16 -35q0 -10 -33 -10h-51l-197 208l-206 -208h-50q-30 0 -30 10q0 5 13 29l184 349h176z" />
    <glyph glyph-name="Udieresis" unicode="&#xdc;" horiz-adv-x="1557" 
d="M83 1331l322 -11q46 0 105 5q94 7 148 7q51 0 51 -28q0 -27 -40 -29q-72 -4 -107.5 -51.5t-45.5 -195t-10 -324.5q0 -284 27 -381.5t116 -155.5t236 -58q149 0 225 63.5t104.5 199.5t28.5 505q0 218 -34 301t-116 91q-59 6 -59 35t48 29q23 0 77 -6q56 -5 117 -5
q56 0 125 6q52 4 72 4q50 0 50 -29q0 -23 -36 -27q-50 -5 -90.5 -46.5t-52 -137t-11.5 -490.5q0 -260 -52 -376.5t-181.5 -181t-322.5 -64.5q-149 0 -259 26.5t-174.5 81.5t-93 127t-28.5 212l4 533q0 112 -12.5 184t-39.5 95.5t-82 29.5q-35 4 -43.5 10.5t-8.5 21.5
q0 30 43 30zM736 1557q0 -50 -35.5 -85.5t-85.5 -35.5q-49 0 -84.5 35.5t-35.5 85.5q0 49 35.5 84.5t84.5 35.5q50 0 85.5 -35.5t35.5 -84.5zM1160 1557q0 -50 -35.5 -85.5t-84.5 -35.5q-50 0 -85.5 35.5t-35.5 85.5q0 49 35.5 84.5t85.5 35.5q49 0 84.5 -35.5t35.5 -84.5z
" />
    <glyph glyph-name="Yacute" unicode="&#xdd;" horiz-adv-x="1472" 
d="M822 733q279 364 279 445q0 23 -15.5 47t-89.5 45q-30 8 -30 28q0 31 36 31q10 0 27 -2q128 -11 195 -11q73 0 173 10q19 2 32 2q29 0 29 -27q0 -25 -29 -28q-67 -7 -123.5 -44.5t-137 -143t-179 -249.5t-108.5 -175.5t-10 -217.5q0 -282 25.5 -338.5t126.5 -56.5
q36 0 36 -29q0 -30 -40 -30q-30 0 -165 9q-77 5 -110 5q-109 0 -247 -13q-26 -2 -41 -2q-38 0 -38 29q0 25 29 28q98 12 123.5 65.5t25.5 235.5q0 164 -19 218.5t-110 202t-181.5 283t-139 173.5t-104.5 48q-28 5 -28 27q0 31 35 31q16 0 50 -3q155 -11 227 -11
q114 0 256 11q29 2 49 2q34 0 34 -26q0 -25 -37 -29q-103 -10 -103 -73q0 -67 297 -467zM986 1772q34 0 60 -25.5t26 -57.5q0 -61 -105 -138q-82 -60 -155 -120t-97 -60q-12 0 -25.5 12t-13.5 23t89.5 144.5t133 177.5t87.5 44z" />
    <glyph glyph-name="Thorn" unicode="&#xde;" horiz-adv-x="1323" 
d="M511 1061l159 2q128 0 268 -18.5t222 -112t82 -223.5q0 -122 -71.5 -205t-188 -122t-324.5 -39q-71 0 -147 4q0 -170 8.5 -212.5t35 -61.5t90.5 -26q46 -5 59 -11t13 -22q0 -28 -52 -28q-32 0 -127 6q-134 8 -186 8q-86 0 -220 -13q-20 -2 -33 -2q-45 0 -45 29
q0 28 59 34q47 5 74 27.5t36.5 80.5t9.5 191v755q0 87 -27 125t-90 42q-57 4 -57 28q0 18 17.5 24.5t75.5 6.5h489q51 0 64.5 -5.5t13.5 -23.5q0 -29 -42 -31q-78 -4 -106.5 -19t-39 -45t-20.5 -143zM511 419q51 -5 82 -5q152 0 238.5 86.5t86.5 240.5q0 108 -63 179.5
t-196 71.5q-66 0 -148 -17v-556z" />
    <glyph glyph-name="germandbls" unicode="&#xdf;" horiz-adv-x="1173" 
d="M434 1l-30 -1q-146 0 -212 -6q-69 -6 -99 -6q-42 0 -42 31q0 28 48 30q50 2 73.5 23t23.5 107l1 172v446q0 252 42 347.5t130 159t241 63.5q188 0 285 -85t97 -201q0 -101 -70.5 -175.5t-217.5 -90.5q188 -17 284 -128.5t96 -269.5q0 -173 -113.5 -298.5t-260.5 -125.5
q-85 0 -130 45t-45 93q0 46 27 77t74 31q39 0 69.5 -27t30.5 -82q0 -8 -1 -16q-3 -18 -3 -24q0 -29 32 -29q37 0 53.5 58t16.5 202q0 224 -50 338q-51 113 -211 120q-51 2 -51 30q0 18 8 23.5t49 11.5q62 9 95 30.5t54 70t21 138.5q0 110 -39 165t-117 55
q-80 0 -122.5 -59.5t-42.5 -240.5l-1 -222v-543q0 -65 7 -237z" />
    <glyph glyph-name="agrave" unicode="&#xe0;" horiz-adv-x="981" 
d="M547 96q-62 -59 -125 -88.5t-127 -29.5q-102 0 -157.5 61.5t-55.5 149.5q0 68 33.5 121.5t83 83t163.5 70.5q96 34 128.5 53.5t54.5 57t22 97.5q0 66 -33 105.5t-91 39.5q-50 0 -71 -25q-21 -26 -32 -83q-23 -114 -123 -114q-41 0 -70 24t-29 69q0 96 104.5 143.5
t249.5 47.5q125 0 203.5 -38t100.5 -88t22 -156l-2 -237q0 -187 12.5 -240t53.5 -53q6 0 16 1q20 2 27 2q41 0 41 -23q0 -15 -17 -25.5t-102.5 -26.5t-154.5 -16t-94.5 26.5t-30.5 90.5zM560 496q-24 -29 -115 -77q-83 -44 -111 -78q-28 -35 -28 -101q0 -70 29.5 -106.5
t72.5 -36.5q58 0 108 53.5t50 188.5q0 42 -6 157zM339 1362q44 0 88 -45t133 -177.5t89 -143.5t-13.5 -23t-25.5 -12q-23 0 -143 95l-154 121q-60 47 -60 100q0 34 26.5 59.5t59.5 25.5z" />
    <glyph glyph-name="aacute" unicode="&#xe1;" horiz-adv-x="981" 
d="M547 96q-62 -59 -125 -88.5t-127 -29.5q-102 0 -157.5 61.5t-55.5 149.5q0 68 33.5 121.5t83 83t163.5 70.5q96 34 128.5 53.5t54.5 57t22 97.5q0 66 -33 105.5t-91 39.5q-50 0 -71 -25q-21 -26 -32 -83q-23 -114 -123 -114q-41 0 -70 24t-29 69q0 96 104.5 143.5
t249.5 47.5q125 0 203.5 -38t100.5 -88t22 -156l-2 -237q0 -187 12.5 -240t53.5 -53q6 0 16 1q20 2 27 2q41 0 41 -23q0 -15 -17 -25.5t-102.5 -26.5t-154.5 -16t-94.5 26.5t-30.5 90.5zM560 496q-24 -29 -115 -77q-83 -44 -111 -78q-28 -35 -28 -101q0 -70 29.5 -106.5
t72.5 -36.5q58 0 108 53.5t50 188.5q0 42 -6 157zM637 1362q34 0 60 -25.5t26 -57.5q0 -61 -105 -138q-82 -60 -155 -120t-97 -60q-12 0 -25.5 12t-13.5 23t89.5 144.5t133 177.5t87.5 44z" />
    <glyph glyph-name="acircumflex" unicode="&#xe2;" horiz-adv-x="981" 
d="M547 96q-62 -59 -125 -88.5t-127 -29.5q-102 0 -157.5 61.5t-55.5 149.5q0 68 33.5 121.5t83 83t163.5 70.5q96 34 128.5 53.5t54.5 57t22 97.5q0 66 -33 105.5t-91 39.5q-50 0 -71 -25q-21 -26 -32 -83q-23 -114 -123 -114q-41 0 -70 24t-29 69q0 96 104.5 143.5
t249.5 47.5q125 0 203.5 -38t100.5 -88t22 -156l-2 -237q0 -187 12.5 -240t53.5 -53q6 0 16 1q20 2 27 2q41 0 41 -23q0 -15 -17 -25.5t-102.5 -26.5t-154.5 -16t-94.5 26.5t-30.5 90.5zM560 496q-24 -29 -115 -77q-83 -44 -111 -78q-28 -35 -28 -101q0 -70 29.5 -106.5
t72.5 -36.5q58 0 108 53.5t50 188.5q0 42 -6 157zM563 1355l178 -343q16 -30 16 -35q0 -10 -33 -10h-51l-197 208l-206 -208h-50q-30 0 -30 10q0 5 13 29l184 349h176z" />
    <glyph glyph-name="atilde" unicode="&#xe3;" horiz-adv-x="981" 
d="M547 96q-62 -59 -125 -88.5t-127 -29.5q-102 0 -157.5 61.5t-55.5 149.5q0 68 33.5 121.5t83 83t163.5 70.5q96 34 128.5 53.5t54.5 57t22 97.5q0 66 -33 105.5t-91 39.5q-50 0 -71 -25q-21 -26 -32 -83q-23 -114 -123 -114q-41 0 -70 24t-29 69q0 96 104.5 143.5
t249.5 47.5q125 0 203.5 -38t100.5 -88t22 -156l-2 -237q0 -187 12.5 -240t53.5 -53q6 0 16 1q20 2 27 2q41 0 41 -23q0 -15 -17 -25.5t-102.5 -26.5t-154.5 -16t-94.5 26.5t-30.5 90.5zM560 496q-24 -29 -115 -77q-83 -44 -111 -78q-28 -35 -28 -101q0 -70 29.5 -106.5
t72.5 -36.5q58 0 108 53.5t50 188.5q0 42 -6 157zM589 995q-54 0 -139 45q-91 49 -128 49q-59 0 -72 -81q-1 -9 -5.5 -12t-49.5 -3q-25 0 -25 15q0 102 50.5 174.5t143.5 72.5q60 0 149 -51q80 -45 111 -45q67 0 72 78q1 13 5.5 16t38.5 3q36 0 36 -19q0 -97 -47 -169.5
t-140 -72.5z" />
    <glyph glyph-name="adieresis" unicode="&#xe4;" horiz-adv-x="981" 
d="M547 96q-62 -59 -125 -88.5t-127 -29.5q-102 0 -157.5 61.5t-55.5 149.5q0 68 33.5 121.5t83 83t163.5 70.5q96 34 128.5 53.5t54.5 57t22 97.5q0 66 -33 105.5t-91 39.5q-50 0 -71 -25q-21 -26 -32 -83q-23 -114 -123 -114q-41 0 -70 24t-29 69q0 96 104.5 143.5
t249.5 47.5q125 0 203.5 -38t100.5 -88t22 -156l-2 -237q0 -187 12.5 -240t53.5 -53q6 0 16 1q20 2 27 2q41 0 41 -23q0 -15 -17 -25.5t-102.5 -26.5t-154.5 -16t-94.5 26.5t-30.5 90.5zM560 496q-24 -29 -115 -77q-83 -44 -111 -78q-28 -35 -28 -101q0 -70 29.5 -106.5
t72.5 -36.5q58 0 108 53.5t50 188.5q0 42 -6 157zM382 1142q0 -50 -35.5 -85.5t-85.5 -35.5q-49 0 -84.5 35.5t-35.5 85.5q0 49 35.5 84.5t84.5 35.5q50 0 85.5 -35.5t35.5 -84.5zM806 1142q0 -50 -35.5 -85.5t-84.5 -35.5q-50 0 -85.5 35.5t-35.5 85.5q0 49 35.5 84.5
t85.5 35.5q49 0 84.5 -35.5t35.5 -84.5z" />
    <glyph glyph-name="aring" unicode="&#xe5;" horiz-adv-x="981" 
d="M547 96q-62 -59 -125 -88.5t-127 -29.5q-102 0 -157.5 61.5t-55.5 149.5q0 68 33.5 121.5t83 83t163.5 70.5q96 34 128.5 53.5t54.5 57t22 97.5q0 66 -33 105.5t-91 39.5q-50 0 -71 -25q-21 -26 -32 -83q-23 -114 -123 -114q-41 0 -70 24t-29 69q0 96 104.5 143.5
t249.5 47.5q125 0 203.5 -38t100.5 -88t22 -156l-2 -237q0 -187 12.5 -240t53.5 -53q6 0 16 1q20 2 27 2q41 0 41 -23q0 -15 -17 -25.5t-102.5 -26.5t-154.5 -16t-94.5 26.5t-30.5 90.5zM560 496q-24 -29 -115 -77q-83 -44 -111 -78q-28 -35 -28 -101q0 -70 29.5 -106.5
t72.5 -36.5q58 0 108 53.5t50 188.5q0 42 -6 157zM646 1159q0 -71 -51 -121.5t-122 -50.5t-121.5 50.5t-50.5 121.5t50.5 122t121.5 51q72 0 122.5 -50.5t50.5 -122.5zM556 1159q0 35 -24 59t-59 24q-34 0 -58 -24t-24 -59q0 -34 24 -58.5t58 -24.5q35 0 59 24.5t24 58.5z
" />
    <glyph glyph-name="ae" unicode="&#xe6;" horiz-adv-x="1451" 
d="M762 782q103 90 259 90q116 0 196.5 -55t119.5 -147.5t39 -157.5q0 -22 -15 -30t-242 -20.5t-316 -12.5q0 -243 76 -313t151 -70q139 0 269 127q32 31 50 31q23 0 23 -23q0 -38 -123.5 -129.5t-300.5 -91.5q-251 0 -351 159q-129 -113 -202 -136.5t-115 -23.5
q-74 0 -136 54t-62 138q0 70 33.5 127t78.5 87t149 68q101 38 138 58.5t62.5 62t25.5 96.5q0 68 -35.5 107t-88.5 39q-70 0 -100 -103q-34 -122 -129 -122q-47 0 -71 33.5t-24 73.5q0 82 111 129.5t240 47.5q89 0 161.5 -23t128.5 -70zM803 511q84 2 193 13.5t120 22.5
t11 53q0 99 -38.5 157t-105.5 58q-59 0 -107.5 -49.5t-66.5 -201.5zM560 494q-18 -30 -65 -53q-113 -55 -149 -96q-37 -41 -37 -118q0 -69 33.5 -99t75.5 -30q52 0 100.5 51.5t48.5 205.5q0 62 -7 139z" />
    <glyph glyph-name="ccedilla" unicode="&#xe7;" horiz-adv-x="960" 
d="M563 -19q-11 -23 -21 -49q75 0 112.5 -35.5t37.5 -76.5q0 -77 -86 -126.5t-250 -49.5q-47 0 -47 29q0 28 62 36q101 12 101 66q0 47 -69 48q77 98 89 157q-190 15 -298 139t-108 304q0 187 128.5 321.5t324.5 134.5q128 0 225.5 -61.5t97.5 -145.5q0 -50 -29.5 -78.5
t-74.5 -28.5q-86 0 -123 124q-20 68 -44 97q-25 29 -72 29q-82 0 -123.5 -82t-41.5 -246q0 -188 68 -300.5t176 -112.5q144 0 203 171q19 54 45 54q28 0 28 -30q0 -78 -75 -175t-236 -113z" />
    <glyph glyph-name="egrave" unicode="&#xe8;" horiz-adv-x="981" 
d="M350 456q-1 -29 -1 -42q0 -142 69.5 -240.5t187.5 -98.5q121 0 238 105q24 21 34 21q26 0 26 -28q0 -22 -60 -79t-147 -86t-180 -29q-204 0 -319.5 124.5t-115.5 293.5q0 203 132.5 340.5t330.5 137.5q186 0 283.5 -125t97.5 -238q0 -36 -19 -43t-123 -7zM356 529
q148 -2 171 -2q113 0 138.5 16t25.5 65q0 82 -47 145t-112 63q-154 0 -176 -287zM404 1362q44 0 88 -45t133 -177.5t89 -143.5t-13.5 -23t-25.5 -12q-23 0 -143 95l-154 121q-60 47 -60 100q0 34 26.5 59.5t59.5 25.5z" />
    <glyph glyph-name="eacute" unicode="&#xe9;" horiz-adv-x="981" 
d="M350 456q-1 -29 -1 -42q0 -142 69.5 -240.5t187.5 -98.5q121 0 238 105q24 21 34 21q26 0 26 -28q0 -22 -60 -79t-147 -86t-180 -29q-204 0 -319.5 124.5t-115.5 293.5q0 203 132.5 340.5t330.5 137.5q186 0 283.5 -125t97.5 -238q0 -36 -19 -43t-123 -7zM356 529
q148 -2 171 -2q113 0 138.5 16t25.5 65q0 82 -47 145t-112 63q-154 0 -176 -287zM662 1362q34 0 60 -25.5t26 -57.5q0 -61 -105 -138q-82 -60 -155 -120t-97 -60q-12 0 -25.5 12t-13.5 23t89.5 144.5t133 177.5t87.5 44z" />
    <glyph glyph-name="ecircumflex" unicode="&#xea;" horiz-adv-x="981" 
d="M350 456q-1 -29 -1 -42q0 -142 69.5 -240.5t187.5 -98.5q121 0 238 105q24 21 34 21q26 0 26 -28q0 -22 -60 -79t-147 -86t-180 -29q-204 0 -319.5 124.5t-115.5 293.5q0 203 132.5 340.5t330.5 137.5q186 0 283.5 -125t97.5 -238q0 -36 -19 -43t-123 -7zM356 529
q148 -2 171 -2q113 0 138.5 16t25.5 65q0 82 -47 145t-112 63q-154 0 -176 -287zM604 1355l178 -343q16 -30 16 -35q0 -10 -33 -10h-51l-197 208l-206 -208h-50q-30 0 -30 10q0 5 13 29l184 349h176z" />
    <glyph glyph-name="edieresis" unicode="&#xeb;" horiz-adv-x="981" 
d="M350 456q-1 -29 -1 -42q0 -142 69.5 -240.5t187.5 -98.5q121 0 238 105q24 21 34 21q26 0 26 -28q0 -22 -60 -79t-147 -86t-180 -29q-204 0 -319.5 124.5t-115.5 293.5q0 203 132.5 340.5t330.5 137.5q186 0 283.5 -125t97.5 -238q0 -36 -19 -43t-123 -7zM356 529
q148 -2 171 -2q113 0 138.5 16t25.5 65q0 82 -47 145t-112 63q-154 0 -176 -287zM399 1142q0 -50 -35.5 -85.5t-85.5 -35.5q-49 0 -84.5 35.5t-35.5 85.5q0 49 35.5 84.5t84.5 35.5q50 0 85.5 -35.5t35.5 -84.5zM823 1142q0 -50 -35.5 -85.5t-84.5 -35.5q-50 0 -85.5 35.5
t-35.5 85.5q0 49 35.5 84.5t85.5 35.5q49 0 84.5 -35.5t35.5 -84.5z" />
    <glyph glyph-name="igrave" unicode="&#xec;" horiz-adv-x="619" 
d="M427 879q4 -140 4 -499l-3 -215q0 -65 21.5 -87t70.5 -29q56 -7 56 -32q0 -27 -44 -27q-21 0 -73 3q-110 7 -218 7q-53 0 -108 -5q-33 -4 -45 -4q-44 0 -44 27q0 26 58 31q77 7 86 51.5t9 180.5q0 176 -5.5 323.5t-20.5 168.5t-78 28q-49 5 -49 29t50 28l21 2zM126 1362
q44 0 88 -45t133 -177.5t89 -143.5t-13.5 -23t-25.5 -12q-23 0 -143 95l-154 121q-60 47 -60 100q0 34 26.5 59.5t59.5 25.5z" />
    <glyph glyph-name="iacute" unicode="&#xed;" horiz-adv-x="619" 
d="M428 879q4 -140 4 -499l-3 -215q0 -65 21.5 -87t70.5 -29q56 -7 56 -32q0 -27 -44 -27q-21 0 -73 3q-110 7 -218 7q-53 0 -108 -5q-33 -4 -45 -4q-44 0 -44 27q0 26 58 31q77 7 86 51.5t9 180.5q0 176 -5.5 323.5t-20.5 168.5t-78 28q-49 5 -49 29t50 28l21 2zM456 1362
q34 0 60 -25.5t26 -57.5q0 -61 -105 -138q-82 -60 -155 -120t-97 -60q-12 0 -25.5 12t-13.5 23t89.5 144.5t133 177.5t87.5 44z" />
    <glyph glyph-name="icircumflex" unicode="&#xee;" horiz-adv-x="619" 
d="M428 879q4 -140 4 -499l-3 -215q0 -65 21.5 -87t70.5 -29q56 -7 56 -32q0 -27 -44 -27q-21 0 -73 3q-110 7 -218 7q-53 0 -108 -5q-33 -4 -45 -4q-44 0 -44 27q0 26 58 31q77 7 86 51.5t9 180.5q0 176 -5.5 323.5t-20.5 168.5t-78 28q-49 5 -49 29t50 28l21 2zM399 1355
l178 -343q16 -30 16 -35q0 -10 -33 -10h-51l-197 208l-206 -208h-50q-30 0 -30 10q0 5 13 29l184 349h176z" />
    <glyph glyph-name="idieresis" unicode="&#xef;" horiz-adv-x="619" 
d="M428 879q4 -140 4 -499l-3 -215q0 -65 21.5 -87t70.5 -29q56 -7 56 -32q0 -27 -44 -27q-21 0 -73 3q-110 7 -218 7q-53 0 -108 -5q-33 -4 -45 -4q-44 0 -44 27q0 26 58 31q77 7 86 51.5t9 180.5q0 176 -5.5 323.5t-20.5 168.5t-78 28q-49 5 -49 29t50 28l21 2zM218 1142
q0 -50 -35.5 -85.5t-85.5 -35.5q-49 0 -84.5 35.5t-35.5 85.5q0 49 35.5 84.5t84.5 35.5q50 0 85.5 -35.5t35.5 -84.5zM642 1142q0 -50 -35.5 -85.5t-84.5 -35.5q-50 0 -85.5 35.5t-35.5 85.5q0 49 35.5 84.5t85.5 35.5q49 0 84.5 -35.5t35.5 -84.5z" />
    <glyph glyph-name="eth" unicode="&#xf0;" 
d="M245 1371h122q127 -92 164 -122l196 129l41 -63l-178 -116q248 -233 342.5 -412t94.5 -344q0 -117 -62.5 -218.5t-172.5 -171t-259 -69.5q-209 0 -326.5 130.5t-117.5 304.5q0 190 131 321.5t308 131.5q55 0 115 -26q-57 142 -154 287l-202 -134l-42 63l200 131
q-89 102 -200 178zM547 813q-102 0 -148 -100.5t-46 -255.5q0 -147 49.5 -279t152.5 -132q96 0 143.5 89t47.5 266q0 183 -52.5 297.5t-146.5 114.5z" />
    <glyph glyph-name="ntilde" unicode="&#xf1;" 
d="M407 684q68 96 147.5 144t170.5 48q76 0 139 -39t85.5 -93t22.5 -153l-9 -399q0 -82 15 -109t63 -35q40 -7 40 -32q0 -26 -39 -26q-33 0 -145 8q-39 2 -63 2q-23 0 -132 -9h-49q-41 0 -41 27q0 22 37 29q34 7 54 23t26.5 157t6.5 280q0 154 -24.5 211t-93.5 57
q-85 0 -157.5 -124.5t-72.5 -382.5q0 -100 10 -145t24.5 -56.5t61.5 -19.5q28 -5 28 -29q0 -28 -41 -28q-20 0 -44 2q-96 9 -104 9q-144 0 -236 -10q-15 -2 -24 -2q-37 0 -37 29q0 25 33 29q51 6 69 28t26.5 137.5t8.5 275.5q0 204 -15 252.5t-72 70.5q-41 16 -41 31
q0 24 59 24q166 0 269 13q38 -87 44 -195zM670 995q-54 0 -139 45q-91 49 -128 49q-59 0 -72 -81q-1 -9 -5.5 -12t-49.5 -3q-25 0 -25 15q0 102 50.5 174.5t143.5 72.5q60 0 149 -51q80 -45 111 -45q67 0 72 78q1 13 5.5 16t38.5 3q36 0 36 -19q0 -97 -47 -169.5t-140 -72.5
z" />
    <glyph glyph-name="ograve" unicode="&#xf2;" 
d="M1026 452q0 -184 -137 -327t-348 -143q-194 0 -326 120t-132 320q0 203 139.5 328.5t339.5 125.5q203 0 333.5 -118.5t130.5 -305.5zM750 384q0 164 -54.5 296.5t-156.5 132.5q-90 0 -139 -92.5t-49 -259.5q0 -182 55.5 -298.5t152.5 -116.5q95 0 143 93t48 245z
M408 1362q44 0 88 -45t133 -177.5t89 -143.5t-13.5 -23t-25.5 -12q-23 0 -143 95l-154 121q-60 47 -60 100q0 34 26.5 59.5t59.5 25.5z" />
    <glyph glyph-name="oacute" unicode="&#xf3;" 
d="M1026 452q0 -184 -137 -327t-348 -143q-194 0 -326 120t-132 320q0 203 139.5 328.5t339.5 125.5q203 0 333.5 -118.5t130.5 -305.5zM750 384q0 164 -54.5 296.5t-156.5 132.5q-90 0 -139 -92.5t-49 -259.5q0 -182 55.5 -298.5t152.5 -116.5q95 0 143 93t48 245z
M701 1362q34 0 60 -25.5t26 -57.5q0 -61 -105 -138q-82 -60 -155 -120t-97 -60q-12 0 -25.5 12t-13.5 23t89.5 144.5t133 177.5t87.5 44z" />
    <glyph glyph-name="ocircumflex" unicode="&#xf4;" 
d="M1026 452q0 -184 -137 -327t-348 -143q-194 0 -326 120t-132 320q0 203 139.5 328.5t339.5 125.5q203 0 333.5 -118.5t130.5 -305.5zM750 384q0 164 -54.5 296.5t-156.5 132.5q-90 0 -139 -92.5t-49 -259.5q0 -182 55.5 -298.5t152.5 -116.5q95 0 143 93t48 245z
M644 1355l178 -343q16 -30 16 -35q0 -10 -33 -10h-51l-197 208l-206 -208h-50q-30 0 -30 10q0 5 13 29l184 349h176z" />
    <glyph glyph-name="otilde" unicode="&#xf5;" 
d="M1026 452q0 -184 -137 -327t-348 -143q-194 0 -326 120t-132 320q0 203 139.5 328.5t339.5 125.5q203 0 333.5 -118.5t130.5 -305.5zM750 384q0 164 -54.5 296.5t-156.5 132.5q-90 0 -139 -92.5t-49 -259.5q0 -182 55.5 -298.5t152.5 -116.5q95 0 143 93t48 245zM671 995
q-54 0 -139 45q-91 49 -128 49q-59 0 -72 -81q-1 -9 -5.5 -12t-49.5 -3q-25 0 -25 15q0 102 50.5 174.5t143.5 72.5q60 0 149 -51q80 -45 111 -45q67 0 72 78q1 13 5.5 16t38.5 3q36 0 36 -19q0 -97 -47 -169.5t-140 -72.5z" />
    <glyph glyph-name="odieresis" unicode="&#xf6;" 
d="M1026 452q0 -184 -137 -327t-348 -143q-194 0 -326 120t-132 320q0 203 139.5 328.5t339.5 125.5q203 0 333.5 -118.5t130.5 -305.5zM750 384q0 164 -54.5 296.5t-156.5 132.5q-90 0 -139 -92.5t-49 -259.5q0 -182 55.5 -298.5t152.5 -116.5q95 0 143 93t48 245z
M463 1142q0 -50 -35.5 -85.5t-85.5 -35.5q-49 0 -84.5 35.5t-35.5 85.5q0 49 35.5 84.5t84.5 35.5q50 0 85.5 -35.5t35.5 -84.5zM887 1142q0 -50 -35.5 -85.5t-84.5 -35.5q-50 0 -85.5 35.5t-35.5 85.5q0 49 35.5 84.5t85.5 35.5q49 0 84.5 -35.5t35.5 -84.5z" />
    <glyph glyph-name="divide" unicode="&#xf7;" horiz-adv-x="1365" 
d="M767 1000q0 -35 -24.5 -59.5t-59.5 -24.5t-59.5 24.5t-24.5 59.5t24.5 59.5t59.5 24.5t59.5 -24.5t24.5 -59.5zM139 606h1088v-131h-1088v131zM767 81q0 -35 -24.5 -59.5t-59.5 -24.5t-59.5 24.5t-24.5 59.5t24.5 59.5t59.5 24.5t59.5 -24.5t24.5 -59.5z" />
    <glyph glyph-name="oslash" unicode="&#xf8;" 
d="M909 746q117 -117 117 -294q0 -184 -136.5 -327t-348.5 -143q-171 0 -286 86l-97 -101l-55 52l96 100q-116 122 -116 303q0 143 66.5 242t173 155.5t239.5 56.5q161 0 287 -82l90 94l56 -53zM367 293l341 355q-59 165 -169 165q-88 0 -138 -89t-50 -263q0 -80 16 -168z
M732 563l-342 -356q51 -161 169 -161q100 0 145.5 99t45.5 232q0 97 -18 186z" />
    <glyph glyph-name="ugrave" unicode="&#xf9;" 
d="M380 859q5 -103 5 -281q0 -270 5 -345.5t39.5 -113.5t78.5 -38q52 0 105.5 39t79 102t25.5 206l2 221q0 88 -9.5 116t-64.5 30q-60 3 -60 31q0 17 14.5 21.5t76.5 4.5q139 0 259 7q4 -39 4 -427q0 -312 6 -340.5t65 -33.5q35 -4 35 -29q0 -29 -40 -29q-8 0 -25 1
q-28 2 -66 2q-133 0 -147 -1q-16 -1 -27 -1q-19 0 -23.5 6.5t-4.5 38.5q0 52 7 105q-69 -84 -145.5 -126t-160.5 -42q-255 0 -255 286v309q0 160 -11.5 187.5t-60.5 34.5q-44 6 -44 26q0 27 39 27q268 0 298 6zM372 1362q44 0 88 -45t133 -177.5t89 -143.5t-13.5 -23
t-25.5 -12q-23 0 -143 95l-154 121q-60 47 -60 100q0 34 26.5 59.5t59.5 25.5z" />
    <glyph glyph-name="uacute" unicode="&#xfa;" 
d="M380 859q5 -103 5 -281q0 -270 5 -345.5t39.5 -113.5t78.5 -38q52 0 105.5 39t79 102t25.5 206l2 221q0 88 -9.5 116t-64.5 30q-60 3 -60 31q0 17 14.5 21.5t76.5 4.5q139 0 259 7q4 -39 4 -427q0 -312 6 -340.5t65 -33.5q35 -4 35 -29q0 -29 -40 -29q-8 0 -25 1
q-28 2 -66 2q-133 0 -147 -1q-16 -1 -27 -1q-19 0 -23.5 6.5t-4.5 38.5q0 52 7 105q-69 -84 -145.5 -126t-160.5 -42q-255 0 -255 286v309q0 160 -11.5 187.5t-60.5 34.5q-44 6 -44 26q0 27 39 27q268 0 298 6zM702 1362q34 0 60 -25.5t26 -57.5q0 -61 -105 -138
q-82 -60 -155 -120t-97 -60q-12 0 -25.5 12t-13.5 23t89.5 144.5t133 177.5t87.5 44z" />
    <glyph glyph-name="ucircumflex" unicode="&#xfb;" 
d="M380 859q5 -103 5 -281q0 -270 5 -345.5t39.5 -113.5t78.5 -38q52 0 105.5 39t79 102t25.5 206l2 221q0 88 -9.5 116t-64.5 30q-60 3 -60 31q0 17 14.5 21.5t76.5 4.5q139 0 259 7q4 -39 4 -427q0 -312 6 -340.5t65 -33.5q35 -4 35 -29q0 -29 -40 -29q-8 0 -25 1
q-28 2 -66 2q-133 0 -147 -1q-16 -1 -27 -1q-19 0 -23.5 6.5t-4.5 38.5q0 52 7 105q-69 -84 -145.5 -126t-160.5 -42q-255 0 -255 286v309q0 160 -11.5 187.5t-60.5 34.5q-44 6 -44 26q0 27 39 27q268 0 298 6zM645 1355l178 -343q16 -30 16 -35q0 -10 -33 -10h-51l-197 208
l-206 -208h-50q-30 0 -30 10q0 5 13 29l184 349h176z" />
    <glyph glyph-name="udieresis" unicode="&#xfc;" 
d="M380 859q5 -103 5 -281q0 -270 5 -345.5t39.5 -113.5t78.5 -38q52 0 105.5 39t79 102t25.5 206l2 221q0 88 -9.5 116t-64.5 30q-60 3 -60 31q0 17 14.5 21.5t76.5 4.5q139 0 259 7q4 -39 4 -427q0 -312 6 -340.5t65 -33.5q35 -4 35 -29q0 -29 -40 -29q-8 0 -25 1
q-28 2 -66 2q-133 0 -147 -1q-16 -1 -27 -1q-19 0 -23.5 6.5t-4.5 38.5q0 52 7 105q-69 -84 -145.5 -126t-160.5 -42q-255 0 -255 286v309q0 160 -11.5 187.5t-60.5 34.5q-44 6 -44 26q0 27 39 27q268 0 298 6zM464 1142q0 -50 -35.5 -85.5t-85.5 -35.5q-49 0 -84.5 35.5
t-35.5 85.5q0 49 35.5 84.5t84.5 35.5q50 0 85.5 -35.5t35.5 -84.5zM888 1142q0 -50 -35.5 -85.5t-84.5 -35.5q-50 0 -85.5 35.5t-35.5 85.5q0 49 35.5 84.5t85.5 35.5q49 0 84.5 -35.5t35.5 -84.5z" />
    <glyph glyph-name="yacute" unicode="&#xfd;" horiz-adv-x="1024" 
d="M608 221l82 228q67 189 67 259q0 83 -94 96q-42 7 -42 29q0 28 41 28q16 0 58 -5q44 -5 104 -5q40 0 97 6q48 6 55 6q48 0 48 -30q0 -17 -31 -25q-77 -21 -114 -85.5t-156 -402.5q-155 -439 -224.5 -587t-154 -211t-180.5 -63q-86 0 -134.5 42.5t-48.5 109.5
q0 43 34.5 81.5t90.5 38.5q90 0 114 -107q13 -54 40 -54q68 0 146.5 138.5t78.5 206.5q0 34 -62.5 183.5t-168 387.5t-134.5 273.5t-67 44.5q-39 8 -39 28q0 29 51 29q12 0 81 -7q42 -5 108 -5q109 0 191 8l43 4q40 0 40 -27q0 -26 -48 -35q-32 -6 -50 -27.5t-18 -41.5
q0 -22 53.5 -167t142.5 -342zM683 1362q34 0 60 -25.5t26 -57.5q0 -61 -105 -138q-82 -60 -155 -120t-97 -60q-12 0 -25.5 12t-13.5 23t89.5 144.5t133 177.5t87.5 44z" />
    <glyph glyph-name="thorn" unicode="&#xfe;" 
d="M387 1365v-623q58 64 120.5 95.5t129.5 31.5q162 0 278 -138t116 -300q0 -172 -124.5 -312t-286.5 -140q-54 0 -115 18t-130 53q0 -377 18.5 -449.5t110.5 -84.5q49 -6 49 -28q0 -27 -40 -27l-293 10q-41 0 -112 -5q-58 -5 -84 -5q-55 0 -55 25t35 29q67 6 90 24.5
t35 64.5t17 233.5t5 339.5l-1 353l1 393q0 281 -7 332.5t-72 54.5q-48 3 -48 29q0 16 14 21t66 5h283zM556 777q-91 0 -136.5 -109.5t-45.5 -328.5q0 -165 47.5 -227.5t131.5 -62.5q96 0 143.5 87.5t47.5 261.5q0 185 -54 282t-134 97z" />
    <glyph glyph-name="ydieresis" unicode="&#xff;" horiz-adv-x="1024" 
d="M608 221l82 228q67 189 67 259q0 83 -94 96q-42 7 -42 29q0 28 41 28q16 0 58 -5q44 -5 104 -5q40 0 97 6q48 6 55 6q48 0 48 -30q0 -17 -31 -25q-77 -21 -114 -85.5t-156 -402.5q-155 -439 -224.5 -587t-154 -211t-180.5 -63q-86 0 -134.5 42.5t-48.5 109.5
q0 43 34.5 81.5t90.5 38.5q90 0 114 -107q13 -54 40 -54q68 0 146.5 138.5t78.5 206.5q0 34 -62.5 183.5t-168 387.5t-134.5 273.5t-67 44.5q-39 8 -39 28q0 29 51 29q12 0 81 -7q42 -5 108 -5q109 0 191 8l43 4q40 0 40 -27q0 -26 -48 -35q-32 -6 -50 -27.5t-18 -41.5
q0 -22 53.5 -167t142.5 -342zM420 1142q0 -50 -35.5 -85.5t-85.5 -35.5q-49 0 -84.5 35.5t-35.5 85.5q0 49 35.5 84.5t84.5 35.5q50 0 85.5 -35.5t35.5 -84.5zM844 1142q0 -50 -35.5 -85.5t-84.5 -35.5q-50 0 -85.5 35.5t-35.5 85.5q0 49 35.5 84.5t85.5 35.5
q49 0 84.5 -35.5t35.5 -84.5z" />
    <glyph glyph-name="dotlessi" unicode="&#x131;" horiz-adv-x="619" 
d="M428 879q4 -140 4 -499l-3 -215q0 -65 21.5 -87t70.5 -29q56 -7 56 -32q0 -27 -44 -27q-21 0 -73 3q-110 7 -218 7q-53 0 -108 -5q-33 -4 -45 -4q-44 0 -44 27q0 26 58 31q77 7 86 51.5t9 180.5q0 176 -5.5 323.5t-20.5 168.5t-78 28q-49 5 -49 29t50 28l21 2z" />
    <glyph glyph-name="OE" unicode="&#x152;" horiz-adv-x="2261" 
d="M2068 1315l59 -276q6 -29 6 -35q0 -26 -31 -26q-21 0 -41 32q-74 118 -169 180t-257 62q-84 0 -182 -18q-14 -114 -16 -233l-3 -273q124 0 164.5 6.5t84 44.5t68.5 105q18 51 42 51q27 0 27 -33q0 -12 -1 -29q-11 -101 -11 -311q0 -46 5 -89q2 -16 2 -24q0 -34 -30 -34
q-12 0 -17.5 7.5t-21.5 53.5q-24 67 -52.5 100.5t-90 54.5t-169.5 25v-421q0 -82 13 -108.5t55.5 -42.5t134.5 -16q223 0 334.5 67.5t174.5 182.5q14 27 32 27q28 0 28 -25q0 -9 -3 -22q-2 -7 -7 -30l-61 -274h-501q-100 0 -220 13q-151 16 -236 16q-65 0 -185 -15
q-162 -20 -247 -20q-313 0 -485 194.5t-172 456.5q0 191 96 354t253 249.5t360 86.5q66 0 177 -15q124 -16 211 -16q72 0 191 10q86 7 173 7h518zM823 1254q-184 0 -288.5 -153t-104.5 -442q0 -230 91 -412t292 -182q102 0 176.5 46.5t111 121t51.5 222.5t15 317
q0 482 -344 482z" />
    <glyph glyph-name="oe" unicode="&#x153;" horiz-adv-x="1664" 
d="M903 747q131 149 313 149q170 0 278 -122t108 -302q0 -15 -17 -15l-320 -3q-150 0 -253 4q4 -215 79.5 -299t175.5 -84q107 0 235 116q20 18 31 18q30 0 30 -26q0 -29 -105 -115t-269 -86q-188 0 -325 179q-78 -89 -165 -134t-184 -45q-186 0 -314 134.5t-128 312.5
q0 117 62.5 221.5t174.5 174.5t252 70q207 0 341 -148zM1017 518q86 -3 130 -3q201 0 215.5 18t14.5 62q0 100 -43 169t-118 69q-88 0 -139.5 -89t-59.5 -226zM342 465q0 -210 49.5 -315t148.5 -105q98 0 166.5 112.5t68.5 277.5q0 188 -58 292.5t-159 104.5t-158.5 -100.5
t-57.5 -266.5z" />
    <glyph glyph-name="Scaron" unicode="&#x160;" 
d="M823 1274q13 13 26 40q15 32 34 32q27 0 33 -44l35 -274l4 -33q0 -27 -27 -27q-20 0 -29 9.5t-34 61.5q-43 89 -142 160t-199 71q-97 0 -161.5 -55.5t-64.5 -139.5q0 -67 60 -121t231 -102q268 -76 363 -188q94 -112 94 -249q0 -140 -69 -235t-165 -149.5t-246 -54.5
q-85 0 -176 24.5t-188 73.5q-20 -23 -34 -60q-16 -41 -40 -41q-25 0 -30 54l-29 363q-2 24 -2 30q0 29 30 29q22 0 42 -50q61 -150 166 -250q104 -100 243 -100q118 0 190.5 70t72.5 159t-67 150t-241 117q-169 55 -251.5 105t-132 137.5t-49.5 177.5q0 157 121.5 267
t330.5 110q113 0 301 -68zM641 1376h-170l-190 356q-10 18 -10 25t30 7h56l199 -203l193 203h59q31 0 31 -8q0 -7 -14 -33z" />
    <glyph glyph-name="scaron" unicode="&#x161;" horiz-adv-x="853" 
d="M767 279q0 -72 -37.5 -140t-113 -112.5t-176.5 -44.5q-126 0 -213 52q-38 22 -49 22q-13 0 -20 -17q-16 -40 -38 -40q-13 0 -18.5 10t-9 89.5t-3.5 188.5q0 42 24 42t51 -62q96 -225 262 -225q58 0 98.5 30t40.5 87q0 48 -37.5 82.5t-143.5 86.5q-160 79 -219 138
q-60 59 -60 157q0 113 87 183.5t214 70.5q101 0 205 -60q14 -8 23 -8q13 0 20 22q10 28 29 28q13 0 18 -9t14 -93.5t9 -140.5q0 -39 -23 -39q-24 0 -49 56q-85 186 -245 186q-58 0 -94 -29t-36 -62q0 -42 46 -77q46 -36 179 -97q114 -52 158.5 -80.5t75.5 -82t31 -112.5z
M513 968h-170l-190 356q-10 18 -10 25t30 7h56l199 -203l193 203h59q31 0 31 -8q0 -7 -14 -33z" />
    <glyph glyph-name="Ydieresis" unicode="&#x178;" horiz-adv-x="1472" 
d="M822 733q279 364 279 445q0 23 -15.5 47t-89.5 45q-30 8 -30 28q0 31 36 31q10 0 27 -2q128 -11 195 -11q73 0 173 10q19 2 32 2q29 0 29 -27q0 -25 -29 -28q-67 -7 -123.5 -44.5t-137 -143t-179 -249.5t-108.5 -175.5t-10 -217.5q0 -282 25.5 -338.5t126.5 -56.5
q36 0 36 -29q0 -30 -40 -30q-30 0 -165 9q-77 5 -110 5q-109 0 -247 -13q-26 -2 -41 -2q-38 0 -38 29q0 25 29 28q98 12 123.5 65.5t25.5 235.5q0 164 -19 218.5t-110 202t-181.5 283t-139 173.5t-104.5 48q-28 5 -28 27q0 31 35 31q16 0 50 -3q155 -11 227 -11
q114 0 256 11q29 2 49 2q34 0 34 -26q0 -25 -37 -29q-103 -10 -103 -73q0 -67 297 -467zM681 1557q0 -50 -35.5 -85.5t-85.5 -35.5q-49 0 -84.5 35.5t-35.5 85.5q0 49 35.5 84.5t84.5 35.5q50 0 85.5 -35.5t35.5 -84.5zM1105 1557q0 -50 -35.5 -85.5t-84.5 -35.5
q-50 0 -85.5 35.5t-35.5 85.5q0 49 35.5 84.5t85.5 35.5q49 0 84.5 -35.5t35.5 -84.5z" />
    <glyph glyph-name="florin" unicode="&#x192;" horiz-adv-x="1557" 
d="M839 150q-56 -260 -113 -391.5t-189 -216t-309 -84.5q-124 0 -178.5 38.5t-54.5 92.5q0 43 35.5 77.5t89.5 34.5q84 0 122 -108q17 -50 34 -62t43 -12q65 0 117.5 66.5t138.5 442.5l165 722q-29 1 -78 1q-71 0 -71 20q0 6 18 39.5t36 40t121 11.5q56 252 203.5 378
t365.5 126q124 0 178.5 -38.5t54.5 -92.5q0 -45 -37 -78.5t-87 -33.5q-85 0 -123 108q-17 50 -34 62t-43 12q-90 0 -139.5 -104t-99.5 -339q132 0 173 -5.5t41 -18.5q0 -7 -9 -21q-16 -25 -27.5 -44.5t-39.5 -19.5l-164 -3q-43 -175 -140 -600z" />
    <glyph glyph-name="circumflex" unicode="&#x2c6;" horiz-adv-x="683" 
d="M431 1355l178 -343q16 -30 16 -35q0 -10 -33 -10h-51l-197 208l-206 -208h-50q-30 0 -30 10q0 5 13 29l184 349h176z" />
    <glyph glyph-name="caron" unicode="&#x2c7;" horiz-adv-x="683" 
d="M428 968h-170l-190 356q-10 18 -10 25t30 7h56l199 -203l193 203h59q31 0 31 -8q0 -7 -14 -33z" />
    <glyph glyph-name="macron" unicode="&#x2c9;" horiz-adv-x="683" 
d="M26 1156h631v-143h-631v143z" />
    <glyph glyph-name="breve" unicode="&#x2d8;" horiz-adv-x="683" 
d="M340 984q-129 0 -201.5 79.5t-72.5 201.5q0 29 23 29q38 0 41.5 -2t10.5 -22q39 -121 204 -121q94 0 136 33q41 32 68 99q7 16 32 16q23 0 29 -3.5t6 -18.5q0 -111 -68 -201t-208 -90z" />
    <glyph glyph-name="dotaccent" unicode="&#x2d9;" horiz-adv-x="683" 
d="M462 1142q0 -50 -35.5 -85.5t-85.5 -35.5q-49 0 -84.5 35.5t-35.5 85.5q0 49 35.5 84.5t84.5 35.5q50 0 85.5 -35.5t35.5 -84.5z" />
    <glyph glyph-name="ring" unicode="&#x2da;" horiz-adv-x="683" 
d="M514 1159q0 -71 -51 -121.5t-122 -50.5t-121.5 50.5t-50.5 121.5t50.5 122t121.5 51q72 0 122.5 -50.5t50.5 -122.5zM424 1159q0 35 -24 59t-59 24q-34 0 -58 -24t-24 -59q0 -34 24 -58.5t58 -24.5q35 0 59 24.5t24 58.5z" />
    <glyph glyph-name="ogonek" unicode="&#x2db;" horiz-adv-x="683" 
d="M319 25h79q-71 -125 -71 -200q0 -42 29.5 -82.5t93.5 -40.5q28 0 53 9q20 7 28 7q27 0 27 -26q0 -35 -88 -63t-160 -28q-62 0 -110 33.5t-48 101.5q0 112 167 289z" />
    <glyph glyph-name="tilde" unicode="&#x2dc;" horiz-adv-x="683" 
d="M457 995q-54 0 -139 45q-91 49 -128 49q-59 0 -72 -81q-1 -9 -5.5 -12t-49.5 -3q-25 0 -25 15q0 102 50.5 174.5t143.5 72.5q60 0 149 -51q80 -45 111 -45q67 0 72 78q1 13 5.5 16t38.5 3q36 0 36 -19q0 -97 -47 -169.5t-140 -72.5z" />
    <glyph glyph-name="hungarumlaut" unicode="&#x2dd;" horiz-adv-x="683" 
d="M442 1276q0 -32 -28.5 -68.5t-127.5 -106.5q-62 -43 -137 -105q-45 -36 -62 -36q-11 0 -26.5 12.5t-15.5 22.5q0 14 90 145.5t133 176.5t88 45q40 0 63 -26.5t23 -59.5zM774 1276q0 -30 -25.5 -65.5t-110.5 -95.5t-157 -119q-44 -36 -62 -36q-10 0 -26 12t-16 23
q0 14 90 145.5t133 176.5t88 45q41 0 63.5 -26.5t22.5 -59.5z" />
    <glyph glyph-name="pi" unicode="&#x3c0;" horiz-adv-x="1124" 
d="M1039 935v-207h-215q-36 -291 -36 -423q0 -79 22 -119t65 -40q99 0 118 170h37q-12 -344 -211 -344q-95 0 -143 83t-48 248q0 143 35 425h-198q-32 -517 -84 -636.5t-132 -119.5q-47 0 -76.5 30.5t-29.5 71.5q0 53 56 152q52 94 74.5 198.5t26.5 303.5h-34
q-130 0 -177 -116h-37q36 122 92 202.5t104.5 100.5t158.5 20h632z" />
    <glyph glyph-name="endash" unicode="&#x2013;" horiz-adv-x="1024" 
d="M-12 589h1048v-154h-1048v154z" />
    <glyph glyph-name="emdash" unicode="&#x2014;" horiz-adv-x="2048" 
d="M-12 589h2072v-154h-2072v154z" />
    <glyph glyph-name="quoteleft" unicode="&#x2018;" horiz-adv-x="448" 
d="M354 1006q0 -49 -38.5 -82.5t-104.5 -33.5q-85 0 -125.5 49t-40.5 108q0 106 141 208t180 102q25 0 25 -28q0 -17 -20 -29q-147 -91 -147 -141q0 -22 54 -52q76 -42 76 -101z" />
    <glyph glyph-name="quoteright" unicode="&#x2019;" horiz-adv-x="448" 
d="M90 1241q0 49 38 82.5t104 33.5q83 0 124.5 -47.5t41.5 -109.5q0 -112 -144.5 -211t-176.5 -99q-25 0 -25 28q0 16 20 29q147 91 147 141q0 22 -54 52q-75 42 -75 101z" />
    <glyph glyph-name="quotesinglbase" unicode="&#x201a;" horiz-adv-x="448" 
d="M90 143q0 49 38.5 82.5t103.5 33.5q83 0 124.5 -47.5t41.5 -108.5q0 -107 -140.5 -209t-180.5 -102q-25 0 -25 28q0 17 20 29q147 92 147 141q0 22 -54 52q-75 42 -75 101z" />
    <glyph glyph-name="quotedblleft" unicode="&#x201c;" horiz-adv-x="853" 
d="M349 1006q0 -49 -38.5 -82.5t-104.5 -33.5q-85 0 -125.5 49t-40.5 108q0 106 141 208t180 102q25 0 25 -28q0 -17 -20 -29q-147 -91 -147 -141q0 -22 54 -52q76 -42 76 -101zM765 1006q0 -49 -38.5 -82.5t-104.5 -33.5q-85 0 -125.5 49t-40.5 108q0 106 141 208t180 102
q26 0 26 -28q0 -17 -21 -29q-147 -91 -147 -141q0 -22 55 -52q75 -42 75 -101z" />
    <glyph glyph-name="quotedblright" unicode="&#x201d;" horiz-adv-x="853" 
d="M89 1241q0 49 38 82.5t104 33.5q83 0 124.5 -47.5t41.5 -109.5q0 -112 -144.5 -211t-176.5 -99q-25 0 -25 28q0 16 20 29q147 91 147 141q0 22 -54 52q-75 42 -75 101zM505 1241q0 49 38.5 82.5t103.5 33.5q83 0 125 -47.5t42 -109.5q0 -106 -141 -208t-180 -102
q-26 0 -26 28q0 16 21 29q147 91 147 141q0 22 -55 52q-75 42 -75 101z" />
    <glyph glyph-name="quotedblbase" unicode="&#x201e;" horiz-adv-x="981" 
d="M152 143q0 49 38.5 82.5t103.5 33.5q83 0 124.5 -47.5t41.5 -108.5q0 -107 -140.5 -209t-180.5 -102q-25 0 -25 28q0 17 20 29q147 92 147 141q0 22 -54 52q-75 42 -75 101zM568 143q0 49 38.5 82.5t103.5 33.5q83 0 125 -47.5t42 -108.5q0 -112 -145 -211.5t-176 -99.5
q-26 0 -26 28q0 17 21 29q147 92 147 141q0 22 -55 52q-75 42 -75 101z" />
    <glyph glyph-name="dagger" unicode="&#x2020;" horiz-adv-x="1493" 
d="M806 -544h-89q-10 209 -44.5 529t-64.5 459.5t-43 168.5t-33 29q-17 0 -36 -26q-60 -84 -111.5 -102t-92.5 -18q-87 0 -151 55.5t-64 135.5q0 59 34.5 88t74.5 29q38 0 68.5 -28t30.5 -67q0 -72 -79 -102q11 -17 22 -26t21 -9q20 0 36.5 16t49.5 73q39 66 63 89t57 23
q68 0 151 -102q57 -69 104 -116q-10 34 -59 143q-66 149 -66 231q0 59 38 123.5t108 90.5q-108 20 -108 111q0 50 34.5 82t93.5 32q57 0 98 -34t41 -89q0 -88 -102 -108q58 -22 96.5 -80.5t38.5 -119.5q0 -87 -66 -225q-45 -94 -58 -152q72 72 108 116q42 49 69 69t61 20
q36 0 61.5 -24t79.5 -111q36 -58 67 -58q13 0 25 9t23 26q-85 37 -85 101q0 39 30.5 67.5t71.5 28.5q39 0 72.5 -31.5t33.5 -80.5q0 -75 -61.5 -136t-152.5 -61q-116 0 -193 112q-21 31 -35 31q-50 0 -86 -235t-82 -947z" />
    <glyph glyph-name="daggerdbl" unicode="&#x2021;" horiz-adv-x="1152" 
d="M603 450h-70l-97 523q-42 -23 -66 -23q-39 0 -70 47q-24 37 -44 54q6 -27 6 -43q0 -25 -18.5 -54.5t-63.5 -29.5q-39 0 -63 26.5t-24 65.5q0 45 31.5 81.5t87.5 36.5q63 0 115 -64q41 -50 66 -50q33 0 51 52q29 85 89 95q-69 30 -69 94q0 46 31.5 77t77.5 31t78.5 -30
t32.5 -74q0 -66 -71 -98q64 -20 87 -80q16 -43 27 -55q11 -13 32 -13q27 0 71 55q50 61 118 61q51 0 81.5 -31t30.5 -77q0 -43 -26 -73t-66 -30q-38 0 -59 25t-21 57q0 16 3 38q-16 -13 -46 -53q-35 -47 -71 -47q-14 0 -30.5 7.5t-36.5 21.5zM533 375h70l107 -523
q45 24 72 24q41 0 80 -59q16 -24 34 -39q-5 25 -5 43q0 29 21 55t57 26q37 0 64.5 -25.5t27.5 -64.5q0 -43 -28.5 -82t-88.5 -39q-79 0 -143 87q-20 29 -40 29q-36 0 -60 -66q-16 -41 -29.5 -55.5t-53.5 -27.5q72 -37 72 -98q0 -47 -31.5 -75t-78.5 -28q-49 0 -80 32.5
t-31 75.5q0 64 72 93q-44 12 -59.5 27t-32.5 59q-15 40 -25 51t-28 11q-22 0 -46 -27q-57 -64 -87.5 -77.5t-56.5 -13.5q-49 0 -81.5 35t-32.5 78q0 37 24.5 68t71.5 31q37 0 56 -25.5t19 -52.5q0 -16 -7 -44q22 15 50 54q33 47 71 47q27 0 63 -27z" />
    <glyph glyph-name="bullet" unicode="&#x2022;" horiz-adv-x="725" 
d="M649 676q0 -118 -84 -202t-202 -84q-119 0 -202.5 84t-83.5 202t84 202t202 84t202 -84t84 -202z" />
    <glyph glyph-name="ellipsis" unicode="&#x2026;" horiz-adv-x="2048" 
d="M1163 120q0 -58 -41 -99t-98 -41q-58 0 -98.5 41t-40.5 99q0 57 40.5 98t98.5 41t98.5 -41t40.5 -98zM481 120q0 -58 -41 -99t-99 -41q-57 0 -98 41t-41 99q0 57 41 98t98 41q58 0 99 -41t41 -98zM1846 120q0 -58 -41 -99t-98 -41q-58 0 -99 41t-41 99q0 57 41 98t99 41
q57 0 98 -41t41 -98z" />
    <glyph glyph-name="perthousand" unicode="&#x2030;" horiz-adv-x="2453" 
d="M1296 1341l-829 -1377h-117l827 1377h119zM83 994q0 133 92 240t257 107q161 0 255 -105.5t94 -241.5q0 -143 -98 -244.5t-251 -101.5q-165 0 -257 106.5t-92 239.5zM285 994q0 -149 42.5 -220.5t104.5 -71.5q70 0 108.5 78.5t38.5 213.5q0 136 -39 214t-108 78t-108 -78
t-39 -214zM865 313q0 144 98 245t251 101q161 0 255 -105t94 -241q0 -144 -98 -245.5t-251 -101.5q-165 0 -257 106.5t-92 240.5zM1067 312q0 -136 39 -214t108 -78t108 78.5t39 213.5q0 136 -39 214.5t-108 78.5t-108 -78.5t-39 -214.5zM1673 313q0 144 98 245t251 101
t251 -101.5t98 -244.5q0 -136 -93.5 -241.5t-255.5 -105.5q-153 0 -251 101t-98 246zM1875 312q0 -136 39 -214t108 -78t108 78.5t39 213.5q0 152 -42.5 222.5t-104.5 70.5q-69 0 -108 -78.5t-39 -214.5z" />
    <glyph glyph-name="guilsinglleft" unicode="&#x2039;" horiz-adv-x="619" 
d="M55 431q337 282 429 380q17 17 52 17q25 0 25 -12l-3 -9q-13 -20 -101 -178l-119 -198q53 -83 103 -171l87 -154l35 -64q0 -11 -14 -11q-35 0 -43.5 7t-99.5 87z" />
    <glyph glyph-name="guilsinglright" unicode="&#x203a;" horiz-adv-x="619" 
d="M563 429q-337 -282 -429 -380q-17 -18 -53 -18q-25 0 -25 13l4 9q13 20 101 177l118 199q-53 83 -102 170l-88 154l-34 65q0 10 13 10q31 0 39.5 -4.5t149.5 -127.5z" />
    <glyph glyph-name="Euro" unicode="&#x20ac;" horiz-adv-x="1087" 
d="M438 373q29 -328 258 -328q112 0 193 49t110 115q15 29 29 29q19 0 19 -25q0 -68 -100 -150.5t-259 -82.5q-193 0 -327.5 103.5t-180.5 289.5h-162l21 94h125l-2 57q0 28 2 39h-146l21 94h135q43 204 173.5 324.5t307.5 120.5q160 0 273.5 -63t113.5 -177
q0 -52 -32 -86.5t-84 -34.5t-86.5 33t-34.5 82q0 29 33 86q16 28 16 35q0 24 -48 42.5t-124 18.5q-215 0 -244 -381h307l-20 -94h-291v-96h311l-20 -94h-287z" />
    <glyph glyph-name="trademark" unicode="&#x2122;" horiz-adv-x="2048" 
d="M-3 1325h777v-226h-35q-3 74 -42 124t-152 50h-38v-588q0 -84 20 -108.5t83 -24.5v-35h-454v35q66 3 84.5 19t18.5 118v584h-35q-185 0 -194 -174h-33v226zM884 1325h368l231 -495l229 495h347v-38q-64 0 -82.5 -25t-18.5 -109v-473q0 -76 19.5 -100.5t81.5 -27.5v-35
h-461v35q74 1 94 24.5t20 104.5v505l-320 -669h-24l-318 669v-502q0 -65 6 -85t29.5 -33t79.5 -14v-35h-281v35q71 3 90.5 25.5t19.5 109.5v468q0 87 -21 109.5t-89 22.5v38z" />
    <glyph glyph-name="Omega" unicode="&#x2126;" horiz-adv-x="1573" 
d="M617 359l34 -359h-619v377h36q4 -69 33.5 -101t125.5 -32h328l-7 69q-251 53 -358.5 197t-107.5 315q0 231 185 396.5t519 165.5t519 -165.5t185 -396.5q0 -171 -107.5 -315t-358.5 -197l-7 -69h328q65 0 91.5 10t45.5 38t22 85h36v-377h-619l34 359q183 63 183 441
q0 287 -107 398t-245 111q-109 0 -191.5 -63t-121.5 -162.5t-39 -270.5q0 -392 183 -454z" />
    <glyph glyph-name="partialdiff" unicode="&#x2202;" horiz-adv-x="1003" 
d="M925 717q12 108 12 187q0 177 -94 276.5t-252 99.5q-95 0 -170.5 -39.5t-130.5 -119.5h-46q68 151 163.5 226t217.5 75q155 0 260.5 -123t105.5 -380q0 -361 -166 -655.5t-426 -294.5q-147 0 -243 86t-96 249q0 239 164.5 421.5t387.5 182.5q102 0 188 -52.5t125 -138.5z
M908 628q-37 113 -118 169t-169 56q-94 0 -185.5 -68.5t-149 -229t-57.5 -292.5q0 -105 52 -171t143 -66q136 0 279.5 163.5t204.5 438.5z" />
    <glyph glyph-name="Delta" unicode="&#x2206;" horiz-adv-x="1259" 
d="M1229 0h-1200l628 1387zM993 82l-399 967l-440 -967h839z" />
    <glyph glyph-name="product" unicode="&#x220f;" horiz-adv-x="1685" 
d="M1240 1354h-795v-1554q0 -85 39 -120t123 -35h36v-37h-597v37h35q93 0 128 38t35 117v1440q0 84 -38 119.5t-125 35.5h-35v37h1594v-37h-35q-92 0 -127 -38t-35 -117v-1440q0 -85 37.5 -120t124.5 -35h35v-37h-597v37h35q93 0 127.5 38t34.5 117v1554z" />
    <glyph glyph-name="summation" unicode="&#x2211;" horiz-adv-x="1460" 
d="M1356 -392h-1313v15l669 899l-669 873v37h1278l27 -337h-40q-27 256 -249 256h-740l562 -738l-629 -829h818q56 0 131.5 20.5t115.5 73.5t63 153l40 -8z" />
    <glyph glyph-name="fraction" unicode="&#x2215;" horiz-adv-x="85" 
d="M520 1368l-839 -1397h-116l839 1397h116z" />
    <glyph glyph-name="periodcentered" unicode="&#x2219;" horiz-adv-x="491" 
d="M385 541q0 -58 -41 -99t-99 -41q-57 0 -98 41t-41 99q0 57 41 98t98 41q58 0 99 -41t41 -98z" />
    <glyph glyph-name="radical" unicode="&#x221a;" horiz-adv-x="1131" 
d="M1053 1869h74l-312 -1947l-496 1021l-198 -91l-34 64l301 151l405 -823z" />
    <glyph glyph-name="infinity" unicode="&#x221e;" horiz-adv-x="1451" 
d="M649 809q70 169 158 223t212 54q97 0 180 -43t143 -139.5t60 -234.5q0 -187 -110.5 -303t-238.5 -116q-79 0 -155 49t-182 237q-113 -233 -324 -233q-108 0 -182 51.5t-117.5 127t-43.5 190.5q0 162 91 264t216 102q95 0 159 -49t134 -180zM745 607q66 -138 136 -201
t176 -63q135 0 211.5 95.5t76.5 230.5q0 145 -86.5 242t-195.5 97q-85 0 -150 -58t-168 -343zM620 732q-90 215 -267 215q-96 0 -172.5 -70t-76.5 -204q0 -131 70 -211.5t160 -80.5q68 0 139 56.5t147 294.5z" />
    <glyph glyph-name="integral" unicode="&#x222b;" horiz-adv-x="555" 
d="M197 895l12 445q9 344 75 433.5t148 89.5q43 0 84 -30.5t41 -76.5q0 -44 -25.5 -74t-66.5 -30q-35 0 -76 36q-23 20 -40 20q-40 0 -40 -63q0 -42 9 -146q37 -411 37 -665q0 -68 -12 -470.5t-77 -493t-151 -90.5q-49 0 -83.5 32.5t-34.5 88.5q0 43 24.5 71t65.5 28
q40 0 70 -33q28 -31 48 -31t29.5 15.5t9.5 45.5q0 42 -9 120q-38 317 -38 778z" />
    <glyph glyph-name="approxequal" unicode="&#x2248;" horiz-adv-x="1365" 
d="M1171 943h52q-3 -139 -76 -221.5t-182 -82.5q-56 0 -116 18.5t-260 101.5q-149 62 -216 62q-143 0 -178 -181h-52q6 159 82 232t168 73q100 0 381 -121q150 -64 217 -64q74 0 123.5 48.5t56.5 134.5zM1171 444h52q-3 -140 -76 -222.5t-182 -82.5q-55 0 -116.5 19
t-259.5 101q-149 62 -214 62q-145 0 -180 -180h-52q6 159 81.5 231.5t168.5 72.5q100 0 381 -120q150 -65 216 -65q83 0 127.5 52.5t53.5 131.5z" />
    <glyph glyph-name="notequal" unicode="&#x2260;" horiz-adv-x="1365" 
d="M139 844h601l209 530h110l-203 -530h369v-131h-422l-131 -337h553v-131h-604l-209 -529h-113l209 529h-369v131h420l131 337h-551v131z" />
    <glyph glyph-name="lessequal" unicode="&#x2264;" horiz-adv-x="1365" 
d="M140 774l1087 456v-142l-911 -374l911 -374v-143l-1088 458zM139 131h1088v-131h-1088v131z" />
    <glyph glyph-name="greaterequal" unicode="&#x2265;" horiz-adv-x="1365" 
d="M1225 774l2 -119l-1088 -458v143l910 374l-910 374v142zM1227 131v-131h-1088v131h1088z" />
    <glyph glyph-name="lozenge" unicode="&#x25ca;" horiz-adv-x="1012" 
d="M549 1422l418 -713l-418 -709h-111l-391 709l391 713h111zM495 1325l-340 -616l340 -615l359 615z" />
    <glyph glyph-name="apple" unicode="&#xf000;" horiz-adv-x="1621" 
d="M1156 1596q1 -38 1 -60q0 -73 -25.5 -129t-79 -102t-95.5 -67.5t-127 -27.5q-2 23 -2 33q0 84 77.5 200t250.5 153zM1456 1063q-189 -124 -189 -334q0 -215 232 -331q-114 -248 -208 -338.5t-203 -90.5q-50 0 -128 30q-75 29 -118 29q-50 0 -126 -29q-79 -30 -123 -30
q-174 0 -324 257t-150 510q0 191 110 336.5t344 145.5q72 0 144 -31q74 -32 120 -32q41 0 122 34q73 30 151 30q212 0 346 -156z" />
    <glyph glyph-name="fi" unicode="&#xf001;" 
d="M412 852l109 -1q243 0 437 44q-20 -236 -20 -523q0 -109 4 -193.5t21.5 -105.5t71.5 -25q40 -4 40 -28q0 -29 -39 -29q-18 0 -44 2q-83 7 -170 7q-68 0 -136 -5q-37 -4 -52 -4q-39 0 -39 29q0 24 36 29q64 8 76 43t12 346q0 222 -8 253.5t-34.5 40t-264.5 8.5v-350
q0 -255 8.5 -293.5t50.5 -44.5q47 -6 47 -30q0 -32 -42 -32q-14 0 -35 2q-75 9 -165 9q-64 0 -111 -6q-33 -5 -48 -5q-55 0 -55 31q0 25 50 30q39 3 52.5 16.5t17 62t3.5 207.5l-1 403q-76 0 -113 5.5t-37 22.5q0 63 17.5 72.5t132.5 11.5q0 246 109 380t322 134
q132 0 226 -48t94 -133q0 -50 -32 -85t-87 -35q-36 0 -62 15t-36.5 30.5t-32.5 74.5q-25 69 -47 93q-23 23 -70 23q-75 0 -117.5 -74t-42.5 -210q0 -59 4 -165z" />
    <glyph glyph-name="fl" unicode="&#xf002;" horiz-adv-x="1173" 
d="M760 750q-44 -2 -65 -2l-190 5q-22 0 -81 -3q-7 -126 -7 -414q0 -143 7 -197.5t22 -69t76 -21.5q37 -3 37 -26q0 -32 -51 -32q-22 0 -90 6q-56 5 -108 5t-108 -5q-67 -6 -94 -6q-53 0 -53 30q0 24 53 29q44 4 61 22t17 83l4 596h-96l-30 -1q-31 0 -31 19q0 15 5 39l5 27
q4 11 11 14.5t52 5.5l84 5q4 291 124 400t287 109q35 0 96 -5q99 -7 168 -7q73 0 139 12q-12 -456 -12 -942q0 -296 14.5 -337.5t82.5 -41.5q46 0 46 -28t-40 -28q-46 0 -132 4q-68 4 -97 4q-35 0 -103 -4q-70 -5 -86 -5q-42 0 -42 32q0 22 46 28q54 7 66.5 58t12.5 293v349
zM424 866h336q3 145 3 166q0 271 -166 271q-67 0 -121.5 -58t-54.5 -276q0 -46 3 -103z" />
    </font>
</defs>
</svg>
