<?xml version="1.0" standalone="no"?>
<!DOCTYPE svg PUBLIC "-//W3C//DTD SVG 1.1//EN" "http://www.w3.org/Graphics/SVG/1.1/DTD/svg11.dtd" >
<svg xmlns="http://www.w3.org/2000/svg" xmlns:xlink="http://www.w3.org/1999/xlink" version="1.1">
<metadata>
Created by FontForge 20170731 at Tue Dec 12 18:03:44 2023
 By Aleksey,,,
Copyright 1990 as an unpublished work by Bitstream Inc.  All rights reserved.  Confidential.
</metadata>
<defs>
<font id="BaskervilleBT-Roman" horiz-adv-x="1024" >
  <font-face 
    font-family="Baskerville"
    font-weight="500"
    font-stretch="normal"
    units-per-em="2048"
    panose-1="0 0 0 0 0 0 0 0 0 0"
    ascent="1638"
    descent="-410"
    x-height="901"
    cap-height="1372"
    bbox="-342 -578 2355 1960"
    underline-thickness="114"
    underline-position="-399"
    unicode-range="U+0020-FB02"
  />
<missing-glyph horiz-adv-x="561" 
 />
    <glyph glyph-name=".notdef" horiz-adv-x="561" 
 />
    <glyph glyph-name=".null" horiz-adv-x="0" 
 />
    <glyph glyph-name="nonmarkingreturn" horiz-adv-x="682" 
 />
    <glyph glyph-name="space" unicode=" " horiz-adv-x="561" 
 />
    <glyph glyph-name="exclam" unicode="!" horiz-adv-x="616" 
d="M193 94q0 49 34 83t82 34t81.5 -34t33.5 -83q0 -47 -34 -80.5t-83 -33.5q-48 0 -81 32.5t-33 81.5zM285 340v158q0 173 -21.5 336.5t-43 271t-21.5 145.5q0 72 29.5 112t80.5 40t80 -39t29 -109q0 -51 -21.5 -165.5t-43 -273.5t-21.5 -320v-156h-47z" />
    <glyph glyph-name="quotedbl" unicode="&#x22;" horiz-adv-x="677" 
d="M190 864h-32l-64 457q-4 28 -4 41q0 49 22 74.5t62 25.5t63 -25.5t23 -74.5q0 -9 -4 -41zM518 864h-31l-65 457q-4 28 -4 39q0 50 22.5 76t63.5 26q40 0 62 -25.5t22 -74.5q0 -25 -2 -41z" />
    <glyph glyph-name="numbersign" unicode="#" horiz-adv-x="1574" 
d="M778 1456h133l-168 -473h287l168 473h131l-166 -473h307l-40 -115h-310l-100 -286h332l-43 -115h-330l-166 -469h-133l166 469h-287l-166 -469h-131l166 469h-324l43 115h322l100 286h-348l43 115h348zM700 868l-100 -286h289l102 286h-291z" />
    <glyph glyph-name="dollar" unicode="$" horiz-adv-x="1124" 
d="M428 -291v289q-158 13 -250 72t-92 133q0 40 23.5 65t62.5 25q42 0 67 -25t25 -67q0 -17 -3 -37.5t-3 -24.5q0 -36 44.5 -62t125.5 -32v645q-159 71 -227 147t-68 193q0 115 76 200t219 126v164h57v-154q50 4 76 4q34 0 70 -4v154h55v-158q132 -18 207.5 -77.5
t75.5 -137.5q0 -74 -72 -74q-37 0 -57.5 22t-20.5 60q0 7 3 25t3 32q0 50 -30.5 72t-108.5 31v-539q166 -73 238.5 -161t72.5 -224q0 -302 -311 -379v-303h-55v291q-54 -4 -86 -4q-10 0 -30.5 1t-29.5 1v-289h-57zM428 893v412q-82 -26 -126 -80t-44 -129q0 -128 170 -203z
M485 868q114 -51 146 -67v522q-30 6 -86 6q-39 0 -60 -8v-453zM485 43q25 -2 68 -2q53 0 78 4v557q-67 34 -146 64v-623zM686 66q186 51 186 256q0 86 -45 146t-141 103v-505z" />
    <glyph glyph-name="percent" unicode="%" horiz-adv-x="1634" 
d="M393 -102h-88l813 1386q-107 -70 -248 -70q-93 0 -178 39q21 -77 21 -141q0 -139 -66 -268q-117 -234 -315 -234q-123 0 -202 87t-79 227q0 95 37.5 186.5t106.5 161.5q63 65 140 99t154 34q54 0 93 -16.5t82 -51.5q47 -38 94 -55.5t110 -17.5q115 0 215 56.5t154 152.5
h76zM201 836q0 -78 46.5 -128.5t117.5 -50.5q57 0 112.5 36t98 97.5t68.5 148t26 181.5q0 105 -45.5 170.5t-112.5 65.5q-51 0 -99.5 -29.5t-84.5 -83.5q-127 -194 -127 -407zM1221 -35q-138 0 -224 88t-86 234q0 99 36.5 189t97 154t140.5 102t165 38q108 0 167.5 -75
t59.5 -214q0 -106 -31.5 -203.5t-82 -165t-114.5 -107.5t-128 -40zM1063 229q0 -209 168 -209q57 0 112 36t98.5 97t70 150t26.5 189q0 107 -46 169t-118 62q-123 0 -215 -164q-45 -83 -70.5 -173.5t-25.5 -156.5z" />
    <glyph glyph-name="ampersand" unicode="&#x26;" horiz-adv-x="1568" 
d="M842 172q-177 -205 -420 -205q-132 0 -213.5 74t-81.5 182q0 240 338 432q-146 221 -146 387q0 152 93.5 256.5t230.5 104.5q118 0 197.5 -77t79.5 -191q0 -203 -283 -406q193 -262 293 -362q63 87 127.5 204.5t83.5 141.5q91 116 190 116q65 0 107.5 -38.5t42.5 -100.5
q0 -48 -31 -78t-82 -30q-92 0 -92 106q0 5 2 17t2 18q0 7 -6.5 12.5t-16.5 5.5q-33 0 -65.5 -49.5t-94.5 -162t-130 -203.5q224 -242 338 -242q36 0 67.5 12.5t48.5 27.5t32.5 27.5t23.5 12.5q6 0 11 -6t5 -15q0 -49 -88.5 -109.5t-204.5 -60.5q-92 0 -172 47.5t-186 151.5z
M807 209q-199 208 -320 405q-91 -55 -139.5 -132t-48.5 -163q0 -109 65 -182.5t164 -73.5q148 0 279 146zM606 766q182 142 182 334q0 124 -46 189t-132 65q-74 0 -123 -58.5t-49 -152.5q0 -145 168 -377z" />
    <glyph glyph-name="quotesingle" unicode="'" horiz-adv-x="348" 
d="M190 864h-32l-66 457q-2 14 -2 39q0 102 84 102q40 0 63 -25.5t23 -74.5q0 -9 -4 -41z" />
    <glyph glyph-name="parenleft" unicode="(" horiz-adv-x="675" 
d="M559 -428q-420 423 -420 909q0 248 103 469.5t319 454.5l41 -37q-305 -334 -305 -870q0 -281 73 -497t232 -392z" />
    <glyph glyph-name="parenright" unicode=")" horiz-adv-x="675" 
d="M137 1405q422 -425 422 -909q0 -248 -103 -469.5t-319 -454.5l-41 39q156 170 229.5 383.5t73.5 484.5q0 281 -72 497t-231 392z" />
    <glyph glyph-name="asterisk" unicode="*" 
d="M500 1014v16q0 56 -17.5 111t-35 97.5t-17.5 68.5q0 43 22.5 69.5t59.5 26.5q35 0 58.5 -24.5t23.5 -63.5q0 -28 -17.5 -72.5t-35 -101.5t-17.5 -115v-12q34 17 63.5 41.5t44 41.5t36.5 46.5t28 36.5q48 57 107 57q32 0 54 -23t22 -57q0 -68 -84 -92q-12 -3 -58 -8
t-97 -20t-103 -46q49 -30 100.5 -44t98 -18.5t63.5 -10.5q36 -12 58 -38.5t22 -54.5q0 -33 -23.5 -56.5t-58.5 -23.5q-50 0 -105 64q-4 5 -22.5 30t-32.5 42t-45 43t-68 47v-17q0 -55 17.5 -110t35 -97.5t17.5 -68.5q0 -43 -22.5 -69.5t-59.5 -26.5q-35 0 -58.5 24.5
t-23.5 63.5q0 28 17.5 72.5t35 101t17.5 114.5v13q-34 -17 -63.5 -41.5t-44 -41.5t-36.5 -46.5t-28 -36.5q-48 -57 -107 -57q-32 0 -54 22.5t-22 56.5q0 69 84 93q13 4 58 8t96.5 18t103.5 45q-49 30 -99.5 45t-98 21t-62.5 10q-39 12 -60.5 36.5t-21.5 55.5q0 34 23.5 57
t58.5 23q51 0 105 -63q4 -5 22.5 -30t32.5 -42t45 -43t68 -47z" />
    <glyph glyph-name="plus" unicode="+" horiz-adv-x="1705" 
d="M795 1221h118v-551h539v-117h-539v-553h-118v553h-541v117h541v551z" />
    <glyph glyph-name="comma" unicode="," horiz-adv-x="561" 
d="M334 16q-34 -18 -66 -18q-44 0 -72 30t-28 76q0 47 32 80t81 33q70 0 113.5 -46.5t43.5 -121.5q0 -106 -72.5 -200t-207.5 -156l-25 33q102 64 155.5 132.5t53.5 121.5q0 20 -8 36z" />
    <glyph glyph-name="hyphen" unicode="-" horiz-adv-x="679" 
d="M94 387v139h496v-139h-496z" />
    <glyph glyph-name="period" unicode="." horiz-adv-x="561" 
d="M166 100q0 47 34 81t81 34t80.5 -34t33.5 -81q0 -48 -32.5 -81t-81.5 -33q-48 0 -81.5 32.5t-33.5 81.5z" />
    <glyph glyph-name="slash" unicode="/" horiz-adv-x="557" 
d="M31 -190h-80l518 1593h80z" />
    <glyph glyph-name="zero" unicode="0" horiz-adv-x="1124" 
d="M104 678q0 161 37.5 298.5t100.5 230.5t148 145.5t179 52.5q196 0 336 -223q127 -198 127 -500q0 -306 -135 -514q-129 -203 -328 -203q-111 0 -190.5 55t-151.5 175q-123 208 -123 483zM303 688q0 -343 64 -509.5t198 -166.5q145 0 207 160t62 508q0 347 -64 513.5
t-203 166.5q-136 0 -200 -165.5t-64 -506.5z" />
    <glyph glyph-name="one" unicode="1" horiz-adv-x="1124" 
d="M487 193v956q0 58 -14.5 88.5t-48.5 36.5q-28 5 -71 7.5t-61 6.5t-18 17q0 8 4.5 12.5t17.5 7t27 4t41.5 4.5t51.5 6q75 11 134.5 31t87 34.5t30.5 14.5q10 0 10 -35q0 -3 -2 -34.5t-4 -89.5t-2 -125v-936q0 -76 19.5 -110t74.5 -46q22 -4 57.5 -7.5t46.5 -8.5t11 -19
q0 -18 -45 -18q-3 0 -36.5 2t-96 4t-134.5 2q-64 0 -120.5 -2t-88.5 -4t-36 -2q-43 0 -43 18q0 9 4.5 14t15.5 7.5t23 4t32.5 3.5t38.5 6q53 10 73.5 44t20.5 106z" />
    <glyph glyph-name="two" unicode="2" horiz-adv-x="1124" 
d="M289 174q158 -6 329 -6q86 0 184.5 4t110.5 4q25 0 35 -5.5t10 -20.5q0 -13 -2 -21l-47 -231q-3 -21 -16 -21q-23 0 -23 23q0 7 2 20.5t2 20.5q0 42 -15.5 50.5t-80.5 8.5h-606q-8 0 -23 -3t-22 -3q-21 0 -21 8q0 26 66 118t186 222q23 25 134 133.5t161 175.5
q131 176 131 389q0 149 -76 233.5t-208 84.5q-103 0 -173.5 -69t-70.5 -169q0 -95 50.5 -154t129.5 -59q29 0 58 9l28 10q15 0 15 -11q0 -28 -59 -64t-138 -36q-89 0 -154 70.5t-65 173.5q0 149 115.5 247.5t302.5 98.5q204 0 328 -108.5t124 -284.5q0 -147 -80 -256
q-17 -22 -37.5 -44.5t-37 -38.5t-43.5 -39t-40.5 -34t-45.5 -36.5t-43 -33.5q-205 -164 -258 -212q-88 -82 -117 -144z" />
    <glyph glyph-name="three" unicode="3" horiz-adv-x="1124" 
d="M584 782h22q176 0 277.5 -89t101.5 -238q0 -184 -143 -324q-167 -164 -398 -164q-144 0 -235.5 60.5t-91.5 140.5q0 44 25.5 68t70.5 24q42 0 60 -24.5t40 -88.5q24 -70 61.5 -100.5t106.5 -30.5q146 0 222.5 100.5t76.5 293.5q0 329 -211 329q-45 0 -79.5 -23.5
t-75.5 -76.5q-2 -3 -7.5 -10t-7.5 -9.5t-6.5 -8.5t-7 -8t-6 -6.5t-6 -6t-6 -4t-6.5 -3.5t-6.5 -2t-6.5 -1q-19 0 -32 11.5t-13 24.5q0 14 5 25t19 22t25.5 18.5t38 22t43.5 25.5q96 59 150.5 110.5t85 123.5t30.5 170q0 110 -49.5 167.5t-140.5 57.5q-96 0 -156.5 -57.5
t-60.5 -149.5q0 -55 37.5 -97t87.5 -42q25 0 53 9t31 9q14 0 14 -10q0 -21 -52 -54.5t-112 -33.5q-81 0 -132.5 50.5t-51.5 127.5q0 108 113.5 201.5t275.5 93.5q152 0 243 -73t91 -181q0 -106 -75 -194.5t-232 -174.5z" />
    <glyph glyph-name="four" unicode="4" horiz-adv-x="1124" 
d="M623 449h-543q-15 0 -26 10.5t-11 25.5q0 24 37 70l657 823q31 39 45 39q25 0 25 -55v-840h201q26 0 41.5 -11t15.5 -26t-14.5 -25.5t-38.5 -10.5h-209v-265q0 -61 15.5 -91.5t60.5 -39.5q22 -4 47.5 -7t41 -4t29.5 -3t20.5 -6.5t6.5 -12.5q0 -24 -51 -24q-8 0 -92.5 4
t-161.5 4q-92 0 -187 -5t-98 -5q-39 0 -39 24q0 5 2.5 9t8.5 7t12.5 4.5t19 3t23 2.5t29.5 3t34 4q51 6 75 35.5t24 89.5v273zM631 522v633l-504 -633h504z" />
    <glyph glyph-name="five" unicode="5" horiz-adv-x="1124" 
d="M289 733q57 69 137.5 106.5t169.5 37.5q175 0 280 -103.5t105 -277.5q0 -229 -153 -378t-386 -149q-151 0 -243.5 60.5t-92.5 142.5q0 39 26 64.5t63 25.5q18 0 31.5 -5t21.5 -10.5t16 -20.5t11 -23t11 -31t11 -33q23 -65 63 -92t113 -27q151 0 231 116t80 339
q0 174 -58.5 258t-186.5 84q-90 0 -161 -57.5t-71 -112.5q0 -14 2 -34.5t2 -26.5q0 -51 -41 -51q-19 0 -31 16t-12 43q0 12 5 44t6 54l22 674q2 24 7 33.5t18 9.5q9 0 19 -7t24.5 -19t25.5 -19q88 -59 240 -59q114 0 194 63q15 13 29 29t21 24.5t12 8.5q7 0 12.5 -5.5
t5.5 -11.5q0 -25 -19 -71.5t-52 -86.5q-94 -116 -305 -116q-98 0 -189 24z" />
    <glyph glyph-name="six" unicode="6" horiz-adv-x="1124" 
d="M301 713q80 90 160.5 133t173.5 43q183 0 295 -114t112 -300q0 -223 -136 -366.5t-347 -143.5q-209 0 -334 171.5t-125 475.5q0 209 61 383.5t167 282.5q122 125 321 125q134 0 215.5 -50.5t81.5 -127.5q0 -36 -24.5 -58t-63.5 -22q-32 0 -55.5 19t-46.5 59
q-19 35 -30 52t-31 38.5t-45 30t-60 8.5q-137 0 -213 -160.5t-76 -466.5v-12zM303 639q-4 -51 -4 -141q0 -245 68 -365.5t208 -120.5q126 0 197.5 111.5t71.5 318.5q0 197 -58 291t-186 94q-156 0 -297 -188z" />
    <glyph glyph-name="seven" unicode="7" horiz-adv-x="1124" 
d="M899 1200h-537q-69 0 -100 -27t-57 -100q-9 -25 -17.5 -60.5t-15 -47t-20.5 -11.5q-25 0 -25 31q0 10 2 16l102 496q6 33 27 33q23 0 23 -31q0 -8 -3.5 -30t-3.5 -35q0 -43 17.5 -54.5t66.5 -11.5h615q35 0 35 -14q0 -10 -21 -56t-58 -130t-80 -191.5t-95.5 -268.5
t-96.5 -333q-12 -46 -24.5 -102.5t-20 -91.5t-17.5 -74t-20.5 -62t-25 -43t-34.5 -28.5t-46 -8.5q-43 0 -66.5 26t-23.5 72q0 85 122.5 347.5t397.5 789.5z" />
    <glyph glyph-name="eight" unicode="8" horiz-adv-x="1124" 
d="M412 702q-250 140 -250 347q0 142 116 248t293 106q164 0 272.5 -93t108.5 -223q0 -178 -213 -321q140 -81 206.5 -174t66.5 -215q0 -178 -129 -294t-332 -116q-194 0 -313 94.5t-119 247.5q0 117 70.5 209.5t222.5 183.5zM457 682q-92 -60 -139.5 -142.5t-47.5 -203.5
q0 -155 74.5 -237.5t212.5 -82.5q148 0 234 79t86 212q0 46 -11 83t-36.5 68.5t-57 57.5t-82.5 54t-101.5 52t-126.5 58q-1 0 -2.5 0.5t-2.5 1.5zM694 791q125 107 125 280q0 135 -71 214t-193 79q-115 0 -190.5 -68.5t-75.5 -171.5q0 -99 97.5 -176.5t307.5 -156.5z" />
    <glyph glyph-name="nine" unicode="9" horiz-adv-x="1124" 
d="M842 657q-157 -176 -336 -176q-183 0 -294.5 114t-111.5 300q0 223 136.5 366.5t347.5 143.5q209 0 333.5 -171t124.5 -476q0 -209 -61.5 -383.5t-167.5 -282.5q-122 -125 -319 -125q-134 0 -215.5 50.5t-81.5 127.5q0 36 24.5 58t63.5 22q32 0 55.5 -19t46.5 -59
q19 -35 30 -52t31 -38.5t45 -30t60 -8.5q137 0 213 160.5t76 466.5v12zM840 731q4 51 4 141q0 245 -68 365.5t-209 120.5q-126 0 -197 -111.5t-71 -318.5q0 -197 58 -291t186 -94q156 0 297 188z" />
    <glyph glyph-name="colon" unicode=":" horiz-adv-x="616" 
d="M195 100q0 47 33.5 81t80.5 34t80 -34t33 -81q0 -48 -33 -81t-82 -33q-48 0 -80 32.5t-32 81.5zM195 784q0 47 33.5 81t80.5 34t80 -34t33 -81t-33 -79.5t-82 -32.5q-48 0 -80 31.5t-32 80.5z" />
    <glyph glyph-name="semicolon" unicode=";" horiz-adv-x="616" 
d="M352 16q-34 -18 -63 -18q-44 0 -73.5 30t-29.5 76q0 47 32 80t81 33q71 0 114.5 -46.5t43.5 -121.5q0 -106 -73 -200t-208 -156l-24 33q102 64 156 132.5t54 121.5q0 16 -10 36zM186 788q0 46 33 79.5t80 33.5q46 0 78.5 -33.5t32.5 -79.5q0 -45 -33 -78.5t-80 -33.5
q-46 0 -78.5 32.5t-32.5 79.5z" />
    <glyph glyph-name="less" unicode="&#x3c;" horiz-adv-x="1705" 
d="M1442 1145v-127l-1000 -408l1000 -405v-129l-1178 483v103z" />
    <glyph glyph-name="equal" unicode="=" horiz-adv-x="1705" 
d="M254 860h1198v-117h-1198v117zM254 477h1198v-117h-1198v117z" />
    <glyph glyph-name="greater" unicode="&#x3e;" horiz-adv-x="1705" 
d="M264 1145l1178 -483v-103l-1178 -483v129l1000 405l-1000 408v127z" />
    <glyph glyph-name="question" unicode="?" horiz-adv-x="901" 
d="M305 317v408h129q136 0 206.5 59t70.5 174q0 130 -71.5 211.5t-184.5 81.5q-36 0 -97 -9t-84 -9q-108 0 -108 84q0 39 35.5 63.5t93.5 24.5q72 0 153 -30.5t140 -82.5q86 -75 135 -185.5t49 -229.5q0 -157 -100.5 -240.5t-290.5 -83.5h-27v-236h-49zM223 92q0 49 34.5 83
t82.5 34t81.5 -34t33.5 -83q0 -50 -33 -83.5t-82 -33.5q-48 0 -82.5 34t-34.5 83z" />
    <glyph glyph-name="at" unicode="@" horiz-adv-x="2019" 
d="M1098 965q-56 0 -101 -31.5t-90 -99.5q-74 -112 -115.5 -237.5t-41.5 -221.5q0 -94 41 -147.5t108 -53.5q131 0 242 178q59 96 92 204.5t33 195.5q0 94 -47.5 153.5t-120.5 59.5zM1190 336q-123 -211 -309 -211q-125 0 -201 92t-76 244q0 107 48.5 214.5t138.5 194.5
q66 65 146 100.5t153 35.5q177 0 221 -195l53 180h143l-170 -610q-18 -65 -18 -109q0 -47 25.5 -74.5t68.5 -27.5q32 0 77 17t87 49q121 90 186.5 230.5t65.5 315.5q0 276 -203 455q-90 79 -216 122.5t-267 43.5q-374 0 -617 -234q-264 -255 -264 -663q0 -174 57 -304
t181 -235q231 -196 581 -196q330 0 613 206l30 -36q-302 -222 -655 -222q-374 0 -616 185q-151 114 -229.5 275.5t-78.5 357.5q0 203 85.5 380.5t250.5 313.5q265 221 635 221q347 0 553.5 -187t206.5 -499q0 -158 -58 -297.5t-163 -235.5q-117 -108 -258 -108
q-195 0 -207 211z" />
    <glyph glyph-name="A" unicode="A" horiz-adv-x="1355" 
d="M377 559h475l-229 592zM354 500l-90 -226q-26 -68 -26 -116q0 -77 67 -103q16 -6 41.5 -11t37 -10.5t11.5 -19.5q0 -18 -39 -18q-6 0 -69 6t-121 6q-44 0 -102 -4t-70 -4q-51 0 -51 23q0 11 10 16.5t25 7.5t40.5 9t47.5 18q38 19 69.5 68.5t69.5 140.5l457 1089
q16 39 36 39q21 0 39 -43l453 -1141q28 -70 56 -109t67 -55q22 -10 53 -14.5t46 -9.5t15 -19q0 -20 -41 -20q-24 0 -111 4t-149 4q-41 0 -123 -6t-124 -6q-54 0 -54 22q0 18 60 27q59 8 85.5 25t26.5 49q0 55 -30 131l-95 250h-518z" />
    <glyph glyph-name="B" unicode="B" horiz-adv-x="1462" 
d="M528 238q0 -100 54 -145.5t176 -45.5q141 0 226 87.5t85 236.5q0 170 -101.5 249.5t-314.5 79.5h-18q-73 0 -90 -9t-17 -52v-401zM528 805q0 -37 11 -48.5t53 -11.5q188 0 274 67t86 216q0 151 -74.5 225t-226.5 74q-84 0 -103.5 -12.5t-19.5 -63.5v-446zM838 737
q473 -50 473 -375q0 -182 -142.5 -274t-423.5 -92q-43 0 -152 5t-175 5q-72 0 -135 -2.5t-96.5 -5t-36.5 -2.5q-39 0 -39 22q0 16 20 21t55 8.5t58 15.5q42 20 54.5 56t12.5 110v922q0 71 -13 107t-54 55q-21 10 -56 14t-56 8t-21 17q0 20 39 20q4 0 39.5 -2t97 -4t131.5 -2
q30 0 108 4t127 4q262 0 390 -80.5t128 -247.5q0 -240 -333 -307z" />
    <glyph glyph-name="C" unicode="C" horiz-adv-x="1462" 
d="M1343 51q0 -22 -22 -22q-11 0 -18 12t-9.5 26.5t-12.5 26.5t-28 12q-14 0 -28.5 -6.5t-35.5 -20.5t-32 -20q-165 -92 -360 -92q-142 0 -270.5 47.5t-219.5 132.5q-207 192 -207 508q0 245 123 435q98 151 254 231t352 80q83 0 159.5 -16.5t120 -37t77.5 -37t43 -16.5
q15 0 24 19.5t16.5 39t18.5 19.5q22 0 25 -45l10 -301q0 -5 0.5 -10.5t0.5 -8.5t0.5 -5t0.5 -3q0 -28 -22 -28q-12 0 -17 10.5t-12 39t-17 52.5q-59 145 -160.5 216t-254.5 71q-223 0 -356.5 -184t-133.5 -510q0 -301 135.5 -474.5t362.5 -173.5q135 0 239 70.5t158 198.5
q15 35 27 70t18 55t11.5 36.5t11 23.5t12.5 7q6 0 11 -5.5t5 -14.5v-408z" />
    <glyph glyph-name="D" unicode="D" horiz-adv-x="1574" 
d="M520 328q0 -153 52 -217t194 -64q244 0 352.5 141.5t108.5 448.5q0 362 -134 529t-429 167q-88 0 -116 -19.5t-28 -94.5v-891zM303 1159q0 71 -13.5 108t-53.5 56q-22 11 -57 14.5t-56 7t-21 15.5q0 22 39 22q6 0 41.5 -2.5t97 -5t130.5 -2.5q47 0 140.5 5t141.5 5
q371 0 577 -187.5t206 -520.5q0 -676 -742 -676q-79 0 -197.5 4t-156.5 4q-63 0 -119 -2t-87 -4t-34 -2q-37 0 -37 20q0 16 20 21t55.5 8.5t58.5 15.5q42 20 54.5 57t12.5 111v928z" />
    <glyph glyph-name="E" unicode="E" horiz-adv-x="1349" 
d="M524 352q0 -49 1.5 -81t6.5 -65t13.5 -52.5t24 -39t37 -29.5t53 -18t71.5 -11t94 -3q142 0 221.5 27.5t122.5 99.5q15 26 24.5 55t12 46.5t9 29t18.5 11.5q14 0 18 -13.5t4 -48.5q0 -32 -4 -101t-4 -106q0 -40 -9.5 -48.5t-57.5 -8.5q-4 0 -99.5 2.5t-274.5 5t-386 2.5
q-72 0 -135 -2.5t-96.5 -5t-36.5 -2.5q-37 0 -37 22q0 16 20 21t55 8.5t58 15.5q41 20 53 55.5t12 110.5v922q0 72 -12.5 107.5t-52.5 54.5q-21 10 -56 14t-56 8t-21 17q0 20 37 20q4 0 45 -2t116 -4t160 -2q68 0 236 3t270 3h45q74 0 98.5 -8t24.5 -41q0 -4 -3 -41t-3 -70
q0 -29 4 -64.5t4 -41.5q0 -33 -23 -33q-13 0 -19.5 13t-7.5 31.5t-8.5 46.5t-21.5 50q-42 68 -126.5 88.5t-248.5 20.5h-16q-42 0 -61 -0.5t-41 -4.5t-28.5 -9.5t-14 -19.5t-8.5 -30.5t-1 -46.5v-471q130 6 196.5 29t104.5 84q18 29 26 70t13.5 63.5t20.5 22.5q24 0 24 -35
q0 -13 -5 -86t-5 -133q0 -82 6 -169t6 -91q0 -37 -22 -37q-11 0 -15.5 13.5t-12 45t-19.5 57.5q-31 67 -96.5 93t-184.5 26h-37v-340z" />
    <glyph glyph-name="F" unicode="F" horiz-adv-x="1241" 
d="M537 229q0 -76 12.5 -111t58.5 -55q27 -12 66.5 -16t60.5 -8.5t21 -20.5q0 -22 -39 -22q-2 0 -39 2.5t-105 5t-145 2.5q-72 0 -135 -2.5t-96.5 -5t-36.5 -2.5q-37 0 -37 22q0 16 20 21t55 8.5t58 15.5q42 21 55 57t13 109v922q0 70 -13.5 106.5t-54.5 55.5q-21 10 -56 14
t-56 8t-21 17q0 20 39 20q4 0 43.5 -2t111.5 -4t154 -2q166 0 310.5 2t224 4t86.5 2q69 0 77 -29q5 -15 5 -40v-35q1 -45 5 -84t7.5 -60t3.5 -24q0 -31 -19 -31q-16 0 -23 17.5t-18.5 54t-33.5 65.5q-44 62 -138 87.5t-253 25.5q-134 0 -150 -16q-20 -20 -20 -158v-432
q124 3 187.5 18t102.5 62q29 33 41 78.5t17.5 71.5t21.5 26q23 0 23 -47q0 -3 -1 -22t-2 -52t-1 -70q0 -98 4 -198t4 -101q0 -19 -6.5 -30t-14.5 -11q-15 0 -20 21t-14.5 59t-30.5 66q-37 49 -90.5 66.5t-143.5 17.5q-48 0 -75 -2v-437z" />
    <glyph glyph-name="G" unicode="G" horiz-adv-x="1572" 
d="M1407 150q-97 -3 -158 -31q-15 -7 -86.5 -44.5t-110.5 -54.5t-116 -35t-156 -18q-299 0 -495 199q-185 188 -185 477q0 338 201.5 550t523.5 212q85 0 162.5 -16t121.5 -35t80.5 -35t49.5 -16q16 0 30.5 32.5t26.5 32.5t16.5 -8.5t4.5 -30.5v-22l-12 -301q0 -25 -19 -25
q-11 0 -16.5 10.5t-11.5 38.5t-13 47q-53 147 -147.5 217t-241.5 70q-247 0 -375.5 -176t-128.5 -516q0 -310 126 -481t345 -171q185 0 271 82.5t86 255.5q0 63 -19.5 103.5t-52.5 52.5q-24 9 -56 13.5t-45.5 9t-13.5 18.5q0 10 12.5 16.5t34.5 6.5q7 0 39.5 -3t85.5 -6.5
t111 -3.5q61 0 116 3.5t86 6.5t35 3q17 0 28 -7t11 -14q0 -13 -13.5 -18.5t-41.5 -12.5t-49 -20q-34 -22 -42.5 -56t-8.5 -114v-23q0 -88 10 -163z" />
    <glyph glyph-name="H" unicode="H" horiz-adv-x="1796" 
d="M315 1151q0 72 -12.5 107.5t-52.5 54.5q-21 10 -56 14t-56 8t-21 17q0 20 37 20q6 0 41.5 -2t96.5 -4t130 -2q72 0 134.5 2t96.5 4t37 2q37 0 37 -18q0 -11 -12 -15.5t-45 -8.5t-58 -11q-49 -13 -66.5 -51.5t-17.5 -116.5v-410h740v410q0 71 -13 107t-53 55
q-21 10 -56 14.5t-56 9t-21 17.5q0 18 37 18q3 0 37 -2t96.5 -4t134.5 -2q69 0 130 2t96.5 4t41.5 2q37 0 37 -20q0 -13 -21 -17t-56 -8t-56 -14q-40 -19 -52.5 -54.5t-12.5 -107.5v-922q0 -75 12 -110.5t53 -55.5q23 -12 58 -15.5t55 -8.5t20 -21q0 -22 -37 -22
q-3 0 -36.5 2.5t-96.5 5t-135 2.5t-135 -2.5t-96.5 -5t-36.5 -2.5q-37 0 -37 22q0 16 20 21t55 8.5t58 15.5q42 20 54 56t12 110v449h-740v-449q0 -73 13 -109t55 -57q23 -12 57.5 -15.5t54 -8.5t19.5 -21q0 -22 -37 -22q-3 0 -36.5 2.5t-96.5 5t-135 2.5t-135 -2.5
t-96.5 -5t-36.5 -2.5q-37 0 -37 22q0 16 20 21t55 8.5t58 15.5q41 20 53 55.5t12 110.5v922z" />
    <glyph glyph-name="I" unicode="I" horiz-adv-x="899" 
d="M555 229q0 -73 15 -110t59 -56q27 -12 65.5 -16t59 -8.5t20.5 -20.5q0 -22 -39 -22q-3 0 -40 2.5t-103.5 5t-142.5 2.5t-142.5 -2.5t-103 -5t-39.5 -2.5q-41 0 -41 22q0 16 21 20.5t60 8.5t66 16q45 21 59.5 57.5t14.5 108.5v922q0 70 -13.5 106.5t-54.5 55.5
q-21 10 -61 14t-66 8.5t-26 16.5q0 8 19 14t40 6q6 0 41 -2t96 -4t130 -2q72 0 135 2t97.5 4t37.5 2q20 0 37.5 -5t17.5 -13q0 -11 -17.5 -15.5t-55 -8.5t-62.5 -11q-49 -13 -66.5 -51.5t-17.5 -116.5v-922z" />
    <glyph glyph-name="J" unicode="J" horiz-adv-x="901" 
d="M379 -207v1358q0 71 -13 107t-53 55q-21 10 -56 14t-56 8t-21 17q0 20 37 20q6 0 41.5 -2t96.5 -4t130 -2q72 0 134.5 2t97 4t37.5 2q37 0 37 -18q0 -11 -13 -15.5t-46 -8.5t-58 -11q-49 -13 -65.5 -51.5t-16.5 -116.5v-1229q0 -109 -10 -176t-45 -123
q-60 -93 -158.5 -136.5t-247.5 -43.5q-143 0 -222 46t-79 118q0 35 23 56.5t63 21.5q59 0 84 -60q15 -37 25 -56t28 -39t43.5 -28t63.5 -8q129 0 174 69t45 230z" />
    <glyph glyph-name="K" unicode="K" horiz-adv-x="1572" 
d="M539 528v-299q0 -74 12.5 -110t54.5 -56q23 -12 58 -15.5t55 -8.5t20 -21q0 -22 -39 -22q-3 0 -36.5 2.5t-96.5 5t-135 2.5t-135 -2.5t-96.5 -5t-36.5 -2.5q-37 0 -37 22q0 16 20 21t55 8.5t58 15.5q42 20 54 56t12 110v922q0 71 -13 107t-53 55q-21 10 -56 14t-56 8
t-21 17q0 20 39 20q6 0 41 -2t95.5 -4t129.5 -2q72 0 135 2t97.5 4t37.5 2q37 0 37 -18q0 -11 -12.5 -15.5t-45.5 -8.5t-58 -11q-49 -13 -66.5 -51.5t-17.5 -116.5v-555q247 245 379.5 420.5t132.5 236.5q0 65 -84 74q-56 5 -65 12q-7 6 -7 15q0 18 39 18q23 0 85.5 -4
t102.5 -4q46 0 109 4t78 4q39 0 39 -22q0 -12 -16 -14.5t-51.5 -11t-68.5 -34.5q-26 -20 -74.5 -79.5t-144.5 -180t-188 -227.5l461 -557q100 -118 132 -148q43 -40 81 -51q10 -3 24.5 -5t22 -3.5t13 -6t5.5 -12.5q0 -14 -7 -19t-26 -5l-59 5q-58 5 -117 5q-92 0 -176 -3
t-135 -6t-63 -3q-46 0 -46 22q0 5 1.5 8.5t5.5 6t8.5 4t12.5 3t15 2.5t19.5 2.5t21.5 2.5q46 6 65 18t19 41q0 68 -276 394l-131 155z" />
    <glyph glyph-name="L" unicode="L" horiz-adv-x="1349" 
d="M514 299q0 -79 14 -125.5t53 -74t96.5 -37t156.5 -9.5q140 0 227 28t135 95q24 34 36.5 80.5t20.5 72t25 25.5q8 0 11.5 -4.5t4 -11t0.5 -21.5l-4 -274q0 -30 -8 -40.5t-35 -10.5q-8 0 -90.5 4t-231 8t-317.5 4q-131 0 -242 -3t-168.5 -6t-58.5 -3q-37 0 -37 22
q0 16 20 21t55.5 8.5t58.5 15.5q41 20 53 55.5t12 110.5v922q0 72 -12.5 107.5t-52.5 54.5q-21 10 -56.5 14t-56.5 8t-21 17q0 20 37 20q6 0 41.5 -2t97 -4t130.5 -2q72 0 134.5 2t96.5 4t37 2q37 0 37 -18q0 -11 -13 -15.5t-46 -8.5t-58 -11q-49 -13 -65.5 -51.5
t-16.5 -116.5v-852z" />
    <glyph glyph-name="M" unicode="M" horiz-adv-x="1910" 
d="M309 264v983q-14 33 -40 49.5t-70 26.5q-17 3 -48 6.5t-40 8.5t-9 18q0 9 11.5 15.5t31.5 6.5q19 0 80 -4t103 -4q38 0 71 1t52 2t22 1q30 0 43 -10.5t25 -40.5l426 -1004l438 1020q14 35 57 35q9 0 39 -2t53 -2q46 0 119 3t99 3t37.5 -4.5t11.5 -17.5q0 -15 -21 -18.5
t-60 -10.5t-69 -27q-63 -45 -63 -180v-889q0 -72 12 -109t51 -57q17 -9 41.5 -14t41.5 -6t29.5 -7t12.5 -18q0 -22 -35 -22q-2 0 -34.5 2.5t-92 5t-127.5 2.5q-73 0 -137 -2.5t-98.5 -5t-36.5 -2.5q-37 0 -37 22q0 16 20 21t55 8.5t58 15.5q42 21 55 57t13 109v949
l-486 -1137q-15 -35 -28 -35q-14 0 -25 25l-487 1157v-926q0 -87 15.5 -130.5t68.5 -70.5q18 -9 40 -14t36 -6t24 -6.5t10 -16.5q0 -22 -45 -22q-9 0 -64.5 4t-101.5 4q-29 0 -84.5 -4t-81.5 -4q-75 0 -75 24q0 13 19 18.5t52 11.5t54 18q43 25 56 67.5t13 128.5z" />
    <glyph glyph-name="N" unicode="N" horiz-adv-x="1685" 
d="M379 262q0 -86 16.5 -130t69.5 -71q18 -9 39.5 -14t35.5 -6t23.5 -6.5t9.5 -16.5q0 -22 -43 -22q-6 0 -32 2t-68.5 4t-89.5 2q-34 0 -90 -3t-78 -3q-49 0 -49 22q0 13 19 18.5t52 11.5t54 18q43 25 56 67.5t13 128.5v957q-50 77 -129 100q-14 4 -40 7.5t-37 8.5t-11 17
q0 20 56 20q9 0 58.5 -4t90.5 -4q21 0 60 2t57 2q45 0 70 -35l839 -1050v841q0 109 -39 159t-133 50q-8 0 -15 7t-7 14q0 20 34 20q19 0 90.5 -5t124.5 -5q46 0 100.5 3t65.5 3q35 0 35 -18q0 -13 -18 -17.5t-50.5 -10t-54.5 -17.5q-43 -23 -56 -63.5t-13 -121.5v-1097
q0 -33 -6.5 -47.5t-26.5 -14.5q-19 0 -33.5 11.5t-34.5 37.5l-915 1139v-891z" />
    <glyph glyph-name="O" unicode="O" horiz-adv-x="1685" 
d="M96 680q0 291 211 502q224 221 549 221q161 0 306.5 -61.5t250.5 -172.5q178 -190 178 -485q0 -148 -56.5 -283t-156.5 -229q-101 -95 -242.5 -150t-287.5 -55q-155 0 -291.5 51t-239.5 146q-114 106 -167.5 231t-53.5 285zM348 690q0 -309 138.5 -494.5t357.5 -185.5
q221 0 360 181t139 495q0 316 -135 495t-360 179q-220 0 -360 -182t-140 -488z" />
    <glyph glyph-name="P" unicode="P" horiz-adv-x="1241" 
d="M528 696q79 -10 123 -10q162 0 239 76t77 239q0 165 -80.5 245.5t-243.5 80.5q-61 0 -88 -15.5t-27 -54.5v-561zM528 645v-416q0 -73 13 -109t55 -57q23 -12 58 -15.5t55 -8.5t20 -21q0 -22 -39 -22q-3 0 -36.5 2.5t-96.5 5t-135 2.5t-135 -2.5t-96.5 -5t-36.5 -2.5
q-37 0 -37 22q0 16 20 21t55 8.5t58 15.5q41 20 53 55.5t12 110.5v922q0 72 -12.5 107.5t-52.5 54.5q-21 10 -56 14t-56 8t-21 17q0 20 37 20q6 0 41.5 -2t96.5 -4t130 -2q58 0 133.5 3t93.5 3q273 0 412 -92.5t139 -271.5q0 -173 -139 -271t-395 -98q-40 0 -138 8z" />
    <glyph glyph-name="Q" unicode="Q" horiz-adv-x="1685" 
d="M741 -29q-295 35 -470 228.5t-175 480.5q0 298 219 508q229 215 539 215q248 0 438 -123q139 -91 222 -246.5t83 -326.5q0 -212 -129 -397.5t-346 -276.5q-57 -24 -132.5 -43.5t-129.5 -30t-113 -34t-98 -58.5h37q155 0 297 -45q59 -18 147.5 -58.5t159 -65t131.5 -24.5
q108 0 183 97q30 41 47 41q20 0 20 -29q0 -78 -39.5 -150.5t-115 -120t-168.5 -47.5q-62 0 -119 22.5t-89 46.5t-90 73q-9 8 -14 12q-123 104 -205.5 152.5t-162.5 48.5q-47 0 -90 -18.5t-69 -40t-52 -40t-43 -18.5q-15 0 -26 10t-11 23q0 27 20.5 44t69.5 38
q67 29 157 84.5t117 68.5zM350 686q0 -317 131 -495.5t357 -178.5q225 0 367.5 182t142.5 492t-136 494t-346 184q-235 0 -375.5 -182.5t-140.5 -495.5z" />
    <glyph glyph-name="R" unicode="R" horiz-adv-x="1460" 
d="M510 229q0 -75 12 -110.5t53 -55.5q23 -12 58.5 -15.5t55.5 -8.5t20 -21q0 -22 -37 -22q-3 0 -37 2.5t-97 5t-135 2.5t-135 -2.5t-96.5 -5t-36.5 -2.5q-37 0 -37 22q0 16 20 21t55 8.5t58 15.5q42 20 54 56t12 110v922q0 71 -13 107t-53 55q-21 10 -56 14t-56 8t-21 17
q0 20 37 20q2 0 23 -1t60 -2t83 -1q76 0 206.5 5t184.5 5q261 0 384.5 -83.5t123.5 -266.5q0 -153 -96 -244t-285 -116l445 -521q38 -44 90 -71.5t83 -40t31 -25.5q0 -7 -9 -12.5t-23 -5.5q-2 0 -22.5 2t-58.5 4t-81 2q-17 0 -49 -1t-47 -1q-35 0 -53 5.5t-35 27.5l-443 555
q-21 27 -42.5 37t-57.5 10q-22 0 -29.5 -8.5t-7.5 -34.5v-361zM510 737q0 -35 9 -46t42 -11q217 0 312.5 72t95.5 245q0 174 -88 257t-271 83q-58 0 -79 -16.5t-21 -63.5v-520z" />
    <glyph glyph-name="S" unicode="S" horiz-adv-x="1126" 
d="M111 373q0 25 4 33t18 8q17 0 23.5 -15.5t13.5 -55.5t18 -69q45 -125 138 -192.5t215 -67.5q140 0 219.5 74.5t79.5 204.5q0 99 -54 168q-15 19 -33.5 36t-44 33t-44 27.5t-54.5 27.5t-55 24.5t-65 27.5t-66 27q-134 57 -206.5 154t-72.5 220q0 160 114.5 263.5
t291.5 103.5q61 0 116.5 -14t87 -31t58.5 -31t37 -14q16 0 24.5 19t16.5 38t22 19q11 0 19 -11.5t8 -33.5q0 -9 -3 -54.5t-3 -81.5q0 -20 3 -62t3 -63q0 -33 -4 -45t-18 -12q-17 0 -24 13t-17 49.5t-23 64.5q-44 97 -120 149t-175 52q-119 0 -188.5 -65t-69.5 -167
q0 -43 16 -79t32.5 -58.5t66.5 -52t75 -41.5t101 -45q7 -4 12 -6l10 -4q219 -97 317.5 -199.5t98.5 -267.5q0 -176 -138 -293t-351 -117q-73 0 -140 17.5t-105 38t-69 38t-41 17.5q-15 0 -30.5 -31t-28.5 -31q-21 0 -21 29q0 1 5.5 52.5t5.5 101.5q0 41 -3 101t-3 79z" />
    <glyph glyph-name="T" unicode="T" horiz-adv-x="1490" 
d="M852 229q0 -74 14.5 -110.5t59.5 -55.5q27 -12 66 -16t60 -8.5t21 -20.5q0 -22 -41 -22q-2 0 -38.5 2.5t-103.5 5t-145 2.5t-145.5 -2.5t-104 -5t-38.5 -2.5q-39 0 -39 22q0 16 21 20.5t60 8.5t66 16q45 19 59.5 55.5t14.5 110.5v1033q0 40 -24.5 51.5t-92.5 11.5h-82
q-150 0 -225.5 -15t-110.5 -67q-21 -30 -29.5 -74.5t-12.5 -71t-17 -26.5q-11 0 -14.5 8t-3.5 27v231q0 28 12.5 37.5t46.5 9.5q4 0 87 -3.5t238 -7t334 -3.5t334.5 3.5t238.5 7t87 3.5q34 0 45.5 -9.5t11.5 -37.5v-231q0 -14 -0.5 -20t-4 -10.5t-11.5 -4.5q-13 0 -18 26.5
t-14.5 71t-29.5 74.5q-38 56 -117 69t-263 13h-35q-70 0 -93.5 -10.5t-23.5 -52.5v-1033z" />
    <glyph glyph-name="U" unicode="U" horiz-adv-x="1687" 
d="M311 1151q0 71 -13 107t-54 55q-21 10 -56 14t-56 8t-21 17q0 20 39 20q6 0 41 -2t95.5 -4t129.5 -2q72 0 135 2t97.5 4t37.5 2q35 0 35 -18q0 -11 -12 -15.5t-45 -8.5t-58 -11q-49 -13 -66.5 -51.5t-17.5 -116.5v-719q0 -202 90.5 -297.5t284.5 -95.5q228 0 335 114.5
t107 356.5v641q0 71 -13 107t-54 55q-21 10 -56 14t-56 8t-21 17q0 20 39 20q16 0 82.5 -4t117.5 -4q48 0 109 4t72 4q36 0 36 -18q0 -11 -12.5 -15.5t-45.5 -8.5t-58 -11q-49 -13 -65.5 -51.5t-16.5 -116.5v-590q0 -320 -127 -458t-436 -138q-523 0 -523 438v748z" />
    <glyph glyph-name="V" unicode="V" horiz-adv-x="1568" 
d="M852 219l203 496q174 428 174 518q0 36 -16.5 59t-47.5 29q-18 4 -38.5 7.5t-31.5 5t-20.5 3.5t-13.5 5.5t-4 9.5q0 20 35 20q5 0 71.5 -5t126.5 -5q58 0 120 5t67 5q36 0 36 -20q0 -12 -11.5 -16.5t-35.5 -7t-39 -7.5q-48 -17 -83.5 -74.5t-83.5 -175.5l-347 -862
q-50 -127 -82 -184.5t-57 -57.5q-12 0 -28.5 21.5t-30.5 60.5l-389 1024q-6 17 -16.5 44t-15.5 41t-13.5 35.5t-14 32.5t-14 26t-15.5 23.5t-16 17.5t-19 14t-22 8q-18 5 -39 8.5t-32.5 5.5t-22.5 5.5t-15.5 8t-4.5 11.5q0 20 36 20q2 0 32 -3t87 -6t123 -3q78 0 145 2.5
t103.5 5t38.5 2.5q31 0 31 -18q0 -5 -1.5 -8.5t-5 -6t-7.5 -4t-11 -2.5t-13 -2t-16.5 -2t-17.5 -2q-50 -6 -72 -24.5t-22 -55.5q0 -44 67 -229z" />
    <glyph glyph-name="W" unicode="W" horiz-adv-x="2021" 
d="M737 242l314 1052q13 46 24 64t31 18q22 0 31.5 -15.5t23.5 -63.5q1 -5 2 -7l314 -1024l188 613q68 217 68 342q0 42 -26 69.5t-75 34.5q-11 2 -25.5 3.5t-22 2.5t-15 3.5t-10.5 7t-3 12.5q0 22 43 22q7 0 40 -2t88 -4t116 -2q32 0 74.5 3t52.5 3q31 0 31 -18
q0 -11 -10.5 -17t-36.5 -12.5t-39 -11.5q-43 -17 -66.5 -60t-52.5 -135l-321 -1032q-38 -121 -76 -121q-23 0 -37 23t-29 76l-295 1001l-299 -987q-18 -60 -34.5 -86.5t-40.5 -26.5q-28 0 -47 43q-7 15 -23 64l-354 1108q-22 67 -43 97t-62 40q-11 2 -27 4t-25.5 3.5
t-19 4.5t-14 8.5t-4.5 14.5q0 11 8 14.5t29 3.5q8 0 42 -2t89.5 -4t116.5 -2q48 0 133 5t121 5q57 0 57 -22q0 -11 -7.5 -15t-33.5 -6.5t-41 -5.5q-57 -11 -80.5 -30.5t-23.5 -59.5q0 -48 54 -235.5t184 -614.5q29 -93 44 -143z" />
    <glyph glyph-name="X" unicode="X" horiz-adv-x="1570" 
d="M700 649l-446 584q-30 38 -65.5 61t-60 28.5t-41.5 11.5t-17 16q0 22 45 22q13 0 95 -6t150 -6q72 0 134.5 4t97.5 8t39 4q11 0 19.5 -6.5t8.5 -13.5q0 -19 -56 -24q-3 -1 -5 -1q-94 -6 -94 -49t55 -115l281 -360l139 174q71 90 111 167.5t40 106.5q0 54 -59 66
q-16 4 -34 6.5t-28 4t-19.5 4t-13 7t-3.5 11.5q0 8 11 14t30 6q6 0 69 -4t119 -4q68 0 136 5t69 5q39 0 39 -20q0 -11 -10.5 -16t-35.5 -10t-42 -11q-37 -15 -71.5 -44t-52 -50.5t-58.5 -73.5l-299 -389l489 -625q29 -37 63.5 -59t58 -27t40 -12t16.5 -19q0 -24 -47 -24
q-4 0 -75 6t-138 6q-61 0 -161.5 -5t-141.5 -5q-29 0 -40 3.5t-11 14.5q0 16 17.5 23t58.5 10q65 6 78 14q14 10 14 33q0 44 -68 133l-291 373l-223 -287q-96 -122 -96 -190q0 -34 18.5 -51t59.5 -23q8 -1 18 -2.5t16 -2t13 -1.5t11.5 -2t9 -2.5t7.5 -3.5t5 -5t3 -6.5
t1 -7.5q0 -22 -39 -22q-6 0 -64.5 5t-111.5 5q-57 0 -129 -5t-88 -5q-56 0 -56 22q0 14 11 20t43 13.5t55 16.5q24 10 44 22t43 36.5t32.5 34.5t39 48.5t35.5 46.5z" />
    <glyph glyph-name="Y" unicode="Y" horiz-adv-x="1460" 
d="M829 229q0 -74 12 -110t54 -56q23 -12 58 -15.5t55 -8.5t20 -21q0 -22 -37 -22q-3 0 -36.5 2.5t-96.5 5t-135 2.5t-135 -2.5t-96.5 -5t-36.5 -2.5q-39 0 -39 22q0 16 20.5 21t56 8.5t58.5 15.5q41 20 53 55.5t12 110.5v312l-354 641q-46 83 -65 103q-27 28 -62 34
q-9 2 -25.5 4t-23 3.5t-15 4.5t-11.5 8t-3 13q0 22 45 22q1 0 65 -3t126 -3q81 0 178 4t113 4q27 0 38 -4.5t11 -17.5t-8.5 -16.5t-29.5 -3.5t-34 -3q-86 -16 -86 -78q0 -43 45 -129l275 -530q35 59 84 139t76.5 125.5t62 103.5t53 93t36 73t25 64t7.5 47q0 68 -58 80
q-12 3 -28.5 6t-24.5 4.5t-16.5 4.5t-11.5 7t-3 11q0 20 41 20q5 0 67.5 -4t117.5 -4q46 0 86 2.5t62 5t24 2.5q11 0 18.5 -5t7.5 -11q0 -11 -15 -17.5t-37 -11t-54 -24t-58 -52.5q-20 -26 -72 -116.5t-149.5 -253.5t-206.5 -328v-326z" />
    <glyph glyph-name="Z" unicode="Z" horiz-adv-x="1230" 
d="M133 0q-28 0 -38.5 3t-10.5 13q0 6 10 23l783 1276h-367q-119 0 -181 -23t-100 -90q-19 -33 -29 -74.5t-16.5 -62.5t-21.5 -21q-19 0 -19 43q0 4 6.5 70t6.5 129v45q0 23 9.5 30t43.5 7h874q45 0 45 -18q0 -6 -18 -35l-780 -1262h383q142 0 221 33t123 113
q22 40 34.5 86.5t19 69t19.5 22.5q21 0 21 -33q0 -6 -9 -92t-9 -164v-37q0 -34 -11 -42.5t-49 -8.5h-940z" />
    <glyph glyph-name="bracketleft" unicode="[" horiz-adv-x="671" 
d="M164 -401v1769h436v-61h-299v-1643h299v-65h-436z" />
    <glyph glyph-name="backslash" unicode="\" horiz-adv-x="557" 
d="M528 -190l-516 1593h80l516 -1593h-80z" />
    <glyph glyph-name="bracketright" unicode="]" horiz-adv-x="671" 
d="M508 -401h-436v65h299v1643h-299v61h436v-1769z" />
    <glyph glyph-name="asciicircum" unicode="^" horiz-adv-x="2048" 
d="M934 1462h178l520 -565h-92l-518 436l-520 -436h-90z" />
    <glyph glyph-name="underscore" unicode="_" 
d="M0 -365h1024v-118h-1024v118z" />
    <glyph glyph-name="grave" unicode="`" 
d="M680 1036h-66l-329 205q-64 42 -64 82q0 31 21.5 51.5t54.5 20.5q23 0 43.5 -14t52.5 -46z" />
    <glyph glyph-name="a" unicode="a" horiz-adv-x="1011" 
d="M633 115q-151 -142 -350 -142q-97 0 -153 50.5t-56 136.5q0 52 23.5 96t64.5 80.5t115.5 75t155.5 71.5t206 78v162q0 82 -48 121t-149 39q-76 0 -123 -26.5t-53 -72.5q-5 -30 -8.5 -45t-12.5 -31.5t-25 -23t-42 -6.5q-32 0 -52 21t-20 55q0 71 94.5 120.5t260.5 49.5
q180 0 266 -57.5t86 -178.5v-520q0 -54 18 -82.5t50 -28.5q22 0 49 19.5t35 19.5q18 0 18 -18q0 -31 -52 -69t-118 -38q-69 0 -118 39t-62 105zM639 516q-196 -76 -285.5 -148t-89.5 -165q0 -70 37 -111t100 -41q82 0 160 55.5t78 122.5v287z" />
    <glyph glyph-name="b" unicode="b" horiz-adv-x="1120" 
d="M313 264q0 -235 224 -235q152 0 230.5 108t78.5 320q0 191 -78 296t-213 105q-119 0 -180.5 -63.5t-61.5 -186.5v-344zM268 96l-86 -90q-12 -12 -22 -12q-13 0 -13 26v17v1208q0 69 -8.5 97t-38.5 38q-16 6 -44.5 8t-44 6.5t-15.5 18.5q0 8 4.5 12.5t15.5 7t21.5 4
t32.5 3.5t39 4q48 6 92.5 14t67.5 12.5t30 4.5q13 0 16.5 -8t3.5 -33v-21v-616q85 121 293 121q187 0 304.5 -127t117.5 -330q0 -227 -124 -357.5t-337 -130.5q-161 0 -305 123z" />
    <glyph glyph-name="c" unicode="c" horiz-adv-x="899" 
d="M59 438q0 101 43.5 196t122.5 167q137 125 355 125q117 0 189.5 -39t72.5 -96q0 -31 -17.5 -48.5t-48.5 -17.5q-58 0 -84 63q-12 29 -18.5 41t-21 27t-36.5 20t-57 5q-134 0 -214.5 -116t-80.5 -323q0 -193 82.5 -300t226.5 -107q117 0 172 49q12 11 25.5 29t23 27.5
t21.5 9.5q27 0 27 -25q0 -57 -86.5 -105.5t-225.5 -48.5q-221 0 -346 124t-125 343z" />
    <glyph glyph-name="d" unicode="d" horiz-adv-x="1243" 
d="M842 602q0 124 -71 193t-193 69q-130 0 -209.5 -112.5t-79.5 -311.5q0 -190 76 -297.5t206 -107.5q125 0 198 77.5t73 211.5v278zM860 135q-72 -83 -149 -121.5t-174 -38.5q-193 0 -321 130.5t-128 324.5q0 214 126.5 353t315.5 139q193 0 306 -129v512q0 38 -9.5 56
t-38.5 28q-20 7 -49.5 9t-44 6t-14.5 19q0 7 3 11.5t11.5 6.5t16.5 2.5t26.5 2t32.5 2.5q56 4 108.5 11t80.5 11.5t34 4.5q25 0 25 -29v-1206q0 -59 14.5 -94.5t48.5 -53.5q14 -7 33.5 -10t32.5 -3.5t23 -4.5t10 -15q0 -4 -1.5 -7.5t-6 -6t-9 -4.5t-13 -4t-15 -3.5t-19.5 -4
t-22 -4.5q-42 -10 -84.5 -22.5t-65.5 -20t-31 -7.5q-19 0 -29.5 35t-23.5 125z" />
    <glyph glyph-name="e" unicode="e" horiz-adv-x="1015" 
d="M287 561q-8 -49 -8 -102q0 -182 92.5 -296t236.5 -114q65 0 115 19.5t102 66.5q7 7 16 16.5t14 15t12.5 9.5t15.5 4q20 0 20 -22q0 -55 -101.5 -121t-254.5 -66q-208 0 -340.5 131t-132.5 324q0 200 135 348q140 152 348 152q162 0 272.5 -97t110.5 -223q0 -31 -10 -38
t-43 -7h-600zM299 621h418q20 0 28.5 10.5t8.5 36.5q0 99 -55.5 157t-145.5 58q-101 0 -168 -68.5t-86 -193.5z" />
    <glyph glyph-name="f" unicode="f" horiz-adv-x="659" 
d="M399 176q0 -60 12.5 -82t59.5 -35q22 -7 47 -11t41 -6t30 -4.5t20.5 -7.5t6.5 -14q0 -20 -43 -20q-7 0 -92 6t-162 6q-74 0 -150.5 -6t-78.5 -6q-35 0 -35 20q0 14 14 18.5t45 9.5t54 15q37 14 46 36t9 81v637h-121q-43 0 -43 25q0 28 39 28h125v131q0 240 90 349.5
t299 109.5q126 0 196.5 -37.5t70.5 -101.5q0 -28 -19 -46t-47 -18q-19 0 -32.5 4.5t-22 15t-12 18t-8.5 24t-7 22.5q-28 78 -145 78q-86 0 -136.5 -63.5t-50.5 -177.5v-308h193q63 0 63 -28q0 -14 -11.5 -19.5t-37.5 -5.5h-207v-637z" />
    <glyph glyph-name="g" unicode="g" horiz-adv-x="1128" 
d="M358 297q-107 40 -166 118t-59 179q0 142 108.5 237t274.5 95q153 0 268 -95l33 21q96 68 166 68q58 0 91.5 -25.5t33.5 -67.5q0 -27 -19 -46t-45 -19q-28 0 -67.5 38t-69.5 38q-29 0 -90 -39q76 -104 76 -211q0 -148 -92 -224.5t-283 -91.5q-49 -4 -74.5 -6t-60.5 -7
t-51.5 -11t-34.5 -15.5t-24.5 -23t-6.5 -31.5q0 -42 49 -53t184 -13q31 -1 48 -1q237 -5 345.5 -79t108.5 -241q0 -163 -123.5 -258.5t-342.5 -95.5q-197 0 -318 82t-121 207q0 68 47.5 119t106.5 51q33 0 51 -8t18 -21q0 -3 -14 -13t-31 -25t-31 -49.5t-14 -80.5
q0 -95 86.5 -153t239.5 -58q146 0 228.5 64t82.5 174q0 49 -14.5 84t-40.5 57t-71 34.5t-97.5 17t-128.5 5.5q-176 2 -261 46t-85 143q0 146 190 184zM305 600q0 -136 55 -212.5t148 -76.5q98 0 153.5 75t55.5 210q0 138 -57 213.5t-156 75.5q-88 0 -143.5 -77t-55.5 -208z
" />
    <glyph glyph-name="h" unicode="h" horiz-adv-x="1241" 
d="M395 752q117 170 328 170q146 0 224.5 -69.5t78.5 -199.5v-477q0 -56 8 -78.5t41 -38.5q20 -9 47.5 -14.5t39.5 -10.5t12 -20q0 -18 -33 -18q-3 0 -71 6t-134 6t-135 -6t-72 -6q-31 0 -31 22q0 13 12.5 18t39.5 9.5t47 13.5q33 14 41 37t8 80v465q0 217 -193 217
q-106 0 -183 -84t-77 -211v-387q0 -56 8 -78.5t41 -38.5q20 -9 47.5 -14.5t39.5 -10.5t12 -20q0 -18 -31 -18q-3 0 -72 6t-135 6t-134 -6t-71 -6q-32 0 -32 22q0 13 12.5 17.5t39 9.5t46.5 14q33 14 41 37t8 80v1077q0 35 -2 52t-12.5 32.5t-32.5 24.5q-18 8 -45 12.5t-41 9
t-14 15.5q0 13 16 18.5t56 11.5h3t3 0.5t3 0.5q59 9 113 20t81 18t32 7q13 0 17.5 -7.5t4.5 -25.5v-690z" />
    <glyph glyph-name="i" unicode="i" horiz-adv-x="565" 
d="M197 733q0 39 -7.5 56t-31.5 26q-18 6 -45.5 7t-42.5 3.5t-15 14.5q0 7 3 11t11 7t16 4.5t24.5 4t29.5 5.5q55 12 105.5 28t76.5 26t33 10q23 0 23 -31v-729q0 -57 8 -80t41 -37q20 -9 47 -14.5t39 -10.5t12 -20q0 -18 -32 -18q-2 0 -70 6t-135 6t-136 -6t-71 -6
q-31 0 -31 18q0 15 12 20t39 10.5t47 14.5q32 14 41 37.5t9 79.5v557zM160 1354q0 44 31 75t75 31q43 0 74 -31t31 -75q0 -43 -30.5 -74t-74.5 -31t-75 31t-31 74z" />
    <glyph glyph-name="j" unicode="j" horiz-adv-x="565" 
d="M242 -225v915q0 54 -11 80t-41 35q-19 6 -49.5 6t-47.5 3t-17 17t21.5 21t76.5 18q71 15 125.5 32t77 26.5t24.5 9.5q21 0 21 -37v-1108q0 -175 -100.5 -265.5t-296.5 -90.5q-131 0 -208 36.5t-77 90.5q0 67 72 67q24 0 41 -12t23.5 -24t17.5 -37q37 -76 139 -76
q111 0 160 70t49 223zM197 1352q0 44 31 75t75 31q43 0 74 -31t31 -75q0 -43 -30.5 -74t-74.5 -31t-75 31t-31 74z" />
    <glyph glyph-name="k" unicode="k" horiz-adv-x="1126" 
d="M229 1253q0 50 -9 73t-40 36q-16 7 -42.5 11.5t-41 9t-14.5 14.5q0 22 60 30q13 2 20 3q53 8 104.5 19.5t80.5 18.5t38 7q23 0 23 -33v-985l129 137q88 91 129 143.5t41 79.5q0 17 -11.5 24.5t-38.5 12.5q-7 1 -17 2.5t-14.5 2.5t-11 2.5t-9.5 3.5t-6 4.5t-4 6.5t-1 9
q0 11 5 14.5t19 3.5q2 0 46 -3t84 -3q37 0 86 3t61 3q17 0 24.5 -0.5t15.5 -2t10.5 -5t2.5 -10.5q0 -12 -7 -16.5t-28 -9t-36 -9.5q-40 -16 -76 -48.5t-90 -94.5l-156 -172l383 -392q48 -49 88.5 -74t55 -30t14.5 -12q0 -23 -56 -23q-16 0 -44.5 1t-41.5 1q-30 0 -63 -2
t-35 -2q-30 0 -43 16l-317 344q-51 54 -74 54q-8 0 -12 -2v-238q0 -57 8 -80t41 -37q20 -9 47 -14.5t39 -10.5t12 -20q0 -18 -33 -18q-2 0 -69.5 6t-135.5 6q-67 0 -135.5 -6t-70.5 -6q-31 0 -31 18q0 15 12 20t39 10.5t47 14.5q33 14 41 37t8 80v1077z" />
    <glyph glyph-name="l" unicode="l" horiz-adv-x="563" 
d="M377 176q0 -57 8 -80t41 -37q20 -9 47 -14.5t39 -10.5t12 -20q0 -18 -30 -18q-2 0 -71 6t-136 6t-136 -6t-71 -6q-31 0 -31 18q0 15 12 20t39 10.5t47 14.5q33 14 41.5 37.5t8.5 79.5v1077q0 49 -9 72.5t-41 36.5q-16 7 -42.5 11.5t-41 9t-14.5 14.5q0 15 15 20.5
t55 11.5q6 0 10 1q65 9 119.5 20t79.5 18t28 7q21 0 21 -33v-1266z" />
    <glyph glyph-name="m" unicode="m" horiz-adv-x="1806" 
d="M393 741q111 185 322 185q113 0 183 -47t89 -134q56 87 141 134t189 47q150 0 218.5 -73t68.5 -226v-451q0 -57 8 -80t41 -37q20 -9 47 -14.5t39 -10.5t12 -20q0 -18 -31 -18q-2 0 -71 6t-136 6t-136 -6t-70 -6q-31 0 -31 18q0 15 12 20t39 10.5t47 14.5q33 14 41 37
t8 80v481q0 98 -45 149.5t-133 51.5q-109 0 -174 -80t-65 -217v-385q0 -57 8 -80t41 -37q20 -9 46.5 -14.5t38 -10.5t11.5 -20q0 -18 -31 -18q-2 0 -69.5 6t-135.5 6t-136.5 -6t-69.5 -6q-31 0 -31 18q0 15 11.5 20t38 10.5t46.5 14.5q33 14 42 37.5t9 79.5v481
q0 98 -45 149.5t-133 51.5q-110 0 -175.5 -80t-65.5 -217v-385q0 -57 8 -80t41 -37q20 -9 47 -14.5t39 -10.5t12 -20q0 -18 -31 -18q-2 0 -71 6t-136 6t-136 -6t-70 -6q-31 0 -31 18q0 15 12 20t39 10.5t47 14.5q33 14 41 37t8 80v492q0 65 -9.5 97t-39.5 48
q-15 8 -40.5 10.5t-40.5 5.5t-15 15t16.5 18t54.5 14q2 0 3.5 0.5t3.5 0.5q46 10 90.5 24t69 22.5t34.5 8.5q22 0 29 -40t12 -151z" />
    <glyph glyph-name="n" unicode="n" horiz-adv-x="1245" 
d="M225 176v492q0 64 -10 95.5t-39 47.5q-15 8 -41 11t-41.5 6.5t-15.5 15.5q0 16 45 26q8 1 26 5l9 2q47 10 91 24t67.5 22.5t31.5 8.5q22 0 29 -27t13 -107q3 -42 5 -67q121 195 338 195q146 0 224.5 -71t78.5 -202v-477q0 -56 8 -78.5t41 -38.5q20 -9 47.5 -14.5
t39.5 -10.5t12 -20q0 -18 -31 -18q-3 0 -72 6t-135 6t-134 -6t-71 -6q-32 0 -32 22q0 13 12.5 17.5t39 9.5t46.5 14q33 14 41 37t8 80v465q0 217 -192 217q-106 0 -182 -84t-76 -211v-387q0 -56 8 -78.5t41 -38.5q20 -9 47 -14.5t39 -10.5t12 -20q0 -18 -33 -18q-3 0 -71 6
t-134 6t-134.5 -6t-71.5 -6q-31 0 -31 22q0 13 12.5 17.5t39 9.5t46.5 14q33 14 41 37t8 80z" />
    <glyph glyph-name="o" unicode="o" horiz-adv-x="1126" 
d="M74 449q0 203 144.5 340t354.5 137q192 0 330 -135q70 -70 109 -157.5t39 -174.5q0 -95 -37.5 -184t-106.5 -160q-141 -144 -340 -144q-213 0 -353 135t-140 343zM272 446q0 -208 74.5 -320t210.5 -112q145 0 220 111.5t75 329.5q0 208 -78.5 320t-216.5 112
q-126 0 -205.5 -118t-79.5 -323z" />
    <glyph glyph-name="p" unicode="p" horiz-adv-x="1245" 
d="M383 432q0 -115 9 -181t36 -106q30 -44 88.5 -73t120.5 -29q135 0 214 106.5t79 301.5q0 203 -75 310t-210 107q-102 0 -178 -67q-31 -27 -48.5 -60.5t-25 -87.5t-9 -94.5t-1.5 -126.5zM393 -391q0 -56 8 -78.5t41 -36.5q20 -9 47.5 -14.5t39.5 -10.5t12 -20
q0 -18 -31 -18q-1 0 -70 6t-137 6q-52 0 -99.5 -3t-76 -6t-35.5 -3q-31 0 -31 18q0 15 12 20t39.5 10.5t47.5 14.5q33 14 41 36.5t8 78.5v1077q0 65 -9.5 97t-39.5 48q-15 8 -41 11t-41 6.5t-15 15.5q0 11 12 15.5t48 11.5l6 1.5t5.5 1t6.5 1.5q46 10 90 24t68.5 22.5
t34.5 8.5q19 0 25.5 -25t13.5 -93q3 -39 6 -62q109 156 305 156q195 0 322 -130.5t127 -338.5q0 -210 -131 -342.5t-330 -132.5q-178 0 -279 122v-495z" />
    <glyph glyph-name="q" unicode="q" horiz-adv-x="1134" 
d="M981 -397q0 -56 8 -78.5t41 -36.5q20 -9 47 -14.5t39 -10.5t12 -20q0 -18 -32 -18q-2 0 -70 5t-135 5t-136 -5t-71 -5q-31 0 -31 18q0 15 12 20t39.5 10.5t47.5 14.5q33 14 41 36.5t8 78.5v493q-98 -121 -281 -121q-188 0 -313 131.5t-125 329.5q0 135 61.5 246.5
t172.5 176.5t249 65q75 0 136 -19t96 -38t47 -19q33 0 74.5 26.5t46.5 26.5q9 0 14.5 -8.5t5.5 -20.5l-2 -45q-2 -45 -2 -90v-1134zM287 434q0 -193 71.5 -297t198.5 -104q60 0 114 24.5t87 63.5q40 50 51.5 130.5t11.5 229.5q0 123 -7.5 190t-33.5 105q-31 47 -83 74
t-115 27q-137 0 -216 -115.5t-79 -327.5z" />
    <glyph glyph-name="r" unicode="r" horiz-adv-x="894" 
d="M406 715q42 93 119.5 144.5t172.5 51.5q71 0 113.5 -30.5t42.5 -77.5q0 -38 -19.5 -60t-50.5 -22q-47 0 -67 45q-2 5 -8.5 20t-9 19t-9.5 13.5t-14.5 12.5t-20.5 6t-30 3q-89 0 -148 -75t-59 -202v-387q0 -57 8 -80t41 -37q20 -9 47 -14.5t39 -10.5t12 -20q0 -18 -30 -18
q-1 0 -70 6t-137 6t-137 -6t-70 -6q-31 0 -31 18q0 15 12 20t39 10.5t47 14.5q33 14 41.5 37.5t8.5 79.5v471q0 76 -16.5 115.5t-57.5 54.5q-16 6 -37.5 7.5t-35.5 1t-24 4.5t-10 18q0 18 74 33q62 13 116.5 26.5t79 20t27.5 6.5q6 0 11 -2t8.5 -7.5t6.5 -12t5 -18.5
t4 -23.5t4 -30t3.5 -35t4 -42t5.5 -48.5z" />
    <glyph glyph-name="s" unicode="s" horiz-adv-x="782" 
d="M102 262q0 9 5.5 16t11.5 7q10 0 15 -11.5t13 -38.5t19 -49q82 -168 229 -168q75 0 126.5 45.5t51.5 108.5q0 67 -43.5 106.5t-150.5 97.5q-3 1 -5 2t-4.5 2.5t-4.5 2.5q-132 69 -192 135t-60 158q0 111 72 180.5t188 69.5q47 0 101 -16.5t63 -16.5q26 0 50 14.5t27 14.5
q6 0 11.5 -7t5.5 -16v-190v-19q0 -22 -17 -22q-10 0 -16.5 8.5t-16 31.5t-16.5 37q-71 136 -188 136q-63 0 -102 -31.5t-39 -81.5q0 -58 36.5 -92.5t133.5 -89.5q24 -14 66 -36.5t73 -40t55 -34.5q100 -71 100 -221q0 -133 -81.5 -209t-225.5 -76q-50 0 -96 14t-74 28
t-35 14q-14 0 -36 -18.5t-33 -18.5q-17 0 -17 18v256z" />
    <glyph glyph-name="t" unicode="t" horiz-adv-x="671" 
d="M172 840h-63q-39 0 -39 18q0 8 17 20.5t52.5 40.5t67.5 62q35 38 61 78t37 58t21 18q18 0 18 -29v-205h188q34 0 47 -5.5t13 -25.5q0 -17 -14.5 -23.5t-47.5 -6.5h-184v-617q0 -95 30.5 -139.5t100.5 -44.5q33 0 60 15.5t41 33.5t28.5 33.5t24.5 15.5q9 0 16.5 -8
t7.5 -20q0 -44 -70 -88t-175 -44q-134 0 -186 60t-52 196v607z" />
    <glyph glyph-name="u" unicode="u" horiz-adv-x="1243" 
d="M840 725q0 57 -8 80t-41 37q-20 8 -47.5 13t-39.5 10.5t-12 21.5q0 18 41 18q9 0 54 -4t81 -4q17 0 54 3t57 3q24 0 32.5 -13t8.5 -46v-613q0 -65 9.5 -97t39.5 -48q15 -8 40.5 -11t40.5 -6.5t15 -15.5q0 -4 -1.5 -7.5t-5.5 -5.5l-8 -4t-11.5 -3.5t-14 -2.5t-17.5 -3
t-20 -4q-46 -10 -90 -24t-68 -23t-34 -9q-21 0 -28.5 35t-14.5 139q0 6 -0.5 9t-1 8.5t-0.5 9.5q-118 -193 -338 -193q-160 0 -231.5 75.5t-71.5 236.5v438q0 57 -8 80t-41 37q-20 8 -47.5 13t-39.5 10.5t-12 21.5q0 18 39 18q13 0 59 -4t79 -4q17 0 53.5 3t56.5 3
q24 0 32.5 -13t8.5 -46v-586q0 -219 193 -219q107 0 182.5 85t75.5 212v389z" />
    <glyph glyph-name="v" unicode="v" horiz-adv-x="1017" 
d="M592 199q110 284 156.5 415.5t46.5 169.5q0 30 -18 47.5t-39.5 22t-39.5 11.5t-18 18q0 10 7 14t24 4q12 0 52 -4t68 -4q30 0 67.5 3t45.5 3q37 0 37 -18q0 -9 -8.5 -13.5t-24.5 -11t-28 -16.5q-40 -35 -107 -201l-254 -639q-12 -29 -35 -29q-10 0 -16.5 3t-11.5 12
t-8.5 17t-10 26.5t-12.5 31.5l-285 687q-36 80 -63 92q-18 8 -37.5 13t-28.5 7t-15.5 7.5t-6.5 15.5q0 18 34 18q12 0 80.5 -4t126.5 -4q48 0 101.5 3t58.5 3q43 0 43 -18q0 -7 -3.5 -11t-11.5 -6t-16.5 -3t-22 -2.5t-24.5 -4.5q-45 -9 -45 -53q0 -46 49 -158z" />
    <glyph glyph-name="w" unicode="w" horiz-adv-x="1468" 
d="M725 631l-236 -631q-13 -29 -32 -29q-24 0 -33 25l-240 758q-20 66 -73 90q-17 7 -39 11.5t-30.5 9t-8.5 16.5q0 20 39 20q2 0 26 -1.5t67.5 -3t92.5 -1.5q51 0 95.5 2t69 4t26.5 2q40 0 40 -24q0 -6 -3.5 -9.5t-10.5 -5.5t-14 -3t-20 -2.5t-21 -2.5q-70 -12 -70 -70
q0 -32 10 -63l160 -500l240 654q10 24 20 24q8 0 12 -4.5t9 -17.5l260 -678l156 504q12 40 12 77q0 31 -14.5 47t-51.5 25q-10 2 -22 4.5t-19.5 3.5t-14.5 3.5t-10 6.5t-3 11q0 18 39 18q2 0 37 -3t69 -3q30 0 83 3t75 3q30 0 30 -20q0 -10 -10 -13.5t-29.5 -8.5t-33.5 -15
q-43 -29 -76 -129l-236 -703q-12 -41 -38 -41q-14 0 -21.5 9.5t-15.5 33.5z" />
    <glyph glyph-name="x" unicode="x" horiz-adv-x="1124" 
d="M467 418l-303 373q-24 30 -50.5 47t-42.5 20t-27 8.5t-11 16.5q0 18 35 18q2 0 26.5 -1.5t68 -3t93.5 -1.5q49 0 110.5 4t75.5 4q37 0 37 -20q0 -13 -28.5 -18t-57 -12t-28.5 -26t16 -41l194 -245l136 166q53 66 53 100q0 23 -13.5 31.5t-48.5 15.5q-32 5 -43.5 10
t-11.5 19q0 18 35 18q14 0 64.5 -3t87.5 -3q43 0 93.5 4t59.5 4q31 0 31 -18q0 -8 -4.5 -12.5t-9.5 -6t-19 -3.5t-24 -5q-69 -17 -148 -113l-205 -247l283 -338q38 -46 79 -74t66.5 -36t42.5 -15.5t17 -18.5q0 -20 -39 -20q-2 0 -29 2t-77 4t-107 2q-55 0 -102 -1.5t-72 -3
t-27 -1.5q-41 0 -41 18q0 13 12 18.5t43 8.5q28 3 39.5 4.5t22 9t10.5 21.5q0 6 -1.5 11.5t-3 9.5t-5.5 10l-6 9t-8.5 10.5t-8.5 10.5l-192 236l-172 -215q-23 -30 -23 -51q0 -41 47 -60q12 -5 33 -9t30 -9t9 -15q0 -18 -39 -18q-2 0 -21.5 1.5t-55 3t-76.5 1.5
q-47 0 -87.5 -2t-62.5 -4t-23 -2q-22 0 -22 16q0 13 8.5 19t36 11.5t41.5 10.5q61 18 154 135z" />
    <glyph glyph-name="y" unicode="y" horiz-adv-x="1017" 
d="M582 207l192 471q31 73 31 115q0 25 -15 39t-47 22q-10 2 -30 4.5t-26.5 6t-6.5 14.5q0 22 37 22q10 0 51.5 -4t73.5 -4q33 0 67.5 4t36.5 4q39 0 39 -22q0 -8 -7.5 -13t-23 -10t-24.5 -10q-40 -22 -86 -133l-262 -637v-1l-1 -1v-1l-1 -1q-159 -387 -216 -495
q-74 -140 -132 -153l-15 -2q-25 0 -40 17t-15 45q0 40 22.5 62.5t61 39t51.5 27.5q36 31 109 194q65 141 73 178q4 16 4 29q0 23 -22 78l-268 629q-2 5 -8.5 19t-8.5 18.5t-7 16t-8 15.5t-8 13t-9 13t-10 9.5t-12 9.5t-13 7q-12 5 -33 10t-31 10.5t-10 18.5q0 8 13.5 15
t35.5 7q2 0 55.5 -5t104.5 -5q52 0 120.5 5t86.5 5q19 0 31 -7t12 -17q0 -11 -10.5 -15t-38.5 -8q-8 -1 -13 -2q-38 -6 -55 -18.5t-17 -40.5q0 -23 15 -60z" />
    <glyph glyph-name="z" unicode="z" horiz-adv-x="903" 
d="M293 45h98q172 0 246.5 9.5t101.5 45.5q16 22 27 55.5t19.5 52.5t23.5 19q20 0 20 -34q0 -20 -6 -66t-6 -70v-18q0 -39 -26 -39h-699q-18 0 -18 14q0 10 14 31l518 811h-217q-93 0 -135 -15.5t-66 -64.5q-9 -17 -15 -41.5t-11.5 -35.5t-18.5 -11q-22 0 -22 29q0 88 6 126
t18.5 48t42.5 10h564q67 0 67 -8q0 -14 -6 -23z" />
    <glyph glyph-name="braceleft" unicode="{" 
d="M846 1516v-52q-77 -1 -124.5 -14t-74.5 -46t-37 -80t-10 -124v-143q0 -85 -6 -141t-23 -106.5t-49 -82t-83 -55t-126 -37.5q75 -14 126 -37.5t83 -55t49 -82t23 -106.5t6 -141v-143q0 -77 9.5 -124t37.5 -79.5t75 -45.5t124 -14v-51h-10q-149 0 -230.5 33t-115 106
t-33.5 207v213q0 155 -57.5 216.5t-223.5 74.5v60q167 15 224 75t57 215v213q0 134 33.5 207t115 106.5t230.5 33.5h10z" />
    <glyph glyph-name="bar" unicode="|" 
d="M449 1565h126v-2048h-126v2048z" />
    <glyph glyph-name="braceright" unicode="}" 
d="M178 1516h10q218 0 298.5 -75t80.5 -272v-213q0 -155 57 -215t224 -75v-60q-166 -13 -223.5 -74.5t-57.5 -216.5v-213q0 -197 -80.5 -271.5t-298.5 -74.5h-10v51q77 1 124 14t75 45.5t37.5 79.5t9.5 124v143q0 85 6 141t23 106.5t49 82t83 55t126 37.5q-75 14 -126 37.5
t-83 55t-49 82t-23 106.5t-6 141v143q0 77 -10 124t-37 80t-74.5 46t-124.5 14v52z" />
    <glyph glyph-name="asciitilde" unicode="~" horiz-adv-x="1705" 
d="M1530 758v-131q-202 -144 -387 -144q-88 0 -191 35q-29 10 -99 35t-104.5 35.5t-87.5 21.5t-98 11q-87 0 -178.5 -39.5t-206.5 -120.5v133q210 145 387 145q50 0 104.5 -10.5t91 -22t95.5 -32.5q9 -3 40.5 -14.5t43 -15.5t38.5 -13t42.5 -12.5t38.5 -8t44 -6.5t42 -2
q89 0 180.5 38.5t204.5 117.5z" />
    <glyph glyph-name="exclamdown" unicode="&#xa1;" horiz-adv-x="616" 
d="M424 1288q0 -49 -34.5 -83t-82.5 -34q-47 0 -80.5 34t-33.5 83q0 48 32.5 81.5t81.5 33.5q48 0 82.5 -33t34.5 -82zM332 1042v-157q0 -173 21.5 -336.5t43 -271.5t21.5 -146q0 -71 -30 -111t-81 -40t-79.5 38.5t-28.5 108.5q0 51 21 165.5t42 274t21 320.5v155h49z" />
    <glyph glyph-name="cent" unicode="&#xa2;" horiz-adv-x="1124" 
d="M512 127q84 -66 178 -66q111 0 170 52q12 11 25.5 28.5t23 27t21.5 9.5q26 0 26 -26q0 -56 -85 -104t-222 -48q-95 0 -178 27l-102 -265h-72l115 291q-236 112 -236 406q0 207 144.5 350t353.5 143q34 0 86 -6l100 250h70l-103 -262q66 -22 97.5 -49.5t31.5 -65.5
q0 -31 -17.5 -48t-49.5 -17q-15 0 -26 3.5t-17.5 7.5t-14 16t-10.5 18.5t-11.5 26.5t-12.5 30zM461 180l278 719q-38 10 -59 10q-140 0 -220.5 -115t-80.5 -325q0 -185 82 -289z" />
    <glyph glyph-name="sterling" unicode="&#xa3;" horiz-adv-x="1124" 
d="M487 109q-41 -67 -107 -104.5t-142 -37.5q-78 0 -121 37t-43 102q0 73 49.5 119.5t132.5 46.5q103 0 205 -57q6 58 6 102q0 158 -74 365h-262v74h240q-45 158 -45 262q0 183 101 285t282 102q136 0 227.5 -63t91.5 -144q0 -34 -23 -57t-55 -23q-40 0 -61.5 24t-32.5 77
q-14 74 -54.5 109.5t-121.5 35.5q-88 0 -142.5 -63.5t-54.5 -167.5t74 -377h332v-74h-320q25 -131 25 -186q0 -168 -64 -308q146 -57 285 -57q131 0 205 74q8 8 16 22t14 22.5t13 8.5q20 0 20 -20q0 -112 -72 -190.5t-186 -78.5q-22 0 -44 3t-39 6.5t-40 12.5t-34.5 14
t-36 18.5t-32.5 18t-35 21t-32 19.5zM440 141q-92 74 -200 74q-52 0 -82.5 -27t-30.5 -73t29 -72.5t84 -26.5q53 0 110 34t90 91z" />
    <glyph glyph-name="currency" unicode="&#xa4;" horiz-adv-x="1241" 
d="M158 1419l207 -207q120 91 256 91q140 0 260 -91l204 207l72 -73l-205 -205q86 -115 86 -256t-86 -256l205 -205l-72 -74l-204 207q-113 -88 -260 -88q-143 0 -256 88l-207 -207l-72 74l207 205q-88 117 -88 256t88 256l-207 205zM623 1200q-130 0 -222 -92t-92 -221
q0 -131 92 -223.5t222 -92.5t221.5 93t91.5 223q0 129 -91.5 221t-221.5 92z" />
    <glyph glyph-name="yen" unicode="&#xa5;" horiz-adv-x="1280" 
d="M885 834h344v-62h-377l-115 -186h492v-62h-516v-295q0 -74 12.5 -110t54.5 -56q23 -12 58 -15.5t55 -8.5t20 -21q0 -22 -39 -22q-3 0 -34.5 2.5t-88.5 5t-122 2.5q-67 0 -126 -2.5t-91 -5t-35 -2.5q-37 0 -37 22q0 16 20 21t55 8.5t58 15.5q42 20 54 56t12 110v295h-473
v62h448l-104 186h-344v62h313l-193 348q-22 40 -31 54.5t-26 37.5t-33.5 32t-38.5 13q-8 1 -19 2.5t-17 2.5t-13.5 2.5t-11 3.5t-7.5 5t-5.5 7t-1.5 10q0 22 45 22q5 0 65 -3t115 -3q67 0 155 4t107 4q28 0 37.5 -4.5t9.5 -17.5t-8.5 -16.5t-29.5 -3.5t-34 -3
q-84 -15 -84 -78q0 -41 46 -129l274 -530q35 59 84 139t76.5 125.5t62 103.5t53 93t36 73t25 64t7.5 47q0 68 -57 80q-12 3 -28.5 6t-25 4.5t-17 4.5t-12 7t-3.5 11q0 20 43 20q5 0 31.5 -2t73 -4t97.5 -2q42 0 77.5 2.5t54.5 5t20 2.5q12 0 19.5 -5t7.5 -11q0 -9 -6.5 -14
t-15 -7t-24 -5.5t-26.5 -6.5q-39 -13 -73 -50.5t-75 -107.5z" />
    <glyph glyph-name="brokenbar" unicode="&#xa6;" 
d="M449 1432h126v-758h-126v758zM449 408h126v-758h-126v758z" />
    <glyph glyph-name="section" unicode="&#xa7;" 
d="M575 262q108 -81 157.5 -152t49.5 -155q0 -117 -77.5 -190.5t-206.5 -73.5q-122 0 -204.5 64t-82.5 143q0 50 28.5 81t73.5 31q43 0 68 -23t25 -61q0 -21 -11 -41t-25 -32t-25 -23.5t-11 -17.5q0 -29 45 -53.5t117 -24.5q83 0 132.5 44.5t49.5 119.5q0 57 -35.5 106
t-112.5 113l-198 164q-86 70 -133 155t-47 160q0 107 65 175.5t170 68.5q28 0 55 -6q-108 86 -157 159t-49 162q0 110 76.5 179t201.5 69q119 0 191.5 -58t72.5 -141q0 -50 -27.5 -78t-76.5 -28q-38 0 -61 23t-23 59q0 26 16 48.5t32.5 40t16.5 31.5q0 23 -39 40.5
t-106 17.5q-75 0 -122.5 -42.5t-47.5 -111.5q0 -34 10 -62.5t37.5 -59.5t50.5 -51.5t72 -61.5l141 -117q116 -98 169.5 -171t53.5 -159q0 -122 -66.5 -193t-180.5 -71q-16 0 -52 4zM244 657q0 -89 94 -186q170 -176 276 -176q69 0 115.5 41.5t46.5 103.5q0 48 -25.5 92
t-78.5 99q-171 174 -275 174q-66 0 -109.5 -42t-43.5 -106z" />
    <glyph glyph-name="dieresis" unicode="&#xa8;" 
d="M596 1190q0 40 30 70t70 30t69.5 -30t29.5 -70q0 -42 -28.5 -71t-70.5 -29t-71 29t-29 71zM215 1190q0 40 29 70t69 30t70.5 -30t30.5 -70q0 -42 -29.5 -71t-71.5 -29q-41 0 -69.5 28.5t-28.5 71.5z" />
    <glyph glyph-name="copyright" unicode="&#xa9;" horiz-adv-x="1683" 
d="M844 1382q137 0 266 -53t227 -151q98 -97 152.5 -228.5t54.5 -271.5q0 -139 -53 -267.5t-154 -230.5q-98 -100 -225 -152.5t-270 -52.5q-291 0 -496 205q-101 100 -154 227.5t-53 270.5q0 140 53 268.5t152 229.5q98 99 228 152.5t272 53.5zM844 1303q-123 0 -237 -48.5
t-201 -136.5q-88 -89 -134.5 -202.5t-46.5 -237.5q0 -125 47.5 -238.5t135.5 -201.5q181 -181 434 -181q256 0 434 181q182 185 182 440q0 124 -47 240t-133 202q-87 87 -200.5 135t-233.5 48zM1120 1096h35l2 -314h-41q-68 275 -280 275q-122 0 -185 -94t-63 -279
q0 -381 266 -381q170 0 283 174l34 -24q-117 -209 -342 -209q-167 0 -285 123.5t-118 296.5q0 188 116 313t285 125q55 0 104 -17t81 -34t45 -17q27 0 42 14.5t21 47.5z" />
    <glyph glyph-name="ordfeminine" unicode="&#xaa;" horiz-adv-x="759" 
d="M618 1231v-369q0 -69 44 -69q13 0 32.5 13t28.5 13q22 0 22 -20t-41 -49t-94 -29q-52 0 -89.5 25t-49.5 67q-112 -92 -260 -92q-77 0 -121.5 39t-44.5 102q0 37 18 68.5t48.5 57t87.5 52.5t117 50t155 55v96q0 64 -31 92.5t-108 28.5q-60 0 -89.5 -20t-35.5 -62
q-5 -34 -22 -50t-52 -16q-29 0 -46 17.5t-17 44.5q0 53 73.5 90t202.5 37q138 0 205 -42t67 -130zM471 1104q-138 -53 -201 -102t-63 -111q0 -51 25.5 -78t72.5 -27q58 0 112 39t54 84v195zM96 594h598v-102h-598v102z" />
    <glyph glyph-name="guillemotleft" unicode="&#xab;" horiz-adv-x="884" 
d="M256 463q99 -118 153 -199t54 -102q0 -15 -14 -15q-10 0 -45.5 35.5t-120 118t-181.5 162.5q97 79 181.5 160.5t120 118t45.5 36.5q14 0 14 -14q0 -21 -54 -102t-153 -199zM571 463q99 -118 153 -199t54 -102q0 -15 -14 -15q-10 0 -45 36t-119.5 118t-181.5 162
q97 79 181 160.5t119.5 118t45.5 36.5q14 0 14 -14q0 -21 -54 -102t-153 -199z" />
    <glyph glyph-name="logicalnot" unicode="&#xac;" horiz-adv-x="1705" 
d="M254 858h1198v-502h-115v385h-1083v117z" />
    <glyph glyph-name="registered" unicode="&#xae;" horiz-adv-x="1683" 
d="M844 1382q138 0 268.5 -54t228.5 -152q97 -97 150 -228t53 -272q0 -136 -55.5 -267t-157.5 -233q-201 -201 -495 -201q-137 0 -263 52.5t-227 152.5t-154 227.5t-53 270.5q0 140 53 268.5t152 229.5q98 99 228 152.5t272 53.5zM844 1303q-122 0 -236 -48.5t-202 -136.5
q-88 -89 -134.5 -202.5t-46.5 -237.5q0 -257 183 -440q181 -181 434 -181q256 0 434 181q182 185 182 440q0 124 -47 241t-133 201q-87 87 -200.5 135t-233.5 48zM469 1092h393q150 0 234 -55t84 -146q0 -76 -69.5 -124.5t-217.5 -74.5q94 -29 142.5 -77.5t70.5 -133.5
q5 -19 9 -45.5t6.5 -42.5t8 -32t17 -23.5t29.5 -7.5q67 0 67 133h43v-12q0 -88 -41 -133.5t-119 -45.5q-95 0 -127 66q-19 40 -21.5 114.5t-8.5 94.5q-39 133 -207 133h-33v-248q0 -55 27 -76t98 -24v-41h-385v41q71 2 99 23.5t28 76.5v516q0 56 -27 77t-100 24v43zM729 719
q33 -2 66 -2q114 0 174.5 45.5t60.5 128.5q0 71 -51.5 116.5t-144.5 45.5q-105 0 -105 -72v-262z" />
    <glyph glyph-name="macron" unicode="&#xaf;" 
d="M246 1126v127h516v-127h-516z" />
    <glyph glyph-name="degree" unicode="&#xb0;" horiz-adv-x="673" 
d="M338 1454q117 0 200 -83t83 -200q0 -116 -83 -199t-202 -83q-118 0 -199.5 81.5t-81.5 200.5t82.5 201t200.5 82zM338 1372q-84 0 -143.5 -58.5t-59.5 -142.5q0 -85 59.5 -143.5t143.5 -58.5q85 0 143 59t58 143t-58.5 142.5t-142.5 58.5z" />
    <glyph glyph-name="plusminus" unicode="&#xb1;" horiz-adv-x="1705" 
d="M795 1180h118v-344h539v-117h-539v-344h-118v344h-541v117h541v344zM254 158h1198v-117h-1198v117z" />
    <glyph glyph-name="twosuperior" unicode="&#xb2;" horiz-adv-x="741" 
d="M190 651q104 -4 218 -4q57 0 122 3t72 3q31 0 31 -16q0 -8 -2 -12l-31 -140q-3 -12 -10 -12q-15 0 -15 14q0 4 1.5 12t1.5 13q0 24 -10.5 29.5t-53.5 5.5h-401q-5 0 -14.5 -2t-14.5 -2q-14 0 -14 6q0 15 44 70.5t124 132.5q17 17 89 81t105 105q86 105 86 233
q0 89 -50 140t-138 51q-67 0 -113.5 -41.5t-46.5 -101.5q0 -57 33 -92t86 -35q14 0 26 2.5t19.5 5t9.5 2.5q10 0 10 -6q0 -17 -38.5 -38.5t-90.5 -21.5q-59 0 -102 42t-43 104q0 90 76 149.5t200 59.5q134 0 215.5 -66t81.5 -172q0 -91 -51 -154q-16 -19 -38.5 -39
t-38.5 -32t-45 -33t-42 -31q-156 -113 -195 -149q-38 -35 -53 -64z" />
    <glyph glyph-name="threesuperior" unicode="&#xb3;" horiz-adv-x="741" 
d="M385 1016h14q116 0 183 -53.5t67 -143.5q0 -110 -94 -194q-111 -99 -262 -99q-94 0 -154.5 36.5t-60.5 84.5q0 55 63 55q27 0 39.5 -15t26.5 -52q15 -41 40 -59.5t70 -18.5q97 0 147 59.5t50 176.5q0 198 -139 198q-29 0 -51.5 -14.5t-51.5 -46.5q-28 -35 -43 -35
q-11 0 -19.5 7.5t-8.5 15.5t3.5 14.5t12 13t17 11t24.5 13t29 15.5q95 53 135.5 105t40.5 137q0 65 -33 100t-94 35q-63 0 -103 -35t-40 -90q0 -33 25 -58.5t58 -25.5q17 0 35 6t21 6q8 0 8 -6q0 -13 -34 -33t-73 -20q-54 0 -88 30t-34 76q0 66 74.5 122.5t183.5 56.5
q100 0 159.5 -44.5t59.5 -109.5q0 -64 -49.5 -116.5t-153.5 -104.5z" />
    <glyph glyph-name="acute" unicode="&#xb4;" 
d="M328 1036l288 299q31 31 52.5 45.5t44.5 14.5q33 0 53 -20.5t20 -51.5q0 -42 -61 -82l-330 -205h-67z" />
    <glyph glyph-name="mu" unicode="&#xb5;" horiz-adv-x="1120" 
d="M164 193q-15 -79 -28 -161.5t-19.5 -138.5t-14 -111t-14.5 -88.5t-18.5 -61t-28 -39t-41.5 -11.5q-37 0 -58.5 23.5t-21.5 64.5q0 35 23.5 122.5t68 252t78.5 326.5l109 514h147l-104 -492q-13 -67 -13 -112q0 -83 42.5 -129t117.5 -46q97 0 163 68t95 201l111 510h149
l-114 -531q-21 -103 -21 -137q0 -49 26 -78.5t66 -29.5q73 0 117 69q19 29 32.5 70t23 62.5t24.5 21.5q26 0 26 -37q0 -62 -40 -150q-73 -163 -230 -163q-67 0 -108 50.5t-41 139.5v23q-92 -218 -281 -218q-195 0 -223 216z" />
    <glyph glyph-name="paragraph" unicode="&#xb6;" 
d="M948 1479v-78h-125v-1401h-94v1401h-184v-1401h-94v782q-173 7 -274 102t-101 246q0 156 106.5 252.5t286.5 96.5h479z" />
    <glyph glyph-name="periodcentered" unicode="&#xb7;" horiz-adv-x="561" 
d="M166 723q0 47 34 81t81 34t79.5 -33.5t32.5 -81.5t-31.5 -81.5t-80.5 -33.5q-48 0 -81.5 33t-33.5 82z" />
    <glyph glyph-name="cedilla" unicode="&#xb8;" 
d="M244 -371l35 78q127 -72 223 -72q64 0 93.5 22t29.5 71q0 42 -30 66t-85 24q-26 0 -61 -6v188h63v-113q40 7 61 7q87 0 135 -43.5t48 -120.5q0 -81 -58 -128.5t-161 -47.5q-105 0 -293 75z" />
    <glyph glyph-name="onesuperior" unicode="&#xb9;" horiz-adv-x="741" 
d="M322 662v575q0 68 -43 74q-19 3 -47.5 4.5t-40 4t-11.5 9.5q0 3 1.5 5.5t5.5 4t9 2.5t13.5 2l17 2t22 2.5t25.5 2.5q49 7 88 19.5t57.5 21t20.5 8.5q6 0 6 -21q0 -2 -1.5 -21t-3 -54t-1.5 -76v-561q0 -46 13.5 -66.5t50.5 -26.5q15 -3 37.5 -5.5t30.5 -5.5t8 -11
q0 -10 -31 -10q-1 0 -23 1t-63.5 2t-89.5 1q-41 0 -78.5 -1t-59 -2t-24.5 -1q-29 0 -29 10q0 8 8 11t30.5 5.5t37.5 5.5q35 6 49.5 26.5t14.5 62.5z" />
    <glyph glyph-name="ordmasculine" unicode="&#xba;" horiz-adv-x="847" 
d="M102 594h643v-102h-643v102zM801 1063q0 -142 -110.5 -242t-266.5 -100q-157 0 -266 99.5t-109 242.5q0 142 109.5 241t265.5 99t266.5 -99t110.5 -241zM424 762q94 0 151.5 80.5t57.5 220.5t-57.5 220.5t-151.5 80.5t-150.5 -80t-56.5 -221t56.5 -221t150.5 -80z" />
    <glyph glyph-name="guillemotright" unicode="&#xbb;" horiz-adv-x="884" 
d="M309 463q-99 119 -153 199.5t-54 101.5q0 14 15 14q10 0 45 -35.5t119.5 -117.5t181.5 -162q-97 -79 -181 -160.5t-119.5 -118.5t-45.5 -37q-15 0 -15 15q0 21 54 101.5t153 199.5zM625 463q-99 119 -153 199.5t-54 101.5q0 14 14 14q10 0 45 -35.5t119.5 -117.5
t181.5 -162q-97 -79 -181 -160.5t-119.5 -118.5t-45.5 -37q-14 0 -14 15q0 21 54 101.5t153 199.5z" />
    <glyph glyph-name="onequarter" unicode="&#xbc;" horiz-adv-x="1757" 
d="M307 711v534q0 65 -41 70q-17 3 -44 4.5t-38.5 4t-11.5 9.5q0 4 3 6.5t11.5 4t17 2.5t26 2.5t32.5 3.5q47 6 84.5 17.5t55 19.5t18.5 8q6 0 6 -19q0 -2 -1 -20t-2 -50.5t-1 -70.5v-524q0 -42 12.5 -61t46.5 -25q11 -2 24 -3.5t20.5 -2.5t14.5 -2.5t10 -4.5t3 -8
q0 -10 -29 -10q-2 0 -23 1t-60 2t-85 1q-40 0 -75 -1t-55 -2t-23 -1q-27 0 -27 10q0 8 7 11t29.5 5.5t35.5 4.5q33 6 46 25t13 59zM367 -33l940 1436h84l-938 -1436h-86zM1444 252h-342q-25 0 -25 20q0 11 25 39l414 461q20 23 28 23q15 0 15 -33v-469h127q16 0 26 -6.5
t10 -14.5q0 -20 -34 -20h-132v-150q0 -33 10 -50t38 -21q14 -3 30 -4.5t26 -2.5t19 -2t13 -3.5t4 -6.5q0 -14 -33 -14q-5 0 -58.5 2t-101.5 2q-57 0 -117 -3t-61 -3q-25 0 -25 14q0 3 1.5 5t5.5 3.5t8 2.5t11.5 2t14 2t18.5 2t21 2q64 6 64 69v154zM1448 293v354l-318 -354
h318z" />
    <glyph glyph-name="onehalf" unicode="&#xbd;" horiz-adv-x="1757" 
d="M307 711v534q0 65 -41 70q-17 3 -44 4.5t-38.5 4t-11.5 9.5q0 4 3 6.5t11.5 4t17 2.5t26 2.5t32.5 3.5q47 6 84.5 17.5t55 19.5t18.5 8q6 0 6 -19q0 -2 -1 -20t-2 -50.5t-1 -70.5v-524q0 -42 12.5 -61t46.5 -25q11 -2 24 -3.5t20.5 -2.5t14.5 -2.5t10 -4.5t3 -8
q0 -10 -29 -10q-2 0 -23 1t-60 2t-85 1q-40 0 -75 -1t-55 -2t-23 -1q-27 0 -27 10q0 8 7 11t29.5 5.5t35.5 4.5q33 6 46 25t13 59zM367 -33l940 1436h84l-938 -1436h-86zM1233 98q98 -4 207 -4q55 0 116.5 2t69.5 2q29 0 29 -14q0 -6 -2 -12l-29 -129q-3 -13 -10 -13
q-15 0 -15 15q0 3 1.5 10.5t1.5 11.5q0 23 -10.5 28t-51.5 5h-381q-5 0 -15 -2t-14 -2q-12 0 -12 6q0 9 16 33t53.5 66.5t88.5 91.5q21 20 60.5 53t71 62t54.5 57q82 98 82 217q0 84 -47 131t-131 47q-65 0 -109.5 -38t-44.5 -95q0 -52 31.5 -85.5t81.5 -33.5q18 0 36 5
t19 5q9 0 9 -6q0 -15 -37 -35t-86 -20q-57 0 -98.5 39t-41.5 98q0 83 73.5 137.5t191.5 54.5q128 0 206 -61t78 -158q0 -86 -51 -143q-15 -19 -37.5 -38.5t-33.5 -28.5t-46 -33t-39 -27q-151 -107 -189 -143q-33 -30 -46 -56z" />
    <glyph glyph-name="threequarters" unicode="&#xbe;" horiz-adv-x="1759" 
d="M369 1040h12q112 0 176 -50t64 -134q0 -101 -91 -180q-109 -92 -249 -92q-90 0 -148.5 33.5t-58.5 78.5q0 52 61 52q26 0 38 -14.5t24 -49.5q16 -39 39.5 -56.5t66.5 -17.5q92 0 140.5 56t48.5 165q0 185 -134 185q-49 0 -98 -55q-28 -35 -41 -35q-12 0 -20.5 7t-8.5 15
t3.5 14t12 12t16.5 10t24.5 12t27.5 14q90 50 128 98t38 129q0 61 -30.5 93t-87.5 32q-60 0 -99 -32t-39 -83q0 -31 24 -54.5t56 -23.5q16 0 32.5 5.5t18.5 5.5q11 0 11 -6q0 -11 -34 -30.5t-71 -19.5q-50 0 -82.5 29t-32.5 72q0 59 71 111.5t173 52.5q97 0 154 -40.5
t57 -101.5q0 -59 -47 -109t-145 -98zM367 -33l940 1436h84l-938 -1436h-86zM1444 252h-342q-25 0 -25 20q0 11 25 39l414 461q20 23 28 23q15 0 15 -33v-469h127q16 0 26 -6.5t10 -14.5q0 -20 -34 -20h-132v-150q0 -33 10 -50t38 -21q14 -3 30 -4.5t26 -2.5t19 -2t13 -3.5
t4 -6.5q0 -14 -33 -14q-5 0 -58.5 2t-101.5 2q-57 0 -117 -3t-61 -3q-25 0 -25 14q0 3 1.5 5t5.5 3.5t8 2.5t11.5 2t14 2t18.5 2t21 2q64 6 64 69v154zM1448 293v354l-318 -354h318z" />
    <glyph glyph-name="questiondown" unicode="&#xbf;" horiz-adv-x="901" 
d="M631 1061v-408h-131q-275 0 -275 -231q0 -130 71.5 -212.5t184.5 -82.5q36 0 97 10t84 10q108 0 108 -84q0 -39 -35.5 -63.5t-93.5 -24.5q-72 0 -153 30.5t-140 82.5q-86 75 -135 185t-49 229q0 156 101 240.5t292 84.5h25v234h49zM713 1286q0 -49 -34.5 -83t-82.5 -34
t-81.5 34t-33.5 83q0 50 33 83.5t82 33.5q48 0 82.5 -34t34.5 -83z" />
    <glyph glyph-name="Agrave" unicode="&#xc0;" horiz-adv-x="1355" 
d="M377 559h475l-229 592zM354 500l-90 -226q-26 -68 -26 -116q0 -77 67 -103q16 -6 41.5 -11t37 -10.5t11.5 -19.5q0 -18 -39 -18q-6 0 -69 6t-121 6q-44 0 -102 -4t-70 -4q-51 0 -51 23q0 11 10 16.5t25 7.5t40.5 9t47.5 18q38 19 69.5 68.5t69.5 140.5l457 1089
q16 39 36 39q21 0 39 -43l453 -1141q28 -70 56 -109t67 -55q22 -10 53 -14.5t46 -9.5t15 -19q0 -20 -41 -20q-24 0 -111 4t-149 4q-41 0 -123 -6t-124 -6q-54 0 -54 22q0 18 60 27q59 8 85.5 25t26.5 49q0 55 -30 131l-95 250h-518zM872 1516h-65l-330 204q-63 41 -63 82
q0 31 21 51.5t54 20.5q38 0 97 -59z" />
    <glyph glyph-name="Aacute" unicode="&#xc1;" horiz-adv-x="1355" 
d="M377 559h475l-229 592zM354 500l-90 -226q-26 -68 -26 -116q0 -77 67 -103q16 -6 41.5 -11t37 -10.5t11.5 -19.5q0 -18 -39 -18q-6 0 -69 6t-121 6q-44 0 -102 -4t-70 -4q-51 0 -51 23q0 11 10 16.5t25 7.5t40.5 9t47.5 18q38 19 69.5 68.5t69.5 140.5l457 1089
q16 39 36 39q21 0 39 -43l453 -1141q28 -70 56 -109t67 -55q22 -10 53 -14.5t46 -9.5t15 -19q0 -20 -41 -20q-24 0 -111 4t-149 4q-41 0 -123 -6t-124 -6q-54 0 -54 22q0 18 60 27q59 8 85.5 25t26.5 49q0 55 -30 131l-95 250h-518zM520 1516l289 299q31 31 52 45t44 14
q33 0 53.5 -20.5t20.5 -51.5q0 -42 -61 -82l-330 -204h-68z" />
    <glyph glyph-name="Acircumflex" unicode="&#xc2;" horiz-adv-x="1355" 
d="M377 559h475l-229 592zM354 500l-90 -226q-26 -68 -26 -116q0 -77 67 -103q16 -6 41.5 -11t37 -10.5t11.5 -19.5q0 -18 -39 -18q-6 0 -69 6t-121 6q-44 0 -102 -4t-70 -4q-51 0 -51 23q0 11 10 16.5t25 7.5t40.5 9t47.5 18q38 19 69.5 68.5t69.5 140.5l457 1089
q16 39 36 39q21 0 39 -43l453 -1141q28 -70 56 -109t67 -55q22 -10 53 -14.5t46 -9.5t15 -19q0 -20 -41 -20q-24 0 -111 4t-149 4q-41 0 -123 -6t-124 -6q-54 0 -54 22q0 18 60 27q59 8 85.5 25t26.5 49q0 55 -30 131l-95 250h-518zM406 1516l233 348h117l231 -348h-57
l-234 208l-231 -208h-59z" />
    <glyph glyph-name="Atilde" unicode="&#xc3;" horiz-adv-x="1355" 
d="M377 559h475l-229 592zM354 500l-90 -226q-26 -68 -26 -116q0 -77 67 -103q16 -6 41.5 -11t37 -10.5t11.5 -19.5q0 -18 -39 -18q-6 0 -69 6t-121 6q-44 0 -102 -4t-70 -4q-51 0 -51 23q0 11 10 16.5t25 7.5t40.5 9t47.5 18q38 19 69.5 68.5t69.5 140.5l457 1089
q16 39 36 39q21 0 39 -43l453 -1141q28 -70 56 -109t67 -55q22 -10 53 -14.5t46 -9.5t15 -19q0 -20 -41 -20q-24 0 -111 4t-149 4q-41 0 -123 -6t-124 -6q-54 0 -54 22q0 18 60 27q59 8 85.5 25t26.5 49q0 55 -30 131l-95 250h-518zM983 1812q-40 -204 -195 -204
q-28 0 -73 10l-107 27q-32 8 -49 8q-40 0 -62 -21t-36 -71h-51q38 213 198 213q30 0 64 -9l108 -28q46 -11 56 -11q70 0 96 86h51z" />
    <glyph glyph-name="Adieresis" unicode="&#xc4;" horiz-adv-x="1355" 
d="M377 559h475l-229 592zM354 500l-90 -226q-26 -68 -26 -116q0 -77 67 -103q16 -6 41.5 -11t37 -10.5t11.5 -19.5q0 -18 -39 -18q-6 0 -69 6t-121 6q-44 0 -102 -4t-70 -4q-51 0 -51 23q0 11 10 16.5t25 7.5t40.5 9t47.5 18q38 19 69.5 68.5t69.5 140.5l457 1089
q16 39 36 39q21 0 39 -43l453 -1141q28 -70 56 -109t67 -55q22 -10 53 -14.5t46 -9.5t15 -19q0 -20 -41 -20q-24 0 -111 4t-149 4q-41 0 -123 -6t-124 -6q-54 0 -54 22q0 18 60 27q59 8 85.5 25t26.5 49q0 55 -30 131l-95 250h-518zM788 1669q0 40 30.5 70t70.5 30t69 -30
t29 -70q0 -43 -28.5 -71.5t-69.5 -28.5q-42 0 -71.5 29t-29.5 71zM408 1669q0 40 29 70t69 30t70 -30t30 -70q0 -42 -29 -71t-71 -29q-41 0 -69.5 28.5t-28.5 71.5z" />
    <glyph glyph-name="Aring" unicode="&#xc5;" horiz-adv-x="1355" 
d="M377 559h475l-229 592zM354 500l-90 -226q-26 -68 -26 -116q0 -77 67 -103q16 -6 41.5 -11t37 -10.5t11.5 -19.5q0 -18 -39 -18q-6 0 -69 6t-121 6q-44 0 -102 -4t-70 -4q-51 0 -51 23q0 11 10 16.5t25 7.5t40.5 9t47.5 18q38 19 69.5 68.5t69.5 140.5l457 1089
q16 39 36 39q21 0 39 -43l453 -1141q28 -70 56 -109t67 -55q22 -10 53 -14.5t46 -9.5t15 -19q0 -20 -41 -20q-24 0 -111 4t-149 4q-41 0 -123 -6t-124 -6q-54 0 -54 22q0 18 60 27q59 8 85.5 25t26.5 49q0 55 -30 131l-95 250h-518zM455 1720q0 101 69 170.5t170 69.5
t171.5 -69.5t70.5 -170.5t-70.5 -171t-171.5 -70t-170 70t-69 171zM545 1720q0 -63 43 -106t106 -43t106.5 43t43.5 106q0 62 -44 106t-106 44t-105.5 -43.5t-43.5 -106.5z" />
    <glyph glyph-name="AE" unicode="&#xc6;" horiz-adv-x="1759" 
d="M426 739h297v512q0 7 -3.5 13t-8.5 6q-7 0 -17 -21zM934 352q0 -49 1.5 -81t6.5 -65t13.5 -52.5t24 -39t37 -29.5t53 -18t71.5 -11t94 -3q142 0 221.5 27.5t122.5 99.5q19 33 28 70.5t14.5 54.5t20.5 17q14 0 18.5 -13.5t4.5 -48.5q0 -32 -4 -101t-4 -106q0 -39 -10 -48
t-58 -9q-4 0 -99.5 2.5t-274.5 5t-386 2.5q-72 0 -135 -2.5t-96.5 -5t-36.5 -2.5q-37 0 -37 22q0 16 20 20.5t55.5 8t57.5 14.5q42 22 54 58t12 110v463h-320l-233 -463q-2 -4 -9 -18.5t-9.5 -20t-7 -16.5t-6 -19.5t-1.5 -17.5q0 -39 23 -58t76 -28q54 -11 62 -19
q5 -5 5 -12q0 -20 -45 -20q-8 0 -70.5 2t-117.5 2q-53 0 -113.5 -2t-67.5 -2q-39 0 -39 18q0 13 12 19t39.5 11.5t45.5 12.5q44 19 75.5 54.5t63.5 97.5l528 1014q13 23 13 39q0 28 -19 39.5t-71 19.5q-11 2 -28 4t-24.5 3.5t-16.5 4t-12 6t-3 9.5q0 20 36 20q2 0 51 -2
t141.5 -4t199.5 -2q60 0 229.5 3t278.5 3h45q74 0 98 -8t24 -41q0 -4 -3 -41t-3 -70q0 -29 4.5 -64.5t4.5 -41.5q0 -33 -23 -33q-13 0 -19.5 13t-7.5 31.5t-8.5 46.5t-21.5 50q-42 68 -126.5 88.5t-248.5 20.5h-17q-42 0 -61 -0.5t-40.5 -4.5t-28.5 -9.5t-14 -19.5t-8 -30.5
t-1 -46.5v-471q130 6 196.5 29t104.5 84q18 29 25.5 70t13 63.5t20.5 22.5q25 0 25 -35q0 -13 -5 -86t-5 -133q0 -82 6 -169t6 -91q0 -37 -23 -37q-11 0 -15.5 13.5t-12 45t-19.5 57.5q-31 67 -96.5 93t-183.5 26h-37v-340z" />
    <glyph glyph-name="Ccedilla" unicode="&#xc7;" horiz-adv-x="1462" 
d="M1343 51q0 -22 -22 -22q-11 0 -18 12t-9.5 26.5t-12.5 26.5t-28 12q-14 0 -28.5 -6.5t-35.5 -20.5t-32 -20q-165 -92 -360 -92q-142 0 -270.5 47.5t-219.5 132.5q-207 192 -207 508q0 245 123 435q98 151 254 231t352 80q83 0 159.5 -16.5t120 -37t77.5 -37t43 -16.5
q15 0 24 19.5t16.5 39t18.5 19.5q22 0 25 -45l10 -301q0 -5 0.5 -10.5t0.5 -8.5t0.5 -5t0.5 -3q0 -28 -22 -28q-12 0 -17 10.5t-12 39t-17 52.5q-59 145 -160.5 216t-254.5 71q-223 0 -356.5 -184t-133.5 -510q0 -301 135.5 -474.5t362.5 -173.5q135 0 239 70.5t158 198.5
q15 35 27 70t18 55t11.5 36.5t11 23.5t12.5 7q6 0 11 -5.5t5 -14.5v-408zM532 -371l35 78q127 -72 224 -72q63 0 92.5 22t29.5 71q0 42 -29.5 66t-84.5 24q-27 0 -62 -6v188h64v-113q40 7 61 7q87 0 134.5 -43.5t47.5 -120.5q0 -81 -58 -128.5t-161 -47.5q-105 0 -293 75z
" />
    <glyph glyph-name="Egrave" unicode="&#xc8;" horiz-adv-x="1349" 
d="M524 352q0 -49 1.5 -81t6.5 -65t13.5 -52.5t24 -39t37 -29.5t53 -18t71.5 -11t94 -3q142 0 221.5 27.5t122.5 99.5q15 26 24.5 55t12 46.5t9 29t18.5 11.5q14 0 18 -13.5t4 -48.5q0 -32 -4 -101t-4 -106q0 -40 -9.5 -48.5t-57.5 -8.5q-4 0 -99.5 2.5t-274.5 5t-386 2.5
q-72 0 -135 -2.5t-96.5 -5t-36.5 -2.5q-37 0 -37 22q0 16 20 21t55 8.5t58 15.5q41 20 53 55.5t12 110.5v922q0 72 -12.5 107.5t-52.5 54.5q-21 10 -56 14t-56 8t-21 17q0 20 37 20q4 0 45 -2t116 -4t160 -2q68 0 236 3t270 3h45q74 0 98.5 -8t24.5 -41q0 -4 -3 -41t-3 -70
q0 -29 4 -64.5t4 -41.5q0 -33 -23 -33q-13 0 -19.5 13t-7.5 31.5t-8.5 46.5t-21.5 50q-42 68 -126.5 88.5t-248.5 20.5h-16q-42 0 -61 -0.5t-41 -4.5t-28.5 -9.5t-14 -19.5t-8.5 -30.5t-1 -46.5v-471q130 6 196.5 29t104.5 84q18 29 26 70t13.5 63.5t20.5 22.5q24 0 24 -35
q0 -13 -5 -86t-5 -133q0 -82 6 -169t6 -91q0 -37 -22 -37q-11 0 -15.5 13.5t-12 45t-19.5 57.5q-31 67 -96.5 93t-184.5 26h-37v-340zM879 1516h-66l-330 204q-63 41 -63 82q0 31 21.5 51.5t54.5 20.5q23 0 44 -14t52 -45z" />
    <glyph glyph-name="Eacute" unicode="&#xc9;" horiz-adv-x="1349" 
d="M524 352q0 -49 1.5 -81t6.5 -65t13.5 -52.5t24 -39t37 -29.5t53 -18t71.5 -11t94 -3q142 0 221.5 27.5t122.5 99.5q15 26 24.5 55t12 46.5t9 29t18.5 11.5q14 0 18 -13.5t4 -48.5q0 -32 -4 -101t-4 -106q0 -40 -9.5 -48.5t-57.5 -8.5q-4 0 -99.5 2.5t-274.5 5t-386 2.5
q-72 0 -135 -2.5t-96.5 -5t-36.5 -2.5q-37 0 -37 22q0 16 20 21t55 8.5t58 15.5q41 20 53 55.5t12 110.5v922q0 72 -12.5 107.5t-52.5 54.5q-21 10 -56 14t-56 8t-21 17q0 20 37 20q4 0 45 -2t116 -4t160 -2q68 0 236 3t270 3h45q74 0 98.5 -8t24.5 -41q0 -4 -3 -41t-3 -70
q0 -29 4 -64.5t4 -41.5q0 -33 -23 -33q-13 0 -19.5 13t-7.5 31.5t-8.5 46.5t-21.5 50q-42 68 -126.5 88.5t-248.5 20.5h-16q-42 0 -61 -0.5t-41 -4.5t-28.5 -9.5t-14 -19.5t-8.5 -30.5t-1 -46.5v-471q130 6 196.5 29t104.5 84q18 29 26 70t13.5 63.5t20.5 22.5q24 0 24 -35
q0 -13 -5 -86t-5 -133q0 -82 6 -169t6 -91q0 -37 -22 -37q-11 0 -15.5 13.5t-12 45t-19.5 57.5q-31 67 -96.5 93t-184.5 26h-37v-340zM526 1516l289 299q31 31 52 45t44 14q33 0 53.5 -20.5t20.5 -51.5q0 -42 -61 -82l-330 -204h-68z" />
    <glyph glyph-name="Ecircumflex" unicode="&#xca;" horiz-adv-x="1349" 
d="M524 352q0 -49 1.5 -81t6.5 -65t13.5 -52.5t24 -39t37 -29.5t53 -18t71.5 -11t94 -3q142 0 221.5 27.5t122.5 99.5q15 26 24.5 55t12 46.5t9 29t18.5 11.5q14 0 18 -13.5t4 -48.5q0 -32 -4 -101t-4 -106q0 -40 -9.5 -48.5t-57.5 -8.5q-4 0 -99.5 2.5t-274.5 5t-386 2.5
q-72 0 -135 -2.5t-96.5 -5t-36.5 -2.5q-37 0 -37 22q0 16 20 21t55 8.5t58 15.5q41 20 53 55.5t12 110.5v922q0 72 -12.5 107.5t-52.5 54.5q-21 10 -56 14t-56 8t-21 17q0 20 37 20q4 0 45 -2t116 -4t160 -2q68 0 236 3t270 3h45q74 0 98.5 -8t24.5 -41q0 -4 -3 -41t-3 -70
q0 -29 4 -64.5t4 -41.5q0 -33 -23 -33q-13 0 -19.5 13t-7.5 31.5t-8.5 46.5t-21.5 50q-42 68 -126.5 88.5t-248.5 20.5h-16q-42 0 -61 -0.5t-41 -4.5t-28.5 -9.5t-14 -19.5t-8.5 -30.5t-1 -46.5v-471q130 6 196.5 29t104.5 84q18 29 26 70t13.5 63.5t20.5 22.5q24 0 24 -35
q0 -13 -5 -86t-5 -133q0 -82 6 -169t6 -91q0 -37 -22 -37q-11 0 -15.5 13.5t-12 45t-19.5 57.5q-31 67 -96.5 93t-184.5 26h-37v-340zM412 1516l233 348h117l231 -348h-57l-234 208l-231 -208h-59z" />
    <glyph glyph-name="Edieresis" unicode="&#xcb;" horiz-adv-x="1349" 
d="M524 352q0 -49 1.5 -81t6.5 -65t13.5 -52.5t24 -39t37 -29.5t53 -18t71.5 -11t94 -3q142 0 221.5 27.5t122.5 99.5q15 26 24.5 55t12 46.5t9 29t18.5 11.5q14 0 18 -13.5t4 -48.5q0 -32 -4 -101t-4 -106q0 -40 -9.5 -48.5t-57.5 -8.5q-4 0 -99.5 2.5t-274.5 5t-386 2.5
q-72 0 -135 -2.5t-96.5 -5t-36.5 -2.5q-37 0 -37 22q0 16 20 21t55 8.5t58 15.5q41 20 53 55.5t12 110.5v922q0 72 -12.5 107.5t-52.5 54.5q-21 10 -56 14t-56 8t-21 17q0 20 37 20q4 0 45 -2t116 -4t160 -2q68 0 236 3t270 3h45q74 0 98.5 -8t24.5 -41q0 -4 -3 -41t-3 -70
q0 -29 4 -64.5t4 -41.5q0 -33 -23 -33q-13 0 -19.5 13t-7.5 31.5t-8.5 46.5t-21.5 50q-42 68 -126.5 88.5t-248.5 20.5h-16q-42 0 -61 -0.5t-41 -4.5t-28.5 -9.5t-14 -19.5t-8.5 -30.5t-1 -46.5v-471q130 6 196.5 29t104.5 84q18 29 26 70t13.5 63.5t20.5 22.5q24 0 24 -35
q0 -13 -5 -86t-5 -133q0 -82 6 -169t6 -91q0 -37 -22 -37q-11 0 -15.5 13.5t-12 45t-19.5 57.5q-31 67 -96.5 93t-184.5 26h-37v-340zM795 1669q0 40 30 70t70 30t69 -30t29 -70q0 -43 -28.5 -71.5t-69.5 -28.5q-42 0 -71 29t-29 71zM414 1669q0 40 29 70t69 30t70 -30
t30 -70q0 -42 -29 -71t-71 -29q-41 0 -69.5 28.5t-28.5 71.5z" />
    <glyph glyph-name="Igrave" unicode="&#xcc;" horiz-adv-x="899" 
d="M555 229q0 -73 15 -110t59 -56q27 -12 65.5 -16t59 -8.5t20.5 -20.5q0 -22 -39 -22q-3 0 -40 2.5t-103.5 5t-142.5 2.5t-142.5 -2.5t-103 -5t-39.5 -2.5q-41 0 -41 22q0 16 21 20.5t60 8.5t66 16q45 21 59.5 57.5t14.5 108.5v922q0 70 -13.5 106.5t-54.5 55.5
q-21 10 -61 14t-66 8.5t-26 16.5q0 8 19 14t40 6q6 0 41 -2t96 -4t130 -2q72 0 135 2t97.5 4t37.5 2q20 0 37.5 -5t17.5 -13q0 -11 -17.5 -15.5t-55 -8.5t-62.5 -11q-49 -13 -66.5 -51.5t-17.5 -116.5v-922zM618 1516h-65l-330 204q-63 41 -63 82q0 31 21.5 51.5t54.5 20.5
q23 0 44 -14t52 -45z" />
    <glyph glyph-name="Iacute" unicode="&#xcd;" horiz-adv-x="899" 
d="M555 229q0 -73 15 -110t59 -56q27 -12 65.5 -16t59 -8.5t20.5 -20.5q0 -22 -39 -22q-3 0 -40 2.5t-103.5 5t-142.5 2.5t-142.5 -2.5t-103 -5t-39.5 -2.5q-41 0 -41 22q0 16 21 20.5t60 8.5t66 16q45 21 59.5 57.5t14.5 108.5v922q0 70 -13.5 106.5t-54.5 55.5
q-21 10 -61 14t-66 8.5t-26 16.5q0 8 19 14t40 6q6 0 41 -2t96 -4t130 -2q72 0 135 2t97.5 4t37.5 2q20 0 37.5 -5t17.5 -13q0 -11 -17.5 -15.5t-55 -8.5t-62.5 -11q-49 -13 -66.5 -51.5t-17.5 -116.5v-922zM266 1516l289 299q31 31 52 45t44 14q33 0 53.5 -20.5t20.5 -51.5
q0 -42 -61 -82l-330 -204h-68z" />
    <glyph glyph-name="Icircumflex" unicode="&#xce;" horiz-adv-x="899" 
d="M555 229q0 -73 15 -110t59 -56q27 -12 65.5 -16t59 -8.5t20.5 -20.5q0 -22 -39 -22q-3 0 -40 2.5t-103.5 5t-142.5 2.5t-142.5 -2.5t-103 -5t-39.5 -2.5q-41 0 -41 22q0 16 21 20.5t60 8.5t66 16q45 21 59.5 57.5t14.5 108.5v922q0 70 -13.5 106.5t-54.5 55.5
q-21 10 -61 14t-66 8.5t-26 16.5q0 8 19 14t40 6q6 0 41 -2t96 -4t130 -2q72 0 135 2t97.5 4t37.5 2q20 0 37.5 -5t17.5 -13q0 -11 -17.5 -15.5t-55 -8.5t-62.5 -11q-49 -13 -66.5 -51.5t-17.5 -116.5v-922zM152 1516l233 348h117l231 -348h-57l-234 208l-231 -208h-59z" />
    <glyph glyph-name="Idieresis" unicode="&#xcf;" horiz-adv-x="899" 
d="M555 229q0 -73 15 -110t59 -56q27 -12 65.5 -16t59 -8.5t20.5 -20.5q0 -22 -39 -22q-3 0 -40 2.5t-103.5 5t-142.5 2.5t-142.5 -2.5t-103 -5t-39.5 -2.5q-41 0 -41 22q0 16 21 20.5t60 8.5t66 16q45 21 59.5 57.5t14.5 108.5v922q0 70 -13.5 106.5t-54.5 55.5
q-21 10 -61 14t-66 8.5t-26 16.5q0 8 19 14t40 6q6 0 41 -2t96 -4t130 -2q72 0 135 2t97.5 4t37.5 2q20 0 37.5 -5t17.5 -13q0 -11 -17.5 -15.5t-55 -8.5t-62.5 -11q-49 -13 -66.5 -51.5t-17.5 -116.5v-922zM535 1669q0 40 30 70t70 30t69 -30t29 -70q0 -43 -28.5 -71.5
t-69.5 -28.5q-42 0 -71 29t-29 71zM154 1669q0 40 29 70t69 30t70 -30t30 -70q0 -42 -29 -71t-71 -29q-41 0 -69.5 28.5t-28.5 71.5z" />
    <glyph glyph-name="Eth" unicode="&#xd0;" horiz-adv-x="1579" 
d="M524 328q0 -153 52 -217t194 -64q244 0 353.5 141.5t109.5 448.5q0 362 -135 529t-430 167q-88 0 -116 -19.5t-28 -94.5v-478h346v-65h-346v-348zM307 1159q0 72 -12.5 108.5t-52.5 55.5q-22 11 -56.5 14.5t-55.5 7t-21 15.5q0 22 36 22q6 0 41.5 -2.5t97 -5t130.5 -2.5
q47 0 141.5 5t142.5 5q370 0 575.5 -187.5t205.5 -520.5q0 -676 -742 -676q-79 0 -197.5 4t-156.5 4q-63 0 -119 -2t-87 -4t-34 -2q-34 0 -34 20q0 16 20 21t55 8.5t58 15.5q41 20 53 56.5t12 111.5v445h-307v65h307v418z" />
    <glyph glyph-name="Ntilde" unicode="&#xd1;" horiz-adv-x="1685" 
d="M379 262q0 -86 16.5 -130t69.5 -71q18 -9 39.5 -14t35.5 -6t23.5 -6.5t9.5 -16.5q0 -22 -43 -22q-6 0 -32 2t-68.5 4t-89.5 2q-34 0 -90 -3t-78 -3q-49 0 -49 22q0 13 19 18.5t52 11.5t54 18q43 25 56 67.5t13 128.5v957q-50 77 -129 100q-14 4 -40 7.5t-37 8.5t-11 17
q0 20 56 20q9 0 58.5 -4t90.5 -4q21 0 60 2t57 2q45 0 70 -35l839 -1050v841q0 109 -39 159t-133 50q-8 0 -15 7t-7 14q0 20 34 20q19 0 90.5 -5t124.5 -5q46 0 100.5 3t65.5 3q35 0 35 -18q0 -13 -18 -17.5t-50.5 -10t-54.5 -17.5q-43 -23 -56 -63.5t-13 -121.5v-1097
q0 -33 -6.5 -47.5t-26.5 -14.5q-19 0 -33.5 11.5t-34.5 37.5l-915 1139v-891zM1130 1812q-40 -204 -194 -204q-29 0 -74 10l-106 27q-32 8 -49 8q-40 0 -63 -21.5t-36 -70.5h-51q38 213 199 213q28 0 63 -9l109 -28q46 -11 55 -11q70 0 96 86h51z" />
    <glyph glyph-name="Ograve" unicode="&#xd2;" horiz-adv-x="1685" 
d="M96 680q0 291 211 502q224 221 549 221q161 0 306.5 -61.5t250.5 -172.5q178 -190 178 -485q0 -148 -56.5 -283t-156.5 -229q-101 -95 -242.5 -150t-287.5 -55q-155 0 -291.5 51t-239.5 146q-114 106 -167.5 231t-53.5 285zM348 690q0 -309 138.5 -494.5t357.5 -185.5
q221 0 360 181t139 495q0 316 -135 495t-360 179q-220 0 -360 -182t-140 -488zM1012 1516h-66l-330 204q-63 41 -63 82q0 31 21.5 51.5t54.5 20.5q23 0 44 -14t52 -45z" />
    <glyph glyph-name="Oacute" unicode="&#xd3;" horiz-adv-x="1685" 
d="M96 680q0 291 211 502q224 221 549 221q161 0 306.5 -61.5t250.5 -172.5q178 -190 178 -485q0 -148 -56.5 -283t-156.5 -229q-101 -95 -242.5 -150t-287.5 -55q-155 0 -291.5 51t-239.5 146q-114 106 -167.5 231t-53.5 285zM348 690q0 -309 138.5 -494.5t357.5 -185.5
q221 0 360 181t139 495q0 316 -135 495t-360 179q-220 0 -360 -182t-140 -488zM659 1516l289 299q31 31 52 45t44 14q33 0 53.5 -20.5t20.5 -51.5q0 -42 -61 -82l-330 -204h-68z" />
    <glyph glyph-name="Ocircumflex" unicode="&#xd4;" horiz-adv-x="1685" 
d="M96 680q0 291 211 502q224 221 549 221q161 0 306.5 -61.5t250.5 -172.5q178 -190 178 -485q0 -148 -56.5 -283t-156.5 -229q-101 -95 -242.5 -150t-287.5 -55q-155 0 -291.5 51t-239.5 146q-114 106 -167.5 231t-53.5 285zM348 690q0 -309 138.5 -494.5t357.5 -185.5
q221 0 360 181t139 495q0 316 -135 495t-360 179q-220 0 -360 -182t-140 -488zM545 1516l233 348h117l231 -348h-57l-233 208l-232 -208h-59z" />
    <glyph glyph-name="Otilde" unicode="&#xd5;" horiz-adv-x="1685" 
d="M96 680q0 291 211 502q224 221 549 221q161 0 306.5 -61.5t250.5 -172.5q178 -190 178 -485q0 -148 -56.5 -283t-156.5 -229q-101 -95 -242.5 -150t-287.5 -55q-155 0 -291.5 51t-239.5 146q-114 106 -167.5 231t-53.5 285zM348 690q0 -309 138.5 -494.5t357.5 -185.5
q221 0 360 181t139 495q0 316 -135 495t-360 179q-220 0 -360 -182t-140 -488zM1122 1812q-40 -204 -194 -204q-29 0 -74 10l-106 27q-32 8 -50 8q-40 0 -62 -21t-36 -71h-51q38 213 199 213q28 0 63 -9l109 -28q46 -11 55 -11q70 0 96 86h51z" />
    <glyph glyph-name="Odieresis" unicode="&#xd6;" horiz-adv-x="1685" 
d="M96 680q0 291 211 502q224 221 549 221q161 0 306.5 -61.5t250.5 -172.5q178 -190 178 -485q0 -148 -56.5 -283t-156.5 -229q-101 -95 -242.5 -150t-287.5 -55q-155 0 -291.5 51t-239.5 146q-114 106 -167.5 231t-53.5 285zM348 690q0 -309 138.5 -494.5t357.5 -185.5
q221 0 360 181t139 495q0 316 -135 495t-360 179q-220 0 -360 -182t-140 -488zM928 1669q0 40 30 70t70 30t69 -30t29 -70q0 -43 -28.5 -71.5t-69.5 -28.5q-42 0 -71 29t-29 71zM547 1669q0 40 29 70t69 30t70 -30t30 -70q0 -42 -29 -71t-71 -29q-41 0 -69.5 28.5
t-28.5 71.5z" />
    <glyph glyph-name="multiply" unicode="&#xd7;" horiz-adv-x="1705" 
d="M381 1169l477 -477l475 477l82 -82l-475 -477l475 -475l-82 -82l-475 475l-477 -475l-80 82l475 475l-475 477z" />
    <glyph glyph-name="Oslash" unicode="&#xd8;" horiz-adv-x="1685" 
d="M178 -203l205 309q-142 106 -215.5 252.5t-73.5 323.5q0 134 53.5 262t153.5 232q217 231 555 231q192 0 356 -86l158 233h105l-187 -278q156 -113 230.5 -254.5t74.5 -325.5q0 -156 -50.5 -287t-147.5 -225q-110 -107 -253 -164t-300 -57q-194 0 -383 98l-183 -264h-98z
M467 225l690 1014q-116 125 -293 125q-236 0 -377 -182t-141 -492q0 -274 121 -465zM1217 1176l-697 -1022q132 -144 326 -144q106 0 197.5 46t158.5 129.5t105.5 207t38.5 271.5q0 354 -129 512z" />
    <glyph glyph-name="Ugrave" unicode="&#xd9;" horiz-adv-x="1687" 
d="M311 1151q0 71 -13 107t-54 55q-21 10 -56 14t-56 8t-21 17q0 20 39 20q6 0 41 -2t95.5 -4t129.5 -2q72 0 135 2t97.5 4t37.5 2q35 0 35 -18q0 -11 -12 -15.5t-45 -8.5t-58 -11q-49 -13 -66.5 -51.5t-17.5 -116.5v-719q0 -202 90.5 -297.5t284.5 -95.5q228 0 335 114.5
t107 356.5v641q0 71 -13 107t-54 55q-21 10 -56 14t-56 8t-21 17q0 20 39 20q16 0 82.5 -4t117.5 -4q48 0 109 4t72 4q36 0 36 -18q0 -11 -12.5 -15.5t-45.5 -8.5t-58 -11q-49 -13 -65.5 -51.5t-16.5 -116.5v-590q0 -320 -127 -458t-436 -138q-523 0 -523 438v748z
M1075 1516h-65l-330 204q-64 42 -64 82q0 31 21.5 51.5t54.5 20.5q23 0 44 -14t52 -45z" />
    <glyph glyph-name="Uacute" unicode="&#xda;" horiz-adv-x="1687" 
d="M311 1151q0 71 -13 107t-54 55q-21 10 -56 14t-56 8t-21 17q0 20 39 20q6 0 41 -2t95.5 -4t129.5 -2q72 0 135 2t97.5 4t37.5 2q35 0 35 -18q0 -11 -12 -15.5t-45 -8.5t-58 -11q-49 -13 -66.5 -51.5t-17.5 -116.5v-719q0 -202 90.5 -297.5t284.5 -95.5q228 0 335 114.5
t107 356.5v641q0 71 -13 107t-54 55q-21 10 -56 14t-56 8t-21 17q0 20 39 20q16 0 82.5 -4t117.5 -4q48 0 109 4t72 4q36 0 36 -18q0 -11 -12.5 -15.5t-45.5 -8.5t-58 -11q-49 -13 -65.5 -51.5t-16.5 -116.5v-590q0 -320 -127 -458t-436 -138q-523 0 -523 438v748zM723 1516
l289 299q31 31 52 45t44 14q33 0 53.5 -20.5t20.5 -51.5q0 -41 -62 -82l-329 -204h-68z" />
    <glyph glyph-name="Ucircumflex" unicode="&#xdb;" horiz-adv-x="1687" 
d="M311 1151q0 71 -13 107t-54 55q-21 10 -56 14t-56 8t-21 17q0 20 39 20q6 0 41 -2t95.5 -4t129.5 -2q72 0 135 2t97.5 4t37.5 2q35 0 35 -18q0 -11 -12 -15.5t-45 -8.5t-58 -11q-49 -13 -66.5 -51.5t-17.5 -116.5v-719q0 -202 90.5 -297.5t284.5 -95.5q228 0 335 114.5
t107 356.5v641q0 71 -13 107t-54 55q-21 10 -56 14t-56 8t-21 17q0 20 39 20q16 0 82.5 -4t117.5 -4q48 0 109 4t72 4q36 0 36 -18q0 -11 -12.5 -15.5t-45.5 -8.5t-58 -11q-49 -13 -65.5 -51.5t-16.5 -116.5v-590q0 -320 -127 -458t-436 -138q-523 0 -523 438v748zM608 1516
l234 348h116l232 -348h-57l-234 208l-231 -208h-60z" />
    <glyph glyph-name="Udieresis" unicode="&#xdc;" horiz-adv-x="1687" 
d="M311 1151q0 71 -13 107t-54 55q-21 10 -56 14t-56 8t-21 17q0 20 39 20q6 0 41 -2t95.5 -4t129.5 -2q72 0 135 2t97.5 4t37.5 2q35 0 35 -18q0 -11 -12 -15.5t-45 -8.5t-58 -11q-49 -13 -66.5 -51.5t-17.5 -116.5v-719q0 -202 90.5 -297.5t284.5 -95.5q228 0 335 114.5
t107 356.5v641q0 71 -13 107t-54 55q-21 10 -56 14t-56 8t-21 17q0 20 39 20q16 0 82.5 -4t117.5 -4q48 0 109 4t72 4q36 0 36 -18q0 -11 -12.5 -15.5t-45.5 -8.5t-58 -11q-49 -13 -65.5 -51.5t-16.5 -116.5v-590q0 -320 -127 -458t-436 -138q-523 0 -523 438v748zM991 1669
q0 40 30.5 70t70.5 30t69 -30t29 -70q0 -43 -28.5 -71.5t-69.5 -28.5q-42 0 -71.5 29t-29.5 71zM610 1669q0 40 29.5 70t69.5 30t70 -30t30 -70q0 -42 -29 -71t-71 -29q-41 0 -70 28.5t-29 71.5z" />
    <glyph glyph-name="Yacute" unicode="&#xdd;" horiz-adv-x="1460" 
d="M829 229q0 -74 12 -110t54 -56q23 -12 58 -15.5t55 -8.5t20 -21q0 -22 -37 -22q-3 0 -36.5 2.5t-96.5 5t-135 2.5t-135 -2.5t-96.5 -5t-36.5 -2.5q-39 0 -39 22q0 16 20.5 21t56 8.5t58.5 15.5q41 20 53 55.5t12 110.5v312l-354 641q-46 83 -65 103q-27 28 -62 34
q-9 2 -25.5 4t-23 3.5t-15 4.5t-11.5 8t-3 13q0 22 45 22q1 0 65 -3t126 -3q81 0 178 4t113 4q27 0 38 -4.5t11 -17.5t-8.5 -16.5t-29.5 -3.5t-34 -3q-86 -16 -86 -78q0 -43 45 -129l275 -530q35 59 84 139t76.5 125.5t62 103.5t53 93t36 73t25 64t7.5 47q0 68 -58 80
q-12 3 -28.5 6t-24.5 4.5t-16.5 4.5t-11.5 7t-3 11q0 20 41 20q5 0 67.5 -4t117.5 -4q46 0 86 2.5t62 5t24 2.5q11 0 18.5 -5t7.5 -11q0 -11 -15 -17.5t-37 -11t-54 -24t-58 -52.5q-20 -26 -72 -116.5t-149.5 -253.5t-206.5 -328v-326zM547 1516l289 299q31 31 52 45t44 14
q33 0 53.5 -20.5t20.5 -51.5q0 -41 -62 -82l-330 -204h-67z" />
    <glyph glyph-name="Thorn" unicode="&#xde;" horiz-adv-x="1241" 
d="M528 229q0 -73 13 -109t55 -57q23 -12 58.5 -16t55 -9t19.5 -20q0 -22 -39 -22q-3 0 -36.5 2.5t-96.5 5t-135 2.5t-135 -2.5t-96.5 -5t-36.5 -2.5q-37 0 -37 22q0 15 19.5 20t55 9t58.5 16q40 21 52.5 57t12.5 109v922q0 72 -12.5 107.5t-52.5 54.5q-21 10 -56 14t-56 8
t-21 17q0 20 37 20q6 0 41.5 -2t96.5 -4t130 -2t130 2t96.5 4t41.5 2q39 0 39 -20q0 -13 -21 -17t-56 -8t-56 -14q-41 -19 -54.5 -55.5t-13.5 -106.5v-90q105 6 154 6q248 0 383 -96.5t135 -268.5t-139.5 -270t-394.5 -98q-52 0 -138 6v-111zM528 393q95 -10 134 -10
q154 0 229.5 77t75.5 238q0 165 -80 245.5t-244 80.5q-61 0 -88 -15.5t-27 -54.5v-561z" />
    <glyph glyph-name="germandbls" unicode="&#xdf;" horiz-adv-x="1157" 
d="M709 821v-14q168 -32 259 -145t91 -291q0 -187 -93.5 -296.5t-248.5 -109.5q-96 0 -151.5 36t-55.5 91q0 33 21.5 53.5t56.5 20.5q32 0 47.5 -17.5t21.5 -56.5q7 -45 18.5 -61.5t45.5 -16.5q75 0 108 89t33 280q0 177 -41 269.5t-143 119.5q-20 5 -43.5 7.5t-39.5 3
t-30 2t-21 6.5t-7 16q0 15 17.5 19.5t53 7.5t62.5 14q104 40 104 262q0 303 -192 303q-101 0 -154 -77t-53 -228v-932q0 -49 5.5 -75t22.5 -40q12 -10 32.5 -14.5t33 -9t12.5 -17.5q0 -22 -37 -22q-11 0 -72 4t-110 4q-43 0 -99.5 -3t-70.5 -3q-45 0 -45 20q0 13 15.5 16
t44.5 6t51 15q47 26 47 156v874q0 167 103.5 267t269.5 100q170 0 272 -92.5t102 -243.5q0 -105 -62 -181t-181 -116z" />
    <glyph glyph-name="agrave" unicode="&#xe0;" horiz-adv-x="1011" 
d="M633 115q-151 -142 -350 -142q-97 0 -153 50.5t-56 136.5q0 52 23.5 96t64.5 80.5t115.5 75t155.5 71.5t206 78v162q0 82 -48 121t-149 39q-76 0 -123 -26.5t-53 -72.5q-5 -30 -8.5 -45t-12.5 -31.5t-25 -23t-42 -6.5q-32 0 -52 21t-20 55q0 71 94.5 120.5t260.5 49.5
q180 0 266 -57.5t86 -178.5v-520q0 -54 18 -82.5t50 -28.5q22 0 49 19.5t35 19.5q18 0 18 -18q0 -31 -52 -69t-118 -38q-69 0 -118 39t-62 105zM639 516q-196 -76 -285.5 -148t-89.5 -165q0 -70 37 -111t100 -41q82 0 160 55.5t78 122.5v287zM657 1036h-65l-330 205
q-63 41 -63 82q0 31 21 51.5t54 20.5q23 0 44.5 -14.5t52.5 -45.5z" />
    <glyph glyph-name="aacute" unicode="&#xe1;" horiz-adv-x="1011" 
d="M633 115q-151 -142 -350 -142q-97 0 -153 50.5t-56 136.5q0 52 23.5 96t64.5 80.5t115.5 75t155.5 71.5t206 78v162q0 82 -48 121t-149 39q-76 0 -123 -26.5t-53 -72.5q-5 -30 -8.5 -45t-12.5 -31.5t-25 -23t-42 -6.5q-32 0 -52 21t-20 55q0 71 94.5 120.5t260.5 49.5
q180 0 266 -57.5t86 -178.5v-520q0 -54 18 -82.5t50 -28.5q22 0 49 19.5t35 19.5q18 0 18 -18q0 -31 -52 -69t-118 -38q-69 0 -118 39t-62 105zM639 516q-196 -76 -285.5 -148t-89.5 -165q0 -70 37 -111t100 -41q82 0 160 55.5t78 122.5v287zM305 1036l289 299
q32 32 52.5 46t43.5 14q33 0 53.5 -20.5t20.5 -51.5q0 -41 -62 -82l-329 -205h-68z" />
    <glyph glyph-name="acircumflex" unicode="&#xe2;" horiz-adv-x="1011" 
d="M633 115q-151 -142 -350 -142q-97 0 -153 50.5t-56 136.5q0 52 23.5 96t64.5 80.5t115.5 75t155.5 71.5t206 78v162q0 82 -48 121t-149 39q-76 0 -123 -26.5t-53 -72.5q-5 -30 -8.5 -45t-12.5 -31.5t-25 -23t-42 -6.5q-32 0 -52 21t-20 55q0 71 94.5 120.5t260.5 49.5
q180 0 266 -57.5t86 -178.5v-520q0 -54 18 -82.5t50 -28.5q22 0 49 19.5t35 19.5q18 0 18 -18q0 -31 -52 -69t-118 -38q-69 0 -118 39t-62 105zM639 516q-196 -76 -285.5 -148t-89.5 -165q0 -70 37 -111t100 -41q82 0 160 55.5t78 122.5v287zM190 1036l234 348h117l231 -348
h-57l-234 209l-231 -209h-60z" />
    <glyph glyph-name="atilde" unicode="&#xe3;" horiz-adv-x="1011" 
d="M633 115q-151 -142 -350 -142q-97 0 -153 50.5t-56 136.5q0 52 23.5 96t64.5 80.5t115.5 75t155.5 71.5t206 78v162q0 82 -48 121t-149 39q-76 0 -123 -26.5t-53 -72.5q-5 -30 -8.5 -45t-12.5 -31.5t-25 -23t-42 -6.5q-32 0 -52 21t-20 55q0 71 94.5 120.5t260.5 49.5
q180 0 266 -57.5t86 -178.5v-520q0 -54 18 -82.5t50 -28.5q22 0 49 19.5t35 19.5q18 0 18 -18q0 -31 -52 -69t-118 -38q-69 0 -118 39t-62 105zM639 516q-196 -76 -285.5 -148t-89.5 -165q0 -70 37 -111t100 -41q82 0 160 55.5t78 122.5v287zM768 1333q-40 -205 -195 -205
q-23 0 -73 11l-107 26q-36 9 -49 9q-39 0 -61.5 -21.5t-36.5 -71.5h-51q38 213 198 213q33 0 64 -8l108 -29q42 -10 56 -10q70 0 96 86h51z" />
    <glyph glyph-name="adieresis" unicode="&#xe4;" horiz-adv-x="1011" 
d="M633 115q-151 -142 -350 -142q-97 0 -153 50.5t-56 136.5q0 52 23.5 96t64.5 80.5t115.5 75t155.5 71.5t206 78v162q0 82 -48 121t-149 39q-76 0 -123 -26.5t-53 -72.5q-5 -30 -8.5 -45t-12.5 -31.5t-25 -23t-42 -6.5q-32 0 -52 21t-20 55q0 71 94.5 120.5t260.5 49.5
q180 0 266 -57.5t86 -178.5v-520q0 -54 18 -82.5t50 -28.5q22 0 49 19.5t35 19.5q18 0 18 -18q0 -31 -52 -69t-118 -38q-69 0 -118 39t-62 105zM639 516q-196 -76 -285.5 -148t-89.5 -165q0 -70 37 -111t100 -41q82 0 160 55.5t78 122.5v287zM573 1190q0 40 30.5 70t70.5 30
t69 -30t29 -70q0 -43 -28.5 -71.5t-69.5 -28.5q-42 0 -71.5 29t-29.5 71zM193 1190q0 40 29 70t69 30t70 -30t30 -70q0 -42 -29 -71t-71 -29q-41 0 -69.5 28.5t-28.5 71.5z" />
    <glyph glyph-name="aring" unicode="&#xe5;" horiz-adv-x="1011" 
d="M633 115q-151 -142 -350 -142q-97 0 -153 50.5t-56 136.5q0 52 23.5 96t64.5 80.5t115.5 75t155.5 71.5t206 78v162q0 82 -48 121t-149 39q-76 0 -123 -26.5t-53 -72.5q-5 -30 -8.5 -45t-12.5 -31.5t-25 -23t-42 -6.5q-32 0 -52 21t-20 55q0 71 94.5 120.5t260.5 49.5
q180 0 266 -57.5t86 -178.5v-520q0 -54 18 -82.5t50 -28.5q22 0 49 19.5t35 19.5q18 0 18 -18q0 -31 -52 -69t-118 -38q-69 0 -118 39t-62 105zM639 516q-196 -76 -285.5 -148t-89.5 -165q0 -70 37 -111t100 -41q82 0 160 55.5t78 122.5v287zM250 1231q0 101 70.5 171.5
t171.5 70.5t170 -70t69 -172q0 -101 -69 -170.5t-170 -69.5t-171.5 69.5t-70.5 170.5zM340 1233q0 -63 43 -107.5t106 -44.5t107.5 44.5t44.5 107.5q0 61 -45 105t-107 44t-105.5 -43t-43.5 -106z" />
    <glyph glyph-name="ae" unicode="&#xe6;" horiz-adv-x="1466" 
d="M674 154q-207 -189 -395 -189q-99 0 -158.5 53t-59.5 140q0 51 23 94t62.5 78t113 73t151.5 70.5t201 77.5v180q0 68 -48.5 108t-135.5 40q-84 0 -123.5 -22t-48.5 -77q-5 -31 -8 -45t-12 -30t-24 -21.5t-40 -5.5q-32 0 -53 21t-21 53q0 70 90 120t244 50q228 0 297 -121
q133 121 313 121q155 0 257 -97t102 -225q0 -19 -8 -27.5t-19 -10t-39 -1.5h-561q-8 -82 -8 -100q0 -184 96 -298t236 -114q54 0 101 19t72 42.5t44 42.5t24 19q8 0 15.5 -6.5t7.5 -15.5q0 -22 -24.5 -52.5t-65.5 -60.5t-105.5 -51t-134.5 -21q-228 0 -358 189zM614 498
q-194 -69 -279 -138t-85 -172q0 -61 37 -100t96 -39q124 0 264 152q-33 90 -33 245v52zM780 616h428q6 37 6 66q0 92 -51 144.5t-139 52.5q-95 0 -162 -71t-82 -192z" />
    <glyph glyph-name="ccedilla" unicode="&#xe7;" horiz-adv-x="899" 
d="M59 438q0 101 43.5 196t122.5 167q137 125 355 125q117 0 189.5 -39t72.5 -96q0 -31 -17.5 -48.5t-48.5 -17.5q-58 0 -84 63q-12 29 -18.5 41t-21 27t-36.5 20t-57 5q-134 0 -214.5 -116t-80.5 -323q0 -193 82.5 -300t226.5 -107q117 0 172 49q12 11 25.5 29t23 27.5
t21.5 9.5q27 0 27 -25q0 -57 -86.5 -105.5t-225.5 -48.5q-221 0 -346 124t-125 343zM248 -371l35 78q127 -72 223 -72q64 0 93.5 22t29.5 71q0 42 -30 66t-85 24q-26 0 -61 -6v188h63v-113q40 7 62 7q87 0 134.5 -43.5t47.5 -120.5q0 -81 -58 -128.5t-161 -47.5
q-105 0 -293 75z" />
    <glyph glyph-name="egrave" unicode="&#xe8;" horiz-adv-x="1015" 
d="M287 561q-8 -49 -8 -102q0 -182 92.5 -296t236.5 -114q65 0 115 19.5t102 66.5q7 7 16 16.5t14 15t12.5 9.5t15.5 4q20 0 20 -22q0 -55 -101.5 -121t-254.5 -66q-208 0 -340.5 131t-132.5 324q0 200 135 348q140 152 348 152q162 0 272.5 -97t110.5 -223q0 -31 -10 -38
t-43 -7h-600zM299 621h418q20 0 28.5 10.5t8.5 36.5q0 99 -55.5 157t-145.5 58q-101 0 -168 -68.5t-86 -193.5zM729 1036h-65l-330 205q-64 42 -64 82q0 31 21.5 51.5t54.5 20.5q23 0 43.5 -14t52.5 -46z" />
    <glyph glyph-name="eacute" unicode="&#xe9;" horiz-adv-x="1015" 
d="M287 561q-8 -49 -8 -102q0 -182 92.5 -296t236.5 -114q65 0 115 19.5t102 66.5q7 7 16 16.5t14 15t12.5 9.5t15.5 4q20 0 20 -22q0 -55 -101.5 -121t-254.5 -66q-208 0 -340.5 131t-132.5 324q0 200 135 348q140 152 348 152q162 0 272.5 -97t110.5 -223q0 -31 -10 -38
t-43 -7h-600zM299 621h418q20 0 28.5 10.5t8.5 36.5q0 99 -55.5 157t-145.5 58q-101 0 -168 -68.5t-86 -193.5zM377 1036l289 299q32 32 52.5 46t43.5 14q33 0 53.5 -20.5t20.5 -51.5q0 -41 -62 -82l-330 -205h-67z" />
    <glyph glyph-name="ecircumflex" unicode="&#xea;" horiz-adv-x="1015" 
d="M287 561q-8 -49 -8 -102q0 -182 92.5 -296t236.5 -114q65 0 115 19.5t102 66.5q7 7 16 16.5t14 15t12.5 9.5t15.5 4q20 0 20 -22q0 -55 -101.5 -121t-254.5 -66q-208 0 -340.5 131t-132.5 324q0 200 135 348q140 152 348 152q162 0 272.5 -97t110.5 -223q0 -31 -10 -38
t-43 -7h-600zM299 621h418q20 0 28.5 10.5t8.5 36.5q0 99 -55.5 157t-145.5 58q-101 0 -168 -68.5t-86 -193.5zM262 1036l234 348h116l232 -348h-58l-233 209l-231 -209h-60z" />
    <glyph glyph-name="edieresis" unicode="&#xeb;" horiz-adv-x="1015" 
d="M287 561q-8 -49 -8 -102q0 -182 92.5 -296t236.5 -114q65 0 115 19.5t102 66.5q7 7 16 16.5t14 15t12.5 9.5t15.5 4q20 0 20 -22q0 -55 -101.5 -121t-254.5 -66q-208 0 -340.5 131t-132.5 324q0 200 135 348q140 152 348 152q162 0 272.5 -97t110.5 -223q0 -31 -10 -38
t-43 -7h-600zM299 621h418q20 0 28.5 10.5t8.5 36.5q0 99 -55.5 157t-145.5 58q-101 0 -168 -68.5t-86 -193.5zM645 1190q0 40 30 70t70 30t69.5 -30t29.5 -70q0 -42 -29 -71t-70 -29q-42 0 -71 29t-29 71zM264 1190q0 40 29 70t69 30t70.5 -30t30.5 -70q0 -42 -29.5 -71
t-71.5 -29q-41 0 -69.5 28.5t-28.5 71.5z" />
    <glyph glyph-name="igrave" unicode="&#xec;" horiz-adv-x="565" 
d="M197 733q0 39 -7.5 56t-31.5 26q-18 6 -45.5 7t-42.5 3.5t-15 14.5q0 7 3 11t11 7t16 4.5t24.5 4t29.5 5.5q55 12 105.5 28t76.5 26t33 10q23 0 23 -31v-729q0 -57 8 -80t41 -37q20 -9 47 -14.5t39 -10.5t12 -20q0 -18 -32 -18q-2 0 -70 6t-135 6t-136 -6t-71 -6
q-31 0 -31 18q0 15 12 20t39 10.5t47 14.5q32 14 41 37.5t9 79.5v557zM451 1036h-66l-330 205q-63 41 -63 82q0 31 21.5 51.5t54.5 20.5q23 0 43.5 -14t52.5 -46z" />
    <glyph glyph-name="iacute" unicode="&#xed;" horiz-adv-x="565" 
d="M197 733q0 39 -7.5 56t-31.5 26q-18 6 -45.5 7t-42.5 3.5t-15 14.5q0 7 3 11t11 7t16 4.5t24.5 4t29.5 5.5q55 12 105.5 28t76.5 26t33 10q23 0 23 -31v-729q0 -57 8 -80t41 -37q20 -9 47 -14.5t39 -10.5t12 -20q0 -18 -32 -18q-2 0 -70 6t-135 6t-136 -6t-71 -6
q-31 0 -31 18q0 15 12 20t39 10.5t47 14.5q32 14 41 37.5t9 79.5v557zM98 1036l289 299q32 32 52.5 46t43.5 14q33 0 53.5 -20.5t20.5 -51.5q0 -42 -61 -82l-330 -205h-68z" />
    <glyph glyph-name="icircumflex" unicode="&#xee;" horiz-adv-x="565" 
d="M197 733q0 39 -7.5 56t-31.5 26q-18 6 -45.5 7t-42.5 3.5t-15 14.5q0 7 3 11t11 7t16 4.5t24.5 4t29.5 5.5q55 12 105.5 28t76.5 26t33 10q23 0 23 -31v-729q0 -57 8 -80t41 -37q20 -9 47 -14.5t39 -10.5t12 -20q0 -18 -32 -18q-2 0 -70 6t-135 6t-136 -6t-71 -6
q-31 0 -31 18q0 15 12 20t39 10.5t47 14.5q32 14 41 37.5t9 79.5v557zM-16 1036l233 348h117l231 -348h-57l-234 209l-231 -209h-59z" />
    <glyph glyph-name="idieresis" unicode="&#xef;" horiz-adv-x="565" 
d="M197 733q0 39 -7.5 56t-31.5 26q-18 6 -45.5 7t-42.5 3.5t-15 14.5q0 7 3 11t11 7t16 4.5t24.5 4t29.5 5.5q55 12 105.5 28t76.5 26t33 10q23 0 23 -31v-729q0 -57 8 -80t41 -37q20 -9 47 -14.5t39 -10.5t12 -20q0 -18 -32 -18q-2 0 -70 6t-135 6t-136 -6t-71 -6
q-31 0 -31 18q0 15 12 20t39 10.5t47 14.5q32 14 41 37.5t9 79.5v557zM367 1190q0 40 30 70t70 30t69 -30t29 -70q0 -43 -28.5 -71.5t-69.5 -28.5q-42 0 -71 29t-29 71zM-14 1190q0 40 29 70t69 30t70 -30t30 -70q0 -42 -29 -71t-71 -29q-41 0 -69.5 28.5t-28.5 71.5z" />
    <glyph glyph-name="eth" unicode="&#xf0;" horiz-adv-x="1126" 
d="M301 397q0 -186 68 -286.5t190 -100.5q129 0 196.5 100.5t67.5 295.5q0 188 -69.5 288.5t-194.5 100.5q-113 0 -185.5 -107.5t-72.5 -290.5zM694 813q-70 159 -170 246l-301 -164l-28 53l276 152q-132 108 -276 207l28 34q185 -103 332 -192l303 170l31 -51l-279 -158
q198 -170 294.5 -341t96.5 -359q0 -86 -33.5 -167t-95.5 -143q-126 -129 -305 -129q-192 0 -318 120t-126 308q0 185 127.5 305.5t324.5 120.5q57 0 119 -12z" />
    <glyph glyph-name="ntilde" unicode="&#xf1;" horiz-adv-x="1245" 
d="M225 176v492q0 64 -10 95.5t-39 47.5q-15 8 -41 11t-41.5 6.5t-15.5 15.5q0 16 45 26q8 1 26 5l9 2q47 10 91 24t67.5 22.5t31.5 8.5q22 0 29 -27t13 -107q3 -42 5 -67q121 195 338 195q146 0 224.5 -71t78.5 -202v-477q0 -56 8 -78.5t41 -38.5q20 -9 47.5 -14.5
t39.5 -10.5t12 -20q0 -18 -31 -18q-3 0 -72 6t-135 6t-134 -6t-71 -6q-32 0 -32 22q0 13 12.5 17.5t39 9.5t46.5 14q33 14 41 37t8 80v465q0 217 -192 217q-106 0 -182 -84t-76 -211v-387q0 -56 8 -78.5t41 -38.5q20 -9 47 -14.5t39 -10.5t12 -20q0 -18 -33 -18q-3 0 -71 6
t-134 6t-134.5 -6t-71.5 -6q-31 0 -31 22q0 13 12.5 17.5t39 9.5t46.5 14q33 14 41 37t8 80zM901 1333q-40 -205 -194 -205q-25 0 -74 11l-107 26q-36 9 -49 9q-39 0 -61.5 -21.5t-36.5 -71.5h-51q38 213 198 213q33 0 64 -8l108 -29q42 -10 56 -10q70 0 96 86h51z" />
    <glyph glyph-name="ograve" unicode="&#xf2;" horiz-adv-x="1126" 
d="M74 449q0 203 144.5 340t354.5 137q192 0 330 -135q70 -70 109 -157.5t39 -174.5q0 -95 -37.5 -184t-106.5 -160q-141 -144 -340 -144q-213 0 -353 135t-140 343zM272 446q0 -208 74.5 -320t210.5 -112q145 0 220 111.5t75 329.5q0 208 -78.5 320t-216.5 112
q-126 0 -205.5 -118t-79.5 -323zM731 1036h-65l-330 205q-64 42 -64 82q0 31 21.5 51.5t54.5 20.5q23 0 43.5 -14t52.5 -46z" />
    <glyph glyph-name="oacute" unicode="&#xf3;" horiz-adv-x="1126" 
d="M74 449q0 203 144.5 340t354.5 137q192 0 330 -135q70 -70 109 -157.5t39 -174.5q0 -95 -37.5 -184t-106.5 -160q-141 -144 -340 -144q-213 0 -353 135t-140 343zM272 446q0 -208 74.5 -320t210.5 -112q145 0 220 111.5t75 329.5q0 208 -78.5 320t-216.5 112
q-126 0 -205.5 -118t-79.5 -323zM379 1036l289 299q32 32 52.5 46t43.5 14q33 0 53.5 -20.5t20.5 -51.5q0 -41 -62 -82l-330 -205h-67z" />
    <glyph glyph-name="ocircumflex" unicode="&#xf4;" horiz-adv-x="1126" 
d="M74 449q0 203 144.5 340t354.5 137q192 0 330 -135q70 -70 109 -157.5t39 -174.5q0 -95 -37.5 -184t-106.5 -160q-141 -144 -340 -144q-213 0 -353 135t-140 343zM272 446q0 -208 74.5 -320t210.5 -112q145 0 220 111.5t75 329.5q0 208 -78.5 320t-216.5 112
q-126 0 -205.5 -118t-79.5 -323zM264 1036l234 348h116l232 -348h-58l-233 209l-231 -209h-60z" />
    <glyph glyph-name="otilde" unicode="&#xf5;" horiz-adv-x="1126" 
d="M74 449q0 203 144.5 340t354.5 137q192 0 330 -135q70 -70 109 -157.5t39 -174.5q0 -95 -37.5 -184t-106.5 -160q-141 -144 -340 -144q-213 0 -353 135t-140 343zM272 446q0 -208 74.5 -320t210.5 -112q145 0 220 111.5t75 329.5q0 208 -78.5 320t-216.5 112
q-126 0 -205.5 -118t-79.5 -323zM842 1333q-40 -205 -195 -205q-25 0 -74 11l-106 26q-36 9 -49 9q-40 0 -62.5 -21.5t-36.5 -71.5h-51q38 213 199 213q32 0 63 -8l109 -29q42 -10 55 -10q71 0 97 86h51z" />
    <glyph glyph-name="odieresis" unicode="&#xf6;" horiz-adv-x="1126" 
d="M74 449q0 203 144.5 340t354.5 137q192 0 330 -135q70 -70 109 -157.5t39 -174.5q0 -95 -37.5 -184t-106.5 -160q-141 -144 -340 -144q-213 0 -353 135t-140 343zM272 446q0 -208 74.5 -320t210.5 -112q145 0 220 111.5t75 329.5q0 208 -78.5 320t-216.5 112
q-126 0 -205.5 -118t-79.5 -323zM647 1190q0 40 30.5 70t70.5 30t69 -30t29 -70q0 -43 -28.5 -71.5t-69.5 -28.5q-42 0 -71.5 29t-29.5 71zM266 1190q0 40 29.5 70t69.5 30t70 -30t30 -70q0 -42 -29 -71t-71 -29q-41 0 -70 29t-29 71z" />
    <glyph glyph-name="divide" unicode="&#xf7;" horiz-adv-x="1705" 
d="M854 1085q47 0 81 -33.5t34 -80.5t-33 -81t-82 -34t-82 33.5t-33 81.5q0 47 34.5 80.5t80.5 33.5zM254 670h1198v-117h-1198v117zM854 365q46 0 80.5 -34t34.5 -81t-33 -81t-82 -34q-47 0 -81 34t-34 81q0 49 34 82t81 33z" />
    <glyph glyph-name="oslash" unicode="&#xf8;" horiz-adv-x="1126" 
d="M223 -240h-84l154 279q-104 67 -163.5 178.5t-59.5 233.5q0 129 63 237t177.5 172t254.5 64q104 0 189 -35l129 237h84l-144 -268q113 -74 171.5 -178t58.5 -227q0 -208 -142.5 -347t-357.5 -139q-115 0 -197 39zM342 133l383 694q-76 58 -160 58q-138 0 -216.5 -115
t-78.5 -326q0 -188 72 -311zM393 74q64 -64 166 -64q141 0 220 115.5t79 327.5q0 229 -84 323z" />
    <glyph glyph-name="ugrave" unicode="&#xf9;" horiz-adv-x="1243" 
d="M840 725q0 57 -8 80t-41 37q-20 8 -47.5 13t-39.5 10.5t-12 21.5q0 18 41 18q9 0 54 -4t81 -4q17 0 54 3t57 3q24 0 32.5 -13t8.5 -46v-613q0 -65 9.5 -97t39.5 -48q15 -8 40.5 -11t40.5 -6.5t15 -15.5q0 -4 -1.5 -7.5t-5.5 -5.5l-8 -4t-11.5 -3.5t-14 -2.5t-17.5 -3
t-20 -4q-46 -10 -90 -24t-68 -23t-34 -9q-21 0 -28.5 35t-14.5 139q0 6 -0.5 9t-1 8.5t-0.5 9.5q-118 -193 -338 -193q-160 0 -231.5 75.5t-71.5 236.5v438q0 57 -8 80t-41 37q-20 8 -47.5 13t-39.5 10.5t-12 21.5q0 18 39 18q13 0 59 -4t79 -4q17 0 53.5 3t56.5 3
q24 0 32.5 -13t8.5 -46v-586q0 -219 193 -219q107 0 182.5 85t75.5 212v389zM791 1036h-66l-330 205q-63 41 -63 82q0 31 21.5 51.5t54.5 20.5q23 0 43.5 -14t52.5 -46z" />
    <glyph glyph-name="uacute" unicode="&#xfa;" horiz-adv-x="1243" 
d="M840 725q0 57 -8 80t-41 37q-20 8 -47.5 13t-39.5 10.5t-12 21.5q0 18 41 18q9 0 54 -4t81 -4q17 0 54 3t57 3q24 0 32.5 -13t8.5 -46v-613q0 -65 9.5 -97t39.5 -48q15 -8 40.5 -11t40.5 -6.5t15 -15.5q0 -4 -1.5 -7.5t-5.5 -5.5l-8 -4t-11.5 -3.5t-14 -2.5t-17.5 -3
t-20 -4q-46 -10 -90 -24t-68 -23t-34 -9q-21 0 -28.5 35t-14.5 139q0 6 -0.5 9t-1 8.5t-0.5 9.5q-118 -193 -338 -193q-160 0 -231.5 75.5t-71.5 236.5v438q0 57 -8 80t-41 37q-20 8 -47.5 13t-39.5 10.5t-12 21.5q0 18 39 18q13 0 59 -4t79 -4q17 0 53.5 3t56.5 3
q24 0 32.5 -13t8.5 -46v-586q0 -219 193 -219q107 0 182.5 85t75.5 212v389zM438 1036l289 299q32 32 52.5 46t43.5 14q33 0 53.5 -20.5t20.5 -51.5q0 -42 -61 -82l-330 -205h-68z" />
    <glyph glyph-name="ucircumflex" unicode="&#xfb;" horiz-adv-x="1243" 
d="M840 725q0 57 -8 80t-41 37q-20 8 -47.5 13t-39.5 10.5t-12 21.5q0 18 41 18q9 0 54 -4t81 -4q17 0 54 3t57 3q24 0 32.5 -13t8.5 -46v-613q0 -65 9.5 -97t39.5 -48q15 -8 40.5 -11t40.5 -6.5t15 -15.5q0 -4 -1.5 -7.5t-5.5 -5.5l-8 -4t-11.5 -3.5t-14 -2.5t-17.5 -3
t-20 -4q-46 -10 -90 -24t-68 -23t-34 -9q-21 0 -28.5 35t-14.5 139q0 6 -0.5 9t-1 8.5t-0.5 9.5q-118 -193 -338 -193q-160 0 -231.5 75.5t-71.5 236.5v438q0 57 -8 80t-41 37q-20 8 -47.5 13t-39.5 10.5t-12 21.5q0 18 39 18q13 0 59 -4t79 -4q17 0 53.5 3t56.5 3
q24 0 32.5 -13t8.5 -46v-586q0 -219 193 -219q107 0 182.5 85t75.5 212v389zM324 1036l233 348h117l231 -348h-57l-234 209l-231 -209h-59z" />
    <glyph glyph-name="udieresis" unicode="&#xfc;" horiz-adv-x="1243" 
d="M840 725q0 57 -8 80t-41 37q-20 8 -47.5 13t-39.5 10.5t-12 21.5q0 18 41 18q9 0 54 -4t81 -4q17 0 54 3t57 3q24 0 32.5 -13t8.5 -46v-613q0 -65 9.5 -97t39.5 -48q15 -8 40.5 -11t40.5 -6.5t15 -15.5q0 -4 -1.5 -7.5t-5.5 -5.5l-8 -4t-11.5 -3.5t-14 -2.5t-17.5 -3
t-20 -4q-46 -10 -90 -24t-68 -23t-34 -9q-21 0 -28.5 35t-14.5 139q0 6 -0.5 9t-1 8.5t-0.5 9.5q-118 -193 -338 -193q-160 0 -231.5 75.5t-71.5 236.5v438q0 57 -8 80t-41 37q-20 8 -47.5 13t-39.5 10.5t-12 21.5q0 18 39 18q13 0 59 -4t79 -4q17 0 53.5 3t56.5 3
q24 0 32.5 -13t8.5 -46v-586q0 -219 193 -219q107 0 182.5 85t75.5 212v389zM707 1190q0 40 30 70t70 30t69 -30t29 -70q0 -43 -28.5 -71.5t-69.5 -28.5q-42 0 -71 29t-29 71zM326 1190q0 40 29 70t69 30t70 -30t30 -70q0 -42 -29 -71t-71 -29q-41 0 -69.5 28.5t-28.5 71.5z
" />
    <glyph glyph-name="yacute" unicode="&#xfd;" horiz-adv-x="1017" 
d="M582 207l192 471q31 73 31 115q0 25 -15 39t-47 22q-10 2 -30 4.5t-26.5 6t-6.5 14.5q0 22 37 22q10 0 51.5 -4t73.5 -4q33 0 67.5 4t36.5 4q39 0 39 -22q0 -8 -7.5 -13t-23 -10t-24.5 -10q-40 -22 -86 -133l-262 -637v-1l-1 -1v-1l-1 -1q-159 -387 -216 -495
q-74 -140 -132 -153l-15 -2q-25 0 -40 17t-15 45q0 40 22.5 62.5t61 39t51.5 27.5q36 31 109 194q65 141 73 178q4 16 4 29q0 23 -22 78l-268 629q-2 5 -8.5 19t-8.5 18.5t-7 16t-8 15.5t-8 13t-9 13t-10 9.5t-12 9.5t-13 7q-12 5 -33 10t-31 10.5t-10 18.5q0 8 13.5 15
t35.5 7q2 0 55.5 -5t104.5 -5q52 0 120.5 5t86.5 5q19 0 31 -7t12 -17q0 -11 -10.5 -15t-38.5 -8q-8 -1 -13 -2q-38 -6 -55 -18.5t-17 -40.5q0 -23 15 -60zM326 1036l288 299q31 31 52.5 45.5t44.5 14.5q33 0 53 -20.5t20 -51.5q0 -42 -61 -82l-330 -205h-67z" />
    <glyph glyph-name="thorn" unicode="&#xfe;" horiz-adv-x="1241" 
d="M377 461q0 -135 8 -204.5t37 -111.5q30 -44 88.5 -73t120.5 -29q135 0 215 107t80 301q0 206 -75 311.5t-218 105.5q-62 0 -120 -30t-91 -82q-28 -43 -36.5 -110.5t-8.5 -184.5zM389 -391q0 -56 8 -77.5t41 -37.5q20 -9 47.5 -14.5t39.5 -10.5t12 -20q0 -18 -31 -18
q-2 0 -71 6t-136 6t-136 -6t-71 -6q-31 0 -31 22q0 13 12.5 18t39.5 9.5t47 13.5q33 14 41 36.5t8 78.5l-4 1644q0 49 -9 73t-40 36q-18 8 -45.5 12.5t-41.5 9t-14 15.5q0 13 16.5 18.5t55.5 11.5q7 1 10 1q64 9 119 20t80.5 18t28.5 7q20 0 20 -33l4 -662
q39 69 114.5 107.5t176.5 38.5q195 0 320.5 -130.5t125.5 -338.5q0 -210 -130 -342.5t-328 -132.5q-178 0 -279 122v-495z" />
    <glyph glyph-name="ydieresis" unicode="&#xff;" horiz-adv-x="1017" 
d="M582 207l192 471q31 73 31 115q0 25 -15 39t-47 22q-10 2 -30 4.5t-26.5 6t-6.5 14.5q0 22 37 22q10 0 51.5 -4t73.5 -4q33 0 67.5 4t36.5 4q39 0 39 -22q0 -8 -7.5 -13t-23 -10t-24.5 -10q-40 -22 -86 -133l-262 -637v-1l-1 -1v-1l-1 -1q-159 -387 -216 -495
q-74 -140 -132 -153l-15 -2q-25 0 -40 17t-15 45q0 40 22.5 62.5t61 39t51.5 27.5q36 31 109 194q65 141 73 178q4 16 4 29q0 23 -22 78l-268 629q-2 5 -8.5 19t-8.5 18.5t-7 16t-8 15.5t-8 13t-9 13t-10 9.5t-12 9.5t-13 7q-12 5 -33 10t-31 10.5t-10 18.5q0 8 13.5 15
t35.5 7q2 0 55.5 -5t104.5 -5q52 0 120.5 5t86.5 5q19 0 31 -7t12 -17q0 -11 -10.5 -15t-38.5 -8q-8 -1 -13 -2q-38 -6 -55 -18.5t-17 -40.5q0 -23 15 -60zM594 1190q0 40 30 70t70 30t69.5 -30t29.5 -70q0 -42 -28.5 -71t-70.5 -29t-71 29t-29 71zM213 1190q0 40 29 70
t69 30t70.5 -30t30.5 -70q0 -42 -29.5 -71t-71.5 -29q-41 0 -69.5 28.5t-28.5 71.5z" />
    <glyph glyph-name="dotlessi" unicode="&#x131;" horiz-adv-x="565" 
d="M197 733q0 39 -7.5 56t-31.5 26q-18 6 -45.5 7t-42.5 3.5t-15 14.5q0 7 3 11t11 7t16 4.5t24.5 4t29.5 5.5q55 12 105.5 28t76.5 26t33 10q23 0 23 -31v-729q0 -57 8 -80t41 -37q20 -9 47 -14.5t39 -10.5t12 -20q0 -18 -32 -18q-2 0 -70 6t-135 6t-136 -6t-71 -6
q-31 0 -31 18q0 15 12 20t39 10.5t47 14.5q32 14 41 37.5t9 79.5v557z" />
    <glyph glyph-name="Lslash" unicode="&#x141;" horiz-adv-x="1353" 
d="M518 299q0 -79 14 -125.5t53 -74t96.5 -37t156.5 -9.5q140 0 227 28t135 95q24 34 36.5 80.5t20.5 72t25 25.5q11 0 14.5 -8t3.5 -29l-6 -274q0 -30 -8 -40.5t-35 -10.5q-8 0 -90.5 4t-231 8t-317.5 4q-131 0 -242 -3t-168.5 -6t-58.5 -3q-37 0 -37 22q0 16 20 21
t55.5 8.5t58.5 15.5q41 20 53 55.5t12 110.5v357l-305 -215v82l305 215v483q0 72 -12.5 107.5t-52.5 54.5q-21 10 -56.5 14t-56.5 8t-21 17q0 20 37 20q6 0 41.5 -2t97 -4t130.5 -2q72 0 134.5 2t96.5 4t37 2q37 0 37 -18q0 -11 -12 -15.5t-45 -8.5t-58 -11
q-49 -13 -66.5 -51.5t-17.5 -116.5v-350l371 258v-84l-371 -258v-418z" />
    <glyph glyph-name="lslash" unicode="&#x142;" horiz-adv-x="573" 
d="M381 176q0 -57 8 -80t41 -37q20 -9 47 -14.5t39 -10.5t12 -20q0 -18 -30 -18q-2 0 -71 6t-136 6t-136 -6t-71 -6q-31 0 -31 18q0 15 12 20t39.5 10.5t47.5 14.5q33 14 41 37t8 80v471l-201 -137v68l201 137v538q0 50 -9 73t-40 36q-16 7 -43 11.5t-41.5 9t-14.5 14.5
q0 18 32 25q8 2 50 8q65 9 119 20t79 18t27 7q21 0 21 -33v-608l192 133v-68l-192 -135v-588z" />
    <glyph glyph-name="OE" unicode="&#x152;" horiz-adv-x="2142" 
d="M1112 977q0 100 -11 164.5t-42 112t-86 68.5t-142 21q-221 0 -337.5 -162t-116.5 -474q0 -324 112.5 -499t315.5 -175q102 0 173 35t99 96q23 48 29 113.5t6 179.5v520zM1327 352q0 -67 2.5 -105t13 -76.5t28.5 -57t52.5 -34.5t82.5 -21t120 -5q142 0 221.5 27.5
t122.5 99.5q15 26 25 55t13 46.5t9.5 29t18.5 11.5q14 0 17 -12.5t3 -49.5q0 -32 -4 -101t-4 -106q0 -40 -9 -48.5t-57 -8.5q-10 0 -98 2.5t-245 5t-336 2.5q-96 0 -257 -8t-225 -8q-330 0 -515 185.5t-185 512.5q0 202 89 360.5t250 247t365 88.5q55 0 206 -11t247 -11
q50 0 218.5 4t287.5 4h45q73 0 96 -8t23 -41q0 -4 -3 -41t-3 -70q0 -29 4 -64.5t4 -41.5q0 -33 -23 -33q-13 0 -19.5 13t-7.5 31.5t-8.5 46.5t-21.5 50q-42 68 -126.5 88.5t-248.5 20.5h-16q-42 0 -61 -0.5t-40.5 -4.5t-28 -9.5t-13.5 -19.5t-8 -30.5t-1 -46.5v-471
q130 6 195.5 29t103.5 84q18 29 26.5 70t14.5 63.5t21 22.5q22 0 22 -35q0 -13 -5 -86t-5 -133q0 -82 6 -169t6 -91q0 -37 -22 -37q-11 0 -16 13.5t-12.5 45t-19.5 57.5q-31 67 -95.5 93t-182.5 26h-37v-340z" />
    <glyph glyph-name="oe" unicode="&#x153;" horiz-adv-x="1695" 
d="M913 143q-74 -84 -169.5 -128t-196.5 -44q-202 0 -341.5 140t-139.5 340t139.5 337.5t341.5 137.5q211 0 364 -166q146 166 351 166q164 0 265 -98t101 -236q0 -19 -8.5 -23t-40.5 -4h-582q-4 -33 -4 -84q0 -197 93.5 -314.5t234.5 -117.5q97 0 172 57q13 10 28 28t26 28
t24 10q18 0 18 -25q0 -52 -95.5 -114t-233.5 -62q-234 0 -347 172zM1008 621h432q4 54 4 63q0 92 -49.5 146.5t-134.5 54.5q-96 0 -164.5 -71t-87.5 -193zM266 455q0 -213 72.5 -326t204.5 -113q133 0 208.5 118.5t75.5 340.5q0 191 -77.5 300.5t-200.5 109.5
q-127 0 -205 -114.5t-78 -315.5z" />
    <glyph glyph-name="Scaron" unicode="&#x160;" horiz-adv-x="1126" 
d="M111 373q0 25 4 33t18 8q17 0 23.5 -15.5t13.5 -55.5t18 -69q45 -125 138 -192.5t215 -67.5q140 0 219.5 74.5t79.5 204.5q0 99 -54 168q-15 19 -33.5 36t-44 33t-44 27.5t-54.5 27.5t-55 24.5t-65 27.5t-66 27q-134 57 -206.5 154t-72.5 220q0 160 114.5 263.5
t291.5 103.5q61 0 116.5 -14t87 -31t58.5 -31t37 -14q16 0 24.5 19t16.5 38t22 19q11 0 19 -11.5t8 -33.5q0 -9 -3 -54.5t-3 -81.5q0 -20 3 -62t3 -63q0 -33 -4 -45t-18 -12q-17 0 -24 13t-17 49.5t-23 64.5q-44 97 -120 149t-175 52q-119 0 -188.5 -65t-69.5 -167
q0 -43 16 -79t32.5 -58.5t66.5 -52t75 -41.5t101 -45q7 -4 12 -6l10 -4q219 -97 317.5 -199.5t98.5 -267.5q0 -176 -138 -293t-351 -117q-73 0 -140 17.5t-105 38t-69 38t-41 17.5q-15 0 -30.5 -31t-28.5 -31q-21 0 -21 29q0 1 5.5 52.5t5.5 101.5q0 41 -3 101t-3 79z
M264 1864h60l231 -211l233 211h58l-232 -348h-116z" />
    <glyph glyph-name="scaron" unicode="&#x161;" horiz-adv-x="782" 
d="M102 262q0 9 5.5 16t11.5 7q10 0 15 -11.5t13 -38.5t19 -49q82 -168 229 -168q75 0 126.5 45.5t51.5 108.5q0 67 -43.5 106.5t-150.5 97.5q-3 1 -5 2t-4.5 2.5t-4.5 2.5q-132 69 -192 135t-60 158q0 111 72 180.5t188 69.5q47 0 101 -16.5t63 -16.5q26 0 50 14.5t27 14.5
q6 0 11.5 -7t5.5 -16v-190v-19q0 -22 -17 -22q-10 0 -16.5 8.5t-16 31.5t-16.5 37q-71 136 -188 136q-63 0 -102 -31.5t-39 -81.5q0 -58 36.5 -92.5t133.5 -89.5q24 -14 66 -36.5t73 -40t55 -34.5q100 -71 100 -221q0 -133 -81.5 -209t-225.5 -76q-50 0 -96 14t-74 28
t-35 14q-14 0 -36 -18.5t-33 -18.5q-17 0 -17 18v256zM92 1384h60l231 -210l233 210h58l-232 -348h-116z" />
    <glyph glyph-name="Ydieresis" unicode="&#x178;" horiz-adv-x="1460" 
d="M829 229q0 -74 12 -110t54 -56q23 -12 58 -15.5t55 -8.5t20 -21q0 -22 -37 -22q-3 0 -36.5 2.5t-96.5 5t-135 2.5t-135 -2.5t-96.5 -5t-36.5 -2.5q-39 0 -39 22q0 16 20.5 21t56 8.5t58.5 15.5q41 20 53 55.5t12 110.5v312l-354 641q-46 83 -65 103q-27 28 -62 34
q-9 2 -25.5 4t-23 3.5t-15 4.5t-11.5 8t-3 13q0 22 45 22q1 0 65 -3t126 -3q81 0 178 4t113 4q27 0 38 -4.5t11 -17.5t-8.5 -16.5t-29.5 -3.5t-34 -3q-86 -16 -86 -78q0 -43 45 -129l275 -530q35 59 84 139t76.5 125.5t62 103.5t53 93t36 73t25 64t7.5 47q0 68 -58 80
q-12 3 -28.5 6t-24.5 4.5t-16.5 4.5t-11.5 7t-3 11q0 20 41 20q5 0 67.5 -4t117.5 -4q46 0 86 2.5t62 5t24 2.5q11 0 18.5 -5t7.5 -11q0 -11 -15 -17.5t-37 -11t-54 -24t-58 -52.5q-20 -26 -72 -116.5t-149.5 -253.5t-206.5 -328v-326zM815 1669q0 40 30 70t70 30t69.5 -30
t29.5 -70q0 -43 -29 -71.5t-70 -28.5q-42 0 -71 29t-29 71zM434 1669q0 40 29 70t69 30t70.5 -30t30.5 -70q0 -42 -29.5 -71t-71.5 -29q-41 0 -69.5 28.5t-28.5 71.5z" />
    <glyph glyph-name="Zcaron" unicode="&#x17d;" horiz-adv-x="1230" 
d="M133 0q-28 0 -38.5 3t-10.5 13q0 6 10 23l783 1276h-367q-119 0 -181 -23t-100 -90q-19 -33 -29 -74.5t-16.5 -62.5t-21.5 -21q-19 0 -19 43q0 4 6.5 70t6.5 129v45q0 23 9.5 30t43.5 7h874q45 0 45 -18q0 -6 -18 -35l-780 -1262h383q142 0 221 33t123 113
q22 40 34.5 86.5t19 69t19.5 22.5q21 0 21 -33q0 -6 -9 -92t-9 -164v-37q0 -34 -11 -42.5t-49 -8.5h-940zM317 1864h60l231 -211l234 211h57l-231 -348h-117z" />
    <glyph glyph-name="zcaron" unicode="&#x17e;" horiz-adv-x="903" 
d="M293 45h98q172 0 246.5 9.5t101.5 45.5q16 22 27 55.5t19.5 52.5t23.5 19q20 0 20 -34q0 -20 -6 -66t-6 -70v-18q0 -39 -26 -39h-699q-18 0 -18 14q0 10 14 31l518 811h-217q-93 0 -135 -15.5t-66 -64.5q-9 -17 -15 -41.5t-11.5 -35.5t-18.5 -11q-22 0 -22 29q0 88 6 126
t18.5 48t42.5 10h564q67 0 67 -8q0 -14 -6 -23zM154 1384h59l231 -210l234 210h57l-231 -348h-117z" />
    <glyph glyph-name="florin" unicode="&#x192;" horiz-adv-x="1124" 
d="M461 733h-189l11 55h184q30 298 143.5 457.5t278.5 159.5q82 0 129 -35t47 -90q0 -32 -21.5 -53t-52.5 -21q-50 0 -92 54q-6 8 -20 33t-27.5 34.5t-38.5 9.5q-74 0 -107 -103t-55 -347l-8 -99h221l-8 -55h-217q-12 -225 -28.5 -396t-42 -319t-61 -249.5t-84.5 -174.5
t-113 -107t-146 -34q-81 0 -127.5 37t-46.5 94q0 33 23 56.5t59 23.5q50 0 75 -55q1 -3 8 -20.5t9.5 -21.5l10 -16t14 -16t17.5 -8t25 -4q117 0 152.5 184.5t61.5 714.5q10 199 16 311z" />
    <glyph glyph-name="circumflex" unicode="&#x2c6;" 
d="M213 1036l233 348h117l232 -348h-58l-233 209l-232 -209h-59z" />
    <glyph glyph-name="caron" unicode="&#x2c7;" 
d="M213 1384h59l232 -210l233 210h58l-232 -348h-117z" />
    <glyph glyph-name="breve" unicode="&#x2d8;" 
d="M211 1346h53q17 -74 75 -108t165 -34q108 0 165 33.5t74 108.5h52q-20 -133 -94 -202t-197 -69q-122 0 -196.5 69t-96.5 202z" />
    <glyph glyph-name="dotaccent" unicode="&#x2d9;" 
d="M412 1190q0 41 30 70.5t70 29.5t70 -29.5t30 -70.5t-29.5 -70.5t-70.5 -29.5t-70.5 29.5t-29.5 70.5z" />
    <glyph glyph-name="ring" unicode="&#x2da;" 
d="M272 1257q0 101 69.5 170.5t170.5 69.5t171.5 -69.5t70.5 -170.5t-70.5 -171t-171.5 -70t-170.5 70t-69.5 171zM362 1257q0 -63 43.5 -106t106.5 -43t106.5 43t43.5 106q0 61 -44 105.5t-106 44.5t-106 -43.5t-44 -106.5z" />
    <glyph glyph-name="ogonek" unicode="&#x2db;" 
d="M686 31q-182 -141 -182 -267q0 -55 27.5 -86.5t72.5 -31.5q79 0 119 73l31 -18q-36 -73 -92 -111.5t-121 -38.5q-70 0 -114 41t-44 103q0 173 252 336h51z" />
    <glyph glyph-name="tilde" unicode="&#x2dc;" 
d="M791 1333q-40 -205 -195 -205q-24 0 -74 11l-106 26q-36 9 -49 9q-40 0 -62.5 -21.5t-36.5 -71.5h-51q38 213 199 213q32 0 63 -8l109 -29q42 -10 55 -10q70 0 96 86h52z" />
    <glyph glyph-name="hungarumlaut" unicode="&#x2dd;" 
d="M319 1036l144 279q23 41 44 60.5t48 19.5q28 0 48 -19t20 -47q0 -34 -41 -78l-205 -215h-58zM594 1036l143 279q23 41 44 60.5t48 19.5q28 0 48 -19t20 -47q0 -34 -41 -78l-203 -215h-59z" />
    <glyph glyph-name="endash" unicode="&#x2013;" 
d="M0 399v115h1024v-115h-1024z" />
    <glyph glyph-name="emdash" unicode="&#x2014;" horiz-adv-x="2048" 
d="M0 399v115h2048v-115h-2048z" />
    <glyph glyph-name="quoteleft" unicode="&#x2018;" horiz-adv-x="507" 
d="M217 1188q38 20 59 20q43 0 70 -28t27 -74t-30 -78.5t-75 -32.5q-65 0 -105 46.5t-40 121.5q0 98 59.5 188.5t159.5 137.5l23 -33q-75 -55 -115.5 -118t-40.5 -111q0 -20 8 -39z" />
    <glyph glyph-name="quoteright" unicode="&#x2019;" horiz-adv-x="507" 
d="M274 1243q-38 -20 -59 -20q-43 0 -69.5 29t-26.5 75t29.5 77.5t74.5 31.5q65 0 105.5 -45.5t40.5 -120.5q0 -98 -59.5 -188.5t-159.5 -137.5l-23 31q75 55 115.5 119t40.5 112q0 16 -9 37z" />
    <glyph glyph-name="quotesinglbase" unicode="&#x201a;" horiz-adv-x="507" 
d="M276 29q-40 -21 -59 -21q-43 0 -69.5 28.5t-26.5 74.5t29.5 78t74.5 32q65 0 105.5 -46.5t40.5 -121.5q0 -98 -59.5 -188t-159.5 -137l-25 32q75 56 116.5 119t41.5 111q0 18 -9 39z" />
    <glyph glyph-name="quotedblleft" unicode="&#x201c;" horiz-adv-x="915" 
d="M193 1188q38 20 59 20q43 0 69.5 -28t26.5 -74t-29.5 -78.5t-74.5 -32.5q-65 0 -105.5 46.5t-40.5 121.5q0 98 59.5 188.5t159.5 137.5l25 -33q-76 -56 -117 -119t-41 -110q0 -18 9 -39zM598 1188q38 20 59 20q43 0 69 -28t26 -74t-30 -78.5t-75 -32.5q-64 0 -103.5 46.5
t-39.5 121.5q0 98 59.5 188.5t159.5 137.5l22 -33q-75 -55 -116 -118t-41 -111q0 -16 10 -39z" />
    <glyph glyph-name="quotedblright" unicode="&#x201d;" horiz-adv-x="915" 
d="M680 1243q-38 -20 -59 -20q-43 0 -70 29t-27 75t30 77.5t75 31.5q65 0 105 -45.5t40 -120.5q0 -98 -59.5 -188.5t-159.5 -137.5l-23 31q75 55 115.5 119t40.5 112q0 18 -8 37zM276 1243q-38 -20 -59 -20q-43 0 -69.5 29t-26.5 75t29.5 77.5t74.5 31.5q65 0 105.5 -45.5
t40.5 -120.5q0 -98 -59.5 -188.5t-159.5 -137.5l-25 31q75 55 116.5 119t41.5 112q0 16 -9 37z" />
    <glyph glyph-name="quotedblbase" unicode="&#x201e;" horiz-adv-x="915" 
d="M276 29q-40 -21 -59 -21q-43 0 -69.5 28.5t-26.5 74.5t29.5 78t74.5 32q65 0 105.5 -46.5t40.5 -121.5q0 -98 -59.5 -188t-159.5 -137l-25 32q75 56 116.5 119t41.5 111q0 18 -9 39zM680 29q-40 -21 -59 -21q-43 0 -70 28.5t-27 74.5t30 78t75 32q65 0 105 -46.5
t40 -121.5q0 -98 -59.5 -188t-159.5 -137l-23 32q75 55 115.5 118.5t40.5 111.5q0 20 -8 39z" />
    <glyph glyph-name="dagger" unicode="&#x2020;" 
d="M406 543q88 124 88 336v30q-60 -1 -118.5 -18t-102.5 -34t-68 -17q-44 0 -72.5 23.5t-28.5 60.5q0 40 28.5 67t72.5 27q25 0 64.5 -17t91.5 -34t106 -17h25q2 16 2 49q0 72 -18.5 138t-37 109.5t-18.5 62.5q0 41 25.5 67.5t68.5 26.5q39 0 63.5 -26t24.5 -68
q0 -20 -7.5 -42.5t-23 -58t-22.5 -53.5q-17 -56 -17 -203h23q55 0 109 16.5t94 33t61 16.5q43 0 72 -26t29 -64q0 -41 -26.5 -64.5t-68.5 -23.5q-28 0 -69.5 17t-94 34.5t-106.5 17.5h-25q0 -266 91 -368q-80 -327 -80 -758q0 -17 1 -52t1 -53h-54q0 498 -83 865z" />
    <glyph glyph-name="daggerdbl" unicode="&#x2021;" 
d="M406 543q88 124 88 336v30q-60 -1 -118.5 -18t-102.5 -34t-68 -17q-44 0 -72.5 23.5t-28.5 60.5q0 40 28.5 67t72.5 27q25 0 64.5 -17t91.5 -34t106 -17h25q2 16 2 49q0 72 -18.5 138t-37 109.5t-18.5 62.5q0 41 25.5 67.5t68.5 26.5q39 0 63.5 -26t24.5 -68
q0 -20 -7.5 -42.5t-23 -58t-22.5 -53.5q-17 -56 -17 -203h23q55 0 109 16.5t94 33t61 16.5q43 0 72 -26t29 -64q0 -41 -26.5 -64.5t-68.5 -23.5q-28 0 -69.5 17t-94 34.5t-106.5 17.5h-25q0 -266 91 -368q-89 -130 -89 -332v-39q60 1 118 19t101.5 35.5t67.5 17.5
q44 0 72.5 -24.5t28.5 -61.5q0 -40 -28.5 -66.5t-72.5 -26.5q-25 0 -64.5 16.5t-91 33t-104.5 16.5h-27q-2 -16 -2 -49q0 -72 18.5 -137.5t37 -109t18.5 -62.5q0 -41 -25.5 -68t-68.5 -27q-39 0 -63.5 26.5t-24.5 68.5q0 20 7.5 42.5t23 57t22.5 53.5q17 56 17 205h-23
q-55 0 -109 -16.5t-94 -33t-61 -16.5q-43 0 -72 25.5t-29 63.5q0 41 26.5 64.5t68.5 23.5q28 0 69.5 -17.5t94 -35t106.5 -17.5h25q0 264 -88 373z" />
    <glyph glyph-name="bullet" unicode="&#x2022;" horiz-adv-x="1208" 
d="M307 762q0 123 87 209t210 86q122 0 208.5 -86t86.5 -209q0 -122 -87 -209.5t-210 -87.5t-209 87t-86 210z" />
    <glyph glyph-name="ellipsis" unicode="&#x2026;" horiz-adv-x="2048" 
d="M227 100q0 47 34 81t81 34t81 -34t34 -81q0 -48 -33 -81t-82 -33q-48 0 -81.5 32.5t-33.5 81.5zM909 100q0 47 34 81t81 34t81 -34t34 -81q0 -48 -33 -81t-82 -33q-48 0 -81.5 32.5t-33.5 81.5zM1593 100q0 47 34 81t81 34t81 -34t34 -81q0 -48 -33 -81t-82 -33
q-48 0 -81.5 32.5t-33.5 81.5z" />
    <glyph glyph-name="perthousand" unicode="&#x2030;" horiz-adv-x="2412" 
d="M393 -102h-88l813 1386q-107 -70 -248 -70q-93 0 -178 39q21 -77 21 -141q0 -139 -66 -268q-117 -234 -315 -234q-123 0 -202 87t-79 227q0 95 37.5 186.5t106.5 161.5q63 65 140 99t154 34q54 0 93 -16.5t82 -51.5q47 -38 94 -55.5t110 -17.5q115 0 215 56.5t154 152.5
h76zM201 836q0 -78 46.5 -128.5t117.5 -50.5q57 0 112.5 36t98 97.5t68.5 148t26 181.5q0 105 -45.5 170.5t-112.5 65.5q-51 0 -99.5 -29.5t-84.5 -83.5q-127 -194 -127 -407zM1221 -35q-138 0 -224 88t-86 234q0 99 36.5 189t97 154t140.5 102t165 38q108 0 167.5 -75
t59.5 -214q0 -106 -31.5 -203.5t-82 -165t-114.5 -107.5t-128 -40zM1063 229q0 -209 168 -209q57 0 112 36t98.5 97t70 150t26.5 189q0 107 -46 169t-118 62q-123 0 -215 -164q-45 -83 -70.5 -173.5t-25.5 -156.5zM1843 229q0 -209 168 -209q118 0 211.5 136.5t93.5 335.5
q0 107 -46 169t-118 62q-121 0 -213 -164q-45 -83 -70.5 -173.5t-25.5 -156.5zM1999 -35q-138 0 -222.5 87.5t-84.5 234.5q0 99 36.5 189t96.5 154t140 102t165 38q108 0 166.5 -75t58.5 -214q0 -106 -31.5 -203.5t-82 -165t-114.5 -107.5t-128 -40z" />
    <glyph glyph-name="guilsinglleft" unicode="&#x2039;" horiz-adv-x="569" 
d="M256 463q99 -118 153 -199t54 -102q0 -15 -12 -15q-10 0 -46 35.5t-121 118t-182 162.5q97 79 182 160.5t121 118t46 36.5q12 0 12 -14q0 -21 -54 -102t-153 -199z" />
    <glyph glyph-name="guilsinglright" unicode="&#x203a;" horiz-adv-x="569" 
d="M309 463q-99 119 -153 199.5t-54 101.5q0 14 15 14q10 0 45 -35.5t119.5 -117.5t181.5 -162q-97 -79 -181 -160.5t-119.5 -118.5t-45.5 -37q-15 0 -15 15q0 21 54 101.5t153 199.5z" />
    <glyph glyph-name="fraction" unicode="&#x2044;" horiz-adv-x="342" 
d="M-342 -33l940 1436h84l-938 -1436h-86z" />
    <glyph glyph-name="trademark" unicode="&#x2122;" horiz-adv-x="1683" 
d="M256 1438h440l11 -178h-25q-8 78 -40.5 114.5t-96.5 36.5h-21v-426q0 -50 45 -53l31 -2v-27h-248v27l31 2q45 3 45 53v426h-20q-64 0 -97 -36.5t-41 -114.5h-26zM788 1438h183l141 -400l148 400h174v-25l-29 -2q-47 -3 -47 -53v-373q0 -50 47 -53l29 -2v-27h-236v27l31 2
q45 3 45 53v395l-178 -479h-15l-174 479v-395q0 -24 13 -37.5t34 -15.5l31 -2v-27h-197v27l33 2q45 3 45 53v371q0 24 -13 37.5t-34 15.5l-31 2v27z" />
    <glyph glyph-name="minus" unicode="&#x2212;" horiz-adv-x="1705" 
d="M254 670h1198v-119h-1198v119z" />
    <glyph glyph-name="fi" unicode="&#xfb01;" horiz-adv-x="1232" 
d="M399 813v-637q0 -58 10.5 -80.5t49.5 -36.5q25 -9 58 -14t47 -10t14 -21q0 -18 -37 -18q-8 0 -82 6t-140 6q-74 0 -150.5 -6t-78.5 -6q-35 0 -35 20q0 14 14 18.5t45 9.5t54 15q37 14 46 36t9 81v637h-121q-43 0 -43 25q0 28 39 28h125q-2 33 -2 95q0 259 104 380
t330 121q158 0 247 -42t89 -107q0 -66 -78 -66q-17 0 -28.5 4.5t-19 14.5t-11.5 18t-10 25t-10 26q-39 82 -175 82q-143 0 -201.5 -78t-58.5 -252v-225h410q69 0 138 11.5t71 11.5q17 0 21.5 -8t4.5 -35v-666q0 -56 8.5 -79.5t41.5 -37.5q20 -9 47 -14.5t39 -10.5t12 -20
q0 -18 -33 -18q-1 0 -69 6t-136 6t-136 -6t-70 -6q-31 0 -31 18q0 15 12 20t39 10.5t47 14.5q32 14 40.5 37t8.5 80v553q0 49 -15 66.5t-63 17.5h-387z" />
    <glyph glyph-name="fl" unicode="&#xfb02;" horiz-adv-x="1232" 
d="M399 864h465v320q0 112 -58 170.5t-167 58.5q-124 0 -182 -80.5t-58 -245.5v-223zM864 813h-465v-637q0 -57 10 -80t48 -37q20 -8 44 -13t37.5 -6.5t23 -7t9.5 -16.5q0 -20 -36 -20q-7 0 -79 6t-137 6q-74 0 -150.5 -6t-78.5 -6q-35 0 -35 20q0 14 14 18.5t45 9.5t54 15
q37 14 46 36t9 81v637h-121q-43 0 -43 25q0 28 39 28h125v123q0 237 101 354t309 117q60 0 114 -13t90.5 -26.5t51.5 -13.5q31 0 78 22.5t65 22.5q17 0 17 -35q0 -4 -2.5 -30t-2.5 -46v-1165q0 -56 8.5 -79.5t41.5 -37.5q20 -9 47 -14.5t39 -10.5t12 -20q0 -18 -31 -18
q-1 0 -70 6t-137 6t-136 -6t-70 -6q-31 0 -31 18q0 15 12 20t39 10.5t47 14.5q33 14 41 37t8 80v637z" />
    </font>
</defs>
</svg>
