<?xml version="1.0" standalone="no"?>
<!DOCTYPE svg PUBLIC "-//W3C//DTD SVG 1.1//EN" "http://www.w3.org/Graphics/SVG/1.1/DTD/svg11.dtd" >
<svg xmlns="http://www.w3.org/2000/svg" xmlns:xlink="http://www.w3.org/1999/xlink" version="1.1">
<metadata>
Created by FontForge 20170731 at Sat May  1 12:56:20 2021
 By Aleksey,,,
Copyright (c) 2018 by atipo. All rights reserved.
</metadata>
<defs>
<font id="BasierCircle-Regular" horiz-adv-x="1206" >
  <font-face 
    font-family="Basier Circle"
    font-weight="400"
    font-stretch="normal"
    units-per-em="2048"
    panose-1="0 0 5 0 0 0 0 0 0 0"
    ascent="1638"
    descent="-410"
    x-height="1047"
    cap-height="1434"
    bbox="-332 -502 2322 2007"
    underline-thickness="102"
    underline-position="-307"
    unicode-range="U+0020-2265"
  />
<missing-glyph horiz-adv-x="1925" 
 />
    <glyph glyph-name=".notdef" horiz-adv-x="1925" 
 />
    <glyph glyph-name=".null" horiz-adv-x="0" 
 />
    <glyph glyph-name="nonmarkingreturn" horiz-adv-x="682" 
 />
    <glyph glyph-name="space" unicode=" " horiz-adv-x="614" 
 />
    <glyph glyph-name="exclam" unicode="!" horiz-adv-x="569" 
d="M233 455l-43 782v197h193v-197l-53 -782h-97zM285 -18q-59 0 -90 33.5t-31 90.5q0 56 31.5 89.5t89.5 33.5q57 0 89 -34t32 -89q0 -57 -32 -90.5t-89 -33.5z" />
    <glyph glyph-name="quotedbl" unicode="&#x22;" horiz-adv-x="851" 
d="M186 901l-32 301v232h176v-232l-33 -301h-111zM555 901l-33 301v232h176v-232l-32 -301h-111z" />
    <glyph glyph-name="numbersign" unicode="#" horiz-adv-x="1402" 
d="M1300 879h-278l-57 -334h233v-152h-258l-68 -393h-147l68 393h-304l-67 -393h-148l68 393h-240v152h265l57 334h-219v151h246l67 404h148l-68 -404h303l68 404h147l-67 -404h251v-151zM817 545l57 334h-303l-57 -334h303z" />
    <glyph glyph-name="dollar" unicode="$" horiz-adv-x="1294" 
d="M1182 393q0 -176 -122.5 -284t-338.5 -125v-168h-139v168q-226 15 -350 133.5t-130 312.5h183q8 -121 84 -195.5t213 -87.5v515l-52 10q-191 41 -285.5 133.5t-94.5 253.5q0 170 113 273t319 118v168h139v-170q198 -19 316.5 -133t119.5 -289h-182q-5 105 -68.5 173
t-185.5 85v-469l53 -10q201 -42 304.5 -145.5t103.5 -266.5zM580 846h2v440q-117 -11 -181.5 -67t-64.5 -160q0 -85 62.5 -136t181.5 -77zM721 147q134 12 204 74t70 172q0 99 -65 153t-191 81l-18 4v-484z" />
    <glyph glyph-name="percent" unicode="%" horiz-adv-x="1748" 
d="M444 713q-152 0 -226.5 102t-74.5 270t74.5 270.5t226.5 102.5q151 0 226 -102.5t75 -270.5t-74.5 -270t-226.5 -102zM309 0v20l971 1414h158v-21l-967 -1413h-162zM444 844q156 0 156 241q0 242 -156 242q-155 0 -155 -242q0 -241 155 -241zM1305 -18q-152 0 -226.5 102
t-74.5 270t74.5 270.5t226.5 102.5q151 0 226 -102.5t75 -270.5t-74.5 -270t-226.5 -102zM1305 113q155 0 155 241q0 242 -155 242q-156 0 -156 -242q0 -241 156 -241z" />
    <glyph glyph-name="ampersand" unicode="&#x26;" horiz-adv-x="1497" 
d="M1395 815v-20q-122 -308 -271 -504l256 -271v-20h-227l-147 160q-193 -178 -426 -178q-193 0 -320 107t-127 282q0 89 36.5 163t99.5 130t161 112l-22 25q-79 85 -113.5 157t-34.5 160q0 144 101.5 238.5t261.5 95.5h4q164 0 265 -94.5t101 -239.5q0 -114 -71.5 -205.5
t-223.5 -173.5l310 -327q118 166 209 403h178zM621 1294q-85 -1 -136 -50.5t-51 -125.5q0 -64 34.5 -121t106.5 -129l13 -12q118 60 176.5 120.5t58.5 141.5q0 80 -52.5 128t-145.5 48h-4zM580 141q166 0 313 138l-354 380q-125 -68 -175.5 -133.5t-50.5 -154.5
q0 -105 75 -167.5t192 -62.5z" />
    <glyph glyph-name="quotesingle" unicode="'" horiz-adv-x="483" 
d="M186 901l-32 301v232h176v-232l-33 -301h-111z" />
    <glyph glyph-name="parenleft" unicode="(" horiz-adv-x="747" 
d="M563 1536v-20q-299 -391 -299 -910q0 -518 299 -909v-21h-133q-144 176 -236 410.5t-92 519.5t92 519.5t236 410.5h133z" />
    <glyph glyph-name="parenright" unicode=")" horiz-adv-x="747" 
d="M317 1536q144 -176 236 -410.5t92 -519.5t-92 -519.5t-236 -410.5h-133v21q299 391 299 909q0 519 -299 910v20h133z" />
    <glyph glyph-name="asterisk" unicode="*" horiz-adv-x="995" 
d="M420 782l33 258l-9 7l-219 -146l-71 139l249 84v9l-249 84l71 139l215 -152l9 8l-29 263h155l-28 -263l8 -8l215 152l72 -139l-250 -84v-9l250 -84l-72 -139l-219 146l-8 -7l32 -258h-155z" />
    <glyph glyph-name="plus" unicode="+" horiz-adv-x="974" 
d="M410 143v424h-400v148h400v424h163v-424h392v-148h-392v-424h-163z" />
    <glyph glyph-name="comma" unicode="," horiz-adv-x="487" 
d="M86 -274v20l64 465h202v-21l-127 -464h-139z" />
    <glyph glyph-name="hyphen" unicode="-" horiz-adv-x="954" 
d="M164 520v160h627v-160h-627z" />
    <glyph glyph-name="period" unicode="." horiz-adv-x="487" 
d="M244 -18q-59 0 -90 33.5t-31 90.5q0 56 31.5 89.5t89.5 33.5q57 0 89 -34t32 -89q0 -57 -32 -90.5t-89 -33.5z" />
    <glyph glyph-name="slash" unicode="/" horiz-adv-x="794" 
d="M31 -272v20l575 1761h158v-20l-578 -1761h-155z" />
    <glyph glyph-name="zero" unicode="0" horiz-adv-x="1286" 
d="M643 -18q-109 0 -194 36t-142.5 100.5t-94.5 158t-53 203t-16 241.5t16 241t53 202.5t94.5 157.5t142.5 100t194 36t194 -36t142.5 -100t94.5 -157.5t53 -202.5t16 -241t-16 -241.5t-53 -203t-94.5 -158t-142.5 -100.5t-194 -36zM643 137q76 0 133 31.5t92.5 83.5
t57.5 129t30.5 158.5t8.5 181.5q0 99 -8.5 180.5t-31 158t-57.5 128.5t-92.5 83.5t-132.5 31.5t-132 -31.5t-92.5 -83.5t-57.5 -128.5t-30.5 -158t-8.5 -180.5q0 -100 8 -181.5t30 -158.5t57.5 -129t92.5 -83.5t133 -31.5z" />
    <glyph glyph-name="one" unicode="1" horiz-adv-x="870" 
d="M471 0v1239h-8l-330 -258h-20v176l356 277h176v-1434h-174z" />
    <glyph glyph-name="two" unicode="2" horiz-adv-x="1165" 
d="M137 0v135l490 572q48 57 67 79.5t50 61.5t41.5 58.5t24.5 49t17.5 54.5t3.5 55q0 108 -65.5 173t-190.5 65q-127 0 -197.5 -70.5t-70.5 -200.5h-174q0 191 117.5 308.5t324.5 117.5q199 0 317 -109.5t118 -277.5q0 -47 -12 -92t-29 -82.5t-55.5 -90.5t-71.5 -93
t-97 -115l-370 -430v-8h657v-160h-895z" />
    <glyph glyph-name="three" unicode="3" horiz-adv-x="1234" 
d="M616 -18q-215 0 -344 113.5t-129 301.5h172q2 -115 80 -188.5t219 -73.5q140 0 218.5 72t78.5 194q0 129 -83 199t-234 70h-125v153h121q123 0 199.5 68t76.5 178q0 103 -64.5 169.5t-191.5 66.5q-132 0 -200.5 -67.5t-73.5 -182.5h-174q9 190 127.5 296.5t326.5 106.5
q188 0 309.5 -103.5t121.5 -273.5q0 -230 -216 -313v-8q125 -39 193 -133t68 -224q0 -184 -127 -302.5t-349 -118.5z" />
    <glyph glyph-name="four" unicode="4" horiz-adv-x="1204" 
d="M745 0v303h-653v180l580 951h248v-975h192v-156h-192v-303h-175zM260 459h485v801h-8l-477 -793v-8z" />
    <glyph glyph-name="five" unicode="5" horiz-adv-x="1216" 
d="M606 -18q-215 0 -344 120t-129 304h174q0 -115 80.5 -192t218.5 -77q155 0 228 88.5t73 237.5q0 143 -75 231t-224 88q-168 0 -270 -141h-180l55 793h803v-158h-651l-33 -457h8q109 117 295 117q211 0 329.5 -130.5t118.5 -336.5q0 -224 -121 -355.5t-356 -131.5z" />
    <glyph glyph-name="six" unicode="6" horiz-adv-x="1273" 
d="M649 -18q-108 0 -194 35.5t-144 98t-96 152.5t-55 195.5t-17 230.5q0 124 17.5 233.5t57 208t99.5 169t150 112t203 41.5q184 0 304 -101.5t140 -269.5h-178q-10 98 -82.5 155.5t-183.5 57.5q-94 0 -164 -45t-110.5 -124.5t-59.5 -177t-19 -214.5h9q103 197 348 197
q143 0 248 -64t156.5 -169.5t51.5 -237.5q0 -137 -56.5 -245.5t-167 -173t-257.5 -64.5zM651 137q142 0 221.5 92t79.5 232q0 141 -78.5 231t-222.5 90q-146 0 -224.5 -89.5t-78.5 -229.5t80.5 -233t222.5 -93z" />
    <glyph glyph-name="seven" unicode="7" horiz-adv-x="1107" 
d="M236 0v20q157 651 600 1244v8h-744v162h924v-172q-449 -606 -608 -1262h-172z" />
    <glyph glyph-name="eight" unicode="8" horiz-adv-x="1232" 
d="M856 756q120 -45 182 -139.5t62 -221.5q0 -193 -129.5 -302t-354.5 -111q-225 2 -354 111t-129 302q0 127 62 221.5t182 139.5v8q-98 44 -149.5 125.5t-51.5 189.5q0 173 118 275.5t322 103.5q204 -1 322.5 -103.5t118.5 -275.5q0 -108 -51.5 -189.5t-149.5 -125.5v-8z
M352 1071q0 -105 68.5 -173t195.5 -69q127 1 196 69t69 173q0 106 -67.5 170.5t-197.5 65.5q-129 -1 -196.5 -65t-67.5 -171zM616 133q154 1 230 75t76 200q0 121 -75 195t-231 75q-156 -1 -230.5 -75t-74.5 -195q0 -126 75.5 -200t229.5 -75z" />
    <glyph glyph-name="nine" unicode="9" horiz-adv-x="1273" 
d="M604 -18q-184 0 -304 101.5t-140 268.5h178q10 -98 82.5 -155.5t183.5 -57.5q94 0 164 45t110 124.5t59 177t19 214.5h-8q-102 -196 -348 -196q-108 0 -195.5 37t-144 101t-87 149.5t-30.5 183.5q0 209 130.5 346t351.5 137q135 0 234 -53.5t157.5 -151.5t86 -224.5
t27.5 -283.5q0 -124 -17 -233.5t-57 -208t-99.5 -169t-149.5 -111.5t-203 -41zM623 657q146 0 224.5 90t78.5 230t-80.5 233t-222.5 93t-221.5 -92t-79.5 -232q0 -141 78.5 -231.5t222.5 -90.5z" />
    <glyph glyph-name="colon" unicode=":" horiz-adv-x="487" 
d="M244 719q-59 0 -90 34t-31 91q0 56 31.5 89.5t89.5 33.5q57 0 89 -34t32 -89q0 -57 -32 -91t-89 -34zM244 -18q-59 0 -90 33.5t-31 90.5q0 56 31.5 89.5t89.5 33.5q57 0 89 -34t32 -89q0 -57 -32 -90.5t-89 -33.5z" />
    <glyph glyph-name="semicolon" unicode=";" horiz-adv-x="487" 
d="M244 719q-59 0 -90 34t-31 91q0 56 31.5 89.5t89.5 33.5q57 0 89 -34t32 -89q0 -57 -32 -91t-89 -34zM86 -274v20l64 465h202v-21l-127 -464h-139z" />
    <glyph glyph-name="less" unicode="&#x3c;" horiz-adv-x="1064" 
d="M963 -25l-861 510v185l861 510v-187l-699 -411v-9l699 -411v-187z" />
    <glyph glyph-name="equal" unicode="=" horiz-adv-x="974" 
d="M10 758v147h955v-147h-955zM10 369v147h955v-147h-955z" />
    <glyph glyph-name="greater" unicode="&#x3e;" horiz-adv-x="1064" 
d="M102 -25v187l699 411v9l-699 411v187l861 -510v-185z" />
    <glyph glyph-name="question" unicode="?" horiz-adv-x="1112" 
d="M453 455v32q0 64 11 111t38 86t55.5 66t79.5 67l65 51q104 81 107 211q0 98 -64 159.5t-184 61.5q-133 0 -197.5 -71t-64.5 -189h-176q0 84 27.5 157.5t80 131.5t137.5 91.5t193 33.5q192 0 310 -102t118 -269q0 -193 -155 -313l-86 -68q-40 -31 -59.5 -48.5t-39 -43.5
t-26.5 -54.5t-7 -68.5v-32h-163zM535 -18q-59 0 -90 33.5t-31 90.5q0 56 31.5 89.5t89.5 33.5q57 0 88.5 -34t31.5 -89q0 -57 -31.5 -90.5t-88.5 -33.5z" />
    <glyph glyph-name="at" unicode="@" horiz-adv-x="1875" 
d="M946 -205q-180 0 -330.5 58.5t-257 165t-166 262t-59.5 342.5q0 243 106 432t295.5 293t430.5 104q221 0 396.5 -86.5t277.5 -251.5t102 -381q0 -85 -14 -163t-45 -147.5t-75 -120t-108 -80t-141 -29.5q-78 0 -137.5 38.5t-69.5 108.5h-8q-35 -68 -99.5 -104.5
t-148.5 -36.5q-153 0 -241.5 111.5t-88.5 291.5t96 297t259 117q68 0 128 -34t89 -89h8l14 100h139l-18 -544q-2 -54 19.5 -82.5t76.5 -28.5q65 0 114.5 55t74 144t24.5 196q0 265 -175.5 423.5t-455.5 158.5q-195 0 -348.5 -91.5t-237 -252t-83.5 -361.5q0 -303 183 -489.5
t476 -186.5q251 0 420 72v-135q-170 -76 -422 -76zM920 342q105 0 159 79.5t54 201.5q0 114 -51 184t-150 70t-151 -79.5t-52 -197.5q0 -113 48.5 -185.5t142.5 -72.5z" />
    <glyph glyph-name="A" unicode="A" horiz-adv-x="1396" 
d="M807 1434l528 -1414v-20h-190l-135 375h-627l-135 -375h-187v20l527 1414h219zM440 535h512l-252 700h-8z" />
    <glyph glyph-name="B" unicode="B" horiz-adv-x="1363" 
d="M205 0v1434h575q186 0 302 -100t116 -273q0 -213 -180 -293v-8q46 -18 84 -45t73.5 -68t55.5 -100.5t20 -132.5q0 -195 -122 -304.5t-334 -109.5h-590zM381 819h356q130 0 204.5 60t74.5 182q0 102 -66.5 157.5t-189.5 55.5h-379v-455zM381 162h393q131 0 212 66t81 186
q0 124 -77 187t-216 63h-393v-502z" />
    <glyph glyph-name="C" unicode="C" horiz-adv-x="1452" 
d="M756 -18q-203 0 -347 93t-215 256.5t-71 383.5q0 338 165.5 537.5t467.5 199.5q254 0 401.5 -133t171.5 -365h-184q-18 155 -115.5 242.5t-273.5 87.5q-97 0 -174.5 -31.5t-128 -85t-84 -127.5t-48 -154.5t-14.5 -170.5t14.5 -170.5t48 -154t84 -127t128 -85t174.5 -31.5
q170 0 267 83t124 235h182q-30 -227 -175.5 -355t-397.5 -128z" />
    <glyph glyph-name="D" unicode="D" horiz-adv-x="1441" 
d="M205 0v1434h475q201 0 346 -90t219 -250.5t74 -376.5q0 -152 -40.5 -281t-118 -227t-201 -153.5t-279.5 -55.5h-475zM383 162h279q96 0 175.5 29t134 80t92 121.5t54.5 152t17 172.5t-17 172t-54.5 151t-92 121t-134 80t-175.5 29h-279v-1108z" />
    <glyph glyph-name="E" unicode="E" horiz-adv-x="1249" 
d="M205 0v1434h921v-164h-743v-449h680v-164h-680v-495h743v-162h-921z" />
    <glyph glyph-name="F" unicode="F" horiz-adv-x="1226" 
d="M205 0v1434h899v-164h-721v-482h651v-163h-651v-625h-178z" />
    <glyph glyph-name="G" unicode="G" horiz-adv-x="1476" 
d="M750 -18q-203 0 -345.5 92.5t-212 255.5t-69.5 383q0 339 163 539t464 200q255 0 406.5 -130t172.5 -347h-184q-14 139 -116 224t-279 85q-97 0 -174 -32t-126.5 -85.5t-82.5 -128t-46.5 -155t-13.5 -170.5q0 -114 23 -211t72.5 -179t138.5 -129t209 -47q206 0 320 125.5
t114 319.5h-393v162h563v-121q0 -300 -159.5 -475.5t-444.5 -175.5z" />
    <glyph glyph-name="H" unicode="H" horiz-adv-x="1505" 
d="M1122 1434h178v-1434h-178v657h-739v-657h-178v1434h178v-611h739v611z" />
    <glyph glyph-name="I" unicode="I" horiz-adv-x="589" 
d="M205 0v1434h180v-1434h-180z" />
    <glyph glyph-name="J" unicode="J" horiz-adv-x="1089" 
d="M481 -18q-195 0 -307.5 117.5t-112.5 310.5h181q0 -119 61.5 -188.5t181.5 -69.5q119 0 179.5 70.5t60.5 193.5v1018h180v-1018q0 -199 -114 -316.5t-310 -117.5z" />
    <glyph glyph-name="K" unicode="K" horiz-adv-x="1292" 
d="M608 756l664 -736v-20h-215l-674 745v-745h-178v1434h178v-668l655 668h213v-21z" />
    <glyph glyph-name="L" unicode="L" horiz-adv-x="1126" 
d="M205 0v1434h178v-1270h692v-164h-870z" />
    <glyph glyph-name="M" unicode="M" horiz-adv-x="1802" 
d="M205 0v1434h211l483 -875h8l484 875h206v-1434h-170v1149h-8l-508 -903h-20l-508 909h-8v-1155h-170z" />
    <glyph glyph-name="N" unicode="N" horiz-adv-x="1521" 
d="M205 0v1434h194l734 -1141h8v1141h176v-1434h-197l-733 1135h-8v-1135h-174z" />
    <glyph glyph-name="O" unicode="O" horiz-adv-x="1515" 
d="M758 -18q-130 0 -235.5 37t-179 103.5t-123.5 159t-73.5 201.5t-23.5 234q0 126 23.5 235t73.5 201.5t123.5 158.5t179 103t235.5 37q129 0 234.5 -37t179.5 -103t124 -158.5t73.5 -202t23.5 -234.5t-23.5 -234t-73.5 -201.5t-124 -159t-179.5 -103.5t-234.5 -37z
M758 150q99 0 177 31.5t128.5 84.5t83.5 127t47 154t14 170t-14 170t-47 154t-83.5 127t-128.5 84.5t-177 31.5t-177.5 -31.5t-129 -84.5t-84 -127t-47 -153.5t-13.5 -170.5q0 -90 14 -170t47 -154t84 -127t129 -84.5t177 -31.5z" />
    <glyph glyph-name="P" unicode="P" horiz-adv-x="1329" 
d="M205 0v1434h528q217 0 345 -125.5t128 -327.5q0 -207 -129 -334t-344 -127h-350v-520h-178zM383 684h328q150 0 230.5 76.5t80.5 220.5q0 137 -83 214t-228 77h-328v-588z" />
    <glyph glyph-name="Q" unicode="Q" horiz-adv-x="1515" 
d="M1393 717q0 -183 -52 -334t-155 -248l192 -264v-21h-194l-140 191q-121 -59 -286 -59q-130 0 -235.5 37t-179 103.5t-123.5 159t-73.5 201.5t-23.5 234q0 126 23.5 235t73.5 201.5t123.5 158.5t179 103t235.5 37q129 0 234.5 -37t179.5 -103t124 -158.5t73.5 -202
t23.5 -234.5zM758 150q100 0 182 32l-176 244v20h194l119 -163q131 152 131 434q0 90 -14 170t-47 154t-83.5 127t-128.5 84.5t-177 31.5t-177.5 -31.5t-129 -84.5t-84 -127t-47 -153.5t-13.5 -170.5q0 -90 14 -170t47 -154t84 -127t129 -84.5t177 -31.5z" />
    <glyph glyph-name="R" unicode="R" horiz-adv-x="1372" 
d="M918 590l385 -570v-20h-195l-377 567h-348v-567h-178v1434h567q214 0 334.5 -120.5t120.5 -309.5q0 -157 -83.5 -265t-225.5 -149zM383 1270v-539h379q134 0 206 70t72 200q0 127 -72 198t-206 71h-379z" />
    <glyph glyph-name="S" unicode="S" horiz-adv-x="1294" 
d="M645 -18q-256 0 -396.5 120.5t-146.5 327.5h183q8 -135 100.5 -211t259.5 -76q350 0 350 250q0 99 -65 153t-191 81l-209 45q-191 41 -285.5 133.5t-94.5 253.5q0 183 130.5 288t366.5 105q229 0 368.5 -117.5t141.5 -308.5h-182q-6 122 -89 192t-243 70
q-144 0 -225.5 -56t-81.5 -173q0 -85 62.5 -136t181.5 -77l194 -41q201 -42 304.5 -145.5t103.5 -266.5q0 -192 -144 -301.5t-393 -109.5z" />
    <glyph glyph-name="T" unicode="T" horiz-adv-x="1212" 
d="M516 0v1270h-444v164h1069v-164h-445v-1270h-180z" />
    <glyph glyph-name="U" unicode="U" horiz-adv-x="1462" 
d="M729 -18q-253 0 -399 139t-146 385v928h178v-924q0 -170 93.5 -267.5t273.5 -97.5q183 0 276 97t93 268v924h180v-928q0 -247 -146 -385.5t-403 -138.5z" />
    <glyph glyph-name="V" unicode="V" horiz-adv-x="1359" 
d="M588 0l-527 1413v21h187l430 -1194h8l424 1194h188v-21l-528 -1413h-182z" />
    <glyph glyph-name="W" unicode="W" horiz-adv-x="1855" 
d="M414 0l-353 1413v21h175l274 -1155h8l316 1155h184l319 -1155h9l272 1155h176v-21l-356 -1413h-181l-325 1145h-8l-332 -1145h-178z" />
    <glyph glyph-name="X" unicode="X" horiz-adv-x="1292" 
d="M41 0v20l489 697v8l-475 688v21h199l387 -584h8l387 584h199v-21l-475 -688v-8l489 -697v-20h-198l-402 573h-8l-401 -573h-199z" />
    <glyph glyph-name="Y" unicode="Y" horiz-adv-x="1329" 
d="M575 0v598l-514 815v21h201l402 -664h8l399 664h197v-21l-512 -815v-598h-181z" />
    <glyph glyph-name="Z" unicode="Z" horiz-adv-x="1222" 
d="M82 0v158l823 1102v8h-805v166h1028v-162l-821 -1100v-8h834v-164h-1059z" />
    <glyph glyph-name="bracketleft" unicode="[" horiz-adv-x="706" 
d="M102 -324v1860h414v-131h-262v-1600h268v-129h-420z" />
    <glyph glyph-name="backslash" unicode="\" horiz-adv-x="794" 
d="M608 -272l-577 1761v20h157l576 -1761v-20h-156z" />
    <glyph glyph-name="bracketright" unicode="]" horiz-adv-x="706" 
d="M184 -324v129h269v1600h-263v131h414v-1860h-420z" />
    <glyph glyph-name="asciicircum" unicode="^" horiz-adv-x="1204" 
d="M102 635v20l408 779h184l408 -779v-20h-176l-320 637h-8l-319 -637h-177z" />
    <glyph glyph-name="underscore" unicode="_" horiz-adv-x="1210" 
d="M123 -201v146h964v-146h-964z" />
    <glyph glyph-name="grave" unicode="`" horiz-adv-x="534" 
d="M309 1194l-237 279v20h235l156 -279v-20h-154z" />
    <glyph glyph-name="a" unicode="a" horiz-adv-x="1124" 
d="M467 -18q-167 0 -266 91.5t-99 231.5q0 143 108 235.5t325 92.5q122 0 258 -37v104q0 95 -60.5 156.5t-181.5 61.5q-110 0 -170 -53.5t-62 -133.5h-165q0 149 111.5 241.5t285.5 92.5q194 0 302 -102t108 -258v-705h-146l-12 147h-8q-47 -79 -132.5 -122t-195.5 -43z
M498 125q130 0 212.5 82t82.5 199v53q-118 37 -258 37q-127 0 -193 -48.5t-66 -140.5q0 -82 56 -132t166 -50z" />
    <glyph glyph-name="b" unicode="b" horiz-adv-x="1226" 
d="M680 -18q-111 0 -191 44.5t-124 118.5h-9l-22 -145h-150v1516h172v-615h9q44 74 124 119t191 45q143 0 244.5 -71.5t150 -191.5t49.5 -278q-1 -253 -119.5 -397.5t-324.5 -144.5zM651 135q79 0 138 30.5t93.5 85t51 123t16.5 150.5q0 81 -16.5 149t-51 122.5t-93.5 85
t-138 30.5q-148 0 -223.5 -110t-75.5 -277q0 -80 17.5 -149t53 -123.5t94 -85.5t134.5 -31z" />
    <glyph glyph-name="c" unicode="c" horiz-adv-x="1112" 
d="M578 -18q-231 0 -353.5 144t-122.5 396q0 250 122.5 396.5t350.5 146.5q201 0 310.5 -104.5t120.5 -272.5h-172q-8 104 -76.5 163.5t-182.5 59.5q-78 0 -137 -30t-93.5 -84t-51.5 -123t-17 -152q0 -176 73 -282.5t226 -106.5q116 0 184 57t79 162h172q-16 -172 -125 -271
t-307 -99z" />
    <glyph glyph-name="d" unicode="d" 
d="M547 -18q-206 0 -325 144.5t-120 397.5q1 157 49.5 277.5t150.5 192t245 71.5q111 0 191 -45t124 -119h8v615h172v-1516h-149l-23 145h-8q-44 -74 -124 -118.5t-191 -44.5zM575 135q76 0 134.5 31t94 85.5t53 123.5t17.5 149q0 167 -75.5 277t-223.5 110
q-79 0 -138 -30.5t-93.5 -85t-51 -122.5t-16.5 -149q0 -82 16.5 -150.5t51 -123t93.5 -85t138 -30.5z" />
    <glyph glyph-name="e" unicode="e" horiz-adv-x="1130" 
d="M578 -18q-150 0 -259.5 71.5t-163 192.5t-53.5 276q0 116 29 213t85.5 171.5t148.5 116.5t210 42q144 0 247.5 -67.5t154.5 -181.5t51 -261v-84h-745q0 -154 76 -245t219 -91q104 0 173.5 43t90.5 125h172q-22 -143 -144.5 -232t-291.5 -89zM285 614h565q0 131 -70.5 214
t-204.5 83q-140 0 -212.5 -82.5t-77.5 -214.5z" />
    <glyph glyph-name="f" unicode="f" horiz-adv-x="757" 
d="M250 0v903h-187v144h187v182q0 137 83 222t222 85q66 0 131 -14v-144q-57 11 -102 11q-77 0 -119.5 -42t-42.5 -118v-182h254v-144h-254v-903h-172z" />
    <glyph glyph-name="g" unicode="g" 
d="M580 -487q-197 0 -319.5 100t-127.5 254h166q7 -85 77 -146t204 -61q144 0 217 78.5t73 204.5v202h-8q-44 -74 -124 -118.5t-191 -44.5q-143 0 -245 71.5t-150.5 191.5t-49.5 277q1 253 120 398t325 145q111 0 191 -45t124 -119h8l23 146h149v-1108q0 -90 -30.5 -167.5
t-88 -135.5t-145.5 -90.5t-198 -32.5zM575 135q148 0 223.5 110t75.5 277q0 80 -17.5 149t-53 123.5t-94 85.5t-134.5 31q-79 0 -138 -30.5t-93.5 -85t-51 -123t-16.5 -150.5q0 -81 16.5 -149t51 -122.5t93.5 -85t138 -30.5z" />
    <glyph glyph-name="h" unicode="h" horiz-adv-x="1218" 
d="M184 0v1516h172v-633h9q94 182 319 182q173 0 272 -102.5t99 -282.5v-680h-172v653q0 125 -61.5 191.5t-184.5 66.5q-128 0 -204.5 -90.5t-76.5 -247.5v-573h-172z" />
    <glyph glyph-name="i" unicode="i" horiz-adv-x="520" 
d="M270 1247q-59 0 -88.5 32t-29.5 89q0 56 30 87.5t88 31.5q57 0 88 -32t31 -87q0 -56 -30.5 -88.5t-88.5 -32.5zM184 0v1047h172v-1047h-172z" />
    <glyph glyph-name="j" unicode="j" horiz-adv-x="548" 
d="M299 1247q-59 0 -89 32t-30 89q0 56 30 87.5t89 31.5q57 0 88 -32t31 -87q0 -56 -30.5 -88.5t-88.5 -32.5zM82 -487q-38 0 -82 12v145q40 -6 78 -6q135 0 135 150v1233h172v-1231q0 -153 -73.5 -228t-229.5 -75z" />
    <glyph glyph-name="k" unicode="k" horiz-adv-x="1054" 
d="M184 1516h172v-1516h-172v1516zM578 588l436 -568v-20h-199l-459 588l443 459h202v-21z" />
    <glyph glyph-name="l" unicode="l" horiz-adv-x="520" 
d="M184 0v1516h172v-1516h-172z" />
    <glyph glyph-name="m" unicode="m" horiz-adv-x="1855" 
d="M1331 1065q171 0 266 -103t95 -282v-680h-172v653q0 123 -57.5 190.5t-174.5 67.5q-123 0 -192.5 -87.5t-69.5 -245.5v-578h-172v653q0 124 -57 191t-174 67q-124 0 -195.5 -88t-71.5 -245v-578h-172v1047h150l14 -164h8q94 182 314 182q113 0 193 -47.5t122 -134.5h8
q94 182 338 182z" />
    <glyph glyph-name="n" unicode="n" horiz-adv-x="1210" 
d="M184 0v1047h150l14 -164h8q43 84 125 133t199 49q173 0 270 -102.5t97 -282.5v-680h-173v653q0 258 -241 258q-131 0 -204 -87.5t-73 -245.5v-578h-172z" />
    <glyph glyph-name="o" unicode="o" horiz-adv-x="1150" 
d="M575 -18q-120 0 -212 41.5t-148 116t-84.5 171t-28.5 211.5t29 212t85.5 172t148.5 117t210 42t210 -42t149 -117t86 -172t29 -212t-28.5 -211t-85 -170.5t-148.5 -116.5t-212 -42zM575 135q153 0 226 104t73 283q0 87 -17 156.5t-52 122t-93.5 81.5t-136.5 29
q-152 0 -225.5 -105.5t-73.5 -283.5t73.5 -282.5t225.5 -104.5z" />
    <glyph glyph-name="p" unicode="p" horiz-adv-x="1226" 
d="M184 -469v1516h150l22 -146h9q44 74 124 119t191 45q206 0 324.5 -145t119.5 -398q-1 -117 -29.5 -215t-82.5 -171t-139 -113.5t-193 -40.5q-111 0 -191 44.5t-124 118.5h-9v-614h-172zM651 135q79 0 138 30.5t93.5 85t51 122.5t16.5 149q0 82 -16.5 150.5t-51 123
t-93.5 85t-138 30.5q-76 0 -134.5 -31t-94 -85.5t-53 -123.5t-17.5 -149q0 -167 75.5 -277t223.5 -110z" />
    <glyph glyph-name="q" unicode="q" 
d="M870 -469v614h-8q-44 -74 -124 -118.5t-191 -44.5q-143 0 -245 71.5t-150.5 191.5t-49.5 277q1 253 120 398t325 145q111 0 191 -45t124 -119h8l23 146h149v-1516h-172zM575 135q148 0 223.5 110t75.5 277q0 80 -17.5 149t-53 123.5t-94 85.5t-134.5 31q-79 0 -138 -30.5
t-93.5 -85t-51 -123t-16.5 -150.5q0 -81 16.5 -149t51 -122.5t93.5 -85t138 -30.5z" />
    <glyph glyph-name="r" unicode="r" horiz-adv-x="798" 
d="M184 0v1047h150l14 -177h8q32 88 106 138.5t171 50.5h94v-166h-82q-289 0 -289 -385v-508h-172z" />
    <glyph glyph-name="s" unicode="s" horiz-adv-x="1046" 
d="M530 -18q-189 0 -306.5 97.5t-121.5 266.5h172q0 -102 70 -156.5t186 -54.5q113 0 176.5 38t63.5 112q0 114 -160 149l-209 39q-129 26 -197.5 101.5t-68.5 191.5q0 132 104.5 215.5t276.5 83.5q179 0 291.5 -91.5t112.5 -246.5h-168q-4 96 -68.5 144.5t-167.5 48.5
q-98 0 -156.5 -39.5t-58.5 -114.5q0 -120 182 -148l164 -30q154 -35 225.5 -103.5t71.5 -199.5q0 -93 -57 -163t-150 -105t-207 -35z" />
    <glyph glyph-name="t" unicode="t" horiz-adv-x="780" 
d="M532 -18q-149 0 -212.5 71t-63.5 209v639h-174v146h178v223l148 57h20v-280h256v-146h-256v-625q0 -75 33 -109t104 -34q57 0 103 12h20v-147q-66 -16 -156 -16z" />
    <glyph glyph-name="u" unicode="u" horiz-adv-x="1183" 
d="M848 1047h172v-666q0 -179 -118.5 -288t-309.5 -109t-309.5 109t-118.5 288v666h172v-637q0 -273 256 -273t256 273v637z" />
    <glyph glyph-name="v" unicode="v" horiz-adv-x="1077" 
d="M453 0l-412 1026v21h178l322 -846h8l309 846h178v-21l-405 -1026h-178z" />
    <glyph glyph-name="w" unicode="w" horiz-adv-x="1536" 
d="M338 0l-297 1026v21h178l209 -814h8l246 814h176l246 -814h8l209 814h174v-21l-295 -1026h-178l-246 813h-8l-252 -813h-178z" />
    <glyph glyph-name="x" unicode="x" horiz-adv-x="989" 
d="M20 0v20l367 506l-354 500v21h184l277 -404h8l274 404h187v-21l-357 -496l363 -510v-20h-181l-286 414h-8l-291 -414h-183z" />
    <glyph glyph-name="y" unicode="y" horiz-adv-x="1079" 
d="M285 -469v20l178 457l-2 4l-420 1014v21h184l318 -822h8l307 822h180v-21l-579 -1495h-174z" />
    <glyph glyph-name="z" unicode="z" horiz-adv-x="1028" 
d="M113 0v141l596 752v8h-594v146h796v-144l-594 -749v-9h598v-145h-802z" />
    <glyph glyph-name="braceleft" unicode="{" horiz-adv-x="880" 
d="M260 610v-8q184 -24 184 -229v-348q0 -114 45.5 -164.5t159.5 -50.5h47v-134h-55q-187 0 -267.5 82.5t-80.5 259.5v322q0 177 -191 184v164q191 7 191 184v322q0 177 80.5 259.5t267.5 82.5h55v-133h-47q-114 0 -159.5 -50.5t-45.5 -164.5v-348q0 -206 -184 -230z" />
    <glyph glyph-name="bar" unicode="|" horiz-adv-x="561" 
d="M205 -283v1839h151v-1839h-151z" />
    <glyph glyph-name="braceright" unicode="}" horiz-adv-x="880" 
d="M588 872q0 -177 190 -184v-164q-190 -7 -190 -184v-322q0 -177 -80.5 -259.5t-267.5 -82.5h-56v134h47q114 0 159.5 50.5t45.5 164.5v348q0 101 47 159t138 70v8q-91 12 -138 70.5t-47 159.5v348q0 114 -45.5 164.5t-159.5 50.5h-47v133h56q187 0 267.5 -82.5
t80.5 -259.5v-322z" />
    <glyph glyph-name="asciitilde" unicode="~" horiz-adv-x="1173" 
d="M788 444q-95 0 -198 56l-94 51q-60 31 -111 31q-110 0 -176 -117l-117 84q99 194 293 194q98 0 193 -53l94 -51q56 -33 116 -33q111 0 177 117l116 -84q-100 -195 -293 -195z" />
    <glyph glyph-name="exclamdown" unicode="&#xa1;" horiz-adv-x="569" 
d="M285 817q-58 0 -89.5 33.5t-31.5 89.5q0 57 31 91t90 34q57 0 89 -34t32 -91q0 -55 -32 -89t-89 -34zM190 -387v197l43 782h97l53 -782v-197h-193z" />
    <glyph glyph-name="cent" unicode="&#xa2;" horiz-adv-x="1112" 
d="M1010 537q-14 -156 -105.5 -253t-257.5 -114v-170h-139v170q-198 21 -302 162.5t-104 374.5q0 230 105 373.5t301 164.5v189h139v-189q167 -20 258.5 -121t100.5 -252h-172q-6 87 -54.5 143t-132.5 75v-766q173 35 191 213h172zM276 707q0 -155 56.5 -257t175.5 -126v766
q-118 -24 -175 -127.5t-57 -255.5z" />
    <glyph glyph-name="sterling" unicode="&#xa3;" horiz-adv-x="1230" 
d="M84 0v166q162 3 162 164v309h-164v149h164v267q0 79 30.5 151.5t85.5 128.5t140 89.5t186 33.5q80 0 150.5 -22.5t122.5 -62t89.5 -91t56.5 -111.5t19 -122h-174q0 104 -70.5 180t-197.5 76t-196.5 -70.5t-69.5 -179.5v-267h510v-149h-510v-317q0 -115 -68 -154v-8h799
v-160h-1065z" />
    <glyph glyph-name="currency" unicode="&#xa4;" horiz-adv-x="1216" 
d="M223 -29l-121 121l150 156q-72 112 -72 241q0 135 76 248l-154 158l123 121l154 -160q112 72 237 72q122 0 228 -64l147 152l123 -121l-143 -150q84 -119 84 -256q0 -142 -82 -251l141 -146l-121 -121l-143 148q-108 -68 -234 -68q-130 0 -243 76zM616 199q121 0 202 81
t81 209q0 126 -81 207.5t-202 81.5t-203.5 -81.5t-82.5 -207.5q0 -127 82 -208.5t204 -81.5z" />
    <glyph glyph-name="yen" unicode="&#xa5;" horiz-adv-x="1329" 
d="M1268 1434v-21l-408 -649h270v-166h-374v-182h374v-166h-374v-250h-181v250h-376v166h376v182h-376v166h272l-410 649v21h201l402 -664h8l399 664h197z" />
    <glyph glyph-name="brokenbar" unicode="&#xa6;" horiz-adv-x="561" 
d="M205 823v733h151v-733h-151zM205 -283v734h151v-734h-151z" />
    <glyph glyph-name="section" unicode="&#xa7;" horiz-adv-x="1116" 
d="M549 -502q-170 0 -276 102t-111 265h170q4 -103 62 -161t155 -58q98 0 150.5 47.5t52.5 132.5q0 95 -86 168l-430 350q-71 59 -102.5 125.5t-31.5 151.5q0 90 49.5 161.5t127.5 114.5q-84 97 -84 223q0 148 103 240t269 92q170 0 276 -102t111 -265h-170
q-4 103 -62 161.5t-155 58.5q-94 0 -148 -49t-54 -132q0 -98 86 -168l387 -313q176 -141 176 -313q0 -86 -51 -159.5t-125 -117.5q84 -97 84 -223q0 -151 -100 -241.5t-273 -90.5zM737 147q50 26 79.5 70.5t29.5 93.5q0 109 -92 185l-375 307q-53 -29 -81 -75.5t-28 -100.5
q0 -94 74 -156z" />
    <glyph glyph-name="dieresis" unicode="&#xa8;" horiz-adv-x="788" 
d="M215 1247q-59 0 -89 32t-30 89q0 56 30 87.5t89 31.5q57 0 88 -32t31 -87q0 -56 -30.5 -88.5t-88.5 -32.5zM573 1247q-59 0 -88.5 32t-29.5 89q0 56 30 87.5t88 31.5q57 0 88 -32t31 -87q0 -56 -30.5 -88.5t-88.5 -32.5z" />
    <glyph glyph-name="copyright" unicode="&#xa9;" horiz-adv-x="1679" 
d="M840 1452q206 0 370 -96.5t254.5 -264t91.5 -374.5q-1 -207 -91.5 -374.5t-254.5 -264t-370 -96.5q-155 0 -288.5 56.5t-227 154t-147 233.5t-54.5 291q1 155 54.5 291t147 233.5t227 154t288.5 56.5zM840 113q265 0 421 166.5t158 437.5q-2 271 -158 437.5t-421 166.5
t-421.5 -167t-158.5 -437q2 -270 158.5 -437t421.5 -167zM844 416q89 0 140 43.5t60 122.5h130q-11 -129 -94.5 -205t-233.5 -76q-174 0 -266.5 109.5t-92.5 300.5q0 190 92.5 300.5t264.5 110.5q154 0 236.5 -79t88.5 -205h-129q-6 79 -57.5 123.5t-138.5 44.5
q-115 0 -170.5 -81.5t-55.5 -213.5q0 -133 55.5 -214t170.5 -81z" />
    <glyph glyph-name="ordfeminine" unicode="&#xaa;" horiz-adv-x="788" 
d="M352 606q-109 0 -179.5 64t-70.5 157q0 95 76 159.5t219 64.5q70 0 164 -25v53q0 63 -37 100.5t-116 37.5q-73 0 -111.5 -32t-38.5 -85h-121q0 100 77 164.5t194 64.5q128 0 203 -71.5t75 -174.5v-465h-111l-8 91h-6q-64 -103 -209 -103zM373 717q84 0 136 48t52 124v33
q-86 24 -164 24q-164 0 -164 -119q0 -110 140 -110z" />
    <glyph glyph-name="guillemotleft" unicode="&#xab;" horiz-adv-x="1171" 
d="M422 135l-340 434v21l340 434h156v-20l-287 -424l287 -424v-21h-156zM893 135l-340 434v21l340 434h156v-20l-287 -424l287 -424v-21h-156z" />
    <glyph glyph-name="registered" unicode="&#xae;" horiz-adv-x="970" 
d="M485 610q-180 0 -296.5 119t-116.5 303t116.5 303t296.5 119t297 -119t117 -303t-117 -303t-297 -119zM485 702q143 0 229.5 88t86.5 242t-86.5 242t-229.5 88t-229 -87.5t-86 -242.5t86 -242.5t229 -87.5zM332 813v426h176q68 0 109.5 -36.5t41.5 -94.5q0 -44 -20 -79
t-59 -52l100 -152v-12h-90l-96 152h-72v-152h-90zM422 1044h84q61 0 61 58q0 28 -16.5 42.5t-44.5 14.5h-84v-115z" />
    <glyph glyph-name="macron" unicode="&#xaf;" horiz-adv-x="702" 
d="M72 1264v166h559v-166h-559z" />
    <glyph glyph-name="degree" unicode="&#xb0;" horiz-adv-x="954" 
d="M477 754q-153 0 -253.5 100.5t-100.5 251.5t100.5 251.5t253.5 100.5t253.5 -100.5t100.5 -251.5t-100.5 -251.5t-253.5 -100.5zM477 885q97 0 154 63t57 158t-57 158t-154 63t-154 -63t-57 -158t57 -158t154 -63z" />
    <glyph glyph-name="plusminus" unicode="&#xb1;" horiz-adv-x="974" 
d="M410 430v342h-400v148h400v342h163v-342h392v-148h-392v-342h-163zM10 137v148h955v-148h-955z" />
    <glyph glyph-name="uni00B2" unicode="&#xb2;" horiz-adv-x="825" 
d="M104 518v129l316 314q78 77 105.5 124t27.5 105q0 52 -38 89.5t-107 37.5q-75 0 -113.5 -42.5t-38.5 -96.5h-154q0 115 85 198t221 82q74 0 133 -23.5t95 -62t54.5 -84.5t18.5 -94q0 -80 -38 -149.5t-132 -159.5l-226 -217v-6h410v-144h-619z" />
    <glyph glyph-name="uni00B3" unicode="&#xb3;" horiz-adv-x="851" 
d="M426 506q-150 0 -237 82t-87 207h146q2 -65 50.5 -106.5t127.5 -41.5t122.5 38.5t43.5 109.5q0 64 -44 99.5t-128 35.5h-107v139h105q74 0 112.5 34.5t38.5 98.5q0 50 -39 83.5t-108 33.5q-78 0 -117.5 -38t-42.5 -103h-147q5 128 84 204t227 76q135 1 218 -69.5
t83 -186.5q0 -68 -33 -117.5t-78 -72.5v-8q59 -23 96.5 -78t37.5 -129q0 -131 -88.5 -211t-235.5 -80z" />
    <glyph glyph-name="acute" unicode="&#xb4;" horiz-adv-x="534" 
d="M72 1194v20l155 279h236v-20l-238 -279h-153z" />
    <glyph glyph-name="paragraph" unicode="&#xb6;" horiz-adv-x="1325" 
d="M446 -213v936q-160 0 -272.5 113.5t-112.5 273.5t112.5 272.5t272.5 112.5h674v-141h-141v-1567h-154v1567h-225v-1567h-154z" />
    <glyph glyph-name="periodcentered" unicode="&#xb7;" horiz-adv-x="487" 
d="M244 494q-59 0 -90 33.5t-31 90.5q0 56 31.5 89.5t89.5 33.5q57 0 89 -34t32 -89q0 -57 -32 -90.5t-89 -33.5z" />
    <glyph glyph-name="cedilla" unicode="&#xb8;" horiz-adv-x="614" 
d="M303 -446q-99 0 -165 48t-66 138h123q0 -33 27 -51.5t79 -18.5q40 0 68 17.5t28 50.5q0 29 -24 47t-66 18h-65l-52 64l82 162h146l-74 -123q87 0 143 -46t56 -122q0 -79 -60 -131.5t-180 -52.5z" />
    <glyph glyph-name="uni00B9" unicode="&#xb9;" horiz-adv-x="589" 
d="M334 508v747h-8l-203 -155h-21v155l232 179h153v-926h-153z" />
    <glyph glyph-name="ordmasculine" unicode="&#xba;" horiz-adv-x="847" 
d="M424 606q-156 0 -239 101t-83 260q0 158 84 260t238 102q155 0 238 -101.5t83 -260.5q0 -158 -82 -259.5t-239 -101.5zM424 729q91 0 135.5 61.5t44.5 176.5q0 239 -180 239t-180 -239q0 -238 180 -238z" />
    <glyph glyph-name="guillemotright" unicode="&#xbb;" horiz-adv-x="1171" 
d="M279 135h-156v21l287 424l-287 424v20h156l339 -434v-21zM750 135h-156v21l287 424l-287 424v20h156l340 -434v-21z" />
    <glyph glyph-name="onequarter" unicode="&#xbc;" horiz-adv-x="1824" 
d="M334 508v747h-8l-203 -155h-21v155l232 179h153v-926h-153zM358 0v20l889 1414h158v-21l-885 -1413h-162zM1446 0v195h-422v157l377 574h196v-588h125v-143h-125v-195h-151zM1178 338h268v412h-8l-260 -404v-8z" />
    <glyph glyph-name="onehalf" unicode="&#xbd;" horiz-adv-x="1888" 
d="M334 508v747h-8l-203 -155h-21v155l232 179h153v-926h-153zM358 0v20l889 1414h158v-21l-885 -1413h-162zM1167 0v129l316 313q78 77 105.5 124.5t27.5 105.5q0 51 -38.5 89t-107.5 38q-75 0 -113 -42.5t-38 -97.5h-154q0 115 84.5 198t220.5 83q74 0 133.5 -23.5t95 -62
t54.5 -84.5t19 -94q0 -80 -38 -149.5t-132 -159.5l-226 -217v-7h410v-143h-619z" />
    <glyph glyph-name="threequarters" unicode="&#xbe;" horiz-adv-x="2009" 
d="M426 506q-150 0 -237 82t-87 207h146q2 -65 50.5 -106.5t127.5 -41.5t122.5 38.5t43.5 109.5q0 64 -44 99.5t-128 35.5h-107v139h105q74 0 112.5 34.5t38.5 98.5q0 50 -39 83.5t-108 33.5q-78 0 -117.5 -38t-42.5 -103h-147q5 128 84 204t227 76q135 1 218 -69.5
t83 -186.5q0 -68 -33 -117.5t-78 -72.5v-8q59 -23 96.5 -78t37.5 -129q0 -131 -88.5 -211t-235.5 -80zM543 0v20l889 1414h157v-21l-884 -1413h-162zM1630 0v195h-422v157l377 574h197v-588h125v-143h-125v-195h-152zM1362 338h268v412h-8l-260 -404v-8z" />
    <glyph glyph-name="questiondown" unicode="&#xbf;" horiz-adv-x="1112" 
d="M578 817q-57 0 -89 34t-32 89q0 57 32 91t89 34q58 0 89 -34t31 -91q0 -56 -31 -89.5t-89 -33.5zM551 -408q-192 0 -310 102t-118 269q0 192 156 313l86 68q53 41 76 64t39 60.5t16 90.5v33h163v-33q0 -64 -11 -111t-38 -86t-55.5 -66t-79.5 -67l-65 -51
q-107 -83 -107 -211q0 -98 64 -159.5t184 -61.5q133 0 197.5 71t64.5 189h176q0 -84 -27.5 -157.5t-80 -131.5t-137.5 -91.5t-193 -33.5z" />
    <glyph glyph-name="Agrave" unicode="&#xc0;" horiz-adv-x="1396" 
d="M817 1581h-153l-238 279v20h236l155 -278v-21zM807 1434l528 -1414v-20h-190l-135 375h-627l-135 -375h-187v20l527 1414h219zM440 535h512l-252 700h-8z" />
    <glyph glyph-name="Aacute" unicode="&#xc1;" horiz-adv-x="1396" 
d="M979 1860l-238 -279h-153v21l155 278h236v-20zM807 1434l528 -1414v-20h-190l-135 375h-627l-135 -375h-187v20l527 1414h219zM440 535h512l-252 700h-8z" />
    <glyph glyph-name="Acircumflex" unicode="&#xc2;" horiz-adv-x="1396" 
d="M698 1749l-147 -164h-170v21l209 270h227l209 -270v-21h-172l-147 164h-9zM807 1434l528 -1414v-20h-190l-135 375h-627l-135 -375h-187v20l527 1414h219zM440 535h512l-252 700h-8z" />
    <glyph glyph-name="Atilde" unicode="&#xc3;" horiz-adv-x="1396" 
d="M545 1706q-33 0 -54.5 -24t-21.5 -64h-123v31q0 96 56 148t145 52q67 0 137 -45l29 -18q49 -29 82 -29t54 24.5t21 63.5h121v-30q0 -98 -54.5 -149.5t-143.5 -51.5q-66 0 -136 45l-28 18q-49 29 -84 29zM807 1434l528 -1414v-20h-190l-135 375h-627l-135 -375h-187v20
l527 1414h219zM440 535h512l-252 700h-8z" />
    <glyph glyph-name="Adieresis" unicode="&#xc4;" horiz-adv-x="1396" 
d="M524 1634q-59 0 -88.5 32t-29.5 89q0 56 30 87.5t88 31.5q57 0 88 -32t31 -87q0 -56 -30.5 -88.5t-88.5 -32.5zM883 1634q-59 0 -89 32t-30 89q0 56 30 87.5t89 31.5q57 0 87.5 -32t30.5 -87q0 -57 -30.5 -89t-87.5 -32zM807 1434l528 -1414v-20h-190l-135 375h-627
l-135 -375h-187v20l527 1414h219zM440 535h512l-252 700h-8z" />
    <glyph glyph-name="Aring" unicode="&#xc5;" horiz-adv-x="1396" 
d="M696 1559q-99 0 -163 62.5t-64 160.5q0 99 64 162t163 63q101 0 165.5 -62.5t64.5 -162.5q0 -98 -64.5 -160.5t-165.5 -62.5zM694 1882q-44 0 -70 -28t-26 -72q0 -43 26 -71t70 -28q45 0 73 28t28 71t-28 71.5t-73 28.5zM807 1434l528 -1414v-20h-190l-135 375h-627
l-135 -375h-187v20l527 1414h219zM440 535h512l-252 700h-8z" />
    <glyph glyph-name="AE" unicode="&#xc6;" horiz-adv-x="1863" 
d="M61 0v20l527 1414h1153v-164h-873l168 -449h641v-164h-579l184 -495h459v-162h-596l-135 375h-627l-135 -375h-187zM440 535h512l-252 700h-8z" />
    <glyph glyph-name="Ccedilla" unicode="&#xc7;" horiz-adv-x="1452" 
d="M756 147q170 0 267 83t124 235h182q-28 -214 -159 -340t-357 -141l-47 -78q87 0 143 -46t56 -122q0 -79 -60 -131.5t-180 -52.5q-99 0 -165 48t-66 138h122q0 -33 27.5 -51.5t79.5 -18.5q40 0 68 17.5t28 50.5q0 29 -24 47t-66 18h-65l-52 64l60 119q-176 18 -300.5 115
t-186.5 253.5t-62 360.5q0 338 165.5 537.5t467.5 199.5q254 0 401.5 -133t171.5 -365h-184q-18 155 -115.5 242.5t-273.5 87.5q-97 0 -174.5 -31.5t-128 -85t-84 -127.5t-48 -154.5t-14.5 -170.5t14.5 -170.5t48 -154t84 -127t128 -85t174.5 -31.5z" />
    <glyph glyph-name="Egrave" unicode="&#xc8;" horiz-adv-x="1249" 
d="M645 1581l-237 279v20h235l156 -278v-21h-154zM205 0v1434h921v-164h-743v-449h680v-164h-680v-495h743v-162h-921z" />
    <glyph glyph-name="Eacute" unicode="&#xc9;" horiz-adv-x="1249" 
d="M569 1581v21l156 278h236v-20l-238 -279h-154zM205 0v1434h921v-164h-743v-449h680v-164h-680v-495h743v-162h-921z" />
    <glyph glyph-name="Ecircumflex" unicode="&#xca;" horiz-adv-x="1249" 
d="M362 1585v21l209 270h228l209 -270v-21h-172l-148 164h-8l-148 -164h-170zM205 0v1434h921v-164h-743v-449h680v-164h-680v-495h743v-162h-921z" />
    <glyph glyph-name="Edieresis" unicode="&#xcb;" horiz-adv-x="1249" 
d="M506 1634q-59 0 -89 32t-30 89q0 56 30 87.5t89 31.5q57 0 88 -32t31 -87q0 -56 -30.5 -88.5t-88.5 -32.5zM864 1634q-59 0 -89 32t-30 89q0 56 30 87.5t89 31.5q57 0 88 -32t31 -87q0 -56 -30.5 -88.5t-88.5 -32.5zM205 0v1434h921v-164h-743v-449h680v-164h-680v-495
h743v-162h-921z" />
    <glyph glyph-name="Igrave" unicode="&#xcc;" horiz-adv-x="589" 
d="M262 1581l-237 279v20h235l156 -278v-21h-154zM205 0v1434h180v-1434h-180z" />
    <glyph glyph-name="Iacute" unicode="&#xcd;" horiz-adv-x="589" 
d="M186 1581v21l156 278h236v-20l-238 -279h-154zM205 0v1434h180v-1434h-180z" />
    <glyph glyph-name="Icircumflex" unicode="&#xce;" horiz-adv-x="589" 
d="M-20 1585v21l208 270h228l209 -270v-21h-172l-148 164h-8l-147 -164h-170zM205 0v1434h180v-1434h-180z" />
    <glyph glyph-name="Idieresis" unicode="&#xcf;" horiz-adv-x="589" 
d="M123 1634q-59 0 -89 32t-30 89q0 56 30 87.5t89 31.5q57 0 88 -32t31 -87q0 -56 -30.5 -88.5t-88.5 -32.5zM481 1634q-59 0 -89 32t-30 89q0 56 30 87.5t89 31.5q57 0 88 -32t31 -87q0 -56 -30.5 -88.5t-88.5 -32.5zM205 0v1434h180v-1434h-180z" />
    <glyph glyph-name="Eth" unicode="&#xd0;" horiz-adv-x="1546" 
d="M784 1434q201 0 346 -90t219 -250.5t74 -376.5q0 -152 -40.5 -281t-118 -227t-201 -153.5t-279.5 -55.5h-475v657h-145v166h145v611h475zM766 162q96 0 175.5 29t134 80t92 121.5t54.5 152t17 172.5t-17 172t-54.5 151t-92 121t-134 80t-175.5 29h-279v-447h404v-166
h-404v-495h279z" />
    <glyph glyph-name="Ntilde" unicode="&#xd1;" horiz-adv-x="1521" 
d="M881 1614q-66 0 -136 45l-28 18q-49 29 -84 29q-33 0 -54.5 -24t-21.5 -64h-123v31q0 96 56 148t145 52q67 0 137 -45l29 -18q49 -29 82 -29t54 24.5t21 63.5h121v-30q0 -98 -54.5 -149.5t-143.5 -51.5zM205 0v1434h194l734 -1141h8v1141h176v-1434h-197l-733 1135h-8
v-1135h-174z" />
    <glyph glyph-name="Ograve" unicode="&#xd2;" horiz-adv-x="1515" 
d="M735 1581l-237 279v20h235l156 -278v-21h-154zM758 -18q-130 0 -235.5 37t-179 103.5t-123.5 159t-73.5 201.5t-23.5 234q0 126 23.5 235t73.5 201.5t123.5 158.5t179 103t235.5 37q129 0 234.5 -37t179.5 -103t124 -158.5t73.5 -202t23.5 -234.5t-23.5 -234
t-73.5 -201.5t-124 -159t-179.5 -103.5t-234.5 -37zM758 150q99 0 177 31.5t128.5 84.5t83.5 127t47 154t14 170t-14 170t-47 154t-83.5 127t-128.5 84.5t-177 31.5t-177.5 -31.5t-129 -84.5t-84 -127t-47 -153.5t-13.5 -170.5q0 -90 14 -170t47 -154t84 -127t129 -84.5
t177 -31.5z" />
    <glyph glyph-name="Oacute" unicode="&#xd3;" horiz-adv-x="1515" 
d="M659 1581v21l156 278h236v-20l-238 -279h-154zM758 -18q-130 0 -235.5 37t-179 103.5t-123.5 159t-73.5 201.5t-23.5 234q0 126 23.5 235t73.5 201.5t123.5 158.5t179 103t235.5 37q129 0 234.5 -37t179.5 -103t124 -158.5t73.5 -202t23.5 -234.5t-23.5 -234
t-73.5 -201.5t-124 -159t-179.5 -103.5t-234.5 -37zM758 150q99 0 177 31.5t128.5 84.5t83.5 127t47 154t14 170t-14 170t-47 154t-83.5 127t-128.5 84.5t-177 31.5t-177.5 -31.5t-129 -84.5t-84 -127t-47 -153.5t-13.5 -170.5q0 -90 14 -170t47 -154t84 -127t129 -84.5
t177 -31.5z" />
    <glyph glyph-name="Ocircumflex" unicode="&#xd4;" horiz-adv-x="1515" 
d="M453 1585v21l209 270h227l209 -270v-21h-172l-148 164h-8l-147 -164h-170zM758 -18q-130 0 -235.5 37t-179 103.5t-123.5 159t-73.5 201.5t-23.5 234q0 126 23.5 235t73.5 201.5t123.5 158.5t179 103t235.5 37q129 0 234.5 -37t179.5 -103t124 -158.5t73.5 -202
t23.5 -234.5t-23.5 -234t-73.5 -201.5t-124 -159t-179.5 -103.5t-234.5 -37zM758 150q99 0 177 31.5t128.5 84.5t83.5 127t47 154t14 170t-14 170t-47 154t-83.5 127t-128.5 84.5t-177 31.5t-177.5 -31.5t-129 -84.5t-84 -127t-47 -153.5t-13.5 -170.5q0 -90 14 -170
t47 -154t84 -127t129 -84.5t177 -31.5z" />
    <glyph glyph-name="Otilde" unicode="&#xd5;" horiz-adv-x="1515" 
d="M864 1614q-65 0 -135 45l-29 18q-49 29 -84 29q-33 0 -54 -24t-21 -64h-123v31q0 96 56 148t144 52q68 0 138 -45l28 -18q49 -29 82 -29q34 0 55 25t21 63h121v-30q0 -98 -55 -149.5t-144 -51.5zM758 -18q-130 0 -235.5 37t-179 103.5t-123.5 159t-73.5 201.5t-23.5 234
q0 126 23.5 235t73.5 201.5t123.5 158.5t179 103t235.5 37q129 0 234.5 -37t179.5 -103t124 -158.5t73.5 -202t23.5 -234.5t-23.5 -234t-73.5 -201.5t-124 -159t-179.5 -103.5t-234.5 -37zM758 150q99 0 177 31.5t128.5 84.5t83.5 127t47 154t14 170t-14 170t-47 154
t-83.5 127t-128.5 84.5t-177 31.5t-177.5 -31.5t-129 -84.5t-84 -127t-47 -153.5t-13.5 -170.5q0 -90 14 -170t47 -154t84 -127t129 -84.5t177 -31.5z" />
    <glyph glyph-name="Odieresis" unicode="&#xd6;" horiz-adv-x="1515" 
d="M596 1634q-59 0 -89 32t-30 89q0 56 30 87.5t89 31.5q57 0 88 -32t31 -87q0 -56 -30.5 -88.5t-88.5 -32.5zM954 1634q-59 0 -88.5 32t-29.5 89q0 56 30 87.5t88 31.5q57 0 88 -32t31 -87q0 -56 -30.5 -88.5t-88.5 -32.5zM758 -18q-130 0 -235.5 37t-179 103.5t-123.5 159
t-73.5 201.5t-23.5 234q0 126 23.5 235t73.5 201.5t123.5 158.5t179 103t235.5 37q129 0 234.5 -37t179.5 -103t124 -158.5t73.5 -202t23.5 -234.5t-23.5 -234t-73.5 -201.5t-124 -159t-179.5 -103.5t-234.5 -37zM758 150q99 0 177 31.5t128.5 84.5t83.5 127t47 154t14 170
t-14 170t-47 154t-83.5 127t-128.5 84.5t-177 31.5t-177.5 -31.5t-129 -84.5t-84 -127t-47 -153.5t-13.5 -170.5q0 -90 14 -170t47 -154t84 -127t129 -84.5t177 -31.5z" />
    <glyph glyph-name="multiply" unicode="&#xd7;" horiz-adv-x="841" 
d="M127 240l-111 110l306 297l-306 297l111 111l307 -299l307 299l111 -111l-305 -297l305 -297l-111 -110l-307 299z" />
    <glyph glyph-name="Oslash" unicode="&#xd8;" horiz-adv-x="1515" 
d="M1417 1511v-20l-182 -246q158 -198 158 -528q0 -125 -23.5 -234t-73.5 -201.5t-124 -159t-179.5 -103.5t-234.5 -37q-226 0 -377 110l-125 -170h-158v21l183 245q-158 193 -158 529q0 126 23.5 235t73.5 201.5t123.5 158.5t179 103t235.5 37q226 0 375 -109l122 168h162z
M307 717q0 -228 86 -375l633 858q-108 84 -268 84q-99 0 -177.5 -31.5t-129 -84.5t-84 -127t-47 -153.5t-13.5 -170.5zM1208 717q0 228 -86 375l-635 -856q110 -86 271 -86q99 0 177 31.5t128.5 84.5t83.5 127t47 154t14 170z" />
    <glyph glyph-name="Ugrave" unicode="&#xd9;" horiz-adv-x="1462" 
d="M688 1581l-237 279v20h235l156 -278v-21h-154zM729 -18q-253 0 -399 139t-146 385v928h178v-924q0 -170 93.5 -267.5t273.5 -97.5q183 0 276 97t93 268v924h180v-928q0 -247 -146 -385.5t-403 -138.5z" />
    <glyph glyph-name="Uacute" unicode="&#xda;" horiz-adv-x="1462" 
d="M612 1581v21l156 278h236v-20l-238 -279h-154zM729 -18q-253 0 -399 139t-146 385v928h178v-924q0 -170 93.5 -267.5t273.5 -97.5q183 0 276 97t93 268v924h180v-928q0 -247 -146 -385.5t-403 -138.5z" />
    <glyph glyph-name="Ucircumflex" unicode="&#xdb;" horiz-adv-x="1462" 
d="M406 1585v21l208 270h228l209 -270v-21h-172l-148 164h-8l-148 -164h-169zM729 -18q-253 0 -399 139t-146 385v928h178v-924q0 -170 93.5 -267.5t273.5 -97.5q183 0 276 97t93 268v924h180v-928q0 -247 -146 -385.5t-403 -138.5z" />
    <glyph glyph-name="Udieresis" unicode="&#xdc;" horiz-adv-x="1462" 
d="M549 1634q-59 0 -89 32t-30 89q0 56 30 87.5t89 31.5q57 0 88 -32t31 -87q0 -56 -30.5 -88.5t-88.5 -32.5zM907 1634q-59 0 -89 32t-30 89q0 56 30 87.5t89 31.5q57 0 88 -32t31 -87q0 -56 -30.5 -88.5t-88.5 -32.5zM729 -18q-253 0 -399 139t-146 385v928h178v-924
q0 -170 93.5 -267.5t273.5 -97.5q183 0 276 97t93 268v924h180v-928q0 -247 -146 -385.5t-403 -138.5z" />
    <glyph glyph-name="Yacute" unicode="&#xdd;" horiz-adv-x="1329" 
d="M563 1581v21l156 278h235v-20l-237 -279h-154zM575 0v598l-514 815v21h201l402 -664h8l399 664h197v-21l-512 -815v-598h-181z" />
    <glyph glyph-name="Thorn" unicode="&#xde;" horiz-adv-x="1228" 
d="M205 0v1434h180v-205h348q217 0 345 -125.5t128 -327.5q0 -207 -129 -334t-344 -127h-348v-315h-180zM385 479h326q150 0 230.5 76.5t80.5 220.5q0 137 -83 214t-228 77h-326v-588z" />
    <glyph glyph-name="germandbls" unicode="&#xdf;" horiz-adv-x="1300" 
d="M840 -18q-172 0 -276.5 97t-108.5 267h172q0 -102 57 -156.5t156 -54.5q84 0 134 38.5t50 111.5q0 101 -139 149l-131 45q-138 47 -202.5 106.5t-64.5 168.5q0 59 20.5 104t53.5 72.5t72.5 49.5t79.5 41t73 40t53.5 53t20.5 74q0 85 -63 139.5t-185 54.5
q-128 0 -192 -71.5t-64 -204.5v-1106h-172v1126q0 84 28 157.5t80.5 130t135 89.5t184.5 33q104 0 186.5 -30t132.5 -80.5t76.5 -111t26.5 -126.5q0 -67 -21 -118.5t-54.5 -82t-74 -53t-81.5 -39t-74.5 -33t-54.5 -41.5t-21 -59q0 -15 3 -27.5t11 -23.5t14.5 -19t23 -17.5
t25 -14.5t32.5 -14.5t34.5 -13.5t39.5 -14l88 -30q142 -50 208 -121t66 -182q0 -138 -106 -220.5t-252 -82.5z" />
    <glyph glyph-name="agrave" unicode="&#xe0;" horiz-adv-x="1124" 
d="M522 1194l-237 279v20h235l156 -279v-20h-154zM467 -18q-167 0 -266 91.5t-99 231.5q0 143 108 235.5t325 92.5q122 0 258 -37v104q0 95 -60.5 156.5t-181.5 61.5q-110 0 -170 -53.5t-62 -133.5h-165q0 149 111.5 241.5t285.5 92.5q194 0 302 -102t108 -258v-705h-146
l-12 147h-8q-47 -79 -132.5 -122t-195.5 -43zM498 125q130 0 212.5 82t82.5 199v53q-118 37 -258 37q-127 0 -193 -48.5t-66 -140.5q0 -82 56 -132t166 -50z" />
    <glyph glyph-name="aacute" unicode="&#xe1;" horiz-adv-x="1124" 
d="M446 1194v20l156 279h236v-20l-238 -279h-154zM467 -18q-167 0 -266 91.5t-99 231.5q0 143 108 235.5t325 92.5q122 0 258 -37v104q0 95 -60.5 156.5t-181.5 61.5q-110 0 -170 -53.5t-62 -133.5h-165q0 149 111.5 241.5t285.5 92.5q194 0 302 -102t108 -258v-705h-146
l-12 147h-8q-47 -79 -132.5 -122t-195.5 -43zM498 125q130 0 212.5 82t82.5 199v53q-118 37 -258 37q-127 0 -193 -48.5t-66 -140.5q0 -82 56 -132t166 -50z" />
    <glyph glyph-name="acircumflex" unicode="&#xe2;" horiz-adv-x="1124" 
d="M240 1198v21l209 270h227l209 -270v-21h-172l-148 164h-8l-147 -164h-170zM467 -18q-167 0 -266 91.5t-99 231.5q0 143 108 235.5t325 92.5q122 0 258 -37v104q0 95 -60.5 156.5t-181.5 61.5q-110 0 -170 -53.5t-62 -133.5h-165q0 149 111.5 241.5t285.5 92.5
q194 0 302 -102t108 -258v-705h-146l-12 147h-8q-47 -79 -132.5 -122t-195.5 -43zM498 125q130 0 212.5 82t82.5 199v53q-118 37 -258 37q-127 0 -193 -48.5t-66 -140.5q0 -82 56 -132t166 -50z" />
    <glyph glyph-name="atilde" unicode="&#xe3;" horiz-adv-x="1124" 
d="M651 1227q-65 0 -135 45l-29 18q-49 29 -84 29q-33 0 -54 -24t-21 -64h-123v31q0 96 56 148t145 52q67 0 137 -45l28 -18q49 -29 82 -29q34 0 55 25t21 63h121v-31q0 -98 -55 -149t-144 -51zM467 -18q-167 0 -266 91.5t-99 231.5q0 143 108 235.5t325 92.5q122 0 258 -37
v104q0 95 -60.5 156.5t-181.5 61.5q-110 0 -170 -53.5t-62 -133.5h-165q0 149 111.5 241.5t285.5 92.5q194 0 302 -102t108 -258v-705h-146l-12 147h-8q-47 -79 -132.5 -122t-195.5 -43zM498 125q130 0 212.5 82t82.5 199v53q-118 37 -258 37q-127 0 -193 -48.5t-66 -140.5
q0 -82 56 -132t166 -50z" />
    <glyph glyph-name="adieresis" unicode="&#xe4;" horiz-adv-x="1124" 
d="M383 1247q-59 0 -89 32t-30 89q0 56 30 87.5t89 31.5q57 0 88 -32t31 -87q0 -56 -30.5 -88.5t-88.5 -32.5zM741 1247q-59 0 -88.5 32t-29.5 89q0 56 30 87.5t88 31.5q57 0 88 -32t31 -87q0 -56 -30.5 -88.5t-88.5 -32.5zM467 -18q-167 0 -266 91.5t-99 231.5
q0 143 108 235.5t325 92.5q122 0 258 -37v104q0 95 -60.5 156.5t-181.5 61.5q-110 0 -170 -53.5t-62 -133.5h-165q0 149 111.5 241.5t285.5 92.5q194 0 302 -102t108 -258v-705h-146l-12 147h-8q-47 -79 -132.5 -122t-195.5 -43zM498 125q130 0 212.5 82t82.5 199v53
q-118 37 -258 37q-127 0 -193 -48.5t-66 -140.5q0 -82 56 -132t166 -50z" />
    <glyph glyph-name="aring" unicode="&#xe5;" horiz-adv-x="1124" 
d="M555 1171q-99 0 -163 63t-64 161q0 99 64 162t163 63q101 0 165 -62.5t64 -162.5q0 -98 -64 -161t-165 -63zM553 1296q45 0 72.5 28t27.5 71t-27.5 71.5t-72.5 28.5q-44 0 -70 -28t-26 -72q0 -43 26 -71t70 -28zM467 -18q-167 0 -266 91.5t-99 231.5q0 143 108 235.5
t325 92.5q122 0 258 -37v104q0 95 -60.5 156.5t-181.5 61.5q-110 0 -170 -53.5t-62 -133.5h-165q0 149 111.5 241.5t285.5 92.5q194 0 302 -102t108 -258v-705h-146l-12 147h-8q-47 -79 -132.5 -122t-195.5 -43zM498 125q130 0 212.5 82t82.5 199v53q-118 37 -258 37
q-127 0 -193 -48.5t-66 -140.5q0 -82 56 -132t166 -50z" />
    <glyph glyph-name="ae" unicode="&#xe6;" horiz-adv-x="1806" 
d="M467 -18q-167 0 -266 91.5t-99 231.5q0 143 108 235.5t325 92.5q122 0 258 -37v104q0 95 -60.5 156.5t-181.5 61.5q-110 0 -170 -53.5t-62 -133.5h-165q0 149 111.5 241.5t285.5 92.5q234 0 346 -160h8q121 160 346 160q144 0 247.5 -67.5t154.5 -181.5t51 -261v-84h-746
q0 -154 76 -245t219 -91q104 0 174 43t91 125h172q-22 -143 -145 -232t-292 -89q-264 0 -381 213h-8q-26 -53 -73 -98.5t-132.5 -80t-191.5 -34.5zM961 614h565q0 131 -70.5 214t-204.5 83q-140 0 -212.5 -82.5t-77.5 -214.5zM498 125q130 0 212.5 82t82.5 199v53
q-118 37 -258 37q-127 0 -193 -48.5t-66 -140.5q0 -82 56 -132t166 -50z" />
    <glyph glyph-name="ccedilla" unicode="&#xe7;" horiz-adv-x="1112" 
d="M1010 352q-14 -162 -111 -259t-274 -109l-47 -78q87 0 142.5 -46t55.5 -122q0 -79 -59.5 -131.5t-179.5 -52.5q-99 0 -165.5 48t-66.5 138h123q0 -33 27.5 -51.5t79.5 -18.5q40 0 68 17.5t28 50.5q0 29 -24 47t-66 18h-66l-51 64l61 121q-186 29 -284.5 169.5
t-98.5 364.5q0 250 122.5 396.5t350.5 146.5q201 0 310.5 -104.5t120.5 -272.5h-172q-8 104 -76.5 163.5t-182.5 59.5q-78 0 -137 -30t-93.5 -84t-51.5 -123t-17 -152q0 -176 73 -282.5t226 -106.5q116 0 184 57t79 162h172z" />
    <glyph glyph-name="egrave" unicode="&#xe8;" horiz-adv-x="1130" 
d="M543 1194l-238 279v20h236l155 -279v-20h-153zM578 -18q-150 0 -259.5 71.5t-163 192.5t-53.5 276q0 116 29 213t85.5 171.5t148.5 116.5t210 42q144 0 247.5 -67.5t154.5 -181.5t51 -261v-84h-745q0 -154 76 -245t219 -91q104 0 173.5 43t90.5 125h172
q-22 -143 -144.5 -232t-291.5 -89zM285 614h565q0 131 -70.5 214t-204.5 83q-140 0 -212.5 -82.5t-77.5 -214.5z" />
    <glyph glyph-name="eacute" unicode="&#xe9;" horiz-adv-x="1130" 
d="M467 1194v20l156 279h235v-20l-237 -279h-154zM578 -18q-150 0 -259.5 71.5t-163 192.5t-53.5 276q0 116 29 213t85.5 171.5t148.5 116.5t210 42q144 0 247.5 -67.5t154.5 -181.5t51 -261v-84h-745q0 -154 76 -245t219 -91q104 0 173.5 43t90.5 125h172
q-22 -143 -144.5 -232t-291.5 -89zM285 614h565q0 131 -70.5 214t-204.5 83q-140 0 -212.5 -82.5t-77.5 -214.5z" />
    <glyph glyph-name="ecircumflex" unicode="&#xea;" horiz-adv-x="1130" 
d="M260 1198v21l209 270h227l209 -270v-21h-172l-147 164h-8l-148 -164h-170zM578 -18q-150 0 -259.5 71.5t-163 192.5t-53.5 276q0 116 29 213t85.5 171.5t148.5 116.5t210 42q144 0 247.5 -67.5t154.5 -181.5t51 -261v-84h-745q0 -154 76 -245t219 -91q104 0 173.5 43
t90.5 125h172q-22 -143 -144.5 -232t-291.5 -89zM285 614h565q0 131 -70.5 214t-204.5 83q-140 0 -212.5 -82.5t-77.5 -214.5z" />
    <glyph glyph-name="edieresis" unicode="&#xeb;" horiz-adv-x="1130" 
d="M403 1247q-59 0 -88.5 32t-29.5 89q0 56 30 87.5t88 31.5q57 0 88 -32t31 -87q0 -56 -30.5 -88.5t-88.5 -32.5zM762 1247q-59 0 -89 32t-30 89q0 56 30 87.5t89 31.5q57 0 88 -32t31 -87q0 -56 -30.5 -88.5t-88.5 -32.5zM578 -18q-150 0 -259.5 71.5t-163 192.5
t-53.5 276q0 116 29 213t85.5 171.5t148.5 116.5t210 42q144 0 247.5 -67.5t154.5 -181.5t51 -261v-84h-745q0 -154 76 -245t219 -91q104 0 173.5 43t90.5 125h172q-22 -143 -144.5 -232t-291.5 -89zM285 614h565q0 131 -70.5 214t-204.5 83q-140 0 -212.5 -82.5
t-77.5 -214.5z" />
    <glyph glyph-name="igrave" unicode="&#xec;" horiz-adv-x="520" 
d="M238 1194l-238 279v20h236l155 -279v-20h-153zM184 0v1047h172v-1047h-172z" />
    <glyph glyph-name="iacute" unicode="&#xed;" horiz-adv-x="520" 
d="M162 1194v20l155 279h236v-20l-238 -279h-153zM184 0v1047h172v-1047h-172z" />
    <glyph glyph-name="icircumflex" unicode="&#xee;" horiz-adv-x="520" 
d="M-45 1198v21l209 270h227l209 -270v-21h-172l-147 164h-9l-147 -164h-170zM184 0v1047h172v-1047h-172z" />
    <glyph glyph-name="idieresis" unicode="&#xef;" horiz-adv-x="520" 
d="M98 1247q-59 0 -88.5 32t-29.5 89q0 56 30 87.5t88 31.5q57 0 88 -32t31 -87q0 -56 -30.5 -88.5t-88.5 -32.5zM457 1247q-59 0 -89 32t-30 89q0 56 30 87.5t89 31.5q57 0 87.5 -32t30.5 -87q0 -57 -30.5 -89t-87.5 -32zM184 0v1047h172v-1047h-172z" />
    <glyph glyph-name="eth" unicode="&#xf0;" horiz-adv-x="1150" 
d="M1049 524v-2q0 -115 -28.5 -211t-85 -170.5t-148.5 -116.5t-212 -42t-212 41.5t-148 116t-84.5 171t-28.5 211.5t29 212t85.5 172t148.5 117t210 42q50 0 105 -10q-71 89 -160 172l-213 -125l-71 110l178 107q-134 105 -264 176v21h219q104 -61 178 -119l194 114l72 -112
l-158 -92q151 -137 250 -299.5t129 -335.5q15 -70 15 -148zM575 135q153 0 226 104t73 283q0 87 -17 156.5t-52 122t-93.5 81.5t-136.5 29q-152 0 -225.5 -105.5t-73.5 -283.5t73.5 -282.5t225.5 -104.5z" />
    <glyph glyph-name="ntilde" unicode="&#xf1;" horiz-adv-x="1210" 
d="M754 1227q-66 0 -136 45l-28 18q-49 29 -84 29q-33 0 -54.5 -24t-21.5 -64h-123v31q0 96 56 148t145 52q67 0 137 -45l29 -18q49 -29 82 -29t54 24.5t21 63.5h121v-31q0 -98 -54.5 -149t-143.5 -51zM184 0v1047h150l14 -164h8q43 84 125 133t199 49q173 0 270 -102.5
t97 -282.5v-680h-173v653q0 258 -241 258q-131 0 -204 -87.5t-73 -245.5v-578h-172z" />
    <glyph glyph-name="ograve" unicode="&#xf2;" horiz-adv-x="1150" 
d="M543 1194l-238 279v20h236l155 -279v-20h-153zM575 -18q-120 0 -212 41.5t-148 116t-84.5 171t-28.5 211.5t29 212t85.5 172t148.5 117t210 42t210 -42t149 -117t86 -172t29 -212t-28.5 -211t-85 -170.5t-148.5 -116.5t-212 -42zM575 135q153 0 226 104t73 283
q0 87 -17 156.5t-52 122t-93.5 81.5t-136.5 29q-152 0 -225.5 -105.5t-73.5 -283.5t73.5 -282.5t225.5 -104.5z" />
    <glyph glyph-name="oacute" unicode="&#xf3;" horiz-adv-x="1150" 
d="M467 1194v20l156 279h235v-20l-237 -279h-154zM575 -18q-120 0 -212 41.5t-148 116t-84.5 171t-28.5 211.5t29 212t85.5 172t148.5 117t210 42t210 -42t149 -117t86 -172t29 -212t-28.5 -211t-85 -170.5t-148.5 -116.5t-212 -42zM575 135q153 0 226 104t73 283
q0 87 -17 156.5t-52 122t-93.5 81.5t-136.5 29q-152 0 -225.5 -105.5t-73.5 -283.5t73.5 -282.5t225.5 -104.5z" />
    <glyph glyph-name="ocircumflex" unicode="&#xf4;" horiz-adv-x="1150" 
d="M260 1198v21l209 270h227l209 -270v-21h-172l-147 164h-8l-148 -164h-170zM575 -18q-120 0 -212 41.5t-148 116t-84.5 171t-28.5 211.5t29 212t85.5 172t148.5 117t210 42t210 -42t149 -117t86 -172t29 -212t-28.5 -211t-85 -170.5t-148.5 -116.5t-212 -42zM575 135
q153 0 226 104t73 283q0 87 -17 156.5t-52 122t-93.5 81.5t-136.5 29q-152 0 -225.5 -105.5t-73.5 -283.5t73.5 -282.5t225.5 -104.5z" />
    <glyph glyph-name="otilde" unicode="&#xf5;" horiz-adv-x="1150" 
d="M672 1227q-65 0 -135 45l-29 18q-49 29 -84 29q-33 0 -54.5 -24t-21.5 -64h-123v31q0 96 56 148t145 52q67 0 137 -45l29 -18q49 -29 82 -29q34 0 55 25t21 63h120v-31q0 -98 -54.5 -149t-143.5 -51zM575 -18q-120 0 -212 41.5t-148 116t-84.5 171t-28.5 211.5t29 212
t85.5 172t148.5 117t210 42t210 -42t149 -117t86 -172t29 -212t-28.5 -211t-85 -170.5t-148.5 -116.5t-212 -42zM575 135q153 0 226 104t73 283q0 87 -17 156.5t-52 122t-93.5 81.5t-136.5 29q-152 0 -225.5 -105.5t-73.5 -283.5t73.5 -282.5t225.5 -104.5z" />
    <glyph glyph-name="odieresis" unicode="&#xf6;" horiz-adv-x="1150" 
d="M403 1247q-59 0 -88.5 32t-29.5 89q0 56 30 87.5t88 31.5q57 0 88 -32t31 -87q0 -56 -30.5 -88.5t-88.5 -32.5zM762 1247q-59 0 -89 32t-30 89q0 56 30 87.5t89 31.5q57 0 88 -32t31 -87q0 -56 -30.5 -88.5t-88.5 -32.5zM575 -18q-120 0 -212 41.5t-148 116t-84.5 171
t-28.5 211.5t29 212t85.5 172t148.5 117t210 42t210 -42t149 -117t86 -172t29 -212t-28.5 -211t-85 -170.5t-148.5 -116.5t-212 -42zM575 135q153 0 226 104t73 283q0 87 -17 156.5t-52 122t-93.5 81.5t-136.5 29q-152 0 -225.5 -105.5t-73.5 -283.5t73.5 -282.5
t225.5 -104.5z" />
    <glyph glyph-name="divide" unicode="&#xf7;" horiz-adv-x="974" 
d="M487 856q-59 0 -89.5 33t-30.5 90q0 56 31 88.5t89 32.5q57 0 89 -33t32 -88q0 -56 -31.5 -89.5t-89.5 -33.5zM10 567v148h955v-148h-955zM487 182q-59 0 -89.5 33t-30.5 90q0 56 31 88.5t89 32.5q57 0 89 -33t32 -88q0 -56 -31.5 -89.5t-89.5 -33.5z" />
    <glyph glyph-name="oslash" unicode="&#xf8;" horiz-adv-x="1150" 
d="M1049 1124v-20l-125 -186q125 -146 125 -396q0 -115 -28.5 -211t-85 -170.5t-148.5 -116.5t-212 -42q-143 0 -243 59l-80 -119h-150v21l123 184q-123 143 -123 395q0 115 29 212t85.5 172t148.5 117t210 42q140 0 242 -57l78 116h154zM276 522q0 -148 52 -246l399 598
q-61 37 -152 37q-152 0 -225.5 -105.5t-73.5 -283.5zM874 522q0 152 -51 248l-401 -596q64 -39 153 -39q153 0 226 104t73 283z" />
    <glyph glyph-name="ugrave" unicode="&#xf9;" horiz-adv-x="1183" 
d="M719 1194h-154l-237 279v20h235l156 -279v-20zM848 1047h172v-666q0 -179 -118.5 -288t-309.5 -109t-309.5 109t-118.5 288v666h172v-637q0 -273 256 -273t256 273v637z" />
    <glyph glyph-name="uacute" unicode="&#xfa;" horiz-adv-x="1183" 
d="M881 1473l-238 -279h-154v20l156 279h236v-20zM848 1047h172v-666q0 -179 -118.5 -288t-309.5 -109t-309.5 109t-118.5 288v666h172v-637q0 -273 256 -273t256 273v637z" />
    <glyph glyph-name="ucircumflex" unicode="&#xfb;" horiz-adv-x="1183" 
d="M600 1362l-147 -164h-170v21l209 270h227l209 -270v-21h-172l-148 164h-8zM848 1047h172v-666q0 -179 -118.5 -288t-309.5 -109t-309.5 109t-118.5 288v666h172v-637q0 -273 256 -273t256 273v637z" />
    <glyph glyph-name="udieresis" unicode="&#xfc;" horiz-adv-x="1183" 
d="M426 1247q-59 0 -89 32t-30 89q0 56 30 87.5t89 31.5q57 0 88 -32t31 -87q0 -56 -30.5 -88.5t-88.5 -32.5zM784 1247q-59 0 -88.5 32t-29.5 89q0 56 30 87.5t88 31.5q57 0 88 -32t31 -87q0 -56 -30.5 -88.5t-88.5 -32.5zM848 1047h172v-666q0 -179 -118.5 -288
t-309.5 -109t-309.5 109t-118.5 288v666h172v-637q0 -273 256 -273t256 273v637z" />
    <glyph glyph-name="yacute" unicode="&#xfd;" horiz-adv-x="1079" 
d="M442 1194v20l156 279h236v-20l-238 -279h-154zM285 -469v20l178 457l-2 4l-420 1014v21h184l318 -822h8l307 822h180v-21l-579 -1495h-174z" />
    <glyph glyph-name="thorn" unicode="&#xfe;" horiz-adv-x="1228" 
d="M680 1065q206 0 324.5 -145t119.5 -398q-1 -117 -29.5 -215t-82.5 -171t-139 -113.5t-193 -40.5q-111 0 -191 44.5t-124 118.5h-9v-614h-172v1985h172v-615h9q44 74 124 119t191 45zM651 135q79 0 138 30.5t93.5 85t51 122.5t16.5 149q0 82 -16.5 150.5t-51 123t-93.5 85
t-138 30.5q-76 0 -134.5 -31t-94 -85.5t-53 -123.5t-17.5 -149q0 -167 75.5 -277t223.5 -110z" />
    <glyph glyph-name="ydieresis" unicode="&#xff;" horiz-adv-x="1079" 
d="M379 1247q-59 0 -89 32t-30 89q0 56 30 87.5t89 31.5q57 0 88 -32t31 -87q0 -56 -30.5 -88.5t-88.5 -32.5zM737 1247q-59 0 -89 32t-30 89q0 56 30 87.5t89 31.5q57 0 88 -32t31 -87q0 -56 -30.5 -88.5t-88.5 -32.5zM285 -469v20l178 457l-2 4l-420 1014v21h184l318 -822
h8l307 822h180v-21l-579 -1495h-174z" />
    <glyph glyph-name="Amacron" unicode="&#x100;" horiz-adv-x="1396" 
d="M981 1817v-166h-559v166h559zM807 1434l528 -1414v-20h-190l-135 375h-627l-135 -375h-187v20l527 1414h219zM440 535h512l-252 700h-8z" />
    <glyph glyph-name="amacron" unicode="&#x101;" horiz-adv-x="1124" 
d="M281 1264v166h559v-166h-559zM467 -18q-167 0 -266 91.5t-99 231.5q0 143 108 235.5t325 92.5q122 0 258 -37v104q0 95 -60.5 156.5t-181.5 61.5q-110 0 -170 -53.5t-62 -133.5h-165q0 149 111.5 241.5t285.5 92.5q194 0 302 -102t108 -258v-705h-146l-12 147h-8
q-47 -79 -132.5 -122t-195.5 -43zM498 125q130 0 212.5 82t82.5 199v53q-118 37 -258 37q-127 0 -193 -48.5t-66 -140.5q0 -82 56 -132t166 -50z" />
    <glyph glyph-name="Abreve" unicode="&#x102;" horiz-adv-x="1396" 
d="M696 1585q-141 0 -220 80.5t-79 210.5h150q7 -133 149 -133q74 0 110.5 36.5t39.5 96.5h149q0 -131 -77 -211t-222 -80zM807 1434l528 -1414v-20h-190l-135 375h-627l-135 -375h-187v20l527 1414h219zM440 535h512l-252 700h-8z" />
    <glyph glyph-name="abreve" unicode="&#x103;" horiz-adv-x="1124" 
d="M555 1198q-141 0 -220 80.5t-79 210.5h150q7 -133 149 -133q74 0 110.5 36.5t39.5 96.5h149q0 -131 -77 -211t-222 -80zM467 -18q-167 0 -266 91.5t-99 231.5q0 143 108 235.5t325 92.5q122 0 258 -37v104q0 95 -60.5 156.5t-181.5 61.5q-110 0 -170 -53.5t-62 -133.5
h-165q0 149 111.5 241.5t285.5 92.5q194 0 302 -102t108 -258v-705h-146l-12 147h-8q-47 -79 -132.5 -122t-195.5 -43zM498 125q130 0 212.5 82t82.5 199v53q-118 37 -258 37q-127 0 -193 -48.5t-66 -140.5q0 -82 56 -132t166 -50z" />
    <glyph glyph-name="Aogonek" unicode="&#x104;" horiz-adv-x="1396" 
d="M1335 0q-174 -83 -174 -199q0 -49 31.5 -72.5t77.5 -23.5q33 0 65 8v-139q-43 -16 -102 -16q-99 0 -167.5 55.5t-68.5 150.5q0 148 148 236l-135 375h-627l-135 -375h-187v20l527 1414h219l528 -1414v-20zM440 535h512l-252 700h-8z" />
    <glyph glyph-name="aogonek" unicode="&#x105;" horiz-adv-x="1124" 
d="M961 0q-175 -83 -175 -199q0 -49 31.5 -72.5t77.5 -23.5q34 0 66 8v-139q-43 -16 -103 -16q-99 0 -167 55.5t-68 150.5q0 168 190 261l-10 122h-8q-47 -79 -132.5 -122t-195.5 -43q-167 0 -266 91.5t-99 231.5q0 143 108 235.5t325 92.5q122 0 258 -37v104
q0 95 -60.5 156.5t-181.5 61.5q-110 0 -170 -53.5t-62 -133.5h-165q0 149 111.5 241.5t285.5 92.5q194 0 302 -102t108 -258v-705zM793 406v53q-118 37 -258 37q-127 0 -193 -48.5t-66 -140.5q0 -82 56 -132t166 -50q130 0 212.5 82t82.5 199z" />
    <glyph glyph-name="Cacute" unicode="&#x106;" horiz-adv-x="1452" 
d="M647 1581v21l156 278h235v-20l-237 -279h-154zM756 -18q-203 0 -347 93t-215 256.5t-71 383.5q0 338 165.5 537.5t467.5 199.5q254 0 401.5 -133t171.5 -365h-184q-18 155 -115.5 242.5t-273.5 87.5q-97 0 -174.5 -31.5t-128 -85t-84 -127.5t-48 -154.5t-14.5 -170.5
t14.5 -170.5t48 -154t84 -127t128 -85t174.5 -31.5q170 0 267 83t124 235h182q-30 -227 -175.5 -355t-397.5 -128z" />
    <glyph glyph-name="cacute" unicode="&#x107;" horiz-adv-x="1112" 
d="M469 1194v20l156 279h235v-20l-237 -279h-154zM578 -18q-231 0 -353.5 144t-122.5 396q0 250 122.5 396.5t350.5 146.5q201 0 310.5 -104.5t120.5 -272.5h-172q-8 104 -76.5 163.5t-182.5 59.5q-78 0 -137 -30t-93.5 -84t-51.5 -123t-17 -152q0 -176 73 -282.5
t226 -106.5q116 0 184 57t79 162h172q-16 -172 -125 -271t-307 -99z" />
    <glyph glyph-name="Ccircumflex" unicode="&#x108;" horiz-adv-x="1452" 
d="M440 1585v21l209 270h228l208 -270v-21h-172l-147 164h-8l-148 -164h-170zM756 -18q-203 0 -347 93t-215 256.5t-71 383.5q0 338 165.5 537.5t467.5 199.5q254 0 401.5 -133t171.5 -365h-184q-18 155 -115.5 242.5t-273.5 87.5q-97 0 -174.5 -31.5t-128 -85t-84 -127.5
t-48 -154.5t-14.5 -170.5t14.5 -170.5t48 -154t84 -127t128 -85t174.5 -31.5q170 0 267 83t124 235h182q-30 -227 -175.5 -355t-397.5 -128z" />
    <glyph glyph-name="ccircumflex" unicode="&#x109;" horiz-adv-x="1112" 
d="M262 1198v21l209 270h227l209 -270v-21h-172l-147 164h-8l-148 -164h-170zM578 -18q-231 0 -353.5 144t-122.5 396q0 250 122.5 396.5t350.5 146.5q201 0 310.5 -104.5t120.5 -272.5h-172q-8 104 -76.5 163.5t-182.5 59.5q-78 0 -137 -30t-93.5 -84t-51.5 -123t-17 -152
q0 -176 73 -282.5t226 -106.5q116 0 184 57t79 162h172q-16 -172 -125 -271t-307 -99z" />
    <glyph glyph-name="Cdotaccent" unicode="&#x10a;" horiz-adv-x="1452" 
d="M756 1634q-59 0 -89 32t-30 89q0 56 30 87.5t89 31.5q57 0 87.5 -32t30.5 -87q0 -57 -30.5 -89t-87.5 -32zM756 -18q-203 0 -347 93t-215 256.5t-71 383.5q0 338 165.5 537.5t467.5 199.5q254 0 401.5 -133t171.5 -365h-184q-18 155 -115.5 242.5t-273.5 87.5
q-97 0 -174.5 -31.5t-128 -85t-84 -127.5t-48 -154.5t-14.5 -170.5t14.5 -170.5t48 -154t84 -127t128 -85t174.5 -31.5q170 0 267 83t124 235h182q-30 -227 -175.5 -355t-397.5 -128z" />
    <glyph glyph-name="cdotaccent" unicode="&#x10b;" horiz-adv-x="1112" 
d="M578 1247q-59 0 -89 32t-30 89q0 56 30 87.5t89 31.5q57 0 87.5 -32t30.5 -87q0 -57 -30.5 -89t-87.5 -32zM578 -18q-231 0 -353.5 144t-122.5 396q0 250 122.5 396.5t350.5 146.5q201 0 310.5 -104.5t120.5 -272.5h-172q-8 104 -76.5 163.5t-182.5 59.5q-78 0 -137 -30
t-93.5 -84t-51.5 -123t-17 -152q0 -176 73 -282.5t226 -106.5q116 0 184 57t79 162h172q-16 -172 -125 -271t-307 -99z" />
    <glyph glyph-name="Ccaron" unicode="&#x10c;" horiz-adv-x="1452" 
d="M643 1585l-209 270v21h170l148 -164h8l147 164h172v-21l-209 -270h-227zM756 -18q-203 0 -347 93t-215 256.5t-71 383.5q0 338 165.5 537.5t467.5 199.5q254 0 401.5 -133t171.5 -365h-184q-18 155 -115.5 242.5t-273.5 87.5q-97 0 -174.5 -31.5t-128 -85t-84 -127.5
t-48 -154.5t-14.5 -170.5t14.5 -170.5t48 -154t84 -127t128 -85t174.5 -31.5q170 0 267 83t124 235h182q-30 -227 -175.5 -355t-397.5 -128z" />
    <glyph glyph-name="ccaron" unicode="&#x10d;" horiz-adv-x="1112" 
d="M465 1198l-209 270v21h170l147 -164h9l147 164h172v-21l-209 -270h-227zM578 -18q-231 0 -353.5 144t-122.5 396q0 250 122.5 396.5t350.5 146.5q201 0 310.5 -104.5t120.5 -272.5h-172q-8 104 -76.5 163.5t-182.5 59.5q-78 0 -137 -30t-93.5 -84t-51.5 -123t-17 -152
q0 -176 73 -282.5t226 -106.5q116 0 184 57t79 162h172q-16 -172 -125 -271t-307 -99z" />
    <glyph glyph-name="Dcaron" unicode="&#x10e;" horiz-adv-x="1441" 
d="M524 1585l-209 270v21h170l148 -164h8l147 164h173v-21l-209 -270h-228zM205 0v1434h475q201 0 346 -90t219 -250.5t74 -376.5q0 -152 -40.5 -281t-118 -227t-201 -153.5t-279.5 -55.5h-475zM383 162h279q96 0 175.5 29t134 80t92 121.5t54.5 152t17 172.5t-17 172
t-54.5 151t-92 121t-134 80t-175.5 29h-279v-1108z" />
    <glyph glyph-name="dcaron" unicode="&#x10f;" 
d="M547 -18q-206 0 -325 144.5t-120 397.5q1 157 49.5 277.5t150.5 192t245 71.5q111 0 191 -45t124 -119h8v615h172v-1516h-149l-23 145h-8q-44 -74 -124 -118.5t-191 -44.5zM1157 1167v349h193v-21l-72 -328h-121zM575 135q76 0 134.5 31t94 85.5t53 123.5t17.5 149
q0 167 -75.5 277t-223.5 110q-79 0 -138 -30.5t-93.5 -85t-51 -122.5t-16.5 -149q0 -82 16.5 -150.5t51 -123t93.5 -85t138 -30.5z" />
    <glyph glyph-name="Dcroat" unicode="&#x110;" horiz-adv-x="1546" 
d="M784 1434q201 0 346 -90t219 -250.5t74 -376.5q0 -152 -40.5 -281t-118 -227t-201 -153.5t-279.5 -55.5h-475v657h-145v166h145v611h475zM766 162q96 0 175.5 29t134 80t92 121.5t54.5 152t17 172.5t-17 172t-54.5 151t-92 121t-134 80t-175.5 29h-279v-447h404v-166
h-404v-495h279z" />
    <glyph glyph-name="dcroat" unicode="&#x111;" 
d="M1180 1362v-133h-138v-1229h-149l-23 145h-8q-44 -74 -124 -118.5t-191 -44.5q-206 0 -325 144.5t-120 397.5q1 157 49.5 277.5t150.5 192t245 71.5q111 0 191 -45t124 -119h8v328h-231v133h231v154h172v-154h138zM575 135q76 0 134.5 31t94 85.5t53 123.5t17.5 149
q0 167 -75.5 277t-223.5 110q-79 0 -138 -30.5t-93.5 -85t-51 -122.5t-16.5 -149q0 -82 16.5 -150.5t51 -123t93.5 -85t138 -30.5z" />
    <glyph glyph-name="Emacron" unicode="&#x112;" horiz-adv-x="1249" 
d="M403 1651v166h560v-166h-560zM205 0v1434h921v-164h-743v-449h680v-164h-680v-495h743v-162h-921z" />
    <glyph glyph-name="emacron" unicode="&#x113;" horiz-adv-x="1130" 
d="M301 1264v166h559v-166h-559zM578 -18q-150 0 -259.5 71.5t-163 192.5t-53.5 276q0 116 29 213t85.5 171.5t148.5 116.5t210 42q144 0 247.5 -67.5t154.5 -181.5t51 -261v-84h-745q0 -154 76 -245t219 -91q104 0 173.5 43t90.5 125h172q-22 -143 -144.5 -232t-291.5 -89z
M285 614h565q0 131 -70.5 214t-204.5 83q-140 0 -212.5 -82.5t-77.5 -214.5z" />
    <glyph glyph-name="Ebreve" unicode="&#x114;" horiz-adv-x="1249" 
d="M678 1585q-141 0 -220 80.5t-79 210.5h149q3 -61 39.5 -97t110.5 -36t110 36.5t39 96.5h150q0 -131 -77 -211t-222 -80zM205 0v1434h921v-164h-743v-449h680v-164h-680v-495h743v-162h-921z" />
    <glyph glyph-name="ebreve" unicode="&#x115;" horiz-adv-x="1130" 
d="M575 1198q-141 0 -220 80.5t-79 210.5h150q7 -133 149 -133q74 0 110.5 36.5t39.5 96.5h149q0 -131 -77 -211t-222 -80zM578 -18q-150 0 -259.5 71.5t-163 192.5t-53.5 276q0 116 29 213t85.5 171.5t148.5 116.5t210 42q144 0 247.5 -67.5t154.5 -181.5t51 -261v-84h-745
q0 -154 76 -245t219 -91q104 0 173.5 43t90.5 125h172q-22 -143 -144.5 -232t-291.5 -89zM285 614h565q0 131 -70.5 214t-204.5 83q-140 0 -212.5 -82.5t-77.5 -214.5z" />
    <glyph glyph-name="Edotaccent" unicode="&#x116;" horiz-adv-x="1249" 
d="M678 1634q-59 0 -89 32t-30 89q0 56 30 87.5t89 31.5q57 0 88 -32t31 -87q0 -56 -30.5 -88.5t-88.5 -32.5zM205 0v1434h921v-164h-743v-449h680v-164h-680v-495h743v-162h-921z" />
    <glyph glyph-name="edotaccent" unicode="&#x117;" horiz-adv-x="1130" 
d="M575 1247q-59 0 -88.5 32t-29.5 89q0 56 30 87.5t88 31.5q57 0 88 -32t31 -87q0 -56 -30.5 -88.5t-88.5 -32.5zM578 -18q-150 0 -259.5 71.5t-163 192.5t-53.5 276q0 116 29 213t85.5 171.5t148.5 116.5t210 42q144 0 247.5 -67.5t154.5 -181.5t51 -261v-84h-745
q0 -154 76 -245t219 -91q104 0 173.5 43t90.5 125h172q-22 -143 -144.5 -232t-291.5 -89zM285 614h565q0 131 -70.5 214t-204.5 83q-140 0 -212.5 -82.5t-77.5 -214.5z" />
    <glyph glyph-name="Eogonek" unicode="&#x118;" horiz-adv-x="1249" 
d="M1126 1270h-743v-449h680v-164h-680v-495h743v-162h-4q-174 -83 -174 -199q0 -49 31.5 -72.5t77.5 -23.5q33 0 65 8v-139q-43 -16 -102 -16q-99 0 -167.5 55.5t-68.5 150.5q0 147 146 236h-725v1434h921v-164z" />
    <glyph glyph-name="eogonek" unicode="&#x119;" horiz-adv-x="1130" 
d="M1028 555v-84h-745q0 -154 76 -245t219 -91q104 0 173.5 43t90.5 125h172q-17 -110 -96 -190t-197 -113q-174 -83 -174 -199q0 -49 31 -72.5t77 -23.5q34 0 66 8v-139q-43 -16 -103 -16q-99 0 -167 55.5t-68 150.5q0 136 125 222q-193 24 -299.5 171t-106.5 365
q0 116 29 213t85.5 171.5t148.5 116.5t210 42q144 0 247.5 -67.5t154.5 -181.5t51 -261zM285 614h565q0 131 -70.5 214t-204.5 83q-140 0 -212.5 -82.5t-77.5 -214.5z" />
    <glyph glyph-name="Ecaron" unicode="&#x11a;" horiz-adv-x="1249" 
d="M565 1585l-209 270v21h170l148 -164h8l147 164h172v-21l-208 -270h-228zM205 0v1434h921v-164h-743v-449h680v-164h-680v-495h743v-162h-921z" />
    <glyph glyph-name="ecaron" unicode="&#x11b;" horiz-adv-x="1130" 
d="M463 1198l-209 270v21h170l147 -164h9l147 164h172v-21l-209 -270h-227zM578 -18q-150 0 -259.5 71.5t-163 192.5t-53.5 276q0 116 29 213t85.5 171.5t148.5 116.5t210 42q144 0 247.5 -67.5t154.5 -181.5t51 -261v-84h-745q0 -154 76 -245t219 -91q104 0 173.5 43
t90.5 125h172q-22 -143 -144.5 -232t-291.5 -89zM285 614h565q0 131 -70.5 214t-204.5 83q-140 0 -212.5 -82.5t-77.5 -214.5z" />
    <glyph glyph-name="Gcircumflex" unicode="&#x11c;" horiz-adv-x="1476" 
d="M436 1585v21l209 270h227l209 -270v-21h-172l-147 164h-8l-148 -164h-170zM750 -18q-203 0 -345.5 92.5t-212 255.5t-69.5 383q0 339 163 539t464 200q255 0 406.5 -130t172.5 -347h-184q-14 139 -116 224t-279 85q-97 0 -174 -32t-126.5 -85.5t-82.5 -128t-46.5 -155
t-13.5 -170.5q0 -114 23 -211t72.5 -179t138.5 -129t209 -47q206 0 320 125.5t114 319.5h-393v162h563v-121q0 -300 -159.5 -475.5t-444.5 -175.5z" />
    <glyph glyph-name="gcircumflex" unicode="&#x11d;" 
d="M260 1198v21l209 270h227l209 -270v-21h-172l-147 164h-8l-148 -164h-170zM580 -487q-197 0 -319.5 100t-127.5 254h166q7 -85 77 -146t204 -61q144 0 217 78.5t73 204.5v202h-8q-44 -74 -124 -118.5t-191 -44.5q-143 0 -245 71.5t-150.5 191.5t-49.5 277q1 253 120 398
t325 145q111 0 191 -45t124 -119h8l23 146h149v-1108q0 -90 -30.5 -167.5t-88 -135.5t-145.5 -90.5t-198 -32.5zM575 135q148 0 223.5 110t75.5 277q0 80 -17.5 149t-53 123.5t-94 85.5t-134.5 31q-79 0 -138 -30.5t-93.5 -85t-51 -123t-16.5 -150.5q0 -81 16.5 -149
t51 -122.5t93.5 -85t138 -30.5z" />
    <glyph glyph-name="Gbreve" unicode="&#x11e;" horiz-adv-x="1476" 
d="M752 1585q-141 0 -220 80.5t-79 210.5h149q3 -61 39.5 -97t110.5 -36t110 36.5t39 96.5h150q0 -131 -77 -211t-222 -80zM750 -18q-203 0 -345.5 92.5t-212 255.5t-69.5 383q0 339 163 539t464 200q255 0 406.5 -130t172.5 -347h-184q-14 139 -116 224t-279 85
q-97 0 -174 -32t-126.5 -85.5t-82.5 -128t-46.5 -155t-13.5 -170.5q0 -114 23 -211t72.5 -179t138.5 -129t209 -47q206 0 320 125.5t114 319.5h-393v162h563v-121q0 -300 -159.5 -475.5t-444.5 -175.5z" />
    <glyph glyph-name="gbreve" unicode="&#x11f;" 
d="M575 1198q-141 0 -220 80.5t-79 210.5h150q7 -133 149 -133q74 0 110.5 36.5t39.5 96.5h149q0 -131 -77 -211t-222 -80zM580 -487q-197 0 -319.5 100t-127.5 254h166q7 -85 77 -146t204 -61q144 0 217 78.5t73 204.5v202h-8q-44 -74 -124 -118.5t-191 -44.5
q-143 0 -245 71.5t-150.5 191.5t-49.5 277q1 253 120 398t325 145q111 0 191 -45t124 -119h8l23 146h149v-1108q0 -90 -30.5 -167.5t-88 -135.5t-145.5 -90.5t-198 -32.5zM575 135q148 0 223.5 110t75.5 277q0 80 -17.5 149t-53 123.5t-94 85.5t-134.5 31q-79 0 -138 -30.5
t-93.5 -85t-51 -123t-16.5 -150.5q0 -81 16.5 -149t51 -122.5t93.5 -85t138 -30.5z" />
    <glyph glyph-name="Gdotaccent" unicode="&#x120;" horiz-adv-x="1476" 
d="M752 1634q-59 0 -89 32t-30 89q0 56 30 87.5t89 31.5q57 0 87.5 -32t30.5 -87q0 -57 -30.5 -89t-87.5 -32zM750 -18q-203 0 -345.5 92.5t-212 255.5t-69.5 383q0 339 163 539t464 200q255 0 406.5 -130t172.5 -347h-184q-14 139 -116 224t-279 85q-97 0 -174 -32
t-126.5 -85.5t-82.5 -128t-46.5 -155t-13.5 -170.5q0 -114 23 -211t72.5 -179t138.5 -129t209 -47q206 0 320 125.5t114 319.5h-393v162h563v-121q0 -300 -159.5 -475.5t-444.5 -175.5z" />
    <glyph glyph-name="gdotaccent" unicode="&#x121;" 
d="M575 1247q-59 0 -88.5 32t-29.5 89q0 56 30 87.5t88 31.5q57 0 88 -32t31 -87q0 -56 -30.5 -88.5t-88.5 -32.5zM580 -487q-197 0 -319.5 100t-127.5 254h166q7 -85 77 -146t204 -61q144 0 217 78.5t73 204.5v202h-8q-44 -74 -124 -118.5t-191 -44.5q-143 0 -245 71.5
t-150.5 191.5t-49.5 277q1 253 120 398t325 145q111 0 191 -45t124 -119h8l23 146h149v-1108q0 -90 -30.5 -167.5t-88 -135.5t-145.5 -90.5t-198 -32.5zM575 135q148 0 223.5 110t75.5 277q0 80 -17.5 149t-53 123.5t-94 85.5t-134.5 31q-79 0 -138 -30.5t-93.5 -85
t-51 -123t-16.5 -150.5q0 -81 16.5 -149t51 -122.5t93.5 -85t138 -30.5z" />
    <glyph glyph-name="Gcommaaccent" unicode="&#x122;" horiz-adv-x="1476" 
d="M750 -18q-203 0 -345.5 92.5t-212 255.5t-69.5 383q0 339 163 539t464 200q255 0 406.5 -130t172.5 -347h-184q-14 139 -116 224t-279 85q-97 0 -174 -32t-126.5 -85.5t-82.5 -128t-46.5 -155t-13.5 -170.5q0 -114 23 -211t72.5 -179t138.5 -129t209 -47q206 0 320 125.5
t114 319.5h-393v162h563v-121q0 -300 -159.5 -475.5t-444.5 -175.5zM639 -432v20l37 308h192v-21l-100 -307h-129z" />
    <glyph glyph-name="gcommaaccent" unicode="&#x123;" 
d="M727 1505v-20l-37 -307h-192v20l100 307h129zM580 -487q-197 0 -319.5 100t-127.5 254h166q7 -85 77 -146t204 -61q144 0 217 78.5t73 204.5v202h-8q-44 -74 -124 -118.5t-191 -44.5q-143 0 -245 71.5t-150.5 191.5t-49.5 277q1 253 120 398t325 145q111 0 191 -45
t124 -119h8l23 146h149v-1108q0 -90 -30.5 -167.5t-88 -135.5t-145.5 -90.5t-198 -32.5zM575 135q148 0 223.5 110t75.5 277q0 80 -17.5 149t-53 123.5t-94 85.5t-134.5 31q-79 0 -138 -30.5t-93.5 -85t-51 -123t-16.5 -150.5q0 -81 16.5 -149t51 -122.5t93.5 -85t138 -30.5
z" />
    <glyph glyph-name="Hcircumflex" unicode="&#x124;" horiz-adv-x="1505" 
d="M741 1749l-147 -164h-170v21l209 270h227l209 -270v-21h-172l-147 164h-9zM1122 1434h178v-1434h-178v657h-739v-657h-178v1434h178v-611h739v611z" />
    <glyph glyph-name="hcircumflex" unicode="&#x125;" horiz-adv-x="1218" 
d="M-45 1608v20l209 270h227l209 -270v-20h-172l-147 164h-9l-147 -164h-170zM184 0v1516h172v-633h9q94 182 319 182q173 0 272 -102.5t99 -282.5v-680h-172v653q0 125 -61.5 191.5t-184.5 66.5q-128 0 -204.5 -90.5t-76.5 -247.5v-573h-172z" />
    <glyph glyph-name="Hbar" unicode="&#x126;" horiz-adv-x="1505" 
d="M1421 1233v-146h-121v-1087h-178v657h-739v-657h-178v1087h-125v146h125v201h178v-201h739v201h178v-201h121zM1122 823v264h-739v-264h739z" />
    <glyph glyph-name="hbar" unicode="&#x127;" horiz-adv-x="1218" 
d="M684 1065q173 0 272 -102.5t99 -282.5v-680h-172v653q0 125 -61.5 191.5t-184.5 66.5q-128 0 -204.5 -90.5t-76.5 -247.5v-573h-172v1229h-135v133h135v154h172v-154h234v-133h-234v-346h9q94 182 319 182z" />
    <glyph glyph-name="Itilde" unicode="&#x128;" horiz-adv-x="589" 
d="M391 1614q-65 0 -135 45l-29 18q-49 29 -84 29q-33 0 -54 -24t-21 -64h-123v31q0 96 56 148t144 52q68 0 138 -45l28 -18q49 -29 82 -29q34 0 55 25t21 63h121v-30q0 -98 -55 -149.5t-144 -51.5zM205 0v1434h180v-1434h-180z" />
    <glyph glyph-name="itilde" unicode="&#x129;" horiz-adv-x="520" 
d="M367 1227q-66 0 -136 45l-28 18q-49 29 -84 29q-33 0 -54.5 -24t-21.5 -64h-123v31q0 96 56 148t145 52q67 0 137 -45l29 -18q49 -29 82 -29t54 24.5t21 63.5h121v-31q0 -98 -54.5 -149t-143.5 -51zM184 0v1047h172v-1047h-172z" />
    <glyph glyph-name="Imacron" unicode="&#x12a;" horiz-adv-x="589" 
d="M20 1651v166h560v-166h-560zM205 0v1434h180v-1434h-180z" />
    <glyph glyph-name="imacron" unicode="&#x12b;" horiz-adv-x="520" 
d="M-4 1264v166h559v-166h-559zM184 0v1047h172v-1047h-172z" />
    <glyph glyph-name="Ibreve" unicode="&#x12c;" horiz-adv-x="589" 
d="M295 1585q-141 0 -220 80.5t-79 210.5h149q3 -61 39.5 -97t110.5 -36t110 36.5t39 96.5h150q0 -131 -77 -211t-222 -80zM205 0v1434h180v-1434h-180z" />
    <glyph glyph-name="ibreve" unicode="&#x12d;" horiz-adv-x="520" 
d="M270 1198q-141 0 -220 80.5t-79 210.5h150q7 -133 149 -133q74 0 110.5 36.5t39.5 96.5h149q0 -131 -77 -211t-222 -80zM184 0v1047h172v-1047h-172z" />
    <glyph glyph-name="Iogonek" unicode="&#x12e;" horiz-adv-x="589" 
d="M385 0q-174 -83 -174 -199q0 -49 31 -72.5t77 -23.5q34 0 66 8v-139q-43 -16 -102 -16q-99 0 -167.5 55.5t-68.5 150.5q0 153 158 242v1428h180v-1434z" />
    <glyph glyph-name="iogonek" unicode="&#x12f;" horiz-adv-x="520" 
d="M270 1487q57 0 88 -32t31 -87q0 -56 -30.5 -88.5t-88.5 -32.5q-59 0 -88.5 32t-29.5 89q0 56 30 87.5t88 31.5zM184 12v1035h172v-1047q-174 -83 -174 -199q0 -49 31.5 -72.5t77.5 -23.5q33 0 65 8v-139q-43 -16 -102 -16q-99 0 -167.5 55.5t-68.5 150.5q0 157 166 248z
" />
    <glyph glyph-name="Idotaccent" unicode="&#x130;" horiz-adv-x="589" 
d="M295 1634q-59 0 -89 32t-30 89q0 56 30 87.5t89 31.5q57 0 88 -32t31 -87q0 -56 -30.5 -88.5t-88.5 -32.5zM205 0v1434h180v-1434h-180z" />
    <glyph glyph-name="dotlessi" unicode="&#x131;" horiz-adv-x="520" 
d="M184 0v1047h172v-1047h-172z" />
    <glyph glyph-name="IJ" unicode="&#x132;" horiz-adv-x="1679" 
d="M205 0v1434h180v-1434h-180zM1071 -18q-195 0 -307.5 117.5t-112.5 310.5h180q0 -119 62 -188.5t182 -69.5q119 0 179.5 70.5t60.5 193.5v1018h180v-1018q0 -199 -114 -316.5t-310 -117.5z" />
    <glyph glyph-name="ij" unicode="&#x133;" horiz-adv-x="1069" 
d="M270 1247q-59 0 -88.5 32t-29.5 89q0 56 30 87.5t88 31.5q57 0 88 -32t31 -87q0 -56 -30.5 -88.5t-88.5 -32.5zM819 1247q-59 0 -89 32t-30 89q0 56 30 87.5t89 31.5q57 0 88 -32t31 -87q0 -56 -30.5 -88.5t-88.5 -32.5zM184 0v1047h172v-1047h-172zM602 -487
q-38 0 -82 12v145q40 -6 78 -6q135 0 135 150v1233h172v-1231q0 -153 -73.5 -228t-229.5 -75z" />
    <glyph glyph-name="Jcircumflex" unicode="&#x134;" horiz-adv-x="1089" 
d="M492 1585v21l208 270h228l209 -270v-21h-172l-148 164h-8l-147 -164h-170zM481 -18q-195 0 -307.5 117.5t-112.5 310.5h181q0 -119 61.5 -188.5t181.5 -69.5q119 0 179.5 70.5t60.5 193.5v1018h180v-1018q0 -199 -114 -316.5t-310 -117.5z" />
    <glyph glyph-name="jcircumflex" unicode="&#x135;" horiz-adv-x="548" 
d="M-20 1198v21l208 270h228l209 -270v-21h-172l-148 164h-8l-147 -164h-170zM82 -487q-38 0 -82 12v145q40 -6 78 -6q135 0 135 150v1233h172v-1231q0 -153 -73.5 -228t-229.5 -75z" />
    <glyph glyph-name="Kcommaaccent" unicode="&#x136;" horiz-adv-x="1292" 
d="M608 756l664 -736v-20h-215l-674 745v-745h-178v1434h178v-668l655 668h213v-21zM598 -412l37 308h192v-21l-100 -307h-129v20z" />
    <glyph glyph-name="kcommaaccent" unicode="&#x137;" horiz-adv-x="1054" 
d="M184 1516h172v-1516h-172v1516zM578 588l436 -568v-20h-199l-459 588l443 459h202v-21zM455 -412l37 308h192v-21l-100 -307h-129v20z" />
    <glyph glyph-name="kgreenlandic" unicode="&#x138;" horiz-adv-x="1054" 
d="M184 1047h172v-1047h-172v1047zM578 567l436 -547v-20h-199l-459 567l443 480h202v-21z" />
    <glyph glyph-name="Lacute" unicode="&#x139;" horiz-adv-x="1126" 
d="M184 1581v21l156 278h235v-20l-237 -279h-154zM205 0v1434h178v-1270h692v-164h-870z" />
    <glyph glyph-name="lacute" unicode="&#x13a;" horiz-adv-x="520" 
d="M162 1604v20l155 279h236v-21l-238 -278h-153zM184 0v1516h172v-1516h-172z" />
    <glyph glyph-name="Lcommaaccent" unicode="&#x13b;" horiz-adv-x="1126" 
d="M205 0v1434h178v-1270h692v-164h-870zM510 -432v20l37 308h192v-21l-100 -307h-129z" />
    <glyph glyph-name="lcommaaccent" unicode="&#x13c;" horiz-adv-x="520" 
d="M184 0v1516h172v-1516h-172zM133 -432v20l37 308h192v-21l-100 -307h-129z" />
    <glyph glyph-name="Lcaron" unicode="&#x13d;" horiz-adv-x="1126" 
d="M205 0v1434h178v-1270h692v-164h-870zM655 1085v349h193v-21l-72 -328h-121z" />
    <glyph glyph-name="lcaron" unicode="&#x13e;" horiz-adv-x="561" 
d="M184 0v1516h172v-1516h-172zM471 1167v349h193v-21l-72 -328h-121z" />
    <glyph glyph-name="Ldot" unicode="&#x13f;" horiz-adv-x="1228" 
d="M205 0v1434h178v-1270h692v-164h-870zM801 635q-59 0 -90 34t-31 91q0 56 31.5 89.5t89.5 33.5q57 0 89 -34t32 -89q0 -57 -32 -91t-89 -34z" />
    <glyph glyph-name="ldot" unicode="&#x140;" horiz-adv-x="753" 
d="M184 0v1516h172v-1516h-172zM592 637q-59 0 -90 34t-31 91q0 56 31.5 89.5t89.5 33.5q57 0 89 -34t32 -89q0 -57 -32 -91t-89 -34z" />
    <glyph glyph-name="Lslash" unicode="&#x141;" horiz-adv-x="1269" 
d="M526 164h693v-164h-871v547l-123 -49h-20v157l143 58v721h178v-652l369 148h20v-162l-389 -152v-452z" />
    <glyph glyph-name="lslash" unicode="&#x142;" horiz-adv-x="731" 
d="M649 930v-162l-200 -102v-666h-173v578l-153 -80h-21v157l174 90v771h173v-680l180 94h20z" />
    <glyph glyph-name="Nacute" unicode="&#x143;" horiz-adv-x="1521" 
d="M676 1581v21l155 278h236v-20l-238 -279h-153zM205 0v1434h194l734 -1141h8v1141h176v-1434h-197l-733 1135h-8v-1135h-174z" />
    <glyph glyph-name="nacute" unicode="&#x144;" horiz-adv-x="1210" 
d="M549 1194v20l156 279h235v-20l-238 -279h-153zM184 0v1047h150l14 -164h8q43 84 125 133t199 49q173 0 270 -102.5t97 -282.5v-680h-173v653q0 258 -241 258q-131 0 -204 -87.5t-73 -245.5v-578h-172z" />
    <glyph glyph-name="Ncommaaccent" unicode="&#x145;" horiz-adv-x="1521" 
d="M205 0v1434h194l734 -1141h8v1141h176v-1434h-197l-733 1135h-8v-1135h-174zM629 -432v20l37 308h192v-21l-100 -307h-129z" />
    <glyph glyph-name="ncommaaccent" unicode="&#x146;" horiz-adv-x="1210" 
d="M184 0v1047h150l14 -164h8q43 84 125 133t199 49q173 0 270 -102.5t97 -282.5v-680h-173v653q0 258 -241 258q-131 0 -204 -87.5t-73 -245.5v-578h-172zM492 -432v20l36 308h193v-21l-100 -307h-129z" />
    <glyph glyph-name="Ncaron" unicode="&#x147;" horiz-adv-x="1521" 
d="M672 1585l-209 270v21h170l147 -164h8l148 164h172v-21l-209 -270h-227zM205 0v1434h194l734 -1141h8v1141h176v-1434h-197l-733 1135h-8v-1135h-174z" />
    <glyph glyph-name="ncaron" unicode="&#x148;" horiz-adv-x="1210" 
d="M545 1198l-209 270v21h170l147 -164h9l147 164h172v-21l-209 -270h-227zM184 0v1047h150l14 -164h8q43 84 125 133t199 49q173 0 270 -102.5t97 -282.5v-680h-173v653q0 258 -241 258q-131 0 -204 -87.5t-73 -245.5v-578h-172z" />
    <glyph glyph-name="napostrophe" unicode="&#x149;" horiz-adv-x="1210" 
d="M-90 948v21l63 465h203v-21l-127 -465h-139zM184 0v1047h150l14 -164h8q43 84 125 133t199 49q173 0 270 -102.5t97 -282.5v-680h-173v653q0 258 -241 258q-131 0 -204 -87.5t-73 -245.5v-578h-172z" />
    <glyph glyph-name="Eng" unicode="&#x14a;" horiz-adv-x="1521" 
d="M1141 1434h176v-1489q0 -199 -114 -316.5t-310 -117.5v170q122 0 185 70.5t63 193.5v55h-21l-733 1135h-8v-1135h-174v1434h194l734 -1141h8v1141z" />
    <glyph glyph-name="eng" unicode="&#x14b;" horiz-adv-x="1210" 
d="M680 1065q173 0 270 -102.5t97 -282.5v-864q0 -153 -73.5 -228t-230.5 -75q-37 0 -81 12v145q40 -6 77 -6q135 0 135 150v839q0 258 -241 258q-131 0 -204 -87.5t-73 -245.5v-578h-172v1047h150l14 -164h8q43 84 125 133t199 49z" />
    <glyph glyph-name="Omacron" unicode="&#x14c;" horiz-adv-x="1515" 
d="M494 1651v166h559v-166h-559zM758 -18q-130 0 -235.5 37t-179 103.5t-123.5 159t-73.5 201.5t-23.5 234q0 126 23.5 235t73.5 201.5t123.5 158.5t179 103t235.5 37q129 0 234.5 -37t179.5 -103t124 -158.5t73.5 -202t23.5 -234.5t-23.5 -234t-73.5 -201.5t-124 -159
t-179.5 -103.5t-234.5 -37zM758 150q99 0 177 31.5t128.5 84.5t83.5 127t47 154t14 170t-14 170t-47 154t-83.5 127t-128.5 84.5t-177 31.5t-177.5 -31.5t-129 -84.5t-84 -127t-47 -153.5t-13.5 -170.5q0 -90 14 -170t47 -154t84 -127t129 -84.5t177 -31.5z" />
    <glyph glyph-name="omacron" unicode="&#x14d;" horiz-adv-x="1150" 
d="M301 1264v166h559v-166h-559zM575 -18q-120 0 -212 41.5t-148 116t-84.5 171t-28.5 211.5t29 212t85.5 172t148.5 117t210 42t210 -42t149 -117t86 -172t29 -212t-28.5 -211t-85 -170.5t-148.5 -116.5t-212 -42zM575 135q153 0 226 104t73 283q0 87 -17 156.5t-52 122
t-93.5 81.5t-136.5 29q-152 0 -225.5 -105.5t-73.5 -283.5t73.5 -282.5t225.5 -104.5z" />
    <glyph glyph-name="Obreve" unicode="&#x14e;" horiz-adv-x="1515" 
d="M768 1585q-141 0 -220 80.5t-79 210.5h149q3 -61 39.5 -97t110.5 -36t110.5 36.5t39.5 96.5h149q0 -131 -77 -211t-222 -80zM758 -18q-130 0 -235.5 37t-179 103.5t-123.5 159t-73.5 201.5t-23.5 234q0 126 23.5 235t73.5 201.5t123.5 158.5t179 103t235.5 37
q129 0 234.5 -37t179.5 -103t124 -158.5t73.5 -202t23.5 -234.5t-23.5 -234t-73.5 -201.5t-124 -159t-179.5 -103.5t-234.5 -37zM758 150q99 0 177 31.5t128.5 84.5t83.5 127t47 154t14 170t-14 170t-47 154t-83.5 127t-128.5 84.5t-177 31.5t-177.5 -31.5t-129 -84.5
t-84 -127t-47 -153.5t-13.5 -170.5q0 -90 14 -170t47 -154t84 -127t129 -84.5t177 -31.5z" />
    <glyph glyph-name="obreve" unicode="&#x14f;" horiz-adv-x="1150" 
d="M575 1198q-141 0 -220 80.5t-79 210.5h150q7 -133 149 -133q74 0 110.5 36.5t39.5 96.5h149q0 -131 -77 -211t-222 -80zM575 -18q-120 0 -212 41.5t-148 116t-84.5 171t-28.5 211.5t29 212t85.5 172t148.5 117t210 42t210 -42t149 -117t86 -172t29 -212t-28.5 -211
t-85 -170.5t-148.5 -116.5t-212 -42zM575 135q153 0 226 104t73 283q0 87 -17 156.5t-52 122t-93.5 81.5t-136.5 29q-152 0 -225.5 -105.5t-73.5 -283.5t73.5 -282.5t225.5 -104.5z" />
    <glyph glyph-name="Ohungarumlaut" unicode="&#x150;" horiz-adv-x="1515" 
d="M537 1581v21l110 278h209v-20l-190 -279h-129zM819 1581v21l111 278h209v-20l-191 -279h-129zM758 -18q-130 0 -235.5 37t-179 103.5t-123.5 159t-73.5 201.5t-23.5 234q0 126 23.5 235t73.5 201.5t123.5 158.5t179 103t235.5 37q129 0 234.5 -37t179.5 -103t124 -158.5
t73.5 -202t23.5 -234.5t-23.5 -234t-73.5 -201.5t-124 -159t-179.5 -103.5t-234.5 -37zM758 150q99 0 177 31.5t128.5 84.5t83.5 127t47 154t14 170t-14 170t-47 154t-83.5 127t-128.5 84.5t-177 31.5t-177.5 -31.5t-129 -84.5t-84 -127t-47 -153.5t-13.5 -170.5
q0 -90 14 -170t47 -154t84 -127t129 -84.5t177 -31.5z" />
    <glyph glyph-name="ohungarumlaut" unicode="&#x151;" horiz-adv-x="1150" 
d="M344 1194v20l111 279h209v-20l-191 -279h-129zM627 1194v20l110 279h209v-20l-190 -279h-129zM575 -18q-120 0 -212 41.5t-148 116t-84.5 171t-28.5 211.5t29 212t85.5 172t148.5 117t210 42t210 -42t149 -117t86 -172t29 -212t-28.5 -211t-85 -170.5t-148.5 -116.5
t-212 -42zM575 135q153 0 226 104t73 283q0 87 -17 156.5t-52 122t-93.5 81.5t-136.5 29q-152 0 -225.5 -105.5t-73.5 -283.5t73.5 -282.5t225.5 -104.5z" />
    <glyph glyph-name="OE" unicode="&#x152;" horiz-adv-x="2252" 
d="M2130 1270h-744v-449h680v-164h-680v-495h744v-162h-922v164q-158 -182 -450 -182q-130 0 -235.5 37t-179 103.5t-123.5 159t-73.5 201.5t-23.5 234q0 126 23.5 235t73.5 201.5t123.5 158.5t179 103t235.5 37q291 0 450 -180v162h922v-164zM758 150q99 0 177 31.5
t128.5 84.5t83.5 127t47 154t14 170t-14 170t-47 154t-83.5 127t-128.5 84.5t-177 31.5t-177.5 -31.5t-129 -84.5t-84 -127t-47 -153.5t-13.5 -170.5q0 -90 14 -170t47 -154t84 -127t129 -84.5t177 -31.5z" />
    <glyph glyph-name="oe" unicode="&#x153;" horiz-adv-x="1902" 
d="M1800 555v-84h-745q0 -154 76 -245t219 -91q104 0 173.5 43t90.5 125h172q-22 -143 -144.5 -232t-291.5 -89q-129 0 -227 52t-158 146q-124 -198 -390 -198q-120 0 -212 41.5t-148 116t-84.5 171t-28.5 211.5t29 212t85.5 172t148.5 117t210 42q261 0 386 -199
q126 199 387 199q144 0 247.5 -67.5t154 -181.5t50.5 -261zM575 135q153 0 226 104t73 283q0 87 -17 156.5t-52 122t-93.5 81.5t-136.5 29q-152 0 -225.5 -105.5t-73.5 -283.5t73.5 -282.5t225.5 -104.5zM1057 614h565q0 131 -70 214t-204 83q-140 0 -213 -82.5t-78 -214.5z
" />
    <glyph glyph-name="Racute" unicode="&#x154;" horiz-adv-x="1372" 
d="M987 1860l-237 -279h-154v21l156 278h235v-20zM918 590l385 -570v-20h-195l-377 567h-348v-567h-178v1434h567q214 0 334.5 -120.5t120.5 -309.5q0 -157 -83.5 -265t-225.5 -149zM383 1270v-539h379q134 0 206 70t72 200q0 127 -72 198t-206 71h-379z" />
    <glyph glyph-name="racute" unicode="&#x155;" horiz-adv-x="798" 
d="M346 1194v20l156 279h235v-20l-237 -279h-154zM184 0v1047h150l14 -177h8q32 88 106 138.5t171 50.5h94v-166h-82q-289 0 -289 -385v-508h-172z" />
    <glyph glyph-name="Rcommaaccent" unicode="&#x156;" horiz-adv-x="1372" 
d="M918 590l385 -570v-20h-195l-377 567h-348v-567h-178v1434h567q214 0 334.5 -120.5t120.5 -309.5q0 -157 -83.5 -265t-225.5 -149zM383 1270v-539h379q134 0 206 70t72 200q0 127 -72 198t-206 71h-379zM596 -412l37 308h192v-21l-100 -307h-129v20z" />
    <glyph glyph-name="rcommaaccent" unicode="&#x157;" horiz-adv-x="798" 
d="M184 0v1047h150l14 -177h8q32 88 106 138.5t171 50.5h94v-166h-82q-289 0 -289 -385v-508h-172zM180 -432v20l37 308h193v-21l-101 -307h-129z" />
    <glyph glyph-name="Rcaron" unicode="&#x158;" horiz-adv-x="1372" 
d="M819 1585h-227l-209 270v21h170l147 -164h9l147 164h172v-21zM918 590l385 -570v-20h-195l-377 567h-348v-567h-178v1434h567q214 0 334.5 -120.5t120.5 -309.5q0 -157 -83.5 -265t-225.5 -149zM383 1270v-539h379q134 0 206 70t72 200q0 127 -72 198t-206 71h-379z" />
    <glyph glyph-name="rcaron" unicode="&#x159;" horiz-adv-x="798" 
d="M342 1198l-209 270v21h170l148 -164h8l147 164h172v-21l-209 -270h-227zM184 0v1047h150l14 -177h8q32 88 106 138.5t171 50.5h94v-166h-82q-289 0 -289 -385v-508h-172z" />
    <glyph glyph-name="Sacute" unicode="&#x15a;" horiz-adv-x="1294" 
d="M541 1581v21l155 278h236v-20l-238 -279h-153zM645 -18q-256 0 -396.5 120.5t-146.5 327.5h183q8 -135 100.5 -211t259.5 -76q350 0 350 250q0 99 -65 153t-191 81l-209 45q-191 41 -285.5 133.5t-94.5 253.5q0 183 130.5 288t366.5 105q229 0 368.5 -117.5t141.5 -308.5
h-182q-6 122 -89 192t-243 70q-144 0 -225.5 -56t-81.5 -173q0 -85 62.5 -136t181.5 -77l194 -41q201 -42 304.5 -145.5t103.5 -266.5q0 -192 -144 -301.5t-393 -109.5z" />
    <glyph glyph-name="sacute" unicode="&#x15b;" horiz-adv-x="1046" 
d="M426 1194v20l156 279h235v-20l-237 -279h-154zM530 -18q-189 0 -306.5 97.5t-121.5 266.5h172q0 -102 70 -156.5t186 -54.5q113 0 176.5 38t63.5 112q0 114 -160 149l-209 39q-129 26 -197.5 101.5t-68.5 191.5q0 132 104.5 215.5t276.5 83.5q179 0 291.5 -91.5
t112.5 -246.5h-168q-4 96 -68.5 144.5t-167.5 48.5q-98 0 -156.5 -39.5t-58.5 -114.5q0 -120 182 -148l164 -30q154 -35 225.5 -103.5t71.5 -199.5q0 -93 -57 -163t-150 -105t-207 -35z" />
    <glyph glyph-name="Scircumflex" unicode="&#x15c;" horiz-adv-x="1294" 
d="M334 1585v21l209 270h227l209 -270v-21h-172l-148 164h-8l-147 -164h-170zM645 -18q-256 0 -396.5 120.5t-146.5 327.5h183q8 -135 100.5 -211t259.5 -76q350 0 350 250q0 99 -65 153t-191 81l-209 45q-191 41 -285.5 133.5t-94.5 253.5q0 183 130.5 288t366.5 105
q229 0 368.5 -117.5t141.5 -308.5h-182q-6 122 -89 192t-243 70q-144 0 -225.5 -56t-81.5 -173q0 -85 62.5 -136t181.5 -77l194 -41q201 -42 304.5 -145.5t103.5 -266.5q0 -192 -144 -301.5t-393 -109.5z" />
    <glyph glyph-name="scircumflex" unicode="&#x15d;" horiz-adv-x="1046" 
d="M219 1198v21l209 270h227l209 -270v-21h-172l-147 164h-8l-148 -164h-170zM530 -18q-189 0 -306.5 97.5t-121.5 266.5h172q0 -102 70 -156.5t186 -54.5q113 0 176.5 38t63.5 112q0 114 -160 149l-209 39q-129 26 -197.5 101.5t-68.5 191.5q0 132 104.5 215.5t276.5 83.5
q179 0 291.5 -91.5t112.5 -246.5h-168q-4 96 -68.5 144.5t-167.5 48.5q-98 0 -156.5 -39.5t-58.5 -114.5q0 -120 182 -148l164 -30q154 -35 225.5 -103.5t71.5 -199.5q0 -93 -57 -163t-150 -105t-207 -35z" />
    <glyph glyph-name="Scedilla" unicode="&#x15e;" horiz-adv-x="1294" 
d="M1182 393q0 -181 -128 -289t-352 -120l-47 -78q87 0 143 -46t56 -122q0 -79 -60 -131.5t-180 -52.5q-99 0 -165 48t-66 138h123q0 -33 27 -51.5t79 -18.5q40 0 68.5 17.5t28.5 50.5q0 28 -24.5 46.5t-66.5 18.5h-65l-51 64l59 119q-218 20 -335.5 137.5t-123.5 306.5h183
q8 -135 100.5 -211t259.5 -76q350 0 350 250q0 99 -65 153t-191 81l-209 45q-191 41 -285.5 133.5t-94.5 253.5q0 183 130.5 288t366.5 105q229 0 368.5 -117.5t141.5 -308.5h-182q-6 122 -89 192t-243 70q-144 0 -225.5 -56t-81.5 -173q0 -85 62.5 -136t181.5 -77l194 -41
q201 -42 304.5 -145.5t103.5 -266.5z" />
    <glyph glyph-name="scedilla" unicode="&#x15f;" horiz-adv-x="1046" 
d="M944 285q0 -128 -99.5 -207.5t-254.5 -93.5l-47 -78q87 0 142.5 -46t55.5 -122q0 -79 -59.5 -131.5t-179.5 -52.5q-99 0 -165.5 48t-66.5 138h123q0 -33 27.5 -51.5t79.5 -18.5q40 0 68 17.5t28 50.5q0 29 -24 47t-66 18h-66l-51 64l62 119q-156 21 -250.5 115.5
t-98.5 244.5h172q0 -102 70 -156.5t186 -54.5q113 0 176.5 38t63.5 112q0 114 -160 149l-209 39q-129 26 -197.5 101.5t-68.5 191.5q0 132 104.5 215.5t276.5 83.5q179 0 291.5 -91.5t112.5 -246.5h-168q-4 96 -68.5 144.5t-167.5 48.5q-98 0 -156.5 -39.5t-58.5 -114.5
q0 -120 182 -148l164 -30q154 -35 225.5 -103.5t71.5 -199.5z" />
    <glyph glyph-name="Scaron" unicode="&#x160;" horiz-adv-x="1294" 
d="M537 1585l-209 270v21h170l147 -164h8l148 164h172v-21l-209 -270h-227zM645 -18q-256 0 -396.5 120.5t-146.5 327.5h183q8 -135 100.5 -211t259.5 -76q350 0 350 250q0 99 -65 153t-191 81l-209 45q-191 41 -285.5 133.5t-94.5 253.5q0 183 130.5 288t366.5 105
q229 0 368.5 -117.5t141.5 -308.5h-182q-6 122 -89 192t-243 70q-144 0 -225.5 -56t-81.5 -173q0 -85 62.5 -136t181.5 -77l194 -41q201 -42 304.5 -145.5t103.5 -266.5q0 -192 -144 -301.5t-393 -109.5z" />
    <glyph glyph-name="scaron" unicode="&#x161;" horiz-adv-x="1046" 
d="M422 1198l-209 270v21h170l147 -164h9l147 164h172v-21l-209 -270h-227zM530 -18q-189 0 -306.5 97.5t-121.5 266.5h172q0 -102 70 -156.5t186 -54.5q113 0 176.5 38t63.5 112q0 114 -160 149l-209 39q-129 26 -197.5 101.5t-68.5 191.5q0 132 104.5 215.5t276.5 83.5
q179 0 291.5 -91.5t112.5 -246.5h-168q-4 96 -68.5 144.5t-167.5 48.5q-98 0 -156.5 -39.5t-58.5 -114.5q0 -120 182 -148l164 -30q154 -35 225.5 -103.5t71.5 -199.5q0 -93 -57 -163t-150 -105t-207 -35z" />
    <glyph glyph-name="uni0162" unicode="&#x162;" horiz-adv-x="1212" 
d="M516 0v1270h-444v164h1069v-164h-445v-1270h-180zM467 -432v20l37 308h192v-21l-100 -307h-129z" />
    <glyph glyph-name="uni0163" unicode="&#x163;" horiz-adv-x="780" 
d="M532 -18q-149 0 -212.5 71t-63.5 209v639h-174v146h178v223l148 57h20v-280h256v-146h-256v-625q0 -75 33 -109t104 -34q57 0 103 12h20v-147q-66 -16 -156 -16zM350 -432v20l37 308h193v-21l-101 -307h-129z" />
    <glyph glyph-name="Tcaron" unicode="&#x164;" horiz-adv-x="1212" 
d="M500 1585l-209 270v21h170l147 -164h8l148 164h172v-21l-209 -270h-227zM516 0v1270h-444v164h1069v-164h-445v-1270h-180z" />
    <glyph glyph-name="tcaron" unicode="&#x165;" horiz-adv-x="780" 
d="M553 1167v349h192v-21l-71 -328h-121zM532 -18q-149 0 -212.5 71t-63.5 209v639h-174v146h178v223l148 57h20v-280h256v-146h-256v-625q0 -75 33 -109t104 -34q57 0 103 12h20v-147q-66 -16 -156 -16z" />
    <glyph glyph-name="Tbar" unicode="&#x166;" horiz-adv-x="1212" 
d="M1141 1270h-445v-410h363v-153h-363v-707h-180v707h-362v153h362v410h-444v164h1069v-164z" />
    <glyph glyph-name="tbar" unicode="&#x167;" horiz-adv-x="780" 
d="M668 145h20v-147q-66 -16 -156 -16q-149 0 -212.5 71t-63.5 209v318h-174v145h174v176h-174v146h178v223l148 57h20v-280h256v-146h-256v-176h240v-145h-240v-304q0 -75 33 -109t104 -34q57 0 103 12z" />
    <glyph glyph-name="Utilde" unicode="&#x168;" horiz-adv-x="1462" 
d="M817 1614q-65 0 -135 45l-29 18q-49 29 -84 29q-33 0 -54 -24t-21 -64h-123v31q0 96 56 148t144 52q68 0 138 -45l28 -18q49 -29 82 -29q34 0 55 25t21 63h121v-30q0 -98 -55 -149.5t-144 -51.5zM729 -18q-253 0 -399 139t-146 385v928h178v-924q0 -170 93.5 -267.5
t273.5 -97.5q183 0 276 97t93 268v924h180v-928q0 -247 -146 -385.5t-403 -138.5z" />
    <glyph glyph-name="utilde" unicode="&#x169;" horiz-adv-x="1183" 
d="M446 1319q-33 0 -54 -24t-21 -64h-123v31q0 96 56 148t145 52q67 0 137 -45l28 -18q49 -29 82 -29q34 0 55 25t21 63h121v-31q0 -98 -55 -149t-144 -51q-65 0 -135 45l-29 18q-49 29 -84 29zM848 1047h172v-666q0 -179 -118.5 -288t-309.5 -109t-309.5 109t-118.5 288
v666h172v-637q0 -273 256 -273t256 273v637z" />
    <glyph glyph-name="Umacron" unicode="&#x16a;" horiz-adv-x="1462" 
d="M446 1651v166h560v-166h-560zM729 -18q-253 0 -399 139t-146 385v928h178v-924q0 -170 93.5 -267.5t273.5 -97.5q183 0 276 97t93 268v924h180v-928q0 -247 -146 -385.5t-403 -138.5z" />
    <glyph glyph-name="umacron" unicode="&#x16b;" horiz-adv-x="1183" 
d="M883 1430v-166h-559v166h559zM848 1047h172v-666q0 -179 -118.5 -288t-309.5 -109t-309.5 109t-118.5 288v666h172v-637q0 -273 256 -273t256 273v637z" />
    <glyph glyph-name="Ubreve" unicode="&#x16c;" horiz-adv-x="1462" 
d="M721 1585q-141 0 -220 80.5t-79 210.5h149q3 -61 39.5 -97t110.5 -36t110 36.5t39 96.5h150q0 -131 -77 -211t-222 -80zM729 -18q-253 0 -399 139t-146 385v928h178v-924q0 -170 93.5 -267.5t273.5 -97.5q183 0 276 97t93 268v924h180v-928q0 -247 -146 -385.5
t-403 -138.5z" />
    <glyph glyph-name="ubreve" unicode="&#x16d;" horiz-adv-x="1183" 
d="M598 1198q-141 0 -220 80.5t-79 210.5h150q7 -133 149 -133q74 0 110.5 36.5t39.5 96.5h149q0 -131 -77 -211t-222 -80zM848 1047h172v-666q0 -179 -118.5 -288t-309.5 -109t-309.5 109t-118.5 288v666h172v-637q0 -273 256 -273t256 273v637z" />
    <glyph glyph-name="Uring" unicode="&#x16e;" horiz-adv-x="1462" 
d="M721 1559q-99 0 -163 62.5t-64 160.5q0 99 64 162t163 63q101 0 165 -62.5t64 -162.5q0 -98 -64 -160.5t-165 -62.5zM719 1683q45 0 72.5 28t27.5 71t-27.5 71.5t-72.5 28.5q-44 0 -70 -28t-26 -72q0 -43 26 -71t70 -28zM729 -18q-253 0 -399 139t-146 385v928h178v-924
q0 -170 93.5 -267.5t273.5 -97.5q183 0 276 97t93 268v924h180v-928q0 -247 -146 -385.5t-403 -138.5z" />
    <glyph glyph-name="uring" unicode="&#x16f;" horiz-adv-x="1183" 
d="M598 1171q-99 0 -163 63t-64 161q0 99 64 162t163 63q101 0 165 -62.5t64 -162.5q0 -98 -64 -161t-165 -63zM596 1495q-44 0 -70 -28t-26 -72q0 -43 26 -71t70 -28q45 0 72.5 28t27.5 71t-27.5 71.5t-72.5 28.5zM848 1047h172v-666q0 -179 -118.5 -288t-309.5 -109
t-309.5 109t-118.5 288v666h172v-637q0 -273 256 -273t256 273v637z" />
    <glyph glyph-name="Uhungarumlaut" unicode="&#x170;" horiz-adv-x="1462" 
d="M489 1581v21l111 278h209v-20l-191 -279h-129zM772 1581v21l111 278h209v-20l-191 -279h-129zM729 -18q-253 0 -399 139t-146 385v928h178v-924q0 -170 93.5 -267.5t273.5 -97.5q183 0 276 97t93 268v924h180v-928q0 -247 -146 -385.5t-403 -138.5z" />
    <glyph glyph-name="uhungarumlaut" unicode="&#x171;" horiz-adv-x="1183" 
d="M686 1473l-190 -279h-129v20l110 279h209v-20zM649 1194v20l111 279h209v-20l-191 -279h-129zM848 1047h172v-666q0 -179 -118.5 -288t-309.5 -109t-309.5 109t-118.5 288v666h172v-637q0 -273 256 -273t256 273v637z" />
    <glyph glyph-name="Uogonek" unicode="&#x172;" horiz-adv-x="1462" 
d="M1098 1434h180v-928q0 -211 -108 -344.5t-304 -167.5q-159 -84 -159 -193q0 -49 31 -72.5t77 -23.5q34 0 66 8v-139q-43 -16 -103 -16q-99 0 -167 55.5t-68 150.5q0 134 121 220q-224 19 -352 156t-128 366v928h178v-924q0 -170 93.5 -267.5t273.5 -97.5q183 0 276 97
t93 268v924z" />
    <glyph glyph-name="uogonek" unicode="&#x173;" horiz-adv-x="1183" 
d="M848 1047h172v-666q0 -144 -79 -244.5t-214 -136.5q-174 -83 -174 -199q0 -49 31.5 -72.5t77.5 -23.5q33 0 65 8v-139q-43 -16 -102 -16q-99 0 -167.5 55.5t-68.5 150.5q0 141 129 224q-161 22 -257.5 127.5t-96.5 265.5v666h172v-637q0 -273 256 -273t256 273v637z" />
    <glyph glyph-name="Wcircumflex" unicode="&#x174;" horiz-adv-x="1855" 
d="M608 1585v21l209 270h227l209 -270v-21h-172l-147 164h-8l-148 -164h-170zM414 0l-353 1413v21h175l274 -1155h8l316 1155h184l319 -1155h9l272 1155h176v-21l-356 -1413h-181l-325 1145h-8l-332 -1145h-178z" />
    <glyph glyph-name="wcircumflex" unicode="&#x175;" horiz-adv-x="1536" 
d="M461 1176v20l209 270h227l209 -270v-20h-172l-148 163h-8l-147 -163h-170zM338 0l-297 1026v21h178l209 -814h8l246 814h176l246 -814h8l209 814h174v-21l-295 -1026h-178l-246 813h-8l-252 -813h-178z" />
    <glyph glyph-name="Ycircumflex" unicode="&#x176;" horiz-adv-x="1329" 
d="M356 1585v21l209 270h228l208 -270v-21h-172l-147 164h-8l-148 -164h-170zM575 0v598l-514 815v21h201l402 -664h8l399 664h197v-21l-512 -815v-598h-181z" />
    <glyph glyph-name="ycircumflex" unicode="&#x177;" horiz-adv-x="1079" 
d="M236 1198v21l208 270h228l209 -270v-21h-172l-148 164h-8l-147 -164h-170zM285 -469v20l178 457l-2 4l-420 1014v21h184l318 -822h8l307 822h180v-21l-579 -1495h-174z" />
    <glyph glyph-name="Ydieresis" unicode="&#x178;" horiz-adv-x="1329" 
d="M500 1634q-59 0 -89 32t-30 89q0 56 30 87.5t89 31.5q57 0 87.5 -32t30.5 -87q0 -57 -30.5 -89t-87.5 -32zM858 1634q-59 0 -89 32t-30 89q0 56 30 87.5t89 31.5q57 0 88 -32t31 -87q0 -56 -30.5 -88.5t-88.5 -32.5zM575 0v598l-514 815v21h201l402 -664h8l399 664h197
v-21l-512 -815v-598h-181z" />
    <glyph glyph-name="Zacute" unicode="&#x179;" horiz-adv-x="1222" 
d="M498 1581v21l155 278h236v-20l-238 -279h-153zM82 0v158l823 1102v8h-805v166h1028v-162l-821 -1100v-8h834v-164h-1059z" />
    <glyph glyph-name="zacute" unicode="&#x17a;" horiz-adv-x="1028" 
d="M406 1194v20l155 279h236v-20l-238 -279h-153zM113 0v141l596 752v8h-594v146h796v-144l-594 -749v-9h598v-145h-802z" />
    <glyph glyph-name="Zdotaccent" unicode="&#x17b;" horiz-adv-x="1222" 
d="M606 1634q-59 0 -89 32t-30 89q0 56 30 87.5t89 31.5q57 0 88 -32t31 -87q0 -56 -30.5 -88.5t-88.5 -32.5zM82 0v158l823 1102v8h-805v166h1028v-162l-821 -1100v-8h834v-164h-1059z" />
    <glyph glyph-name="zdotaccent" unicode="&#x17c;" horiz-adv-x="1028" 
d="M514 1247q-59 0 -89 32t-30 89q0 56 30 87.5t89 31.5q57 0 88 -32t31 -87q0 -56 -30.5 -88.5t-88.5 -32.5zM113 0v141l596 752v8h-594v146h796v-144l-594 -749v-9h598v-145h-802z" />
    <glyph glyph-name="Zcaron" unicode="&#x17d;" horiz-adv-x="1222" 
d="M494 1585l-209 270v21h170l147 -164h8l148 164h172v-21l-209 -270h-227zM82 0v158l823 1102v8h-805v166h1028v-162l-821 -1100v-8h834v-164h-1059z" />
    <glyph glyph-name="zcaron" unicode="&#x17e;" horiz-adv-x="1028" 
d="M401 1198l-208 270v21h169l148 -164h8l148 164h172v-21l-209 -270h-228zM113 0v141l596 752v8h-594v146h796v-144l-594 -749v-9h598v-145h-802z" />
    <glyph glyph-name="florin" unicode="&#x192;" horiz-adv-x="888" 
d="M82 -469v20l176 1149h-174v144h197l47 313q23 159 111.5 242.5t236.5 83.5q64 0 131 -19v-145q-59 16 -121 16q-82 -1 -128.5 -51t-59.5 -135l-47 -305h270v-144h-291l-176 -1169h-172z" />
    <glyph glyph-name="uni01CD" unicode="&#x1cd;" horiz-adv-x="1396" 
d="M811 1585h-227l-209 270v21h170l147 -164h8l148 164h172v-21zM807 1434l528 -1414v-20h-190l-135 375h-627l-135 -375h-187v20l527 1414h219zM440 535h512l-252 700h-8z" />
    <glyph glyph-name="uni01CE" unicode="&#x1ce;" horiz-adv-x="1124" 
d="M442 1198l-209 270v21h170l148 -164h8l148 164h172v-21l-209 -270h-228zM467 -18q-167 0 -266 91.5t-99 231.5q0 143 108 235.5t325 92.5q122 0 258 -37v104q0 95 -60.5 156.5t-181.5 61.5q-110 0 -170 -53.5t-62 -133.5h-165q0 149 111.5 241.5t285.5 92.5
q194 0 302 -102t108 -258v-705h-146l-12 147h-8q-47 -79 -132.5 -122t-195.5 -43zM498 125q130 0 212.5 82t82.5 199v53q-118 37 -258 37q-127 0 -193 -48.5t-66 -140.5q0 -82 56 -132t166 -50z" />
    <glyph glyph-name="uni01CF" unicode="&#x1cf;" horiz-adv-x="589" 
d="M182 1585l-209 270v21h170l148 -164h8l147 164h172v-21l-208 -270h-228zM205 0v1434h180v-1434h-180z" />
    <glyph glyph-name="uni01D0" unicode="&#x1d0;" horiz-adv-x="520" 
d="M158 1198l-209 270v21h170l147 -164h8l148 164h172v-21l-209 -270h-227zM184 0v1047h172v-1047h-172z" />
    <glyph glyph-name="uni01D1" unicode="&#x1d1;" horiz-adv-x="1515" 
d="M655 1585l-209 270v21h170l148 -164h8l148 164h172v-21l-209 -270h-228zM758 -18q-130 0 -235.5 37t-179 103.5t-123.5 159t-73.5 201.5t-23.5 234q0 126 23.5 235t73.5 201.5t123.5 158.5t179 103t235.5 37q129 0 234.5 -37t179.5 -103t124 -158.5t73.5 -202
t23.5 -234.5t-23.5 -234t-73.5 -201.5t-124 -159t-179.5 -103.5t-234.5 -37zM758 150q99 0 177 31.5t128.5 84.5t83.5 127t47 154t14 170t-14 170t-47 154t-83.5 127t-128.5 84.5t-177 31.5t-177.5 -31.5t-129 -84.5t-84 -127t-47 -153.5t-13.5 -170.5q0 -90 14 -170
t47 -154t84 -127t129 -84.5t177 -31.5z" />
    <glyph glyph-name="uni01D2" unicode="&#x1d2;" horiz-adv-x="1150" 
d="M463 1198l-209 270v21h170l147 -164h9l147 164h172v-21l-209 -270h-227zM575 -18q-120 0 -212 41.5t-148 116t-84.5 171t-28.5 211.5t29 212t85.5 172t148.5 117t210 42t210 -42t149 -117t86 -172t29 -212t-28.5 -211t-85 -170.5t-148.5 -116.5t-212 -42zM575 135
q153 0 226 104t73 283q0 87 -17 156.5t-52 122t-93.5 81.5t-136.5 29q-152 0 -225.5 -105.5t-73.5 -283.5t73.5 -282.5t225.5 -104.5z" />
    <glyph glyph-name="Gcaron" unicode="&#x1e6;" horiz-adv-x="1476" 
d="M639 1585l-209 270v21h170l148 -164h8l147 164h172v-21l-209 -270h-227zM750 -18q-203 0 -345.5 92.5t-212 255.5t-69.5 383q0 339 163 539t464 200q255 0 406.5 -130t172.5 -347h-184q-14 139 -116 224t-279 85q-97 0 -174 -32t-126.5 -85.5t-82.5 -128t-46.5 -155
t-13.5 -170.5q0 -114 23 -211t72.5 -179t138.5 -129t209 -47q206 0 320 125.5t114 319.5h-393v162h563v-121q0 -300 -159.5 -475.5t-444.5 -175.5z" />
    <glyph glyph-name="gcaron" unicode="&#x1e7;" 
d="M463 1198l-209 270v21h170l147 -164h9l147 164h172v-21l-209 -270h-227zM580 -487q-197 0 -319.5 100t-127.5 254h166q7 -85 77 -146t204 -61q144 0 217 78.5t73 204.5v202h-8q-44 -74 -124 -118.5t-191 -44.5q-143 0 -245 71.5t-150.5 191.5t-49.5 277q1 253 120 398
t325 145q111 0 191 -45t124 -119h8l23 146h149v-1108q0 -90 -30.5 -167.5t-88 -135.5t-145.5 -90.5t-198 -32.5zM575 135q148 0 223.5 110t75.5 277q0 80 -17.5 149t-53 123.5t-94 85.5t-134.5 31q-79 0 -138 -30.5t-93.5 -85t-51 -123t-16.5 -150.5q0 -81 16.5 -149
t51 -122.5t93.5 -85t138 -30.5z" />
    <glyph glyph-name="Scommaaccent" unicode="&#x218;" horiz-adv-x="1294" 
d="M645 -18q-256 0 -396.5 120.5t-146.5 327.5h183q8 -135 100.5 -211t259.5 -76q350 0 350 250q0 99 -65 153t-191 81l-209 45q-191 41 -285.5 133.5t-94.5 253.5q0 183 130.5 288t366.5 105q229 0 368.5 -117.5t141.5 -308.5h-182q-6 122 -89 192t-243 70
q-144 0 -225.5 -56t-81.5 -173q0 -85 62.5 -136t181.5 -77l194 -41q201 -42 304.5 -145.5t103.5 -266.5q0 -192 -144 -301.5t-393 -109.5zM514 -432v20l37 308h192v-21l-100 -307h-129z" />
    <glyph glyph-name="scommaaccent" unicode="&#x219;" horiz-adv-x="1046" 
d="M530 -18q-189 0 -306.5 97.5t-121.5 266.5h172q0 -102 70 -156.5t186 -54.5q113 0 176.5 38t63.5 112q0 114 -160 149l-209 39q-129 26 -197.5 101.5t-68.5 191.5q0 132 104.5 215.5t276.5 83.5q179 0 291.5 -91.5t112.5 -246.5h-168q-4 96 -68.5 144.5t-167.5 48.5
q-98 0 -156.5 -39.5t-58.5 -114.5q0 -120 182 -148l164 -30q154 -35 225.5 -103.5t71.5 -199.5q0 -93 -57 -163t-150 -105t-207 -35zM401 -432v20l37 308h193v-21l-101 -307h-129z" />
    <glyph glyph-name="uni021A" unicode="&#x21a;" horiz-adv-x="1212" 
d="M696 0h-30l-58 -94q87 0 143 -46t56 -122q0 -79 -60 -131.5t-180 -52.5q-99 0 -165 48t-66 138h123q0 -33 27 -51.5t79 -18.5q40 0 68.5 17.5t28.5 50.5q0 28 -24.5 46.5t-66.5 18.5h-65l-51 64l67 133h-6v1270h-444v164h1069v-164h-445v-1270z" />
    <glyph glyph-name="uni021B" unicode="&#x21b;" horiz-adv-x="780" 
d="M492 -94q87 0 142.5 -46t55.5 -122q0 -79 -59.5 -131.5t-179.5 -52.5q-99 0 -165.5 48t-66.5 138h123q0 -33 27.5 -51.5t79.5 -18.5q40 0 68 17.5t28 50.5q0 29 -24 47t-66 18h-66l-51 64l68 133q-150 51 -150 262v639h-174v146h178v223l148 57h20v-280h256v-146h-256
v-625q0 -75 33 -109t104 -34q57 0 103 12h20v-147q-66 -16 -151 -16z" />
    <glyph glyph-name="uni0237" unicode="&#x237;" horiz-adv-x="548" 
d="M82 -487q-38 0 -82 12v145q40 -6 78 -6q135 0 135 150v1233h172v-1231q0 -153 -73.5 -228t-229.5 -75z" />
    <glyph glyph-name="circumflex" unicode="&#x2c6;" horiz-adv-x="788" 
d="M72 1198v21l209 270h227l209 -270v-21h-172l-148 164h-8l-147 -164h-170z" />
    <glyph glyph-name="caron" unicode="&#x2c7;" horiz-adv-x="788" 
d="M281 1198l-209 270v21h170l147 -164h8l148 164h172v-21l-209 -270h-227z" />
    <glyph glyph-name="breve" unicode="&#x2d8;" horiz-adv-x="741" 
d="M371 1198q-141 0 -220 80.5t-79 210.5h149q3 -61 39.5 -97t110.5 -36t110 36.5t39 96.5h150q0 -131 -77 -211t-222 -80z" />
    <glyph glyph-name="dotaccent" unicode="&#x2d9;" horiz-adv-x="360" 
d="M180 1247q-59 0 -89 32t-30 89q0 56 30 87.5t89 31.5q57 0 88 -32t31 -87q0 -56 -30.5 -88.5t-88.5 -32.5z" />
    <glyph glyph-name="ring" unicode="&#x2da;" horiz-adv-x="600" 
d="M299 1171q-99 0 -163 63t-64 161q0 99 64 162t163 63q101 0 165 -62.5t64 -162.5q0 -98 -64 -161t-165 -63zM297 1296q45 0 72.5 28t27.5 71t-27.5 71.5t-72.5 28.5q-44 0 -70 -28t-26 -72q0 -43 26 -71t70 -28z" />
    <glyph glyph-name="ogonek" unicode="&#x2db;" horiz-adv-x="481" 
d="M307 -442q-99 0 -167 55.5t-68 150.5q0 176 209 269l129 -33q-174 -83 -174 -199q0 -49 31 -72.5t77 -23.5q34 0 66 8v-139q-43 -16 -103 -16z" />
    <glyph glyph-name="tilde" unicode="&#x2dc;" horiz-adv-x="788" 
d="M518 1227q-65 0 -135 45l-29 18q-49 29 -84 29q-33 0 -54 -24t-21 -64h-123v31q0 96 56 148t144 52q68 0 138 -45l28 -18q49 -29 82 -29q34 0 55 25t21 63h121v-31q0 -98 -55 -149t-144 -51z" />
    <glyph glyph-name="hungarumlaut" unicode="&#x2dd;" horiz-adv-x="745" 
d="M72 1194v20l110 279h209v-20l-190 -279h-129zM354 1194v20l111 279h209v-20l-191 -279h-129z" />
    <glyph glyph-name="uni0326" unicode="&#x326;" horiz-adv-x="0" 
d="M-332 -432v20l37 308h193v-21l-101 -307h-129z" />
    <glyph glyph-name="Wgrave" unicode="&#x1e80;" horiz-adv-x="1855" 
d="M891 1581l-238 279v20h236l155 -278v-21h-153zM414 0l-353 1413v21h175l274 -1155h8l316 1155h184l319 -1155h9l272 1155h176v-21l-356 -1413h-181l-325 1145h-8l-332 -1145h-178z" />
    <glyph glyph-name="wgrave" unicode="&#x1e81;" horiz-adv-x="1536" 
d="M743 1171l-237 279v20h235l156 -278v-21h-154zM338 0l-297 1026v21h178l209 -814h8l246 814h176l246 -814h8l209 814h174v-21l-295 -1026h-178l-246 813h-8l-252 -813h-178z" />
    <glyph glyph-name="Wacute" unicode="&#x1e82;" horiz-adv-x="1855" 
d="M815 1581v21l156 278h235v-20l-237 -279h-154zM414 0l-353 1413v21h175l274 -1155h8l316 1155h184l319 -1155h9l272 1155h176v-21l-356 -1413h-181l-325 1145h-8l-332 -1145h-178z" />
    <glyph glyph-name="wacute" unicode="&#x1e83;" horiz-adv-x="1536" 
d="M668 1171v21l155 278h236v-20l-238 -279h-153zM338 0l-297 1026v21h178l209 -814h8l246 814h176l246 -814h8l209 814h174v-21l-295 -1026h-178l-246 813h-8l-252 -813h-178z" />
    <glyph glyph-name="Wdieresis" unicode="&#x1e84;" horiz-adv-x="1855" 
d="M752 1634q-59 0 -89 32t-30 89q0 56 30 87.5t89 31.5q57 0 87.5 -32t30.5 -87q0 -57 -30.5 -89t-87.5 -32zM1110 1634q-59 0 -89 32t-30 89q0 56 30 87.5t89 31.5q57 0 88 -32t31 -87q0 -56 -30.5 -88.5t-88.5 -32.5zM414 0l-353 1413v21h175l274 -1155h8l316 1155h184
l319 -1155h9l272 1155h176v-21l-356 -1413h-181l-325 1145h-8l-332 -1145h-178z" />
    <glyph glyph-name="wdieresis" unicode="&#x1e85;" horiz-adv-x="1536" 
d="M604 1225q-59 0 -89 32t-30 89q0 55 30 86.5t89 31.5q58 0 88.5 -31.5t30.5 -86.5q0 -56 -30.5 -88.5t-88.5 -32.5zM963 1225q-59 0 -89 32t-30 89q0 55 30 86.5t89 31.5q57 0 87.5 -31.5t30.5 -86.5q0 -57 -30.5 -89t-87.5 -32zM338 0l-297 1026v21h178l209 -814h8
l246 814h176l246 -814h8l209 814h174v-21l-295 -1026h-178l-246 813h-8l-252 -813h-178z" />
    <glyph glyph-name="uni1EBC" unicode="&#x1ebc;" horiz-adv-x="1249" 
d="M774 1614q-65 0 -135 45l-29 18q-49 29 -84 29q-33 0 -54 -24t-21 -64h-123v31q0 96 56 148t144 52q68 0 138 -45l28 -18q49 -29 82 -29q34 0 55 25t21 63h121v-30q0 -98 -55 -149.5t-144 -51.5zM205 0v1434h921v-164h-743v-449h680v-164h-680v-495h743v-162h-921z" />
    <glyph glyph-name="uni1EBD" unicode="&#x1ebd;" horiz-adv-x="1130" 
d="M672 1227q-65 0 -135 45l-29 18q-49 29 -84 29q-33 0 -54.5 -24t-21.5 -64h-123v31q0 96 56 148t145 52q67 0 137 -45l29 -18q49 -29 82 -29q34 0 55 25t21 63h120v-31q0 -98 -54.5 -149t-143.5 -51zM578 -18q-150 0 -259.5 71.5t-163 192.5t-53.5 276q0 116 29 213
t85.5 171.5t148.5 116.5t210 42q144 0 247.5 -67.5t154.5 -181.5t51 -261v-84h-745q0 -154 76 -245t219 -91q104 0 173.5 43t90.5 125h172q-22 -143 -144.5 -232t-291.5 -89zM285 614h565q0 131 -70.5 214t-204.5 83q-140 0 -212.5 -82.5t-77.5 -214.5z" />
    <glyph glyph-name="Ygrave" unicode="&#x1ef2;" horiz-adv-x="1329" 
d="M639 1581l-238 279v20h236l156 -278v-21h-154zM575 0v598l-514 815v21h201l402 -664h8l399 664h197v-21l-512 -815v-598h-181z" />
    <glyph glyph-name="ygrave" unicode="&#x1ef3;" horiz-adv-x="1079" 
d="M518 1194l-237 279v20h235l156 -279v-20h-154zM285 -469v20l178 457l-2 4l-420 1014v21h184l318 -822h8l307 822h180v-21l-579 -1495h-174z" />
    <glyph glyph-name="endash" unicode="&#x2013;" horiz-adv-x="1273" 
d="M123 520v160h1028v-160h-1028z" />
    <glyph glyph-name="emdash" unicode="&#x2014;" horiz-adv-x="2256" 
d="M123 520v160h2011v-160h-2011z" />
    <glyph glyph-name="quoteleft" unicode="&#x2018;" horiz-adv-x="438" 
d="M352 1434v-21l-63 -465h-203v21l127 465h139z" />
    <glyph glyph-name="quoteright" unicode="&#x2019;" horiz-adv-x="438" 
d="M86 948v21l64 465h202v-21l-127 -465h-139z" />
    <glyph glyph-name="quotesinglbase" unicode="&#x201a;" horiz-adv-x="438" 
d="M86 -274v20l64 465h202v-21l-127 -464h-139z" />
    <glyph glyph-name="quotedblleft" unicode="&#x201c;" horiz-adv-x="786" 
d="M352 1434v-21l-63 -465h-203v21l127 465h139zM700 1434v-21l-63 -465h-203v21l127 465h139z" />
    <glyph glyph-name="quotedblright" unicode="&#x201d;" horiz-adv-x="786" 
d="M86 948v21l64 465h202v-21l-127 -465h-139zM434 948v21l64 465h202v-21l-127 -465h-139z" />
    <glyph glyph-name="quotedblbase" unicode="&#x201e;" horiz-adv-x="786" 
d="M86 -274v20l64 465h202v-21l-127 -464h-139zM434 -274v20l64 465h202v-21l-127 -464h-139z" />
    <glyph glyph-name="dagger" unicode="&#x2020;" horiz-adv-x="1011" 
d="M807 1141v-148h-225v-305l-21 -338h-110l-21 338v305h-225v148h225v293h152v-293h225z" />
    <glyph glyph-name="daggerdbl" unicode="&#x2021;" horiz-adv-x="1011" 
d="M578 993l-17 -276l17 -275h229v-147h-225v-293h-152v293h-225v147h229l17 275l-17 276h-229v148h225v293h152v-293h225v-148h-229z" />
    <glyph glyph-name="bullet" unicode="&#x2022;" horiz-adv-x="790" 
d="M395 319q-131 0 -201.5 77.5t-70.5 205.5q0 124 70.5 200.5t201.5 76.5q128 0 200.5 -77t72.5 -200q0 -127 -72.5 -205t-200.5 -78z" />
    <glyph glyph-name="ellipsis" unicode="&#x2026;" horiz-adv-x="1617" 
d="M256 -18q-59 0 -90 33.5t-31 90.5q0 56 31.5 89.5t89.5 33.5q57 0 89 -34t32 -89q0 -57 -32 -90.5t-89 -33.5zM809 -18q-59 0 -90 33.5t-31 90.5q0 56 31.5 89.5t89.5 33.5q57 0 89 -34t32 -89q0 -57 -32 -90.5t-89 -33.5zM1362 -18q-59 0 -90 33.5t-31 90.5
q0 56 31.5 89.5t89.5 33.5q57 0 89 -34t32 -89q0 -57 -32 -90.5t-89 -33.5z" />
    <glyph glyph-name="perthousand" unicode="&#x2030;" horiz-adv-x="2465" 
d="M444 713q-152 0 -226.5 102t-74.5 270t74.5 270.5t226.5 102.5q151 0 226 -102.5t75 -270.5t-74.5 -270t-226.5 -102zM309 0v20l971 1414h158v-21l-967 -1413h-162zM444 844q156 0 156 241q0 242 -156 242q-155 0 -155 -242q0 -241 155 -241zM1305 -18q-152 0 -226.5 102
t-74.5 270t74.5 270.5t226.5 102.5q151 0 226 -102.5t75 -270.5t-74.5 -270t-226.5 -102zM2021 -18q-152 0 -226.5 102t-74.5 270t74.5 270.5t226.5 102.5q151 0 226 -102.5t75 -270.5t-74.5 -270t-226.5 -102zM1305 113q155 0 155 241q0 242 -155 242q-156 0 -156 -242
q0 -241 156 -241zM2021 113q156 0 156 241q0 242 -156 242q-155 0 -155 -242q0 -241 155 -241z" />
    <glyph glyph-name="guilsinglleft" unicode="&#x2039;" horiz-adv-x="700" 
d="M422 135l-340 434v21l340 434h156v-20l-287 -424l287 -424v-21h-156z" />
    <glyph glyph-name="guilsinglright" unicode="&#x203a;" horiz-adv-x="700" 
d="M123 135v21l287 424l-287 424v20h156l339 -434v-21l-339 -434h-156z" />
    <glyph glyph-name="fraction" unicode="&#x2044;" horiz-adv-x="1087" 
d="M-20 -205v21l970 1822h158v-20l-967 -1823h-161z" />
    <glyph glyph-name="Euro" unicode="&#x20ac;" horiz-adv-x="1554" 
d="M858 147q170 0 267 83t124 235h183q-30 -227 -176 -355t-398 -128q-243 0 -397.5 129.5t-208.5 359.5h-129v156h106q-4 58 -4 88q0 48 2 73h-104v156h125q51 238 207.5 373t402.5 135q255 0 402.5 -133t171.5 -365h-185q-18 155 -115.5 242.5t-273.5 87.5
q-172 0 -275.5 -92t-144.5 -248h555l-41 -156h-540q-2 -25 -2 -73q0 -30 4 -88h508l-41 -156h-439q43 -148 145.5 -236t270.5 -88z" />
    <glyph glyph-name="uni2116" unicode="&#x2116;" horiz-adv-x="2369" 
d="M1825 682q-170 0 -255 106.5t-85 278.5q0 169 86.5 277t253.5 108t253.5 -108t86.5 -277q0 -82 -20 -150.5t-60.5 -121.5t-106.5 -83t-153 -30zM205 0v1434h194l734 -1141h8v1141h176v-1434h-197l-733 1135h-8v-1135h-174zM1825 823q98 0 144 65.5t46 178.5t-46 178.5
t-144 65.5t-144.5 -66.5t-46.5 -177.5q0 -112 47 -178t144 -66zM1524 422v145h626v-145h-626z" />
    <glyph glyph-name="trademark" unicode="&#x2122;" horiz-adv-x="1501" 
d="M281 764v551h-209v119h540v-119h-206v-551h-125zM727 764v670h139l211 -357h4l211 357h138v-670h-119v479h-4l-217 -364h-21l-219 366h-4v-481h-119z" />
    <glyph glyph-name="minus" unicode="&#x2212;" horiz-adv-x="974" 
d="M10 567v148h955v-148h-955z" />
    <glyph glyph-name="notequal" unicode="&#x2260;" horiz-adv-x="974" 
d="M965 758h-324l-147 -242h471v-147h-564l-100 -164h-147v20l88 144h-232v147h324l147 242h-471v147h563l101 164h147v-20l-88 -144h232v-147z" />
    <glyph glyph-name="lessequal" unicode="&#x2264;" horiz-adv-x="1067" 
d="M965 262l-863 377v205l863 377v-166l-732 -310v-8l732 -309v-166zM102 0v147h863v-147h-863z" />
    <glyph glyph-name="greaterequal" unicode="&#x2265;" horiz-adv-x="1067" 
d="M102 262v166l732 309v8l-732 310v166l863 -377v-205zM102 0v147h863v-147h-863z" />
    <glyph glyph-name="i.loclTRK" horiz-adv-x="520" 
d="M270 1247q-59 0 -88.5 32t-29.5 89q0 56 30 87.5t88 31.5q57 0 88 -32t31 -87q0 -56 -30.5 -88.5t-88.5 -32.5zM184 0v1047h172v-1047h-172z" />
    <glyph glyph-name="a.ss01" 
d="M549 -18q-145 0 -247.5 72.5t-151 192t-48.5 273.5q0 158 48.5 279.5t150.5 193.5t246 72q111 0 191 -45t124 -119h8l23 146h149v-1047h-149l-14 145h-9q-41 -75 -124.5 -119t-196.5 -44zM575 135q101 0 170 54t99 138.5t30 194.5q0 80 -17.5 149t-53 123.5t-94 85.5
t-134.5 31q-79 0 -138 -30.5t-93.5 -85t-51 -123t-16.5 -150.5q0 -83 16.5 -151t51 -122t93.5 -84t138 -30z" />
    <glyph glyph-name="aacute.ss01" 
d="M494 1194v20l155 279h236v-20l-238 -279h-153zM549 -18q-145 0 -247.5 72.5t-151 192t-48.5 273.5q0 158 48.5 279.5t150.5 193.5t246 72q111 0 191 -45t124 -119h8l23 146h149v-1047h-149l-14 145h-9q-41 -75 -124.5 -119t-196.5 -44zM575 135q101 0 170 54t99 138.5
t30 194.5q0 80 -17.5 149t-53 123.5t-94 85.5t-134.5 31q-79 0 -138 -30.5t-93.5 -85t-51 -123t-16.5 -150.5q0 -83 16.5 -151t51 -122t93.5 -84t138 -30z" />
    <glyph glyph-name="abreve.ss01" 
d="M602 1198q-141 0 -220 80.5t-79 210.5h150q7 -133 149 -133q74 0 110.5 36.5t39.5 96.5h149q0 -131 -77 -211t-222 -80zM549 -18q-145 0 -247.5 72.5t-151 192t-48.5 273.5q0 158 48.5 279.5t150.5 193.5t246 72q111 0 191 -45t124 -119h8l23 146h149v-1047h-149l-14 145
h-9q-41 -75 -124.5 -119t-196.5 -44zM575 135q101 0 170 54t99 138.5t30 194.5q0 80 -17.5 149t-53 123.5t-94 85.5t-134.5 31q-79 0 -138 -30.5t-93.5 -85t-51 -123t-16.5 -150.5q0 -83 16.5 -151t51 -122t93.5 -84t138 -30z" />
    <glyph glyph-name="uni01CE.ss01" 
d="M489 1198l-208 270v21h170l147 -164h8l148 164h172v-21l-209 -270h-228zM549 -18q-145 0 -247.5 72.5t-151 192t-48.5 273.5q0 158 48.5 279.5t150.5 193.5t246 72q111 0 191 -45t124 -119h8l23 146h149v-1047h-149l-14 145h-9q-41 -75 -124.5 -119t-196.5 -44zM575 135
q101 0 170 54t99 138.5t30 194.5q0 80 -17.5 149t-53 123.5t-94 85.5t-134.5 31q-79 0 -138 -30.5t-93.5 -85t-51 -123t-16.5 -150.5q0 -83 16.5 -151t51 -122t93.5 -84t138 -30z" />
    <glyph glyph-name="acircumflex.ss01" 
d="M287 1198v21l209 270h227l209 -270v-21h-172l-148 164h-8l-147 -164h-170zM549 -18q-145 0 -247.5 72.5t-151 192t-48.5 273.5q0 158 48.5 279.5t150.5 193.5t246 72q111 0 191 -45t124 -119h8l23 146h149v-1047h-149l-14 145h-9q-41 -75 -124.5 -119t-196.5 -44z
M575 135q101 0 170 54t99 138.5t30 194.5q0 80 -17.5 149t-53 123.5t-94 85.5t-134.5 31q-79 0 -138 -30.5t-93.5 -85t-51 -123t-16.5 -150.5q0 -83 16.5 -151t51 -122t93.5 -84t138 -30z" />
    <glyph glyph-name="adieresis.ss01" 
d="M430 1247q-59 0 -89 32t-30 89q0 56 30 87.5t89 31.5q57 0 88 -32t31 -87q0 -56 -30.5 -88.5t-88.5 -32.5zM788 1247q-59 0 -88.5 32t-29.5 89q0 56 30 87.5t88 31.5q57 0 88 -32t31 -87q0 -56 -30.5 -88.5t-88.5 -32.5zM549 -18q-145 0 -247.5 72.5t-151 192
t-48.5 273.5q0 158 48.5 279.5t150.5 193.5t246 72q111 0 191 -45t124 -119h8l23 146h149v-1047h-149l-14 145h-9q-41 -75 -124.5 -119t-196.5 -44zM575 135q101 0 170 54t99 138.5t30 194.5q0 80 -17.5 149t-53 123.5t-94 85.5t-134.5 31q-79 0 -138 -30.5t-93.5 -85
t-51 -123t-16.5 -150.5q0 -83 16.5 -151t51 -122t93.5 -84t138 -30z" />
    <glyph glyph-name="agrave.ss01" 
d="M569 1194l-237 279v20h235l156 -279v-20h-154zM549 -18q-145 0 -247.5 72.5t-151 192t-48.5 273.5q0 158 48.5 279.5t150.5 193.5t246 72q111 0 191 -45t124 -119h8l23 146h149v-1047h-149l-14 145h-9q-41 -75 -124.5 -119t-196.5 -44zM575 135q101 0 170 54t99 138.5
t30 194.5q0 80 -17.5 149t-53 123.5t-94 85.5t-134.5 31q-79 0 -138 -30.5t-93.5 -85t-51 -123t-16.5 -150.5q0 -83 16.5 -151t51 -122t93.5 -84t138 -30z" />
    <glyph glyph-name="amacron.ss01" 
d="M328 1264v166h559v-166h-559zM549 -18q-145 0 -247.5 72.5t-151 192t-48.5 273.5q0 158 48.5 279.5t150.5 193.5t246 72q111 0 191 -45t124 -119h8l23 146h149v-1047h-149l-14 145h-9q-41 -75 -124.5 -119t-196.5 -44zM575 135q101 0 170 54t99 138.5t30 194.5
q0 80 -17.5 149t-53 123.5t-94 85.5t-134.5 31q-79 0 -138 -30.5t-93.5 -85t-51 -123t-16.5 -150.5q0 -83 16.5 -151t51 -122t93.5 -84t138 -30z" />
    <glyph glyph-name="aogonek.ss01" 
d="M1042 0q-174 -83 -174 -199q0 -49 31.5 -72.5t77.5 -23.5q33 0 65 8v-139q-43 -16 -102 -16q-99 0 -167 55.5t-68 150.5q0 168 186 259l-12 122h-9q-41 -75 -124.5 -119t-196.5 -44q-145 0 -247.5 72.5t-151 192t-48.5 273.5q0 158 48.5 279.5t150.5 193.5t246 72
q111 0 191 -45t124 -119h8l23 146h149v-1047zM575 135q101 0 170 54t99 138.5t30 194.5q0 80 -17.5 149t-53 123.5t-94 85.5t-134.5 31q-79 0 -138 -30.5t-93.5 -85t-51 -123t-16.5 -150.5q0 -83 16.5 -151t51 -122t93.5 -84t138 -30z" />
    <glyph glyph-name="aring.ss01" 
d="M602 1171q-99 0 -163 63t-64 161q0 99 64 162t163 63q101 0 165 -62.5t64 -162.5q0 -98 -64 -161t-165 -63zM600 1296q45 0 72.5 28t27.5 71t-27.5 71.5t-72.5 28.5q-44 0 -70 -28t-26 -72q0 -43 26 -71t70 -28zM549 -18q-145 0 -247.5 72.5t-151 192t-48.5 273.5
q0 158 48.5 279.5t150.5 193.5t246 72q111 0 191 -45t124 -119h8l23 146h149v-1047h-149l-14 145h-9q-41 -75 -124.5 -119t-196.5 -44zM575 135q101 0 170 54t99 138.5t30 194.5q0 80 -17.5 149t-53 123.5t-94 85.5t-134.5 31q-79 0 -138 -30.5t-93.5 -85t-51 -123
t-16.5 -150.5q0 -83 16.5 -151t51 -122t93.5 -84t138 -30z" />
    <glyph glyph-name="atilde.ss01" 
d="M698 1227q-65 0 -135 45l-28 18q-49 29 -84 29q-33 0 -54.5 -24t-21.5 -64h-123v31q0 96 56 148t145 52q67 0 137 -45l28 -18q49 -29 82 -29q34 0 55 25t21 63h121v-31q0 -98 -55 -149t-144 -51zM549 -18q-145 0 -247.5 72.5t-151 192t-48.5 273.5q0 158 48.5 279.5
t150.5 193.5t246 72q111 0 191 -45t124 -119h8l23 146h149v-1047h-149l-14 145h-9q-41 -75 -124.5 -119t-196.5 -44zM575 135q101 0 170 54t99 138.5t30 194.5q0 80 -17.5 149t-53 123.5t-94 85.5t-134.5 31q-79 0 -138 -30.5t-93.5 -85t-51 -123t-16.5 -150.5
q0 -83 16.5 -151t51 -122t93.5 -84t138 -30z" />
    <glyph glyph-name="caron.Slovak" horiz-adv-x="356" 
d="M82 1085v349h192v-21l-71 -328h-121z" />
    </font>
</defs>
</svg>
