<?xml version="1.0" standalone="no"?>
<!DOCTYPE svg PUBLIC "-//W3C//DTD SVG 1.1//EN" "http://www.w3.org/Graphics/SVG/1.1/DTD/svg11.dtd" >
<svg xmlns="http://www.w3.org/2000/svg" xmlns:xlink="http://www.w3.org/1999/xlink" version="1.1">
<metadata>
Created by FontForge 20170731 at Tue Dec 12 18:00:57 2023
 By Aleksey,,,
Copyright (c) 2018 Monotype GmbH. All rights reserved.
</metadata>
<defs>
<font id="Avenir-Medium" horiz-adv-x="0" >
  <font-face 
    font-family="Avenir Medium"
    font-weight="500"
    font-stretch="normal"
    units-per-em="2048"
    panose-1="2 11 6 3 2 2 3 2 2 4"
    ascent="1638"
    descent="-410"
    x-height="971"
    cap-height="1450"
    bbox="-356 -954 2871 2220"
    underline-thickness="102"
    underline-position="-358"
    unicode-range="U+000D-FEFF"
  />
<missing-glyph horiz-adv-x="1048" 
d="M1049 1470v-1470h-1049v1470h1049zM946 102v1264h-844v-1264h844zM530 1247q113 0 183.5 -74t70.5 -194q0 -77 -29 -129.5t-104 -118.5q-73 -66 -84 -102q-12 -30 -12 -150h-94l-4 39q0 107 26.5 163.5t104.5 129.5q46 43 69 79.5t23 80.5q0 72 -47.5 123t-108.5 51
q-69 0 -112.5 -50t-55.5 -145l-102 17q12 137 83.5 208.5t192.5 71.5zM455 377h114v-137h-114v137z" />
    <glyph glyph-name="uniFB51" unicode="&#x671;" horiz-adv-x="579" arabic-form="final" 
d="M150 1548h180v-1173q0 -105 62 -156t188 -51q41 0 41 -86q0 -82 -41 -82q-225 0 -327.5 89.5t-102.5 275.5v1183zM-49 1655v88h98v207h86v-88q72 96 178 96q75 0 120.5 -48.5t45.5 -131.5q0 -52 -22 -123h-506zM127 1743h260q6 21 6 39q0 42 -25.5 65t-66.5 23
q-49 0 -96 -34.5t-78 -92.5z" />
    <glyph glyph-name="uniFB57" unicode="&#x67e;" horiz-adv-x="2058" arabic-form="final" 
d="M2058 168q41 0 41 -86q0 -82 -41 -82q-233 0 -319 137q-100 -137 -326 -137h-862q-220 0 -346.5 106.5t-126.5 286.5q0 148 65 324l162 -43q-45 -172 -45 -248q0 -129 82 -193.5t236 -64.5h802q127 0 185.5 59t58.5 199v414h180v-445q0 -227 254 -227zM868 -285
q0 -47 -30.5 -78.5t-77.5 -31.5q-46 0 -76.5 31.5t-30.5 78.5q0 46 30.5 76.5t76.5 30.5q47 0 77.5 -30.5t30.5 -76.5zM1061 -178q45 0 74.5 -30.5t29.5 -76.5q0 -48 -29.5 -79t-74.5 -31q-47 0 -79 31.5t-32 78.5q0 46 32 76.5t79 30.5zM913 -416q47 0 78 -31.5t31 -78.5
q0 -46 -31 -76.5t-78 -30.5q-46 0 -77 30.5t-31 76.5q0 47 31 78.5t77 31.5z" />
    <glyph glyph-name="uniFB58" unicode="&#x67e;" horiz-adv-x="638" arabic-form="initial" 
d="M0 0v168h20q124 0 175 59.5t51 204.5v408h180v-437q0 -211 -101.5 -307t-306.5 -96h-18zM102 -395q-46 0 -76 31.5t-30 78.5q0 46 30 76.5t76 30.5q47 0 78 -30.5t31 -76.5q0 -47 -31 -78.5t-78 -31.5zM403 -395q-47 0 -78.5 31.5t-31.5 78.5q0 46 31.5 76.5t78.5 30.5
q46 0 75.5 -30.5t29.5 -76.5q0 -47 -29.5 -78.5t-75.5 -31.5zM256 -633q-46 0 -77.5 30.5t-31.5 76.5q0 47 31.5 78.5t77.5 31.5q47 0 78 -31.5t31 -78.5q0 -46 -31 -76.5t-78 -30.5z" />
    <glyph glyph-name="uniFB59" unicode="&#x67e;" horiz-adv-x="679" arabic-form="medial" 
d="M680 168q41 0 41 -86q0 -82 -41 -82q-234 0 -320 137q-97 -137 -342 -137h-18v168h20q124 0 175 59.5t51 204.5v408h180v-445q0 -227 254 -227zM266 -285q0 -47 -30.5 -78.5t-77.5 -31.5q-46 0 -76.5 31.5t-30.5 78.5q0 46 30.5 76.5t76.5 30.5q47 0 77.5 -30.5
t30.5 -76.5zM459 -178q45 0 74.5 -30.5t29.5 -76.5q0 -48 -29.5 -79t-74.5 -31q-47 0 -79 31.5t-32 78.5q0 46 32 76.5t79 30.5zM311 -416q47 0 78 -31.5t31 -78.5q0 -46 -31 -76.5t-78 -30.5q-46 0 -77 30.5t-31 76.5q0 47 31 78.5t77 31.5z" />
    <glyph glyph-name="uniFB67" unicode="&#x679;" horiz-adv-x="2058" arabic-form="final" 
d="M78 393q0 148 65 324l162 -43q-45 -172 -45 -248q0 -129 82 -193.5t236 -64.5h802q127 0 185.5 59t58.5 199v414h180v-445q0 -227 254 -227q41 0 41 -86q0 -82 -41 -82q-233 0 -319 137q-100 -137 -326 -137h-862q-220 0 -346.5 106.5t-126.5 286.5zM637 981h98v350h90
v-205q82 95 183 95q84 0 135 -56t51 -149q0 -54 -23 -125h-534v90zM1001 1128q-52 0 -101 -38t-79 -109h279q4 24 4 37q0 50 -29 80t-74 30z" />
    <glyph glyph-name="uniFB68" unicode="&#x679;" horiz-adv-x="524" arabic-form="initial" 
d="M0 168q130 0 183 58t53 206v408h180v-437q0 -213 -102.5 -308t-313.5 -95v168zM27 1090v90h98v350h90v-205q81 94 182 94q85 0 136 -56.5t51 -148.5q0 -53 -23 -124h-534zM391 1327q-52 0 -101 -38t-79 -109h278q5 30 5 37q0 50 -29 80t-74 30z" />
    <glyph glyph-name="uniFB69" unicode="&#x679;" horiz-adv-x="669" arabic-form="medial" 
d="M350 137q-97 -137 -350 -137v168q130 0 183 58t53 206v408h180v-445q0 -227 254 -227q41 0 41 -86q0 -82 -41 -82q-234 0 -320 137zM561 1090h-534v90h98v350h90v-205q81 94 182 94q85 0 136 -56.5t51 -148.5q0 -53 -23 -124zM391 1327q-52 0 -101 -38t-79 -109h278
q5 30 5 37q0 50 -29 80t-74 30z" />
    <glyph glyph-name="uniFB6B" unicode="&#x6a4;" horiz-adv-x="2213" arabic-form="final" 
d="M80 393q0 148 65 324l162 -43q-45 -172 -45 -248q0 -129 82 -193.5t236 -64.5h677q59 0 86 4q-69 55 -111 134t-42 175q0 165 119 273t315 108q195 0 309.5 -107.5t114.5 -271.5q0 -191 -154 -313q13 0 40.5 -1t43.5 -1h236q41 0 41 -86q0 -82 -41 -82h-229
q-191 0 -369 37q-181 -37 -363 -37h-700q-220 0 -346.5 106.5t-126.5 286.5zM1620 688q-110 0 -178 -56.5t-68 -150.5q0 -101 73.5 -176.5t170.5 -99.5q89 17 168.5 95.5t79.5 180.5q0 93 -68.5 150t-177.5 57zM1364 1206q0 46 30.5 77.5t75.5 31.5q47 0 78 -31.5t31 -77.5
q0 -47 -31 -78.5t-78 -31.5q-46 0 -76 31.5t-30 78.5zM1772 1096q-47 0 -79 31.5t-32 78.5q0 46 32 77.5t79 31.5q45 0 74.5 -31.5t29.5 -77.5q0 -48 -29.5 -79t-74.5 -31zM1520 1450q0 45 30.5 75.5t75.5 30.5q47 0 78 -30.5t31 -75.5q0 -47 -31 -79t-78 -32q-46 0 -76 32
t-30 79z" />
    <glyph glyph-name="uniFB6C" unicode="&#x6a4;" horiz-adv-x="1148" arabic-form="initial" 
d="M0 0v168h242q-76 102 -76 254q0 191 124 315.5t331 124.5q87 0 157.5 -25.5t116.5 -68t77 -101t44.5 -121.5t13.5 -132q0 -198 -86 -414h-944zM606 688q-122 0 -189 -74t-67 -194q0 -134 90 -252h373q35 132 35 231q0 133 -60 211t-182 78zM467 1096q-46 0 -76.5 31.5
t-30.5 78.5q0 46 30.5 77.5t76.5 31.5q47 0 77.5 -31.5t30.5 -77.5q0 -47 -30.5 -78.5t-77.5 -31.5zM657 1206q0 46 32 77.5t79 31.5q45 0 74.5 -31.5t29.5 -77.5q0 -48 -29.5 -79t-74.5 -31q-47 0 -79 31.5t-32 78.5zM623 1339q-46 0 -76.5 32t-30.5 79q0 44 31 75t76 31
q47 0 77.5 -30.5t30.5 -75.5q0 -48 -30.5 -79.5t-77.5 -31.5z" />
    <glyph glyph-name="uniFB6D" unicode="&#x6a4;" horiz-adv-x="1189" arabic-form="medial" 
d="M229 0h-229v168h233q59 0 86 4q-69 55 -111 134t-42 175q0 165 119 273t315 108q195 0 309.5 -107.5t114.5 -271.5q0 -191 -154 -313q13 0 40.5 -1t43.5 -1h236q41 0 41 -86q0 -82 -41 -82h-229q-191 0 -369 37q-181 -37 -363 -37zM350 481q0 -101 73.5 -176.5
t170.5 -99.5q89 17 168.5 95.5t79.5 180.5q0 93 -68.5 150t-177.5 57q-110 0 -178 -56.5t-68 -150.5zM340 1206q0 46 30.5 77.5t75.5 31.5q47 0 78 -31.5t31 -77.5q0 -47 -31 -78.5t-78 -31.5q-46 0 -76 31.5t-30 78.5zM748 1096q-47 0 -79 31.5t-32 78.5q0 46 32 77.5
t79 31.5q45 0 74.5 -31.5t29.5 -77.5q0 -48 -29.5 -79t-74.5 -31zM602 1339q-46 0 -76 32t-30 79q0 45 30.5 75.5t75.5 30.5q47 0 78 -30.5t31 -75.5q0 -47 -31 -79t-78 -32z" />
    <glyph glyph-name="uniFB7B" unicode="&#x686;" horiz-adv-x="1366" arabic-form="final" 
d="M76 -180q0 159 102 253.5t273 94.5h512q12 52 12 121q0 187 -96.5 293t-290.5 106q-103 0 -215 -35l-41 160q134 49 280 49q136 0 240 -40.5t168.5 -115.5t96.5 -176t32 -227q0 -72 -8 -135h225q41 0 41 -86q0 -82 -41 -82h-899q-100 0 -152.5 -46t-52.5 -132
q0 -91 63.5 -137.5t180.5 -46.5q34 0 88 8l29 -166q-55 -12 -134 -12q-183 0 -298 93.5t-115 258.5zM745 -410q-32 0 -53.5 21t-21.5 53q0 34 21.5 56t53.5 22q34 0 56 -22t22 -56q0 -32 -22 -53t-56 -21zM850 -244q-34 0 -56 22t-22 56q0 32 22 53t56 21q32 0 53 -21
t21 -53q0 -34 -21 -56t-53 -22zM565 -166q0 32 21 53t53 21q34 0 55 -21t21 -53q0 -34 -21 -56t-55 -22q-32 0 -53 22t-21 56z" />
    <glyph glyph-name="uniFB7C" unicode="&#x686;" horiz-adv-x="1003" arabic-form="initial" 
d="M0 0v168h692q12 58 13.5 121t-16.5 136.5t-57.5 130t-119 94.5t-190.5 38q-104 0 -216 -35l-40 160q132 49 282 49q141 0 247 -42t170 -118.5t94 -184t25 -237.5t-42 -280h-842zM252 -395q-46 0 -76.5 31.5t-30.5 78.5q0 46 30.5 76.5t76.5 30.5q47 0 77.5 -30.5
t30.5 -76.5q0 -47 -30.5 -78.5t-77.5 -31.5zM553 -395q-47 0 -79 31.5t-32 78.5q0 46 32 76.5t79 30.5q45 0 74.5 -30.5t29.5 -76.5q0 -48 -29.5 -79t-74.5 -31zM406 -633q-46 0 -77.5 30.5t-31.5 76.5q0 47 31.5 78.5t77.5 31.5q47 0 77.5 -31.5t30.5 -78.5
q0 -46 -30.5 -76.5t-77.5 -30.5z" />
    <glyph glyph-name="uniFB7D" unicode="&#x686;" horiz-adv-x="1095" arabic-form="medial" 
d="M0 168h692q12 58 13.5 121t-16.5 136.5t-57.5 130t-119 94.5t-190.5 38q-104 0 -216 -35l-40 160q132 49 282 49q156 0 268 -50.5t174 -143.5t83 -219t1 -281h222q41 0 41 -86q0 -82 -41 -82h-1096v168zM297 -526q0 47 31.5 78.5t77.5 31.5q47 0 77.5 -31.5t30.5 -78.5
q0 -46 -30.5 -76.5t-77.5 -30.5q-46 0 -77.5 30.5t-31.5 76.5zM442 -285q0 46 32 76.5t79 30.5q45 0 74.5 -30.5t29.5 -76.5q0 -48 -29.5 -79t-74.5 -31q-47 0 -79 31.5t-32 78.5zM145 -285q0 46 30.5 76.5t76.5 30.5q47 0 77.5 -30.5t30.5 -76.5q0 -47 -30.5 -78.5
t-77.5 -31.5q-46 0 -76.5 31.5t-30.5 78.5z" />
    <glyph glyph-name="uniFB89" unicode="&#x688;" horiz-adv-x="1124" arabic-form="final" 
d="M80 0v168h665v29q0 156 -108.5 300.5t-288.5 258.5l111 145q132 -88 223.5 -176t143.5 -179.5t75 -181.5t25 -196h198q41 0 41 -86q0 -82 -41 -82h-1044zM92 1174h98v350h91v-205q81 94 182 94q85 0 135.5 -56t50.5 -149q0 -57 -22 -125h-535v91zM276 1174h279q4 24 4 36
q0 50 -28.5 80.5t-73.5 30.5q-52 0 -101.5 -38t-79.5 -109z" />
    <glyph glyph-name="uniFB8B" unicode="&#x698;" horiz-adv-x="716" arabic-form="final" 
d="M371 1317q-46 0 -76.5 31.5t-30.5 78.5q0 45 31 76t76 31q47 0 77.5 -31t30.5 -76q0 -47 -30.5 -78.5t-77.5 -31.5zM215 1073q-46 0 -76 32t-30 79q0 46 30 77t76 31q47 0 78 -31t31 -77q0 -47 -31 -79t-78 -32zM406 1184q0 46 31.5 77t78.5 31q45 0 75 -31t30 -77
q0 -48 -29.5 -79.5t-75.5 -31.5q-47 0 -78.5 32t-31.5 79zM717 168q41 0 41 -86q0 -82 -41 -82h-271q-66 -322 -421 -358l-33 163q154 24 221.5 94t67.5 222v719h180v-672h256z" />
    <glyph glyph-name="uniFB8D" unicode="&#x691;" horiz-adv-x="716" arabic-form="final" 
d="M25 -358l-33 163q154 24 221.5 94t67.5 222v719h180v-672h256q41 0 41 -86q0 -82 -41 -82h-271q-66 -322 -421 -358zM604 1090h-534v90h98v350h90v-205q81 94 182 94q85 0 136 -56.5t51 -148.5q0 -53 -23 -124zM254 1180h278q5 30 5 37q0 50 -29 80t-74 30
q-52 0 -101 -38t-79 -109z" />
    <glyph glyph-name="uniFB8F" unicode="&#x6a9;" horiz-adv-x="1886" arabic-form="final" 
d="M78 393q0 148 65 324l162 -43q-45 -172 -45 -248q0 -129 82 -193.5t236 -64.5h878v55q0 146 -56.5 247t-187.5 179t-356 142v174l580 559l116 -119l-514 -500q143 -46 248.5 -104.5t171 -123t105 -145t54.5 -161.5t15 -181v-22h254q41 0 41 -86q0 -82 -41 -82h-1335
q-220 0 -346.5 106.5t-126.5 286.5z" />
    <glyph glyph-name="uniFB90" unicode="&#x6a9;" horiz-adv-x="968" arabic-form="initial" 
d="M258 905q143 -46 248.5 -104.5t171 -123t105 -145t54.5 -161.5t15 -181v-190h-852v168h676v55q0 146 -56.5 247t-187.5 179t-356 142v174l579 559l117 -119z" />
    <glyph glyph-name="uniFB91" unicode="&#x6a9;" horiz-adv-x="1089" arabic-form="medial" 
d="M0 0v168h676v55q0 146 -56.5 247t-187.5 179t-356 142v174l579 559l117 -119l-514 -500q143 -46 248.5 -104.5t171 -123t105 -145t54.5 -161.5t15 -181v-22h238q40 0 40 -86q0 -82 -40 -82h-1090z" />
    <glyph glyph-name="uniFB93" unicode="&#x6af;" horiz-adv-x="1886" arabic-form="final" 
d="M551 0q-220 0 -346.5 106.5t-126.5 286.5q0 148 65 324l162 -43q-45 -172 -45 -248q0 -129 82 -193.5t236 -64.5h878v55q0 146 -56.5 247t-187.5 179t-356 142v174l580 559l116 -119l-514 -500q143 -46 248.5 -104.5t171 -123t105 -145t54.5 -161.5t15 -181v-22h254
q41 0 41 -86q0 -82 -41 -82h-1335zM850 1094l-113 112l523 496l108 -111z" />
    <glyph glyph-name="uniFB94" unicode="&#x6af;" horiz-adv-x="968" arabic-form="initial" 
d="M70 1094l-113 112l522 496l109 -111zM258 905q143 -46 248.5 -104.5t171 -123t105 -145t54.5 -161.5t15 -181v-190h-852v168h676v55q0 146 -56.5 247t-187.5 179t-356 142v174l579 559l117 -119z" />
    <glyph glyph-name="uniFB95" unicode="&#x6af;" horiz-adv-x="1089" arabic-form="medial" 
d="M0 168h676v55q0 146 -56.5 247t-187.5 179t-356 142v174l579 559l117 -119l-514 -500q143 -46 248.5 -104.5t171 -123t105 -145t54.5 -161.5t15 -181v-22h238q40 0 40 -86q0 -82 -40 -82h-1090v168zM-43 1206l522 496l109 -111l-518 -497z" />
    <glyph glyph-name="uniFB9F" unicode="&#x6ba;" horiz-adv-x="1443" arabic-form="final" 
d="M1444 168q41 0 41 -86q0 -82 -41 -82h-268q-45 -167 -189 -254.5t-356 -87.5q-136 0 -243 38t-174 104t-101.5 153t-34.5 188q0 166 88 369l160 -57q-64 -164 -64 -289q0 -166 98.5 -249t276.5 -83q379 0 379 369v489h180v-522h248z" />
    <glyph glyph-name="uniFBA7" unicode="&#x6c1;" horiz-adv-x="1183" arabic-form="final" 
d="M219 -27l-139 62q109 240 250.5 379t300.5 139q94 0 161.5 -47.5t137.5 -165.5q64 -107 112 -139.5t142 -32.5q41 0 41 -88q0 -43 -9.5 -61.5t-31.5 -18.5q-149 0 -228.5 45.5t-158.5 177.5q-55 93 -92 126.5t-89 33.5q-98 0 -204.5 -111.5t-192.5 -298.5z" />
    <glyph glyph-name="uniFBA8" unicode="&#x6c1;" horiz-adv-x="524" arabic-form="initial" 
d="M0 0v168q130 0 183 58t53 206v408h180v-437q0 -213 -102.5 -308t-313.5 -95zM184 -537q-71 104 -71 238q0 107 49 211l125 -31q-27 -76 -27 -143q0 -96 62 -207z" />
    <glyph glyph-name="uniFBA9" unicode="&#x6c1;" horiz-adv-x="849" arabic-form="medial" 
d="M0 168h276q-25 -89 -28 -168q-2 -12 -2 -35q0 -206 143 -274v10q0 210 112.5 338.5t321.5 128.5h27q41 0 41 -86q0 -82 -41 -82h-23q-137 0 -212.5 -82.5t-75.5 -255.5q0 -74 14 -154q-98 2 -183 28.5t-152.5 77t-106.5 132.5t-39 188q0 20 4 66h-76v168z" />
    <glyph glyph-name="uniFBAB" unicode="&#x6be;" horiz-adv-x="1351" arabic-form="final" 
d="M80 59l49 160q133 -51 305 -51h33v217q0 213 99.5 340t293.5 127q96 0 169.5 -34t116.5 -91.5t64 -124.5t21 -141q0 -169 -94 -293h215q41 0 41 -86q0 -82 -41 -82h-160q53 -92 53 -184q0 -140 -103 -224t-282 -84q-393 0 -393 392v100h-33q-209 0 -354 59zM647 168h146
q118 0 188 79t70 202q0 102 -53.5 165.5t-151.5 63.5q-94 0 -146.5 -67t-52.5 -201v-242zM1004 0h-357v-86q0 -123 52.5 -178t166.5 -55q195 0 195 155q0 86 -57 164z" />
    <glyph glyph-name="uniFBAC" unicode="&#x6be;" horiz-adv-x="1290" arabic-form="initial" 
d="M483 197q81 30 131 93t50 156q0 94 -49.5 153.5t-122.5 59.5q-75 0 -124 -60t-49 -150q0 -89 45.5 -153t118.5 -99zM702 168h320q6 37 6 80q0 255 -256 375q49 -79 49 -179q0 -83 -32.5 -156t-86.5 -120zM135 739l27 152q189 -12 339 -38t282.5 -76t220 -122t138 -180
t50.5 -246q0 -107 -29 -229h-407q-168 0 -273 39q-107 -39 -278 -39h-205v168h201q44 0 69 2q-49 48 -78.5 118t-29.5 152q0 85 39 163t110 126q-57 6 -176 10z" />
    <glyph glyph-name="uniFBAD" unicode="&#x6be;" horiz-adv-x="1040" arabic-form="medial" 
d="M0 168h156v217q0 213 99.5 340t293.5 127q96 0 169.5 -34t116.5 -91.5t64 -124.5t21 -141q0 -165 -97 -293h217q41 0 41 -86q0 -82 -41 -82h-159q53 -92 53 -184q0 -140 -103 -224t-282 -84q-393 0 -393 392v100h-156v168zM336 166h145q25 0 35 2q102 12 162.5 90.5
t60.5 190.5q0 102 -53 165.5t-151 63.5q-94 0 -146.5 -67t-52.5 -201v-244zM336 0v-86q0 -123 52.5 -178t166.5 -55q195 0 195 155q0 84 -58 164h-356z" />
    <glyph glyph-name="uniFBAF" unicode="&#x6d2;" horiz-adv-x="866" arabic-form="final" 
d="M721 -532q-345 0 -504.5 84t-159.5 270q0 170 125.5 258t354.5 88h329q41 0 41 -86q0 -82 -41 -82h-348q-152 0 -220.5 -43.5t-68.5 -128.5q0 -68 49.5 -108.5t166 -60t317.5 -19.5q353 0 741 67l10 -168q-455 -71 -792 -71z" />
    <glyph glyph-name="uniFBB1" unicode="&#x6d3;" horiz-adv-x="866" arabic-form="final" 
d="M57 -178q0 170 125.5 258t354.5 88h329q41 0 41 -86q0 -82 -41 -82h-348q-152 0 -220.5 -43.5t-68.5 -128.5q0 -68 49.5 -108.5t166 -60t317.5 -19.5q353 0 741 67l10 -168q-455 -71 -792 -71q-345 0 -504.5 84t-159.5 270zM698 422h-434v113h92q-34 61 -34 127
q0 90 61 143t162 53q61 0 129 -14l-21 -111q-57 10 -86 10q-53 0 -91 -25t-38 -79q0 -48 35 -104h225v-113z" />
    <glyph glyph-name="uniFBE8" unicode="&#x649;" horiz-adv-x="524" arabic-form="initial" 
d="M0 0v168q130 0 183 58t53 206v408h180v-437q0 -213 -102.5 -308t-313.5 -95z" />
    <glyph glyph-name="uniFBE9" unicode="&#x649;" horiz-adv-x="669" arabic-form="medial" 
d="M670 168q41 0 41 -86q0 -82 -41 -82q-234 0 -320 137q-97 -137 -350 -137v168q130 0 183 58t53 206v408h180v-445q0 -227 254 -227z" />
    <glyph glyph-name="uniFBFD" unicode="&#x6cc;" horiz-adv-x="1574" arabic-form="final" 
d="M1575 168q41 0 41 -86q0 -82 -41 -82h-158q39 -32 58.5 -78t19.5 -92q0 -151 -195 -256.5t-522 -105.5q-184 0 -319.5 33.5t-219 97.5t-123.5 151.5t-40 200.5q0 118 49 270l166 -43q-31 -119 -31 -205q0 -114 50.5 -185t168 -107.5t312.5 -36.5q246 0 383 57t137 147
q0 58 -56.5 110t-171.5 81l-256 65l45 148l277 -66q79 -18 199 -18h227z" />
    <glyph glyph-name="uniFBFE" unicode="&#x6cc;" horiz-adv-x="595" arabic-form="initial" 
d="M0 0v168h20q124 0 175 59.5t51 204.5v408h180v-437q0 -211 -101.5 -307t-306.5 -96h-18zM102 -393q-46 0 -76 31t-30 77q0 47 30 78t76 31q47 0 78 -31t31 -78q0 -46 -31 -77t-78 -31zM403 -393q-47 0 -78.5 31t-31.5 77q0 47 31.5 78t78.5 31q46 0 75.5 -31t29.5 -78
q0 -46 -30 -77t-75 -31z" />
    <glyph glyph-name="uniFBFF" unicode="&#x6cc;" horiz-adv-x="679" arabic-form="medial" 
d="M680 168q41 0 41 -86q0 -82 -41 -82q-234 0 -320 137q-97 -137 -342 -137h-18v168h20q124 0 175 59.5t51 204.5v408h180v-445q0 -227 254 -227zM158 -176q47 0 77.5 -31t30.5 -78q0 -46 -30.5 -77t-77.5 -31q-46 0 -76.5 31t-30.5 77q0 47 30.5 78t76.5 31zM459 -176
q46 0 75 -31t29 -78q0 -46 -29.5 -77t-74.5 -31q-47 0 -79 31t-32 77q0 47 32 78t79 31z" />
    <glyph glyph-name="uniFDF2" unicode="&#xfdf2;" horiz-adv-x="2891" arabic-form="isolated" 
d="M76 412q0 189 132.5 308.5t364.5 119.5h359v-471q0 -118 45 -159.5t164 -41.5q71 0 114 12.5t68 45.5t34 80.5t9 125.5v768h180v-807q0 -225 256 -225q135 0 180.5 55.5t45.5 208.5v1116h180v-1181q0 -193 -101.5 -280t-304.5 -87q-230 0 -317 129q-95 -129 -344 -129
q-142 0 -226 24.5t-120 77.5q-129 -63 -281 -63q-196 0 -317 98t-121 275zM2562 0v1548h180v-1548h-180zM543 672q-127 0 -204 -62.5t-77 -179.5q0 -109 69.5 -164t200.5 -55q130 0 209 47v414h-198zM1219 1436q0 48 22 102l59 -16q-8 -27 -8 -56q0 -71 70 -71q57 0 57 73
q0 25 -2 37l62 15q12 -40 12 -74v-6q25 -29 68 -29q59 0 59 59q0 38 -16 91l63 24q31 -61 31 -123q0 -64 -34 -103.5t-93 -39.5q-60 0 -99 39q-31 -58 -108 -58q-69 0 -106 37t-37 99zM1409 1620v297h88v-270l-76 -27h-12z" />
    <glyph glyph-name="uniFDFA" unicode="&#xfdfa;" horiz-adv-x="2322" arabic-form="isolated" 
d="M238 385q-72 0 -116 37.5t-44 105.5q0 81 53.5 127.5t157.5 46.5h139v-159q0 -30 13.5 -43t47.5 -13h7q37 0 53 16.5t16 57.5v141h117v-149q0 -66 66 -66h278v144h119v-144h323q35 0 50.5 17t15.5 57v301h117v-317q0 -58 61 -58h254q-20 38 -20 78q0 71 46 113.5
t132 42.5q45 0 98 -16l-20 -99q-36 8 -60 8q-35 0 -54.5 -17.5t-19.5 -47.5q0 -33 21 -62h152v-114h-531q-81 0 -111 41q-35 -41 -126 -41h-328v-400q0 -59 59 -59h27q51 0 51 53v117h117v-125q0 -45 49 -45q47 0 47 51v119h117v-127q0 -43 47 -43q26 0 37.5 12t11.5 41v170
h117v-209q0 -62 -38 -94.5t-110 -32.5q-59 0 -100 41q-38 -41 -107 -41q-71 0 -106 41q-47 -41 -125 -41h-35q-77 0 -110 41q-36 -41 -127 -41h-375q-50 -53 -143 -53h-97q-24 22 -41 55l-30 -2q-26 -2 -37 -14t-11 -43v-133h-114v158q0 145 143 145h21v14q0 78 49.5 128
t132.5 50q77 0 123.5 -47.5t46.5 -128.5v-16h326q36 0 50.5 16.5t14.5 55.5v387h-285q-81 0 -108 43q-40 -43 -133 -43h-23q-89 0 -127 35q-47 -23 -112 -23zM1096 719q-114 0 -173 43t-59 119q0 33 17 77l110 -20q-6 -18 -6 -37q0 -31 30 -49t87 -18q80 0 123 23t43 58
q0 20 -23 31.5t-98 32.5l29 100q82 -20 145 -20q35 0 48 16.5t13 59.5v344h117v-363q0 -57 62 -57q30 0 43.5 13t13.5 46v121h117v-129q0 -43 39 -49q116 231 284 231q86 0 133 -52.5t47 -149.5q0 -68 -24 -144h-422q-74 0 -104 37q-34 -37 -125 -37q-73 0 -99 39
q-31 -39 -102 -39q27 -21 27 -59q0 -71 -79.5 -119.5t-213.5 -48.5zM66 1100q0 83 53 127.5t157 44.5h138v-170q0 -23 12.5 -33t42.5 -10q32 0 43.5 13.5t11.5 49.5v258h117v-264q0 -57 57 -57q33 0 45.5 15t12.5 56v349h116v-371q0 -92 -40.5 -127t-133.5 -35
q-79 0 -108 39q-34 -39 -127 -39t-125 35q-52 -25 -115 -25q-72 0 -114.5 38t-42.5 106zM2044 -182q-70 0 -114 43.5t-44 118.5q0 73 47 119t129 46q83 0 122.5 -49.5t39.5 -128.5v-119q0 -107 -61.5 -155.5t-192.5 -48.5q-6 0 -21 1t-22 1l-4 106q16 -2 43 -2q143 0 143 78
q-25 -10 -65 -10zM958 1479h117v-488h-117v488zM2050 1186q-83 0 -158 -127l226 -2q8 32 8 45q0 40 -20.5 62t-55.5 22zM389 -86q4 -37 25 -68h30q36 0 57.5 19t26.5 49q0 88 -69 88q-70 0 -70 -88zM1995 -25q0 -31 17.5 -49t49.5 -18q28 0 56 8v57q0 76 -58 76
q-30 0 -47.5 -20t-17.5 -54zM532 1405q-53 0 -53 57q0 22 8 43l41 -8q-6 -18 -6 -22q0 -21 17 -21q18 0 18 21v16l37 6q2 -16 2 -33q12 -6 14 -6q19 0 19 21q0 16 -6 28l45 15q12 -30 12 -54q0 -28 -16.5 -43.5t-40.5 -15.5q-21 0 -39 14q-18 -18 -52 -18zM193 545
q0 -60 67 -60q12 0 22 2t20 6t13 5v112h-43q-79 0 -79 -65zM178 1116q0 -57 70 -57q35 0 53 12v111h-41q-82 0 -82 -66zM479 266q0 25 16.5 42.5t43.5 17.5q24 0 39.5 -17.5t15.5 -42.5t-15 -41t-40 -16q-26 0 -43 16t-17 41zM682 209q-25 0 -41 16t-16 41t16.5 42.5
t40.5 17.5q23 0 38 -17.5t15 -42.5t-15 -41t-38 -16z" />
    <glyph glyph-name="uniFE82" unicode="&#x622;" horiz-adv-x="579" arabic-form="final" 
d="M371 1663q-56 0 -165 26.5t-140 26.5q-43 0 -93 -35l-59 74q79 74 158 74q37 0 142.5 -27.5t147.5 -27.5q32 0 53 9t58 40l68 -68q-62 -92 -170 -92zM580 0q-225 0 -327.5 89.5t-102.5 275.5v1183h180v-1173q0 -105 62 -156t188 -51q41 0 41 -86q0 -82 -41 -82z" />
    <glyph glyph-name="uniFE84" unicode="&#x623;" horiz-adv-x="579" arabic-form="final" 
d="M150 1548h180v-1173q0 -105 62 -156t188 -51q41 0 41 -86q0 -82 -41 -82q-225 0 -327.5 89.5t-102.5 275.5v1183zM412 1655h-336v88h71q-28 48 -28 96q0 71 48.5 113.5t125.5 42.5q37 0 100 -13l-16 -86q-40 9 -66 9q-45 0 -72.5 -20t-27.5 -60q0 -33 27 -82h174v-88z
" />
    <glyph glyph-name="uniFE86" unicode="&#x624;" horiz-adv-x="1122" arabic-form="final" 
d="M111 412q0 122 51.5 224t150 164t224.5 62q182 0 288.5 -107t106.5 -290v-297h190q41 0 41 -86q0 -82 -41 -82h-196q-13 -79 -49 -142t-101 -114t-170.5 -78.5t-245.5 -27.5q-55 0 -102 4l-10 163q70 -4 98 -4q366 0 399 199h-139q-250 0 -372.5 111t-122.5 301zM530 688
q-101 0 -167 -70t-66 -186q0 -132 77.5 -198t248.5 -66h129v240q0 134 -57 207t-165 73zM305 1116v113h92q-35 62 -35 127q0 90 61.5 143t162.5 53q61 0 129 -14l-21 -111q-63 11 -86 11q-53 0 -91 -25.5t-38 -79.5q0 -48 35 -104h225v-113h-434z" />
    <glyph glyph-name="uniFE88" unicode="&#x625;" horiz-adv-x="579" arabic-form="final" 
d="M150 365v1183h180v-1173q0 -105 62 -156t188 -51q41 0 41 -86q0 -82 -41 -82q-225 0 -327.5 89.5t-102.5 275.5zM117 -426h71q-28 51 -28 98q0 71 48.5 113.5t125.5 42.5q42 0 100 -12l-16 -86q-36 8 -66 8q-45 0 -72.5 -20t-27.5 -60q0 -37 29 -84h172v-86h-336v86z" />
    <glyph glyph-name="uniFE8A" unicode="&#x626;" horiz-adv-x="1574" arabic-form="final" 
d="M76 -49q0 118 49 270l166 -43q-31 -119 -31 -205q0 -114 50.5 -185t168 -107.5t312.5 -36.5q246 0 383 57t137 147q0 58 -56.5 110t-171.5 81l-256 65l45 148l277 -66q79 -18 199 -18h227q41 0 41 -86q0 -82 -41 -82h-158q39 -32 58.5 -78t19.5 -92q0 -151 -195 -256.5
t-522 -105.5q-184 0 -319.5 33.5t-219 97.5t-123.5 151.5t-40 200.5zM154 432v113h92q-35 62 -35 127q0 90 61 143t162 53q61 0 129 -14l-20 -111q-63 11 -86 11q-53 0 -91 -25.5t-38 -79.5q0 -49 34 -104h226v-113h-434z" />
    <glyph glyph-name="uniFE8B" unicode="&#x626;" horiz-adv-x="595" arabic-form="initial" 
d="M0 0v168h20q124 0 175 59.5t51 204.5v408h180v-437q0 -211 -101.5 -307t-306.5 -96h-18zM100 1094v112h93q-35 62 -35 127q0 90 61.5 143.5t161.5 53.5q61 0 129 -14l-21 -111q-58 10 -86 10q-53 0 -91 -25t-38 -79q0 -49 35 -105h226v-112h-435z" />
    <glyph glyph-name="uniFE8C" unicode="&#x626;" horiz-adv-x="679" arabic-form="medial" 
d="M18 0h-18v168h20q124 0 175 59.5t51 204.5v408h180v-445q0 -227 254 -227q41 0 41 -86q0 -82 -41 -82q-234 0 -320 137q-97 -137 -342 -137zM100 1094v112h93q-35 62 -35 127q0 90 61.5 143.5t161.5 53.5q61 0 129 -14l-21 -111q-58 10 -86 10q-53 0 -91 -25t-38 -79
q0 -49 35 -105h226v-112h-435z" />
    <glyph glyph-name="uniFE8E" unicode="&#x627;" horiz-adv-x="579" arabic-form="final" 
d="M580 0q-225 0 -327.5 89.5t-102.5 275.5v1183h180v-1173q0 -105 62 -156t188 -51q41 0 41 -86q0 -82 -41 -82z" />
    <glyph glyph-name="uniFE90" unicode="&#x628;" horiz-adv-x="2058" arabic-form="final" 
d="M2058 168q41 0 41 -86q0 -82 -41 -82q-233 0 -319 137q-100 -137 -326 -137h-862q-220 0 -346.5 106.5t-126.5 286.5q0 148 65 324l162 -43q-45 -172 -45 -248q0 -129 82 -193.5t236 -64.5h802q127 0 185.5 59t58.5 199v414h180v-445q0 -227 254 -227zM915 -176
q47 0 76 -30.5t29 -78.5q0 -46 -29 -77t-76 -31q-49 0 -78.5 30.5t-29.5 77.5q0 48 29.5 78.5t78.5 30.5z" />
    <glyph glyph-name="uniFE91" unicode="&#x628;" horiz-adv-x="524" arabic-form="initial" 
d="M0 0v168q130 0 183 58t53 206v408h180v-437q0 -213 -102.5 -308t-313.5 -95zM246 -393q-49 0 -79 30.5t-30 77.5q0 48 30 78.5t79 30.5q47 0 75.5 -30.5t28.5 -78.5q0 -47 -28.5 -77.5t-75.5 -30.5z" />
    <glyph glyph-name="uniFE92" unicode="&#x628;" horiz-adv-x="669" arabic-form="medial" 
d="M670 168q41 0 41 -86q0 -82 -41 -82q-234 0 -320 137q-97 -137 -350 -137v168q130 0 183 58t53 206v408h180v-445q0 -227 254 -227zM303 -176q47 0 76 -30.5t29 -78.5q0 -46 -29 -77t-76 -31q-49 0 -78.5 30.5t-29.5 77.5q0 48 29.5 78.5t78.5 30.5z" />
    <glyph glyph-name="uniFE94" unicode="&#x629;" horiz-adv-x="1140" arabic-form="final" 
d="M420 1077q-46 0 -76.5 32t-30.5 79q0 46 30.5 76t76.5 30q47 0 77.5 -30t30.5 -76q0 -48 -30.5 -79.5t-77.5 -31.5zM721 1077q-47 0 -79 32t-32 79q0 46 32 76t79 30q46 0 75 -30t29 -76q0 -48 -29.5 -79.5t-74.5 -31.5zM1141 168q41 0 41 -86q0 -82 -41 -82
q-279 0 -348 102q-132 -63 -279 -63q-196 0 -317 98t-121 275q0 190 132 309t365 119h357v-471q0 -118 45 -159.5t166 -41.5zM739 258v414h-198q-126 0 -203.5 -63t-77.5 -179q0 -109 70 -164t202 -55q131 0 207 47z" />
    <glyph glyph-name="uniFE96" unicode="&#x62a;" horiz-adv-x="2058" arabic-form="final" 
d="M782 879q-46 0 -76 31.5t-30 78.5q0 46 30 76.5t76 30.5q47 0 78 -30.5t31 -76.5q0 -47 -31 -78.5t-78 -31.5zM1083 879q-47 0 -78.5 31.5t-31.5 78.5q0 46 31.5 76.5t78.5 30.5q46 0 75.5 -30.5t29.5 -76.5q0 -47 -29.5 -78.5t-75.5 -31.5zM2058 168q41 0 41 -86
q0 -82 -41 -82q-233 0 -319 137q-100 -137 -326 -137h-862q-220 0 -346.5 106.5t-126.5 286.5q0 148 65 324l162 -43q-45 -172 -45 -248q0 -129 82 -193.5t236 -64.5h802q127 0 185.5 59t58.5 199v414h180v-445q0 -227 254 -227z" />
    <glyph glyph-name="uniFE97" unicode="&#x62a;" horiz-adv-x="595" arabic-form="initial" 
d="M176 1077q-46 0 -76 32t-30 79q0 46 30 76t76 30q47 0 78 -30t31 -76q0 -47 -31 -79t-78 -32zM477 1077q-47 0 -78.5 32t-31.5 79q0 46 31.5 76t78.5 30q46 0 75.5 -30t29.5 -76q0 -48 -29.5 -79.5t-75.5 -31.5zM0 0v168h20q124 0 175 59.5t51 204.5v408h180v-437
q0 -211 -101.5 -307t-306.5 -96h-18z" />
    <glyph glyph-name="uniFE98" unicode="&#x62a;" horiz-adv-x="679" arabic-form="medial" 
d="M176 1077q-46 0 -76 32t-30 79q0 46 30 76t76 30q47 0 78 -30t31 -76q0 -47 -31 -79t-78 -32zM477 1077q-47 0 -78.5 32t-31.5 79q0 46 31.5 76t78.5 30q46 0 75.5 -30t29.5 -76q0 -48 -29.5 -79.5t-75.5 -31.5zM680 168q41 0 41 -86q0 -82 -41 -82q-234 0 -320 137
q-97 -137 -342 -137h-18v168h20q124 0 175 59.5t51 204.5v408h180v-445q0 -227 254 -227z" />
    <glyph glyph-name="uniFE9A" unicode="&#x62b;" horiz-adv-x="2058" arabic-form="final" 
d="M938 1118q-46 0 -76.5 32t-30.5 79q0 45 30.5 75.5t76.5 30.5q47 0 78 -30.5t31 -75.5q0 -47 -31 -79t-78 -32zM782 874q-46 0 -76 32t-30 79q0 46 30.5 77.5t75.5 31.5q47 0 78 -31.5t31 -77.5q0 -47 -31 -79t-78 -32zM973 985q0 46 31.5 77.5t78.5 31.5q45 0 75 -31.5
t30 -77.5q0 -48 -29.5 -79.5t-75.5 -31.5q-47 0 -78.5 32t-31.5 79zM2058 168q41 0 41 -86q0 -82 -41 -82q-233 0 -319 137q-100 -137 -326 -137h-862q-220 0 -346.5 106.5t-126.5 286.5q0 148 65 324l162 -43q-45 -172 -45 -248q0 -129 82 -193.5t236 -64.5h802
q127 0 185.5 59t58.5 199v414h180v-445q0 -227 254 -227z" />
    <glyph glyph-name="uniFE9B" unicode="&#x62b;" horiz-adv-x="595" arabic-form="initial" 
d="M332 1317q-46 0 -76.5 31.5t-30.5 78.5q0 45 31 76t76 31q47 0 77.5 -31t30.5 -76q0 -47 -30.5 -78.5t-77.5 -31.5zM176 1073q-46 0 -76 32t-30 79q0 46 30 77t76 31q47 0 78 -31t31 -77q0 -47 -31 -79t-78 -32zM477 1073q-47 0 -78.5 32t-31.5 79q0 46 31.5 77t78.5 31
q45 0 75 -31t30 -77q0 -48 -29.5 -79.5t-75.5 -31.5zM0 0v168h20q124 0 175 59.5t51 204.5v408h180v-437q0 -211 -101.5 -307t-306.5 -96h-18z" />
    <glyph glyph-name="uniFE9C" unicode="&#x62b;" horiz-adv-x="679" arabic-form="medial" 
d="M332 1317q-46 0 -76.5 31.5t-30.5 78.5q0 45 31 76t76 31q47 0 77.5 -31t30.5 -76q0 -47 -30.5 -78.5t-77.5 -31.5zM176 1073q-46 0 -76 32t-30 79q0 46 30 77t76 31q47 0 78 -31t31 -77q0 -47 -31 -79t-78 -32zM367 1184q0 46 31.5 77t78.5 31q45 0 75 -31t30 -77
q0 -48 -29.5 -79.5t-75.5 -31.5q-47 0 -78.5 32t-31.5 79zM680 168q41 0 41 -86q0 -82 -41 -82q-234 0 -320 137q-97 -137 -342 -137h-18v168h20q124 0 175 59.5t51 204.5v408h180v-445q0 -227 254 -227z" />
    <glyph glyph-name="uniFE9E" unicode="&#x62c;" horiz-adv-x="1366" arabic-form="final" 
d="M489 -532q-183 0 -298 93.5t-115 258.5q0 159 102 253.5t273 94.5h512q12 52 12 121q0 187 -96.5 293t-290.5 106q-103 0 -215 -35l-41 160q134 49 280 49q136 0 240 -40.5t168.5 -115.5t96.5 -176t32 -227q0 -72 -8 -135h225q41 0 41 -86q0 -82 -41 -82h-899
q-100 0 -152.5 -46t-52.5 -132q0 -91 63.5 -137.5t180.5 -46.5q34 0 88 8l29 -166q-55 -12 -134 -12zM539 -172q0 43 27 70.5t71 27.5q42 0 68 -27.5t26 -70.5q0 -42 -26 -70t-68 -28q-44 0 -71 28t-27 70z" />
    <glyph glyph-name="uniFE9F" unicode="&#x62c;" horiz-adv-x="1003" arabic-form="initial" 
d="M0 0v168h692q12 58 13.5 121t-16.5 136.5t-57.5 130t-119 94.5t-190.5 38q-104 0 -216 -35l-40 160q132 49 282 49q141 0 247 -42t170 -118.5t94 -184t25 -237.5t-42 -280h-842zM408 -393q-49 0 -79 30.5t-30 77.5q0 48 30 78.5t79 30.5q47 0 75.5 -30.5t28.5 -78.5
q0 -47 -28.5 -77.5t-75.5 -30.5z" />
    <glyph glyph-name="uniFEA0" unicode="&#x62c;" horiz-adv-x="1095" arabic-form="medial" 
d="M0 168h692q12 58 13.5 121t-16.5 136.5t-57.5 130t-119 94.5t-190.5 38q-104 0 -216 -35l-40 160q132 49 282 49q156 0 268 -50.5t174 -143.5t83 -219t1 -281h222q41 0 41 -86q0 -82 -41 -82h-1096v168zM408 -393q-49 0 -79 30.5t-30 77.5q0 48 30 78.5t79 30.5
q47 0 75.5 -30.5t28.5 -78.5q0 -47 -28.5 -77.5t-75.5 -30.5z" />
    <glyph glyph-name="uniFEA2" unicode="&#x62d;" horiz-adv-x="1366" arabic-form="final" 
d="M489 -532q-184 0 -298.5 94t-114.5 262q0 156 101.5 250t271.5 94h514q12 52 12 121q0 187 -96.5 293t-290.5 106q-103 0 -215 -35l-41 160q134 49 280 49q136 0 240 -40.5t169 -115.5t97.5 -176t32.5 -227q0 -72 -8 -135h223q41 0 41 -86q0 -82 -41 -82h-899
q-100 0 -153.5 -45.5t-53.5 -130.5q0 -184 252 -184q64 0 174 24l31 -160q-113 -36 -228 -36z" />
    <glyph glyph-name="uniFEA3" unicode="&#x62d;" horiz-adv-x="1003" arabic-form="initial" 
d="M0 0v168h692q12 58 13.5 121t-16.5 136.5t-57.5 130t-119 94.5t-190.5 38q-104 0 -216 -35l-40 160q132 49 282 49q141 0 247 -42t170 -118.5t94 -184t25 -237.5t-42 -280h-842z" />
    <glyph glyph-name="uniFEA4" unicode="&#x62d;" horiz-adv-x="1095" arabic-form="medial" 
d="M0 0v168h692q12 58 13.5 121t-16.5 136.5t-57.5 130t-119 94.5t-190.5 38q-104 0 -216 -35l-40 160q132 49 282 49q156 0 268 -50.5t174 -143.5t83 -219t1 -281h222q41 0 41 -86q0 -82 -41 -82h-1096z" />
    <glyph glyph-name="uniFEA6" unicode="&#x62e;" horiz-adv-x="1366" arabic-form="final" 
d="M76 -176q0 156 101.5 250t271.5 94h514q12 52 12 121q0 187 -96.5 293t-290.5 106q-103 0 -215 -35l-41 160q134 49 280 49q136 0 240 -40.5t169 -115.5t97.5 -176t32.5 -227q0 -72 -8 -135h223q41 0 41 -86q0 -82 -41 -82h-899q-100 0 -153.5 -45.5t-53.5 -130.5
q0 -184 252 -184q64 0 174 24l31 -160q-113 -36 -228 -36q-184 0 -298.5 94t-114.5 262zM504 1210q0 47 29.5 77t78.5 30q47 0 76 -30.5t29 -76.5q0 -48 -29 -79t-76 -31q-49 0 -78.5 31t-29.5 79z" />
    <glyph glyph-name="uniFEA7" unicode="&#x62e;" horiz-adv-x="1003" arabic-form="initial" 
d="M348 1100q-49 0 -78.5 31t-29.5 79q0 47 29.5 77t78.5 30q47 0 76 -30.5t29 -76.5q0 -48 -29 -79t-76 -31zM0 0v168h692q12 58 13.5 121t-16.5 136.5t-57.5 130t-119 94.5t-190.5 38q-104 0 -216 -35l-40 160q132 49 282 49q141 0 247 -42t170 -118.5t94 -184t25 -237.5
t-42 -280h-842z" />
    <glyph glyph-name="uniFEA8" unicode="&#x62e;" horiz-adv-x="1095" arabic-form="medial" 
d="M0 0v168h692q12 58 13.5 121t-16.5 136.5t-57.5 130t-119 94.5t-190.5 38q-104 0 -216 -35l-40 160q132 49 282 49q156 0 268 -50.5t174 -143.5t83 -219t1 -281h222q41 0 41 -86q0 -82 -41 -82h-1096zM348 1100q-49 0 -78.5 31t-29.5 79q0 47 29.5 77t78.5 30
q47 0 76 -30.5t29 -76.5q0 -48 -29 -79t-76 -31z" />
    <glyph glyph-name="uniFEAA" unicode="&#x62f;" horiz-adv-x="1124" arabic-form="final" 
d="M80 168h665v29q0 156 -108.5 300.5t-288.5 258.5l111 145q132 -88 223.5 -176t143.5 -179.5t75 -181.5t25 -196h198q41 0 41 -86q0 -82 -41 -82h-1044v168z" />
    <glyph glyph-name="uniFEAC" unicode="&#x630;" horiz-adv-x="1124" arabic-form="final" 
d="M80 0v168h665v29q0 156 -108.5 300.5t-288.5 258.5l111 145q132 -88 223.5 -176t143.5 -179.5t75 -181.5t25 -196h198q41 0 41 -86q0 -82 -41 -82h-1044zM283 1182q0 46 29.5 76t78.5 30q47 0 76 -30t29 -76q0 -48 -29 -79.5t-76 -31.5q-49 0 -78.5 31.5t-29.5 79.5z" />
    <glyph glyph-name="uniFEAE" unicode="&#x631;" horiz-adv-x="716" arabic-form="final" 
d="M717 168q41 0 41 -86q0 -82 -41 -82h-271q-66 -322 -421 -358l-33 163q154 24 221.5 94t67.5 222v719h180v-672h256z" />
    <glyph glyph-name="uniFEB0" unicode="&#x632;" horiz-adv-x="716" arabic-form="final" 
d="M369 1077q-49 0 -79 31.5t-30 79.5q0 46 30 76t79 30q47 0 75.5 -30t28.5 -76q0 -48 -28.5 -79.5t-75.5 -31.5zM717 168q41 0 41 -86q0 -82 -41 -82h-271q-66 -322 -421 -358l-33 163q154 24 221.5 94t67.5 222v719h180v-672h256z" />
    <glyph glyph-name="uniFEB2" unicode="&#x633;" horiz-adv-x="2596" arabic-form="final" 
d="M76 141q0 166 88 369l160 -57q-64 -164 -64 -289q0 -166 98.5 -249t276.5 -83q379 0 379 369v489h180v-362q0 -160 190 -160q103 0 152 53t49 189v280h180v-360q0 -162 199 -162q109 0 154 59t45 197v416h180v-445q0 -227 254 -227q41 0 41 -86q0 -82 -41 -82
q-231 0 -318 133q-97 -133 -307 -133q-189 0 -278 115q-98 -121 -301 -121q-136 0 -207 57q-33 -192 -181.5 -292.5t-375.5 -100.5q-136 0 -243 38t-174 104t-101.5 153t-34.5 188z" />
    <glyph glyph-name="uniFEB3" unicode="&#x633;" horiz-adv-x="1685" arabic-form="initial" 
d="M0 168h35q111 0 162 51.5t51 190.5v280h180v-362q0 -160 190 -160q103 0 152 53t49 189v280h180v-360q0 -162 199 -162q109 0 154 59t45 197v416h180v-486q0 -167 -98.5 -260.5t-272.5 -93.5q-92 0 -164.5 30t-113.5 85q-95 -115 -301 -115q-208 0 -277 111
q-42 -48 -123.5 -79.5t-191.5 -31.5h-35v168z" />
    <glyph glyph-name="uniFEB4" unicode="&#x633;" horiz-adv-x="1830" arabic-form="medial" 
d="M0 0v168h35q111 0 162 51.5t51 190.5v280h180v-362q0 -160 190 -160q103 0 152 53t49 189v280h180v-360q0 -162 199 -162q109 0 154 59t45 197v416h180v-445q0 -227 254 -227q41 0 41 -86q0 -82 -41 -82q-231 0 -318 133q-97 -133 -307 -133q-92 0 -164.5 30t-113.5 85
q-95 -115 -301 -115q-208 0 -277 111q-42 -48 -123.5 -79.5t-191.5 -31.5h-35z" />
    <glyph glyph-name="uniFEB6" unicode="&#x634;" horiz-adv-x="2596" arabic-form="final" 
d="M76 141q0 166 88 369l160 -57q-64 -164 -64 -289q0 -166 98.5 -249t276.5 -83q379 0 379 369v489h180v-362q0 -160 190 -160q103 0 152 53t49 189v280h180v-360q0 -162 199 -162q109 0 154 59t45 197v416h180v-445q0 -227 254 -227q41 0 41 -86q0 -82 -41 -82
q-231 0 -318 133q-97 -133 -307 -133q-189 0 -278 115q-98 -121 -301 -121q-136 0 -207 57q-33 -192 -181.5 -292.5t-375.5 -100.5q-136 0 -243 38t-174 104t-101.5 153t-34.5 188zM1415 1034q0 46 30.5 77.5t76.5 31.5q47 0 77.5 -31.5t30.5 -77.5q0 -47 -30.5 -78.5
t-77.5 -31.5q-46 0 -76.5 31.5t-30.5 78.5zM1823 924q-47 0 -79 31.5t-32 78.5q0 46 32 77.5t79 31.5q45 0 74.5 -31.5t29.5 -77.5q0 -48 -29.5 -79t-74.5 -31zM1571 1278q0 45 30.5 75.5t75.5 30.5q47 0 78 -30.5t31 -75.5q0 -47 -31 -79t-78 -32q-46 0 -76 32t-30 79z" />
    <glyph glyph-name="uniFEB7" unicode="&#x634;" horiz-adv-x="1685" arabic-form="initial" 
d="M0 0v168h35q111 0 162 51.5t51 190.5v280h180v-362q0 -160 190 -160q103 0 152 53t49 189v280h180v-360q0 -162 199 -162q109 0 154 59t45 197v416h180v-486q0 -167 -98.5 -260.5t-272.5 -93.5q-92 0 -164.5 30t-113.5 85q-95 -115 -301 -115q-208 0 -277 111
q-42 -48 -123.5 -79.5t-191.5 -31.5h-35zM649 1034q0 46 30.5 77.5t76.5 31.5q47 0 77.5 -31.5t30.5 -77.5q0 -47 -30.5 -78.5t-77.5 -31.5q-46 0 -76.5 31.5t-30.5 78.5zM946 1034q0 46 32 77.5t79 31.5q45 0 74.5 -31.5t29.5 -77.5q0 -48 -29.5 -79t-74.5 -31
q-47 0 -79 31.5t-32 78.5zM911 1167q-46 0 -76 32t-30 79q0 45 30.5 75.5t75.5 30.5q47 0 78 -30.5t31 -75.5q0 -47 -31 -79t-78 -32z" />
    <glyph glyph-name="uniFEB8" unicode="&#x634;" horiz-adv-x="1830" arabic-form="medial" 
d="M0 0v168h35q111 0 162 51.5t51 190.5v280h180v-362q0 -160 190 -160q103 0 152 53t49 189v280h180v-360q0 -162 199 -162q109 0 154 59t45 197v416h180v-445q0 -227 254 -227q41 0 41 -86q0 -82 -41 -82q-231 0 -318 133q-97 -133 -307 -133q-92 0 -164.5 30t-113.5 85
q-95 -115 -301 -115q-208 0 -277 111q-42 -48 -123.5 -79.5t-191.5 -31.5h-35zM649 1034q0 46 30.5 77.5t76.5 31.5q47 0 77.5 -31.5t30.5 -77.5q0 -47 -30.5 -78.5t-77.5 -31.5q-46 0 -76.5 31.5t-30.5 78.5zM1057 924q-47 0 -79 31.5t-32 78.5q0 46 32 77.5t79 31.5
q45 0 74.5 -31.5t29.5 -77.5q0 -48 -29.5 -79t-74.5 -31zM911 1167q-46 0 -76 32t-30 79q0 45 30.5 75.5t75.5 30.5q47 0 78 -30.5t31 -75.5q0 -47 -31 -79t-78 -32z" />
    <glyph glyph-name="uniFEBA" unicode="&#x635;" horiz-adv-x="2830" arabic-form="final" 
d="M76 141q0 166 88 369l160 -57q-64 -164 -64 -289q0 -166 98.5 -249t276.5 -83q379 0 379 369v489h180v-381q0 -108 119 -133q67 124 138.5 225.5t136 171.5t132.5 123t125 84t116 50t104.5 25.5t91.5 6.5q151 0 256 -67t154.5 -181.5t49.5 -267.5q0 -80 -16 -178h229
q41 0 41 -86q0 -82 -41 -82h-1429q-137 0 -215 53q-31 -193 -180 -294t-377 -101q-136 0 -243 38t-174 104t-101.5 153t-34.5 188zM2136 688q-153 0 -315 -127t-316 -393h910q22 90 22 168q0 158 -77.5 255t-223.5 97z" />
    <glyph glyph-name="uniFEBB" unicode="&#x635;" horiz-adv-x="1912" arabic-form="initial" 
d="M1333 862q225 0 343 -141t118 -375q0 -166 -57 -346h-1159q-198 0 -275 100q-80 -100 -303 -100v168q110 0 153.5 53.5t43.5 192.5v276h180v-362q0 -121 110 -150q94 170 195.5 298.5t187.5 200t176.5 115t155.5 57t131 13.5zM1591 168q21 86 21 168q0 159 -76.5 255.5
t-222.5 96.5q-154 0 -315 -126.5t-316 -393.5h909z" />
    <glyph glyph-name="uniFEBC" unicode="&#x635;" horiz-adv-x="2007" arabic-form="medial" 
d="M0 0v168q110 0 153.5 53.5t43.5 192.5v276h180v-362q0 -121 110 -150q94 170 195.5 298.5t187.5 200t176.5 115t155.5 57t131 13.5q225 0 343 -141t118 -375q0 -80 -16 -178h229q41 0 41 -86q0 -82 -41 -82h-1429q-198 0 -275 100q-80 -100 -303 -100zM682 168h909
q21 86 21 168q0 159 -76.5 255.5t-222.5 96.5q-154 0 -315 -126.5t-316 -393.5z" />
    <glyph glyph-name="uniFEBE" unicode="&#x636;" horiz-adv-x="2830" arabic-form="final" 
d="M76 141q0 166 88 369l160 -57q-64 -164 -64 -289q0 -166 98.5 -249t276.5 -83q379 0 379 369v489h180v-381q0 -108 119 -133q67 124 138.5 225.5t136 171.5t132.5 123t125 84t116 50t104.5 25.5t91.5 6.5q151 0 256 -67t154.5 -181.5t49.5 -267.5q0 -80 -16 -178h229
q41 0 41 -86q0 -82 -41 -82h-1429q-137 0 -215 53q-31 -193 -180 -294t-377 -101q-136 0 -243 38t-174 104t-101.5 153t-34.5 188zM2136 688q-153 0 -315 -127t-316 -393h910q22 90 22 168q0 158 -77.5 255t-223.5 97zM1870 1210q0 47 29.5 77t78.5 30q47 0 76 -30.5
t29 -76.5q0 -48 -29 -79t-76 -31q-49 0 -78.5 31t-29.5 79z" />
    <glyph glyph-name="uniFEBF" unicode="&#x636;" horiz-adv-x="1912" arabic-form="initial" 
d="M1149 1100q-49 0 -79 31t-30 79q0 46 30 76.5t79 30.5q47 0 75.5 -30.5t28.5 -76.5q0 -48 -28.5 -79t-75.5 -31zM1333 862q225 0 343 -141t118 -375q0 -166 -57 -346h-1159q-198 0 -275 100q-80 -100 -303 -100v168q110 0 153.5 53.5t43.5 192.5v276h180v-362
q0 -121 110 -150q94 170 195.5 298.5t187.5 200t176.5 115t155.5 57t131 13.5zM1591 168q21 86 21 168q0 159 -76.5 255.5t-222.5 96.5q-154 0 -315 -126.5t-316 -393.5h909z" />
    <glyph glyph-name="uniFEC0" unicode="&#x636;" horiz-adv-x="2007" arabic-form="medial" 
d="M0 0v168q110 0 153.5 53.5t43.5 192.5v276h180v-362q0 -121 110 -150q94 170 195.5 298.5t187.5 200t176.5 115t155.5 57t131 13.5q225 0 343 -141t118 -375q0 -80 -16 -178h229q41 0 41 -86q0 -82 -41 -82h-1429q-198 0 -275 100q-80 -100 -303 -100zM682 168h909
q21 86 21 168q0 159 -76.5 255.5t-222.5 96.5q-154 0 -315 -126.5t-316 -393.5zM1149 1100q-49 0 -79 31t-30 79q0 46 30 76.5t79 30.5q47 0 75.5 -30.5t28.5 -76.5q0 -48 -28.5 -79t-75.5 -31z" />
    <glyph glyph-name="uniFEC2" unicode="&#x637;" horiz-adv-x="1828" arabic-form="final" 
d="M78 168h209v1380h180v-1116q154 213 332.5 321.5t355.5 108.5q113 0 202.5 -40.5t145 -112t84.5 -164t29 -201.5q0 -69 -17 -176h230q41 0 41 -86q0 -82 -41 -82h-1751v168zM471 168h942q21 86 21 170q0 156 -76 253t-221 97q-161 0 -341.5 -137t-324.5 -383z" />
    <glyph glyph-name="uniFEC3" unicode="&#x637;" horiz-adv-x="1646" arabic-form="initial" 
d="M0 0v168h199v1380h180v-1116q154 213 332.5 321.5t355.5 108.5q113 0 202.5 -40.5t145 -112t84.5 -164t29 -201.5q0 -158 -58 -344h-1470zM383 168h942q21 86 21 170q0 156 -76 253t-221 97q-164 0 -343 -136t-323 -384z" />
    <glyph glyph-name="uniFEC4" unicode="&#x637;" horiz-adv-x="1728" arabic-form="medial" 
d="M0 168h199v1380h180v-1116q154 213 332.5 321.5t355.5 108.5q113 0 202.5 -40.5t145 -112t84.5 -164t29 -201.5q0 -69 -17 -176h218q40 0 40 -86q0 -82 -40 -82h-1729v168zM383 168h942q21 86 21 170q0 156 -76 253t-221 97q-164 0 -343 -136t-323 -384z" />
    <glyph glyph-name="uniFEC6" unicode="&#x638;" horiz-adv-x="1828" arabic-form="final" 
d="M78 168h209v1380h180v-1116q154 213 332.5 321.5t355.5 108.5q113 0 202.5 -40.5t145 -112t84.5 -164t29 -201.5q0 -69 -17 -176h230q41 0 41 -86q0 -82 -41 -82h-1751v168zM471 168h942q21 86 21 170q0 156 -76 253t-221 97q-161 0 -341.5 -137t-324.5 -383zM1022 1100
q-49 0 -79 31t-30 79q0 46 30 76.5t79 30.5q47 0 75.5 -30.5t28.5 -76.5q0 -48 -28.5 -79t-75.5 -31z" />
    <glyph glyph-name="uniFEC7" unicode="&#x638;" horiz-adv-x="1646" arabic-form="initial" 
d="M0 0v168h199v1380h180v-1116q154 213 332.5 321.5t355.5 108.5q113 0 202.5 -40.5t145 -112t84.5 -164t29 -201.5q0 -158 -58 -344h-1470zM383 168h942q21 86 21 170q0 156 -76 253t-221 97q-164 0 -343 -136t-323 -384zM821 1210q0 46 30 76.5t79 30.5q47 0 75.5 -30.5
t28.5 -76.5q0 -48 -28.5 -79t-75.5 -31q-49 0 -79 31t-30 79z" />
    <glyph glyph-name="uniFEC8" unicode="&#x638;" horiz-adv-x="1728" arabic-form="medial" 
d="M0 168h199v1380h180v-1116q154 213 332.5 321.5t355.5 108.5q113 0 202.5 -40.5t145 -112t84.5 -164t29 -201.5q0 -69 -17 -176h218q40 0 40 -86q0 -82 -40 -82h-1729v168zM383 168h942q21 86 21 170q0 156 -76 253t-221 97q-164 0 -343 -136t-323 -384zM930 1100
q-49 0 -79 31t-30 79q0 46 30 76.5t79 30.5q47 0 75.5 -30.5t28.5 -76.5q0 -48 -28.5 -79t-75.5 -31z" />
    <glyph glyph-name="uniFECA" unicode="&#x639;" horiz-adv-x="1189" arabic-form="final" 
d="M1190 168q41 0 41 -86q0 -82 -41 -82h-178q-247 0 -449 80q-159 -51 -230 -122.5t-71 -145.5q0 -172 248 -172q89 0 174 20l33 -160q-97 -32 -211 -32q-201 0 -315.5 84.5t-114.5 250.5q0 265 356 400q-30 43 -70 92t-67.5 80t-80 88t-73.5 80q11 119 39 186
q214 133 445 133q184 0 294.5 -80t110.5 -221q0 -107 -63 -202.5t-170 -172.5q102 -18 200 -18h193zM299 612q131 -109 309 -346q108 54 173 124t65 138q0 67 -65 113.5t-183 46.5q-155 0 -297 -65z" />
    <glyph glyph-name="uniFECB" unicode="&#x639;" horiz-adv-x="983" arabic-form="initial" 
d="M0 168h250q-88 134 -88 287q0 183 125 295t354 112q99 0 227 -31l-34 -165q-101 22 -187 22q-143 0 -223 -64t-80 -178q0 -126 111 -278h460v-168h-915v168z" />
    <glyph glyph-name="uniFECC" unicode="&#x639;" horiz-adv-x="1202" arabic-form="medial" 
d="M80 0h-80v168h119q189 0 315 29q-31 43 -72 93t-66.5 79t-83 91.5t-73.5 80.5q16 130 39 186q219 131 447 131q184 0 293.5 -81t109.5 -224q0 -106 -61 -199.5t-166 -167.5q132 -18 246 -18h155q41 0 41 -86q0 -82 -41 -82h-141q-117 0 -248 18t-231 52
q-106 -39 -222 -54.5t-280 -15.5zM297 612l-2 -10q145 -118 313 -342q110 55 173 123.5t63 136.5q0 70 -65.5 118t-190.5 48q-143 0 -291 -74z" />
    <glyph glyph-name="uniFECE" unicode="&#x63a;" horiz-adv-x="1189" arabic-form="final" 
d="M618 1100q-49 0 -78.5 31t-29.5 79q0 47 29.5 77t78.5 30q47 0 76 -30.5t29 -76.5q0 -48 -29 -79t-76 -31zM1190 168q41 0 41 -86q0 -82 -41 -82h-178q-247 0 -449 80q-159 -51 -230 -122.5t-71 -145.5q0 -172 248 -172q89 0 174 20l33 -160q-97 -32 -211 -32
q-201 0 -315.5 84.5t-114.5 250.5q0 265 356 400q-30 43 -70 92t-67.5 80t-80 88t-73.5 80q11 119 39 186q214 133 445 133q184 0 294.5 -80t110.5 -221q0 -107 -63 -202.5t-170 -172.5q102 -18 200 -18h193zM299 612q131 -109 309 -346q108 54 173 124t65 138
q0 67 -65 113.5t-183 46.5q-155 0 -297 -65z" />
    <glyph glyph-name="uniFECF" unicode="&#x63a;" horiz-adv-x="983" arabic-form="initial" 
d="M0 0v168h250q-88 134 -88 287q0 183 125 295t354 112q99 0 227 -31l-34 -165q-101 22 -187 22q-143 0 -223 -64t-80 -178q0 -126 111 -278h460v-168h-915zM532 1210q0 46 30 76.5t79 30.5q47 0 75.5 -30.5t28.5 -76.5q0 -48 -28.5 -79t-75.5 -31q-49 0 -79 31t-30 79z
" />
    <glyph glyph-name="uniFED0" unicode="&#x63a;" horiz-adv-x="1202" arabic-form="medial" 
d="M0 168h119q189 0 315 29q-31 43 -72 93t-66.5 79t-83 91.5t-73.5 80.5q16 130 39 186q219 131 447 131q184 0 293.5 -81t109.5 -224q0 -106 -61 -199.5t-166 -167.5q132 -18 246 -18h155q41 0 41 -86q0 -82 -41 -82h-141q-117 0 -248 18t-231 52q-106 -39 -222 -54.5
t-280 -15.5h-80v168zM295 602q145 -118 313 -342q110 55 173 123.5t63 136.5q0 70 -65.5 118t-190.5 48q-143 0 -291 -74zM608 1096q-49 0 -78.5 31t-29.5 79q0 47 29.5 77t78.5 30q47 0 76 -30.5t29 -76.5q0 -48 -29 -79t-76 -31z" />
    <glyph glyph-name="uniFED2" unicode="&#x641;" horiz-adv-x="2213" arabic-form="final" 
d="M80 393q0 148 65 324l162 -43q-45 -172 -45 -248q0 -129 82 -193.5t236 -64.5h677q59 0 86 4q-69 55 -111 134t-42 175q0 165 119 273t315 108q195 0 309.5 -107.5t114.5 -271.5q0 -191 -154 -313q13 0 40.5 -1t43.5 -1h236q41 0 41 -86q0 -82 -41 -82h-229
q-191 0 -369 37q-181 -37 -363 -37h-700q-220 0 -346.5 106.5t-126.5 286.5zM1374 481q0 -101 73.5 -176.5t170.5 -99.5q89 17 168.5 95.5t79.5 180.5q0 93 -68.5 150t-177.5 57q-110 0 -178 -56.5t-68 -150.5zM1516 1210q0 47 29.5 77t78.5 30q47 0 76 -30.5t29 -76.5
q0 -48 -29 -79t-76 -31q-49 0 -78.5 31t-29.5 79z" />
    <glyph glyph-name="uniFED3" unicode="&#x641;" horiz-adv-x="1148" arabic-form="initial" 
d="M0 0v168h242q-76 102 -76 254q0 191 124 315.5t331 124.5q87 0 157.5 -25.5t116.5 -68t77 -101t44.5 -121.5t13.5 -132q0 -198 -86 -414h-944zM606 688q-122 0 -189 -74t-67 -194q0 -134 90 -252h373q35 132 35 231q0 133 -60 211t-182 78zM512 1210q0 46 30 76.5
t79 30.5q47 0 75.5 -30.5t28.5 -76.5q0 -48 -28.5 -79t-75.5 -31q-49 0 -79 31t-30 79z" />
    <glyph glyph-name="uniFED4" unicode="&#x641;" horiz-adv-x="1189" arabic-form="medial" 
d="M0 168h233q59 0 86 4q-69 55 -111 134t-42 175q0 165 119 273t315 108q195 0 309.5 -107.5t114.5 -271.5q0 -191 -154 -313q13 0 40.5 -1t43.5 -1h236q41 0 41 -86q0 -82 -41 -82h-229q-191 0 -369 37q-181 -37 -363 -37h-229v168zM350 481q0 -101 73.5 -176.5
t170.5 -99.5q89 17 168.5 95.5t79.5 180.5q0 93 -68.5 150t-177.5 57q-110 0 -178 -56.5t-68 -150.5zM492 1210q0 47 29.5 77t78.5 30q47 0 76 -30.5t29 -76.5q0 -48 -29 -79t-76 -31q-49 0 -78.5 31t-29.5 79z" />
    <glyph glyph-name="uniFED6" unicode="&#x642;" horiz-adv-x="1701" arabic-form="final" 
d="M76 139q0 133 49 273l166 -43q-31 -102 -31 -203q0 -114 51 -185.5t172 -110t320 -38.5q240 0 358.5 39.5t141.5 128.5h-148q-247 0 -367 107.5t-120 310.5q0 84 27.5 162.5t79.5 142t135.5 101.5t185.5 38q183 0 288 -110.5t105 -305.5v-278h213q41 0 41 -86
q0 -82 -41 -82h-225q-36 -186 -198 -264t-478 -78q-367 0 -546 120.5t-179 360.5zM852 422q0 -132 78.5 -193t238.5 -61h140v240q0 280 -228 280q-104 0 -166.5 -70t-62.5 -196zM1243 1100q-47 0 -78.5 31.5t-31.5 78.5q0 46 31.5 76.5t78.5 30.5q46 0 75.5 -30.5
t29.5 -76.5q0 -47 -29.5 -78.5t-75.5 -31.5zM836 1210q0 46 30 76.5t76 30.5q47 0 78 -30.5t31 -76.5q0 -47 -31 -78.5t-78 -31.5q-46 0 -76 31.5t-30 78.5z" />
    <glyph glyph-name="uniFED7" unicode="&#x642;" horiz-adv-x="1148" arabic-form="initial" 
d="M0 0v168h242q-76 102 -76 254q0 191 124 315.5t331 124.5q87 0 157.5 -25.5t116.5 -68t77 -101t44.5 -121.5t13.5 -132q0 -198 -86 -414h-944zM350 420q0 -134 90 -252h373q35 132 35 231q0 133 -60 211t-182 78t-189 -74t-67 -194zM657 1210q0 46 32 76.5t79 30.5
q45 0 74.5 -30.5t29.5 -76.5q0 -48 -29.5 -79t-74.5 -31q-47 0 -79 31.5t-32 78.5zM360 1210q0 46 30.5 76.5t76.5 30.5q47 0 77.5 -30.5t30.5 -76.5q0 -47 -30.5 -78.5t-77.5 -31.5q-46 0 -76.5 31.5t-30.5 78.5z" />
    <glyph glyph-name="uniFED8" unicode="&#x642;" horiz-adv-x="1189" arabic-form="medial" 
d="M229 0h-229v168h233q59 0 86 4q-69 55 -111 134t-42 175q0 165 119 273t315 108q195 0 309.5 -107.5t114.5 -271.5q0 -191 -154 -313q13 0 40.5 -1t43.5 -1h236q41 0 41 -86q0 -82 -41 -82h-229q-191 0 -369 37q-181 -37 -363 -37zM596 688q-110 0 -178 -56.5t-68 -150.5
q0 -101 73.5 -176.5t170.5 -99.5q89 17 168.5 95.5t79.5 180.5q0 93 -68.5 150t-177.5 57zM748 1100q-47 0 -79 31.5t-32 78.5q0 46 32 76.5t79 30.5q45 0 74.5 -30.5t29.5 -76.5q0 -48 -29.5 -79t-74.5 -31zM446 1100q-46 0 -76 31.5t-30 78.5q0 46 30 76.5t76 30.5
q47 0 78 -30.5t31 -76.5q0 -47 -31 -78.5t-78 -31.5z" />
    <glyph glyph-name="uniFEDA" unicode="&#x643;" horiz-adv-x="1816" arabic-form="final" 
d="M551 0q-220 0 -346.5 106.5t-126.5 286.5q0 148 65 324l162 -43q-45 -172 -45 -248q0 -129 82 -193.5t236 -64.5h579q71 0 114 12.5t68 45.5t34 80.5t9 125.5v1116h181v-1153q0 -227 254 -227q41 0 41 -86q0 -82 -41 -82q-226 0 -316 129q-95 -129 -344 -129h-606z
M641 756h100q-30 52 -30 110q0 81 58 137t155 56q40 0 102 -17l-18 -104q-40 12 -78 12q-48 0 -77.5 -22.5t-29.5 -69.5q0 -56 39 -102h187v-107h-408v107z" />
    <glyph glyph-name="uniFEDB" unicode="&#x643;" horiz-adv-x="968" arabic-form="initial" 
d="M258 905q143 -46 248.5 -104.5t171 -123t105 -145t54.5 -161.5t15 -181v-190h-852v168h676v55q0 146 -56.5 247t-187.5 179t-356 142v174l579 559l117 -119z" />
    <glyph glyph-name="uniFEDC" unicode="&#x643;" horiz-adv-x="1089" arabic-form="medial" 
d="M0 0v168h676v55q0 146 -56.5 247t-187.5 179t-356 142v174l579 559l117 -119l-514 -500q143 -46 248.5 -104.5t171 -123t105 -145t54.5 -161.5t15 -181v-22h238q40 0 40 -86q0 -82 -40 -82h-1090z" />
    <glyph glyph-name="uniFEDE" unicode="&#x644;" horiz-adv-x="1413" arabic-form="final" 
d="M1413 168q41 0 41 -86q0 -82 -41 -82h-242q-45 -163 -189.5 -252.5t-358.5 -89.5q-254 0 -400.5 133.5t-146.5 349.5q0 166 88 369l158 -57q-33 -101 -47.5 -164t-14.5 -127q0 -330 373 -330q189 0 284 91t95 278v1347h180v-1380h221z" />
    <glyph glyph-name="uniFEDF" unicode="&#x644;" horiz-adv-x="555" arabic-form="initial" 
d="M0 0v168q71 0 114 12.5t68 45.5t34 80.5t9 125.5v1116h181v-1181q0 -193 -101.5 -280t-304.5 -87z" />
    <glyph glyph-name="uniFEE0" unicode="&#x644;" horiz-adv-x="659" arabic-form="medial" 
d="M659 168q41 0 41 -86q0 -82 -41 -82q-225 0 -315 129q-95 -129 -344 -129v168q71 0 114 12.5t68 45.5t34 80.5t9 125.5v1116h181v-1153q0 -227 253 -227z" />
    <glyph glyph-name="uniFEE2" unicode="&#x645;" horiz-adv-x="1462" arabic-form="final" 
d="M76 -532v362q0 160 90 249t252 89h51q-27 86 -27 164q0 194 130 316t325 122q86 0 156 -24.5t117 -65.5t79 -97.5t46 -119t14 -131.5q0 -84 -23 -164h176q41 0 41 -86q0 -82 -41 -82h-280q-127 -115 -371 -115h-133q-68 52 -117 115h-133q-84 0 -130 -44.5t-46 -133.5
v-354h-176zM729 53h113q138 0 212 77.5t74 213.5q0 119 -63 188.5t-180 69.5q-118 0 -190 -72.5t-72 -201.5q0 -163 106 -275z" />
    <glyph glyph-name="uniFEE3" unicode="&#x645;" horiz-adv-x="1136" arabic-form="initial" 
d="M547 0h-547v168h244q-82 114 -82 262q0 192 128 312t324 120q195 0 304.5 -123.5t109.5 -308.5q0 -69 -14.5 -129t-49.5 -116.5t-88.5 -96.5t-137.5 -64t-191 -24zM346 426q0 -139 100 -258h119q77 0 133.5 21t87.5 59t45.5 83t14.5 99q0 118 -67.5 188t-180.5 70
q-111 0 -181.5 -68.5t-70.5 -193.5z" />
    <glyph glyph-name="uniFEE4" unicode="&#x645;" horiz-adv-x="1183" arabic-form="medial" 
d="M0 168h190q-26 83 -26 164q0 194 129.5 316t324.5 122q107 0 188 -36.5t128 -99.5t70.5 -139t23.5 -163q0 -88 -24 -164h180q41 0 41 -86q0 -82 -41 -82h-291q-128 -115 -361 -115h-133q-66 51 -116 115h-283v168zM606 602q-119 0 -190.5 -72t-71.5 -202q0 -162 107 -275
h112q137 0 211 77.5t74 213.5q0 119 -63.5 188.5t-178.5 69.5z" />
    <glyph glyph-name="uniFEE6" unicode="&#x646;" horiz-adv-x="1443" arabic-form="final" 
d="M655 838q-49 0 -78.5 31t-29.5 79q0 47 29.5 77t78.5 30q47 0 76 -30.5t29 -76.5q0 -48 -29 -79t-76 -31zM1444 168q41 0 41 -86q0 -82 -41 -82h-268q-45 -167 -189 -254.5t-356 -87.5q-136 0 -243 38t-174 104t-101.5 153t-34.5 188q0 166 88 369l160 -57
q-64 -164 -64 -289q0 -166 98.5 -249t276.5 -83q379 0 379 369v489h180v-522h248z" />
    <glyph glyph-name="uniFEE7" unicode="&#x646;" horiz-adv-x="524" arabic-form="initial" 
d="M326 1077q-49 0 -79 31.5t-30 79.5q0 46 30 76t79 30q47 0 75.5 -30t28.5 -76q0 -48 -28.5 -79.5t-75.5 -31.5zM0 0v168q130 0 183 58t53 206v408h180v-437q0 -213 -102.5 -308t-313.5 -95z" />
    <glyph glyph-name="uniFEE8" unicode="&#x646;" horiz-adv-x="669" arabic-form="medial" 
d="M326 1077q-49 0 -79 31.5t-30 79.5q0 46 30 76t79 30q47 0 75.5 -30t28.5 -76q0 -48 -28.5 -79.5t-75.5 -31.5zM670 168q41 0 41 -86q0 -82 -41 -82q-234 0 -320 137q-97 -137 -350 -137v168q130 0 183 58t53 206v408h180v-445q0 -227 254 -227z" />
    <glyph glyph-name="uniFEE9" unicode="&#x647;" horiz-adv-x="1062" arabic-form="isolated" 
d="M516 -10q-210 0 -325 116t-115 297q0 123 49 225.5t151 168t240 65.5q104 0 189 -38t138.5 -102.5t82 -146t28.5 -172.5q0 -187 -117.5 -300t-320.5 -113zM520 162q118 0 184 61.5t66 188.5q0 125 -64.5 200.5t-189.5 75.5q-126 0 -190 -76t-64 -198q0 -129 68.5 -190.5
t189.5 -61.5z" />
    <glyph glyph-name="uniFEEA" unicode="&#x647;" horiz-adv-x="1140" arabic-form="final" 
d="M1141 168q41 0 41 -86q0 -82 -41 -82q-279 0 -348 102q-132 -63 -279 -63q-196 0 -317 98t-121 275q0 190 132 309t365 119h357v-471q0 -118 45 -159.5t166 -41.5zM739 258v414h-198q-126 0 -203.5 -63t-77.5 -179q0 -109 70 -164t202 -55q131 0 207 47z" />
    <glyph glyph-name="uniFEEB" unicode="&#x647;" horiz-adv-x="1290" arabic-form="initial" 
d="M483 197q81 30 131 93t50 156q0 94 -49.5 153.5t-122.5 59.5q-75 0 -124 -60t-49 -150q0 -89 45.5 -153t118.5 -99zM702 168h320q6 37 6 80q0 255 -256 375q49 -79 49 -179q0 -83 -32.5 -156t-86.5 -120zM135 739l27 152q189 -12 339 -38t282.5 -76t220 -122t138 -180
t50.5 -246q0 -107 -29 -229h-407q-168 0 -273 39q-107 -39 -278 -39h-205v168h201q44 0 69 2q-49 48 -78.5 118t-29.5 152q0 85 39 163t110 126q-57 6 -176 10z" />
    <glyph glyph-name="uniFEEC" unicode="&#x647;" horiz-adv-x="1040" arabic-form="medial" 
d="M0 168h156v217q0 213 99.5 340t293.5 127q96 0 169.5 -34t116.5 -91.5t64 -124.5t21 -141q0 -165 -97 -293h217q41 0 41 -86q0 -82 -41 -82h-159q53 -92 53 -184q0 -140 -103 -224t-282 -84q-393 0 -393 392v100h-156v168zM336 166h145q25 0 35 2q102 12 162.5 90.5
t60.5 190.5q0 102 -53 165.5t-151 63.5q-94 0 -146.5 -67t-52.5 -201v-244zM336 0v-86q0 -123 52.5 -178t166.5 -55q195 0 195 155q0 84 -58 164h-356z" />
    <glyph glyph-name="uniFEEE" unicode="&#x648;" horiz-adv-x="1122" arabic-form="final" 
d="M606 0q-250 0 -372.5 111t-122.5 301q0 122 51.5 224t150 164t224.5 62q182 0 288.5 -107t106.5 -290v-297h190q41 0 41 -86q0 -82 -41 -82h-196q-13 -79 -49 -142t-101 -114t-170.5 -78.5t-245.5 -27.5q-55 0 -102 4l-10 163q70 -4 98 -4q366 0 399 199h-139zM297 432
q0 -132 77.5 -198t248.5 -66h129v240q0 134 -57 207t-165 73q-101 0 -167 -70t-66 -186z" />
    <glyph glyph-name="uniFEF0" unicode="&#x649;" horiz-adv-x="1574" arabic-form="final" 
d="M1575 168q41 0 41 -86q0 -82 -41 -82h-158q39 -32 58.5 -78t19.5 -92q0 -151 -195 -256.5t-522 -105.5q-184 0 -319.5 33.5t-219 97.5t-123.5 151.5t-40 200.5q0 118 49 270l166 -43q-31 -119 -31 -205q0 -114 50.5 -185t168 -107.5t312.5 -36.5q246 0 383 57t137 147
q0 58 -56.5 110t-171.5 81l-256 65l45 148l277 -66q79 -18 199 -18h227z" />
    <glyph glyph-name="uniFEF2" unicode="&#x64a;" horiz-adv-x="1574" arabic-form="final" 
d="M1575 168q41 0 41 -86q0 -82 -41 -82h-158q39 -32 58.5 -78t19.5 -92q0 -151 -195 -256.5t-522 -105.5q-184 0 -319.5 33.5t-219 97.5t-123.5 151.5t-40 200.5q0 118 49 270l166 -43q-31 -119 -31 -205q0 -114 50.5 -185t168 -107.5t312.5 -36.5q246 0 383 57t137 147
q0 58 -56.5 110t-171.5 81l-256 65l45 148l277 -66q79 -18 199 -18h227zM621 -709q47 0 77.5 -30.5t30.5 -77.5q0 -46 -30.5 -77.5t-77.5 -31.5q-46 0 -76.5 31.5t-30.5 77.5q0 47 30.5 77.5t76.5 30.5zM922 -709q46 0 75 -30.5t29 -77.5q0 -46 -29.5 -77.5t-74.5 -31.5
q-47 0 -79 31.5t-32 77.5q0 47 31.5 77.5t79.5 30.5z" />
    <glyph glyph-name="uniFEF3" unicode="&#x64a;" horiz-adv-x="595" arabic-form="initial" 
d="M0 0v168h20q124 0 175 59.5t51 204.5v408h180v-437q0 -211 -101.5 -307t-306.5 -96h-18zM102 -393q-46 0 -76 31t-30 77q0 47 30 78t76 31q47 0 78 -31t31 -78q0 -46 -31 -77t-78 -31zM403 -393q-47 0 -78.5 31t-31.5 77q0 47 31.5 78t78.5 31q46 0 75.5 -31t29.5 -78
q0 -46 -30 -77t-75 -31z" />
    <glyph glyph-name="uniFEF4" unicode="&#x64a;" horiz-adv-x="679" arabic-form="medial" 
d="M680 168q41 0 41 -86q0 -82 -41 -82q-234 0 -320 137q-97 -137 -342 -137h-18v168h20q124 0 175 59.5t51 204.5v408h180v-445q0 -227 254 -227zM158 -176q47 0 77.5 -31t30.5 -78q0 -46 -30.5 -77t-77.5 -31q-46 0 -76.5 31t-30.5 77q0 47 30.5 78t76.5 31zM459 -176
q46 0 75 -31t29 -78q0 -46 -29.5 -77t-74.5 -31q-47 0 -79 31t-32 77q0 47 32 78t79 31z" />
    <glyph glyph-name="uniFEF5" unicode="&#xfef5;" horiz-adv-x="1357" arabic-form="isolated" 
d="M811 0h-752v168h416v958h180v-958h127q128 0 187 60.5t59 199.5v1120h180v-1169q0 -178 -102 -278.5t-295 -100.5zM240 1378q79 74 157 74q37 0 143 -27.5t148 -27.5q32 0 53 9t58 40l67 -68q-62 -92 -170 -92q-56 0 -165 26.5t-140 26.5q-43 0 -92 -34z" />
    <glyph glyph-name="uniFEF6" unicode="&#xfef6;" horiz-adv-x="1462" arabic-form="final" 
d="M59 168h416v958h180v-958h127q128 0 187 60.5t59 199.5v1120h180v-1153q0 -227 254 -227q41 0 41 -86q0 -82 -41 -82q-234 0 -321 139q-104 -139 -330 -139h-752v168zM240 1378q79 74 157 74q37 0 143 -27.5t148 -27.5q32 0 53 9t58 40l67 -68q-62 -92 -170 -92
q-56 0 -165 26.5t-140 26.5q-43 0 -92 -34z" />
    <glyph glyph-name="uniFEF7" unicode="&#xfef7;" horiz-adv-x="1357" arabic-form="isolated" 
d="M811 0h-752v168h416v958h180v-958h127q128 0 187 60.5t59 199.5v1120h180v-1169q0 -178 -102 -278.5t-295 -100.5zM401 1366h72q-29 50 -29 96q0 71 48.5 113.5t125.5 42.5q43 0 101 -12l-17 -86q-36 8 -65 8q-45 0 -72.5 -20t-27.5 -60q0 -35 26 -82h174v-88h-336v88z
" />
    <glyph glyph-name="uniFEF8" unicode="&#xfef8;" horiz-adv-x="1462" arabic-form="final" 
d="M59 0v168h416v958h180v-958h127q128 0 187 60.5t59 199.5v1120h180v-1153q0 -227 254 -227q41 0 41 -86q0 -82 -41 -82q-234 0 -321 139q-104 -139 -330 -139h-752zM401 1278v88h72q-29 50 -29 96q0 71 48.5 113.5t125.5 42.5q43 0 101 -12l-17 -86q-36 8 -65 8
q-45 0 -72.5 -20t-27.5 -60q0 -35 26 -82h174v-88h-336z" />
    <glyph glyph-name="uniFEF9" unicode="&#xfef9;" horiz-adv-x="1357" arabic-form="isolated" 
d="M811 0h-752v168h416v958h180v-958h127q128 0 187 60.5t59 199.5v1120h180v-1169q0 -178 -102 -278.5t-295 -100.5zM731 -512h-336v86h72q-29 53 -29 98q0 71 48.5 113.5t125.5 42.5q43 0 101 -12l-17 -86q-36 8 -65 8q-45 0 -73 -20t-28 -60q0 -37 29 -84h172v-86z" />
    <glyph glyph-name="uniFEFA" unicode="&#xfefa;" horiz-adv-x="1462" arabic-form="final" 
d="M59 0v168h416v958h180v-958h127q128 0 187 60.5t59 199.5v1120h180v-1153q0 -227 254 -227q41 0 41 -86q0 -82 -41 -82q-234 0 -321 139q-104 -139 -330 -139h-752zM731 -512h-336v86h72q-29 53 -29 98q0 71 48.5 113.5t125.5 42.5q43 0 101 -12l-17 -86q-36 8 -65 8
q-45 0 -73 -20t-28 -60q0 -37 29 -84h172v-86z" />
    <glyph glyph-name="uniFEFB" unicode="&#xfefb;" horiz-adv-x="1357" arabic-form="isolated" 
d="M811 0h-752v168h416v958h180v-958h127q128 0 187 60.5t59 199.5v1120h180v-1169q0 -178 -102 -278.5t-295 -100.5z" />
    <glyph glyph-name="uniFEFC" unicode="&#xfefc;" horiz-adv-x="1462" arabic-form="final" 
d="M59 0v168h416v958h180v-958h127q128 0 187 60.5t59 199.5v1120h180v-1153q0 -227 254 -227q41 0 41 -86q0 -82 -41 -82q-234 0 -321 139q-104 -139 -330 -139h-752z" />
    <glyph glyph-name=".notdef" horiz-adv-x="1048" 
d="M1049 1470v-1470h-1049v1470h1049zM946 102v1264h-844v-1264h844zM530 1247q113 0 183.5 -74t70.5 -194q0 -77 -29 -129.5t-104 -118.5q-73 -66 -84 -102q-12 -30 -12 -150h-94l-4 39q0 107 26.5 163.5t104.5 129.5q46 43 69 79.5t23 80.5q0 72 -47.5 123t-108.5 51
q-69 0 -112.5 -50t-55.5 -145l-102 17q12 137 83.5 208.5t192.5 71.5zM455 377h114v-137h-114v137z" />
    <glyph glyph-name="uni0000" 
 />
    <glyph glyph-name="uni0000" 
 />
    <glyph glyph-name="uni000D" unicode="&#xd;" horiz-adv-x="569" 
 />
    <glyph glyph-name="space" unicode=" " horiz-adv-x="569" 
 />
    <glyph glyph-name="exclam" unicode="!" horiz-adv-x="569" 
d="M379 1450v-1032h-197v1032h197zM285 258q55 0 95 -40t40 -95t-40 -95t-95 -40t-95 40t-40 95q0 56 40 95.5t95 39.5z" />
    <glyph glyph-name="quotedbl" unicode="&#x22;" horiz-adv-x="1062" 
d="M604 946v504h160v-504h-160zM299 946v504h160v-504h-160z" />
    <glyph glyph-name="numbersign" unicode="#" horiz-adv-x="1138" 
d="M246 418h-195v160h217l41 294h-194v160h217l57 418h162l-57 -418h237l57 418h162l-57 -418h194v-160h-217l-41 -294h195v-160h-217l-57 -418h-162l57 418h-237l-58 -418h-162zM471 872l-41 -294h238l41 294h-238z" />
    <glyph glyph-name="dollar" unicode="$" horiz-adv-x="1138" 
d="M504 -25q-301 0 -451 197l158 141q44 -74 122 -117.5t171 -48.5v504q-216 55 -317 157.5t-101 262.5q0 161 116.5 273t301.5 131v147h110v-147q122 0 228 -41.5t178 -116.5l-148 -143q-45 59 -113 93.5t-145 35.5v-488q59 -16 101 -29.5t91.5 -34t83.5 -42.5t67.5 -53
t54 -67.5t33 -85.5t12.5 -106q0 -172 -123 -289.5t-320 -132.5v-147h-110v147zM614 623v-476q115 15 180.5 81.5t65.5 160.5q0 83 -56.5 138t-189.5 96zM283 1071q0 -160 221 -223v455q-106 -18 -163.5 -80.5t-57.5 -151.5z" />
    <glyph glyph-name="percent" unicode="%" horiz-adv-x="1744" 
d="M1393 1452l-912 -1515l-123 63l912 1516zM436 1487q151 0 258 -105.5t107 -257.5q0 -148 -106.5 -255t-256.5 -107q-147 0 -254.5 104.5t-107.5 257.5q0 150 106 256.5t254 106.5zM236 1124q0 -84 59 -143t143 -59q85 0 144 58.5t59 143.5q0 84 -59.5 143.5t-145.5 59.5
q-82 0 -141 -59.5t-59 -143.5zM1307 688q149 0 255.5 -105.5t106.5 -256.5q0 -150 -106 -256.5t-256 -106.5t-256.5 106.5t-106.5 256.5q0 148 106.5 255t256.5 107zM1104 326q0 -84 59.5 -143.5t143.5 -59.5q83 0 142.5 59.5t59.5 143.5t-59 143t-143 59q-81 0 -142 -58.5
t-61 -143.5z" />
    <glyph glyph-name="ampersand" unicode="&#x26;" horiz-adv-x="1478" 
d="M643 1475q166 0 270.5 -88t104.5 -240q0 -217 -301 -373l287 -299l182 297h223l-281 -434l330 -338h-264l-178 193q-98 -120 -203 -175t-242 -55q-117 0 -209.5 35t-149.5 94.5t-86.5 134t-29.5 156.5q0 255 330 416q-93 97 -131.5 174.5t-38.5 161.5q0 152 109 246
t278 94zM453 1133q0 -105 143 -242q127 67 176 127t49 129q0 70 -49 113t-129 43q-81 0 -135.5 -47t-54.5 -123zM305 389q0 -104 82.5 -179t190.5 -75q167 0 321 184l-350 365q-110 -66 -151 -102q-93 -83 -93 -193z" />
    <glyph glyph-name="quotesingle" unicode="'" horiz-adv-x="569" 
d="M365 1450v-504h-160v504h160z" />
    <glyph glyph-name="parenleft" unicode="(" horiz-adv-x="569" 
d="M520 1421q-145 -226 -203.5 -414t-58.5 -415q0 -473 262 -830l-123 -81q-144 198 -221.5 429.5t-77.5 479.5q0 235 78.5 473t220.5 436z" />
    <glyph glyph-name="parenright" unicode=")" horiz-adv-x="569" 
d="M172 1499q144 -197 221.5 -429.5t77.5 -477.5q0 -238 -77 -474t-222 -437l-123 77q143 226 202.5 413t59.5 419q0 466 -262 827z" />
    <glyph glyph-name="asterisk" unicode="*" horiz-adv-x="950" 
d="M551 1450v-301l285 96l43 -137l-285 -92l180 -244l-112 -84l-187 250l-182 -246l-113 84l182 240l-290 98l43 133l288 -98v301h148z" />
    <glyph glyph-name="plus" unicode="+" horiz-adv-x="1363" 
d="M135 541v159h467v467h160v-467h467v-159h-467v-467h-160v467h-467z" />
    <glyph glyph-name="comma" unicode="," horiz-adv-x="569" 
d="M438 233l-172 -503h-168l142 503h198z" />
    <glyph glyph-name="hyphen" unicode="-" horiz-adv-x="647" 
d="M575 582v-172h-503v172h503z" />
    <glyph glyph-name="period" unicode="." horiz-adv-x="569" 
d="M285 258q56 0 95.5 -40t39.5 -95q0 -57 -40.5 -96t-94.5 -39q-55 0 -95 39.5t-40 95.5t40 95.5t95 39.5z" />
    <glyph glyph-name="slash" unicode="/" horiz-adv-x="796" 
d="M655 1540l142 -53l-654 -1577l-143 53z" />
    <glyph glyph-name="zero" unicode="0" horiz-adv-x="1138" 
d="M569 1475q242 0 371 -198.5t129 -551.5q0 -351 -129.5 -550.5t-370.5 -199.5q-162 0 -276 95.5t-168.5 262t-54.5 392.5q0 352 128 551t371 199zM266 725q0 -280 78 -429t225 -149t225 148.5t78 429.5q0 283 -77.5 430.5t-227.5 147.5q-145 0 -223 -145.5t-78 -432.5z
" />
    <glyph glyph-name="one" unicode="1" horiz-adv-x="1138" 
d="M750 1450v-1450h-197v1225l-266 -246l-115 137l403 334h175z" />
    <glyph glyph-name="two" unicode="2" horiz-adv-x="1138" 
d="M588 1487q205 0 330.5 -109.5t125.5 -292.5q0 -112 -54 -213.5t-193 -234.5l-482 -465h729v-172h-950v209l565 561q86 84 131.5 157t45.5 156q0 101 -71 166.5t-179 65.5q-107 0 -176 -59t-88 -164l-213 18q28 180 154.5 278.5t324.5 98.5z" />
    <glyph glyph-name="three" unicode="3" horiz-adv-x="1138" 
d="M563 1487q91 0 170 -24t141 -71.5t98 -124t36 -173.5q0 -114 -69 -205t-179 -125v-4q132 -24 208 -124.5t76 -240.5q0 -101 -39 -182.5t-106.5 -132.5t-154 -78t-183.5 -27q-180 0 -300 81t-167 235l207 63q39 -115 100 -161t164 -46q121 0 202 75t81 188
q0 137 -96 203.5t-312 66.5v172q193 0 282 49.5t89 177.5q0 111 -66.5 173.5t-177.5 62.5q-78 0 -142.5 -46t-98.5 -122l-201 67q54 129 168.5 201t269.5 72z" />
    <glyph glyph-name="four" unicode="4" horiz-adv-x="1138" 
d="M70 319v201l577 930h238v-958h205v-173h-205v-319h-197v319h-618zM684 1217l-442 -725h446v725h-4z" />
    <glyph glyph-name="five" unicode="5" horiz-adv-x="1138" 
d="M965 1450v-184h-588l-6 -363q25 12 88 21.5t106 9.5q94 0 175.5 -32t143 -91t97 -151t35.5 -205q0 -211 -146 -345.5t-364 -134.5q-151 0 -269 77.5t-167 215.5l198 68q72 -189 269 -189q121 0 201.5 81.5t80.5 215.5q0 150 -94 234t-256 84q-58 0 -143 -21t-156 -55
l16 764h779z" />
    <glyph glyph-name="six" unicode="6" horiz-adv-x="1138" 
d="M815 1450l-364 -561h8q67 33 159 33q62 0 123.5 -16t120.5 -52t104.5 -88t73 -130.5t27.5 -172.5q0 -222 -137.5 -355t-360.5 -133q-139 0 -252.5 59t-179 166t-65.5 242q0 120 32 209t111 217l369 582h231zM268 449q0 -134 84 -218t217 -84t217 84t84 218
q0 124 -78.5 212.5t-224.5 88.5q-130 0 -214.5 -82.5t-84.5 -218.5z" />
    <glyph glyph-name="seven" unicode="7" horiz-adv-x="1138" 
d="M997 1450v-168l-577 -1282h-221l587 1278h-700v172h911z" />
    <glyph glyph-name="eight" unicode="8" horiz-adv-x="1138" 
d="M569 1475q179 0 301.5 -101t122.5 -262q0 -124 -60.5 -214t-166.5 -122v-6q128 -37 202 -131.5t74 -222.5q0 -197 -132.5 -319t-340.5 -122t-340.5 122t-132.5 319q0 127 73.5 222.5t203.5 131.5v6q-106 31 -167 121t-61 215q0 158 122.5 260.5t301.5 102.5zM342 1085
q0 -96 65 -162.5t162 -66.5q103 0 165.5 64.5t62.5 164.5q0 102 -64 166t-166 64q-94 0 -159.5 -65t-65.5 -165zM293 416q0 -120 78.5 -194.5t197.5 -74.5q120 0 198.5 74.5t78.5 194.5q0 125 -78 196.5t-201 71.5q-112 0 -193 -74.5t-81 -193.5z" />
    <glyph glyph-name="nine" unicode="9" horiz-adv-x="1138" 
d="M569 1475q215 0 356.5 -132.5t141.5 -334.5q0 -119 -34 -212t-109 -212l-369 -584h-231l364 561h-8q-67 -33 -160 -33q-81 0 -158 27.5t-143 81.5t-106.5 145t-40.5 205q0 224 138 356t359 132zM268 1001q0 -136 84.5 -218.5t216.5 -82.5q135 0 218 83.5t83 217.5
q0 58 -18.5 111t-54 96t-95.5 69t-135 26q-130 0 -214.5 -82.5t-84.5 -219.5z" />
    <glyph glyph-name="colon" unicode=":" horiz-adv-x="569" 
d="M285 983q55 0 95 -39.5t40 -95.5t-40 -95.5t-95 -39.5q-56 0 -95.5 39t-39.5 96q0 56 40 95.5t95 39.5zM285 258q55 0 95 -40t40 -95q0 -56 -40 -95.5t-95 -39.5q-56 0 -95.5 39t-39.5 96q0 56 40 95.5t95 39.5z" />
    <glyph glyph-name="semicolon" unicode=";" horiz-adv-x="569" 
d="M285 981q55 0 95 -39.5t40 -95.5t-40 -95.5t-95 -39.5q-56 0 -95.5 39t-39.5 96q0 56 40 95.5t95 39.5zM438 233l-172 -503h-168l142 503h198z" />
    <glyph glyph-name="less" unicode="&#x3c;" horiz-adv-x="1363" 
d="M135 705l1094 450v-162l-926 -372l926 -373v-160l-1094 449v168z" />
    <glyph glyph-name="equal" unicode="=" horiz-adv-x="1363" 
d="M1229 700h-1094v160h1094v-160zM135 539h1094v-160h-1094v160z" />
    <glyph glyph-name="greater" unicode="&#x3e;" horiz-adv-x="1363" 
d="M1229 537l-1094 -451v162l926 373l-926 372v160l1094 -448v-168z" />
    <glyph glyph-name="question" unicode="?" horiz-adv-x="1024" 
d="M549 1487q182 0 295.5 -104t113.5 -275q0 -161 -81 -242l-140 -141q-79 -79 -96 -119q-14 -44 -14 -127v-73h-197v133q0 87 27 139q17 39 75 94l82 78q89 86 118.5 137t29.5 111q0 93 -63 155t-154 62q-94 0 -159.5 -62.5t-78.5 -167.5l-209 21q26 177 148 279t303 102z
M526 258q54 0 95 -40t41 -95t-40 -95t-96 -40t-95.5 40t-39.5 95t40.5 95t94.5 40z" />
    <glyph glyph-name="at" unicode="@" horiz-adv-x="1638" 
d="M850 1487q186 0 345 -77.5t256 -222t97 -323.5q0 -114 -41 -222t-116 -187q-77 -82 -163.5 -125t-160.5 -43q-56 0 -92 35t-37 96h-8q-122 -131 -254 -131q-123 0 -202 89.5t-79 231.5q0 95 32 191t88.5 175t145.5 129t193 50q78 0 135.5 -40t83.5 -116h4l33 117h150
l-173 -565q-10 -36 -10 -53q0 -50 60 -50q41 0 86.5 31t83.5 90q82 125 82 281q0 224 -151 364t-386 140q-126 0 -238 -48t-191.5 -131.5t-126 -200.5t-46.5 -251q0 -171 75.5 -312.5t216.5 -226t320 -84.5q150 0 277 54.5t200 152.5h162q-92 -159 -269.5 -250.5
t-373.5 -91.5q-154 0 -295 58t-245 158t-166 243.5t-62 306.5q0 153 59.5 293.5t161 242t242.5 162t297 60.5zM567 610q0 -164 146 -164q77 0 143 58.5t101.5 142.5t35.5 166q0 80 -35.5 130t-97.5 50q-128 0 -210.5 -109.5t-82.5 -273.5z" />
    <glyph glyph-name="A" unicode="A" horiz-adv-x="1441" 
d="M231 0h-229l639 1450h178l621 -1450h-230l-145 358h-690zM719 1196l-275 -666h549l-270 666h-4z" />
    <glyph glyph-name="B" unicode="B" horiz-adv-x="1290" 
d="M186 0v1450h512q87 0 163 -21.5t137 -64t96.5 -114t35.5 -163.5q0 -115 -63.5 -196.5t-185.5 -122.5v-4h2q81 -9 143.5 -47t97.5 -92t52.5 -110.5t17.5 -111.5q0 -184 -141 -293.5t-361 -109.5h-506zM383 172h297q134 0 219.5 63t85.5 183q0 123 -81 190.5t-228 67.5
h-293v-504zM383 848h274q124 0 194.5 57t70.5 160q0 97 -61.5 155t-162.5 58h-315v-430z" />
    <glyph glyph-name="C" unicode="C" horiz-adv-x="1441" 
d="M852 1487q155 0 289.5 -58.5t218.5 -166.5l-164 -125q-64 81 -155.5 123.5t-194.5 42.5q-158 0 -282.5 -78.5t-191.5 -213t-67 -298.5q0 -156 65.5 -284t190 -205t285.5 -77q239 0 379 195l166 -125q-86 -116 -231.5 -185t-317.5 -69q-136 0 -256.5 43.5t-208.5 118
t-152.5 171t-96.5 204t-32 215.5q0 163 54.5 305t151.5 245.5t239.5 162.5t310.5 59z" />
    <glyph glyph-name="D" unicode="D" horiz-adv-x="1517" 
d="M670 1450q152 0 278 -41.5t212.5 -111t146 -163.5t87 -197t27.5 -212q0 -206 -99.5 -371.5t-278.5 -259.5t-404 -94h-485v1450h516zM608 184q85 0 168 18t162.5 60t140 103t97 154t36.5 206q0 106 -34 201.5t-100 172t-175 122t-248 45.5h-305v-1082h258z" />
    <glyph glyph-name="E" unicode="E" horiz-adv-x="1251" 
d="M186 0v1450h936v-184h-739v-432h688v-185h-688v-465h776v-184h-973z" />
    <glyph glyph-name="F" unicode="F" horiz-adv-x="1175" 
d="M186 0v1450h912v-184h-715v-455h666v-184h-666v-627h-197z" />
    <glyph glyph-name="G" unicode="G" horiz-adv-x="1593" 
d="M854 1487q359 0 539 -189l-140 -149q-159 154 -401 154q-238 0 -392.5 -164t-154.5 -414q0 -158 70.5 -289.5t200.5 -210t292 -78.5q223 0 357 76v404h-322v184h518v-715q-100 -61 -252.5 -97t-296.5 -36q-172 0 -317.5 58t-246 159.5t-156.5 242t-56 302.5q0 212 96 386
t270 275t392 101z" />
    <glyph glyph-name="H" unicode="H" horiz-adv-x="1517" 
d="M186 0v1450h197v-602h752v602h196v-1450h-196v664h-752v-664h-197z" />
    <glyph glyph-name="I" unicode="I" horiz-adv-x="569" 
d="M383 1450v-1450h-197v1450h197z" />
    <glyph glyph-name="J" unicode="J" horiz-adv-x="987" 
d="M836 1450v-1044q0 -110 -35.5 -197t-95.5 -139.5t-134.5 -79.5t-158.5 -27q-160 0 -262.5 83t-131.5 235l193 43q18 -83 69.5 -130t131.5 -47q115 0 171 78.5t56 241.5v983h197z" />
    <glyph glyph-name="K" unicode="K" horiz-adv-x="1327" 
d="M186 0v1450h197v-627h16l641 627h275l-701 -670l748 -780h-287l-676 725h-16v-725h-197z" />
    <glyph glyph-name="L" unicode="L" horiz-adv-x="1062" 
d="M383 1450v-1266h666v-184h-863v1450h197z" />
    <glyph glyph-name="M" unicode="M" horiz-adv-x="1855" 
d="M172 0v1450h293l461 -1098h8l457 1098h292v-1450h-196v1192h-4l-490 -1192h-131l-489 1192h-4v-1192h-197z" />
    <glyph glyph-name="N" unicode="N" horiz-adv-x="1630" 
d="M383 0h-197v1450h258l799 -1192h4v1192h197v-1450h-250l-807 1192h-4v-1192z" />
    <glyph glyph-name="O" unicode="O" horiz-adv-x="1703" 
d="M852 1487q209 0 381 -95t273.5 -270.5t101.5 -396.5q0 -212 -95.5 -385.5t-269 -275t-391.5 -101.5q-157 0 -296.5 57t-240.5 157t-160 242.5t-59 305.5q0 215 98 389.5t271 273.5t387 99zM305 725q0 -158 66 -289t192.5 -210t288.5 -79q156 0 281.5 75.5t195.5 207.5
t70 295q0 119 -39.5 224.5t-109.5 184t-174 124t-226 45.5q-155 0 -280 -75.5t-195 -207.5t-70 -295z" />
    <glyph glyph-name="P" unicode="P" horiz-adv-x="1214" 
d="M383 0h-197v1450h521q211 0 332.5 -106.5t121.5 -299.5t-122.5 -299t-331.5 -106h-324v-639zM383 1278v-467h266q153 0 228 57t75 176q0 234 -303 234h-266z" />
    <glyph glyph-name="Q" unicode="Q" horiz-adv-x="1703" 
d="M846 1487q148 0 283.5 -54.5t236 -149t160 -230.5t59.5 -291q0 -205 -92 -361.5t-240 -224.5v-4h430v-172h-843q-202 0 -372.5 96t-271 266.5t-100.5 378.5q0 206 97 376.5t269.5 270t383.5 99.5zM305 758q0 -155 64.5 -285t188.5 -209.5t282 -79.5q232 0 384 162.5
t152 407.5q0 153 -68.5 278.5t-192 198t-277.5 72.5q-108 0 -206 -42t-170 -114t-114.5 -173.5t-42.5 -215.5z" />
    <glyph glyph-name="R" unicode="R" horiz-adv-x="1251" 
d="M383 0h-197v1450h521q77 0 144 -15t124.5 -47t98.5 -79t64 -114.5t23 -150.5q0 -62 -22 -123.5t-63.5 -115.5t-111.5 -93t-157 -50h-2l412 -662h-246l-369 639h-219v-639zM383 1278v-467h266q153 0 228 57t75 176q0 234 -303 234h-266z" />
    <glyph glyph-name="S" unicode="S" horiz-adv-x="1138" 
d="M602 1487q284 0 418 -166l-160 -145q-38 58 -106 92.5t-154 34.5q-64 0 -114.5 -15.5t-81 -39t-50.5 -54.5t-27.5 -59t-7.5 -56q0 -88 56 -142t162 -87l182 -59q158 -51 236.5 -140.5t78.5 -238.5q0 -200 -141.5 -324.5t-362.5 -124.5q-152 0 -271.5 52.5t-190.5 148.5
l161 139q47 -73 129.5 -114.5t178.5 -41.5q115 0 201.5 67t86.5 175q0 77 -53 128t-182 91l-129 43q-81 25 -140 57.5t-109 82t-75.5 122t-25.5 166.5q0 74 31.5 145.5t90.5 130.5t155 95.5t214 36.5z" />
    <glyph glyph-name="T" unicode="T" horiz-adv-x="1175" 
d="M23 1266v184h1130v-184h-467v-1266h-197v1266h-466z" />
    <glyph glyph-name="U" unicode="U" horiz-adv-x="1441" 
d="M160 522v928h196v-895q0 -52 10.5 -104.5t37 -108t66.5 -98t105 -70t146 -27.5q78 0 141.5 25.5t104 67t68 96t39 109.5t11.5 110v895h197v-928q0 -106 -38.5 -206t-108 -179t-177.5 -126.5t-237 -47.5q-125 0 -231.5 45.5t-178 122t-111.5 178t-40 213.5z" />
    <glyph glyph-name="V" unicode="V" horiz-adv-x="1290" 
d="M-12 1450h227l426 -1180h4l442 1180h216l-572 -1450h-184z" />
    <glyph glyph-name="W" unicode="W" horiz-adv-x="1970" 
d="M2 1450h205l319 -1159h4l342 1159h226l342 -1159h4l319 1159h205l-422 -1450h-207l-352 1184h-4l-350 -1184h-207z" />
    <glyph glyph-name="X" unicode="X" horiz-adv-x="1327" 
d="M240 0h-244l526 762l-487 688h252l377 -557l372 557h246l-483 -686l532 -764h-258l-416 629z" />
    <glyph glyph-name="Y" unicode="Y" horiz-adv-x="1253" 
d="M-20 1450h251l396 -637l407 637h240l-549 -832v-618h-197v618z" />
    <glyph glyph-name="Z" unicode="Z" horiz-adv-x="1214" 
d="M1137 1450v-184l-822 -1082h834v-184h-1083v182l825 1084h-801v184h1047z" />
    <glyph glyph-name="bracketleft" unicode="[" horiz-adv-x="569" 
d="M147 -319v1818h357v-135h-185v-1548h185v-135h-357z" />
    <glyph glyph-name="backslash" unicode="\" horiz-adv-x="796" 
d="M141 1540l656 -1577l-144 -53l-653 1577z" />
    <glyph glyph-name="bracketright" unicode="]" horiz-adv-x="569" 
d="M422 -319h-356v135h184v1548h-184v135h356v-1818z" />
    <glyph glyph-name="asciicircum" unicode="^" horiz-adv-x="1363" 
d="M334 565h-170l436 885h164l436 -885h-170l-348 723z" />
    <glyph glyph-name="underscore" unicode="_" horiz-adv-x="1024" 
d="M1024 -154v-102h-1024v102h1024z" />
    <glyph glyph-name="grave" unicode="`" horiz-adv-x="491" 
d="M168 1450l213 -295h-170l-305 295h262z" />
    <glyph glyph-name="a" unicode="a" horiz-adv-x="1062" 
d="M428 -25q-149 0 -242.5 79t-93.5 212q0 155 130 245.5t403 90.5h137v35q0 97 -65 154t-169 57q-78 0 -136.5 -23.5t-137.5 -87.5l-111 115q75 69 177 106t208 37q105 0 186 -27.5t127.5 -74t69.5 -101t23 -114.5v-520q0 -90 8 -158h-164q-6 74 -6 147h-4
q-61 -91 -144 -131.5t-196 -40.5zM657 467q-108 0 -185 -15.5t-118.5 -43t-59.5 -58.5t-18 -69q0 -76 52.5 -117t156.5 -41q127 0 202 76t75 215v53h-105z" />
    <glyph glyph-name="b" unicode="b" horiz-adv-x="1251" 
d="M324 0h-185v1548h185v-717h4q49 75 142 119.5t196 44.5q217 0 355 -142.5t138 -367.5q0 -219 -135.5 -364.5t-355.5 -145.5q-102 0 -194.5 43.5t-145.5 120.5h-4v-139zM324 485q0 -151 87.5 -244.5t231.5 -93.5t232 94t88 244q0 153 -89.5 245.5t-232.5 92.5
q-141 0 -229 -92.5t-88 -245.5z" />
    <glyph glyph-name="c" unicode="c" horiz-adv-x="987" 
d="M600 993q109 0 206 -38.5t167 -114.5l-139 -127q-102 108 -242 108q-137 0 -220 -96t-83 -248q0 -142 88 -236t225 -94q76 0 131.5 26.5t104.5 82.5l131 -131q-132 -150 -369 -150q-224 0 -366 141t-142 365q0 227 142.5 369.5t365.5 142.5z" />
    <glyph glyph-name="d" unicode="d" horiz-adv-x="1251" 
d="M586 -25q-216 0 -355 142.5t-139 367.5t139 367.5t355 142.5q102 0 194 -43.5t144 -120.5h4v717h184v-1548h-184v139h-4q-53 -77 -144 -120.5t-194 -43.5zM289 485q0 -152 88 -245t231 -93q144 0 232 93.5t88 244.5q0 153 -89.5 245.5t-232.5 92.5q-141 0 -229 -93
t-88 -245z" />
    <glyph glyph-name="e" unicode="e" horiz-adv-x="1138" 
d="M584 995q218 0 345.5 -138.5t127.5 -387.5v-51h-778q0 -122 97.5 -202.5t229.5 -80.5q147 0 266 146l140 -107q-156 -199 -430 -199q-219 0 -359.5 140.5t-140.5 369.5q0 217 141.5 363.5t360.5 146.5zM860 565q-4 136 -77.5 209.5t-202.5 73.5q-70 0 -129 -27.5
t-95.5 -70.5t-56.5 -91.5t-20 -93.5h581z" />
    <glyph glyph-name="f" unicode="f" horiz-adv-x="681" 
d="M2 811v160h209v225q0 194 79.5 285.5t252.5 91.5q77 0 137 -14l-21 -164q-42 18 -104 18q-85 0 -121.5 -47t-36.5 -162v-233h219v-160h-221v-811h-184v811h-209z" />
    <glyph glyph-name="g" unicode="g" horiz-adv-x="1251" 
d="M92 481q0 231 139 372.5t355 141.5q103 0 193.5 -44t144.5 -120h4v140h184v-971q0 -98 -35.5 -186.5t-101.5 -157t-167.5 -108.5t-225.5 -40q-290 0 -476 175l125 155q148 -157 349 -157q169 0 258.5 87.5t89.5 243.5v148h-6q-48 -83 -138.5 -127.5t-197.5 -44.5
q-136 0 -248.5 61.5t-179 175t-66.5 256.5zM606 823q-141 0 -229 -94t-88 -244q0 -147 85.5 -236t233.5 -89q146 0 233 88t87 237q0 153 -89.5 245.5t-232.5 92.5z" />
    <glyph glyph-name="h" unicode="h" horiz-adv-x="1138" 
d="M324 0h-185v1548h185v-727h4q38 81 125 127.5t194 46.5q161 0 256.5 -98t95.5 -264v-633h-184v580q0 113 -58.5 178t-162.5 65q-127 0 -198.5 -84t-71.5 -231v-508z" />
    <glyph glyph-name="i" unicode="i" horiz-adv-x="491" 
d="M246 1454q56 0 95.5 -40t39.5 -95q0 -56 -40 -95.5t-95 -39.5q-57 0 -96 39t-39 96q0 56 40 95.5t95 39.5zM338 971v-971h-184v971h184z" />
    <glyph glyph-name="j" unicode="j" horiz-adv-x="491" 
d="M246 1454q56 0 95.5 -40t39.5 -95q0 -56 -40 -95.5t-95 -39.5q-57 0 -96 39t-39 96q0 56 40 95.5t95 39.5zM338 971v-1121q0 -177 -74.5 -259.5t-222.5 -82.5q-66 0 -119 19l21 170q53 -16 75 -16q73 0 104.5 46t31.5 134v1110h184z" />
    <glyph glyph-name="k" unicode="k" horiz-adv-x="1062" 
d="M139 0v1548h185v-999l419 422h256l-454 -443l491 -528h-262l-450 504v-504h-185z" />
    <glyph glyph-name="l" unicode="l" horiz-adv-x="491" 
d="M338 1548v-1548h-184v1548h184z" />
    <glyph glyph-name="m" unicode="m" horiz-adv-x="1744" 
d="M324 0h-185v971h172v-152h4q31 71 120 123.5t192 52.5q209 0 303 -180q45 84 128 132t179 48q184 0 276.5 -107t92.5 -315v-573h-185v551q0 141 -51 206.5t-158 65.5q-122 0 -184.5 -74.5t-62.5 -209.5v-539h-185v522q0 167 -49 234t-156 67q-113 0 -182 -86t-69 -225
v-512z" />
    <glyph glyph-name="n" unicode="n" horiz-adv-x="1138" 
d="M139 971h185v-150h4q38 81 125 127.5t194 46.5q162 0 257 -98.5t95 -263.5v-633h-184v580q0 113 -58.5 178t-162.5 65q-127 0 -198.5 -84t-71.5 -231v-508h-185v971z" />
    <glyph glyph-name="o" unicode="o" horiz-adv-x="1216" 
d="M608 995q137 0 254.5 -64.5t189.5 -182.5t72 -263q0 -139 -68 -256.5t-187 -185.5t-261 -68q-139 0 -257.5 66.5t-188.5 184.5t-70 259q0 139 68 256.5t187 185.5t261 68zM289 485q0 -152 88 -245t231 -93q144 0 232 93.5t88 244.5q0 153 -89.5 245.5t-232.5 92.5
q-141 0 -229 -94t-88 -244z" />
    <glyph glyph-name="p" unicode="p" horiz-adv-x="1251" 
d="M139 -578v1549h185v-140h4q55 78 145 121t195 43q214 0 352.5 -141.5t138.5 -368.5q0 -225 -137.5 -367.5t-355.5 -142.5q-105 0 -198 45t-140 119h-4v-717h-185zM324 485q0 -151 87.5 -244.5t231.5 -93.5q145 0 232.5 92t87.5 246q0 153 -89.5 245.5t-232.5 92.5
q-141 0 -229 -92.5t-88 -245.5z" />
    <glyph glyph-name="q" unicode="q" horiz-adv-x="1251" 
d="M92 485q0 144 61 260t174 183t259 67q103 0 194.5 -44t143.5 -120h4v140h184v-1438h-184v606h-4q-51 -75 -142.5 -119.5t-195.5 -44.5q-218 0 -356 142.5t-138 367.5zM289 485q0 -152 88 -245t231 -93q145 0 232.5 93.5t87.5 244.5q0 68 -20.5 128t-59.5 107.5t-101.5 75
t-140.5 27.5q-141 0 -229 -93t-88 -245z" />
    <glyph glyph-name="r" unicode="r" horiz-adv-x="757" 
d="M139 0v971h185v-150h4q37 78 118 126t172 48q52 0 82 -12l-8 -199q-58 15 -92 15q-136 0 -206 -77.5t-70 -225.5v-496h-185z" />
    <glyph glyph-name="s" unicode="s" horiz-adv-x="909" 
d="M467 995q111 0 199 -41.5t133 -117.5l-144 -109q-82 96 -198 96q-69 0 -115.5 -30.5t-46.5 -77.5q0 -56 49 -88.5t141 -51.5q180 -35 260 -100.5t80 -193.5q0 -102 -57.5 -173t-144.5 -102t-193 -31q-132 0 -220.5 41.5t-152.5 130.5l140 115q112 -115 235 -115
q81 0 139 33t58 90q0 53 -46 86t-139 54q-90 19 -150.5 40t-107 54t-67.5 80t-21 112q0 73 31.5 131t84 94t117.5 55t136 19z" />
    <glyph glyph-name="t" unicode="t" horiz-adv-x="757" 
d="M211 811h-213v160h213v272h184v-272h264v-160h-264v-467q0 -102 29.5 -149.5t110.5 -47.5q84 0 131 29v-168q-25 -14 -75.5 -23.5t-92.5 -9.5q-59 0 -105.5 11.5t-76 27.5t-51 45t-31.5 52.5t-15.5 61.5t-6.5 60t-1 60v518z" />
    <glyph glyph-name="u" unicode="u" horiz-adv-x="1138" 
d="M139 971h185v-582q0 -114 59 -178t162 -64q128 0 199 85t71 231v508h184v-971h-184v150h-4q-38 -81 -124.5 -128t-194.5 -47q-161 0 -257 99t-96 264v633z" />
    <glyph glyph-name="v" unicode="v" horiz-adv-x="1024" 
d="M23 971h213l290 -744l279 744h196l-380 -971h-203z" />
    <glyph glyph-name="w" unicode="w" horiz-adv-x="1554" 
d="M342 0l-319 971h206l220 -725h4l231 725h195l245 -725h4l209 725h195l-313 -971h-187l-256 725h-4l-231 -725h-199z" />
    <glyph glyph-name="x" unicode="x" horiz-adv-x="1062" 
d="M240 0h-228l394 518l-345 453h238l236 -344l231 344h223l-332 -453l394 -518h-238l-287 408z" />
    <glyph glyph-name="y" unicode="y" horiz-adv-x="1024" 
d="M23 971h213l288 -758h4l275 758h198l-458 -1176q-23 -59 -42 -98t-47 -78t-60.5 -61.5t-79 -36t-105.5 -13.5q-95 0 -164 27l23 166q62 -20 110 -20q80 0 119 37.5t72 123.5l57 152z" />
    <glyph glyph-name="z" unicode="z" horiz-adv-x="948" 
d="M848 971v-164l-555 -647h584v-160h-805v166l551 645h-533v160h758z" />
    <glyph glyph-name="braceleft" unicode="{" horiz-adv-x="681" 
d="M82 668q79 0 125.5 74t46.5 169v316q0 69 21.5 124t54.5 86t68 46.5t67 15.5h158v-147h-95q-48 0 -75 -47t-27 -123v-334q0 -89 -45.5 -159.5t-126.5 -96.5v-6q75 -14 123.5 -84.5t48.5 -175.5v-308q0 -190 102 -190h95v-147h-152q-95 0 -156 85t-61 220v270
q0 107 -48 179.5t-124 72.5v160z" />
    <glyph glyph-name="bar" unicode="|" horiz-adv-x="454" 
d="M307 1536v-2048h-160v2048h160z" />
    <glyph glyph-name="braceright" unicode="}" horiz-adv-x="681" 
d="M59 1352v147h152q95 0 156 -85t61 -220v-291q0 -95 47.5 -162.5t124.5 -68.5v-160q-77 -1 -124.5 -69t-47.5 -164v-324q0 -70 -21 -125.5t-54 -86t-68 -46.5t-68 -16h-158v147h95q48 0 75 47.5t27 124.5v326q0 94 45 165t127 97v6q-77 15 -124.5 84.5t-47.5 175.5v301
q0 101 -26.5 149t-82.5 48h-88z" />
    <glyph glyph-name="asciitilde" unicode="~" horiz-adv-x="1363" 
d="M469 774q52 0 100 -16t119 -51q7 -4 29 -15l30 -15l27 -13.5t28.5 -13t25.5 -10t26.5 -9t23.5 -4.5t25 -2q107 0 182 149l82 -127q-106 -180 -262 -180q-43 0 -92.5 14t-144.5 60q-149 73 -217 73q-101 0 -172 -147l-82 127q57 95 122 137.5t150 42.5z" />
    <glyph glyph-name="uni00A0" unicode="&#xa0;" horiz-adv-x="569" 
 />
    <glyph glyph-name="exclamdown" unicode="&#xa1;" horiz-adv-x="569" 
d="M285 1008q54 0 94.5 -39.5t40.5 -96.5q0 -56 -40 -95.5t-95 -39.5t-95 39.5t-40 95.5q0 55 40.5 95.5t94.5 40.5zM387 578v-1033h-197v1033h197z" />
    <glyph glyph-name="cent" unicode="&#xa2;" horiz-adv-x="1138" 
d="M147 485q0 204 118 342t325 168v135h110v-135q107 -6 197.5 -47.5t144.5 -107.5l-133 -121q-46 54 -100.5 85t-108.5 32v-701q127 3 220 107l118 -119q-117 -132 -338 -148v-135h-110v135q-198 17 -320.5 160.5t-122.5 349.5zM590 836q-118 -19 -188 -114.5t-70 -232.5
q0 -134 70.5 -232.5t187.5 -121.5v701z" />
    <glyph glyph-name="sterling" unicode="&#xa3;" horiz-adv-x="1138" 
d="M147 0v172h209v500h-196v147h196v201q0 201 122.5 328t328.5 127q219 0 346 -127l-125 -144q-102 99 -203 99q-127 0 -199.5 -86t-72.5 -234v-164h332v-147h-332v-500h504v-172h-910z" />
    <glyph glyph-name="currency" unicode="&#xa4;" horiz-adv-x="1138" 
d="M143 1036l-100 101l117 114l100 -98q141 100 309 100q169 0 310 -100l100 98l117 -114l-101 -101q101 -137 101 -309t-101 -309l101 -101l-117 -116l-100 100q-135 -100 -310 -100q-170 0 -309 100l-100 -100l-117 116l100 101q-100 139 -100 309q0 173 100 309zM569 360
q153 0 260 107t107 260q0 152 -107.5 259.5t-261.5 107.5q-152 0 -258 -108t-106 -259q0 -153 106.5 -260t259.5 -107z" />
    <glyph glyph-name="yen" unicode="&#xa5;" horiz-adv-x="1138" 
d="M-10 1450h205l366 -647l379 647h209l-381 -633h238v-135h-316l-35 -57v-109h351v-135h-351v-381h-172v381h-350v135h350v109l-34 57h-316v135h234z" />
    <glyph glyph-name="brokenbar" unicode="&#xa6;" horiz-adv-x="454" 
d="M307 666h-160v716h160v-716zM147 358h160v-716h-160v716z" />
    <glyph glyph-name="section" unicode="&#xa7;" horiz-adv-x="1138" 
d="M614 1487q130 0 231 -55.5t144 -149.5l-172 -94q-26 65 -83 96t-126 31q-89 0 -144.5 -43t-55.5 -117q0 -64 52.5 -111t180.5 -102q53 -22 86.5 -38t82.5 -42.5t80 -53.5t61.5 -62.5t45.5 -80t15 -94.5q0 -87 -45 -156.5t-125 -111.5q133 -90 133 -248t-123 -254
t-307 -96q-149 0 -257.5 63.5t-160.5 184.5l176 84q28 -77 93.5 -118.5t162.5 -41.5q94 0 150.5 47t56.5 129q0 55 -53.5 101t-175.5 102q-230 102 -304 176q-71 77 -71 168q0 213 200 309q-163 90 -163 242q0 150 121.5 243t293.5 93zM346 657q0 -111 127 -174l232 -110
q58 36 90 84t32 96q0 54 -36 97.5t-117 82.5l-176 86q-80 -30 -116 -69t-36 -93z" />
    <glyph glyph-name="dieresis" unicode="&#xa8;" horiz-adv-x="491" 
d="M37 1462q50 0 88.5 -34.5t38.5 -81.5q0 -56 -35.5 -92.5t-91.5 -36.5t-91.5 36.5t-35.5 92.5q0 46 37.5 81t89.5 35zM455 1462q50 0 88.5 -34.5t38.5 -81.5q0 -55 -36 -92t-91 -37t-91 36.5t-36 92.5q0 46 37.5 81t89.5 35z" />
    <glyph glyph-name="copyright" unicode="&#xa9;" horiz-adv-x="1638" 
d="M819 1487q150 0 289 -58.5t243.5 -158.5t167 -242.5t62.5 -302.5q0 -152 -59.5 -292.5t-160.5 -243.5t-243 -164.5t-299 -61.5q-150 0 -290 59t-243.5 160t-166 243t-62.5 300q0 122 38 237.5t108 210t163.5 165.5t210.5 110t242 39zM193 725q0 -125 49 -240.5
t131.5 -200.5t199.5 -135.5t246 -50.5q166 0 309.5 81t230.5 226t87 320q0 170 -84 314.5t-229 228.5t-316 84q-165 0 -308 -82t-229.5 -227t-86.5 -318zM819 1198q157 0 260 -81.5t127 -231.5h-157q-44 166 -228 166q-140 0 -215.5 -82.5t-75.5 -233.5q0 -143 82.5 -233
t212.5 -90q184 0 224 174h157q-35 -152 -136.5 -237t-246.5 -85q-205 0 -328.5 126.5t-123.5 340.5q0 219 120 343t328 124z" />
    <glyph glyph-name="ordfeminine" unicode="&#xaa;" horiz-adv-x="690" 
d="M289 858q-95 0 -157 47.5t-62 128.5q0 61 29 103.5t84 65.5t122 32.5t156 9.5h35v19q0 45 -39.5 72.5t-100.5 27.5q-108 0 -182 -68l-72 93q100 86 254 86q143 0 209 -48t66 -149v-408h-135v91l-4 2q-51 -105 -203 -105zM471 1147q-132 0 -199 -23.5t-67 -81.5
q0 -73 123 -73q81 0 124.5 36.5t43.5 104.5v37h-25z" />
    <glyph glyph-name="guillemotleft" unicode="&#xab;" horiz-adv-x="1024" 
d="M520 856l-239 -358l241 -359l-127 -84l-299 443l297 442zM926 856l-240 -358l242 -359l-127 -84l-299 443l297 442z" />
    <glyph glyph-name="logicalnot" unicode="&#xac;" horiz-adv-x="1363" 
d="M1229 860v-571h-160v411h-934v160h1094z" />
    <glyph glyph-name="uni00AD" unicode="&#xad;" horiz-adv-x="647" 
d="M575 582v-172h-503v172h503z" />
    <glyph glyph-name="registered" unicode="&#xae;" horiz-adv-x="1638" 
d="M57 725q0 122 38 237.5t108 210t163.5 165.5t210.5 110t242 39q150 0 289 -58.5t243.5 -158.5t167 -242.5t62.5 -302.5q0 -152 -59.5 -292.5t-160.5 -243.5t-243 -164.5t-299 -61.5q-150 0 -290 59t-243.5 160t-166 243t-62.5 300zM817 1352q-165 0 -308 -82t-229.5 -227
t-86.5 -318q0 -125 49 -240.5t131.5 -200.5t199.5 -135.5t246 -50.5q166 0 309.5 81t230.5 226t87 320q0 170 -84 314.5t-229 228.5t-316 84zM686 295h-160v870h344q145 0 222 -67t77 -195q0 -103 -53.5 -164t-152.5 -75l225 -369h-168l-217 356h-117v-356zM686 786h137
q96 0 141.5 28t45.5 95q0 60 -41 90.5t-148 30.5h-135v-244z" />
    <glyph glyph-name="macron" unicode="&#xaf;" horiz-adv-x="491" 
d="M541 1364v-135h-590v135h590z" />
    <glyph glyph-name="degree" unicode="&#xb0;" horiz-adv-x="819" 
d="M410 1475q127 0 216 -90.5t89 -215.5q0 -124 -88.5 -214.5t-216.5 -90.5q-125 0 -215.5 90.5t-90.5 214.5q0 125 91 215.5t215 90.5zM240 1169q0 -71 50 -120.5t120 -49.5q72 0 121 50.5t49 119.5q0 70 -49.5 120t-120.5 50q-70 0 -120 -49.5t-50 -120.5z" />
    <glyph glyph-name="plusminus" unicode="&#xb1;" horiz-adv-x="1363" 
d="M135 645v160h467v334h160v-334h467v-160h-467v-307h-160v307h-467zM135 104v160h1094v-160h-1094z" />
    <glyph glyph-name="twosuperior" unicode="&#xb2;" horiz-adv-x="739" 
d="M379 1475q139 0 222 -65.5t83 -180.5q0 -80 -40.5 -139t-121.5 -129l-272 -234h436v-135h-633v156l363 323q55 49 75.5 83.5t20.5 70.5q0 51 -37.5 82.5t-95.5 31.5q-60 0 -96.5 -32t-42.5 -88l-172 12q10 115 93.5 179.5t217.5 64.5z" />
    <glyph glyph-name="threesuperior" unicode="&#xb3;" horiz-adv-x="739" 
d="M367 1475q135 0 218 -62.5t83 -167.5q0 -72 -44 -126.5t-116 -69.5v-5q84 -10 133 -67.5t49 -142.5q0 -113 -89.5 -183.5t-227.5 -70.5q-130 0 -214 53t-110 149l170 41q18 -54 54.5 -81t99.5 -27q65 0 111 37t46 94q0 131 -198 131h-45v135h51q90 0 130 29t40 88
q0 50 -36.5 80t-96.5 30q-106 0 -142 -92l-170 41q28 88 108.5 137.5t195.5 49.5z" />
    <glyph glyph-name="acute" unicode="&#xb4;" horiz-adv-x="491" 
d="M586 1450l-305 -295h-170l213 295h262z" />
    <glyph glyph-name="mu" unicode="&#xb5;" horiz-adv-x="1138" 
d="M139 -467v1438h185v-582q0 -114 59 -178t162 -64q128 0 199 85t71 231v508h184v-971h-184v150h-4q-38 -81 -124.5 -128t-194.5 -47q-90 0 -168 37v-479h-185z" />
    <glyph glyph-name="paragraph" unicode="&#xb6;" horiz-adv-x="1228" 
d="M104 1030q0 198 124.5 309t338.5 111h514v-1708h-159v1573h-230v-1573h-160v909q-188 1 -308 110t-120 269z" />
    <glyph glyph-name="periodcentered" unicode="&#xb7;" horiz-adv-x="569" 
d="M285 756q54 0 94.5 -39t40.5 -96q0 -56 -40 -96t-95 -40t-95 40t-40 96q0 55 39.5 95t95.5 40z" />
    <glyph glyph-name="cedilla" unicode="&#xb8;" horiz-adv-x="491" 
d="M223 0h101l-91 -125h52q99 0 147.5 -41t48.5 -106q0 -92 -72 -143.5t-186 -51.5q-113 0 -213 47l39 82q85 -31 160 -31q58 0 91.5 22.5t33.5 63.5q0 84 -92 84q-51 0 -101 -16l-43 37z" />
    <glyph glyph-name="onesuperior" unicode="&#xb9;" horiz-adv-x="739" 
d="M463 1475v-883h-148v735l-174 -147l-86 94l262 201h146z" />
    <glyph glyph-name="ordmasculine" unicode="&#xba;" horiz-adv-x="790" 
d="M395 1475q152 0 244 -85t92 -225q0 -139 -92 -223t-244 -84t-244 84t-92 223q0 141 92.5 225.5t243.5 84.5zM207 1165q0 -86 49 -135t139 -49t139.5 49t49.5 135t-50 136.5t-141 50.5q-87 0 -136.5 -50.5t-49.5 -136.5z" />
    <glyph glyph-name="guillemotright" unicode="&#xbb;" horiz-adv-x="1024" 
d="M223 940l299 -442l-297 -443l-127 84l240 359l-242 358zM629 940l299 -442l-297 -443l-127 84l239 359l-241 358z" />
    <glyph glyph-name="onequarter" unicode="&#xbc;" horiz-adv-x="1708" 
d="M977 311l375 572h161v-555h127v-135h-127v-193h-135v193h-401v118zM434 -66l-123 66l899 1516l123 -66zM68 1274l262 201h145v-883h-147v735l-174 -147zM1124 328h242v383h-4z" />
    <glyph glyph-name="onehalf" unicode="&#xbd;" horiz-adv-x="1708" 
d="M1309 1450l-899 -1516l-123 66l899 1516zM471 1475v-883h-147v735l-174 -147l-87 94l263 201h145zM1337 883q139 0 222 -65.5t83 -180.5q0 -55 -23.5 -105t-54 -83.5t-83.5 -79.5l-273 -234h437v-135h-633v156l362 323q55 49 75.5 83.5t20.5 70.5q0 51 -38 83t-95 32
q-59 0 -96 -32.5t-43 -88.5l-172 12q10 115 93.5 179.5t217.5 64.5z" />
    <glyph glyph-name="threequarters" unicode="&#xbe;" horiz-adv-x="1708" 
d="M1018 193v118l375 572h161v-555h127v-135h-127v-193h-135v193h-401zM47 782l170 41q37 -108 154 -108q65 0 111 37t46 94q0 131 -198 131h-45v135h30q97 0 144 24.5t47 92.5q0 50 -36.5 80t-96.5 30q-106 0 -142 -92l-170 41q28 88 108.5 137.5t195.5 49.5
q135 0 218 -62.5t83 -167.5q0 -72 -44 -126.5t-116 -69.5v-5q84 -10 133 -67.5t49 -142.5q0 -113 -89 -183.5t-228 -70.5q-130 0 -214 53t-110 149zM393 0l899 1516l123 -66l-899 -1516zM1415 711l-237 -383h241v383h-4z" />
    <glyph glyph-name="questiondown" unicode="&#xbf;" horiz-adv-x="1024" 
d="M498 1008q54 0 94.5 -39.5t40.5 -96.5q0 -56 -40 -95.5t-95 -39.5q-54 0 -95 40.5t-41 94.5t41 95t95 41zM594 590v-133q0 -126 -62 -191q-70 -73 -147 -145q-63 -59 -93 -112t-30 -111q0 -92 63 -154.5t154 -62.5q95 0 160 61.5t78 167.5l209 -21q-26 -177 -148 -279
t-303 -102q-182 0 -295.5 103t-113.5 276q0 160 88 248l133 135q72 72 91 111t19 131v78h197z" />
    <glyph glyph-name="Agrave" unicode="&#xc0;" horiz-adv-x="1441" 
d="M231 0h-229l639 1450h178l621 -1450h-230l-145 358h-690zM719 1196l-275 -666h549l-270 666h-4zM686 1532l-305 295h262l213 -295h-170z" />
    <glyph glyph-name="Aacute" unicode="&#xc1;" horiz-adv-x="1441" 
d="M2 0l639 1450h178l621 -1450h-230l-145 358h-690l-144 -358h-229zM719 1196l-275 -666h549l-270 666h-4zM586 1532l213 295h262l-305 -295h-170z" />
    <glyph glyph-name="Acircumflex" unicode="&#xc2;" horiz-adv-x="1441" 
d="M2 0l639 1450h178l621 -1450h-230l-145 358h-690l-144 -358h-229zM719 1196l-275 -666h549l-270 666h-4zM383 1532l229 295h217l230 -295h-187l-151 197l-152 -197h-186z" />
    <glyph glyph-name="Atilde" unicode="&#xc3;" horiz-adv-x="1441" 
d="M2 0l639 1450h178l621 -1450h-230l-145 358h-690l-144 -358h-229zM719 1196l-275 -666h549l-270 666h-4zM377 1556q17 98 73 155.5t134 57.5q52 0 151 -38q11 -5 32 -14t33.5 -14.5t31 -10t34.5 -4.5q75 0 101 90h98q-17 -101 -67.5 -157t-125.5 -56q-12 0 -24 1t-26 4
t-22.5 5t-24.5 7.5t-21.5 7.5t-24 9.5t-22.5 8.5q-10 4 -29.5 11.5t-29 11t-24.5 8t-27.5 6.5t-25.5 2q-34 0 -58.5 -24.5t-37.5 -66.5h-98z" />
    <glyph glyph-name="Adieresis" unicode="&#xc4;" horiz-adv-x="1441" 
d="M2 0l639 1450h178l621 -1450h-230l-145 358h-690l-144 -358h-229zM719 1196l-275 -666h549l-270 666h-4zM385 1722q0 46 37.5 81.5t89.5 35.5t89.5 -34t37.5 -83q0 -55 -35.5 -92t-91.5 -37t-91.5 37t-35.5 92zM930 1593q-54 0 -90.5 37t-36.5 92q0 47 37 82t90 35
q52 0 89.5 -35.5t37.5 -81.5q0 -56 -36 -92.5t-91 -36.5z" />
    <glyph glyph-name="Aring" unicode="&#xc5;" horiz-adv-x="1441" 
d="M2 0l639 1450h178l621 -1450h-230l-145 358h-690l-144 -358h-229zM719 1196l-275 -666h549l-270 666h-4zM512 1690q0 84 62 143t147 59q86 0 147.5 -57.5t61.5 -142.5q0 -86 -60.5 -144.5t-148.5 -58.5q-83 0 -146 59t-63 142zM721 1806q-52 0 -87.5 -33t-35.5 -83
q0 -49 37.5 -82t85.5 -33q47 0 85 33.5t38 81.5q0 50 -35.5 83t-87.5 33z" />
    <glyph glyph-name="AE" unicode="&#xc6;" horiz-adv-x="1972" 
d="M225 0h-241l938 1450h933v-184h-604v-432h568v-185h-568v-465h629v-184h-825v352h-623zM1016 1266l-477 -729h516v729h-39z" />
    <glyph glyph-name="Ccedilla" unicode="&#xc7;" horiz-adv-x="1441" 
d="M852 1487q155 0 289.5 -58.5t218.5 -166.5l-164 -125q-64 81 -155.5 123.5t-194.5 42.5q-158 0 -282.5 -78.5t-191.5 -213t-67 -298.5q0 -156 65.5 -284t190 -205t285.5 -77q239 0 379 195l166 -125q-86 -116 -231.5 -185t-317.5 -69h-29l-63 -88h55q94 0 143 -42
t49 -105q0 -91 -70.5 -143t-187.5 -52q-113 0 -213 47l39 82q85 -31 160 -31q58 0 91.5 22.5t33.5 63.5q0 42 -25 63t-67 21q-51 0 -101 -16l-43 37l107 151q-115 17 -215.5 68t-174.5 124.5t-127.5 163.5t-80.5 188.5t-27 197.5q0 163 54.5 305t151.5 245.5t239.5 162.5
t310.5 59z" />
    <glyph glyph-name="Egrave" unicode="&#xc8;" horiz-adv-x="1251" 
d="M186 0v1450h936v-184h-739v-432h688v-185h-688v-465h776v-184h-973zM287 1827h262l213 -295h-170z" />
    <glyph glyph-name="Eacute" unicode="&#xc9;" horiz-adv-x="1251" 
d="M1159 0h-973v1450h936v-184h-739v-432h688v-185h-688v-465h776v-184zM492 1532l213 295h262l-305 -295h-170z" />
    <glyph glyph-name="Ecircumflex" unicode="&#xca;" horiz-adv-x="1251" 
d="M186 0v1450h936v-184h-739v-432h688v-185h-688v-465h776v-184h-973zM289 1532l229 295h217l230 -295h-187l-151 197l-152 -197h-186z" />
    <glyph glyph-name="Edieresis" unicode="&#xcb;" horiz-adv-x="1251" 
d="M1159 0h-973v1450h936v-184h-739v-432h688v-185h-688v-465h776v-184zM291 1722q0 46 37.5 81.5t89.5 35.5t89.5 -34t37.5 -83q0 -55 -35.5 -92t-91.5 -37t-91.5 37t-35.5 92zM709 1722q0 47 37 82t90 35q52 0 89.5 -35.5t37.5 -81.5q0 -56 -36 -92.5t-91 -36.5
q-54 0 -90.5 37t-36.5 92z" />
    <glyph glyph-name="Igrave" unicode="&#xcc;" horiz-adv-x="569" 
d="M207 1827l213 -295h-170l-305 295h262zM383 1450v-1450h-197v1450h197z" />
    <glyph glyph-name="Iacute" unicode="&#xcd;" horiz-adv-x="569" 
d="M625 1827l-306 -295h-169l212 295h263zM383 1450v-1450h-197v1450h197z" />
    <glyph glyph-name="Icircumflex" unicode="&#xce;" horiz-adv-x="569" 
d="M186 0v1450h197v-1450h-197zM133 1532h-186l229 295h217l230 -295h-187l-151 197z" />
    <glyph glyph-name="Idieresis" unicode="&#xcf;" horiz-adv-x="569" 
d="M76 1839q52 0 89.5 -34t37.5 -83q0 -55 -35.5 -92t-91.5 -37t-91.5 37t-35.5 92q0 46 37.5 81.5t89.5 35.5zM494 1839q52 0 89.5 -35.5t37.5 -81.5q0 -56 -36 -92.5t-91 -36.5q-54 0 -90.5 37t-36.5 92q0 47 37 82t90 35zM383 1450v-1450h-197v1450h197z" />
    <glyph glyph-name="Eth" unicode="&#xd0;" horiz-adv-x="1517" 
d="M154 688h-148v135h148v627h516q152 0 278 -41.5t212.5 -111t146 -163.5t87 -197t27.5 -212q0 -206 -99.5 -371.5t-278.5 -259.5t-404 -94h-485v688zM350 1266v-443h479v-135h-479v-504h258q85 0 168 18t162.5 60t140 103t97 154t36.5 206q0 106 -34 201.5t-100 172
t-175 122t-248 45.5h-305z" />
    <glyph glyph-name="Ntilde" unicode="&#xd1;" horiz-adv-x="1630" 
d="M186 1450h258l799 -1192h4v1192h197v-1450h-250l-807 1192h-4v-1192h-197v1450zM471 1556q17 98 73 155.5t134 57.5q52 0 151 -38q11 -4 32 -13.5t34 -15t31.5 -10t34.5 -4.5q74 0 100 90h98q-17 -102 -67 -157.5t-125 -55.5q-11 0 -22.5 1t-20.5 2.5t-22 5t-20 5.5
t-21.5 7t-19.5 7t-20.5 8t-19.5 7q-10 4 -29 11.5t-29 11t-24.5 8t-27 6.5t-25.5 2q-34 0 -59.5 -25t-37.5 -66h-98z" />
    <glyph glyph-name="Ograve" unicode="&#xd2;" horiz-adv-x="1703" 
d="M774 1827l213 -295h-170l-305 295h262zM852 1487q209 0 381 -95t273.5 -270.5t101.5 -396.5q0 -212 -95.5 -385.5t-269 -275t-391.5 -101.5q-157 0 -296.5 57t-240.5 157t-160 242.5t-59 305.5q0 215 98 389.5t271 273.5t387 99zM305 725q0 -158 66 -289t192.5 -210
t288.5 -79q156 0 281.5 75.5t195.5 207.5t70 295q0 119 -39.5 224.5t-109.5 184t-174 124t-226 45.5q-155 0 -280 -75.5t-195 -207.5t-70 -295z" />
    <glyph glyph-name="Oacute" unicode="&#xd3;" horiz-adv-x="1703" 
d="M1192 1827l-305 -295h-170l213 295h262zM852 1487q209 0 381 -95t273.5 -270.5t101.5 -396.5q0 -212 -95.5 -385.5t-269 -275t-391.5 -101.5q-157 0 -296.5 57t-240.5 157t-160 242.5t-59 305.5q0 215 98 389.5t271 273.5t387 99zM305 725q0 -158 66 -289t192.5 -210
t288.5 -79q156 0 281.5 75.5t195.5 207.5t70 295q0 119 -39.5 224.5t-109.5 184t-174 124t-226 45.5q-155 0 -280 -75.5t-195 -207.5t-70 -295z" />
    <glyph glyph-name="Ocircumflex" unicode="&#xd4;" horiz-adv-x="1703" 
d="M96 725q0 215 98 389.5t271 273.5t387 99q209 0 381 -95t273.5 -270.5t101.5 -396.5q0 -212 -95.5 -385.5t-269 -275t-391.5 -101.5q-157 0 -296.5 57t-240.5 157t-160 242.5t-59 305.5zM305 725q0 -158 66 -289t192.5 -210t288.5 -79q156 0 281.5 75.5t195.5 207.5
t70 295q0 119 -39.5 224.5t-109.5 184t-174 124t-226 45.5q-155 0 -280 -75.5t-195 -207.5t-70 -295zM514 1532l229 295h218l229 -295h-186l-152 197l-152 -197h-186z" />
    <glyph glyph-name="Otilde" unicode="&#xd5;" horiz-adv-x="1703" 
d="M1196 1778q-17 -102 -67 -157.5t-125 -55.5q-11 0 -22.5 1t-20.5 2.5t-22 5t-20 5.5t-21.5 7t-19.5 7t-20.5 8t-19.5 7q-10 4 -29.5 11.5t-29 11t-24.5 8t-27.5 6.5t-25.5 2q-34 0 -58.5 -24.5t-37.5 -66.5h-98q17 98 73 155.5t134 57.5q52 0 151 -38q11 -5 32 -14
t33.5 -14.5t31 -10t34.5 -4.5q75 0 101 90h98zM852 1487q209 0 381 -95t273.5 -270.5t101.5 -396.5q0 -212 -95.5 -385.5t-269 -275t-391.5 -101.5q-157 0 -296.5 57t-240.5 157t-160 242.5t-59 305.5q0 215 98 389.5t271 273.5t387 99zM305 725q0 -158 66 -289t192.5 -210
t288.5 -79q156 0 281.5 75.5t195.5 207.5t70 295q0 119 -39.5 224.5t-109.5 184t-174 124t-226 45.5q-155 0 -280 -75.5t-195 -207.5t-70 -295z" />
    <glyph glyph-name="Odieresis" unicode="&#xd6;" horiz-adv-x="1703" 
d="M643 1839q52 0 89.5 -34t37.5 -83q0 -55 -35.5 -92t-91.5 -37t-91.5 37t-35.5 92q0 46 37.5 81.5t89.5 35.5zM1061 1839q52 0 89.5 -35.5t37.5 -81.5q0 -56 -36 -92.5t-91 -36.5q-54 0 -90.5 37t-36.5 92q0 47 37 82t90 35zM852 1487q209 0 381 -95t273.5 -270.5
t101.5 -396.5q0 -212 -95.5 -385.5t-269 -275t-391.5 -101.5q-157 0 -296.5 57t-240.5 157t-160 242.5t-59 305.5q0 215 98 389.5t271 273.5t387 99zM305 725q0 -158 66 -289t192.5 -210t288.5 -79q156 0 281.5 75.5t195.5 207.5t70 295q0 119 -39.5 224.5t-109.5 184
t-174 124t-226 45.5q-155 0 -280 -75.5t-195 -207.5t-70 -295z" />
    <glyph glyph-name="multiply" unicode="&#xd7;" horiz-adv-x="1363" 
d="M135 1055l113 112l434 -434l436 434l111 -112l-434 -434l434 -435l-115 -112l-432 434l-432 -434l-111 114l430 433z" />
    <glyph glyph-name="Oslash" unicode="&#xd8;" horiz-adv-x="1703" 
d="M1493 1516l86 -78l-170 -185q95 -101 147 -236.5t52 -291.5q0 -213 -96 -387t-269.5 -274.5t-390.5 -100.5q-274 0 -479 162l-172 -186l-88 77l174 191q-191 213 -191 518q0 212 95.5 386t269 275t391.5 101q270 0 471 -156zM305 725q0 -214 119 -371l766 834
q-144 115 -340 115q-236 0 -390.5 -164.5t-154.5 -413.5zM504 268q150 -121 348 -121q156 0 281.5 74.5t195.5 206.5t70 297q0 227 -127 381z" />
    <glyph glyph-name="Ugrave" unicode="&#xd9;" horiz-adv-x="1441" 
d="M160 522v928h196v-895q0 -52 10.5 -104.5t37 -108t66.5 -98t105 -70t146 -27.5q78 0 141.5 25.5t104 67t68 96t39 109.5t11.5 110v895h197v-928q0 -106 -38.5 -206t-108 -179t-177.5 -126.5t-237 -47.5q-125 0 -231.5 45.5t-178 122t-111.5 178t-40 213.5zM381 1827h262
l213 -295h-170z" />
    <glyph glyph-name="Uacute" unicode="&#xda;" horiz-adv-x="1441" 
d="M160 522v928h196v-895q0 -52 10.5 -104.5t37 -108t66.5 -98t105 -70t146 -27.5q78 0 141.5 25.5t104 67t68 96t39 109.5t11.5 110v895h197v-928q0 -106 -38.5 -206t-108 -179t-177.5 -126.5t-237 -47.5q-125 0 -231.5 45.5t-178 122t-111.5 178t-40 213.5zM586 1532
l213 295h262l-305 -295h-170z" />
    <glyph glyph-name="Ucircumflex" unicode="&#xdb;" horiz-adv-x="1441" 
d="M160 522v928h196v-895q0 -52 10.5 -104.5t37 -108t66.5 -98t105 -70t146 -27.5q78 0 141.5 25.5t104 67t68 96t39 109.5t11.5 110v895h197v-928q0 -106 -38.5 -206t-108 -179t-177.5 -126.5t-237 -47.5q-125 0 -231.5 45.5t-178 122t-111.5 178t-40 213.5zM569 1532h-186
l229 295h217l230 -295h-187l-151 197z" />
    <glyph glyph-name="Udieresis" unicode="&#xdc;" horiz-adv-x="1441" 
d="M160 522v928h196v-895q0 -52 10.5 -104.5t37 -108t66.5 -98t105 -70t146 -27.5q78 0 141.5 25.5t104 67t68 96t39 109.5t11.5 110v895h197v-928q0 -106 -38.5 -206t-108 -179t-177.5 -126.5t-237 -47.5q-125 0 -231.5 45.5t-178 122t-111.5 178t-40 213.5zM385 1722
q0 46 37.5 81.5t89.5 35.5t89.5 -34t37.5 -83q0 -55 -35.5 -92t-91.5 -37t-91.5 37t-35.5 92zM803 1722q0 47 37 82t90 35q52 0 89.5 -35.5t37.5 -81.5q0 -56 -36 -92.5t-91 -36.5q-54 0 -90.5 37t-36.5 92z" />
    <glyph glyph-name="Yacute" unicode="&#xdd;" horiz-adv-x="1253" 
d="M528 618l-548 832h251l396 -637l407 637h240l-549 -832v-618h-197v618zM492 1532l213 295h262l-305 -295h-170z" />
    <glyph glyph-name="Thorn" unicode="&#xde;" horiz-adv-x="1214" 
d="M186 0v1450h197v-297h324q212 0 333 -105.5t121 -299.5q0 -192 -120 -299t-334 -107h-324v-342h-197zM383 514h266q303 0 303 234q0 233 -303 233h-266v-467z" />
    <glyph glyph-name="germandbls" unicode="&#xdf;" horiz-adv-x="1251" 
d="M598 1573q185 0 301.5 -101.5t116.5 -269.5q0 -123 -60 -203.5t-168 -113.5v-4q159 -26 254 -142t95 -288q0 -214 -137.5 -345t-358.5 -131q-67 0 -145 19v166q70 -13 108 -13q155 0 245.5 85t90.5 235q0 149 -95 233t-270 84h-20v172h29q114 0 174.5 62t60.5 162
q0 105 -61.5 163t-167.5 58q-266 0 -266 -328v-1073h-185v1055q0 266 112 392t347 126z" />
    <glyph glyph-name="agrave" unicode="&#xe0;" horiz-adv-x="1062" 
d="M428 -25q-149 0 -242.5 79t-93.5 212q0 155 130 245.5t403 90.5h137v35q0 97 -65 154t-169 57q-78 0 -136.5 -23.5t-137.5 -87.5l-111 115q75 69 177 106t208 37q105 0 186 -27.5t127.5 -74t69.5 -101t23 -114.5v-520q0 -90 8 -158h-164q-6 74 -6 147h-4
q-61 -91 -144 -131.5t-196 -40.5zM276 281q0 -76 52.5 -117t156.5 -41q127 0 202 76t75 215v53h-105q-108 0 -185 -15.5t-118.5 -43t-59.5 -58.5t-18 -69zM498 1155l-305 295h262l213 -295h-170z" />
    <glyph glyph-name="aacute" unicode="&#xe1;" horiz-adv-x="1062" 
d="M428 -25q-149 0 -242.5 79t-93.5 212q0 155 130 245.5t403 90.5h137v35q0 97 -65 154t-169 57q-78 0 -136.5 -23.5t-137.5 -87.5l-111 115q75 69 177 106t208 37q105 0 186 -27.5t127.5 -74t69.5 -101t23 -114.5v-520q0 -90 8 -158h-164q-6 74 -6 147h-4
q-61 -91 -144 -131.5t-196 -40.5zM657 467q-108 0 -185 -15.5t-118.5 -43t-59.5 -58.5t-18 -69q0 -76 52.5 -117t156.5 -41q127 0 202 76t75 215v53h-105zM567 1155h-170l213 295h262z" />
    <glyph glyph-name="acircumflex" unicode="&#xe2;" horiz-adv-x="1062" 
d="M428 -25q-149 0 -242.5 79t-93.5 212q0 155 130 245.5t403 90.5h137v35q0 97 -65 154t-169 57q-78 0 -136.5 -23.5t-137.5 -87.5l-111 115q75 69 177 106t208 37q105 0 186 -27.5t127.5 -74t69.5 -101t23 -114.5v-520q0 -90 8 -158h-164q-6 74 -6 147h-4
q-61 -91 -144 -131.5t-196 -40.5zM657 467q-108 0 -185 -15.5t-118.5 -43t-59.5 -58.5t-18 -69q0 -76 52.5 -117t156.5 -41q127 0 202 76t75 215v53h-105zM195 1155l229 295h217l229 -295h-186l-152 197l-151 -197h-186z" />
    <glyph glyph-name="atilde" unicode="&#xe3;" horiz-adv-x="1062" 
d="M428 -25q-149 0 -242.5 79t-93.5 212q0 155 130 245.5t403 90.5h137v35q0 97 -65 154t-169 57q-78 0 -136.5 -23.5t-137.5 -87.5l-111 115q75 69 177 106t208 37q105 0 186 -27.5t127.5 -74t69.5 -101t23 -114.5v-520q0 -90 8 -158h-164q-6 74 -6 147h-4
q-61 -91 -144 -131.5t-196 -40.5zM276 281q0 -76 52.5 -117t156.5 -41q127 0 202 76t75 215v53h-105q-108 0 -185 -15.5t-118.5 -43t-59.5 -58.5t-18 -69zM287 1180h-99q19 99 74 156t133 57q50 0 152 -39q11 -5 32 -14t33.5 -14.5t31 -10t34.5 -4.5q74 0 100 90h99
q-17 -101 -67.5 -157t-125.5 -56q-11 0 -22.5 1t-20.5 2.5t-22 5t-20 5.5t-21.5 7t-19.5 7t-20.5 8t-19.5 7q-10 4 -29 11.5t-29 11t-24.5 8t-27 6.5t-25.5 2q-34 0 -59 -24.5t-37 -65.5z" />
    <glyph glyph-name="adieresis" unicode="&#xe4;" horiz-adv-x="1062" 
d="M92 266q0 155 130 245.5t403 90.5h137v35q0 97 -65 154t-169 57q-78 0 -136.5 -23.5t-137.5 -87.5l-111 115q75 69 177 106t208 37q105 0 186 -27.5t127.5 -74t69.5 -101t23 -114.5v-520q0 -90 8 -158h-164q-6 74 -6 147h-4q-61 -91 -144 -131.5t-196 -40.5
q-149 0 -242.5 79t-93.5 212zM276 281q0 -76 52.5 -117t156.5 -41q127 0 202 76t75 215v53h-105q-108 0 -185 -15.5t-118.5 -43t-59.5 -58.5t-18 -69zM324 1217q-56 0 -91.5 36.5t-35.5 92.5q0 46 37.5 81t89.5 35q50 0 88.5 -34.5t38.5 -81.5q0 -56 -35.5 -92.5
t-91.5 -36.5zM741 1217q-55 0 -91 36.5t-36 92.5q0 46 37.5 81t89.5 35q50 0 88.5 -34.5t38.5 -81.5q0 -55 -36 -92t-91 -37z" />
    <glyph glyph-name="aring" unicode="&#xe5;" horiz-adv-x="1062" 
d="M428 -25q-149 0 -242.5 79t-93.5 212q0 155 130 245.5t403 90.5h137v35q0 97 -65 154t-169 57q-78 0 -136.5 -23.5t-137.5 -87.5l-111 115q75 69 177 106t208 37q105 0 186 -27.5t127.5 -74t69.5 -101t23 -114.5v-520q0 -90 8 -158h-164q-6 74 -6 147h-4
q-61 -91 -144 -131.5t-196 -40.5zM276 281q0 -76 52.5 -117t156.5 -41q127 0 202 76t75 215v53h-105q-108 0 -185 -15.5t-118.5 -43t-59.5 -58.5t-18 -69zM324 1333q0 83 61.5 143t146.5 60q87 0 148 -58.5t61 -142.5q0 -85 -61.5 -143.5t-147.5 -58.5q-85 0 -146.5 59
t-61.5 141zM532 1450q-52 0 -87 -33t-35 -84q0 -46 36.5 -80t85.5 -34q51 0 87 34t36 80q0 50 -35.5 83.5t-87.5 33.5z" />
    <glyph glyph-name="ae" unicode="&#xe6;" horiz-adv-x="1744" 
d="M80 276q0 142 105.5 215.5t289.5 73.5h295v25q0 122 -67 190t-177 68q-75 0 -138.5 -25.5t-135.5 -85.5l-115 117q78 67 179.5 104t207.5 37q119 0 210 -40.5t138 -114.5q134 155 340 155q117 0 206.5 -43t142 -116t78.5 -161t26 -188v-69h-723q1 -129 84 -212t209 -83
q84 0 148.5 41.5t103.5 111.5l149 -112q-91 -107 -185.5 -154t-219.5 -47q-262 0 -379 199q-149 -199 -397 -199q-172 0 -273.5 87.5t-101.5 225.5zM276 276q0 -70 60 -117.5t143 -47.5q124 0 207.5 76.5t83.5 203.5v27h-299q-195 0 -195 -142zM942 565h526
q-12 271 -260 271q-116 0 -190.5 -73.5t-75.5 -197.5z" />
    <glyph glyph-name="ccedilla" unicode="&#xe7;" horiz-adv-x="987" 
d="M600 993q109 0 206 -38.5t167 -114.5l-139 -127q-102 108 -242 108q-137 0 -220 -96t-83 -248q0 -142 88.5 -236t224.5 -94q76 0 131.5 26.5t104.5 82.5l131 -131q-128 -142 -353 -148l-73 -102h51q97 0 147 -41t50 -106q0 -92 -71.5 -143.5t-184.5 -51.5q-119 0 -216 47
l39 82q82 -31 158 -31q59 0 93 22.5t34 63.5q0 42 -25 63t-67 21q-47 0 -100 -16l-43 37l110 162q-196 26 -311 161.5t-115 335.5q0 226 142 369t366 143z" />
    <glyph glyph-name="egrave" unicode="&#xe8;" horiz-adv-x="1138" 
d="M492 1450l213 -295h-170l-306 295h263zM584 995q218 0 345.5 -138.5t127.5 -387.5v-51h-778q0 -122 97.5 -202.5t229.5 -80.5q147 0 266 146l140 -107q-156 -199 -430 -199q-219 0 -359.5 140.5t-140.5 369.5q0 217 141.5 363.5t360.5 146.5zM860 565q-4 136 -77.5 209.5
t-202.5 73.5q-70 0 -129 -27.5t-95.5 -70.5t-56.5 -91.5t-20 -93.5h581z" />
    <glyph glyph-name="eacute" unicode="&#xe9;" horiz-adv-x="1138" 
d="M909 1450l-305 -295h-170l213 295h262zM584 995q218 0 345.5 -138.5t127.5 -387.5v-51h-778q0 -122 97.5 -202.5t229.5 -80.5q147 0 266 146l140 -107q-156 -199 -430 -199q-219 0 -359.5 140.5t-140.5 369.5q0 217 141.5 363.5t360.5 146.5zM860 565q-4 136 -77.5 209.5
t-202.5 73.5q-70 0 -129 -27.5t-95.5 -70.5t-56.5 -91.5t-20 -93.5h581z" />
    <glyph glyph-name="ecircumflex" unicode="&#xea;" horiz-adv-x="1138" 
d="M82 485q0 217 141.5 363.5t360.5 146.5q218 0 345.5 -138.5t127.5 -387.5v-51h-778q0 -122 97.5 -202.5t229.5 -80.5q147 0 266 146l140 -107q-156 -199 -430 -199q-219 0 -359.5 140.5t-140.5 369.5zM279 565h581q-4 136 -77.5 209.5t-202.5 73.5q-70 0 -129 -27.5
t-95.5 -70.5t-56.5 -91.5t-20 -93.5zM231 1155l230 295h217l229 -295h-186l-152 197l-151 -197h-187z" />
    <glyph glyph-name="edieresis" unicode="&#xeb;" horiz-adv-x="1138" 
d="M360 1462q50 0 88.5 -34.5t38.5 -81.5q0 -56 -35.5 -92.5t-91.5 -36.5t-91.5 36.5t-35.5 92.5q0 46 37.5 81t89.5 35zM778 1462q50 0 88.5 -34.5t38.5 -81.5q0 -55 -36 -92t-91 -37t-91 36.5t-36 92.5q0 46 37.5 81t89.5 35zM584 995q218 0 345.5 -138.5t127.5 -387.5
v-51h-778q0 -122 97.5 -202.5t229.5 -80.5q147 0 266 146l140 -107q-156 -199 -430 -199q-219 0 -359.5 140.5t-140.5 369.5q0 217 141.5 363.5t360.5 146.5zM860 565q-4 136 -77.5 209.5t-202.5 73.5q-70 0 -129 -27.5t-95.5 -70.5t-56.5 -91.5t-20 -93.5h581z" />
    <glyph glyph-name="igrave" unicode="&#xec;" horiz-adv-x="491" 
d="M168 1450l213 -295h-170l-305 295h262zM338 971v-971h-184v971h184z" />
    <glyph glyph-name="iacute" unicode="&#xed;" horiz-adv-x="491" 
d="M586 1450l-305 -295h-170l213 295h262zM338 971v-971h-184v971h184z" />
    <glyph glyph-name="icircumflex" unicode="&#xee;" horiz-adv-x="491" 
d="M154 0v971h184v-971h-184zM94 1155h-186l229 295h217l230 -295h-187l-151 197z" />
    <glyph glyph-name="idieresis" unicode="&#xef;" horiz-adv-x="491" 
d="M37 1462q50 0 88.5 -34.5t38.5 -81.5q0 -56 -35.5 -92.5t-91.5 -36.5t-91.5 36.5t-35.5 92.5q0 46 37.5 81t89.5 35zM455 1462q50 0 88.5 -34.5t38.5 -81.5q0 -55 -36 -92t-91 -37t-91 36.5t-36 92.5q0 46 37.5 81t89.5 35zM338 971v-971h-184v971h184z" />
    <glyph glyph-name="eth" unicode="&#xf0;" horiz-adv-x="1216" 
d="M463 1602l182 -160l221 106l107 -90l-230 -112q200 -214 290.5 -404t90.5 -391q0 -267 -139 -421.5t-377 -154.5q-109 0 -206 41.5t-164.5 111t-106.5 163t-39 194.5q0 104 40 198t108.5 162.5t164 109t201.5 40.5q173 0 258 -102l4 4q-103 180 -295 369l-219 -107
l-96 94l217 109l-174 145zM289 485q0 -152 88 -245t231 -93q145 0 232.5 92t87.5 246q0 153 -89.5 245.5t-232.5 92.5q-141 0 -229 -94t-88 -244z" />
    <glyph glyph-name="ntilde" unicode="&#xf1;" horiz-adv-x="1138" 
d="M324 0h-185v971h185v-150h4q38 81 125 127.5t194 46.5q162 0 257 -98.5t95 -263.5v-633h-184v580q0 113 -58.5 178t-162.5 65q-127 0 -198.5 -84t-71.5 -231v-508zM225 1180q19 99 74 156t133 57q50 0 152 -39q11 -5 32 -14t33.5 -14.5t31 -10t34.5 -4.5q74 0 100 90h98
q-17 -102 -67 -157.5t-125 -55.5q-11 0 -22.5 1t-20.5 2.5t-22 5t-20 5.5t-21.5 7t-19.5 7t-20.5 8t-19.5 7q-10 4 -29 11.5t-29 11t-24.5 8t-27 6.5t-25.5 2q-34 0 -59 -24.5t-37 -65.5h-99z" />
    <glyph glyph-name="ograve" unicode="&#xf2;" horiz-adv-x="1216" 
d="M530 1450l213 -295h-170l-305 295h262zM608 995q137 0 254.5 -64.5t189.5 -182.5t72 -263q0 -139 -68 -256.5t-187 -185.5t-261 -68q-139 0 -257.5 66.5t-188.5 184.5t-70 259q0 139 68 256.5t187 185.5t261 68zM289 485q0 -152 88 -245t231 -93q144 0 232 93.5t88 244.5
q0 153 -89.5 245.5t-232.5 92.5q-141 0 -229 -94t-88 -244z" />
    <glyph glyph-name="oacute" unicode="&#xf3;" horiz-adv-x="1216" 
d="M950 1450l-305 -295h-170l213 295h262zM608 995q137 0 254.5 -64.5t189.5 -182.5t72 -263q0 -139 -68 -256.5t-187 -185.5t-261 -68q-139 0 -257.5 66.5t-188.5 184.5t-70 259q0 139 68 256.5t187 185.5t261 68zM289 485q0 -152 88 -245t231 -93q144 0 232 93.5t88 244.5
q0 153 -89.5 245.5t-232.5 92.5q-141 0 -229 -94t-88 -244z" />
    <glyph glyph-name="ocircumflex" unicode="&#xf4;" horiz-adv-x="1216" 
d="M92 485q0 139 68 256.5t187 185.5t261 68q137 0 254.5 -64.5t189.5 -182.5t72 -263q0 -139 -68 -256.5t-187 -185.5t-261 -68q-139 0 -257.5 66.5t-188.5 184.5t-70 259zM606 823q-141 0 -229 -94t-88 -244q0 -152 88 -245t231 -93q144 0 232 93.5t88 244.5
q0 153 -89.5 245.5t-232.5 92.5zM270 1155l230 295h217l229 -295h-186l-152 197l-151 -197h-187z" />
    <glyph glyph-name="otilde" unicode="&#xf5;" horiz-adv-x="1216" 
d="M952 1401q-17 -102 -67 -157.5t-125 -55.5q-11 0 -22.5 1t-20.5 2.5t-22 5t-20 5.5t-21.5 7t-19.5 7t-20.5 8t-19.5 7q-10 4 -29 11.5t-29 11t-24.5 8t-27 6.5t-25.5 2q-34 0 -59.5 -24.5t-37.5 -65.5h-98q19 99 74 156t133 57q50 0 152 -39q11 -5 32 -14t33.5 -14.5
t31 -10t34.5 -4.5q74 0 100 90h98zM608 995q137 0 254.5 -64.5t189.5 -182.5t72 -263q0 -139 -68 -256.5t-187 -185.5t-261 -68q-139 0 -257.5 66.5t-188.5 184.5t-70 259q0 139 68 256.5t187 185.5t261 68zM289 485q0 -152 88 -245t231 -93q144 0 232 93.5t88 244.5
q0 153 -89.5 245.5t-232.5 92.5q-141 0 -229 -94t-88 -244z" />
    <glyph glyph-name="odieresis" unicode="&#xf6;" horiz-adv-x="1216" 
d="M399 1462q50 0 88.5 -34.5t38.5 -81.5q0 -56 -35.5 -92.5t-91.5 -36.5t-91.5 36.5t-35.5 92.5q0 46 37.5 81t89.5 35zM817 1462q50 0 88.5 -34.5t38.5 -81.5q0 -55 -36 -92t-91 -37t-91 36.5t-36 92.5q0 46 37.5 81t89.5 35zM608 995q137 0 254.5 -64.5t189.5 -182.5
t72 -263q0 -139 -68 -256.5t-187 -185.5t-261 -68q-139 0 -257.5 66.5t-188.5 184.5t-70 259q0 139 68 256.5t187 185.5t261 68zM289 485q0 -152 88 -245t231 -93q144 0 232 93.5t88 244.5q0 153 -89.5 245.5t-232.5 92.5q-141 0 -229 -94t-88 -244z" />
    <glyph glyph-name="divide" unicode="&#xf7;" horiz-adv-x="1363" 
d="M682 1098q54 0 94.5 -40t40.5 -95q0 -56 -40 -96t-95 -40t-95 40t-40 96q0 55 39.5 95t95.5 40zM1229 698v-159h-1094v159h1094zM682 410q57 0 96 -41t39 -95q0 -56 -39.5 -95.5t-95.5 -39.5q-55 0 -95 40.5t-40 94.5q0 56 40 96t95 40z" />
    <glyph glyph-name="oslash" unicode="&#xf8;" horiz-adv-x="1216" 
d="M1094 1030l73 -74l-153 -155q110 -135 110 -316q0 -139 -68 -256.5t-187 -185.5t-261 -68q-169 0 -307 101l-141 -142l-76 74l137 139q-129 139 -129 338q0 140 68.5 257.5t187.5 185t260 67.5q195 0 332 -118zM289 485q0 -124 61 -209l467 476q-84 71 -211 71
q-141 0 -229 -94t-88 -244zM426 203q74 -56 182 -56q144 0 232 93.5t88 244.5q0 109 -45 183z" />
    <glyph glyph-name="ugrave" unicode="&#xf9;" horiz-adv-x="1138" 
d="M139 338v633h185v-582q0 -114 59 -178t162 -64q128 0 199 85t71 231v508h184v-971h-184v150h-4q-38 -81 -124.5 -128t-194.5 -47q-161 0 -257 99t-96 264zM229 1450h263l213 -295h-170z" />
    <glyph glyph-name="uacute" unicode="&#xfa;" horiz-adv-x="1138" 
d="M139 338v633h185v-582q0 -114 59 -178t162 -64q128 0 199 85t71 231v508h184v-971h-184v150h-4q-38 -81 -124.5 -128t-194.5 -47q-161 0 -257 99t-96 264zM604 1155h-170l213 295h262z" />
    <glyph glyph-name="ucircumflex" unicode="&#xfb;" horiz-adv-x="1138" 
d="M139 338v633h185v-582q0 -114 59 -178t162 -64q128 0 199 85t71 231v508h184v-971h-184v150h-4q-38 -81 -124.5 -128t-194.5 -47q-161 0 -257 99t-96 264zM418 1155h-187l230 295h217l229 -295h-186l-152 197z" />
    <glyph glyph-name="udieresis" unicode="&#xfc;" horiz-adv-x="1138" 
d="M139 338v633h185v-582q0 -114 59 -178t162 -64q128 0 199 85t71 231v508h184v-971h-184v150h-4q-38 -81 -124.5 -128t-194.5 -47q-161 0 -257 99t-96 264zM360 1217q-56 0 -91.5 36.5t-35.5 92.5q0 46 37.5 81t89.5 35q50 0 88.5 -34.5t38.5 -81.5q0 -56 -35.5 -92.5
t-91.5 -36.5zM778 1217q-55 0 -91 36.5t-36 92.5q0 46 37.5 81t89.5 35q50 0 88.5 -34.5t38.5 -81.5q0 -55 -36 -92t-91 -37z" />
    <glyph glyph-name="yacute" unicode="&#xfd;" horiz-adv-x="1024" 
d="M426 -6l-403 977h213l288 -758h4l275 758h198l-458 -1176q-23 -59 -42 -98t-47 -78t-60.5 -61.5t-79 -36t-105.5 -13.5q-95 0 -164 27l23 166q62 -20 110 -20q80 0 119 37.5t72 123.5zM377 1155l213 295h262l-305 -295h-170z" />
    <glyph glyph-name="thorn" unicode="&#xfe;" horiz-adv-x="1251" 
d="M324 -467h-185v2015h185v-717h4q50 76 143 120t195 44q217 0 355 -142.5t138 -367.5q0 -219 -135.5 -364.5t-355.5 -145.5q-102 0 -193.5 43.5t-146.5 120.5h-4v-606zM324 485q0 -151 87.5 -244.5t231.5 -93.5t232 93.5t88 244.5q0 153 -89.5 245.5t-232.5 92.5
q-141 0 -229 -92.5t-88 -245.5z" />
    <glyph glyph-name="ydieresis" unicode="&#xff;" horiz-adv-x="1024" 
d="M23 971h213l288 -758h4l275 758h198l-458 -1176q-23 -59 -42 -98t-47 -78t-60.5 -61.5t-79 -36t-105.5 -13.5q-95 0 -164 27l23 166q62 -20 110 -20q80 0 119 37.5t72 123.5l57 152zM176 1346q0 46 37.5 81t89.5 35q50 0 88.5 -34.5t38.5 -81.5q0 -56 -35.5 -92.5
t-91.5 -36.5t-91.5 36.5t-35.5 92.5zM721 1217q-55 0 -91 36.5t-36 92.5q0 46 37.5 81t89.5 35q50 0 88.5 -34.5t38.5 -81.5q0 -55 -36 -92t-91 -37z" />
    <glyph glyph-name="dotlessi" unicode="&#x131;" horiz-adv-x="491" 
d="M338 971v-971h-184v971h184z" />
    <glyph glyph-name="Lslash" unicode="&#x141;" horiz-adv-x="1062" 
d="M39 481l147 127v842h197v-672l442 385v-182l-442 -383v-414h666v-184h-863v428l-147 -129v182z" />
    <glyph glyph-name="lslash" unicode="&#x142;" horiz-adv-x="491" 
d="M154 610l-160 -159v184l160 160v753h184v-569l160 158v-185l-160 -157v-795h-184v610z" />
    <glyph glyph-name="OE" unicode="&#x152;" horiz-adv-x="2009" 
d="M119 725q0 142 42 260.5t117 203.5t179 144.5t226.5 88t260.5 28.5h922v-184h-602v-432h565v-185h-565v-465h626v-184h-946q-241 0 -427 86t-292 251.5t-106 387.5zM934 1266q-171 0 -307.5 -64t-217.5 -188.5t-81 -288.5q0 -248 166.5 -394.5t437.5 -146.5h135v1082
h-133z" />
    <glyph glyph-name="oe" unicode="&#x153;" horiz-adv-x="1896" 
d="M584 995q128 0 224 -45t169 -141q143 186 383 186q143 0 248 -65.5t157 -175.5t52 -250v-86h-736q2 -131 80 -207t213 -76q164 0 252 141l152 -100q-143 -201 -408 -201q-130 0 -235 49.5t-162 139.5q-71 -99 -168 -144t-232 -45q-224 0 -358.5 140.5t-134.5 369.5
q0 220 141 365t363 145zM1620 565q-5 126 -78.5 204.5t-187.5 78.5q-109 0 -188.5 -83t-84.5 -200h539zM276 485q0 -155 81.5 -252.5t215.5 -97.5q156 0 240 91t84 259q0 158 -82.5 254.5t-226.5 96.5q-141 0 -226.5 -95t-85.5 -256z" />
    <glyph glyph-name="Scaron" unicode="&#x160;" horiz-adv-x="1138" 
d="M68 164l161 139q47 -73 129.5 -114.5t178.5 -41.5q115 0 201.5 67t86.5 175q0 77 -53 128t-182 91l-129 43q-81 25 -140 57.5t-109 82t-75.5 122t-25.5 166.5q0 74 31.5 145.5t90.5 130.5t155 95.5t214 36.5q284 0 418 -166l-160 -145q-38 58 -106 92.5t-154 34.5
q-64 0 -114.5 -15.5t-81 -39t-50.5 -54.5t-27.5 -59t-7.5 -56q0 -88 56 -142t162 -87l182 -59q158 -51 236.5 -140.5t78.5 -238.5q0 -200 -141.5 -324.5t-362.5 -124.5q-152 0 -271.5 52.5t-190.5 148.5zM231 1827h179l159 -197l152 197h186l-229 -295h-217z" />
    <glyph glyph-name="scaron" unicode="&#x161;" horiz-adv-x="909" 
d="M430 -25q-132 0 -220.5 41.5t-152.5 130.5l140 115q112 -115 235 -115q81 0 139 33t58 90q0 53 -46 86t-139 54q-90 19 -150.5 40t-107 54t-67.5 80t-21 112q0 73 31.5 131t84 94t117.5 55t136 19q111 0 199 -41.5t133 -117.5l-144 -109q-82 96 -198 96
q-69 0 -115.5 -30.5t-46.5 -77.5q0 -56 49 -88.5t141 -51.5q180 -35 260 -100.5t80 -193.5q0 -102 -57.5 -173t-144.5 -102t-193 -31zM117 1450h178l160 -197l151 197h187l-230 -295h-217z" />
    <glyph glyph-name="Ydieresis" unicode="&#x178;" horiz-adv-x="1253" 
d="M528 618l-548 832h251l396 -637l407 637h240l-549 -832v-618h-197v618zM291 1722q0 46 37.5 81.5t89.5 35.5t89.5 -34t37.5 -83q0 -55 -35.5 -92t-91.5 -37t-91.5 37t-35.5 92zM709 1722q0 47 37 82t90 35q52 0 89.5 -35.5t37.5 -81.5q0 -56 -36 -92.5t-91 -36.5
q-54 0 -90.5 37t-36.5 92z" />
    <glyph glyph-name="Zcaron" unicode="&#x17d;" horiz-adv-x="1214" 
d="M1149 0h-1083v182l825 1084h-801v184h1047v-184l-822 -1082h834v-184zM500 1532l-230 295h179l159 -197l152 197h186l-229 -295h-217z" />
    <glyph glyph-name="zcaron" unicode="&#x17e;" horiz-adv-x="948" 
d="M877 0h-805v166l551 645h-533v160h758v-164l-555 -647h584v-160zM367 1155l-230 295h178l160 -197l152 197h186l-229 -295h-217z" />
    <glyph glyph-name="florin" unicode="&#x192;" horiz-adv-x="1138" 
d="M174 -295q-95 0 -199 51l78 146q67 -25 111 -25q38 0 65.5 13.5t45.5 39.5t28.5 56t18.5 71l129 666h-222v147h250l56 289q28 145 114 230.5t201 85.5q145 0 237 -50l-81 -153q-51 31 -117 31q-69 0 -114 -54.5t-62 -158.5l-39 -220h246v-147h-275l-147 -746
q-25 -132 -113 -202t-211 -70z" />
    <glyph glyph-name="circumflex" unicode="&#x2c6;" horiz-adv-x="491" 
d="M94 1155h-186l229 295h217l230 -295h-187l-151 197z" />
    <glyph glyph-name="caron" unicode="&#x2c7;" horiz-adv-x="491" 
d="M-92 1450h178l160 -197l151 197h187l-230 -295h-217z" />
    <glyph glyph-name="uni02C9" unicode="&#x2c9;" horiz-adv-x="491" 
d="M541 1364v-135h-590v135h590z" />
    <glyph glyph-name="breve" unicode="&#x2d8;" horiz-adv-x="491" 
d="M-76 1438h113q12 -70 67.5 -109t143.5 -39q86 0 142.5 38.5t68.5 109.5h108q-9 -134 -94 -208.5t-227 -74.5t-227 74t-95 209z" />
    <glyph glyph-name="dotaccent" unicode="&#x2d9;" horiz-adv-x="491" 
d="M246 1462q51 0 89 -33.5t38 -82.5q0 -55 -36 -92t-91 -37t-91 36.5t-36 92.5q0 46 37.5 81t89.5 35z" />
    <glyph glyph-name="ring" unicode="&#x2da;" horiz-adv-x="491" 
d="M246 1536q87 0 148 -58.5t61 -142.5q0 -85 -61.5 -143.5t-147.5 -58.5q-85 0 -147 59t-62 141q0 83 62 143t147 60zM123 1333q0 -46 37 -80t86 -34q51 0 87 34t36 80q0 50 -35.5 83.5t-87.5 33.5t-87.5 -33.5t-35.5 -83.5z" />
    <glyph glyph-name="ogonek" unicode="&#x2db;" horiz-adv-x="491" 
d="M352 14q-153 -159 -153 -252q0 -40 27 -66t73 -26q47 0 96 39l45 -90q-84 -72 -186 -72q-91 0 -147 51.5t-56 125.5q0 67 51.5 145.5t139.5 144.5h110z" />
    <glyph glyph-name="tilde" unicode="&#x2dc;" horiz-adv-x="491" 
d="M590 1401q-17 -101 -67.5 -157t-125.5 -56q-11 0 -22.5 1t-20.5 2.5t-22 5t-20 5.5t-21.5 7t-19.5 7t-20.5 8t-19.5 7q-10 4 -29 11.5t-29 11t-24.5 8t-27 6.5t-25.5 2q-34 0 -59 -24.5t-37 -65.5h-98q19 99 74 156t133 57q10 0 21 -1t19 -2t20 -4.5t18 -5t20 -6.5t17 -6
t19 -7t17 -7q11 -5 32 -14t33.5 -14.5t31 -10t34.5 -4.5q75 0 101 90h98z" />
    <glyph glyph-name="hungarumlaut" unicode="&#x2dd;" horiz-adv-x="491" 
d="M412 1155h-168l213 295h260zM66 1155h-168l213 295h260z" />
    <glyph glyph-name="uni0394" unicode="&#x394;" horiz-adv-x="1388" 
d="M782 1458l584 -1458h-1343l565 1458h194zM274 170h832l-424 1085z" />
    <glyph glyph-name="uni0394" unicode="&#x3b4;" horiz-adv-x="1388" 
d="M782 1458l584 -1458h-1343l565 1458h194zM274 170h832l-424 1085z" />
    <glyph glyph-name="uni03A9" unicode="&#x3a9;" horiz-adv-x="1540" 
d="M94 158h389v127q-182 51 -285.5 204t-103.5 351q0 180 89.5 326.5t241.5 228.5t333 82q132 0 252 -45.5t210.5 -126t144.5 -200.5t54 -261q0 -203 -102.5 -354.5t-286.5 -204.5v-127h389v-158h-540v379q163 30 256.5 153t93.5 299q0 201 -133.5 338.5t-335.5 137.5
q-199 0 -336 -135t-137 -343q0 -178 90.5 -296.5t255.5 -153.5v-379h-539v158z" />
    <glyph glyph-name="uni03A9" unicode="&#x3c9;" horiz-adv-x="1540" 
d="M94 158h389v127q-182 51 -285.5 204t-103.5 351q0 180 89.5 326.5t241.5 228.5t333 82q132 0 252 -45.5t210.5 -126t144.5 -200.5t54 -261q0 -203 -102.5 -354.5t-286.5 -204.5v-127h389v-158h-540v379q163 30 256.5 153t93.5 299q0 201 -133.5 338.5t-335.5 137.5
q-199 0 -336 -135t-137 -343q0 -178 90.5 -296.5t255.5 -153.5v-379h-539v158z" />
    <glyph glyph-name="uni03BC" unicode="&#x3bc;" horiz-adv-x="1138" 
d="M139 -467v1438h185v-582q0 -114 59 -178t162 -64q128 0 199 85t71 231v508h184v-971h-184v150h-4q-38 -81 -124.5 -128t-194.5 -47q-90 0 -168 37v-479h-185z" />
    <glyph glyph-name="pi" unicode="&#x3c0;" horiz-adv-x="1183" 
d="M207 805h-144v166h1047v-166h-160v-559q0 -59 18 -84t60 -25q38 0 88 21v-133q-80 -39 -151 -39q-101 0 -146 55t-45 190v574h-391v-805h-176v805z" />
    <glyph glyph-name="uni060C" unicode="&#x60c;" horiz-adv-x="577" 
d="M135 0l172 502h166l-141 -502h-197z" />
    <glyph glyph-name="uni0615" unicode="&#x615;" 
d="M-279 1130v91h99v350h90v-205q81 94 182 94q85 0 136 -56.5t51 -148.5q0 -54 -23 -125h-535zM86 1368q-52 0 -101 -38t-79 -109h278q4 24 4 36q0 50 -28.5 80.5t-73.5 30.5z" />
    <glyph glyph-name="uni061B" unicode="&#x61b;" horiz-adv-x="571" 
d="M164 401l172 502h166l-142 -502h-196zM254 -12q-54 0 -93.5 39.5t-39.5 93.5q0 55 38.5 94t94.5 39q54 0 93.5 -39t39.5 -94q0 -54 -39.5 -93.5t-93.5 -39.5z" />
    <glyph glyph-name="uni061F" unicode="&#x61f;" horiz-adv-x="1011" 
d="M424 406v94q0 83 -21 122.5t-110 122.5q-122 113 -161.5 190t-39.5 175q0 172 115 274.5t293 102.5q179 0 299.5 -100.5t148.5 -274.5l-205 -20q-14 103 -77.5 165t-161.5 62q-93 0 -155 -62t-62 -155q0 -41 14 -79t44.5 -76t53 -61.5t64.5 -62.5q53 -51 73.5 -73
t43.5 -57.5t29.5 -71t6.5 -89.5v-126h-192zM520 -12q-54 0 -93.5 39.5t-39.5 93.5q0 55 39.5 94t93.5 39q55 0 94 -39.5t39 -93.5t-39 -93.5t-94 -39.5z" />
    <glyph glyph-name="uni0621" unicode="&#x621;" horiz-adv-x="966" 
d="M115 154h172q-74 102 -74 233q0 160 112.5 267.5t288.5 107.5q104 0 207 -31l-33 -153q-70 20 -151 20q-118 0 -188 -60.5t-70 -168.5t92 -215h393v-154h-749v154z" />
    <glyph glyph-name="uni0622" unicode="&#x622;" horiz-adv-x="479" 
d="M371 1663q-56 0 -165 26.5t-140 26.5q-43 0 -93 -35l-59 74q79 74 158 74q37 0 142.5 -27.5t147.5 -27.5q32 0 53 9t58 40l68 -68q-62 -92 -170 -92zM150 0v1548h180v-1548h-180z" />
    <glyph glyph-name="uni0623" unicode="&#x623;" horiz-adv-x="479" 
d="M150 1548h180v-1548h-180v1548zM76 1655v88h71q-28 48 -28 96q0 71 48.5 113.5t125.5 42.5q37 0 100 -13l-16 -86q-40 9 -66 9q-45 0 -72.5 -20t-27.5 -60q0 -33 27 -82h174v-88h-336z" />
    <glyph glyph-name="uni0624" unicode="&#x624;" horiz-adv-x="1040" 
d="M537 6q-197 0 -311.5 108.5t-114.5 299.5q0 121 49 221.5t148 163.5t229 63t220.5 -54t132.5 -142t42 -201v-385q0 -73 -16.5 -135t-58 -120t-105.5 -98.5t-165.5 -64.5t-232.5 -24q-30 0 -96 4l-10 163q70 -4 98 -4q195 0 299.5 60.5t104.5 183.5q-95 -39 -213 -39z
M295 430q0 -126 69.5 -189t196.5 -63q100 0 191 31v197q0 143 -59 212.5t-165 69.5q-103 0 -168 -68.5t-65 -189.5zM305 1116v113h92q-35 62 -35 127q0 90 61.5 143t162.5 53q61 0 129 -14l-21 -111q-63 11 -86 11q-53 0 -91 -25.5t-38 -79.5q0 -48 35 -104h225v-113h-434z
" />
    <glyph glyph-name="uni0625" unicode="&#x625;" horiz-adv-x="479" 
d="M150 1548h180v-1548h-180v1548zM70 -512v86h71q-28 51 -28 98q0 71 48.5 113.5t125.5 42.5q42 0 100 -12l-16 -86q-36 8 -66 8q-45 0 -72.5 -20t-27.5 -60q0 -39 28 -84h173v-86h-336z" />
    <glyph glyph-name="uni0626" unicode="&#x626;" horiz-adv-x="1562" 
d="M766 -344q-334 0 -512 110.5t-178 339.5q0 119 49 271l166 -43q-31 -139 -31 -201q0 -161 124.5 -232t381.5 -71q235 0 364.5 51.5t129.5 132.5q0 34 -28 65t-72.5 56.5t-98.5 52.5t-108 59.5t-98.5 70.5t-72.5 93t-28 119q0 142 113.5 237t316.5 95q95 0 223 -31
l-33 -172q-111 27 -194 27q-115 0 -177.5 -41.5t-62.5 -109.5q0 -42 28 -77.5t72.5 -61.5t98.5 -51.5t108 -54.5t98.5 -63t72.5 -83.5t28 -110.5q0 -164 -182 -270.5t-498 -106.5zM150 672h92q-35 62 -35 127q0 90 61 143t162 53q61 0 129 -14l-20 -111q-63 11 -86 11
q-53 0 -91 -25.5t-38 -79.5q0 -49 34 -104h226v-113h-434v113z" />
    <glyph glyph-name="uni0627" unicode="&#x627;" horiz-adv-x="479" 
d="M150 0v1548h180v-1548h-180z" />
    <glyph glyph-name="uni0628" unicode="&#x628;" horiz-adv-x="1912" 
d="M1624 840h180v-488q0 -158 -101.5 -255t-289.5 -97h-862q-220 0 -346.5 106.5t-126.5 286.5q0 148 65 324l162 -43q-45 -172 -45 -248q0 -129 82 -193.5t236 -64.5h802q127 0 185.5 59t58.5 199v414zM915 -176q47 0 76 -30.5t29 -78.5q0 -46 -29 -77t-76 -31
q-49 0 -78.5 30.5t-29.5 77.5q0 48 29.5 78.5t78.5 30.5z" />
    <glyph glyph-name="uni0629" unicode="&#x629;" horiz-adv-x="1062" 
d="M362 1100q-46 0 -76 31.5t-30 78.5q0 46 30 76.5t76 30.5q47 0 78 -30.5t31 -76.5q0 -47 -31 -78.5t-78 -31.5zM664 1100q-47 0 -79 31.5t-32 78.5q0 46 32 76.5t79 30.5q45 0 74.5 -30.5t29.5 -76.5q0 -48 -29.5 -79t-74.5 -31zM516 -10q-210 0 -325 116t-115 297
q0 123 49 225.5t151 168t240 65.5q104 0 189 -38t138.5 -102.5t82 -146t28.5 -172.5q0 -187 -117.5 -300t-320.5 -113zM520 162q118 0 184 61.5t66 188.5q0 125 -64.5 200.5t-189.5 75.5q-126 0 -190 -76t-64 -198q0 -129 68.5 -190.5t189.5 -61.5z" />
    <glyph glyph-name="uni062A" unicode="&#x62a;" horiz-adv-x="1912" 
d="M782 879q-46 0 -76 31.5t-30 78.5q0 46 30 76.5t76 30.5q47 0 78 -30.5t31 -76.5q0 -47 -31 -78.5t-78 -31.5zM1083 879q-47 0 -78.5 31.5t-31.5 78.5q0 46 31.5 76.5t78.5 30.5q46 0 75.5 -30.5t29.5 -76.5q0 -47 -29.5 -78.5t-75.5 -31.5zM1624 840h180v-488
q0 -158 -101.5 -255t-289.5 -97h-862q-220 0 -346.5 106.5t-126.5 286.5q0 148 65 324l162 -43q-45 -172 -45 -248q0 -129 82 -193.5t236 -64.5h802q127 0 185.5 59t58.5 199v414z" />
    <glyph glyph-name="uni062B" unicode="&#x62b;" horiz-adv-x="1912" 
d="M938 1118q-46 0 -76.5 32t-30.5 79q0 45 30.5 75.5t76.5 30.5q47 0 78 -30.5t31 -75.5q0 -47 -31 -79t-78 -32zM782 874q-46 0 -76 32t-30 79q0 46 30.5 77.5t75.5 31.5q47 0 78 -31.5t31 -77.5q0 -47 -31 -79t-78 -32zM973 985q0 46 31.5 77.5t78.5 31.5q45 0 75 -31.5
t30 -77.5q0 -48 -29.5 -79.5t-75.5 -31.5q-47 0 -78.5 32t-31.5 79zM1624 840h180v-488q0 -158 -101.5 -255t-289.5 -97h-862q-220 0 -346.5 106.5t-126.5 286.5q0 148 65 324l162 -43q-45 -172 -45 -248q0 -129 82 -193.5t236 -64.5h802q127 0 185.5 59t58.5 199v414z" />
    <glyph glyph-name="uni062C" unicode="&#x62c;" horiz-adv-x="1267" 
d="M612 862q136 0 240 -40.5t168.5 -115.5t96.5 -176t32 -227q0 -138 -39 -303h-643q-100 0 -152.5 -46t-52.5 -132q0 -91 63.5 -137.5t180.5 -46.5q34 0 88 8l29 -166q-55 -12 -134 -12q-183 0 -298 93.5t-115 258.5q0 159 102 253.5t273 94.5h512q12 52 12 121
q0 187 -96.5 293t-290.5 106q-103 0 -215 -35l-41 160q134 49 280 49zM637 -74q42 0 68 -27.5t26 -70.5q0 -42 -26 -70t-68 -28q-44 0 -71 28t-27 70q0 43 27 70.5t71 27.5z" />
    <glyph glyph-name="uni062D" unicode="&#x62d;" horiz-adv-x="1269" 
d="M467 0q-100 0 -153.5 -45.5t-53.5 -130.5q0 -184 252 -184q64 0 174 24l31 -160q-113 -36 -228 -36q-184 0 -298.5 94t-114.5 262q0 156 101.5 250t271.5 94h514q12 52 12 121q0 187 -96.5 293t-290.5 106q-103 0 -215 -35l-41 160q134 49 280 49q136 0 240 -40.5
t169 -115.5t97.5 -176t32.5 -227q0 -150 -39 -303h-645z" />
    <glyph glyph-name="uni062E" unicode="&#x62e;" horiz-adv-x="1269" 
d="M612 1100q-49 0 -78.5 31t-29.5 79q0 47 29.5 77t78.5 30q47 0 76 -30.5t29 -76.5q0 -48 -29 -79t-76 -31zM467 0q-100 0 -153.5 -45.5t-53.5 -130.5q0 -184 252 -184q64 0 174 24l31 -160q-113 -36 -228 -36q-184 0 -298.5 94t-114.5 262q0 156 101.5 250t271.5 94h514
q12 52 12 121q0 187 -96.5 293t-290.5 106q-103 0 -215 -35l-41 160q134 49 280 49q136 0 240 -40.5t169 -115.5t97.5 -176t32.5 -227q0 -150 -39 -303h-645z" />
    <glyph glyph-name="uni062F" unicode="&#x62f;" horiz-adv-x="1042" 
d="M80 0v168h665v29q0 156 -108.5 300.5t-288.5 258.5l111 145q111 -73 192.5 -147t134 -145.5t84 -150.5t44 -155t12.5 -166v-137h-846z" />
    <glyph glyph-name="uni0630" unicode="&#x630;" horiz-adv-x="1042" 
d="M391 1071q-49 0 -78.5 31.5t-29.5 79.5q0 46 29.5 76t78.5 30q47 0 76 -30t29 -76q0 -48 -29 -79.5t-76 -31.5zM80 0v168h665v29q0 156 -108.5 300.5t-288.5 258.5l111 145q111 -73 192.5 -147t134 -145.5t84 -150.5t44 -155t12.5 -166v-137h-846z" />
    <glyph glyph-name="uni0631" unicode="&#x631;" horiz-adv-x="610" 
d="M25 -358l-33 163q154 24 221.5 94t67.5 222v719h180v-680q0 -235 -106.5 -365t-329.5 -153z" />
    <glyph glyph-name="uni0632" unicode="&#x632;" horiz-adv-x="610" 
d="M369 1077q-49 0 -79 31.5t-30 79.5q0 46 30 76t79 30q47 0 75.5 -30t28.5 -76q0 -48 -28.5 -79.5t-75.5 -31.5zM25 -358l-33 163q154 24 221.5 94t67.5 222v719h180v-680q0 -235 -106.5 -365t-329.5 -153z" />
    <glyph glyph-name="uni0633" unicode="&#x633;" horiz-adv-x="2451" 
d="M629 -342q-136 0 -243 38t-174 104t-101.5 153t-34.5 188q0 166 88 369l160 -57q-64 -164 -64 -289q0 -166 98.5 -249t276.5 -83q379 0 379 369v489h180v-362q0 -160 190 -160q103 0 152 53t49 189v280h180v-360q0 -162 199 -162q109 0 154 59t45 197v416h180v-486
q0 -167 -98.5 -260.5t-272.5 -93.5q-189 0 -278 115q-98 -121 -301 -121q-136 0 -207 57q-33 -192 -181.5 -292.5t-375.5 -100.5z" />
    <glyph glyph-name="uni0634" unicode="&#x634;" horiz-adv-x="2451" 
d="M76 141q0 166 88 369l160 -57q-64 -164 -64 -289q0 -166 98.5 -249t276.5 -83q379 0 379 369v489h180v-362q0 -160 190 -160q103 0 152 53t49 189v280h180v-360q0 -162 199 -162q109 0 154 59t45 197v416h180v-486q0 -167 -98.5 -260.5t-272.5 -93.5q-189 0 -278 115
q-98 -121 -301 -121q-136 0 -207 57q-33 -192 -181.5 -292.5t-375.5 -100.5q-136 0 -243 38t-174 104t-101.5 153t-34.5 188zM1522 924q-46 0 -76.5 31.5t-30.5 78.5q0 46 30.5 77.5t76.5 31.5q47 0 77.5 -31.5t30.5 -77.5q0 -47 -30.5 -78.5t-77.5 -31.5zM1823 924
q-47 0 -79 31.5t-32 78.5q0 46 32 77.5t79 31.5q45 0 74.5 -31.5t29.5 -77.5q0 -48 -29.5 -79t-74.5 -31zM1571 1278q0 45 30.5 75.5t75.5 30.5q47 0 78 -30.5t31 -75.5q0 -47 -31 -79t-78 -32q-46 0 -76 32t-30 79z" />
    <glyph glyph-name="uni0635" unicode="&#x635;" horiz-adv-x="2736" 
d="M2157 862q151 0 256 -67t154.5 -181.5t49.5 -267.5q0 -166 -57 -346h-1159q-137 0 -215 53q-31 -193 -180 -294t-377 -101q-136 0 -243 38t-174 104t-101.5 153t-34.5 188q0 166 88 369l160 -57q-64 -164 -64 -289q0 -166 98.5 -249t276.5 -83q379 0 379 369v489h180
v-381q0 -108 119 -133q67 124 138.5 225.5t136 171.5t132.5 123t125 84t116 50t104.5 25.5t91.5 6.5zM2415 168q22 90 22 168q0 158 -77.5 255t-223.5 97q-153 0 -315 -127t-316 -393h910z" />
    <glyph glyph-name="uni0636" unicode="&#x636;" horiz-adv-x="2736" 
d="M1978 1100q-49 0 -78.5 31t-29.5 79q0 47 29.5 77t78.5 30q47 0 76 -30.5t29 -76.5q0 -48 -29 -79t-76 -31zM2157 862q151 0 256 -67t154.5 -181.5t49.5 -267.5q0 -166 -57 -346h-1159q-137 0 -215 53q-31 -193 -180 -294t-377 -101q-136 0 -243 38t-174 104t-101.5 153
t-34.5 188q0 166 88 369l160 -57q-64 -164 -64 -289q0 -166 98.5 -249t276.5 -83q379 0 379 369v489h180v-381q0 -108 119 -133q67 124 138.5 225.5t136 171.5t132.5 123t125 84t116 50t104.5 25.5t91.5 6.5zM2415 168q22 90 22 168q0 158 -77.5 255t-223.5 97
q-153 0 -315 -127t-316 -393h910z" />
    <glyph glyph-name="uni0637" unicode="&#x637;" horiz-adv-x="1734" 
d="M78 0v168h209v1380h180v-1116q154 213 332.5 321.5t355.5 108.5q113 0 202.5 -40.5t145 -112t84.5 -164t29 -201.5q0 -161 -57 -344h-1481zM471 168h942q21 86 21 170q0 156 -76 253t-221 97q-161 0 -341.5 -137t-324.5 -383z" />
    <glyph glyph-name="uni0638" unicode="&#x638;" horiz-adv-x="1734" 
d="M78 0v168h209v1380h180v-1116q154 213 332.5 321.5t355.5 108.5q113 0 202.5 -40.5t145 -112t84.5 -164t29 -201.5q0 -161 -57 -344h-1481zM471 168h942q21 86 21 170q0 156 -76 253t-221 97q-161 0 -341.5 -137t-324.5 -383zM913 1210q0 46 30 76.5t79 30.5
q47 0 75.5 -30.5t28.5 -76.5q0 -48 -28.5 -79t-75.5 -31q-49 0 -79 31t-30 79z" />
    <glyph glyph-name="uni0639" unicode="&#x639;" horiz-adv-x="1067" 
d="M494 0q-109 0 -170.5 -46t-61.5 -130q0 -96 67.5 -140t184.5 -44q85 0 170 20l33 -160q-97 -32 -209 -32q-202 0 -317 92t-115 260q0 129 75 217.5t205 118.5q-110 140 -110 307q0 178 125 288.5t354 110.5q99 0 227 -31l-34 -167q-94 24 -191 24q-141 0 -217 -63
t-76 -176q0 -81 36 -155t87 -126h442v-168h-505z" />
    <glyph glyph-name="uni063A" unicode="&#x63a;" horiz-adv-x="1067" 
d="M725 1100q-49 0 -79 31t-30 79q0 46 30 76.5t79 30.5q47 0 75.5 -30.5t28.5 -76.5q0 -48 -28.5 -79t-75.5 -31zM494 0q-109 0 -170.5 -46t-61.5 -130q0 -96 67.5 -140t184.5 -44q85 0 170 20l33 -160q-97 -32 -209 -32q-202 0 -317 92t-115 260q0 129 75 217.5t205 118.5
q-110 140 -110 307q0 178 125 288.5t354 110.5q99 0 227 -31l-34 -167q-94 24 -191 24q-141 0 -217 -63t-76 -176q0 -81 36 -155t87 -126h442v-168h-505z" />
    <glyph glyph-name="uni0640" unicode="&#x640;" horiz-adv-x="106" 
d="M0 0v168h106q41 0 41 -86q0 -82 -41 -82h-106z" />
    <glyph glyph-name="uni0641" unicode="&#x641;" horiz-adv-x="2144" 
d="M553 0q-220 0 -346.5 106.5t-126.5 286.5q0 148 65 324l162 -43q-45 -172 -45 -248q0 -129 82 -193.5t236 -64.5h667q-76 102 -76 254q0 191 124 315.5t331 124.5q108 0 190 -38t128.5 -103t69 -142t22.5 -165q0 -198 -86 -414h-1397zM1356 420q0 -134 90 -252h373
q34 128 34 231q0 133 -59.5 211t-181.5 78t-189 -74t-67 -194zM1518 1210q0 47 29.5 77t78.5 30q47 0 76 -30.5t29 -76.5q0 -48 -29 -79t-76 -31q-49 0 -78.5 31t-29.5 79z" />
    <glyph glyph-name="uni0642" unicode="&#x642;" horiz-adv-x="1597" 
d="M938 1100q-46 0 -76.5 31.5t-30.5 78.5q0 46 30.5 76.5t76.5 30.5q47 0 78 -30.5t31 -76.5q0 -47 -31 -78.5t-78 -31.5zM1239 1100q-47 0 -79 31.5t-32 78.5q0 46 32 76.5t79 30.5q45 0 74.5 -30.5t29.5 -76.5q0 -48 -29.5 -79t-74.5 -31zM799 -342q-723 0 -723 481
q0 133 49 273l166 -43q-31 -94 -31 -203q0 -114 51 -185.5t172 -110t320 -38.5q501 0 504 213q-95 -39 -215 -39q-199 0 -312.5 108.5t-113.5 299.5q0 90 29 170.5t81.5 142.5t134.5 98.5t181 36.5q193 0 295 -120.5t102 -309.5v-305q0 -238 -165.5 -353.5t-524.5 -115.5z
M1118 178q100 0 191 31v174q0 305 -228 305q-103 0 -168 -68t-65 -188q0 -128 70 -191t200 -63z" />
    <glyph glyph-name="uni0643" unicode="&#x643;" horiz-adv-x="1712" 
d="M551 0q-220 0 -346.5 106.5t-126.5 286.5q0 148 65 324l162 -43q-45 -172 -45 -248q0 -129 82 -193.5t236 -64.5h579q71 0 114 12.5t68 45.5t34 80.5t9 125.5v1116h181v-1181q0 -193 -101.5 -280t-304.5 -87h-606zM1049 649h-408v107h100q-30 52 -30 110q0 81 58 137
t155 56q40 0 102 -17l-18 -104q-40 12 -78 12q-48 0 -77.5 -22.5t-29.5 -69.5q0 -56 39 -102h187v-107z" />
    <glyph glyph-name="uni0644" unicode="&#x644;" horiz-adv-x="1341" 
d="M623 -342q-254 0 -400.5 133.5t-146.5 349.5q0 166 88 369l158 -57q-33 -101 -47.5 -164t-14.5 -127q0 -330 373 -330q189 0 284 91t95 278v1347h180v-1394q0 -234 -154 -365t-415 -131z" />
    <glyph glyph-name="uni0645" unicode="&#x645;" horiz-adv-x="1333" 
d="M76 -532v362q0 160 90 249t252 89h12q-72 124 -72 262q0 192 127.5 312t323.5 120q195 0 305.5 -123.5t110.5 -308.5q0 -69 -14.5 -129t-50 -116.5t-89.5 -96.5t-138.5 -64t-191.5 -24h-313q-84 0 -130 -44.5t-46 -133.5v-354h-176zM795 688q-111 0 -181.5 -68
t-70.5 -194q0 -123 88 -258h131q77 0 133 21t86.5 59t44.5 83t14 99q0 118 -67 188t-178 70z" />
    <glyph glyph-name="uni0646" unicode="&#x646;" horiz-adv-x="1345" 
d="M655 838q-49 0 -78.5 31t-29.5 79q0 47 29.5 77t78.5 30q47 0 76 -30.5t29 -76.5q0 -48 -29 -79t-76 -31zM631 -342q-136 0 -243 38t-174 104t-101.5 153t-34.5 188q0 166 88 369l160 -57q-64 -164 -64 -289q0 -166 98.5 -249t276.5 -83q379 0 379 369v489h180v-536
q0 -161 -72.5 -274t-198.5 -167.5t-294 -54.5z" />
    <glyph glyph-name="uni0647" unicode="&#x647;" horiz-adv-x="1062" 
d="M516 -10q-210 0 -325 116t-115 297q0 123 49 225.5t151 168t240 65.5q104 0 189 -38t138.5 -102.5t82 -146t28.5 -172.5q0 -187 -117.5 -300t-320.5 -113zM520 162q118 0 184 61.5t66 188.5q0 125 -64.5 200.5t-189.5 75.5q-126 0 -190 -76t-64 -198q0 -129 68.5 -190.5
t189.5 -61.5z" />
    <glyph glyph-name="uni0648" unicode="&#x648;" horiz-adv-x="1040" 
d="M258 -358l-10 163q70 -4 98 -4q195 0 299.5 60.5t104.5 183.5q-95 -39 -213 -39q-197 0 -311.5 108.5t-114.5 299.5q0 121 49 221.5t148 163.5t229 63t220.5 -54t132.5 -142t42 -201v-385q0 -73 -16.5 -135t-58 -120t-105.5 -98.5t-165.5 -64.5t-232.5 -24q-30 0 -96 4z
M561 178q100 0 191 31v197q0 143 -59 212.5t-165 69.5q-103 0 -168 -68.5t-65 -189.5q0 -126 69.5 -189t196.5 -63z" />
    <glyph glyph-name="uni0649" unicode="&#x649;" horiz-adv-x="1562" 
d="M766 -344q-334 0 -512 110.5t-178 339.5q0 119 49 271l166 -43q-31 -139 -31 -201q0 -161 124.5 -232t381.5 -71q235 0 364.5 51.5t129.5 132.5q0 34 -28 65t-72.5 56.5t-98.5 52.5t-108 59.5t-98.5 70.5t-72.5 93t-28 119q0 142 113.5 237t316.5 95q95 0 223 -31
l-33 -172q-111 27 -194 27q-115 0 -177.5 -41.5t-62.5 -109.5q0 -42 28 -77.5t72.5 -61.5t98.5 -51.5t108 -54.5t98.5 -63t72.5 -83.5t28 -110.5q0 -164 -182 -270.5t-498 -106.5z" />
    <glyph glyph-name="uni064A" unicode="&#x64a;" horiz-adv-x="1562" 
d="M766 -344q-334 0 -512 110.5t-178 339.5q0 119 49 271l166 -43q-31 -139 -31 -201q0 -161 124.5 -232t381.5 -71q235 0 364.5 51.5t129.5 132.5q0 34 -28 65t-72.5 56.5t-98.5 52.5t-108 59.5t-98.5 70.5t-72.5 93t-28 119q0 142 113.5 237t316.5 95q95 0 223 -31
l-33 -172q-111 27 -194 27q-115 0 -177.5 -41.5t-62.5 -109.5q0 -42 28 -77.5t72.5 -61.5t98.5 -51.5t108 -54.5t98.5 -63t72.5 -83.5t28 -110.5q0 -164 -182 -270.5t-498 -106.5zM606 -737q-46 0 -76 31t-30 77q0 47 30 78t76 31q47 0 78 -31t31 -78q0 -46 -31 -77t-78 -31
zM907 -737q-47 0 -78.5 31t-31.5 77q0 47 31.5 78t78.5 31q46 0 75.5 -31t29.5 -78q0 -46 -30 -77t-75 -31z" />
    <glyph glyph-name="uni064B" unicode="&#x64b;" 
d="M-233 1307l-7 2l15 84l458 69l7 -2l-15 -84zM-233 1112l-7 2l15 84l458 70l7 -2l-15 -84z" />
    <glyph glyph-name="uni064C" unicode="&#x64c;" 
d="M150 1581q61 0 98 -51.5t37 -136.5q0 -122 -68 -195.5t-154 -73.5q-42 0 -77 22.5t-54.5 49.5t-41.5 49.5t-40 22.5q-31 0 -79 -66l-56 49q68 101 142 101q26 0 50 -15t43 -36t37 -42t39.5 -36t43.5 -15q71 0 114 84q-8 -2 -26 -2q-65 0 -109.5 32.5t-44.5 94.5
q0 64 43 114t103 50zM172 1372q23 0 33 2v17q0 47 -15 76.5t-47 29.5q-28 0 -44.5 -21.5t-16.5 -48.5q0 -55 90 -55z" />
    <glyph glyph-name="uni064D" unicode="&#x64d;" 
d="M-236 -340l-6 2l15 86l458 70l7 -2l-15 -86zM-236 -514l-6 2l15 86l458 70l7 -2l-15 -86z" />
    <glyph glyph-name="uni064E" unicode="&#x64e;" 
d="M-233 1112l-7 2l15 84l458 70l7 -2l-15 -84z" />
    <glyph glyph-name="uni064F" unicode="&#x64f;" 
d="M37 1581q60 0 97.5 -52t37.5 -136q0 -129 -65 -199t-158 -70q-64 0 -121 31l35 76q48 -23 86 -23q83 0 121 84q-8 -2 -25 -2q-67 0 -112.5 32.5t-45.5 94.5q0 65 43.5 114.5t106.5 49.5zM59 1372q23 0 33 2v17q0 45 -16 75.5t-47 30.5q-29 0 -46.5 -21.5t-17.5 -48.5
q0 -55 94 -55z" />
    <glyph glyph-name="uni0650" unicode="&#x650;" 
d="M-233 -340l-7 2l15 86l458 70l7 -2l-15 -86z" />
    <glyph glyph-name="uni0651" unicode="&#x651;" 
d="M209 1407q31 -58 31 -121q0 -64 -34 -103.5t-93 -39.5q-58 0 -99 37q-37 -56 -110 -56q-69 0 -106.5 37t-37.5 99q0 46 23 102l59 -16q-8 -31 -8 -56q0 -71 70 -71q57 0 57 73q0 23 -2 37l64 14q12 -43 12 -77v-4q27 -27 67 -27q60 0 60 59q0 35 -17 88z" />
    <glyph glyph-name="uni0652" unicode="&#x652;" 
d="M0 1118q-70 0 -107.5 38t-37.5 106q0 67 40 120.5t105 53.5t105 -53.5t40 -120.5q0 -68 -37.5 -106t-107.5 -38zM0 1206q59 0 59 62q0 34 -15.5 56t-43.5 22q-27 0 -43 -22.5t-16 -55.5q0 -62 59 -62z" />
    <glyph glyph-name="uni0653" unicode="&#x653;" 
d="M143 1116q-56 0 -165 26.5t-140 26.5q-43 0 -92 -34l-59 73q79 74 157 74q37 0 143 -27.5t148 -27.5q32 0 53 9t58 40l67 -68q-62 -92 -170 -92z" />
    <glyph glyph-name="uni0654" unicode="&#x654;" 
d="M-168 1196h72q-29 50 -29 96q0 71 48.5 113.5t125.5 42.5q43 0 101 -12l-17 -86q-36 8 -65 8q-45 0 -73 -20t-28 -60q0 -33 27 -82h174v-88h-336v88z" />
    <glyph glyph-name="uni0655" unicode="&#x655;" 
d="M-168 -426h72q-29 53 -29 98q0 71 48.5 113.5t125.5 42.5q43 0 101 -12l-17 -86q-36 8 -65 8q-45 0 -73 -20t-28 -60q0 -37 29 -84h172v-86h-336v86z" />
    <glyph glyph-name="uni0656" unicode="&#x656;" 
d="M-45 -571v362h90v-338l-78 -24h-12z" />
    <glyph glyph-name="uni0658" unicode="&#x658;" 
d="M-135 1376l78 -26q-23 -58 -23 -95q0 -73 84 -73q41 0 59.5 21t18.5 67v106h86v-106q0 -83 -43.5 -129.5t-120.5 -46.5q-79 0 -125.5 40t-46.5 113q0 61 33 129z" />
    <glyph glyph-name="uni0660" unicode="&#x660;" horiz-adv-x="1105" 
d="M553 434l-170 170l170 162l168 -164z" />
    <glyph glyph-name="uni0661" unicode="&#x661;" horiz-adv-x="1105" 
d="M463 0v1337h180v-1337h-180z" />
    <glyph glyph-name="uni0662" unicode="&#x662;" horiz-adv-x="1105" 
d="M168 0v1337h180v-278q125 -55 246 -55q118 0 159.5 75.5t26.5 249.5l181 8q17 -258 -69 -378.5t-294 -120.5q-52 0 -108.5 11.5t-76.5 18t-65 23.5v-891h-180z" />
    <glyph glyph-name="uni0663" unicode="&#x663;" horiz-adv-x="1105" 
d="M74 1337h180v-282q57 -23 123 -23q83 0 112.5 68t14.5 227l172 10q15 -173 -21 -284q56 -21 107 -21q86 0 116 67.5t15 227.5l176 10q37 -463 -270 -463q-115 0 -228 50q-62 -50 -159 -50q-82 0 -158 27v-901h-180v1337z" />
    <glyph glyph-name="uni0664" unicode="&#x664;" horiz-adv-x="1105" 
d="M932 166l8 -166q-144 -16 -260 -16q-518 0 -518 321q0 114 69 212t197 167q-89 41 -146 115t-57 166q0 175 146 275.5t434 100.5q44 0 69 -2v-165q-29 2 -81 2q-194 0 -288.5 -57t-94.5 -158q0 -82 78.5 -133.5t220.5 -51.5q53 0 131 10l-2 -170q-133 -11 -232.5 -41.5
t-153.5 -71t-79 -82.5t-25 -85q0 -96 87 -138t274 -42q90 0 223 10z" />
    <glyph glyph-name="uni0665" unicode="&#x665;" horiz-adv-x="1105" 
d="M553 -16q-83 0 -150.5 17t-126.5 57.5t-99 104.5t-62.5 162t-22.5 226q0 200 38 355t103 247.5t146 139t174 46.5t174.5 -46.5t146.5 -139t102.5 -247.5t37.5 -355q0 -128 -22.5 -226t-62.5 -162t-99 -104.5t-126.5 -57.5t-150.5 -17zM553 156q276 0 276 403
q0 274 -80 441t-196 167t-196.5 -167.5t-80.5 -440.5q0 -204 72 -303.5t205 -99.5z" />
    <glyph glyph-name="uni0666" unicode="&#x666;" horiz-adv-x="1105" 
d="M715 0v1169h-617v168h797v-1337h-180z" />
    <glyph glyph-name="uni0667" unicode="&#x667;" horiz-adv-x="1105" 
d="M899 1354l191 -54l-433 -1300h-206l-437 1303l191 51l348 -1100z" />
    <glyph glyph-name="uni0668" unicode="&#x668;" horiz-adv-x="1105" 
d="M1090 27l-191 -52l-346 1102l-348 -1102l-191 54l432 1300h207z" />
    <glyph glyph-name="uni0669" unicode="&#x669;" horiz-adv-x="1105" 
d="M113 928q0 191 117.5 300t324.5 109h358v-1337h-180v553q-78 -4 -108 -4q-252 0 -382 97t-130 282zM297 930q0 -104 87.5 -160.5t244.5 -56.5q49 0 104 6v450h-139q-143 0 -220 -62t-77 -177z" />
    <glyph glyph-name="uni066A" unicode="&#x66a;" horiz-adv-x="1105" 
d="M313 -43l-133 49l594 1350l133 -51zM270 1012l-170 170l170 170l172 -170zM836 0l-170 170l170 168l170 -170z" />
    <glyph glyph-name="uni066B" unicode="&#x66b;" horiz-adv-x="512" 
d="M408 152l-172 -502h-166l141 502h197z" />
    <glyph glyph-name="uni066C" unicode="&#x66c;" horiz-adv-x="442" 
d="M338 264l-119 -354h-149l98 354h170z" />
    <glyph glyph-name="uni066D" unicode="&#x66d;" horiz-adv-x="1724" 
d="M416 -201l-49 41l231 545l-514 307l16 76l613 -76l129 590h61l121 -590l612 76l23 -76l-535 -305l250 -547l-55 -41l-447 406z" />
    <glyph glyph-name="uni066E" unicode="&#x66e;" horiz-adv-x="1912" 
d="M1624 840h180v-488q0 -158 -101.5 -255t-289.5 -97h-862q-220 0 -346.5 106.5t-126.5 286.5q0 148 65 324l162 -43q-45 -172 -45 -248q0 -129 82 -193.5t236 -64.5h802q127 0 185.5 59t58.5 199v414z" />
    <glyph glyph-name="uni066F" unicode="&#x66f;" horiz-adv-x="1597" 
d="M799 -342q-723 0 -723 481q0 133 49 273l166 -43q-31 -94 -31 -203q0 -114 51 -185.5t172 -110t320 -38.5q501 0 504 213q-95 -39 -215 -39q-199 0 -312.5 108.5t-113.5 299.5q0 90 29 170.5t81.5 142.5t134.5 98.5t181 36.5q193 0 295 -120.5t102 -309.5v-305
q0 -238 -165.5 -353.5t-524.5 -115.5zM1118 178q100 0 191 31v174q0 305 -228 305q-103 0 -168 -68t-65 -188q0 -128 70 -191t200 -63z" />
    <glyph glyph-name="uni0670" unicode="&#x670;" 
d="M-45 1135v362h90v-338l-78 -24h-12z" />
    <glyph glyph-name="uni0671" unicode="&#x671;" horiz-adv-x="479" 
d="M150 1548h180v-1548h-180v1548zM457 1655h-506v88h98v207h86v-88q72 96 178 96q75 0 120.5 -48.5t45.5 -131.5q0 -52 -22 -123zM301 1870q-49 0 -96 -34.5t-78 -92.5h260q6 21 6 39q0 42 -25.5 65t-66.5 23z" />
    <glyph glyph-name="uni0679" unicode="&#x679;" horiz-adv-x="1912" 
d="M78 393q0 148 65 324l162 -43q-45 -172 -45 -248q0 -129 82 -193.5t236 -64.5h802q127 0 185.5 59t58.5 199v414h180v-488q0 -158 -101.5 -255t-289.5 -97h-862q-220 0 -346.5 106.5t-126.5 286.5zM637 891v90h98v350h90v-205q82 95 183 95q84 0 135 -56t51 -149
q0 -54 -23 -125h-534zM821 981h279q4 24 4 37q0 50 -29 80t-74 30q-52 0 -101 -38t-79 -109z" />
    <glyph glyph-name="uni067E" unicode="&#x67e;" horiz-adv-x="1912" 
d="M1624 840h180v-488q0 -158 -101.5 -255t-289.5 -97h-862q-220 0 -346.5 106.5t-126.5 286.5q0 148 65 324l162 -43q-45 -172 -45 -248q0 -129 82 -193.5t236 -64.5h802q127 0 185.5 59t58.5 199v414zM868 -285q0 -47 -30.5 -78.5t-77.5 -31.5q-46 0 -76.5 31.5
t-30.5 78.5q0 46 30.5 76.5t76.5 30.5q47 0 77.5 -30.5t30.5 -76.5zM1061 -178q45 0 74.5 -30.5t29.5 -76.5q0 -48 -29.5 -79t-74.5 -31q-47 0 -79 31.5t-32 78.5q0 46 32 76.5t79 30.5zM913 -416q47 0 78 -31.5t31 -78.5q0 -46 -31 -76.5t-78 -30.5q-46 0 -77 30.5
t-31 76.5q0 47 31 78.5t77 31.5z" />
    <glyph glyph-name="uni0686" unicode="&#x686;" horiz-adv-x="1267" 
d="M612 862q136 0 240 -40.5t168.5 -115.5t96.5 -176t32 -227q0 -138 -39 -303h-643q-100 0 -152.5 -46t-52.5 -132q0 -91 63.5 -137.5t180.5 -46.5q34 0 88 8l29 -166q-55 -12 -134 -12q-183 0 -298 93.5t-115 258.5q0 159 102 253.5t273 94.5h512q12 52 12 121
q0 187 -96.5 293t-290.5 106q-103 0 -215 -35l-41 160q134 49 280 49zM715 -166q0 -34 -21 -56t-55 -22q-32 0 -53 22t-21 56q0 32 21 53t53 21q34 0 55 -21t21 -53zM850 -92q32 0 53 -21t21 -53q0 -34 -21 -56t-53 -22q-34 0 -56 22t-22 56q0 32 22 53t56 21zM745 -258
q34 0 56 -22t22 -56q0 -32 -22 -53t-56 -21q-32 0 -53.5 21t-21.5 53q0 34 21.5 56t53.5 22z" />
    <glyph glyph-name="uni0688" unicode="&#x688;" horiz-adv-x="1042" 
d="M926 0h-846v168h665v29q0 156 -108.5 300.5t-288.5 258.5l111 145q111 -73 192.5 -147t134 -145.5t84 -150.5t44 -155t12.5 -166v-137zM92 1174h98v350h91v-205q81 94 182 94q85 0 135.5 -56t50.5 -149q0 -57 -22 -125h-535v91zM457 1321q-52 0 -101.5 -38t-79.5 -109
h279q4 24 4 36q0 50 -28.5 80.5t-73.5 30.5z" />
    <glyph glyph-name="uni0691" unicode="&#x691;" horiz-adv-x="610" 
d="M-8 -195q154 24 221.5 94t67.5 222v719h180v-680q0 -235 -106.5 -365t-329.5 -153zM70 1090v90h98v350h90v-205q81 94 182 94q85 0 136 -56.5t51 -148.5q0 -53 -23 -124h-534zM434 1327q-52 0 -101 -38t-79 -109h278q5 30 5 37q0 50 -29 80t-74 30z" />
    <glyph glyph-name="uni0698" unicode="&#x698;" horiz-adv-x="610" 
d="M371 1317q-46 0 -76.5 31.5t-30.5 78.5q0 45 31 76t76 31q47 0 77.5 -31t30.5 -76q0 -47 -30.5 -78.5t-77.5 -31.5zM215 1073q-46 0 -76 32t-30 79q0 46 30 77t76 31q47 0 78 -31t31 -77q0 -47 -31 -79t-78 -32zM516 1073q-47 0 -78.5 32t-31.5 79q0 46 31.5 77t78.5 31
q45 0 75 -31t30 -77q0 -48 -29.5 -79.5t-75.5 -31.5zM25 -358l-33 163q154 24 221.5 94t67.5 222v719h180v-680q0 -235 -106.5 -365t-329.5 -153z" />
    <glyph glyph-name="uni06A1" unicode="&#x6a1;" horiz-adv-x="2144" 
d="M80 393q0 148 65 324l162 -43q-45 -172 -45 -248q0 -129 82 -193.5t236 -64.5h667q-76 102 -76 254q0 191 124 315.5t331 124.5q108 0 190 -38t128.5 -103t69 -142t22.5 -165q0 -198 -86 -414h-1397q-220 0 -346.5 106.5t-126.5 286.5zM1356 420q0 -134 90 -252h373
q34 128 34 231q0 133 -59.5 211t-181.5 78t-189 -74t-67 -194z" />
    <glyph glyph-name="uni06A4" unicode="&#x6a4;" horiz-adv-x="2144" 
d="M553 0q-220 0 -346.5 106.5t-126.5 286.5q0 148 65 324l162 -43q-45 -172 -45 -248q0 -129 82 -193.5t236 -64.5h667q-76 102 -76 254q0 191 124 315.5t331 124.5q108 0 190 -38t128.5 -103t69 -142t22.5 -165q0 -198 -86 -414h-1397zM1356 420q0 -134 90 -252h373
q34 128 34 231q0 133 -59.5 211t-181.5 78t-189 -74t-67 -194zM1366 1206q0 46 30.5 77.5t76.5 31.5q47 0 77.5 -31.5t30.5 -77.5q0 -47 -30.5 -78.5t-77.5 -31.5q-46 0 -76.5 31.5t-30.5 78.5zM1774 1096q-47 0 -79 31.5t-32 78.5q0 46 32 77.5t79 31.5q45 0 74.5 -31.5
t29.5 -77.5q0 -48 -29.5 -79t-74.5 -31zM1628 1339q-46 0 -76 32t-30 79q0 45 30.5 75.5t75.5 30.5q47 0 78 -30.5t31 -75.5q0 -47 -31 -79t-78 -32z" />
    <glyph glyph-name="uni06A9" unicode="&#x6a9;" horiz-adv-x="1748" 
d="M1038 905q143 -46 248.5 -104.5t171 -123t105 -145t54.5 -161.5t15 -181v-190h-1081q-220 0 -346.5 106.5t-126.5 286.5q0 148 65 324l162 -43q-45 -172 -45 -248q0 -129 82 -193.5t236 -64.5h878v55q0 146 -56.5 247t-187.5 179t-356 142v174l580 559l116 -119z" />
    <glyph glyph-name="uni06AF" unicode="&#x6af;" horiz-adv-x="1748" 
d="M1368 1591l-518 -497l-113 112l523 496zM1038 905q143 -46 248.5 -104.5t171 -123t105 -145t54.5 -161.5t15 -181v-190h-1081q-220 0 -346.5 106.5t-126.5 286.5q0 148 65 324l162 -43q-45 -172 -45 -248q0 -129 82 -193.5t236 -64.5h878v55q0 146 -56.5 247t-187.5 179
t-356 142v174l580 559l116 -119z" />
    <glyph glyph-name="uni06BA" unicode="&#x6ba;" horiz-adv-x="1345" 
d="M631 -342q-136 0 -243 38t-174 104t-101.5 153t-34.5 188q0 166 88 369l160 -57q-64 -164 -64 -289q0 -166 98.5 -249t276.5 -83q379 0 379 369v489h180v-536q0 -161 -72.5 -274t-198.5 -167.5t-294 -54.5z" />
    <glyph glyph-name="uni06BE" unicode="&#x6be;" horiz-adv-x="1517" 
d="M391 891q189 -12 338.5 -38t281.5 -76t219.5 -122t138 -180t50.5 -246q0 -108 -26 -229h-410q-164 0 -272 39q-107 -39 -283 -39q-206 0 -348 59l49 160q130 -51 299 -51q47 0 72 2q-50 48 -80.5 118.5t-30.5 151.5q0 84 40 162.5t112 126.5q-57 6 -179 10zM711 197
q81 30 131.5 93t50.5 156q0 94 -49.5 153.5t-124.5 59.5q-74 0 -122 -60t-48 -150t45 -153.5t117 -98.5zM930 168h319q6 38 6 80q0 253 -251 375q47 -83 47 -179q0 -82 -33.5 -155.5t-87.5 -120.5z" />
    <glyph glyph-name="uni06C1" unicode="&#x6c1;" horiz-adv-x="1062" 
d="M516 -10q-210 0 -325 116t-115 297q0 123 49 225.5t151 168t240 65.5q104 0 189 -38t138.5 -102.5t82 -146t28.5 -172.5q0 -187 -117.5 -300t-320.5 -113zM520 162q118 0 184 61.5t66 188.5q0 125 -64.5 200.5t-189.5 75.5q-126 0 -190 -76t-64 -198q0 -129 68.5 -190.5
t189.5 -61.5z" />
    <glyph glyph-name="uni06C2" unicode="&#x6c2;" horiz-adv-x="1062" 
d="M516 -10q-210 0 -325 116t-115 297q0 123 49 225.5t151 168t240 65.5q104 0 189 -38t138.5 -102.5t82 -146t28.5 -172.5q0 -187 -117.5 -300t-320.5 -113zM516 688q-126 0 -190 -76t-64 -198q0 -129 68.5 -190.5t189.5 -61.5q118 0 184 61.5t66 188.5q0 125 -64.5 200.5
t-189.5 75.5zM287 1116v113h92q-35 62 -35 127q0 90 61 143t162 53q61 0 129 -14l-20 -111q-63 11 -86 11q-53 0 -91 -25.5t-38 -79.5q0 -48 35 -104h225v-113h-434z" />
    <glyph glyph-name="uni06C3" unicode="&#x6c3;" horiz-adv-x="1062" 
d="M362 1100q-46 0 -76 31.5t-30 78.5q0 46 30 76.5t76 30.5q47 0 78 -30.5t31 -76.5q0 -47 -31 -78.5t-78 -31.5zM664 1100q-47 0 -79 31.5t-32 78.5q0 46 32 76.5t79 30.5q45 0 74.5 -30.5t29.5 -76.5q0 -48 -29.5 -79t-74.5 -31zM516 -10q-210 0 -325 116t-115 297
q0 123 49 225.5t151 168t240 65.5q104 0 189 -38t138.5 -102.5t82 -146t28.5 -172.5q0 -187 -117.5 -300t-320.5 -113zM520 162q118 0 184 61.5t66 188.5q0 125 -64.5 200.5t-189.5 75.5q-126 0 -190 -76t-64 -198q0 -129 68.5 -190.5t189.5 -61.5z" />
    <glyph glyph-name="uni06CC" unicode="&#x6cc;" horiz-adv-x="1562" 
d="M766 -344q-334 0 -512 110.5t-178 339.5q0 119 49 271l166 -43q-31 -139 -31 -201q0 -161 124.5 -232t381.5 -71q235 0 364.5 51.5t129.5 132.5q0 34 -28 65t-72.5 56.5t-98.5 52.5t-108 59.5t-98.5 70.5t-72.5 93t-28 119q0 142 113.5 237t316.5 95q95 0 223 -31
l-33 -172q-111 27 -194 27q-115 0 -177.5 -41.5t-62.5 -109.5q0 -42 28 -77.5t72.5 -61.5t98.5 -51.5t108 -54.5t98.5 -63t72.5 -83.5t28 -110.5q0 -164 -182 -270.5t-498 -106.5z" />
    <glyph glyph-name="uni06D2" unicode="&#x6d2;" horiz-adv-x="1521" 
d="M723 -20q-249 0 -395.5 31t-206.5 91t-60 158q0 61 22.5 111.5t58 85t79 64.5t87 56t79 52.5t58 61t22.5 75.5v70h168v-80q0 -58 -22.5 -106.5t-58 -82t-78.5 -62.5t-86 -54t-78.5 -49.5t-58 -55t-22.5 -65.5q0 -49 49 -77t164.5 -41t321.5 -13q336 0 741 67l9 -166
q-436 -71 -793 -71z" />
    <glyph glyph-name="uni06D3" unicode="&#x6d3;" horiz-adv-x="1521" 
d="M723 -20q-249 0 -395.5 31t-206.5 91t-60 158q0 61 22.5 111.5t58 85t79 64.5t87 56t79 52.5t58 61t22.5 75.5v70h168v-80q0 -58 -22.5 -106.5t-58 -82t-78.5 -62.5t-86 -54t-78.5 -49.5t-58 -55t-22.5 -65.5q0 -49 49 -77t164.5 -41t321.5 -13q336 0 741 67l9 -166
q-436 -71 -793 -71zM758 1090h-434v112h92q-35 62 -35 127q0 90 61.5 143.5t161.5 53.5q56 0 129 -15l-20 -110q-57 10 -86 10q-53 0 -91 -25t-38 -79q0 -50 34 -105h226v-112z" />
    <glyph glyph-name="uni06D4" unicode="&#x6d4;" horiz-adv-x="722" 
d="M125 238q76 -70 219 -70h318v-168h-318q-89 0 -158 21.5t-125 76.5z" />
    <glyph glyph-name="uni06D5" unicode="&#x6d5;" horiz-adv-x="1062" 
d="M516 -10q-210 0 -325 116t-115 297q0 123 49 225.5t151 168t240 65.5q104 0 189 -38t138.5 -102.5t82 -146t28.5 -172.5q0 -187 -117.5 -300t-320.5 -113zM520 162q118 0 184 61.5t66 188.5q0 125 -64.5 200.5t-189.5 75.5q-126 0 -190 -76t-64 -198q0 -129 68.5 -190.5
t189.5 -61.5z" />
    <glyph glyph-name="uni06F0" unicode="&#x6f0;" horiz-adv-x="1105" 
d="M553 434l-170 170l170 162l168 -164z" />
    <glyph glyph-name="uni06F1" unicode="&#x6f1;" horiz-adv-x="1105" 
d="M463 0v1337h180v-1337h-180z" />
    <glyph glyph-name="uni06F2" unicode="&#x6f2;" horiz-adv-x="1105" 
d="M168 0v1337h180v-278q125 -55 246 -55q118 0 159.5 75.5t26.5 249.5l181 8q17 -258 -69 -378.5t-294 -120.5q-52 0 -108.5 11.5t-76.5 18t-65 23.5v-891h-180z" />
    <glyph glyph-name="uni06F3" unicode="&#x6f3;" horiz-adv-x="1105" 
d="M74 1337h180v-282q57 -23 123 -23q83 0 112.5 68t14.5 227l172 10q15 -173 -21 -284q56 -21 107 -21q86 0 116 67.5t15 227.5l176 10q37 -463 -270 -463q-115 0 -228 50q-62 -50 -159 -50q-82 0 -158 27v-901h-180v1337z" />
    <glyph glyph-name="uni06F4" unicode="&#x6f4;" horiz-adv-x="1105" 
d="M90 1337h180v-329q125 -39 254 -50q-26 76 -26 140q0 126 70 191t206 65q91 0 191 -27l-41 -156q-67 23 -133 23q-67 0 -102.5 -34.5t-35.5 -100.5q0 -51 23 -109q186 0 354 33l21 -158q-198 -39 -389 -39q-212 0 -392 60v-846h-180v1337z" />
    <glyph glyph-name="uni06F5" unicode="&#x6f5;" horiz-adv-x="1105" 
d="M389 -12q-309 0 -309 530q0 160 29 297t77.5 231.5t111 162t129 99t132.5 31.5q69 0 134.5 -30t126 -95.5t106.5 -160t73 -232.5t27 -303q0 -264 -80 -397t-209 -133q-100 0 -180 84q-84 -84 -168 -84zM422 158q26 0 52 13.5t47 28.5t32 17q9 -2 30 -17t48.5 -28.5
t58.5 -13.5q67 0 108.5 94t41.5 272q0 139 -23.5 261t-62 205t-89.5 131t-106 48q-75 0 -142.5 -85t-109 -234t-41.5 -322q0 -188 46 -279t110 -91z" />
    <glyph glyph-name="uni06F6" unicode="&#x6f6;" horiz-adv-x="1105" 
d="M860 899l141 -119l-702 -829l-143 119l442 522q-183 28 -289 125t-106 244q0 175 142.5 277.5t422.5 102.5q39 0 84 -2v-165q-31 2 -86 2q-191 0 -285 -58.5t-94 -159.5q0 -86 91.5 -141t254.5 -67z" />
    <glyph glyph-name="uni06F7" unicode="&#x6f7;" horiz-adv-x="1105" 
d="M899 1354l191 -54l-433 -1300h-206l-437 1303l191 51l348 -1100z" />
    <glyph glyph-name="uni06F8" unicode="&#x6f8;" horiz-adv-x="1105" 
d="M1090 27l-191 -52l-346 1102l-348 -1102l-191 54l432 1300h207z" />
    <glyph glyph-name="uni06F9" unicode="&#x6f9;" horiz-adv-x="1105" 
d="M113 928q0 191 117.5 300t324.5 109h358v-1337h-180v553q-78 -4 -108 -4q-252 0 -382 97t-130 282zM297 930q0 -104 87.5 -160.5t244.5 -56.5q49 0 104 6v450h-139q-143 0 -220 -62t-77 -177z" />
    <glyph glyph-name="Germandbls" unicode="&#x1e9e;" horiz-adv-x="1402" 
d="M1161 1288q-49 0 -95 -5.5t-97 -21t-88 -39.5t-61.5 -66.5t-24.5 -96.5q0 -31 11.5 -59.5t26.5 -49t44 -45.5t50 -39.5t59.5 -40t57.5 -39.5q71 -51 117.5 -92t86.5 -92t58.5 -110.5t18.5 -131.5q0 -177 -123.5 -287t-308.5 -110q-273 0 -426 184l160 136
q99 -136 270 -136q98 0 157 54.5t60 150.5q1 40 -10 73.5t-25.5 58t-49 54.5t-60 48.5t-78.5 54.5q-56 39 -83 58.5t-70.5 54t-65 60.5t-45.5 62t-33.5 75t-9.5 83q0 178 194 277q-25 2 -47 2q-89 0 -154.5 -13.5t-118 -46t-80 -92.5t-28.5 -147v-1014h-198v1012
q0 250 145 362.5t432 112.5q192 0 432 -21v-178z" />
    <glyph glyph-name="uni2002" unicode="&#x2002;" horiz-adv-x="1171" 
 />
    <glyph glyph-name="uni2003" unicode="&#x2003;" horiz-adv-x="2340" 
 />
    <glyph glyph-name="uni2009" unicode="&#x2009;" horiz-adv-x="233" 
 />
    <glyph glyph-name="uni200A" unicode="&#x200a;" horiz-adv-x="47" 
 />
    <glyph glyph-name="uni200C" unicode="&#x200c;" 
d="M-160 2122l37 41l123 -125l121 123l37 -39l-119 -121l119 -121l-37 -39l-121 121l-123 -123l-37 41l121 121z" />
    <glyph glyph-name="uni200D" unicode="&#x200d;" 
d="M-231 2030h464v-162h-53v108h-358v-108h-53v162z" />
    <glyph glyph-name="uni200E" unicode="&#x200e;" 
d="M61 1839l-38 41l96 96h-295v54h295l-96 92l38 41l162 -162z" />
    <glyph glyph-name="uni200F" unicode="&#x200f;" 
d="M-61 1841l-162 160l162 162l38 -37l-96 -96h297v-54h-295l94 -96z" />
    <glyph glyph-name="uni2011" unicode="&#x2011;" horiz-adv-x="647" 
d="M575 582v-172h-503v172h503z" />
    <glyph glyph-name="endash" unicode="&#x2013;" horiz-adv-x="1024" 
d="M1024 578v-160h-1024v160h1024z" />
    <glyph glyph-name="emdash" unicode="&#x2014;" horiz-adv-x="2048" 
d="M2048 578v-160h-2048v160h2048z" />
    <glyph glyph-name="quoteleft" unicode="&#x2018;" horiz-adv-x="569" 
d="M455 1450l-142 -504h-198l172 504h168z" />
    <glyph glyph-name="quoteright" unicode="&#x2019;" horiz-adv-x="569" 
d="M455 1450l-172 -504h-168l141 504h199z" />
    <glyph glyph-name="quotesinglbase" unicode="&#x201a;" horiz-adv-x="569" 
d="M455 233l-172 -503h-168l141 503h199z" />
    <glyph glyph-name="quotedblleft" unicode="&#x201c;" horiz-adv-x="1062" 
d="M741 946h-198l172 504h168zM180 946l172 504h168l-141 -504h-199z" />
    <glyph glyph-name="quotedblright" unicode="&#x201d;" horiz-adv-x="1062" 
d="M711 946h-168l141 504h199zM180 946l142 504h198l-172 -504h-168z" />
    <glyph glyph-name="quotedblbase" unicode="&#x201e;" horiz-adv-x="1062" 
d="M711 -270h-168l141 503h199zM180 -270l142 503h198l-172 -503h-168z" />
    <glyph glyph-name="dagger" unicode="&#x2020;" horiz-adv-x="1138" 
d="M72 874v160h405v416h185v-416h405v-160h-405v-1132h-185v1132h-405z" />
    <glyph glyph-name="daggerdbl" unicode="&#x2021;" horiz-adv-x="1138" 
d="M84 922v159h393v369h185v-369h393v-159h-393v-627h393v-160h-393v-393h-185v393h-393v160h393v627h-393z" />
    <glyph glyph-name="bullet" unicode="&#x2022;" horiz-adv-x="1024" 
d="M512 1087q149 0 255.5 -105t106.5 -257q0 -151 -106.5 -257t-255.5 -106t-255.5 106t-106.5 257t105.5 256.5t256.5 105.5z" />
    <glyph glyph-name="ellipsis" unicode="&#x2026;" horiz-adv-x="2048" 
d="M342 258q56 0 95.5 -40t39.5 -95t-39.5 -95t-95.5 -40q-57 0 -96 39t-39 96q0 56 40 95.5t95 39.5zM1024 258q56 0 95.5 -40t39.5 -95t-39.5 -95t-95.5 -40q-57 0 -96 39t-39 96q0 56 40 95.5t95 39.5zM1706 258q56 0 95.5 -40t39.5 -95t-39.5 -95t-95.5 -40
q-57 0 -96 39t-39 96q0 56 40 95.5t95 39.5z" />
    <glyph glyph-name="uni202A" unicode="&#x202a;" 
d="M119 1976h-117v54h117l-96 92l38 41l162 -162l-162 -162l-38 41zM-66 1976h-133v54h133v-54z" />
    <glyph glyph-name="uni202B" unicode="&#x202b;" 
d="M-223 2001l162 162l38 -37l-96 -96h117v-54h-115l94 -96l-38 -39zM66 1976v54h133v-54h-133z" />
    <glyph glyph-name="uni202C" unicode="&#x202c;" 
d="M-29 1837v238l-92 -95l-39 39l160 160l160 -160l-39 -39l-94 95v-238h-56z" />
    <glyph glyph-name="uni202D" unicode="&#x202d;" 
d="M-49 1839l-37 41l96 96h-252v54h250l-94 92l37 41l162 -162zM102 1839l-36 41l124 121l-124 121l36 41l162 -162z" />
    <glyph glyph-name="uni202E" unicode="&#x202e;" 
d="M-102 1896l-162 162l162 162l36 -39l-122 -123l122 -123zM49 1896l-160 162l160 162l39 -39l-96 -98h252v-51h-252l96 -97z" />
    <glyph glyph-name="perthousand" unicode="&#x2030;" horiz-adv-x="2162" 
d="M1102 1516l123 -62l-908 -1517l-127 63zM373 1475q137 0 235.5 -96.5t98.5 -235.5q0 -136 -98 -235t-236 -99t-235 98t-97 236t98 235t234 97zM188 1143q0 -77 54.5 -132t130.5 -55t131 55t55 132q0 75 -53 129.5t-133 54.5q-75 0 -130 -54t-55 -130zM1038 629
q137 0 235.5 -96.5t98.5 -235.5q0 -138 -97.5 -236t-236.5 -98q-138 0 -234.5 98t-96.5 236q0 139 97 235.5t234 96.5zM1788 629q137 0 235.5 -96.5t98.5 -235.5q0 -136 -98 -235t-236 -99t-235 98t-97 236t98 235t234 97zM854 297q0 -77 54 -131.5t130 -54.5q77 0 132 55
t55 131q0 77 -56 130.5t-133 53.5q-74 0 -128 -54t-54 -130zM1604 297q0 -76 54 -131t130 -55t131 54.5t55 131.5t-55 130.5t-131 53.5q-75 0 -129.5 -54t-54.5 -130z" />
    <glyph glyph-name="guilsinglleft" unicode="&#x2039;" horiz-adv-x="645" 
d="M535 856l-240 -358l242 -359l-127 -84l-299 443l297 442z" />
    <glyph glyph-name="guilsinglright" unicode="&#x203a;" horiz-adv-x="645" 
d="M236 940l299 -442l-297 -443l-127 84l239 359l-241 358z" />
    <glyph glyph-name="fraction" unicode="&#x2044;" horiz-adv-x="342" 
d="M682 1450l-899 -1516l-123 66l899 1516z" />
    <glyph glyph-name="Euro" unicode="&#x20ac;" horiz-adv-x="1138" 
d="M47 471l39 133h94q-2 8 -2 27v125q0 32 6 96h-135l43 137h117q54 232 202 359t361 127q176 0 303 -74l-43 -152q-104 68 -266 68q-138 0 -234.5 -83t-140.5 -245h565l-34 -137h-555q-9 -57 -9 -150q0 -90 2 -98h496l-35 -133h-448q27 -175 109 -259.5t233 -84.5
q157 0 256 121l100 -101q-62 -81 -160 -126.5t-204 -45.5q-435 0 -512 496h-148z" />
    <glyph glyph-name="uni20B9" unicode="&#x20b9;" horiz-adv-x="1138" 
d="M662 985h-500q0 23 1 68t1 67h500q-13 68 -61.5 112.5t-116.5 63.5t-158 19h-166v135h928v-135h-332q88 -73 100 -195h232v-135h-232q-21 -153 -135.5 -241t-310.5 -91l469 -653h-238q-73 106 -236 331.5t-243 342.5v114h123q159 0 256.5 50t118.5 147z" />
    <glyph glyph-name="uni20BA" unicode="&#x20ba;" horiz-adv-x="1138" 
d="M47 866v146l186 78v360h195v-276l391 167v-145l-391 -168v-186l391 166v-146l-391 -166v-538q12 -2 49 -2q214 0 326 159.5t112 440.5h195q0 -372 -165 -572t-482 -200q-140 0 -230 16v612l-186 -80v146l186 80v186z" />
    <glyph glyph-name="uni2113" unicode="&#x2113;" horiz-adv-x="1024" 
d="M178 315l-67 99l188 174v526q0 157 83 260t214 103q114 0 182 -76t68 -201q0 -152 -90 -309.5t-273 -333.5v-289q0 -74 38.5 -116.5t105.5 -42.5q84 0 180 77h4l66 -96q-128 -119 -293 -119q-133 0 -208 74t-75 197v190l-119 -117h-4zM483 1145v-428q211 243 211 471
q0 72 -28.5 118t-71.5 46q-49 0 -80 -58.5t-31 -148.5z" />
    <glyph glyph-name="trademark" unicode="&#x2122;" horiz-adv-x="2048" 
d="M899 606v844h244l227 -647h6l228 647h243v-844h-159v705h-5l-245 -705h-129l-246 705h-4v-705h-160zM324 1315h-254v135h667v-135h-254v-709h-159v709z" />
    <glyph glyph-name="Omega" unicode="&#x2126;" horiz-adv-x="1540" 
d="M94 158h389v127q-182 51 -285.5 204t-103.5 351q0 180 89.5 326.5t241.5 228.5t333 82q132 0 252 -45.5t210.5 -126t144.5 -200.5t54 -261q0 -203 -102.5 -354.5t-286.5 -204.5v-127h389v-158h-540v379q163 30 256.5 153t93.5 299q0 201 -133.5 338.5t-335.5 137.5
q-199 0 -336 -135t-137 -343q0 -178 90.5 -296.5t255.5 -153.5v-379h-539v158z" />
    <glyph glyph-name="estimated" unicode="&#x212e;" horiz-adv-x="1998" 
d="M1001 -39q-197 0 -359 60t-267.5 162t-163 235.5t-57.5 283.5t59 290t165 249t267.5 174.5t351.5 65.5q135 0 251 -24.5t201 -67.5t153 -103t112.5 -128.5t74 -147t42 -155.5t12.5 -157h-1366q-12 0 -12 -12v-389q0 -42 16 -61q84 -107 216 -164.5t298 -57.5
q168 0 298 63t253 179h148q-86 -104 -177 -166.5t-217.5 -95.5t-298.5 -33zM465 754q0 -13 12 -13h1045q12 0 12 13v397q0 28 -25 57q-50 63 -118 108t-140 68t-136 33t-126 10q-133 0 -266 -53t-238 -162q-20 -23 -20 -59v-399z" />
    <glyph glyph-name="partialdiff" unicode="&#x2202;" horiz-adv-x="1071" 
d="M459 1477q114 0 204.5 -42t150 -112t98.5 -167t56 -201t17 -220q0 -365 -124.5 -562.5t-362.5 -197.5q-184 0 -305 130.5t-121 330.5q0 196 116 319.5t299 123.5q179 0 320 -144l2 82q0 78 -11.5 150.5t-38 140t-65 117t-97 79t-130.5 29.5q-118 0 -238 -96l-96 113
q80 64 156 95.5t170 31.5zM242 428q0 -135 71.5 -226t188.5 -91q127 0 207.5 120.5t91.5 323.5q-48 88 -123 136t-170 48q-119 0 -192.5 -86t-73.5 -225z" />
    <glyph glyph-name="Delta" unicode="&#x2206;" horiz-adv-x="1388" 
d="M782 1458l584 -1458h-1343l565 1458h194zM274 170h832l-424 1085z" />
    <glyph glyph-name="product" unicode="&#x220f;" horiz-adv-x="1486" 
d="M135 -438v2048h1217v-2048h-185v1878h-845v-1878h-187z" />
    <glyph glyph-name="summation" unicode="&#x2211;" horiz-adv-x="1282" 
d="M1206 1610v-170h-884l598 -844l-637 -866h948v-168h-1180v147l647 887l-620 864v150h1128z" />
    <glyph glyph-name="minus" unicode="&#x2212;" horiz-adv-x="1363" 
d="M1229 700v-159h-1094v159h1094z" />
    <glyph glyph-name="uni2215" unicode="&#x2215;" horiz-adv-x="342" 
d="M682 1450l-899 -1516l-123 66l899 1516z" />
    <glyph glyph-name="uni2219" unicode="&#x2219;" horiz-adv-x="569" 
d="M285 756q54 0 94.5 -39t40.5 -96q0 -56 -40 -96t-95 -40t-95 40t-40 96q0 55 39.5 95t95.5 40z" />
    <glyph glyph-name="radical" unicode="&#x221a;" horiz-adv-x="1054" 
d="M1077 1610l-432 -2048h-176l-324 671l-98 -47l-67 144l253 119l295 -619l365 1780h184z" />
    <glyph glyph-name="infinity" unicode="&#x221e;" horiz-adv-x="1593" 
d="M1217 889q143 0 235 -97.5t92 -252.5q0 -157 -92 -257t-238 -100q-99 0 -185 49t-193 170q-123 -132 -201 -174.5t-174 -42.5q-150 0 -243 99t-93 254q0 153 92 251.5t236 98.5q99 0 185 -51.5t198 -182.5q102 125 192 180.5t189 55.5zM934 530q110 -104 174 -138
t125 -34q72 0 117 47.5t45 126.5q0 80 -46 131.5t-122 51.5q-59 0 -126.5 -42t-166.5 -143zM279 532q0 -79 45 -126.5t122 -47.5q121 0 293 172q-183 183 -303 183q-69 0 -113 -53t-44 -128z" />
    <glyph glyph-name="integral" unicode="&#x222b;" horiz-adv-x="1175" 
d="M725 1610q70 0 125 -36.5t55 -92.5q0 -38 -25.5 -62t-64.5 -24q-38 0 -58 21.5t-42 70.5q-10 20 -29 20q-28 0 -40.5 -40.5t-12.5 -137.5q0 -36 2 -98.5t2 -67.5v-1181q0 -418 -268 -418q-76 0 -124 33.5t-48 89.5q0 35 25.5 59.5t60.5 24.5q32 0 53 -17.5t29 -38
t18.5 -38t24.5 -17.5q51 0 51 184v45.5t-0.5 41.5t-1 33t-0.5 24v10v1040l-2 136q0 57 3 100.5t11.5 98t27 93.5t47 73.5t75 52.5t106.5 18z" />
    <glyph glyph-name="approxequal" unicode="&#x2248;" horiz-adv-x="1363" 
d="M1227 901q-17 -154 -89.5 -235.5t-191.5 -81.5q-41 0 -89 10.5t-83 22t-100 34.5q-8 3 -33.5 12t-35 12.5t-32.5 11.5t-34 11.5t-30 9.5t-31 9t-26.5 6t-26.5 4.5t-22 1.5q-55 0 -94 -41.5t-51 -109.5h-121q17 148 90.5 233.5t188.5 85.5q56 0 110 -14.5t162 -55.5
q190 -73 277 -73q57 0 94 37.5t49 109.5h119zM1227 492q-17 -153 -90 -235.5t-191 -82.5q-85 0 -272 68q-208 77 -271 77q-55 0 -94 -41t-51 -110h-121q17 148 90.5 233.5t188.5 85.5q56 0 110 -14t160 -53q198 -76 279 -76q57 0 94 38t49 110h119z" />
    <glyph glyph-name="notequal" unicode="&#x2260;" horiz-adv-x="1363" 
d="M82 221v172h362l129 252h-491v172h582l157 305l152 -75l-121 -230h278v-172h-366l-131 -252h497v-172h-585l-158 -305l-149 78l118 227h-274z" />
    <glyph glyph-name="lessequal" unicode="&#x2264;" horiz-adv-x="1363" 
d="M158 633v176l1048 375v-183l-813 -280l813 -275v-180zM158 16v172h1048v-172h-1048z" />
    <glyph glyph-name="greaterequal" unicode="&#x2265;" horiz-adv-x="1363" 
d="M971 721l-813 280v183l1048 -375v-176l-1048 -367v180zM158 16v172h1048v-172h-1048z" />
    <glyph glyph-name="lozenge" unicode="&#x25ca;" horiz-adv-x="1214" 
d="M690 1530l357 -801l-357 -801h-168l-354 801l354 801h168zM346 729l260 -625l262 625l-262 625z" />
    <glyph glyph-name="uni25CC" unicode="&#x25cc;" horiz-adv-x="942" 
d="M471 700q-55 0 -55 58q0 55 55 55t55 -55q0 -58 -55 -58zM293 655q-53 0 -53 60q0 53 53 53q59 0 59 -53q0 -60 -59 -60zM647 655q-59 0 -59 60q0 53 59 53q53 0 53 -53q0 -60 -53 -60zM164 526q-53 0 -53 58q0 55 53 55q57 0 57 -55q0 -58 -57 -58zM776 526
q-55 0 -55 58q0 55 55 55t55 -55q0 -58 -55 -58zM119 352q-53 0 -53 56q0 55 53 55q57 0 57 -55q0 -56 -57 -56zM821 352q-55 0 -55 56q0 55 55 55q56 0 56 -55q0 -56 -56 -56zM164 176q-53 0 -53 55q0 56 53 56q57 0 57 -56q0 -55 -57 -55zM776 176q-55 0 -55 55
q0 56 55 56t55 -56q0 -55 -55 -55zM293 47q-53 0 -53 55q0 56 53 56q59 0 59 -56q0 -55 -59 -55zM647 47q-59 0 -59 55q0 26 15.5 41t43.5 15q53 0 53 -56q0 -55 -53 -55zM471 2q-55 0 -55 55q0 58 55 58t55 -58q0 -55 -55 -55z" />
    <glyph glyph-name="uni274A" unicode="&#x274a;" horiz-adv-x="1292" 
d="M477 6l-143 70l196 366l-393 -96l-35 148l402 71l-334 250l102 127l310 -276l-15 415h162l-16 -415l315 270l96 -125l-333 -248l399 -76l-35 -149l-391 106l188 -370l-141 -70l-164 385z" />
    <glyph glyph-name="fi" unicode="&#xfb01;" horiz-adv-x="1138" 
d="M2 811v160h209v225q0 194 79.5 285.5t252.5 91.5q77 0 137 -14l-21 -164q-42 18 -104 18q-85 0 -121.5 -47t-36.5 -162v-233h219v-160h-221v-811h-184v811h-209zM799 971h184v-971h-184v971zM891 1184q-57 0 -96 39t-39 96q0 56 40 95.5t95 39.5t95 -40t40 -95
q0 -56 -40 -95.5t-95 -39.5z" />
    <glyph glyph-name="fl" unicode="&#xfb02;" horiz-adv-x="1138" 
d="M211 811h-209v160h209v225q0 194 79.5 285.5t252.5 91.5q77 0 137 -14l-21 -164q-42 18 -104 18q-85 0 -121.5 -47t-36.5 -162v-233h219v-160h-221v-811h-184v811zM801 0v1548h184v-1548h-184z" />
    <glyph glyph-name="uniFBB2" unicode="&#xfbb2;" 
d="M2 1118q-49 0 -78.5 31.5t-29.5 79.5q0 46 29.5 76t78.5 30q47 0 75.5 -30t28.5 -76q0 -48 -28.5 -79.5t-75.5 -31.5z" />
    <glyph glyph-name="uniFBB3" unicode="&#xfbb3;" 
d="M2 -393q-49 0 -78.5 30.5t-29.5 77.5q0 48 29.5 78.5t78.5 30.5q47 0 75.5 -30.5t28.5 -78.5q0 -47 -28.5 -77.5t-75.5 -30.5z" />
    <glyph glyph-name="uniFBB4" unicode="&#xfbb4;" 
d="M-150 1118q-46 0 -76 32t-30 79q0 46 30 76t76 30q47 0 78 -30t31 -76q0 -47 -31 -79t-78 -32zM152 1118q-47 0 -79 32t-32 79q0 46 32 76t79 30q46 0 75 -30t29 -76q0 -48 -29.5 -79.5t-74.5 -31.5z" />
    <glyph glyph-name="uniFBB5" unicode="&#xfbb5;" 
d="M-150 -393q-46 0 -76 31t-30 77q0 47 30 78t76 31q47 0 78 -31t31 -78q0 -46 -31 -77t-78 -31zM152 -393q-47 0 -79 31t-32 77q0 47 32 78t79 31q46 0 75 -31t29 -78q0 -46 -29.5 -77t-74.5 -31z" />
    <glyph glyph-name="uniFBB6" unicode="&#xfbb6;" 
d="M6 1358q-46 0 -76 31.5t-30 78.5q0 45 30.5 76t75.5 31q47 0 78 -31t31 -76q0 -47 -31 -78.5t-78 -31.5zM-150 1114q-46 0 -76 32t-30 79q0 46 30 77t76 31q47 0 78 -31t31 -77q0 -47 -31 -79t-78 -32zM152 1114q-47 0 -79 32t-32 79q0 46 32 77t79 31q45 0 74.5 -31
t29.5 -77q0 -48 -29.5 -79.5t-74.5 -31.5z" />
    <glyph glyph-name="uniFBB9" unicode="&#xfbb9;" 
d="M-150 -395q-46 0 -76 31.5t-30 78.5q0 46 30 76.5t76 30.5q47 0 78 -30.5t31 -76.5q0 -47 -31 -78.5t-78 -31.5zM152 -395q-47 0 -79 31.5t-32 78.5q0 46 32 76.5t79 30.5q45 0 74.5 -30.5t29.5 -76.5q0 -48 -29.5 -79t-74.5 -31zM4 -633q-46 0 -77 30.5t-31 76.5
q0 47 31 78.5t77 31.5q47 0 78 -31.5t31 -78.5q0 -46 -31 -76.5t-78 -30.5z" />
    <glyph glyph-name="uniFD3E" unicode="&#xfd3e;" horiz-adv-x="1048" 
d="M182 604q-121 59 -121 101q0 39 121 98v112q0 41 29 41q5 0 29 -18l147 -131q20 -14 29 -14q24 0 24 18q0 22 -16 35l-117 162q-11 17 -5.5 32t22.5 15h6l139 -23q22 82 90 187t144.5 188t147 141t99.5 58q17 0 17.5 -11t-13.5 -26q-128 -153 -203.5 -270t-99.5 -224
q-4 -13 -8 -47l98 12q2 0 7.5 1t7.5 1q21 0 24.5 -11.5t-10.5 -26.5l-129 -152q-23 -27 -23 -35q0 -14 21 -14h12q1 1 7.5 2.5t9.5 3.5l151 111q22 16 37 16q14 0 14 -21v-112q46 -16 84.5 -42t38.5 -56q0 -31 -38.5 -58t-84.5 -43v-115q0 -20 -14 -20q-15 0 -37 16
l-151 113q-3 2 -9.5 3.5t-7.5 2.5h-12q-21 0 -21 -16q0 -2 23 -37l129 -148q14 -15 10.5 -26.5t-24.5 -11.5q-2 0 -7.5 1t-7.5 1l-90 12h-8q35 -264 311 -541q10 -9 13 -17.5t-1.5 -14t-15.5 -5.5q-29 0 -99.5 58t-147 141t-144.5 188t-90 187l-139 -23h-6q-17 0 -23 15
t6 32l117 162q16 13 16 35q0 16 -24 16q-15 0 -29 -14l-147 -131q-16 -16 -29 -16q-29 0 -29 38v115zM498 975l-125 31l96 -140v56h45l41 65v-65h37v-54l129 131l-137 -26q10 80 67 215v86q-50 -52 -92 -137.5t-61 -161.5zM469 539l-96 -138l125 29q20 -75 61.5 -161.5
t91.5 -137.5v88q-57 132 -67 213l137 -26l-129 133v-58h-37v-63l-41 63h-45v58zM434 705q0 -41 35 -76q29 -25 61 -25q43 0 71 29t28 72q0 41 -29 69.5t-70 28.5q-38 0 -67 -30t-29 -68zM684 643l143 -108v106q117 32 117 64q0 19 -41 36.5t-76 24.5v106l-143 -108h82v-37
q35 -3 61 -25q-27 -19 -61 -22v-37h-82zM182 748q-69 -25 -69 -43q0 -13 42.5 -33.5t73.5 -30.5v-109l148 115h-90v35q-40 10 -58 23q16 10 58 20v33h90l-148 116v-108q-23 -8 -47 -18z" />
    <glyph glyph-name="uniFD3F" unicode="&#xfd3f;" horiz-adv-x="1048" 
d="M61 705q0 30 38.5 56t84.5 42v112q0 21 15 21t37 -16l151 -111q3 -2 9 -3.5t7 -2.5h13q20 0 20 14q0 9 -22 35l-129 152q-14 15 -10.5 26.5t24.5 11.5q2 0 7 -1t7 -1l99 -12q-3 28 -9 47q-24 107 -99.5 224t-203.5 270q-14 15 -13.5 26t17.5 11q40 0 143 -93t207 -233
t132 -248l139 23h6q17 0 22.5 -15t-5.5 -32l-117 -162q-17 -14 -17 -35q0 -18 25 -18q9 0 29 14l147 131q24 18 29 18q28 0 28 -41v-112q121 -59 121 -98q0 -42 -121 -101v-115q0 -38 -28 -38q-13 0 -29 16l-147 131q-14 14 -29 14q-25 0 -25 -16q0 -21 17 -35l117 -162
q12 -17 6 -32t-23 -15h-6l-139 23q-28 -108 -132 -248t-207 -233t-143 -93q-11 0 -15.5 5.5t-1.5 14t13 17.5q278 278 312 541h-9l-90 -12q-2 0 -7 -1t-7 -1q-21 0 -24.5 11.5t10.5 26.5l129 148q22 33 22 37q0 16 -20 16h-13q-1 -1 -7 -2.5t-9 -3.5l-151 -113
q-22 -16 -37 -16t-15 20v115q-46 16 -84.5 43t-38.5 58zM334 999l129 -131v54h37v65l41 -65h45v-56l96 140l-125 -31q-19 75 -61.5 161t-92.5 138v-86q59 -139 68 -215zM471 432q-9 -78 -68 -213v-88q50 51 92 137.5t62 161.5l125 -29l-96 138v-58h-45l-41 -63v63h-37v58
l-129 -133zM426 705q0 -43 28 -72t70 -29q33 0 62 25q35 35 35 76q0 38 -29.5 68t-67.5 30q-41 0 -69.5 -28.5t-28.5 -69.5zM227 641v-106l144 108h-82v37q-38 3 -62 27q31 17 62 20v37h82l-144 108v-106q-34 -7 -75 -24.5t-41 -36.5q0 -32 116 -64zM678 758h90v-33
q41 -10 57 -20q-18 -14 -57 -23v-35h-90l147 -115v109q31 10 74 30.5t43 33.5q0 18 -70 43q-24 10 -47 18v108z" />
    <glyph glyph-name="uniFEFF" unicode="&#xfeff;" 
 />
    <glyph glyph-name="uni066E.fina" horiz-adv-x="2058" 
d="M2058 168q41 0 41 -86q0 -82 -41 -82q-233 0 -319 137q-100 -137 -326 -137h-862q-220 0 -346.5 106.5t-126.5 286.5q0 148 65 324l162 -43q-45 -172 -45 -248q0 -129 82 -193.5t236 -64.5h802q127 0 185.5 59t58.5 199v414h180v-445q0 -227 254 -227z" />
    <glyph glyph-name="uniFBE9.wide" horiz-adv-x="679" 
d="M680 168q41 0 41 -86q0 -82 -41 -82q-234 0 -320 137q-97 -137 -342 -137h-18v168h20q124 0 175 59.5t51 204.5v408h180v-445q0 -227 254 -227z" />
    <glyph glyph-name="uniFBE8.wide" horiz-adv-x="595" 
d="M0 0v168h20q124 0 175 59.5t51 204.5v408h180v-437q0 -211 -101.5 -307t-306.5 -96h-18z" />
    <glyph glyph-name="uni06A1.fina" horiz-adv-x="2213" 
d="M80 393q0 148 65 324l162 -43q-45 -172 -45 -248q0 -129 82 -193.5t236 -64.5h677q59 0 86 4q-69 55 -111 134t-42 175q0 165 119 273t315 108q195 0 309.5 -107.5t114.5 -271.5q0 -191 -154 -313q13 0 40.5 -1t43.5 -1h236q41 0 41 -86q0 -82 -41 -82h-229
q-191 0 -369 37q-181 -37 -363 -37h-700q-220 0 -346.5 106.5t-126.5 286.5zM1374 481q0 -101 73.5 -176.5t170.5 -99.5q89 17 168.5 95.5t79.5 180.5q0 93 -68.5 150t-177.5 57q-110 0 -178 -56.5t-68 -150.5z" />
    <glyph glyph-name="uni06A1.medi" horiz-adv-x="1189" 
d="M0 168h233q59 0 86 4q-69 55 -111 134t-42 175q0 165 119 273t315 108q195 0 309.5 -107.5t114.5 -271.5q0 -191 -154 -313q13 0 40.5 -1t43.5 -1h236q41 0 41 -86q0 -82 -41 -82h-229q-191 0 -369 37q-181 -37 -363 -37h-229v168zM596 688q-110 0 -178 -56.5t-68 -150.5
q0 -101 73.5 -176.5t170.5 -99.5q89 17 168.5 95.5t79.5 180.5q0 93 -68.5 150t-177.5 57z" />
    <glyph glyph-name="uni06A1.init" horiz-adv-x="1148" 
d="M944 0h-944v168h242q-76 102 -76 254q0 191 124 315.5t331 124.5q87 0 157.5 -25.5t116.5 -68t77 -101t44.5 -121.5t13.5 -132q0 -198 -86 -414zM350 420q0 -134 90 -252h373q35 132 35 231q0 133 -60 211t-182 78t-189 -74t-67 -194z" />
    <glyph glyph-name="uni066F.fina" horiz-adv-x="1701" 
d="M76 139q0 133 49 273l166 -43q-31 -102 -31 -203q0 -114 51 -185.5t172 -110t320 -38.5q240 0 358.5 39.5t141.5 128.5h-148q-247 0 -367 107.5t-120 310.5q0 84 27.5 162.5t79.5 142t135.5 101.5t185.5 38q183 0 288 -110.5t105 -305.5v-278h213q41 0 41 -86
q0 -82 -41 -82h-225q-36 -186 -198 -264t-478 -78q-367 0 -546 120.5t-179 360.5zM852 422q0 -132 78.5 -193t238.5 -61h140v240q0 280 -228 280q-104 0 -166.5 -70t-62.5 -196z" />
    <glyph glyph-name="uni06C2.fina" horiz-adv-x="1105" 
d="M190 98q-122 116 -122 305q0 87 31 164t90.5 137t155 95t214.5 35h315v-467q0 -119 48 -159t184 -40q41 0 41 -86q0 -82 -41 -82h-102q-159 0 -238.5 82t-79.5 229v353h-127q-136 0 -222.5 -67t-86.5 -198q0 -61 18 -103.5t58 -88.5zM330 1087v113h92q-35 62 -35 127
q0 90 61.5 143.5t161.5 53.5q56 0 129 -15l-20 -110q-58 10 -86 10q-53 0 -91 -25t-38 -79q0 -49 35 -105h225v-113h-434z" />
    <glyph glyph-name="uni06C3.fina" horiz-adv-x="1140" 
d="M420 1077q-46 0 -76.5 32t-30.5 79q0 46 30.5 76t76.5 30q47 0 77.5 -30t30.5 -76q0 -48 -30.5 -79.5t-77.5 -31.5zM721 1077q-47 0 -79 32t-32 79q0 46 32 76t79 30q46 0 75 -30t29 -76q0 -48 -29.5 -79.5t-74.5 -31.5zM1141 168q41 0 41 -86q0 -82 -41 -82
q-279 0 -348 102q-132 -63 -279 -63q-196 0 -317 98t-121 275q0 190 132 309t365 119h357v-471q0 -118 45 -159.5t166 -41.5zM739 258v414h-198q-126 0 -203.5 -63t-77.5 -179q0 -109 70 -164t202 -55q131 0 207 47z" />
    <glyph glyph-name="uniFBAF.wide" horiz-adv-x="1591" 
d="M721 -532q-345 0 -504.5 84t-159.5 270q0 170 125.5 258t354.5 88h1054q41 0 41 -86q0 -82 -41 -82h-1073q-152 0 -220.5 -43.5t-68.5 -128.5q0 -68 49.5 -108.5t166 -60t317.5 -19.5q353 0 741 67l10 -168q-455 -71 -792 -71z" />
    <glyph glyph-name="uniFBB1.wide" horiz-adv-x="1591" 
d="M57 -178q0 170 125.5 258t354.5 88h1054q41 0 41 -86q0 -82 -41 -82h-1073q-152 0 -220.5 -43.5t-68.5 -128.5q0 -68 49.5 -108.5t166 -60t317.5 -19.5q353 0 741 67l10 -168q-455 -71 -792 -71q-345 0 -504.5 84t-159.5 270zM666 395h-336v88h71q-28 48 -28 97
q0 71 48 113t126 42q42 0 100 -12l-16 -86q-36 8 -66 8q-45 0 -72.5 -20t-27.5 -60q0 -33 27 -82h174v-88z" />
    <glyph glyph-name="uni06D5.fina" horiz-adv-x="1140" 
d="M1141 168q41 0 41 -86q0 -82 -41 -82q-279 0 -348 102q-132 -63 -279 -63q-196 0 -317 98t-121 275q0 190 132 309t365 119h357v-471q0 -118 45 -159.5t166 -41.5zM739 258v414h-198q-126 0 -203.5 -63t-77.5 -179q0 -109 70 -164t202 -55q131 0 207 47z" />
    <glyph glyph-name="uni06440671" horiz-adv-x="1357" 
d="M59 0v168h416v958h180v-958h127q128 0 187 60.5t59 199.5v1120h180v-1169q0 -178 -102 -278.5t-295 -100.5h-752zM276 1278v88h99v207h86v-88q72 96 178 96q75 0 120.5 -48.5t45.5 -131.5q0 -49 -23 -123h-506zM453 1366h260q6 21 6 39q0 42 -25.5 65t-66.5 23
q-49 0 -96 -34.5t-78 -92.5z" />
    <glyph glyph-name="uni06440671.fina" horiz-adv-x="1462" 
d="M59 0v168h416v958h180v-958h127q128 0 187 60.5t59 199.5v1120h180v-1153q0 -227 254 -227q41 0 41 -86q0 -82 -41 -82q-234 0 -321 139q-104 -139 -330 -139h-752zM276 1278v88h99v207h86v-88q72 96 178 96q75 0 120.5 -48.5t45.5 -131.5q0 -49 -23 -123h-506zM627 1493
q-49 0 -96 -34.5t-78 -92.5h260q6 21 6 39q0 42 -25.5 65t-66.5 23z" />
    <glyph glyph-name="uni0660.lf" horiz-adv-x="526" 
d="M264 434l-170 170l170 162l168 -164z" />
    <glyph glyph-name="uni0661.lf" horiz-adv-x="614" 
d="M217 0v1337h180v-1337h-180z" />
    <glyph glyph-name="uni0662.lf" horiz-adv-x="1097" 
d="M217 0v1337h180v-278q125 -55 246 -55q118 0 159.5 75.5t26.5 249.5l181 8q17 -258 -69 -378.5t-294 -120.5q-52 0 -108.5 11.5t-76.5 18t-65 23.5v-891h-180z" />
    <glyph glyph-name="uni0663.lf" horiz-adv-x="1302" 
d="M217 1337h180v-282q57 -23 123 -23q83 0 112.5 68t14.5 227l172 10q15 -175 -20 -284q56 -21 106 -21q86 0 116 67.5t15 227.5l176 10q37 -463 -270 -463q-114 0 -227 50q-62 -50 -160 -50q-82 0 -158 27v-901h-180v1337z" />
    <glyph glyph-name="uni0664.lf" horiz-adv-x="1038" 
d="M913 166l9 -166q-144 -16 -260 -16q-519 0 -519 321q0 114 69.5 212t197.5 167q-89 41 -146 115t-57 166q0 175 145.5 275.5t433.5 100.5q45 0 70 -2v-165q-29 2 -82 2q-194 0 -288.5 -57t-94.5 -158q0 -82 78.5 -133.5t220.5 -51.5q53 0 131 10l-2 -170
q-133 -11 -232.5 -41.5t-153 -71t-78.5 -82.5t-25 -85q0 -96 86.5 -138t273.5 -42q90 0 223 10z" />
    <glyph glyph-name="uni0665.lf" horiz-adv-x="1232" 
d="M616 -16q-83 0 -150.5 17t-126 57.5t-98.5 104.5t-62.5 162t-22.5 226q0 161 25 293.5t68 223t101.5 152.5t125 90.5t140.5 28.5q93 0 174.5 -46.5t146.5 -139t102.5 -247.5t37.5 -355q0 -128 -22.5 -226t-62.5 -162t-99 -104.5t-126.5 -57.5t-150.5 -17zM616 156
q134 0 205.5 99t71.5 304q0 273 -80.5 440.5t-196.5 167.5t-196 -167t-80 -441q0 -204 71.5 -303.5t204.5 -99.5z" />
    <glyph glyph-name="uni0666.lf" horiz-adv-x="1077" 
d="M680 0v1169h-617v168h797v-1337h-180z" />
    <glyph glyph-name="uni0667.lf" horiz-adv-x="1243" 
d="M969 1354l190 -54l-432 -1300h-207l-436 1303l190 51l349 -1100z" />
    <glyph glyph-name="uni0668.lf" horiz-adv-x="1243" 
d="M1159 27l-190 -52l-346 1102l-349 -1102l-190 54l432 1300h207z" />
    <glyph glyph-name="uni0669.lf" horiz-adv-x="1142" 
d="M125 928q0 191 117.5 300t324.5 109h359v-1337h-181v553q-78 -4 -108 -4q-252 0 -382 97t-130 282zM309 930q0 -104 87.5 -160.5t244.5 -56.5q49 0 104 6v450h-139q-143 0 -220 -62t-77 -177z" />
    <glyph glyph-name="uni06F0.lf" horiz-adv-x="526" 
d="M264 434l-170 170l170 162l168 -164z" />
    <glyph glyph-name="uni06F1.lf" horiz-adv-x="614" 
d="M217 0v1337h180v-1337h-180z" />
    <glyph glyph-name="uni06F2.lf" horiz-adv-x="1097" 
d="M217 0v1337h180v-278q125 -55 246 -55q118 0 159.5 75.5t26.5 249.5l181 8q17 -258 -69 -378.5t-294 -120.5q-52 0 -108.5 11.5t-76.5 18t-65 23.5v-891h-180z" />
    <glyph glyph-name="uni06F3.lf" horiz-adv-x="1302" 
d="M217 1337h180v-282q57 -23 123 -23q83 0 112.5 68t14.5 227l172 10q15 -175 -20 -284q56 -21 106 -21q86 0 116 67.5t15 227.5l176 10q37 -463 -270 -463q-114 0 -227 50q-62 -50 -160 -50q-82 0 -158 27v-901h-180v1337z" />
    <glyph glyph-name="uni06F4.lf" horiz-adv-x="1263" 
d="M217 1337h180v-329q125 -39 254 -50q-26 76 -26 140q0 126 70 191t206 65q91 0 191 -27l-41 -156q-67 23 -133 23q-67 0 -102.5 -34.5t-35.5 -100.5q0 -51 23 -109q186 0 354 33l21 -158q-198 -39 -390 -39q-211 0 -391 60v-846h-180v1337z" />
    <glyph glyph-name="uni06F5.lf" horiz-adv-x="1257" 
d="M465 -12q-309 0 -309 530q0 160 29 297t77.5 231.5t111 162t129 99t132.5 31.5q69 0 134.5 -30t126 -95.5t106.5 -160t73 -232.5t27 -303q0 -264 -80 -397t-209 -133q-100 0 -180 84q-84 -84 -168 -84zM498 158q26 0 52 13.5t47 28.5t32 17q9 -2 30 -17t48.5 -28.5
t58.5 -13.5q67 0 108 94t41 272q0 139 -23 261t-61.5 205t-89.5 131t-106 48q-75 0 -142.5 -85t-109 -234t-41.5 -322q0 -188 46 -279t110 -91z" />
    <glyph glyph-name="uni06F6.lf" horiz-adv-x="1026" 
d="M809 899l141 -119l-702 -829l-144 119l443 522q-183 28 -289 125t-106 244q0 175 142.5 277.5t422.5 102.5q39 0 84 -2v-165q-31 2 -86 2q-191 0 -285 -58.5t-94 -159.5q0 -86 91.5 -141t254.5 -67z" />
    <glyph glyph-name="uni06F7.lf" horiz-adv-x="1243" 
d="M969 1354l190 -54l-432 -1300h-207l-436 1303l190 51l349 -1100z" />
    <glyph glyph-name="uni06F8.lf" horiz-adv-x="1243" 
d="M1159 27l-190 -52l-346 1102l-349 -1102l-190 54l432 1300h207z" />
    <glyph glyph-name="uni06F9.lf" horiz-adv-x="1142" 
d="M125 928q0 191 117.5 300t324.5 109h359v-1337h-181v553q-78 -4 -108 -4q-252 0 -382 97t-130 282zM309 930q0 -104 87.5 -160.5t244.5 -56.5q49 0 104 6v450h-139q-143 0 -220 -62t-77 -177z" />
    <glyph glyph-name="uni06F4.urdu" horiz-adv-x="1105" 
d="M707 952q-79 217 -199 217q-57 0 -90 -46.5t-33 -135.5v-987h-180v985q0 185 78.5 279t205.5 94q66 0 121.5 -29t94.5 -74.5t77 -113.5q64 85 181 196l116 -118q-123 -114 -235 -267h-137z" />
    <glyph glyph-name="uni06F7.urdu" horiz-adv-x="1105" 
d="M221 0l-106 170l553 1169l176 -77l-527 -1094h654v-168h-750z" />
    <glyph glyph-name="uni06F4.urdu.lf" horiz-adv-x="1050" 
d="M678 952q-79 217 -199 217q-57 0 -90 -46.5t-33 -135.5v-987h-180v985q0 185 79 279t206 94q66 0 121.5 -29t94.5 -74.5t77 -113.5q66 89 180 196l117 -118q-126 -117 -236 -267h-137z" />
    <glyph glyph-name="uni06F7.urdu.lf" horiz-adv-x="985" 
d="M180 0l-106 170l553 1169l176 -77l-527 -1094h654v-168h-750z" />
    <glyph glyph-name="acute.case" horiz-adv-x="491" 
d="M586 1851l-305 -295h-170l213 295h262z" />
    <glyph glyph-name="breve.case" horiz-adv-x="491" 
d="M-76 1835h113q12 -70 69 -108.5t142 -38.5t142 38.5t69 108.5h108q-9 -136 -95 -209.5t-226 -73.5t-225 73.5t-97 209.5z" />
    <glyph glyph-name="caron.case" horiz-adv-x="491" 
d="M-92 1851h178l160 -196l151 196h187l-230 -295h-217z" />
    <glyph glyph-name="circumflex.case" horiz-adv-x="491" 
d="M94 1556h-186l229 295h217l230 -295h-187l-151 197z" />
    <glyph glyph-name="dieresis.case" horiz-adv-x="491" 
d="M37 1839q52 0 89.5 -34t37.5 -83q0 -55 -35.5 -92t-91.5 -37t-91.5 37t-35.5 92q0 46 37.5 81.5t89.5 35.5zM455 1839q52 0 89.5 -35.5t37.5 -81.5q0 -56 -36 -92.5t-91 -36.5q-54 0 -90.5 37t-36.5 92q0 47 37 82t90 35z" />
    <glyph glyph-name="dotaccent.case" horiz-adv-x="491" 
d="M246 1837q52 0 89.5 -35.5t37.5 -81.5q0 -56 -36 -92.5t-91 -36.5t-91 36.5t-36 92.5q0 48 37.5 82.5t89.5 34.5z" />
    <glyph glyph-name="grave.case" horiz-adv-x="491" 
d="M168 1851l213 -295h-170l-305 295h262z" />
    <glyph glyph-name="hungarumlaut.case" horiz-adv-x="491" 
d="M412 1556h-168l213 295h260zM66 1556h-168l213 295h260z" />
    <glyph glyph-name="macron.case" horiz-adv-x="491" 
d="M541 1749v-135h-590v135h590z" />
    <glyph glyph-name="ring.case" horiz-adv-x="491" 
d="M246 1913q86 0 147.5 -58t61.5 -143q0 -86 -60.5 -144.5t-148.5 -58.5q-83 0 -146 59t-63 142q0 84 62 143.5t147 59.5zM123 1710q0 -49 37.5 -82t85.5 -33q47 0 85 33.5t38 81.5q0 50 -35.5 83.5t-87.5 33.5t-87.5 -33.5t-35.5 -83.5z" />
    <glyph glyph-name="tilde.case" horiz-adv-x="491" 
d="M590 1798q-17 -101 -67.5 -157t-125.5 -56q-11 0 -22.5 1t-20.5 2.5t-22 5t-20 5.5t-21.5 7t-19.5 7t-20.5 8t-19.5 7q-10 4 -29 11.5t-29 11t-24.5 8t-27 6.5t-25.5 2q-34 0 -59 -24.5t-37 -65.5h-98q17 98 73 155.5t134 57.5q10 0 21 -1t19 -2t20 -4.5t18 -5t20 -6.5
t17 -6t19 -7t17 -7q11 -5 32 -14t33.5 -14.5t31 -10t34.5 -4.5q75 0 101 90h98z" />
    <glyph glyph-name="waslaar" 
d="M-264 1108v88h98v207h86v-88q72 96 178 96q75 0 120.5 -48.5t45.5 -131.5q0 -52 -22 -123h-506zM86 1323q-49 0 -96 -34.5t-78 -92.5h260q6 21 6 39q0 42 -25.5 65t-66.5 23z" />
    <glyph glyph-name="gafsarkashabovear" 
d="M-203 803l-112 112l522 496l108 -111z" />
    <glyph glyph-name="uni0654.big" 
d="M-217 1247h92q-35 62 -35 127q0 90 61.5 143.5t161.5 53.5q57 0 130 -15l-21 -110q-58 10 -86 10q-53 0 -91 -25t-38 -79q0 -49 35 -105h225v-112h-434v112z" />
    <glyph glyph-name="uni0654064F" 
d="M-47 1554q-64 0 -121 31l35 76q48 -23 86 -23q83 0 121 84q-8 -2 -25 -2q-67 0 -112.5 32.5t-45.5 94.5q0 65 43.5 114.5t106.5 49.5q60 0 97.5 -52t37.5 -136q0 -129 -65 -199t-158 -70zM168 1108h-336v88h72q-29 50 -29 96q0 71 48.5 113.5t125.5 42.5q43 0 101 -12
l-17 -86q-36 8 -65 8q-45 0 -73 -20t-28 -60q0 -33 27 -82h174v-88zM33 1927q-29 0 -46.5 -21t-17.5 -48q0 -56 94 -56q23 0 33 2v17q0 45 -16 75.5t-47 30.5z" />
    <glyph glyph-name="uni0654064C" 
d="M-274 1632l-56 49q68 101 142 101q26 0 50 -15t43 -36t37 -42t39.5 -36t43.5 -15q71 0 114 84q-8 -2 -26 -2q-65 0 -109.5 32.5t-44.5 94.5q0 65 42.5 114.5t102.5 49.5q61 0 98.5 -51.5t37.5 -136.5q0 -122 -68 -195.5t-154 -73.5q-42 0 -77 22.5t-54.5 49.5t-41.5 49.5
t-40 22.5q-31 0 -79 -66zM168 1108h-336v88h72q-29 50 -29 96q0 71 48.5 113.5t125.5 42.5q43 0 101 -12l-17 -86q-36 8 -65 8q-45 0 -73 -20t-28 -60q0 -33 27 -82h174v-88zM98 1927q-28 0 -44.5 -21t-16.5 -48q0 -56 90 -56q23 0 33 2v17q0 47 -15 76.5t-47 29.5z" />
    <glyph glyph-name="uni0654064E" 
d="M-168 1196h72q-29 50 -29 96q0 71 48.5 113.5t125.5 42.5q43 0 101 -12l-17 -86q-36 8 -65 8q-45 0 -73 -20t-28 -60q0 -33 27 -82h174v-88h-336v88zM-227 1544l14 84l459 70l6 -2l-14 -84l-459 -70z" />
    <glyph glyph-name="uni0654064B" 
d="M168 1108h-336v88h72q-29 50 -29 96q0 71 48.5 113.5t125.5 42.5q43 0 101 -12l-17 -86q-36 8 -65 8q-45 0 -73 -20t-28 -60q0 -33 27 -82h174v-88zM-221 1542l-6 2l14 84l459 70l6 -2l-14 -84zM-221 1737l-6 2l14 84l459 69l6 -2l-14 -84z" />
    <glyph glyph-name="uni06540652" 
d="M-115 1692q0 67 40.5 120.5t105.5 53.5t105 -53.5t40 -120.5q0 -68 -37.5 -106t-107.5 -38t-108 38t-38 106zM-168 1196h72q-29 50 -29 96q0 71 48.5 113.5t125.5 42.5q43 0 101 -12l-17 -86q-36 8 -65 8q-45 0 -73 -20t-28 -60q0 -33 27 -82h174v-88h-336v88zM31 1776
q-27 0 -43.5 -22.5t-16.5 -55.5q0 -62 60 -62q59 0 59 62q0 34 -15.5 56t-43.5 22z" />
    <glyph glyph-name="uni06550650" 
d="M-168 -512v86h72q-29 53 -29 98q0 71 48.5 113.5t125.5 42.5q43 0 101 -12l-17 -86q-36 8 -65 8q-45 0 -73 -20t-28 -60q0 -37 29 -84h172v-86h-336zM-221 -780l-6 2l14 86l459 69l6 -2l-14 -86z" />
    <glyph glyph-name="uni0655064D" 
d="M168 -512h-336v86h72q-29 53 -29 98q0 71 48.5 113.5t125.5 42.5q43 0 101 -12l-17 -86q-36 8 -65 8q-45 0 -73 -20t-28 -60q0 -37 29 -84h172v-86zM-221 -954l-6 2l14 86l459 69l6 -2l-14 -86zM-221 -780l-6 2l14 86l459 69l6 -2l-14 -86z" />
    <glyph glyph-name="uni06510670" 
d="M39 1468l-78 -24h-12v362h90v-338zM209 1407q31 -58 31 -121q0 -64 -34 -103.5t-93 -39.5q-58 0 -99 37q-37 -56 -110 -56q-69 0 -106.5 37t-37.5 99q0 46 23 102l59 -16q-8 -31 -8 -56q0 -71 70 -71q57 0 57 73q0 23 -2 37l64 14q12 -43 12 -77v-4q27 -27 67 -27
q60 0 60 59q0 35 -17 88z" />
    <glyph glyph-name="uni0651064F" 
d="M150 1704q0 -129 -65.5 -198.5t-158.5 -69.5q-66 0 -121 30l35 76q46 -22 86 -22q83 0 121 84q-8 -2 -24 -2q-67 0 -112.5 32.5t-45.5 94.5q0 65 43 114t106 49q60 0 98 -52t38 -136zM37 1683q18 0 33 3v16q0 44 -16.5 75t-47.5 31q-29 0 -46 -21t-17 -48q0 -56 94 -56z
M209 1407q31 -58 31 -121q0 -64 -34 -103.5t-93 -39.5q-58 0 -99 37q-37 -56 -110 -56q-69 0 -106.5 37t-37.5 99q0 46 23 102l59 -16q-8 -31 -8 -56q0 -71 70 -71q57 0 57 73q0 23 -2 37l64 14q12 -43 12 -77v-4q27 -27 67 -27q60 0 60 59q0 35 -17 88z" />
    <glyph glyph-name="uni0651064C" 
d="M-8 1436q-42 0 -77 22.5t-54.5 49t-41.5 49t-40 22.5q-32 0 -80 -66l-55 50q67 100 141 100q31 0 61.5 -22.5t50.5 -49t47 -49t54 -22.5q72 0 115 84q-8 -2 -27 -2q-65 0 -109.5 32.5t-44.5 94.5q0 64 43 113.5t103 49.5q61 0 98 -51.5t37 -136.5q0 -122 -67.5 -195
t-153.5 -73zM100 1683q18 0 33 3v16q0 106 -61 106q-28 0 -45 -21t-17 -48q0 -56 90 -56zM209 1407q31 -58 31 -121q0 -64 -34 -103.5t-93 -39.5q-58 0 -99 37q-37 -56 -110 -56q-69 0 -106.5 37t-37.5 99q0 46 23 102l59 -16q-8 -31 -8 -56q0 -71 70 -71q57 0 57 73
q0 23 -2 37l64 14q12 -43 12 -77v-4q27 -27 67 -27q60 0 60 59q0 35 -17 88z" />
    <glyph glyph-name="uni0651064E" 
d="M225 1577l-14 -84l-459 -70l-6 2l14 84l459 70zM209 1407q31 -58 31 -121q0 -64 -34 -103.5t-93 -39.5q-58 0 -99 37q-37 -56 -110 -56q-69 0 -106.5 37t-37.5 99q0 46 23 102l59 -16q-8 -31 -8 -56q0 -71 70 -71q57 0 57 73q0 23 -2 37l64 14q12 -43 12 -77v-4
q27 -27 67 -27q60 0 60 59q0 35 -17 88z" />
    <glyph glyph-name="uni0651064B.1" 
d="M211 1688l-459 -70l-6 2l14 84l459 70l6 -2zM225 1577l-14 -84l-459 -70l-6 2l14 84l459 70zM209 1407q31 -58 31 -121q0 -64 -34 -103.5t-93 -39.5q-58 0 -99 37q-37 -56 -110 -56q-69 0 -106.5 37t-37.5 99q0 46 23 102l59 -16q-8 -31 -8 -56q0 -71 70 -71q57 0 57 73
q0 23 -2 37l64 14q12 -43 12 -77v-4q27 -27 67 -27q60 0 60 59q0 35 -17 88z" />
    <glyph glyph-name="uni06510650" 
d="M-82 1319q-69 0 -106 36.5t-37 98.5q0 48 22 102l60 -16q-9 -34 -9 -55q0 -72 70 -72q57 0 57 74q0 23 -2 37l64 14q12 -44 12 -78v-4q26 -26 68 -26q32 0 45.5 15t13.5 44q0 38 -16 88l63 25q31 -58 31 -121q0 -64 -34 -104t-93 -40q-57 0 -98 37q-36 -55 -111 -55z
M-225 1198l458 70l7 -2l-15 -84l-458 -70l-7 2z" />
    <glyph glyph-name="uni0651064D" 
d="M-82 1513q-69 0 -106 37t-37 99q0 48 22 102l60 -16q-9 -35 -9 -56q0 -71 70 -71q57 0 57 73q0 23 -2 37l64 15q12 -43 12 -78v-4q27 -27 68 -27q32 0 45.5 15t13.5 44q0 39 -16 89l63 24q31 -58 31 -121q0 -64 -34 -103.5t-93 -39.5q-57 0 -98 37q-37 -56 -111 -56z
M-225 1393l458 69l7 -2l-15 -84l-458 -69l-7 2zM-225 1198l458 70l7 -2l-15 -84l-458 -70l-7 2z" />
    </font>
</defs>
</svg>
