<?xml version="1.0" standalone="no"?>
<!DOCTYPE svg PUBLIC "-//W3C//DTD SVG 1.1//EN" "http://www.w3.org/Graphics/SVG/1.1/DTD/svg11.dtd" >
<svg xmlns="http://www.w3.org/2000/svg" xmlns:xlink="http://www.w3.org/1999/xlink" version="1.1">
<metadata>
Created by FontForge 20150913 at Tue Apr 12 17:50:50 2016
 By Jimmy Wärting
Copyright (C) 2000, 2007 Hoefler &#38; Co. http://www.typography.com
</metadata>
<defs>
<font id="Archer-Semibold" horiz-adv-x="353" >
  <font-face 
    font-family="Archer Semibold"
    font-weight="375"
    font-stretch="normal"
    units-per-em="1000"
    panose-1="0 0 0 0 0 0 0 0 0 0"
    ascent="800"
    descent="-200"
    x-height="431"
    cap-height="658"
    bbox="-51 -301 1453 1081"
    underline-thickness="50"
    underline-position="-100"
    stemh="73"
    stemv="86"
    unicode-range="U+0020-FB04"
  />
<missing-glyph horiz-adv-x="500" 
d="M0 -200v1000h500v-1000h-500zM71 750l179 -390l179 390h-358zM50 -76l172 376l-172 376v-752zM450 676l-172 -376l172 -376v752zM250 240l-179 -390h358z" />
    <glyph glyph-name="f_b" unicode="fb" horiz-adv-x="869" 
d="M487 735v-357c34 34 75 61 138 61c113 0 204 -91 204 -223c0 -124 -90 -224 -213 -224c-55 0 -100 20 -137 52l-22 -45h-56v358h-207v-285h80v-72h-233v72h67v285h-75v74h75v102c0 65 17 117 51 153c34 35 81 54 139 54c47 0 86 -14 115 -39l18 34h56zM606 67
c73 0 134 56 134 149c0 91 -57 148 -132 148c-49 0 -89 -23 -121 -55v-201c31 -23 70 -41 119 -41zM359 602c0 12 3 25 11 35c-17 17 -43 28 -73 28s-55 -11 -73 -29c-20 -21 -30 -55 -30 -95v-110h207v108v6c-24 7 -42 31 -42 57z" />
    <glyph glyph-name="f_f" unicode="ff" horiz-adv-x="617" 
d="M194 431h209v110c0 73 13 121 50 157c27 27 62 42 107 42c50 0 86 -25 86 -64c0 -33 -23 -53 -50 -53c-30 0 -48 18 -57 41c-11 -3 -21 -10 -29 -19c-14 -19 -22 -46 -22 -88v-126h112v-74h-112v-285h84v-72h-233v72h64v285h-209v-285h80v-72h-233v72h67v285h-75v74h75
v90c0 71 17 127 50 159c26 27 57 40 101 40c50 0 86 -25 86 -64c0 -33 -23 -53 -50 -53c-29 0 -47 15 -57 41c-8 -3 -16 -8 -23 -16c-14 -18 -21 -49 -21 -91v-106z" />
    <glyph glyph-name="f_h" unicode="fh" horiz-adv-x="865" 
d="M401 72v285h-207v-285h80v-72h-233v72h67v285h-75v74h75v102c0 65 17 117 51 153c34 35 81 54 139 54c47 0 86 -14 115 -39l18 34h56v-376c41 44 92 80 153 80c49 0 86 -17 108 -46c19 -25 29 -59 29 -99v-222h67v-72h-217v72h64v203c0 28 -6 47 -17 61
c-13 16 -33 24 -59 24c-47 0 -92 -28 -128 -65v-223h64v-72h-216v72h66zM359 602c0 12 3 25 11 35c-17 17 -43 28 -73 28s-55 -11 -73 -29c-20 -21 -30 -55 -30 -95v-110h207v108v6c-24 7 -42 31 -42 57z" />
    <glyph glyph-name="fi" unicode="fi" horiz-adv-x="588" 
d="M486 431v-359h69v-72h-221v72h66v285h-206v-285h80v-72h-233v72h67v285h-75v74h75v98c0 74 20 130 57 165c30 29 71 46 117 46c68 0 106 -37 106 -79c0 -30 -25 -56 -56 -56c-33 0 -57 29 -56 61h-4c-15 0 -36 -7 -53 -28c-15 -19 -25 -49 -25 -93v-114h292z" />
    <glyph glyph-name="f_j" unicode="fj" horiz-adv-x="556" 
d="M400 357h-206v-285h80v-72h-233v72h67v285h-75v74h75v98c0 74 20 130 57 165c30 29 71 46 117 46c68 0 106 -37 106 -79c0 -30 -25 -56 -56 -56c-33 0 -57 29 -56 61h-4c-15 0 -36 -7 -53 -28c-15 -19 -25 -49 -25 -93v-114h292v-422c0 -50 -8 -89 -21 -120
c-27 -61 -77 -89 -137 -89c-65 0 -97 35 -97 71c0 28 21 53 51 53s50 -23 50 -53v-3c29 1 48 22 58 54c7 23 10 50 10 80v355z" />
    <glyph glyph-name="f_k" unicode="fk" horiz-adv-x="841" 
d="M487 735v-510l156 136h-73v70h248v-74h-78l-120 -103l123 -180h75v-74h-126l-135 206l-70 -60v-75h63v-71h-215v72h66v285h-207v-285h80v-72h-233v72h67v285h-75v74h75v102c0 65 17 117 51 153c34 35 81 54 139 54c47 0 86 -14 115 -39l18 34h56zM194 541v-110h207v108v6
c-24 7 -42 31 -42 57c0 12 3 25 11 35c-17 17 -43 28 -73 28s-55 -11 -73 -29c-20 -21 -30 -55 -30 -95z" />
    <glyph glyph-name="fl" unicode="fl" horiz-adv-x="586" 
d="M333 72h68v285h-207v-285h80v-72h-233v72h67v285h-75v74h75v102c0 65 17 117 51 153c34 35 81 54 139 54c47 0 86 -14 115 -39l18 34h56v-663h69v-72h-223v72zM297 665c-30 0 -55 -11 -73 -29c-20 -21 -30 -55 -30 -95v-110h207v108v6c-24 7 -42 31 -42 57
c0 12 3 25 11 35c-17 17 -43 28 -73 28z" />
    <glyph glyph-name="f_f_b" unicode="ffb" horiz-adv-x="1161" 
d="M779 735v-357c34 34 75 61 138 61c113 0 204 -91 204 -223c0 -124 -90 -224 -213 -224c-55 0 -100 20 -136 52l-23 -45h-56v358h-207v-285h84v-72h-234v72h65v285h-207v-285h80v-72h-233v72h67v285h-75v74h75v98c0 58 13 106 46 141c30 32 69 50 125 50
c23 0 44 -4 60 -11c30 -13 47 -35 47 -65s-21 -50 -49 -50s-50 19 -55 51h-3c-27 0 -48 -9 -62 -26c-17 -21 -23 -49 -23 -83v-105h207v102c0 65 17 117 51 153c34 35 80 54 138 54c48 0 87 -13 116 -38l17 33h56zM898 67c73 0 134 56 134 149c0 91 -57 148 -132 148
c-49 0 -89 -23 -121 -55v-201c31 -23 70 -41 119 -41zM652 602c0 13 4 25 11 35c-18 17 -44 28 -73 28c-30 0 -56 -11 -73 -29c-21 -21 -31 -55 -31 -95v-110h207v108v6c-24 7 -41 31 -41 57zM327 629c-1 0 -1 0 -2 1z" />
    <glyph glyph-name="f_f_h" unicode="ffh" horiz-adv-x="1158" 
d="M779 735v-376c41 44 93 80 154 80c49 0 85 -17 108 -46c19 -25 28 -59 28 -99v-222h67v-72h-217v72h64v203c0 28 -5 47 -16 61c-13 16 -34 24 -59 24c-47 0 -92 -28 -129 -65v-223h64v-72h-216v72h66v285h-207v-285h81v-72h-231v72h65v285h-207v-285h80v-72h-233v72h67
v285h-75v74h75v98c0 58 13 106 46 141c30 32 69 50 125 50c23 0 44 -4 60 -11c30 -13 47 -35 47 -65s-21 -50 -49 -50s-50 19 -55 51h-3c-27 0 -48 -9 -62 -26c-17 -21 -23 -49 -23 -83v-105h207v102c0 65 17 117 51 153c34 35 80 54 138 54c48 0 87 -13 116 -38l17 33h56z
M486 541v-110h207v108v6c-24 7 -41 31 -41 57c0 13 4 25 11 35c-18 17 -44 28 -73 28c-30 0 -56 -11 -73 -29c-21 -21 -31 -55 -31 -95zM327 629c-1 0 -1 0 -2 1z" />
    <glyph glyph-name="f_f_i" unicode="ffi" horiz-adv-x="881" 
d="M680 661c0 -30 -24 -56 -56 -56c-33 0 -57 30 -55 59c-3 1 -5 1 -7 1c-14 0 -32 -6 -47 -23s-29 -49 -29 -97v-114h292v-359h69v-72h-220v72h66v285h-207v-285h80v-72h-230v72h65v285h-207v-285h80v-72h-233v72h67v285h-75v74h75v98c0 58 13 106 46 141
c30 32 69 50 125 50c23 0 44 -4 60 -11c30 -13 47 -35 47 -65s-21 -50 -49 -50s-50 19 -55 51h-3c-27 0 -48 -9 -62 -26c-17 -21 -23 -49 -23 -83v-105h207v98c0 74 20 130 56 165c30 29 72 46 117 46c69 0 106 -37 106 -79z" />
    <glyph glyph-name="f_f_j" unicode="ffj" horiz-adv-x="848" 
d="M778 431v-422c0 -50 -7 -89 -21 -120c-26 -61 -77 -89 -137 -89c-64 0 -97 35 -97 71c0 28 22 53 51 53c30 0 50 -23 50 -53v-3c29 1 48 22 58 54c8 23 11 50 11 80v355h-207v-285h80v-72h-230v72h65v285h-207v-285h80v-72h-233v72h67v285h-75v74h75v98
c0 58 13 106 46 141c30 32 69 50 125 50c23 0 44 -4 60 -11c30 -13 47 -35 47 -65s-21 -50 -49 -50s-50 19 -55 51h-3c-27 0 -48 -9 -62 -26c-17 -21 -23 -49 -23 -83v-105h207v98c0 74 20 130 56 165c30 29 72 46 117 46c69 0 106 -37 106 -79c0 -30 -24 -56 -56 -56
c-33 0 -57 30 -55 59c-3 1 -5 1 -7 1c-14 0 -32 -6 -47 -23s-29 -49 -29 -97v-114h292z" />
    <glyph glyph-name="f_f_k" unicode="ffk" horiz-adv-x="1133" 
d="M779 735v-510l157 136h-74v70h249v-74h-78l-121 -103l123 -180h76v-74h-126l-136 206l-70 -60v-75h63v-71h-215v72h66v285h-207v-285h81v-72h-231v72h65v285h-207v-285h80v-72h-233v72h67v285h-75v74h75v98c0 58 13 106 46 141c30 32 69 50 125 50c23 0 44 -4 60 -11
c30 -13 47 -35 47 -65s-21 -50 -49 -50s-50 19 -55 51h-3c-27 0 -48 -9 -62 -26c-17 -21 -23 -49 -23 -83v-105h207v102c0 65 17 117 51 153c34 35 80 54 138 54c48 0 87 -13 116 -38l17 33h56zM486 541v-110h207v108v6c-24 7 -41 31 -41 57c0 13 4 25 11 35
c-18 17 -44 28 -73 28c-30 0 -56 -11 -73 -29c-21 -21 -31 -55 -31 -95zM327 629c-1 0 -1 0 -2 1z" />
    <glyph glyph-name="f_f_l" unicode="ffl" horiz-adv-x="878" 
d="M194 536v-105h207v102c0 65 17 117 51 153c34 35 80 54 138 54c48 0 87 -13 116 -38l17 33h56v-663h69v-72h-222v72h67v285h-207v-285h81v-72h-231v72h65v285h-207v-285h80v-72h-233v72h67v285h-75v74h75v98c0 58 13 106 46 141c30 32 69 50 125 50c23 0 44 -4 60 -11
c30 -13 47 -35 47 -65s-21 -50 -49 -50s-50 19 -55 51h-3c-27 0 -48 -9 -62 -26c-17 -21 -23 -49 -23 -83zM486 541v-110h207v108v6c-24 7 -41 31 -41 57c0 13 4 25 11 35c-18 17 -44 28 -73 28c-30 0 -56 -11 -73 -29c-21 -21 -31 -55 -31 -95zM327 629c-1 0 -1 0 -2 1z
" />
    <glyph glyph-name=".notdef" horiz-adv-x="500" 
d="M0 -200v1000h500v-1000h-500zM71 750l179 -390l179 390h-358zM50 -76l172 376l-172 376v-752zM450 676l-172 -376l172 -376v752zM250 240l-179 -390h358z" />
    <glyph glyph-name="A" unicode="A" horiz-adv-x="702" 
d="M16 0v81h60l183 497h-73v80h330v-80h-74l183 -497h61v-81h-234v80h76l-49 139h-260l-49 -139h80v-80h-234zM245 295h208l-104 287z" />
    <glyph glyph-name="B" unicode="B" horiz-adv-x="601" 
d="M43 0v81h80v496h-80v81h263c159 0 230 -77 230 -169c0 -78 -49 -129 -117 -151c85 -24 136 -73 136 -156c0 -106 -86 -182 -237 -182h-275zM213 79h107c89 0 143 42 143 109c0 72 -58 110 -156 110h-94v-219zM213 371h88c94 0 143 43 143 108c0 63 -50 100 -140 100h-91
v-208z" />
    <glyph glyph-name="C" unicode="C" horiz-adv-x="702" 
d="M394 -12c-203 0 -342 148 -342 339c0 201 155 343 339 343c144 0 250 -82 250 -161c0 -42 -28 -71 -64 -71c-37 0 -64 24 -64 60c0 17 8 31 17 38c-18 22 -67 51 -141 51c-141 0 -244 -116 -244 -259c0 -137 100 -257 249 -257c78 0 142 32 197 86l57 -63
c-65 -68 -158 -106 -254 -106z" />
    <glyph glyph-name="D" unicode="D" horiz-adv-x="721" 
d="M43 0v81h80v496h-80v81h247c234 0 379 -126 379 -323c0 -199 -137 -335 -385 -335h-241zM214 81h82c185 0 280 102 280 255c0 152 -112 241 -288 241h-74v-496z" />
    <glyph glyph-name="E" unicode="E" horiz-adv-x="583" 
d="M43 0v81h80v496h-80v81h483v-172h-86v92h-226v-204h208v-78h-208v-216h226v92h87v-172h-484z" />
    <glyph glyph-name="F" unicode="F" horiz-adv-x="564" 
d="M43 0v81h80v496h-80v81h477v-172h-87v92h-219v-216h204v-79h-204v-202h89v-81h-260z" />
    <glyph glyph-name="G" unicode="G" horiz-adv-x="732" 
d="M370 -12c-164 0 -318 127 -318 337c0 206 156 345 343 345c150 0 250 -81 250 -155c0 -42 -27 -70 -62 -70c-37 0 -64 25 -64 61c0 15 5 28 13 36c-23 22 -71 45 -140 45c-144 0 -247 -111 -247 -261c0 -155 111 -257 237 -257c72 0 129 20 180 54v129h-175v77h264v-329
h-87v53c-52 -39 -114 -65 -194 -65z" />
    <glyph glyph-name="H" unicode="H" horiz-adv-x="767" 
d="M43 0v81h80v496h-80v81h255v-81h-84v-202h339v202h-84v81h255v-81h-80v-496h80v-81h-255v81h84v215h-339v-215h84v-81h-255z" />
    <glyph glyph-name="I" unicode="I" horiz-adv-x="348" 
d="M43 0v81h86v496h-86v81h261v-81h-85v-496h85v-81h-261z" />
    <glyph glyph-name="J" unicode="J" horiz-adv-x="534" 
d="M223 -12c-107 0 -194 71 -194 163c0 48 28 81 67 81c31 0 58 -25 58 -58c0 -22 -13 -41 -30 -48c6 -25 39 -55 99 -55c31 0 59 9 79 29c24 25 35 65 35 121v356h-101v81h266v-81h-76v-357c0 -77 -20 -140 -58 -178c-37 -36 -86 -54 -145 -54z" />
    <glyph glyph-name="K" unicode="K" horiz-adv-x="677" 
d="M43 0v81h80v496h-80v81h255v-79h-84v-260l258 260h-83v79h270v-81h-73l-201 -199l192 -297h84v-81h-142l-202 317l-103 -102v-134h84v-81h-255z" />
    <glyph glyph-name="L" unicode="L" horiz-adv-x="552" 
d="M43 0v81h80v496h-80v81h260v-81h-89v-497h208v97h87v-177h-466z" />
    <glyph glyph-name="M" unicode="M" horiz-adv-x="874" 
d="M38 0v81h82l23 496h-86v81h169l210 -413l210 413h167v-81h-85l22 -496h83v-81h-254v81h81l-15 409l-202 -390h-17l-202 390l-15 -409h81v-81h-252z" />
    <glyph glyph-name="N" unicode="N" horiz-adv-x="755" 
d="M595 -3l-384 500v-416h84v-81h-252v81h80v496h-80v81h158l356 -464v383h-84v81h249v-81h-77v-579z" />
    <glyph glyph-name="O" unicode="O" horiz-adv-x="773" 
d="M384 -12c-194 0 -332 149 -332 341c0 193 140 341 337 341c194 0 332 -149 332 -341c0 -193 -140 -341 -337 -341zM387 72c140 0 241 109 241 257c0 147 -101 257 -241 257c-141 0 -242 -109 -242 -257c0 -147 101 -257 242 -257z" />
    <glyph glyph-name="P" unicode="P" horiz-adv-x="581" 
d="M43 0v81h80v496h-80v81h258c139 0 246 -81 246 -211c0 -141 -102 -218 -252 -218c-34 0 -64 1 -81 2v-150h86v-81h-257zM301 309c95 0 153 52 153 138c0 81 -67 130 -155 130h-85v-266c17 -1 44 -2 87 -2z" />
    <glyph glyph-name="Q" unicode="Q" horiz-adv-x="773" 
d="M646 -138c-91 0 -160 60 -215 95c-28 18 -60 29 -93 35c-74 12 -136 42 -187 90c-60 56 -99 145 -99 247c0 193 140 341 337 341c194 0 332 -149 332 -341c0 -166 -100 -284 -232 -318c15 -5 33 -14 48 -23c40 -25 65 -40 103 -40c26 0 49 5 85 30l44 -72
c-41 -38 -85 -44 -123 -44zM387 72c140 0 241 109 241 257c0 147 -101 257 -241 257c-141 0 -242 -109 -242 -257c0 -77 29 -145 76 -192c42 -41 99 -65 166 -65z" />
    <glyph glyph-name="Q.alt" horiz-adv-x="773" 
d="M588 -111l-78 122c-39 -14 -81 -23 -126 -23c-194 0 -332 149 -332 341c0 193 140 341 337 341c194 0 332 -149 332 -341c0 -116 -53 -218 -139 -279l75 -119zM387 71c28 0 54 4 78 11l-71 112l69 43l74 -117c57 45 91 119 91 209c0 147 -101 257 -241 257
c-141 0 -242 -109 -242 -257c0 -147 101 -258 242 -258z" />
    <glyph glyph-name="R" unicode="R" horiz-adv-x="619" 
d="M43 0v81h80v496h-80v81h252c148 0 248 -69 248 -194c0 -88 -56 -152 -134 -180l122 -203h77v-81h-139l-149 261c-13 -1 -26 -2 -39 -2c-24 0 -50 1 -67 2v-180h84v-81h-255zM287 337c94 0 163 45 163 124c0 77 -63 116 -160 116h-76v-238c17 -1 40 -2 73 -2z" />
    <glyph glyph-name="S" unicode="S" horiz-adv-x="552" 
d="M274 -12c-129 0 -225 73 -225 144c0 42 25 69 60 69c36 0 60 -27 60 -55c0 -18 -5 -31 -13 -43c23 -20 67 -35 120 -35c80 0 131 39 131 104c0 62 -60 91 -130 117c-118 44 -203 84 -203 201c0 103 82 180 209 180c115 0 205 -62 205 -135c0 -41 -26 -65 -58 -65
c-38 0 -61 28 -61 58c0 16 5 26 11 35c-18 16 -57 28 -98 28c-73 0 -117 -39 -117 -94c0 -63 59 -90 134 -119c113 -42 198 -83 198 -199c0 -120 -94 -191 -223 -191z" />
    <glyph glyph-name="T" unicode="T" horiz-adv-x="625" 
d="M181 0v81h86v499h-147v-105h-86v183h557v-183h-86v105h-147v-499h86v-81h-263z" />
    <glyph glyph-name="U" unicode="U" horiz-adv-x="702" 
d="M351 -12c-149 0 -242 84 -242 244v345h-78v81h251v-81h-83v-339c0 -111 56 -167 152 -167c97 0 154 53 154 164v342h-83v81h250v-81h-79v-342c0 -163 -95 -247 -242 -247z" />
    <glyph glyph-name="V" unicode="V" horiz-adv-x="693" 
d="M320 -9l-241 586h-63v81h238v-81h-72l166 -427l167 427h-76v81h238v-81h-63l-242 -586h-52z" />
    <glyph glyph-name="W" unicode="W" horiz-adv-x="1003" 
d="M279 -9l-184 586h-73v81h255v-81h-84l125 -412l164 421h49l164 -421l120 412h-87v81h255v-81h-74l-181 -586h-51l-172 433l-174 -433h-52z" />
    <glyph glyph-name="X" unicode="X" horiz-adv-x="715" 
d="M33 0v81h70l203 257l-187 239h-73v81h248v-79h-71l138 -190l139 190h-77v79h249v-81h-73l-187 -238l200 -258h70v-81h-245v79h70l-150 209l-155 -209h76v-79h-245z" />
    <glyph glyph-name="Y" unicode="Y" horiz-adv-x="643" 
d="M187 0v81h89v177l-191 319h-69v81h233v-81h-63l137 -242l138 242h-67v81h233v-81h-69l-191 -318v-178h89v-81h-269z" />
    <glyph glyph-name="Z" unicode="Z" horiz-adv-x="614" 
d="M44 0v48l390 534h-289v-107h-80v183h498v-48l-390 -534h317v107h79v-183h-525z" />
    <glyph glyph-name="a" unicode="a" horiz-adv-x="499" 
d="M182 -8c-79 0 -141 45 -141 123c0 79 70 130 169 130c45 0 95 -10 118 -17v49c0 25 -7 45 -19 60c-18 22 -48 33 -90 33c-27 0 -43 -6 -56 -13c3 -7 5 -16 5 -24c0 -28 -21 -49 -50 -49c-30 0 -51 21 -51 51c0 51 56 104 166 104c67 0 116 -20 145 -54
c22 -26 33 -60 33 -99v-214h67v-72h-148v52c-35 -33 -90 -60 -148 -60zM207 57c46 0 88 22 121 51v70c-29 8 -66 15 -105 15c-61 0 -95 -29 -95 -71c0 -39 29 -65 79 -65z" />
    <glyph glyph-name="b" unicode="b" horiz-adv-x="546" 
d="M293 -8c-55 0 -100 20 -137 51l-22 -44h-56v659h-68v74h154v-354c34 34 75 61 138 61c113 0 204 -91 204 -223c0 -124 -90 -224 -213 -224zM283 67c73 0 134 56 134 149c0 91 -57 148 -132 148c-49 0 -89 -23 -121 -55v-201c31 -23 70 -41 119 -41z" />
    <glyph glyph-name="c" unicode="c" horiz-adv-x="484" 
d="M272 -8c-134 0 -233 92 -233 225c0 116 93 222 216 222c107 0 185 -70 185 -136c0 -38 -26 -64 -61 -64c-28 0 -54 22 -54 54c0 14 7 28 18 36c-10 20 -46 39 -88 39c-58 0 -129 -49 -129 -153c0 -89 65 -149 154 -149c50 0 95 15 148 46l-8 -79
c-44 -28 -95 -41 -148 -41z" />
    <glyph glyph-name="d" unicode="d" horiz-adv-x="555" 
d="M242 -8c-114 0 -202 90 -202 221c0 123 87 226 210 226c54 0 99 -20 128 -47v266h-74v74h160v-660h67v-72h-152v55c-34 -36 -77 -63 -137 -63zM258 67c49 0 88 23 120 55v200c-31 24 -68 42 -118 42c-74 0 -131 -59 -132 -150c0 -90 57 -147 130 -147z" />
    <glyph glyph-name="e" unicode="e" horiz-adv-x="491" 
d="M451 188h-323c12 -82 72 -122 156 -122c55 0 102 17 153 46l-7 -79c-45 -28 -100 -41 -159 -41c-139 0 -233 90 -233 222c0 121 83 225 214 225c133 0 203 -95 203 -205c0 -16 -2 -33 -4 -46zM250 368c-58 0 -111 -38 -122 -116h241c-4 69 -46 116 -119 116z" />
    <glyph glyph-name="f" unicode="f" horiz-adv-x="328" 
d="M303 623c-30 0 -48 18 -57 41c-11 -3 -21 -10 -29 -19c-14 -19 -22 -46 -22 -88v-126h112v-74h-112v-285h84v-72h-236v72h67v285h-75v74h75v110c0 73 13 121 50 157c27 27 62 42 107 42c50 0 86 -25 86 -64c0 -33 -23 -53 -50 -53z" />
    <glyph glyph-name="g" unicode="g" horiz-adv-x="556" 
d="M462 357v-366c0 -53 -14 -96 -40 -127c-36 -44 -95 -64 -163 -64c-71 0 -128 22 -156 50c-16 16 -23 33 -23 52c0 30 22 56 54 56c29 0 50 -21 50 -49c0 -8 -2 -17 -6 -24c15 -6 40 -14 76 -14c41 0 77 12 100 41c14 18 22 44 22 79v75c-34 -35 -73 -61 -135 -61
c-111 0 -201 87 -201 214c0 119 87 220 208 220c57 0 100 -22 132 -51v43h149v-74h-67zM261 364c-78 0 -133 -58 -133 -144s55 -141 131 -141c47 0 86 22 117 54v189c-29 24 -66 42 -115 42z" />
    <glyph glyph-name="h" unicode="h" horiz-adv-x="560" 
d="M96 658h-67v74h153v-373c41 44 92 80 153 80c49 0 86 -17 108 -46c19 -25 29 -59 29 -99v-222h67v-72h-217v72h64v203c0 28 -6 47 -17 61c-13 16 -33 24 -59 24c-47 0 -92 -28 -128 -65v-223h64v-72h-217v72h67v586z" />
    <glyph glyph-name="i" unicode="i" horiz-adv-x="296" 
d="M141 522c-34 0 -62 28 -62 63c0 34 29 62 63 62c33 0 62 -28 62 -62c0 -35 -30 -63 -63 -63zM38 0v72h70v285h-70v74h156v-359h69v-72h-225z" />
    <glyph glyph-name="j" unicode="j" horiz-adv-x="274" 
d="M-51 -129c0 28 22 53 52 53s50 -23 50 -53v-3c28 1 47 22 58 54c7 23 10 50 10 80v355h-82v74h168v-422c0 -50 -8 -89 -22 -120c-26 -61 -77 -89 -136 -89c-65 0 -98 35 -98 71zM147 522c-34 0 -62 28 -62 63c0 34 29 62 63 62c33 0 62 -28 62 -62c0 -35 -30 -63 -63 -63
z" />
    <glyph glyph-name="k" unicode="k" horiz-adv-x="536" 
d="M29 0v72h67v586h-67v74h153v-507l156 136h-73v70h248v-74h-78l-120 -103l123 -180h75v-74h-126l-135 206l-70 -60v-75h63v-71h-216z" />
    <glyph glyph-name="l" unicode="l" horiz-adv-x="285" 
d="M30 0v72h70v586h-70v74h156v-660h69v-72h-225z" />
    <glyph glyph-name="m" unicode="m" horiz-adv-x="833" 
d="M37 0v72h67v285h-67v74h149v-75c36 42 89 83 152 83c50 0 84 -19 105 -49c6 -9 10 -19 13 -30c44 44 97 79 152 79c62 0 100 -23 120 -62c11 -23 17 -51 17 -82v-223h67v-72h-217v72h64v204c0 20 -3 36 -8 49c-10 24 -30 35 -61 35c-44 0 -85 -26 -123 -63v-225h63v-72
h-213v72h64v204c0 20 -2 36 -7 49c-11 24 -30 35 -61 35c-46 0 -87 -28 -124 -64v-224h63v-72h-215z" />
    <glyph glyph-name="n" unicode="n" horiz-adv-x="566" 
d="M186 431v-75c41 44 95 83 157 83c54 0 91 -21 113 -55c14 -24 22 -54 22 -90v-222h67v-72h-217v72h64v203c0 21 -3 38 -10 51c-12 23 -33 34 -64 34c-47 0 -92 -28 -129 -65v-223h64v-72h-216v72h67v285h-67v74h149z" />
    <glyph glyph-name="o" unicode="o" horiz-adv-x="529" 
d="M265 -8c-138 0 -225 102 -225 223s88 224 225 224s225 -102 225 -224c0 -120 -89 -223 -225 -223zM265 65c80 0 136 62 136 150s-56 151 -136 151c-81 0 -137 -63 -137 -151s56 -150 137 -150z" />
    <glyph glyph-name="p" unicode="p" horiz-adv-x="557" 
d="M29 -196v72h67v481h-67v74h149v-56c36 37 76 64 138 64c113 0 201 -90 201 -221c0 -124 -87 -226 -209 -226c-49 0 -92 18 -126 46v-162h77v-72h-230zM298 67c73 0 130 59 130 150c0 90 -55 147 -128 147c-49 0 -86 -23 -118 -55v-201c30 -24 68 -41 116 -41z" />
    <glyph glyph-name="q" unicode="q" horiz-adv-x="532" 
d="M299 -196v74h83v174c-35 -33 -76 -60 -139 -60c-113 0 -203 91 -203 223c0 124 90 224 212 224c55 0 100 -21 137 -51l22 45h56v-555h68v-74h-236zM260 67c49 0 89 23 122 55v201c-31 23 -71 41 -120 41c-73 0 -134 -56 -134 -149c0 -91 58 -148 132 -148z" />
    <glyph glyph-name="r" unicode="r" horiz-adv-x="403" 
d="M320 439c47 0 71 -29 71 -63c0 -31 -25 -58 -55 -58c-29 0 -49 18 -57 37c-32 -10 -69 -46 -90 -87v-196h79v-72h-231v72h67v285h-67v74h149v-98c34 59 84 106 134 106z" />
    <glyph glyph-name="s" unicode="s" horiz-adv-x="446" 
d="M388 341c0 -31 -19 -51 -46 -51c-30 0 -52 19 -52 48c0 7 1 15 4 22c-17 8 -42 13 -69 13c-55 0 -85 -27 -85 -55c0 -32 33 -45 102 -63c93 -24 161 -49 161 -130c0 -86 -82 -134 -176 -134c-65 0 -131 22 -160 51c-16 16 -24 34 -24 56c0 28 20 52 49 52
c28 0 51 -19 51 -50c0 -8 -1 -15 -4 -22c16 -10 48 -20 88 -20c52 0 94 20 94 58c0 31 -31 46 -95 62c-110 28 -169 55 -169 132c0 66 59 129 169 129c56 0 112 -18 140 -46c15 -15 22 -33 22 -52z" />
    <glyph glyph-name="t" unicode="t" horiz-adv-x="348" 
d="M211 -8c-48 0 -85 17 -104 54c-8 17 -13 39 -13 63v248h-81v74h81v99l86 35v-134h131v-74h-131v-233c0 -14 2 -24 6 -33c8 -14 24 -21 49 -21c26 0 57 12 82 24l-9 -77c-25 -13 -57 -25 -97 -25z" />
    <glyph glyph-name="u" unicode="u" horiz-adv-x="558" 
d="M223 -8c-55 0 -92 22 -114 57c-13 24 -20 53 -20 88v220h-67v74h152v-275c0 -22 4 -39 11 -52c12 -23 32 -33 63 -33c47 0 91 29 129 65v221h-69v74h155v-359h67v-72h-150v75c-41 -44 -95 -83 -157 -83z" />
    <glyph glyph-name="v" unicode="v" horiz-adv-x="529" 
d="M237 -12l-177 369h-54v74h209v-71h-66l117 -259l117 259h-69v71h209v-74h-54l-177 -369h-55z" />
    <glyph glyph-name="w" unicode="w" horiz-adv-x="708" 
d="M183 -17l-114 374h-63v74h209v-72h-65l70 -246l111 271h53l112 -271l70 246h-72v72h208v-74h-63l-113 -374h-54l-118 280l-117 -280h-54z" />
    <glyph glyph-name="x" unicode="x" horiz-adv-x="517" 
d="M17 0v74h57l136 144l-129 139h-56v74h201v-69h-55l88 -105l88 105h-56v69h199v-74h-57l-127 -136l137 -147h57v-74h-203v69h56l-97 113l-96 -113h57v-69h-200z" />
    <glyph glyph-name="y" unicode="y" horiz-adv-x="521" 
d="M222 -134c-32 -42 -69 -65 -113 -65c-48 0 -82 27 -82 61c0 31 21 49 47 49c25 0 41 -18 47 -36c14 5 28 16 44 39c8 13 17 29 27 49l29 60l-159 334h-56v74h210v-71h-66s113 -256 112 -256l114 256h-69v71h208v-74h-56l-203 -433c-11 -22 -22 -41 -34 -58z" />
    <glyph glyph-name="z" unicode="z" horiz-adv-x="455" 
d="M33 0v45l270 317h-178v-83h-75v152h368v-44l-269 -317h199v82h74v-152h-389z" />
    <glyph glyph-name="a.sc" horiz-adv-x="589" 
d="M138 515h313v-73h-72l136 -369h59v-73h-222v72h76l-34 95h-201l-34 -95h76v-72h-220v73h60l135 369h-72v73zM293 448l-75 -211h151z" />
    <glyph glyph-name="b.sc" horiz-adv-x="536" 
d="M210 72h90c64 0 102 30 102 79c0 51 -39 78 -109 78h-83v-157zM210 293h78c66 0 100 30 100 78c0 45 -35 73 -100 73h-78v-151zM298 0h-256v73h82v369h-82v73h247c131 0 186 -59 186 -133c0 -62 -39 -101 -93 -117c67 -18 108 -56 108 -122c0 -85 -65 -143 -192 -143z
" />
    <glyph glyph-name="c.sc" horiz-adv-x="563" 
d="M466 137l53 -58c-52 -57 -129 -90 -210 -90c-162 0 -268 118 -268 269c0 156 116 271 274 271c116 0 199 -68 199 -134c0 -38 -24 -65 -59 -65s-59 21 -59 55c0 14 6 27 14 34c-16 15 -50 32 -99 32c-105 0 -181 -79 -181 -193s78 -191 179 -191c63 0 115 27 157 70z" />
    <glyph glyph-name="d.sc" horiz-adv-x="605" 
d="M210 73h63c136 0 204 76 204 189c0 114 -80 180 -210 180h-57v-369zM261 0h-219v73h82v369h-82v73h225c184 0 297 -97 297 -252c0 -157 -106 -263 -303 -263z" />
    <glyph glyph-name="e.sc" horiz-adv-x="517" 
d="M464 0h-422v73h82v369h-82v73h422v-164h-80v93h-174v-151h159v-70h-159v-151h174v90h80v-162z" />
    <glyph glyph-name="f.sc" horiz-adv-x="496" 
d="M297 0h-255v73h82v369h-82v73h420v-164h-81v93h-171v-157h156v-70h-156v-144h87v-73z" />
    <glyph glyph-name="g.sc" horiz-adv-x="591" 
d="M312 452c-107 0 -182 -81 -182 -194c0 -114 81 -194 178 -194c51 0 94 13 130 38v92h-133v70h217v-264h-82v37c-36 -27 -84 -48 -148 -48c-130 0 -251 101 -251 268c0 163 121 272 276 272c122 0 203 -68 203 -131c0 -39 -24 -65 -59 -65s-59 22 -59 55c0 13 6 26 12 33
c-18 15 -53 31 -102 31z" />
    <glyph glyph-name="h.sc" horiz-adv-x="669" 
d="M42 0v73h82v369h-82v73h252v-73h-84v-148h249v148h-84v73h252v-73h-82v-369h82v-73h-252v73h84v148h-249v-148h84v-73h-252z" />
    <glyph glyph-name="i.sc" horiz-adv-x="340" 
d="M298 0h-256v73h85v369h-85v73h256v-73h-85v-369h85v-73z" />
    <glyph glyph-name="j.sc" horiz-adv-x="461" 
d="M188 66c23 0 45 7 60 23c18 19 26 49 26 91v262h-86v73h248v-73h-77v-263c0 -64 -17 -114 -49 -146c-30 -30 -72 -44 -121 -44c-91 0 -164 59 -164 135c0 42 26 70 62 70c29 0 55 -24 55 -54c0 -18 -10 -35 -24 -42c8 -14 31 -32 70 -32z" />
    <glyph glyph-name="k.sc" horiz-adv-x="596" 
d="M508 442l-160 -157l145 -212h81v-73h-136l-153 229l-74 -70v-86h81v-73h-250v73h83v369h-83v73h241v-71h-72v-194l199 194h-70v71h228v-73h-60z" />
    <glyph glyph-name="l.sc" horiz-adv-x="489" 
d="M381 73v97h81v-170h-420v73h82v369h-82v73h254v-73h-86v-369h171z" />
    <glyph glyph-name="m.sc" horiz-adv-x="747" 
d="M530 515h165v-73h-82l17 -369h82v-73h-250v73h81l-11 298l-150 -287h-19l-152 287l-11 -298h84v-73h-250v73h83l16 369h-82v73h167l158 -299z" />
    <glyph glyph-name="n.sc" horiz-adv-x="657" 
d="M198 515l267 -348v275h-81v73h246v-73h-83v-445h-57l-283 372v-296h79v-73h-244v73h82v369h-82v73h156z" />
    <glyph glyph-name="o.sc" horiz-adv-x="617" 
d="M309 529c160 0 267 -120 267 -269c0 -152 -106 -271 -268 -271c-161 0 -267 119 -267 271c0 149 107 269 268 269zM308 67c104 0 180 76 180 192c0 113 -76 191 -179 191c-104 0 -179 -77 -179 -191c0 -116 76 -192 178 -192z" />
    <glyph glyph-name="p.sc" horiz-adv-x="506" 
d="M42 515h232c112 0 200 -64 200 -167c0 -114 -85 -174 -207 -174c-22 0 -42 0 -57 1v-102h85v-73h-253v73h82v369h-82v73zM275 246c69 0 111 40 111 102c0 58 -48 94 -113 94h-63v-194c14 -1 38 -2 65 -2z" />
    <glyph glyph-name="q.sc" horiz-adv-x="617" 
d="M503 -114c-80 0 -126 45 -171 74c-24 17 -41 24 -71 30c-57 13 -105 34 -145 76c-48 48 -75 117 -75 194c0 149 107 269 268 269c160 0 267 -120 267 -269c0 -121 -68 -220 -177 -254c6 -2 17 -9 25 -14c25 -16 45 -28 72 -28c22 0 44 8 71 29l42 -65
c-33 -32 -67 -42 -106 -42zM308 67c102 0 180 79 180 192s-76 191 -179 191c-104 0 -179 -77 -179 -191c0 -57 19 -106 51 -139s76 -53 127 -53z" />
    <glyph glyph-name="q.sc_alt" horiz-adv-x="617" 
d="M576 260c0 -91 -38 -171 -104 -220l55 -85l-65 -41l-58 90c-29 -9 -61 -15 -96 -15c-161 0 -267 119 -267 271c0 149 107 269 268 269c160 0 267 -120 267 -269zM488 259c0 113 -76 191 -179 191c-104 0 -179 -77 -179 -191c0 -116 76 -192 178 -192c18 0 36 2 52 7
l-50 80l64 41l54 -85c37 34 60 85 60 149z" />
    <glyph glyph-name="r.sc" horiz-adv-x="554" 
d="M276 442h-66v-171c15 -1 42 -3 68 -3c72 0 119 34 119 90c0 54 -46 84 -121 84zM210 197v-124h79v-73h-247v73h82v369h-82v73h239c120 0 203 -53 203 -156c0 -66 -41 -116 -99 -140l81 -146h74v-73h-137l-102 198c-18 -2 -29 -2 -37 -2c-15 0 -38 0 -54 1z" />
    <glyph glyph-name="s.sc" horiz-adv-x="485" 
d="M318 406c0 13 4 23 9 30c-15 11 -46 21 -84 21c-56 0 -95 -26 -95 -69c0 -47 59 -65 109 -84c92 -32 181 -63 181 -161c0 -102 -83 -154 -197 -154c-110 0 -197 58 -197 124c0 38 21 62 56 62s59 -25 59 -53c0 -13 -4 -25 -10 -35c18 -14 52 -26 95 -26
c66 0 109 25 109 75c0 46 -60 67 -111 84c-98 34 -181 63 -181 160c0 88 74 149 188 149c104 0 182 -52 182 -118c0 -36 -23 -58 -53 -58c-39 0 -60 26 -60 53z" />
    <glyph glyph-name="t.sc" horiz-adv-x="542" 
d="M143 0v73h85v371h-115v-100h-80v171h476v-171h-80v100h-115v-371h85v-73h-256z" />
    <glyph glyph-name="u.sc" horiz-adv-x="618" 
d="M191 442v-249c0 -83 45 -131 119 -131c73 0 119 45 119 129v251h-81v73h244v-73h-78v-246c0 -138 -82 -208 -205 -208c-126 0 -204 69 -204 205v249h-78v73h244v-73h-80z" />
    <glyph glyph-name="v.sc" horiz-adv-x="571" 
d="M256 -7l-185 449h-61v73h226v-73h-74l126 -324l126 324h-74v73h221v-73h-60l-186 -449h-59z" />
    <glyph glyph-name="w.sc" horiz-adv-x="798" 
d="M219 -9l-139 451h-68v73h238v-73h-78l89 -306l120 314h42l120 -314l90 306h-80v73h233v-73h-68l-139 -451h-60l-120 314l-121 -314h-59z" />
    <glyph glyph-name="x.sc" horiz-adv-x="587" 
d="M565 74v-74h-232v72h70l-114 145l-111 -145h75v-72h-231v74h66l152 190l-143 178h-67v73h229v-71h-65l102 -134l101 134h-65v71h225v-73h-71l-141 -178l155 -190h65z" />
    <glyph glyph-name="y.sc" horiz-adv-x="535" 
d="M529 515v-73h-61l-158 -251v-118h85v-73h-255v73h84v118l-157 251h-61v73h226v-71h-73l111 -185l111 185h-75v71h223z" />
    <glyph glyph-name="z.sc" horiz-adv-x="511" 
d="M43 0v49l305 396h-217v-97h-75v167h412v-48l-304 -396h230v96h75v-167h-426z" />
    <glyph glyph-name="Aacute" unicode="&#xc1;" horiz-adv-x="702" 
d="M16 0v81h60l183 497h-73v80h330v-80h-74l183 -497h61v-81h-234v80h76l-49 139h-260l-49 -139h80v-80h-234zM245 295h208l-104 287zM328 717l-25 28l116 136c14 16 31 26 48 26c24 0 44 -19 44 -46c0 -16 -11 -35 -32 -49z" />
    <glyph glyph-name="aacute" unicode="&#xe1;" horiz-adv-x="499" 
d="M182 -8c-79 0 -141 45 -141 123c0 79 70 130 169 130c45 0 95 -10 118 -17v49c0 25 -7 45 -19 60c-18 22 -48 33 -90 33c-27 0 -43 -6 -56 -13c3 -7 5 -16 5 -24c0 -28 -21 -49 -50 -49c-30 0 -51 21 -51 51c0 51 56 104 166 104c67 0 116 -20 145 -54
c22 -26 33 -60 33 -99v-214h67v-72h-148v52c-35 -33 -90 -60 -148 -60zM207 57c46 0 88 22 121 51v70c-29 8 -66 15 -105 15c-61 0 -95 -29 -95 -71c0 -39 29 -65 79 -65zM223 498l-25 28l116 136c14 16 31 26 48 26c24 0 44 -19 44 -46c0 -16 -11 -35 -32 -49z" />
    <glyph glyph-name="aacute.sc" horiz-adv-x="589" 
d="M138 515h313v-73h-72l136 -369h59v-73h-222v72h76l-34 95h-201l-34 -95h76v-72h-220v73h60l135 369h-72v73zM271 579l-25 28l116 136c14 16 31 26 48 26c24 0 44 -19 44 -46c0 -16 -11 -35 -32 -49zM293 448l-75 -211h151z" />
    <glyph glyph-name="Abreve" unicode="&#x102;" horiz-adv-x="702" 
d="M16 0v81h60l183 497h-73v80h330v-80h-74l183 -497h61v-81h-234v80h76l-49 139h-260l-49 -139h80v-80h-234zM245 295h208l-104 287zM348 726c-75 0 -141 51 -169 152l57 23c25 -63 68 -94 112 -94c47 0 88 34 113 94l57 -23c-28 -101 -94 -152 -170 -152z" />
    <glyph glyph-name="abreve" unicode="&#x103;" horiz-adv-x="499" 
d="M182 -8c-79 0 -141 45 -141 123c0 79 70 130 169 130c45 0 95 -10 118 -17v49c0 25 -7 45 -19 60c-18 22 -48 33 -90 33c-27 0 -43 -6 -56 -13c3 -7 5 -16 5 -24c0 -28 -21 -49 -50 -49c-30 0 -51 21 -51 51c0 51 56 104 166 104c67 0 116 -20 145 -54
c22 -26 33 -60 33 -99v-214h67v-72h-148v52c-35 -33 -90 -60 -148 -60zM207 57c46 0 88 22 121 51v70c-29 8 -66 15 -105 15c-61 0 -95 -29 -95 -71c0 -39 29 -65 79 -65zM243 507c-75 0 -141 51 -169 152l57 23c25 -63 68 -94 112 -94c47 0 88 34 113 94l57 -23
c-28 -101 -94 -152 -170 -152z" />
    <glyph glyph-name="abreve.sc" horiz-adv-x="589" 
d="M138 515h313v-73h-72l136 -369h59v-73h-222v72h76l-34 95h-201l-34 -95h76v-72h-220v73h60l135 369h-72v73zM291 588c-75 0 -141 51 -169 152l57 23c25 -63 68 -94 112 -94c47 0 88 34 113 94l57 -23c-28 -101 -94 -152 -170 -152zM293 448l-75 -211h151z" />
    <glyph glyph-name="Acircumflex" unicode="&#xc2;" horiz-adv-x="702" 
d="M16 0v81h60l183 497h-73v80h330v-80h-74l183 -497h61v-81h-234v80h76l-49 139h-260l-49 -139h80v-80h-234zM245 295h208l-104 287zM224 717l-38 43l164 160l164 -160l-38 -43l-126 94z" />
    <glyph glyph-name="acircumflex" unicode="&#xe2;" horiz-adv-x="499" 
d="M182 -8c-79 0 -141 45 -141 123c0 79 70 130 169 130c45 0 95 -10 118 -17v49c0 25 -7 45 -19 60c-18 22 -48 33 -90 33c-27 0 -43 -6 -56 -13c3 -7 5 -16 5 -24c0 -28 -21 -49 -50 -49c-30 0 -51 21 -51 51c0 51 56 104 166 104c67 0 116 -20 145 -54
c22 -26 33 -60 33 -99v-214h67v-72h-148v52c-35 -33 -90 -60 -148 -60zM207 57c46 0 88 22 121 51v70c-29 8 -66 15 -105 15c-61 0 -95 -29 -95 -71c0 -39 29 -65 79 -65zM118 498l-38 43l164 160l164 -160l-38 -43l-126 94z" />
    <glyph glyph-name="acircumflex.sc" horiz-adv-x="589" 
d="M138 515h313v-73h-72l136 -369h59v-73h-222v72h76l-34 95h-201l-34 -95h76v-72h-220v73h60l135 369h-72v73zM167 579l-38 43l164 160l164 -160l-38 -43l-126 94zM293 448l-75 -211h151z" />
    <glyph glyph-name="Adieresis" unicode="&#xc4;" horiz-adv-x="702" 
d="M16 0v81h60l183 497h-73v80h330v-80h-74l183 -497h61v-81h-234v80h76l-49 139h-260l-49 -139h80v-80h-234zM245 295h208l-104 287zM443 732c-35 0 -63 28 -63 64c0 35 29 63 64 63s63 -28 63 -63c0 -36 -30 -64 -64 -64zM255 732c-34 0 -63 28 -63 64c0 35 30 63 64 63
c35 0 63 -28 63 -63c0 -36 -29 -64 -64 -64z" />
    <glyph glyph-name="adieresis" unicode="&#xe4;" horiz-adv-x="499" 
d="M182 -8c-79 0 -141 45 -141 123c0 79 70 130 169 130c45 0 95 -10 118 -17v49c0 25 -7 45 -19 60c-18 22 -48 33 -90 33c-27 0 -43 -6 -56 -13c3 -7 5 -16 5 -24c0 -28 -21 -49 -50 -49c-30 0 -51 21 -51 51c0 51 56 104 166 104c67 0 116 -20 145 -54
c22 -26 33 -60 33 -99v-214h67v-72h-148v52c-35 -33 -90 -60 -148 -60zM207 57c46 0 88 22 121 51v70c-29 8 -66 15 -105 15c-61 0 -95 -29 -95 -71c0 -39 29 -65 79 -65zM338 513c-35 0 -63 28 -63 64c0 35 29 63 64 63s63 -28 63 -63c0 -36 -30 -64 -64 -64zM150 513
c-34 0 -63 28 -63 64c0 35 30 63 64 63c35 0 63 -28 63 -63c0 -36 -29 -64 -64 -64z" />
    <glyph glyph-name="adieresis.sc" horiz-adv-x="589" 
d="M138 515h313v-73h-72l136 -369h59v-73h-222v72h76l-34 95h-201l-34 -95h76v-72h-220v73h60l135 369h-72v73zM293 448l-75 -211h151zM386 594c-35 0 -63 28 -63 64c0 35 29 63 64 63s63 -28 63 -63c0 -36 -30 -64 -64 -64zM198 594c-34 0 -63 28 -63 64c0 35 30 63 64 63
c35 0 63 -28 63 -63c0 -36 -29 -64 -64 -64z" />
    <glyph glyph-name="AE" unicode="&#xc6;" horiz-adv-x="898" 
d="M-1 0v81h80l244 496h-77v81h595v-172h-86v92h-226v-204h208v-78h-208v-216h226v92h87v-172h-480v81h76v138h-203l-67 -139h70v-80h-239zM271 295h167v285h-29z" />
    <glyph glyph-name="ae" unicode="&#xe6;" horiz-adv-x="767" 
d="M219 370c-27 0 -43 -6 -56 -13c3 -7 5 -16 5 -24c0 -28 -21 -49 -50 -49c-30 0 -51 21 -51 51c0 51 56 104 166 104c58 0 98 -19 124 -51c7 -9 13 -19 18 -30c34 49 88 81 160 81c127 0 197 -95 197 -205c0 -16 -2 -33 -4 -46h-323c12 -84 71 -122 156 -122
c55 0 102 17 153 46l-7 -79c-45 -28 -100 -41 -153 -41c-83 0 -148 31 -187 84c-55 -59 -128 -84 -179 -84c-85 0 -147 45 -147 123c0 79 70 130 169 130c45 0 95 -10 118 -17v47c0 25 -7 46 -19 61c-18 23 -50 34 -90 34zM210 57c40 0 85 18 134 62c-8 19 -13 39 -16 61
c-41 8 -75 13 -105 13c-61 0 -95 -29 -95 -71c0 -39 29 -65 82 -65zM527 368c-58 0 -111 -38 -122 -116h241c-4 69 -46 116 -119 116z" />
    <glyph glyph-name="ae.sc" horiz-adv-x="728" 
d="M255 0v72h80v97h-153l-49 -97h72v-72h-211v73h54l191 369h-68v73h504v-164h-80v93h-174v-151h159v-70h-159v-151h174v90h80v-162h-420zM320 442l-103 -203h118v203h-15z" />
    <glyph glyph-name="AEacute" unicode="&#x1fc;" horiz-adv-x="898" 
d="M475 717l-25 28l116 136c14 16 31 26 48 26c24 0 44 -19 44 -46c0 -16 -11 -35 -32 -49zM-1 0v81h80l244 496h-77v81h595v-172h-86v92h-226v-204h208v-78h-208v-216h226v92h87v-172h-480v81h76v138h-203l-67 -139h70v-80h-239zM271 295h167v285h-29z" />
    <glyph glyph-name="aeacute" unicode="&#x1fd;" horiz-adv-x="767" 
d="M219 370c-27 0 -43 -6 -56 -13c3 -7 5 -16 5 -24c0 -28 -21 -49 -50 -49c-30 0 -51 21 -51 51c0 51 56 104 166 104c58 0 98 -19 124 -51c7 -9 13 -19 18 -30c34 49 88 81 160 81c127 0 197 -95 197 -205c0 -16 -2 -33 -4 -46h-323c12 -84 71 -122 156 -122
c55 0 102 17 153 46l-7 -79c-45 -28 -100 -41 -153 -41c-83 0 -148 31 -187 84c-55 -59 -128 -84 -179 -84c-85 0 -147 45 -147 123c0 79 70 130 169 130c45 0 95 -10 118 -17v47c0 25 -7 46 -19 61c-18 23 -50 34 -90 34zM210 57c40 0 85 18 134 62c-8 19 -13 39 -16 61
c-41 8 -75 13 -105 13c-61 0 -95 -29 -95 -71c0 -39 29 -65 82 -65zM527 368c-58 0 -111 -38 -122 -116h241c-4 69 -46 116 -119 116zM364 498l-25 28l116 136c14 16 31 26 48 26c24 0 44 -19 44 -46c0 -16 -11 -35 -32 -49z" />
    <glyph glyph-name="aeacute.sc" horiz-adv-x="728" 
d="M255 0v72h80v97h-153l-49 -97h72v-72h-211v73h54l191 369h-68v73h504v-164h-80v93h-174v-151h159v-70h-159v-151h174v90h80v-162h-420zM372 579l-25 28l116 136c14 16 31 26 48 26c24 0 44 -19 44 -46c0 -16 -11 -35 -32 -49zM320 442l-103 -203h118v203h-15z" />
    <glyph glyph-name="Agrave" unicode="&#xc0;" horiz-adv-x="702" 
d="M16 0v81h60l183 497h-73v80h330v-80h-74l183 -497h61v-81h-234v80h76l-49 139h-260l-49 -139h80v-80h-234zM245 295h208l-104 287zM371 717l-150 95c-21 14 -33 33 -33 49c0 27 21 46 44 46c17 0 34 -10 48 -26l116 -136z" />
    <glyph glyph-name="agrave" unicode="&#xe0;" horiz-adv-x="499" 
d="M182 -8c-79 0 -141 45 -141 123c0 79 70 130 169 130c45 0 95 -10 118 -17v49c0 25 -7 45 -19 60c-18 22 -48 33 -90 33c-27 0 -43 -6 -56 -13c3 -7 5 -16 5 -24c0 -28 -21 -49 -50 -49c-30 0 -51 21 -51 51c0 51 56 104 166 104c67 0 116 -20 145 -54
c22 -26 33 -60 33 -99v-214h67v-72h-148v52c-35 -33 -90 -60 -148 -60zM207 57c46 0 88 22 121 51v70c-29 8 -66 15 -105 15c-61 0 -95 -29 -95 -71c0 -39 29 -65 79 -65zM266 498l-150 95c-21 14 -33 33 -33 49c0 27 21 46 44 46c17 0 34 -10 48 -26l116 -136z" />
    <glyph glyph-name="agrave.sc" horiz-adv-x="589" 
d="M138 515h313v-73h-72l136 -369h59v-73h-222v72h76l-34 95h-201l-34 -95h76v-72h-220v73h60l135 369h-72v73zM314 579l-150 95c-21 14 -33 33 -33 49c0 27 21 46 44 46c17 0 34 -10 48 -26l116 -136zM293 448l-75 -211h151z" />
    <glyph glyph-name="Amacron" unicode="&#x100;" horiz-adv-x="702" 
d="M16 0v81h60l183 497h-73v80h330v-80h-74l183 -497h61v-81h-234v80h76l-49 139h-260l-49 -139h80v-80h-234zM245 295h208l-104 287zM192 749v75h316v-75h-316z" />
    <glyph glyph-name="amacron" unicode="&#x101;" horiz-adv-x="499" 
d="M182 -8c-79 0 -141 45 -141 123c0 79 70 130 169 130c45 0 95 -10 118 -17v49c0 25 -7 45 -19 60c-18 22 -48 33 -90 33c-27 0 -43 -6 -56 -13c3 -7 5 -16 5 -24c0 -28 -21 -49 -50 -49c-30 0 -51 21 -51 51c0 51 56 104 166 104c67 0 116 -20 145 -54
c22 -26 33 -60 33 -99v-214h67v-72h-148v52c-35 -33 -90 -60 -148 -60zM207 57c46 0 88 22 121 51v70c-29 8 -66 15 -105 15c-61 0 -95 -29 -95 -71c0 -39 29 -65 79 -65zM86 530v75h316v-75h-316z" />
    <glyph glyph-name="amacron.sc" horiz-adv-x="589" 
d="M138 515h313v-73h-72l136 -369h59v-73h-222v72h76l-34 95h-201l-34 -95h76v-72h-220v73h60l135 369h-72v73zM135 611v75h316v-75h-316zM293 448l-75 -211h151z" />
    <glyph glyph-name="Aogonek" unicode="&#x104;" horiz-adv-x="702" 
d="M575 -201c-72 0 -109 40 -109 97c0 44 24 78 58 104h-72v80h76l-49 139h-260l-49 -139h80v-80h-234v81h60l183 497h-73v80h330v-80h-74l183 -497h61v-81h-85c-37 -21 -61 -51 -61 -83s18 -50 54 -50c28 0 53 8 75 19l-4 -65c-17 -10 -52 -22 -90 -22zM245 295h208
l-104 287z" />
    <glyph glyph-name="aogonek" unicode="&#x105;" horiz-adv-x="499" 
d="M378 -201c-72 0 -109 40 -109 97c0 45 25 80 61 106v50c-35 -33 -90 -60 -148 -60c-79 0 -141 45 -141 123c0 79 70 130 169 130c45 0 95 -10 118 -17v49c0 25 -7 45 -19 60c-18 22 -48 33 -90 33c-27 0 -43 -6 -56 -13c3 -7 5 -16 5 -24c0 -28 -21 -49 -50 -49
c-30 0 -51 21 -51 51c0 51 56 104 166 104c67 0 116 -20 145 -54c22 -26 33 -60 33 -99v-214h67v-72h-74c-37 -21 -61 -51 -61 -83s18 -50 54 -50c28 0 53 8 75 19l-4 -65c-17 -10 -52 -22 -90 -22zM207 57c46 0 88 22 121 51v70c-29 8 -66 15 -105 15
c-61 0 -95 -29 -95 -71c0 -39 29 -65 79 -65z" />
    <glyph glyph-name="aogonek.sc" horiz-adv-x="589" 
d="M477 -201c-72 0 -109 40 -109 97c0 44 24 78 58 104h-74v72h76l-34 95h-201l-34 -95h76v-72h-220v73h60l135 369h-72v73h313v-73h-72l136 -369h59v-73h-71c-37 -21 -61 -51 -61 -83s18 -50 54 -50c28 0 53 8 75 19l-4 -65c-17 -10 -52 -22 -90 -22zM293 448l-75 -211h151
z" />
    <glyph glyph-name="Aring" unicode="&#xc5;" horiz-adv-x="702" 
d="M470 736c0 -29 -12 -57 -34 -78h80v-80h-74l183 -497h61v-81h-234v80h76l-49 139h-260l-49 -139h80v-80h-234v81h60l183 497h-73v80h79c-21 21 -35 51 -35 78c0 62 53 113 120 113s120 -51 120 -113zM245 295h208l-104 287zM350 670c32 0 54 28 54 60s-22 60 -54 60
c-31 0 -54 -28 -54 -60s23 -60 54 -60z" />
    <glyph glyph-name="aring" unicode="&#xe5;" horiz-adv-x="499" 
d="M182 -8c-79 0 -141 45 -141 123c0 79 70 130 169 130c45 0 95 -10 118 -17v49c0 25 -7 45 -19 60c-18 22 -48 33 -90 33c-27 0 -43 -6 -56 -13c3 -7 5 -16 5 -24c0 -28 -21 -49 -50 -49c-30 0 -51 21 -51 51c0 51 56 104 166 104c67 0 116 -20 145 -54
c22 -26 33 -60 33 -99v-214h67v-72h-148v52c-35 -33 -90 -60 -148 -60zM207 57c46 0 88 22 121 51v70c-29 8 -66 15 -105 15c-61 0 -95 -29 -95 -71c0 -39 29 -65 79 -65zM244 491c-67 0 -120 52 -120 119c0 66 53 118 120 118s120 -52 120 -118c0 -67 -53 -119 -120 -119z
M244 550c32 0 54 27 54 60c0 32 -22 59 -54 59c-31 0 -54 -27 -54 -59c0 -33 23 -60 54 -60z" />
    <glyph glyph-name="aring.sc" horiz-adv-x="589" 
d="M235 0h-220v73h60l135 369h-72v73h56c-13 18 -21 40 -21 63c0 67 53 119 120 119s120 -52 120 -119c0 -23 -8 -45 -20 -63h58v-73h-72l136 -369h59v-73h-222v72h76l-34 95h-201l-34 -95h76v-72zM293 448l-75 -211h151zM293 519c32 0 54 27 54 59c0 33 -22 60 -54 60
s-54 -27 -54 -60c0 -32 22 -59 54 -59z" />
    <glyph glyph-name="Aringacute" unicode="&#x1fa;" horiz-adv-x="702" 
d="M333 891l-25 28l116 136c14 16 31 26 48 26c24 0 44 -19 44 -46c0 -16 -11 -35 -32 -49zM470 736c0 -29 -12 -57 -34 -78h80v-80h-74l183 -497h61v-81h-234v80h76l-49 139h-260l-49 -139h80v-80h-234v81h60l183 497h-73v80h79c-21 21 -35 51 -35 78c0 62 53 113 120 113
s120 -51 120 -113zM245 295h208l-104 287zM350 670c32 0 54 28 54 60s-22 60 -54 60c-31 0 -54 -28 -54 -60s23 -60 54 -60z" />
    <glyph glyph-name="aringacute" unicode="&#x1fb;" horiz-adv-x="499" 
d="M182 -8c-79 0 -141 45 -141 123c0 79 70 130 169 130c45 0 95 -10 118 -17v49c0 25 -7 45 -19 60c-18 22 -48 33 -90 33c-27 0 -43 -6 -56 -13c3 -7 5 -16 5 -24c0 -28 -21 -49 -50 -49c-30 0 -51 21 -51 51c0 51 56 104 166 104c67 0 116 -20 145 -54
c22 -26 33 -60 33 -99v-214h67v-72h-148v52c-35 -33 -90 -60 -148 -60zM207 57c46 0 88 22 121 51v70c-29 8 -66 15 -105 15c-61 0 -95 -29 -95 -71c0 -39 29 -65 79 -65zM232 775l-25 28l116 136c14 16 31 26 48 26c24 0 44 -19 44 -46c0 -16 -11 -35 -32 -49zM249 491
c-67 0 -120 52 -120 119c0 66 53 118 120 118s120 -52 120 -118c0 -67 -53 -119 -120 -119zM249 550c32 0 54 27 54 60c0 32 -22 59 -54 59c-31 0 -54 -27 -54 -59c0 -33 23 -60 54 -60z" />
    <glyph glyph-name="aringacute.sc" horiz-adv-x="589" 
d="M235 0h-220v73h60l135 369h-72v73h56c-13 18 -21 40 -21 63c0 67 53 119 120 119s120 -52 120 -119c0 -23 -8 -45 -20 -63h58v-73h-72l136 -369h59v-73h-222v72h76l-34 95h-201l-34 -95h76v-72zM271 734l-25 28l116 136c14 16 31 26 48 26c24 0 44 -19 44 -46
c0 -16 -11 -35 -32 -49zM293 448l-75 -211h151zM293 519c32 0 54 27 54 59c0 33 -22 60 -54 60s-54 -27 -54 -60c0 -32 22 -59 54 -59z" />
    <glyph glyph-name="Atilde" unicode="&#xc3;" horiz-adv-x="702" 
d="M16 0v81h60l183 497h-73v80h330v-80h-74l183 -497h61v-81h-234v80h76l-49 139h-260l-49 -139h80v-80h-234zM245 295h208l-104 287zM427 727c-39 0 -66 17 -89 37c-24 21 -40 30 -55 30c-23 0 -39 -19 -48 -61l-63 15c8 80 56 131 106 131c39 0 66 -17 88 -37
c25 -21 41 -30 55 -30c24 0 40 19 49 61l62 -15c-7 -80 -55 -131 -105 -131z" />
    <glyph glyph-name="atilde" unicode="&#xe3;" horiz-adv-x="499" 
d="M182 -8c-79 0 -141 45 -141 123c0 79 70 130 169 130c45 0 95 -10 118 -17v49c0 25 -7 45 -19 60c-18 22 -48 33 -90 33c-27 0 -43 -6 -56 -13c3 -7 5 -16 5 -24c0 -28 -21 -49 -50 -49c-30 0 -51 21 -51 51c0 51 56 104 166 104c67 0 116 -20 145 -54
c22 -26 33 -60 33 -99v-214h67v-72h-148v52c-35 -33 -90 -60 -148 -60zM207 57c46 0 88 22 121 51v70c-29 8 -66 15 -105 15c-61 0 -95 -29 -95 -71c0 -39 29 -65 79 -65zM321 508c-39 0 -66 17 -89 37c-24 21 -40 30 -55 30c-23 0 -39 -19 -48 -61l-63 15
c8 80 56 131 106 131c39 0 66 -17 88 -37c25 -21 41 -30 55 -30c24 0 40 19 49 61l62 -15c-7 -80 -55 -131 -105 -131z" />
    <glyph glyph-name="atilde.sc" horiz-adv-x="589" 
d="M138 515h313v-73h-72l136 -369h59v-73h-222v72h76l-34 95h-201l-34 -95h76v-72h-220v73h60l135 369h-72v73zM370 589c-39 0 -66 17 -89 37c-24 21 -40 30 -55 30c-23 0 -39 -19 -48 -61l-63 15c8 80 56 131 106 131c39 0 66 -17 88 -37c25 -21 41 -30 55 -30
c24 0 40 19 49 61l62 -15c-7 -80 -55 -131 -105 -131zM293 448l-75 -211h151z" />
    <glyph glyph-name="Cacute" unicode="&#x106;" horiz-adv-x="702" 
d="M365 717l-25 28l116 136c14 16 31 26 48 26c24 0 44 -19 44 -46c0 -16 -11 -35 -32 -49zM394 -12c-203 0 -342 148 -342 339c0 201 155 343 339 343c144 0 250 -82 250 -161c0 -42 -28 -71 -64 -71c-37 0 -64 24 -64 60c0 17 8 31 17 38c-18 22 -67 51 -141 51
c-141 0 -244 -116 -244 -259c0 -137 100 -257 249 -257c78 0 142 32 197 86l57 -63c-65 -68 -158 -106 -254 -106z" />
    <glyph glyph-name="cacute" unicode="&#x107;" horiz-adv-x="484" 
d="M233 498l-25 28l116 136c14 16 31 26 48 26c24 0 44 -19 44 -46c0 -16 -11 -35 -32 -49zM272 -8c-134 0 -233 92 -233 225c0 116 93 222 216 222c107 0 185 -70 185 -136c0 -38 -26 -64 -61 -64c-28 0 -54 22 -54 54c0 14 7 28 18 36c-10 20 -46 39 -88 39
c-58 0 -129 -49 -129 -153c0 -89 65 -149 154 -149c50 0 95 15 148 46l-8 -79c-44 -28 -95 -41 -148 -41z" />
    <glyph glyph-name="cacute.sc" horiz-adv-x="566" 
d="M277 579l-25 28l116 136c14 16 31 26 48 26c24 0 44 -19 44 -46c0 -16 -11 -35 -32 -49zM466 137l53 -58c-52 -57 -129 -90 -210 -90c-162 0 -268 118 -268 269c0 156 116 271 274 271c116 0 199 -68 199 -134c0 -38 -24 -65 -59 -65s-59 21 -59 55c0 14 6 27 14 34
c-16 15 -50 32 -99 32c-105 0 -181 -79 -181 -193s78 -191 179 -191c63 0 115 27 157 70z" />
    <glyph glyph-name="Ccaron" unicode="&#x10c;" horiz-adv-x="702" 
d="M512 917l38 -44l-164 -159l-164 159l38 44l126 -94zM394 -12c-203 0 -342 148 -342 339c0 201 155 343 339 343c144 0 250 -82 250 -161c0 -42 -28 -71 -64 -71c-37 0 -64 24 -64 60c0 17 8 31 17 38c-18 22 -67 51 -141 51c-141 0 -244 -116 -244 -259
c0 -137 100 -257 249 -257c78 0 142 32 197 86l57 -63c-65 -68 -158 -106 -254 -106z" />
    <glyph glyph-name="ccaron" unicode="&#x10d;" horiz-adv-x="484" 
d="M380 698l38 -44l-164 -159l-164 159l38 44l126 -94zM272 -8c-134 0 -233 92 -233 225c0 116 93 222 216 222c107 0 185 -70 185 -136c0 -38 -26 -64 -61 -64c-28 0 -54 22 -54 54c0 14 7 28 18 36c-10 20 -46 39 -88 39c-58 0 -129 -49 -129 -153c0 -89 65 -149 154 -149
c50 0 95 15 148 46l-8 -79c-44 -28 -95 -41 -148 -41z" />
    <glyph glyph-name="ccaron.sc" horiz-adv-x="566" 
d="M424 779l38 -44l-164 -159l-164 159l38 44l126 -94zM466 137l53 -58c-52 -57 -129 -90 -210 -90c-162 0 -268 118 -268 269c0 156 116 271 274 271c116 0 199 -68 199 -134c0 -38 -24 -65 -59 -65s-59 21 -59 55c0 14 6 27 14 34c-16 15 -50 32 -99 32
c-105 0 -181 -79 -181 -193s78 -191 179 -191c63 0 115 27 157 70z" />
    <glyph glyph-name="Ccedilla" unicode="&#xc7;" horiz-adv-x="702" 
d="M382 -200c-39 0 -84 12 -117 31l16 33c29 -13 64 -20 87 -20c25 0 41 10 41 28c0 13 -12 28 -55 28c-5 0 -14 -1 -16 -1l-19 19l26 73c-176 22 -293 161 -293 336c0 201 155 343 339 343c144 0 250 -82 250 -161c0 -42 -28 -71 -64 -71c-37 0 -64 24 -64 60
c0 17 8 31 17 38c-18 22 -67 51 -141 51c-141 0 -244 -116 -244 -259c0 -137 100 -257 249 -257c78 0 142 32 197 86l57 -63c-65 -68 -158 -106 -254 -106h-7l1 -34c62 -6 99 -36 99 -78c0 -39 -38 -76 -105 -76z" />
    <glyph glyph-name="ccedilla" unicode="&#xe7;" horiz-adv-x="499" 
d="M260 -200c-39 0 -84 12 -117 31l16 33c29 -13 64 -20 87 -20c25 0 41 10 41 28c0 13 -12 28 -55 28c-5 0 -14 -1 -16 -1l-19 19l27 78c-109 19 -185 104 -185 221c0 116 93 222 216 222c107 0 185 -70 185 -136c0 -38 -26 -64 -61 -64c-28 0 -54 22 -54 54
c0 14 7 28 18 36c-10 20 -46 39 -88 39c-58 0 -129 -49 -129 -153c0 -89 65 -149 154 -149c50 0 95 15 148 46l-8 -79c-44 -28 -95 -41 -148 -41h-7l1 -38c62 -6 99 -36 99 -78c0 -39 -38 -76 -105 -76z" />
    <glyph glyph-name="ccedilla.sc" horiz-adv-x="570" 
d="M298 -200c-39 0 -84 12 -117 31l16 33c29 -13 64 -20 87 -20c25 0 41 10 41 28c0 13 -12 28 -55 28c-5 0 -14 -1 -16 -1l-19 19l26 75c-134 21 -219 129 -219 265c0 156 116 271 274 271c116 0 199 -68 199 -134c0 -38 -24 -65 -59 -65s-59 21 -59 55c0 14 6 27 14 34
c-16 15 -50 32 -99 32c-105 0 -181 -79 -181 -193s78 -191 179 -191c63 0 115 27 157 70l53 -58c-52 -57 -129 -90 -210 -90h-7l1 -35c62 -6 99 -36 99 -78c0 -39 -38 -76 -105 -76z" />
    <glyph glyph-name="Cdotaccent" unicode="&#x10a;" horiz-adv-x="702" 
d="M394 -12c-203 0 -342 148 -342 339c0 201 155 343 339 343c144 0 250 -82 250 -161c0 -42 -28 -71 -64 -71c-37 0 -64 24 -64 60c0 17 8 31 17 38c-18 22 -67 51 -141 51c-141 0 -244 -116 -244 -259c0 -137 100 -257 249 -257c78 0 142 32 197 86l57 -63
c-65 -68 -158 -106 -254 -106zM386 725c-35 0 -63 29 -63 65c0 35 29 64 64 64s64 -29 64 -64c0 -36 -30 -65 -65 -65z" />
    <glyph glyph-name="cdotaccent" unicode="&#x10b;" horiz-adv-x="484" 
d="M272 -8c-134 0 -233 92 -233 225c0 116 93 222 216 222c107 0 185 -70 185 -136c0 -38 -26 -64 -61 -64c-28 0 -54 22 -54 54c0 14 7 28 18 36c-10 20 -46 39 -88 39c-58 0 -129 -49 -129 -153c0 -89 65 -149 154 -149c50 0 95 15 148 46l-8 -79
c-44 -28 -95 -41 -148 -41zM254 506c-35 0 -63 29 -63 65c0 35 29 64 64 64s64 -29 64 -64c0 -36 -30 -65 -65 -65z" />
    <glyph glyph-name="cdotaccent.sc" horiz-adv-x="566" 
d="M466 137l53 -58c-52 -57 -129 -90 -210 -90c-162 0 -268 118 -268 269c0 156 116 271 274 271c116 0 199 -68 199 -134c0 -38 -24 -65 -59 -65s-59 21 -59 55c0 14 6 27 14 34c-16 15 -50 32 -99 32c-105 0 -181 -79 -181 -193s78 -191 179 -191c63 0 115 27 157 70z
M298 587c-35 0 -63 29 -63 65c0 35 29 64 64 64s64 -29 64 -64c0 -36 -30 -65 -65 -65z" />
    <glyph glyph-name="Dcaron" unicode="&#x10e;" horiz-adv-x="721" 
d="M461 917l38 -44l-164 -159l-164 159l38 44l126 -94zM43 0v81h80v496h-80v81h247c234 0 379 -126 379 -323c0 -199 -137 -335 -385 -335h-241zM214 81h82c185 0 280 102 280 255c0 152 -112 241 -288 241h-74v-496z" />
    <glyph glyph-name="dcaron" unicode="&#x10f;" horiz-adv-x="555" 
d="M521 490l-28 21c28 41 39 76 39 107c0 32 -13 46 -13 77c0 29 18 55 52 55c33 0 51 -24 51 -59c0 -71 -48 -146 -101 -201zM242 -8c-114 0 -202 90 -202 221c0 123 87 226 210 226c54 0 99 -20 128 -47v266h-74v74h160v-660h67v-72h-152v55c-34 -36 -77 -63 -137 -63z
M258 67c49 0 88 23 120 55v200c-31 24 -68 42 -118 42c-74 0 -131 -59 -132 -150c0 -90 57 -147 130 -147z" />
    <glyph glyph-name="dcaron.sc" horiz-adv-x="606" 
d="M211 73h63c136 0 204 76 204 189c0 114 -80 180 -210 180h-57v-369zM262 0h-219v73h82v369h-82v73h225c184 0 297 -97 297 -252c0 -157 -106 -263 -303 -263zM413 779l38 -44l-164 -159l-164 159l38 44l126 -94z" />
    <glyph glyph-name="Dcroat" unicode="&#x110;" horiz-adv-x="729" 
d="M131 299h-78v75h78v203h-80v81h247c231 0 379 -129 379 -323c0 -199 -137 -335 -379 -335h-247v81h80v218zM222 81h82c185 0 280 102 280 255c0 152 -112 241 -288 241h-74v-203h144v-75h-144v-218z" />
    <glyph glyph-name="dcroat" unicode="&#x111;" horiz-adv-x="555" 
d="M228 512v67h150v79h-74v74h160v-153h67v-67h-67v-440h67v-72h-152v55c-34 -36 -77 -63 -137 -63c-114 0 -202 90 -202 221c0 123 87 226 210 226c54 0 99 -20 128 -47v120h-150zM258 67c49 0 88 23 120 55v200c-31 24 -68 42 -118 42c-74 0 -131 -59 -132 -150
c0 -90 57 -147 130 -147z" />
    <glyph glyph-name="dcroat.sc" horiz-adv-x="608" 
d="M263 0h-220v73h82v150h-67v73h67v146h-82v73h226c183 0 296 -97 296 -252c0 -157 -106 -263 -302 -263zM212 73h63c135 0 203 76 203 189c0 114 -80 180 -209 180h-57v-146h112v-73h-112v-150z" />
    <glyph glyph-name="Eacute" unicode="&#xc9;" horiz-adv-x="583" 
d="M268 717l-25 28l116 136c14 16 31 26 48 26c24 0 44 -19 44 -46c0 -16 -11 -35 -32 -49zM43 0v81h80v496h-80v81h483v-172h-86v92h-226v-204h208v-78h-208v-216h226v92h87v-172h-484z" />
    <glyph glyph-name="eacute" unicode="&#xe9;" horiz-adv-x="491" 
d="M451 188h-323c12 -82 72 -122 156 -122c55 0 102 17 153 46l-7 -79c-45 -28 -100 -41 -159 -41c-139 0 -233 90 -233 222c0 121 83 225 214 225c133 0 203 -95 203 -205c0 -16 -2 -33 -4 -46zM250 368c-58 0 -111 -38 -122 -116h241c-4 69 -46 116 -119 116zM229 498
l-25 28l116 136c14 16 31 26 48 26c24 0 44 -19 44 -46c0 -16 -11 -35 -32 -49z" />
    <glyph glyph-name="eacute.sc" horiz-adv-x="518" 
d="M237 579l-25 28l116 136c14 16 31 26 48 26c24 0 44 -19 44 -46c0 -16 -11 -35 -32 -49zM465 0h-422v73h82v369h-82v73h422v-164h-80v93h-174v-151h159v-70h-159v-151h174v90h80v-162z" />
    <glyph glyph-name="Ebreve" unicode="&#x114;" horiz-adv-x="583" 
d="M43 0v81h80v496h-80v81h483v-172h-86v92h-226v-204h208v-78h-208v-216h226v92h87v-172h-484zM288 726c-75 0 -141 51 -169 152l57 23c25 -63 68 -94 112 -94c47 0 88 34 113 94l57 -23c-28 -101 -94 -152 -170 -152z" />
    <glyph glyph-name="ebreve" unicode="&#x115;" horiz-adv-x="491" 
d="M451 188h-323c12 -82 72 -122 156 -122c55 0 102 17 153 46l-7 -79c-45 -28 -100 -41 -159 -41c-139 0 -233 90 -233 222c0 121 83 225 214 225c133 0 203 -95 203 -205c0 -16 -2 -33 -4 -46zM249 507c-75 0 -141 51 -169 152l57 23c25 -63 68 -94 112 -94
c47 0 88 34 113 94l57 -23c-28 -101 -94 -152 -170 -152zM250 368c-58 0 -111 -38 -122 -116h241c-4 69 -46 116 -119 116z" />
    <glyph glyph-name="ebreve.sc" horiz-adv-x="518" 
d="M465 0h-422v73h82v369h-82v73h422v-164h-80v93h-174v-151h159v-70h-159v-151h174v90h80v-162zM257 588c-75 0 -141 51 -169 152l57 23c25 -63 68 -94 112 -94c47 0 88 34 113 94l57 -23c-28 -101 -94 -152 -170 -152z" />
    <glyph glyph-name="Ecaron" unicode="&#x11a;" horiz-adv-x="583" 
d="M415 917l38 -44l-164 -159l-164 159l38 44l126 -94zM43 0v81h80v496h-80v81h483v-172h-86v92h-226v-204h208v-78h-208v-216h226v92h87v-172h-484z" />
    <glyph glyph-name="ecaron" unicode="&#x11b;" horiz-adv-x="491" 
d="M451 188h-323c12 -82 72 -122 156 -122c55 0 102 17 153 46l-7 -79c-45 -28 -100 -41 -159 -41c-139 0 -233 90 -233 222c0 121 83 225 214 225c133 0 203 -95 203 -205c0 -16 -2 -33 -4 -46zM376 698l38 -44l-164 -159l-164 159l38 44l126 -94zM250 368
c-58 0 -111 -38 -122 -116h241c-4 69 -46 116 -119 116z" />
    <glyph glyph-name="ecaron.sc" horiz-adv-x="518" 
d="M384 779l38 -44l-164 -159l-164 159l38 44l126 -94zM465 0h-422v73h82v369h-82v73h422v-164h-80v93h-174v-151h159v-70h-159v-151h174v90h80v-162z" />
    <glyph glyph-name="Ecircumflex" unicode="&#xca;" horiz-adv-x="583" 
d="M164 717l-38 43l164 160l164 -160l-38 -43l-126 94zM43 0v81h80v496h-80v81h483v-172h-86v92h-226v-204h208v-78h-208v-216h226v92h87v-172h-484z" />
    <glyph glyph-name="ecircumflex" unicode="&#xea;" horiz-adv-x="491" 
d="M451 188h-323c12 -82 72 -122 156 -122c55 0 102 17 153 46l-7 -79c-45 -28 -100 -41 -159 -41c-139 0 -233 90 -233 222c0 121 83 225 214 225c133 0 203 -95 203 -205c0 -16 -2 -33 -4 -46zM124 498l-38 43l164 160l164 -160l-38 -43l-126 94zM250 368
c-58 0 -111 -38 -122 -116h241c-4 69 -46 116 -119 116z" />
    <glyph glyph-name="ecircumflex.sc" horiz-adv-x="518" 
d="M132 579l-38 43l164 160l164 -160l-38 -43l-126 94zM465 0h-422v73h82v369h-82v73h422v-164h-80v93h-174v-151h159v-70h-159v-151h174v90h80v-162z" />
    <glyph glyph-name="Edieresis" unicode="&#xcb;" horiz-adv-x="583" 
d="M383 732c-35 0 -63 28 -63 64c0 35 29 63 64 63s63 -28 63 -63c0 -36 -30 -64 -64 -64zM195 732c-34 0 -63 28 -63 64c0 35 30 63 64 63c35 0 63 -28 63 -63c0 -36 -29 -64 -64 -64zM43 0v81h80v496h-80v81h483v-172h-86v92h-226v-204h208v-78h-208v-216h226v92h87v-172
h-484z" />
    <glyph glyph-name="edieresis" unicode="&#xeb;" horiz-adv-x="491" 
d="M451 188h-323c12 -82 72 -122 156 -122c55 0 102 17 153 46l-7 -79c-45 -28 -100 -41 -159 -41c-139 0 -233 90 -233 222c0 121 83 225 214 225c133 0 203 -95 203 -205c0 -16 -2 -33 -4 -46zM250 368c-58 0 -111 -38 -122 -116h241c-4 69 -46 116 -119 116zM344 513
c-35 0 -63 28 -63 64c0 35 29 63 64 63s63 -28 63 -63c0 -36 -30 -64 -64 -64zM156 513c-34 0 -63 28 -63 64c0 35 30 63 64 63c35 0 63 -28 63 -63c0 -36 -29 -64 -64 -64z" />
    <glyph glyph-name="edieresis.sc" horiz-adv-x="518" 
d="M352 594c-35 0 -63 28 -63 64c0 35 29 63 64 63s63 -28 63 -63c0 -36 -30 -64 -64 -64zM164 594c-34 0 -63 28 -63 64c0 35 30 63 64 63c35 0 63 -28 63 -63c0 -36 -29 -64 -64 -64zM465 0h-422v73h82v369h-82v73h422v-164h-80v93h-174v-151h159v-70h-159v-151h174v90h80
v-162z" />
    <glyph glyph-name="Edotaccent" unicode="&#x116;" horiz-adv-x="583" 
d="M43 0v81h80v496h-80v81h483v-172h-86v92h-226v-204h208v-78h-208v-216h226v92h87v-172h-484zM289 725c-35 0 -63 29 -63 65c0 35 29 64 64 64s64 -29 64 -64c0 -36 -30 -65 -65 -65z" />
    <glyph glyph-name="edotaccent" unicode="&#x117;" horiz-adv-x="491" 
d="M451 188h-323c12 -82 72 -122 156 -122c55 0 102 17 153 46l-7 -79c-45 -28 -100 -41 -159 -41c-139 0 -233 90 -233 222c0 121 83 225 214 225c133 0 203 -95 203 -205c0 -16 -2 -33 -4 -46zM250 368c-58 0 -111 -38 -122 -116h241c-4 69 -46 116 -119 116zM250 506
c-35 0 -63 29 -63 65c0 35 29 64 64 64s64 -29 64 -64c0 -36 -30 -65 -65 -65z" />
    <glyph glyph-name="edotaccent.sc" horiz-adv-x="518" 
d="M258 587c-35 0 -63 29 -63 65c0 35 29 64 64 64s64 -29 64 -64c0 -36 -30 -65 -65 -65zM465 0h-422v73h82v369h-82v73h422v-164h-80v93h-174v-151h159v-70h-159v-151h174v90h80v-162z" />
    <glyph glyph-name="Egrave" unicode="&#xc8;" horiz-adv-x="583" 
d="M43 0v81h80v496h-80v81h483v-172h-86v92h-226v-204h208v-78h-208v-216h226v92h87v-172h-484zM311 717l-150 95c-21 14 -33 33 -33 49c0 27 21 46 44 46c17 0 34 -10 48 -26l116 -136z" />
    <glyph glyph-name="egrave" unicode="&#xe8;" horiz-adv-x="491" 
d="M451 188h-323c12 -82 72 -122 156 -122c55 0 102 17 153 46l-7 -79c-45 -28 -100 -41 -159 -41c-139 0 -233 90 -233 222c0 121 83 225 214 225c133 0 203 -95 203 -205c0 -16 -2 -33 -4 -46zM250 368c-58 0 -111 -38 -122 -116h241c-4 69 -46 116 -119 116zM272 498
l-150 95c-21 14 -33 33 -33 49c0 27 21 46 44 46c17 0 34 -10 48 -26l116 -136z" />
    <glyph glyph-name="egrave.sc" horiz-adv-x="518" 
d="M280 579l-150 95c-21 14 -33 33 -33 49c0 27 21 46 44 46c17 0 34 -10 48 -26l116 -136zM465 0h-422v73h82v369h-82v73h422v-164h-80v93h-174v-151h159v-70h-159v-151h174v90h80v-162z" />
    <glyph glyph-name="Emacron" unicode="&#x112;" horiz-adv-x="583" 
d="M43 0v81h80v496h-80v81h483v-172h-86v92h-226v-204h208v-78h-208v-216h226v92h87v-172h-484zM132 749v75h316v-75h-316z" />
    <glyph glyph-name="emacron" unicode="&#x113;" horiz-adv-x="491" 
d="M451 188h-323c12 -82 72 -122 156 -122c55 0 102 17 153 46l-7 -79c-45 -28 -100 -41 -159 -41c-139 0 -233 90 -233 222c0 121 83 225 214 225c133 0 203 -95 203 -205c0 -16 -2 -33 -4 -46zM92 530v75h316v-75h-316zM250 368c-58 0 -111 -38 -122 -116h241
c-4 69 -46 116 -119 116z" />
    <glyph glyph-name="emacron.sc" horiz-adv-x="518" 
d="M100 611v75h316v-75h-316zM465 0h-422v73h82v369h-82v73h422v-164h-80v93h-174v-151h159v-70h-159v-151h174v90h80v-162z" />
    <glyph glyph-name="Eogonek" unicode="&#x118;" horiz-adv-x="583" 
d="M43 0v81h80v496h-80v81h483v-172h-86v92h-226v-204h208v-78h-208v-216h226v92h87v-172h-69c-37 -21 -61 -51 -61 -83s18 -50 54 -50c28 0 53 8 75 19l-4 -65c-17 -10 -52 -22 -90 -22c-72 0 -109 40 -109 97c0 44 24 78 58 104h-338z" />
    <glyph glyph-name="eogonek" unicode="&#x119;" horiz-adv-x="491" 
d="M451 188h-323c12 -82 72 -122 156 -122c55 0 102 17 153 46l-7 -80c-69 -31 -134 -65 -134 -117c0 -30 18 -48 54 -48c28 0 53 8 75 19l-5 -65c-16 -10 -51 -22 -89 -22c-72 0 -109 40 -109 97c0 40 18 72 47 96c-138 1 -231 90 -231 222c0 121 83 225 214 225
c133 0 203 -95 203 -205c0 -16 -2 -33 -4 -46zM250 368c-58 0 -111 -38 -122 -116h241c-4 69 -46 116 -119 116z" />
    <glyph glyph-name="eogonek.sc" horiz-adv-x="518" 
d="M465 0h-68c-37 -21 -61 -51 -61 -83s18 -50 54 -50c28 0 53 8 75 19l-4 -65c-17 -10 -52 -22 -90 -22c-72 0 -109 40 -109 97c0 44 24 78 58 104h-277v73h82v369h-82v73h422v-164h-80v93h-174v-151h159v-70h-159v-151h174v90h80v-162z" />
    <glyph glyph-name="Eth" unicode="&#xd0;" horiz-adv-x="729" 
d="M131 299h-78v75h78v203h-80v81h247c231 0 379 -129 379 -323c0 -199 -137 -335 -379 -335h-247v81h80v218zM222 81h82c185 0 280 102 280 255c0 152 -112 241 -288 241h-74v-203h144v-75h-144v-218z" />
    <glyph glyph-name="eth" unicode="&#xf0;" horiz-adv-x="534" 
d="M205 464l-46 54l102 89c-34 28 -69 47 -100 55c-6 -21 -24 -40 -54 -40c-27 0 -52 21 -52 55c0 36 33 63 78 63c25 0 53 -7 82 -20c35 -15 71 -38 105 -69l98 85l45 -54l-94 -82c72 -86 126 -206 126 -349c0 -92 -28 -160 -74 -203c-39 -38 -93 -56 -153 -56
c-136 0 -228 95 -228 213s92 213 225 213c53 0 107 -25 142 -64c-12 80 -50 149 -96 203zM412 208c0 76 -60 137 -144 137c-85 0 -144 -61 -144 -141s59 -140 144 -140c41 0 74 15 99 39c29 28 45 66 45 105z" />
    <glyph glyph-name="eth.sc" horiz-adv-x="608" 
d="M263 0h-220v73h82v150h-67v73h67v146h-82v73h226c183 0 296 -97 296 -252c0 -157 -106 -263 -302 -263zM212 73h63c135 0 203 76 203 189c0 114 -80 180 -209 180h-57v-146h112v-73h-112v-150z" />
    <glyph glyph-name="Gbreve" unicode="&#x11e;" horiz-adv-x="732" 
d="M370 -12c-164 0 -318 127 -318 337c0 206 156 345 343 345c150 0 250 -81 250 -155c0 -42 -27 -70 -62 -70c-37 0 -64 25 -64 61c0 15 5 28 13 36c-23 22 -71 45 -140 45c-144 0 -247 -111 -247 -261c0 -155 111 -257 237 -257c72 0 129 20 180 54v129h-175v77h264v-329
h-87v53c-52 -39 -114 -65 -194 -65zM380 726c-75 0 -141 51 -169 152l57 23c25 -63 68 -94 112 -94c47 0 88 34 113 94l57 -23c-28 -101 -94 -152 -170 -152z" />
    <glyph glyph-name="gbreve" unicode="&#x11f;" horiz-adv-x="556" 
d="M462 357v-366c0 -53 -14 -96 -40 -127c-36 -44 -95 -64 -163 -64c-71 0 -128 22 -156 50c-16 16 -23 33 -23 52c0 30 22 56 54 56c29 0 50 -21 50 -49c0 -8 -2 -17 -6 -24c15 -6 40 -14 76 -14c41 0 77 12 100 41c14 18 22 44 22 79v75c-34 -35 -73 -61 -135 -61
c-111 0 -201 87 -201 214c0 119 87 220 208 220c57 0 100 -22 132 -51v43h149v-74h-67zM261 364c-78 0 -133 -58 -133 -144s55 -141 131 -141c47 0 86 22 117 54v189c-29 24 -66 42 -115 42zM282 507c-75 0 -141 51 -169 152l57 23c25 -63 68 -94 112 -94c47 0 88 34 113 94
l57 -23c-28 -101 -94 -152 -170 -152z" />
    <glyph glyph-name="gbreve.sc" horiz-adv-x="589" 
d="M312 452c-107 0 -182 -81 -182 -194c0 -114 81 -194 178 -194c51 0 94 13 130 38v92h-133v70h217v-264h-82v37c-36 -27 -84 -48 -148 -48c-130 0 -251 101 -251 268c0 163 121 272 276 272c122 0 203 -68 203 -131c0 -39 -24 -65 -59 -65s-59 22 -59 55c0 13 6 26 12 33
c-18 15 -53 31 -102 31zM305 588c-75 0 -141 51 -169 152l57 23c25 -63 68 -94 112 -94c47 0 88 34 113 94l57 -23c-28 -101 -94 -152 -170 -152z" />
    <glyph glyph-name="Gcommaaccent" unicode="&#x122;" horiz-adv-x="732" 
d="M311 -293l-20 27c55 43 77 83 79 106c-27 6 -46 28 -46 56c0 30 25 55 56 55c34 0 62 -25 62 -72c0 -48 -33 -118 -131 -172zM370 -12c-164 0 -318 127 -318 337c0 206 156 345 343 345c150 0 250 -81 250 -155c0 -42 -27 -70 -62 -70c-37 0 -64 25 -64 61
c0 15 5 28 13 36c-23 22 -71 45 -140 45c-144 0 -247 -111 -247 -261c0 -155 111 -257 237 -257c72 0 129 20 180 54v129h-175v77h264v-329h-87v53c-52 -39 -114 -65 -194 -65z" />
    <glyph glyph-name="gcommaaccent" unicode="&#x123;" horiz-adv-x="556" 
d="M380 748l20 -27c-55 -43 -77 -83 -79 -106c27 -6 46 -28 46 -56c0 -30 -25 -55 -56 -55c-34 0 -62 25 -62 72c0 48 33 118 131 172zM462 357v-366c0 -53 -14 -96 -40 -127c-36 -44 -95 -64 -163 -64c-71 0 -128 22 -156 50c-16 16 -23 33 -23 52c0 30 22 56 54 56
c29 0 50 -21 50 -49c0 -8 -2 -17 -6 -24c15 -6 40 -14 76 -14c41 0 77 12 100 41c14 18 22 44 22 79v75c-34 -35 -73 -61 -135 -61c-111 0 -201 87 -201 214c0 119 87 220 208 220c57 0 100 -22 132 -51v43h149v-74h-67zM261 364c-78 0 -133 -58 -133 -144s55 -141 131 -141
c47 0 86 22 117 54v189c-29 24 -66 42 -115 42z" />
    <glyph glyph-name="gcommaaccent.sc" horiz-adv-x="589" 
d="M236 -301l-20 27c55 43 77 83 79 106c-27 6 -46 28 -46 56c0 30 25 55 56 55c34 0 62 -25 62 -72c0 -48 -33 -118 -131 -172zM312 452c-107 0 -182 -81 -182 -194c0 -114 81 -194 178 -194c51 0 94 13 130 38v92h-133v70h217v-264h-82v37c-36 -27 -84 -48 -148 -48
c-130 0 -251 101 -251 268c0 163 121 272 276 272c122 0 203 -68 203 -131c0 -39 -24 -65 -59 -65s-59 22 -59 55c0 13 6 26 12 33c-18 15 -53 31 -102 31z" />
    <glyph glyph-name="Gdotaccent" unicode="&#x120;" horiz-adv-x="732" 
d="M370 -12c-164 0 -318 127 -318 337c0 206 156 345 343 345c150 0 250 -81 250 -155c0 -42 -27 -70 -62 -70c-37 0 -64 25 -64 61c0 15 5 28 13 36c-23 22 -71 45 -140 45c-144 0 -247 -111 -247 -261c0 -155 111 -257 237 -257c72 0 129 20 180 54v129h-175v77h264v-329
h-87v53c-52 -39 -114 -65 -194 -65zM381 725c-35 0 -63 29 -63 65c0 35 29 64 64 64s64 -29 64 -64c0 -36 -30 -65 -65 -65z" />
    <glyph glyph-name="gdotaccent" unicode="&#x121;" horiz-adv-x="556" 
d="M462 357v-366c0 -53 -14 -96 -40 -127c-36 -44 -95 -64 -163 -64c-71 0 -128 22 -156 50c-16 16 -23 33 -23 52c0 30 22 56 54 56c29 0 50 -21 50 -49c0 -8 -2 -17 -6 -24c15 -6 40 -14 76 -14c41 0 77 12 100 41c14 18 22 44 22 79v75c-34 -35 -73 -61 -135 -61
c-111 0 -201 87 -201 214c0 119 87 220 208 220c57 0 100 -22 132 -51v43h149v-74h-67zM261 364c-78 0 -133 -58 -133 -144s55 -141 131 -141c47 0 86 22 117 54v189c-29 24 -66 42 -115 42zM277 506c-35 0 -63 29 -63 65c0 35 29 64 64 64s64 -29 64 -64
c0 -36 -30 -65 -65 -65z" />
    <glyph glyph-name="gdotaccent.sc" horiz-adv-x="589" 
d="M312 452c-107 0 -182 -81 -182 -194c0 -114 81 -194 178 -194c51 0 94 13 130 38v92h-133v70h217v-264h-82v37c-36 -27 -84 -48 -148 -48c-130 0 -251 101 -251 268c0 163 121 272 276 272c122 0 203 -68 203 -131c0 -39 -24 -65 -59 -65s-59 22 -59 55c0 13 6 26 12 33
c-18 15 -53 31 -102 31zM306 587c-35 0 -63 29 -63 65c0 35 29 64 64 64s64 -29 64 -64c0 -36 -30 -65 -65 -65z" />
    <glyph glyph-name="Hbar" unicode="&#x126;" horiz-adv-x="767" 
d="M62 439v69h61v74h-80v76h255v-76h-84v-74h339v74h-84v76h255v-76h-80v-74h60v-69h-60v-358h80v-81h-255v81h84v202h-339v-202h84v-81h-255v81h80v358h-61zM214 363h339v76h-339v-76z" />
    <glyph glyph-name="hbar" unicode="&#x127;" horiz-adv-x="560" 
d="M96 658h-67v74h153v-153h150v-67h-150v-153c41 44 92 80 153 80c49 0 86 -17 108 -46c19 -25 29 -59 29 -99v-222h67v-72h-217v72h64v203c0 28 -6 47 -17 61c-13 16 -33 24 -59 24c-47 0 -92 -28 -128 -65v-223h64v-72h-217v72h67v440h-67v67h67v79z" />
    <glyph glyph-name="hbar.sc" horiz-adv-x="672" 
d="M607 394v-63h-61v-258h83v-73h-253v73h84v143h-248v-143h83v-73h-252v73h82v258h-61v63h61v48h-82v73h252v-71h-83v-53h248v53h-84v71h253v-73h-83v-48h61zM212 282h248v51h-248v-51z" />
    <glyph glyph-name="Iacute" unicode="&#xcd;" horiz-adv-x="348" 
d="M43 0v81h86v496h-86v81h261v-81h-85v-496h85v-81h-261zM151 717l-25 28l116 136c14 16 31 26 48 26c24 0 44 -19 44 -46c0 -16 -11 -35 -32 -49z" />
    <glyph glyph-name="iacute" unicode="&#xed;" horiz-adv-x="296" 
d="M120 498l-25 28l116 136c14 16 31 26 48 26c24 0 44 -19 44 -46c0 -16 -11 -35 -32 -49zM38 0v72h70v285h-70v74h156v-359h69v-72h-225z" />
    <glyph glyph-name="iacute.sc" horiz-adv-x="342" 
d="M148 579l-25 28l116 136c14 16 31 26 48 26c24 0 44 -19 44 -46c0 -16 -11 -35 -32 -49zM299 0h-256v73h85v369h-85v73h256v-73h-85v-369h85v-73z" />
    <glyph glyph-name="Ibreve" unicode="&#x12c;" horiz-adv-x="348" 
d="M43 0v81h86v496h-86v81h261v-81h-85v-496h85v-81h-261zM172 726c-75 0 -141 51 -169 152l57 23c25 -63 68 -94 112 -94c47 0 88 34 113 94l57 -23c-28 -101 -94 -152 -170 -152z" />
    <glyph glyph-name="ibreve" unicode="&#x12d;" horiz-adv-x="296" 
d="M38 0v72h70v285h-70v74h156v-359h69v-72h-225zM142 507c-75 0 -141 51 -169 152l57 23c25 -63 68 -94 112 -94c47 0 88 34 113 94l57 -23c-28 -101 -94 -152 -170 -152z" />
    <glyph glyph-name="ibreve.sc" horiz-adv-x="342" 
d="M299 0h-256v73h85v369h-85v73h256v-73h-85v-369h85v-73zM170 588c-75 0 -141 51 -169 152l57 23c25 -63 68 -94 112 -94c47 0 88 34 113 94l57 -23c-28 -101 -94 -152 -170 -152z" />
    <glyph glyph-name="Icircumflex" unicode="&#xce;" horiz-adv-x="348" 
d="M43 0v81h86v496h-86v81h261v-81h-85v-496h85v-81h-261zM48 717l-38 43l164 160l164 -160l-38 -43l-126 94z" />
    <glyph glyph-name="icircumflex" unicode="&#xee;" horiz-adv-x="296" 
d="M17 498l-38 43l164 160l164 -160l-38 -43l-126 94zM38 0v72h70v285h-70v74h156v-359h69v-72h-225z" />
    <glyph glyph-name="icircumflex.sc" horiz-adv-x="342" 
d="M45 579l-38 43l164 160l164 -160l-38 -43l-126 94zM299 0h-256v73h85v369h-85v73h256v-73h-85v-369h85v-73z" />
    <glyph glyph-name="Idieresis" unicode="&#xcf;" horiz-adv-x="348" 
d="M43 0v81h86v496h-86v81h261v-81h-85v-496h85v-81h-261zM267 732c-35 0 -63 28 -63 64c0 35 29 63 64 63s63 -28 63 -63c0 -36 -30 -64 -64 -64zM79 732c-34 0 -63 28 -63 64c0 35 30 63 64 63c35 0 63 -28 63 -63c0 -36 -29 -64 -64 -64z" />
    <glyph glyph-name="idieresis" unicode="&#xef;" horiz-adv-x="296" 
d="M237 513c-35 0 -63 28 -63 64c0 35 29 63 64 63s63 -28 63 -63c0 -36 -30 -64 -64 -64zM49 513c-34 0 -63 28 -63 64c0 35 30 63 64 63c35 0 63 -28 63 -63c0 -36 -29 -64 -64 -64zM38 0v72h70v285h-70v74h156v-359h69v-72h-225z" />
    <glyph glyph-name="idieresis.sc" horiz-adv-x="342" 
d="M265 594c-35 0 -63 28 -63 64c0 35 29 63 64 63s63 -28 63 -63c0 -36 -30 -64 -64 -64zM77 594c-34 0 -63 28 -63 64c0 35 30 63 64 63c35 0 63 -28 63 -63c0 -36 -29 -64 -64 -64zM299 0h-256v73h85v369h-85v73h256v-73h-85v-369h85v-73z" />
    <glyph glyph-name="Idotaccent" unicode="&#x130;" horiz-adv-x="348" 
d="M43 0v81h86v496h-86v81h261v-81h-85v-496h85v-81h-261zM172 725c-35 0 -63 29 -63 65c0 35 29 64 64 64s64 -29 64 -64c0 -36 -30 -65 -65 -65z" />
    <glyph glyph-name="idotaccent.sc" horiz-adv-x="342" 
d="M299 0h-256v73h85v369h-85v73h256v-73h-85v-369h85v-73zM169 587c-35 0 -63 29 -63 65c0 35 29 64 64 64s64 -29 64 -64c0 -36 -30 -65 -65 -65z" />
    <glyph glyph-name="dotlessi" unicode="&#x131;" horiz-adv-x="296" 
d="M38 0v72h70v285h-70v74h156v-359h69v-72h-225z" />
    <glyph glyph-name="dotlessi.sc" horiz-adv-x="342" 
d="M299 0h-256v73h85v369h-85v73h256v-73h-85v-369h85v-73z" />
    <glyph glyph-name="Igrave" unicode="&#xcc;" horiz-adv-x="348" 
d="M43 0v81h86v496h-86v81h261v-81h-85v-496h85v-81h-261zM195 717l-150 95c-21 14 -33 33 -33 49c0 27 21 46 44 46c17 0 34 -10 48 -26l116 -136z" />
    <glyph glyph-name="igrave" unicode="&#xec;" horiz-adv-x="296" 
d="M38 0v72h70v285h-70v74h156v-359h69v-72h-225zM165 498l-150 95c-21 14 -33 33 -33 49c0 27 21 46 44 46c17 0 34 -10 48 -26l116 -136z" />
    <glyph glyph-name="igrave.sc" horiz-adv-x="342" 
d="M299 0h-256v73h85v369h-85v73h256v-73h-85v-369h85v-73zM193 579l-150 95c-21 14 -33 33 -33 49c0 27 21 46 44 46c17 0 34 -10 48 -26l116 -136z" />
    <glyph glyph-name="Imacron" unicode="&#x12a;" horiz-adv-x="348" 
d="M43 0v81h86v496h-86v81h261v-81h-85v-496h85v-81h-261zM16 749v75h316v-75h-316z" />
    <glyph glyph-name="imacron" unicode="&#x12b;" horiz-adv-x="296" 
d="M38 0v72h70v285h-70v74h156v-359h69v-72h-225zM-15 530v75h316v-75h-316z" />
    <glyph glyph-name="imacron.sc" horiz-adv-x="342" 
d="M299 0h-256v73h85v369h-85v73h256v-73h-85v-369h85v-73zM13 611v75h316v-75h-316z" />
    <glyph glyph-name="Iogonek" unicode="&#x12e;" horiz-adv-x="348" 
d="M43 0v81h86v496h-86v81h261v-81h-85v-496h85v-81h-89c-37 -21 -61 -51 -61 -83s18 -50 54 -50c28 0 53 8 75 19l-4 -65c-17 -10 -52 -22 -90 -22c-72 0 -109 40 -109 97c0 44 24 78 58 104h-95z" />
    <glyph glyph-name="iogonek" unicode="&#x12f;" horiz-adv-x="296" 
d="M38 0v72h70v285h-70v74h156v-359h69v-72h-85c-37 -21 -61 -51 -61 -83s18 -50 54 -50c28 0 53 8 75 19l-4 -65c-17 -10 -52 -22 -90 -22c-72 0 -109 40 -109 97c0 44 24 78 58 104h-63zM141 522c-34 0 -62 28 -62 63c0 34 29 62 63 62c33 0 62 -28 62 -62
c0 -35 -30 -63 -63 -63z" />
    <glyph glyph-name="iogonek.sc" horiz-adv-x="342" 
d="M175 -201c-72 0 -109 40 -109 97c0 44 24 78 58 104h-81v73h85v369h-85v73h256v-73h-85v-369h85v-73h-98c-37 -21 -61 -51 -61 -83s18 -50 54 -50c28 0 53 8 75 19l-4 -65c-17 -10 -52 -22 -90 -22z" />
    <glyph glyph-name="Kcommaaccent" unicode="&#x136;" horiz-adv-x="677" 
d="M281 -293l-20 27c55 43 77 83 79 106c-27 6 -46 28 -46 56c0 30 25 55 56 55c34 0 62 -25 62 -72c0 -48 -33 -118 -131 -172zM43 0v81h80v496h-80v81h255v-79h-84v-260l258 260h-83v79h270v-81h-73l-201 -199l192 -297h84v-81h-142l-202 317l-103 -102v-134h84v-81h-255z
" />
    <glyph glyph-name="kcommaaccent" unicode="&#x137;" horiz-adv-x="536" 
d="M200 -293l-20 27c55 43 77 83 79 106c-27 6 -46 28 -46 56c0 30 25 55 56 55c34 0 62 -25 62 -72c0 -48 -33 -118 -131 -172zM29 0v72h67v586h-67v74h153v-507l156 136h-73v70h248v-74h-78l-120 -103l123 -180h75v-74h-126l-135 206l-70 -60v-75h63v-71h-216z" />
    <glyph glyph-name="kcommaaccent.sc" horiz-adv-x="598" 
d="M239 -301l-20 27c55 43 77 83 79 106c-27 6 -46 28 -46 56c0 30 25 55 56 55c34 0 62 -25 62 -72c0 -48 -33 -118 -131 -172zM509 442l-160 -157l145 -212h81v-73h-136l-153 229l-74 -70v-86h81v-73h-250v73h83v369h-83v73h241v-71h-72v-194l199 194h-70v71h228v-73h-60z
" />
    <glyph glyph-name="Lacute" unicode="&#x139;" horiz-adv-x="552" 
d="M180 723l-25 28l116 136c14 16 31 26 48 26c24 0 44 -19 44 -46c0 -16 -11 -35 -32 -49zM43 0v81h80v496h-80v81h260v-81h-89v-497h208v97h87v-177h-466z" />
    <glyph glyph-name="lacute" unicode="&#x13a;" horiz-adv-x="285" 
d="M133 780l-25 28l116 136c14 16 31 26 48 26c24 0 44 -19 44 -46c0 -16 -11 -35 -32 -49zM30 0v72h70v586h-70v74h156v-660h69v-72h-225z" />
    <glyph glyph-name="lacute.sc" horiz-adv-x="490" 
d="M382 73v97h81v-170h-420v73h82v369h-82v73h254v-73h-86v-369h171zM156 573l-25 28l116 136c14 16 31 26 48 26c24 0 44 -19 44 -46c0 -16 -11 -35 -32 -49z" />
    <glyph glyph-name="Lcaron" unicode="&#x13d;" horiz-adv-x="552" 
d="M368 401l-28 21c28 41 39 76 39 107c0 32 -13 46 -13 77c0 29 18 55 52 55c33 0 51 -24 51 -59c0 -71 -48 -146 -101 -201zM43 0v81h80v496h-80v81h260v-81h-89v-497h208v97h87v-177h-466z" />
    <glyph glyph-name="lcaron" unicode="&#x13e;" horiz-adv-x="285" 
d="M243 490l-28 21c28 41 39 76 39 107c0 32 -13 46 -13 77c0 29 18 55 52 55c33 0 51 -24 51 -59c0 -71 -48 -146 -101 -201zM30 0v72h70v586h-70v74h156v-660h69v-72h-225z" />
    <glyph glyph-name="lcaron.sc" horiz-adv-x="490" 
d="M382 73v97h81v-170h-420v73h82v369h-82v73h254v-73h-86v-369h171zM349 280l-28 21c28 41 39 76 39 107c0 32 -13 46 -13 77c0 29 18 55 52 55c33 0 51 -24 51 -59c0 -71 -48 -146 -101 -201z" />
    <glyph glyph-name="Lcommaaccent" unicode="&#x13b;" horiz-adv-x="552" 
d="M205 -293l-20 27c55 43 77 83 79 106c-27 6 -46 28 -46 56c0 30 25 55 56 55c34 0 62 -25 62 -72c0 -48 -33 -118 -131 -172zM43 0v81h80v496h-80v81h260v-81h-89v-497h208v97h87v-177h-466z" />
    <glyph glyph-name="lcommaaccent" unicode="&#x13c;" horiz-adv-x="285" 
d="M72 -293l-20 27c55 43 77 83 79 106c-27 6 -46 28 -46 56c0 30 25 55 56 55c34 0 62 -25 62 -72c0 -48 -33 -118 -131 -172zM30 0v72h70v586h-70v74h156v-660h69v-72h-225z" />
    <glyph glyph-name="lcommaaccent.sc" horiz-adv-x="490" 
d="M382 73v97h81v-170h-420v73h82v369h-82v73h254v-73h-86v-369h171zM182 -301l-20 27c55 43 77 83 79 106c-27 6 -46 28 -46 56c0 30 25 55 56 55c34 0 62 -25 62 -72c0 -48 -33 -118 -131 -172z" />
    <glyph glyph-name="Ldot" unicode="&#x13f;" horiz-adv-x="552" 
d="M43 0v81h80v496h-80v81h260v-81h-89v-497h208v97h87v-177h-466zM443 300c-35 0 -63 29 -63 65c0 35 29 64 64 64s64 -29 64 -64c0 -36 -30 -65 -65 -65z" />
    <glyph glyph-name="ldot" unicode="&#x140;" horiz-adv-x="340" 
d="M30 0v72h70v586h-70v74h156v-660h69v-72h-225zM312 278c-35 0 -63 29 -63 65c0 35 29 64 64 64s64 -29 64 -64c0 -36 -30 -65 -65 -65z" />
    <glyph glyph-name="ldot.sc" horiz-adv-x="490" 
d="M382 73v97h81v-170h-420v73h82v369h-82v73h254v-73h-86v-369h171zM412 233c-35 0 -63 29 -63 65c0 35 29 64 64 64s64 -29 64 -64c0 -36 -30 -65 -65 -65z" />
    <glyph glyph-name="Lslash" unicode="&#x141;" horiz-adv-x="555" 
d="M46 0v81h80v176l-80 -45l-37 63l117 66v236h-80v81h260v-81h-89v-184l129 74l36 -63l-165 -95v-229h208v97h87v-177h-466z" />
    <glyph glyph-name="lslash" unicode="&#x142;" horiz-adv-x="293" 
d="M34 0v72h70v276l-78 -46l-35 62l113 66v228h-70v74h156v-257l75 43l35 -61l-110 -64v-321h69v-72h-225z" />
    <glyph glyph-name="lslash.sc" horiz-adv-x="494" 
d="M385 73v97h81v-170h-420v73h82v121l-78 -38l-32 62l110 54v170h-82v73h254v-73h-86v-128l114 56l30 -62l-144 -71v-164h171z" />
    <glyph glyph-name="Nacute" unicode="&#x143;" horiz-adv-x="755" 
d="M354 717l-25 28l116 136c14 16 31 26 48 26c24 0 44 -19 44 -46c0 -16 -11 -35 -32 -49zM595 -3l-384 500v-416h84v-81h-252v81h80v496h-80v81h158l356 -464v383h-84v81h249v-81h-77v-579z" />
    <glyph glyph-name="nacute" unicode="&#x144;" horiz-adv-x="566" 
d="M268 498l-25 28l116 136c14 16 31 26 48 26c24 0 44 -19 44 -46c0 -16 -11 -35 -32 -49zM186 431v-75c41 44 95 83 157 83c54 0 91 -21 113 -55c14 -24 22 -54 22 -90v-222h67v-72h-217v72h64v203c0 21 -3 38 -10 51c-12 23 -33 34 -64 34c-47 0 -92 -28 -129 -65v-223
h64v-72h-216v72h67v285h-67v74h149z" />
    <glyph glyph-name="nacute.sc" horiz-adv-x="661" 
d="M309 579l-25 28l116 136c14 16 31 26 48 26c24 0 44 -19 44 -46c0 -16 -11 -35 -32 -49zM198 515l267 -348v275h-81v73h246v-73h-83v-445h-57l-283 372v-296h79v-73h-244v73h82v369h-82v73h156z" />
    <glyph glyph-name="Ncaron" unicode="&#x147;" horiz-adv-x="755" 
d="M501 917l38 -44l-164 -159l-164 159l38 44l126 -94zM595 -3l-384 500v-416h84v-81h-252v81h80v496h-80v81h158l356 -464v383h-84v81h249v-81h-77v-579z" />
    <glyph glyph-name="ncaron" unicode="&#x148;" horiz-adv-x="566" 
d="M415 698l38 -44l-164 -159l-164 159l38 44l126 -94zM186 431v-75c41 44 95 83 157 83c54 0 91 -21 113 -55c14 -24 22 -54 22 -90v-222h67v-72h-217v72h64v203c0 21 -3 38 -10 51c-12 23 -33 34 -64 34c-47 0 -92 -28 -129 -65v-223h64v-72h-216v72h67v285h-67v74h149z
" />
    <glyph glyph-name="ncaron.sc" horiz-adv-x="661" 
d="M456 779l38 -44l-164 -159l-164 159l38 44l126 -94zM198 515l267 -348v275h-81v73h246v-73h-83v-445h-57l-283 372v-296h79v-73h-244v73h82v369h-82v73h156z" />
    <glyph glyph-name="Ncommaaccent" unicode="&#x145;" horiz-adv-x="755" 
d="M312 -289l-20 27c55 43 77 83 79 106c-27 6 -46 28 -46 56c0 30 25 55 56 55c34 0 62 -25 62 -72c0 -48 -33 -118 -131 -172zM595 -3l-384 500v-416h84v-81h-252v81h80v496h-80v81h158l356 -464v383h-84v81h249v-81h-77v-579z" />
    <glyph glyph-name="ncommaaccent" unicode="&#x146;" horiz-adv-x="566" 
d="M220 -293l-20 27c55 43 77 83 79 106c-27 6 -46 28 -46 56c0 30 25 55 56 55c34 0 62 -25 62 -72c0 -48 -33 -118 -131 -172zM186 431v-75c41 44 95 83 157 83c54 0 91 -21 113 -55c14 -24 22 -54 22 -90v-222h67v-72h-217v72h64v203c0 21 -3 38 -10 51
c-12 23 -33 34 -64 34c-47 0 -92 -28 -129 -65v-223h64v-72h-216v72h67v285h-67v74h149z" />
    <glyph glyph-name="ncommaaccent.sc" horiz-adv-x="661" 
d="M260 -301l-20 27c55 43 77 83 79 106c-27 6 -46 28 -46 56c0 30 25 55 56 55c34 0 62 -25 62 -72c0 -48 -33 -118 -131 -172zM198 515l267 -348v275h-81v73h246v-73h-83v-445h-57l-283 372v-296h79v-73h-244v73h82v369h-82v73h156z" />
    <glyph glyph-name="Ntilde" unicode="&#xd1;" horiz-adv-x="755" 
d="M595 -3l-384 500v-416h84v-81h-252v81h80v496h-80v81h158l356 -464v383h-84v81h249v-81h-77v-579zM453 727c-39 0 -66 17 -89 37c-24 21 -40 30 -55 30c-23 0 -39 -19 -48 -61l-63 15c8 80 56 131 106 131c39 0 66 -17 88 -37c25 -21 41 -30 55 -30c24 0 40 19 49 61
l62 -15c-7 -80 -55 -131 -105 -131z" />
    <glyph glyph-name="ntilde" unicode="&#xf1;" horiz-adv-x="566" 
d="M186 431v-75c41 44 95 83 157 83c54 0 91 -21 113 -55c14 -24 22 -54 22 -90v-222h67v-72h-217v72h64v203c0 21 -3 38 -10 51c-12 23 -33 34 -64 34c-47 0 -92 -28 -129 -65v-223h64v-72h-216v72h67v285h-67v74h149zM367 508c-39 0 -66 17 -89 37c-24 21 -40 30 -55 30
c-23 0 -39 -19 -48 -61l-63 15c8 80 56 131 106 131c39 0 66 -17 88 -37c25 -21 41 -30 55 -30c24 0 40 19 49 61l62 -15c-7 -80 -55 -131 -105 -131z" />
    <glyph glyph-name="ntilde.sc" horiz-adv-x="661" 
d="M198 515l267 -348v275h-81v73h246v-73h-83v-445h-57l-283 372v-296h79v-73h-244v73h82v369h-82v73h156zM407 589c-39 0 -66 17 -89 37c-24 21 -40 30 -55 30c-23 0 -39 -19 -48 -61l-63 15c8 80 56 131 106 131c39 0 66 -17 88 -37c25 -21 41 -30 55 -30
c24 0 40 19 49 61l62 -15c-7 -80 -55 -131 -105 -131z" />
    <glyph glyph-name="Oacute" unicode="&#xd3;" horiz-adv-x="773" 
d="M364 717l-25 28l116 136c14 16 31 26 48 26c24 0 44 -19 44 -46c0 -16 -11 -35 -32 -49zM384 -12c-194 0 -332 149 -332 341c0 193 140 341 337 341c194 0 332 -149 332 -341c0 -193 -140 -341 -337 -341zM387 72c140 0 241 109 241 257c0 147 -101 257 -241 257
c-141 0 -242 -109 -242 -257c0 -147 101 -257 242 -257z" />
    <glyph glyph-name="oacute" unicode="&#xf3;" horiz-adv-x="529" 
d="M242 498l-25 28l116 136c14 16 31 26 48 26c24 0 44 -19 44 -46c0 -16 -11 -35 -32 -49zM265 -8c-138 0 -225 102 -225 223s88 224 225 224s225 -102 225 -224c0 -120 -89 -223 -225 -223zM265 65c80 0 136 62 136 150s-56 151 -136 151c-81 0 -137 -63 -137 -151
s56 -150 137 -150z" />
    <glyph glyph-name="oacute.sc" horiz-adv-x="617" 
d="M309 529c160 0 267 -120 267 -269c0 -152 -106 -271 -268 -271c-161 0 -267 119 -267 271c0 149 107 269 268 269zM308 67c104 0 180 76 180 192c0 113 -76 191 -179 191c-104 0 -179 -77 -179 -191c0 -116 76 -192 178 -192zM287 579l-25 28l116 136c14 16 31 26 48 26
c24 0 44 -19 44 -46c0 -16 -11 -35 -32 -49z" />
    <glyph glyph-name="Obreve" unicode="&#x14e;" horiz-adv-x="773" 
d="M384 -12c-194 0 -332 149 -332 341c0 193 140 341 337 341c194 0 332 -149 332 -341c0 -193 -140 -341 -337 -341zM387 72c140 0 241 109 241 257c0 147 -101 257 -241 257c-141 0 -242 -109 -242 -257c0 -147 101 -257 242 -257zM384 726c-75 0 -141 51 -169 152l57 23
c25 -63 68 -94 112 -94c47 0 88 34 113 94l57 -23c-28 -101 -94 -152 -170 -152z" />
    <glyph glyph-name="obreve" unicode="&#x14f;" horiz-adv-x="529" 
d="M265 -8c-138 0 -225 102 -225 223s88 224 225 224s225 -102 225 -224c0 -120 -89 -223 -225 -223zM265 65c80 0 136 62 136 150s-56 151 -136 151c-81 0 -137 -63 -137 -151s56 -150 137 -150zM262 507c-75 0 -141 51 -169 152l57 23c25 -63 68 -94 112 -94
c47 0 88 34 113 94l57 -23c-28 -101 -94 -152 -170 -152z" />
    <glyph glyph-name="obreve.sc" horiz-adv-x="617" 
d="M309 529c160 0 267 -120 267 -269c0 -152 -106 -271 -268 -271c-161 0 -267 119 -267 271c0 149 107 269 268 269zM308 67c104 0 180 76 180 192c0 113 -76 191 -179 191c-104 0 -179 -77 -179 -191c0 -116 76 -192 178 -192zM308 588c-75 0 -141 51 -169 152l57 23
c25 -63 68 -94 112 -94c47 0 88 34 113 94l57 -23c-28 -101 -94 -152 -170 -152z" />
    <glyph glyph-name="Ocircumflex" unicode="&#xd4;" horiz-adv-x="773" 
d="M260 717l-38 43l164 160l164 -160l-38 -43l-126 94zM384 -12c-194 0 -332 149 -332 341c0 193 140 341 337 341c194 0 332 -149 332 -341c0 -193 -140 -341 -337 -341zM387 72c140 0 241 109 241 257c0 147 -101 257 -241 257c-141 0 -242 -109 -242 -257
c0 -147 101 -257 242 -257z" />
    <glyph glyph-name="ocircumflex" unicode="&#xf4;" horiz-adv-x="529" 
d="M138 498l-38 43l164 160l164 -160l-38 -43l-126 94zM265 -8c-138 0 -225 102 -225 223s88 224 225 224s225 -102 225 -224c0 -120 -89 -223 -225 -223zM265 65c80 0 136 62 136 150s-56 151 -136 151c-81 0 -137 -63 -137 -151s56 -150 137 -150z" />
    <glyph glyph-name="ocircumflex.sc" horiz-adv-x="617" 
d="M183 579l-38 43l164 160l164 -160l-38 -43l-126 94zM309 529c160 0 267 -120 267 -269c0 -152 -106 -271 -268 -271c-161 0 -267 119 -267 271c0 149 107 269 268 269zM308 67c104 0 180 76 180 192c0 113 -76 191 -179 191c-104 0 -179 -77 -179 -191
c0 -116 76 -192 178 -192z" />
    <glyph glyph-name="Odieresis" unicode="&#xd6;" horiz-adv-x="773" 
d="M479 732c-35 0 -63 28 -63 64c0 35 29 63 64 63s63 -28 63 -63c0 -36 -30 -64 -64 -64zM291 732c-34 0 -63 28 -63 64c0 35 30 63 64 63c35 0 63 -28 63 -63c0 -36 -29 -64 -64 -64zM384 -12c-194 0 -332 149 -332 341c0 193 140 341 337 341c194 0 332 -149 332 -341
c0 -193 -140 -341 -337 -341zM387 72c140 0 241 109 241 257c0 147 -101 257 -241 257c-141 0 -242 -109 -242 -257c0 -147 101 -257 242 -257z" />
    <glyph glyph-name="odieresis" unicode="&#xf6;" horiz-adv-x="529" 
d="M357 513c-35 0 -63 28 -63 64c0 35 29 63 64 63s63 -28 63 -63c0 -36 -30 -64 -64 -64zM169 513c-34 0 -63 28 -63 64c0 35 30 63 64 63c35 0 63 -28 63 -63c0 -36 -29 -64 -64 -64zM265 -8c-138 0 -225 102 -225 223s88 224 225 224s225 -102 225 -224
c0 -120 -89 -223 -225 -223zM265 65c80 0 136 62 136 150s-56 151 -136 151c-81 0 -137 -63 -137 -151s56 -150 137 -150z" />
    <glyph glyph-name="odieresis.sc" horiz-adv-x="617" 
d="M403 594c-35 0 -63 28 -63 64c0 35 29 63 64 63s63 -28 63 -63c0 -36 -30 -64 -64 -64zM215 594c-34 0 -63 28 -63 64c0 35 30 63 64 63c35 0 63 -28 63 -63c0 -36 -29 -64 -64 -64zM309 529c160 0 267 -120 267 -269c0 -152 -106 -271 -268 -271
c-161 0 -267 119 -267 271c0 149 107 269 268 269zM308 67c104 0 180 76 180 192c0 113 -76 191 -179 191c-104 0 -179 -77 -179 -191c0 -116 76 -192 178 -192z" />
    <glyph glyph-name="OE" unicode="&#x152;" horiz-adv-x="931" 
d="M422 0c-222 0 -370 129 -370 323c0 199 136 335 371 335h451v-172h-87v92h-226v-204h209v-78h-209v-216h227v92h87v-172h-453zM425 81h46v496h-54c-178 0 -272 -102 -272 -255c0 -152 111 -241 280 -241z" />
    <glyph glyph-name="oe" unicode="&#x153;" horiz-adv-x="843" 
d="M643 66c55 0 103 17 154 46l-8 -79c-45 -28 -100 -41 -155 -41c-87 0 -160 43 -191 102c-33 -60 -99 -102 -181 -102c-135 0 -222 102 -222 223s88 224 222 224c84 0 149 -43 181 -102c34 62 99 102 172 102c129 0 200 -95 200 -205c0 -16 -2 -33 -5 -46h-323
c12 -82 72 -122 156 -122zM265 65c80 0 136 62 136 150s-56 151 -136 151c-81 0 -137 -63 -137 -151s56 -150 137 -150zM609 368c-57 0 -111 -38 -122 -116h241c-3 69 -45 116 -119 116z" />
    <glyph glyph-name="oe.sc" horiz-adv-x="769" 
d="M376 73v369h-45c-128 0 -202 -72 -202 -184c0 -114 74 -185 203 -185h44zM341 515h374v-164h-80v93h-173v-151h159v-70h-159v-151h174v90h80v-162h-381c-183 0 -293 101 -293 257s109 258 299 258z" />
    <glyph glyph-name="Ograve" unicode="&#xd2;" horiz-adv-x="773" 
d="M384 -12c-194 0 -332 149 -332 341c0 193 140 341 337 341c194 0 332 -149 332 -341c0 -193 -140 -341 -337 -341zM387 72c140 0 241 109 241 257c0 147 -101 257 -241 257c-141 0 -242 -109 -242 -257c0 -147 101 -257 242 -257zM407 717l-150 95c-21 14 -33 33 -33 49
c0 27 21 46 44 46c17 0 34 -10 48 -26l116 -136z" />
    <glyph glyph-name="ograve" unicode="&#xf2;" horiz-adv-x="529" 
d="M265 -8c-138 0 -225 102 -225 223s88 224 225 224s225 -102 225 -224c0 -120 -89 -223 -225 -223zM265 65c80 0 136 62 136 150s-56 151 -136 151c-81 0 -137 -63 -137 -151s56 -150 137 -150zM285 498l-150 95c-21 14 -33 33 -33 49c0 27 21 46 44 46
c17 0 34 -10 48 -26l116 -136z" />
    <glyph glyph-name="ograve.sc" horiz-adv-x="617" 
d="M309 529c160 0 267 -120 267 -269c0 -152 -106 -271 -268 -271c-161 0 -267 119 -267 271c0 149 107 269 268 269zM308 67c104 0 180 76 180 192c0 113 -76 191 -179 191c-104 0 -179 -77 -179 -191c0 -116 76 -192 178 -192zM331 579l-150 95c-21 14 -33 33 -33 49
c0 27 21 46 44 46c17 0 34 -10 48 -26l116 -136z" />
    <glyph glyph-name="Ohungarumlaut" unicode="&#x150;" horiz-adv-x="773" 
d="M253 719l-20 29l138 132c17 16 33 24 48 24c25 0 45 -19 45 -45c0 -18 -13 -38 -41 -52zM455 721l-17 30l152 129c17 15 32 21 46 21c26 0 43 -20 43 -45c0 -19 -13 -38 -42 -52zM384 -12c-194 0 -332 149 -332 341c0 193 140 341 337 341c194 0 332 -149 332 -341
c0 -193 -140 -341 -337 -341zM387 72c140 0 241 109 241 257c0 147 -101 257 -241 257c-141 0 -242 -109 -242 -257c0 -147 101 -257 242 -257z" />
    <glyph glyph-name="ohungarumlaut" unicode="&#x151;" horiz-adv-x="529" 
d="M132 500l-20 29l138 132c17 16 33 24 48 24c25 0 45 -19 45 -45c0 -18 -13 -38 -41 -52zM334 502l-17 30l152 129c17 15 32 21 46 21c26 0 43 -20 43 -45c0 -19 -13 -38 -42 -52zM265 -8c-138 0 -225 102 -225 223s88 224 225 224s225 -102 225 -224
c0 -120 -89 -223 -225 -223zM265 65c80 0 136 62 136 150s-56 151 -136 151c-81 0 -137 -63 -137 -151s56 -150 137 -150z" />
    <glyph glyph-name="ohungarumlaut.sc" horiz-adv-x="617" 
d="M309 529c160 0 267 -120 267 -269c0 -152 -106 -271 -268 -271c-161 0 -267 119 -267 271c0 149 107 269 268 269zM308 67c104 0 180 76 180 192c0 113 -76 191 -179 191c-104 0 -179 -77 -179 -191c0 -116 76 -192 178 -192zM177 581l-20 29l138 132c17 16 33 24 48 24
c25 0 45 -19 45 -45c0 -18 -13 -38 -41 -52zM379 583l-17 30l152 129c17 15 32 21 46 21c26 0 43 -20 43 -45c0 -19 -13 -38 -42 -52z" />
    <glyph glyph-name="Omacron" unicode="&#x14c;" horiz-adv-x="773" 
d="M228 749v75h316v-75h-316zM384 -12c-194 0 -332 149 -332 341c0 193 140 341 337 341c194 0 332 -149 332 -341c0 -193 -140 -341 -337 -341zM387 72c140 0 241 109 241 257c0 147 -101 257 -241 257c-141 0 -242 -109 -242 -257c0 -147 101 -257 242 -257z" />
    <glyph glyph-name="omacron" unicode="&#x14d;" horiz-adv-x="529" 
d="M106 530v75h316v-75h-316zM265 -8c-138 0 -225 102 -225 223s88 224 225 224s225 -102 225 -224c0 -120 -89 -223 -225 -223zM265 65c80 0 136 62 136 150s-56 151 -136 151c-81 0 -137 -63 -137 -151s56 -150 137 -150z" />
    <glyph glyph-name="omacron.sc" horiz-adv-x="617" 
d="M309 529c160 0 267 -120 267 -269c0 -152 -106 -271 -268 -271c-161 0 -267 119 -267 271c0 149 107 269 268 269zM308 67c104 0 180 76 180 192c0 113 -76 191 -179 191c-104 0 -179 -77 -179 -191c0 -116 76 -192 178 -192zM151 611v75h316v-75h-316z" />
    <glyph glyph-name="Oslash" unicode="&#xd8;" horiz-adv-x="773" 
d="M384 -12c-73 0 -139 22 -192 60l-79 -92l-58 51l80 92c-52 61 -83 141 -83 230c0 193 140 341 337 341c74 0 140 -23 194 -61l79 92l57 -51l-81 -93c52 -60 83 -140 83 -228c0 -193 -140 -341 -337 -341zM145 329c0 -68 19 -127 54 -171l330 385c-39 28 -87 43 -142 43
c-141 0 -242 -109 -242 -257zM387 72c140 0 241 109 241 257c0 66 -19 124 -52 168l-330 -384c39 -26 86 -41 141 -41z" />
    <glyph glyph-name="oslash" unicode="&#xf8;" horiz-adv-x="529" 
d="M265 -8c-44 0 -83 11 -116 30l-49 -59l-55 45l49 59c-35 40 -54 93 -54 148c0 121 88 224 225 224c45 0 86 -12 119 -33l50 60l55 -45l-51 -61c33 -40 52 -91 52 -145c0 -120 -89 -223 -225 -223zM128 215c0 -38 8 -69 24 -94l186 225c-20 13 -45 20 -73 20
c-81 0 -137 -63 -137 -151zM265 65c80 0 136 62 136 150c0 35 -8 65 -22 89l-184 -222c19 -11 43 -17 70 -17z" />
    <glyph glyph-name="oslash.sc" horiz-adv-x="620" 
d="M309 -11c-59 0 -110 16 -152 43l-60 -69l-57 49l62 69c-39 48 -60 110 -60 179c0 149 107 269 268 269c60 0 113 -17 155 -46l63 73l57 -50l-67 -73c37 -47 59 -107 59 -173c0 -152 -105 -271 -268 -271zM131 259c0 -47 13 -88 34 -119l247 279c-29 20 -64 31 -102 31
c-104 0 -179 -77 -179 -191zM309 67c104 0 180 76 180 192c0 45 -12 84 -33 115l-247 -278c28 -19 62 -29 100 -29z" />
    <glyph glyph-name="Oslashacute" unicode="&#x1fe;" horiz-adv-x="773" 
d="M384 -12c-73 0 -139 22 -192 60l-79 -92l-58 51l80 92c-52 61 -83 141 -83 230c0 193 140 341 337 341c74 0 140 -23 194 -61l79 92l57 -51l-81 -93c52 -60 83 -140 83 -228c0 -193 -140 -341 -337 -341zM145 329c0 -68 19 -127 54 -171l330 385c-39 28 -87 43 -142 43
c-141 0 -242 -109 -242 -257zM387 72c140 0 241 109 241 257c0 66 -19 124 -52 168l-330 -384c39 -26 86 -41 141 -41zM366 717l-25 28l116 136c14 16 31 26 48 26c24 0 44 -19 44 -46c0 -16 -11 -35 -32 -49z" />
    <glyph glyph-name="oslashacute" unicode="&#x1ff;" horiz-adv-x="529" 
d="M265 -8c-44 0 -83 11 -116 30l-49 -59l-55 45l49 59c-35 40 -54 93 -54 148c0 121 88 224 225 224c45 0 86 -12 119 -33l50 60l55 -45l-51 -61c33 -40 52 -91 52 -145c0 -120 -89 -223 -225 -223zM128 215c0 -38 8 -69 24 -94l186 225c-20 13 -45 20 -73 20
c-81 0 -137 -63 -137 -151zM265 65c80 0 136 62 136 150c0 35 -8 65 -22 89l-184 -222c19 -11 43 -17 70 -17zM242 498l-25 28l116 136c14 16 31 26 48 26c24 0 44 -19 44 -46c0 -16 -11 -35 -32 -49z" />
    <glyph glyph-name="oslashacute.sc" horiz-adv-x="620" 
d="M309 -11c-59 0 -110 16 -152 43l-60 -69l-57 49l62 69c-39 48 -60 110 -60 179c0 149 107 269 268 269c60 0 113 -17 155 -46l63 73l57 -50l-67 -73c37 -47 59 -107 59 -173c0 -152 -105 -271 -268 -271zM131 259c0 -47 13 -88 34 -119l247 279c-29 20 -64 31 -102 31
c-104 0 -179 -77 -179 -191zM309 67c104 0 180 76 180 192c0 45 -12 84 -33 115l-247 -278c28 -19 62 -29 100 -29zM291 579l-25 28l116 136c14 16 31 26 48 26c24 0 44 -19 44 -46c0 -16 -11 -35 -32 -49z" />
    <glyph glyph-name="Otilde" unicode="&#xd5;" horiz-adv-x="773" 
d="M384 -12c-194 0 -332 149 -332 341c0 193 140 341 337 341c194 0 332 -149 332 -341c0 -193 -140 -341 -337 -341zM387 72c140 0 241 109 241 257c0 147 -101 257 -241 257c-141 0 -242 -109 -242 -257c0 -147 101 -257 242 -257zM463 727c-39 0 -66 17 -89 37
c-24 21 -40 30 -55 30c-23 0 -39 -19 -48 -61l-63 15c8 80 56 131 106 131c39 0 66 -17 88 -37c25 -21 41 -30 55 -30c24 0 40 19 49 61l62 -15c-7 -80 -55 -131 -105 -131z" />
    <glyph glyph-name="otilde" unicode="&#xf5;" horiz-adv-x="529" 
d="M265 -8c-138 0 -225 102 -225 223s88 224 225 224s225 -102 225 -224c0 -120 -89 -223 -225 -223zM265 65c80 0 136 62 136 150s-56 151 -136 151c-81 0 -137 -63 -137 -151s56 -150 137 -150zM341 508c-39 0 -66 17 -89 37c-24 21 -40 30 -55 30c-23 0 -39 -19 -48 -61
l-63 15c8 80 56 131 106 131c39 0 66 -17 88 -37c25 -21 41 -30 55 -30c24 0 40 19 49 61l62 -15c-7 -80 -55 -131 -105 -131z" />
    <glyph glyph-name="otilde.sc" horiz-adv-x="617" 
d="M309 529c160 0 267 -120 267 -269c0 -152 -106 -271 -268 -271c-161 0 -267 119 -267 271c0 149 107 269 268 269zM308 67c104 0 180 76 180 192c0 113 -76 191 -179 191c-104 0 -179 -77 -179 -191c0 -116 76 -192 178 -192zM386 589c-39 0 -66 17 -89 37
c-24 21 -40 30 -55 30c-23 0 -39 -19 -48 -61l-63 15c8 80 56 131 106 131c39 0 66 -17 88 -37c25 -21 41 -30 55 -30c24 0 40 19 49 61l62 -15c-7 -80 -55 -131 -105 -131z" />
    <glyph glyph-name="Racute" unicode="&#x154;" horiz-adv-x="619" 
d="M282 717l-25 28l116 136c14 16 31 26 48 26c24 0 44 -19 44 -46c0 -16 -11 -35 -32 -49zM43 0v81h80v496h-80v81h252c148 0 248 -69 248 -194c0 -88 -56 -152 -134 -180l122 -203h77v-81h-139l-149 261c-13 -1 -26 -2 -39 -2c-24 0 -50 1 -67 2v-180h84v-81h-255z
M287 337c94 0 163 45 163 124c0 77 -63 116 -160 116h-76v-238c17 -1 40 -2 73 -2z" />
    <glyph glyph-name="racute" unicode="&#x155;" horiz-adv-x="403" 
d="M320 439c47 0 71 -29 71 -63c0 -31 -25 -58 -55 -58c-29 0 -49 18 -57 37c-32 -10 -69 -46 -90 -87v-196h79v-72h-231v72h67v285h-67v74h149v-98c34 59 84 106 134 106zM191 498l-25 28l116 136c14 16 31 26 48 26c24 0 44 -19 44 -46c0 -16 -11 -35 -32 -49z" />
    <glyph glyph-name="racute.sc" horiz-adv-x="556" 
d="M251 579l-25 28l116 136c14 16 31 26 48 26c24 0 44 -19 44 -46c0 -16 -11 -35 -32 -49zM277 442h-66v-171c15 -1 42 -3 68 -3c72 0 119 34 119 90c0 54 -46 84 -121 84zM211 197v-124h79v-73h-247v73h82v369h-82v73h239c120 0 203 -53 203 -156c0 -66 -41 -116 -99 -140
l81 -146h74v-73h-137l-102 198c-18 -2 -29 -2 -37 -2c-15 0 -38 0 -54 1z" />
    <glyph glyph-name="Rcaron" unicode="&#x158;" horiz-adv-x="619" 
d="M429 917l38 -44l-164 -159l-164 159l38 44l126 -94zM43 0v81h80v496h-80v81h252c148 0 248 -69 248 -194c0 -88 -56 -152 -134 -180l122 -203h77v-81h-139l-149 261c-13 -1 -26 -2 -39 -2c-24 0 -50 1 -67 2v-180h84v-81h-255zM287 337c94 0 163 45 163 124
c0 77 -63 116 -160 116h-76v-238c17 -1 40 -2 73 -2z" />
    <glyph glyph-name="rcaron" unicode="&#x159;" horiz-adv-x="403" 
d="M320 439c47 0 71 -29 71 -63c0 -31 -25 -58 -55 -58c-29 0 -49 18 -57 37c-32 -10 -69 -46 -90 -87v-196h79v-72h-231v72h67v285h-67v74h149v-98c34 59 84 106 134 106zM339 698l38 -44l-164 -159l-164 159l38 44l126 -94z" />
    <glyph glyph-name="rcaron.sc" horiz-adv-x="556" 
d="M398 779l38 -44l-164 -159l-164 159l38 44l126 -94zM277 442h-66v-171c15 -1 42 -3 68 -3c72 0 119 34 119 90c0 54 -46 84 -121 84zM211 197v-124h79v-73h-247v73h82v369h-82v73h239c120 0 203 -53 203 -156c0 -66 -41 -116 -99 -140l81 -146h74v-73h-137l-102 198
c-18 -2 -29 -2 -37 -2c-15 0 -38 0 -54 1z" />
    <glyph glyph-name="Rcommaaccent" unicode="&#x156;" horiz-adv-x="619" 
d="M234 -293l-20 27c55 43 77 83 79 106c-27 6 -46 28 -46 56c0 30 25 55 56 55c34 0 62 -25 62 -72c0 -48 -33 -118 -131 -172zM43 0v81h80v496h-80v81h252c148 0 248 -69 248 -194c0 -88 -56 -152 -134 -180l122 -203h77v-81h-139l-149 261c-13 -1 -26 -2 -39 -2
c-24 0 -50 1 -67 2v-180h84v-81h-255zM287 337c94 0 163 45 163 124c0 77 -63 116 -160 116h-76v-238c17 -1 40 -2 73 -2z" />
    <glyph glyph-name="rcommaaccent" unicode="&#x157;" horiz-adv-x="403" 
d="M320 439c47 0 71 -29 71 -63c0 -31 -25 -58 -55 -58c-29 0 -49 18 -57 37c-32 -10 -69 -46 -90 -87v-196h79v-72h-231v72h67v285h-67v74h149v-98c34 59 84 106 134 106zM77 -293l-20 27c55 43 77 83 79 106c-27 6 -46 28 -46 56c0 30 25 55 56 55c34 0 62 -25 62 -72
c0 -48 -33 -118 -131 -172z" />
    <glyph glyph-name="rcommaaccent.sc" horiz-adv-x="556" 
d="M216 -301l-20 27c55 43 77 83 79 106c-27 6 -46 28 -46 56c0 30 25 55 56 55c34 0 62 -25 62 -72c0 -48 -33 -118 -131 -172zM277 442h-66v-171c15 -1 42 -3 68 -3c72 0 119 34 119 90c0 54 -46 84 -121 84zM211 197v-124h79v-73h-247v73h82v369h-82v73h239
c120 0 203 -53 203 -156c0 -66 -41 -116 -99 -140l81 -146h74v-73h-137l-102 198c-18 -2 -29 -2 -37 -2c-15 0 -38 0 -54 1z" />
    <glyph glyph-name="Sacute" unicode="&#x15a;" horiz-adv-x="552" 
d="M259 717l-25 28l116 136c14 16 31 26 48 26c24 0 44 -19 44 -46c0 -16 -11 -35 -32 -49zM274 -12c-129 0 -225 73 -225 144c0 42 25 69 60 69c36 0 60 -27 60 -55c0 -18 -5 -31 -13 -43c23 -20 67 -35 120 -35c80 0 131 39 131 104c0 62 -60 91 -130 117
c-118 44 -203 84 -203 201c0 103 82 180 209 180c115 0 205 -62 205 -135c0 -41 -26 -65 -58 -65c-38 0 -61 28 -61 58c0 16 5 26 11 35c-18 16 -57 28 -98 28c-73 0 -117 -39 -117 -94c0 -63 59 -90 134 -119c113 -42 198 -83 198 -199c0 -120 -94 -191 -223 -191z" />
    <glyph glyph-name="sacute" unicode="&#x15b;" horiz-adv-x="446" 
d="M388 341c0 -31 -19 -51 -46 -51c-30 0 -52 19 -52 48c0 7 1 15 4 22c-17 8 -42 13 -69 13c-55 0 -85 -27 -85 -55c0 -32 33 -45 102 -63c93 -24 161 -49 161 -130c0 -86 -82 -134 -176 -134c-65 0 -131 22 -160 51c-16 16 -24 34 -24 56c0 28 20 52 49 52
c28 0 51 -19 51 -50c0 -8 -1 -15 -4 -22c16 -10 48 -20 88 -20c52 0 94 20 94 58c0 31 -31 46 -95 62c-110 28 -169 55 -169 132c0 66 59 129 169 129c56 0 112 -18 140 -46c15 -15 22 -33 22 -52zM201 498l-25 28l116 136c14 16 31 26 48 26c24 0 44 -19 44 -46
c0 -16 -11 -35 -32 -49z" />
    <glyph glyph-name="sacute.sc" horiz-adv-x="488" 
d="M229 579l-25 28l116 136c14 16 31 26 48 26c24 0 44 -19 44 -46c0 -16 -11 -35 -32 -49zM320 406c0 13 4 23 9 30c-15 11 -46 21 -84 21c-56 0 -95 -26 -95 -69c0 -47 59 -65 109 -84c92 -32 181 -63 181 -161c0 -102 -83 -154 -197 -154c-110 0 -197 58 -197 124
c0 38 21 62 56 62s59 -25 59 -53c0 -13 -4 -25 -10 -35c18 -14 52 -26 95 -26c66 0 109 25 109 75c0 46 -60 67 -111 84c-98 34 -181 63 -181 160c0 88 74 149 188 149c104 0 182 -52 182 -118c0 -36 -23 -58 -53 -58c-39 0 -60 26 -60 53z" />
    <glyph glyph-name="Scaron" unicode="&#x160;" horiz-adv-x="552" 
d="M406 917l38 -44l-164 -159l-164 159l38 44l126 -94zM274 -12c-129 0 -225 73 -225 144c0 42 25 69 60 69c36 0 60 -27 60 -55c0 -18 -5 -31 -13 -43c23 -20 67 -35 120 -35c80 0 131 39 131 104c0 62 -60 91 -130 117c-118 44 -203 84 -203 201c0 103 82 180 209 180
c115 0 205 -62 205 -135c0 -41 -26 -65 -58 -65c-38 0 -61 28 -61 58c0 16 5 26 11 35c-18 16 -57 28 -98 28c-73 0 -117 -39 -117 -94c0 -63 59 -90 134 -119c113 -42 198 -83 198 -199c0 -120 -94 -191 -223 -191z" />
    <glyph glyph-name="scaron" unicode="&#x161;" horiz-adv-x="446" 
d="M388 341c0 -31 -19 -51 -46 -51c-30 0 -52 19 -52 48c0 7 1 15 4 22c-17 8 -42 13 -69 13c-55 0 -85 -27 -85 -55c0 -32 33 -45 102 -63c93 -24 161 -49 161 -130c0 -86 -82 -134 -176 -134c-65 0 -131 22 -160 51c-16 16 -24 34 -24 56c0 28 20 52 49 52
c28 0 51 -19 51 -50c0 -8 -1 -15 -4 -22c16 -10 48 -20 88 -20c52 0 94 20 94 58c0 31 -31 46 -95 62c-110 28 -169 55 -169 132c0 66 59 129 169 129c56 0 112 -18 140 -46c15 -15 22 -33 22 -52zM348 698l38 -44l-164 -159l-164 159l38 44l126 -94z" />
    <glyph glyph-name="scaron.sc" horiz-adv-x="488" 
d="M376 779l38 -44l-164 -159l-164 159l38 44l126 -94zM320 406c0 13 4 23 9 30c-15 11 -46 21 -84 21c-56 0 -95 -26 -95 -69c0 -47 59 -65 109 -84c92 -32 181 -63 181 -161c0 -102 -83 -154 -197 -154c-110 0 -197 58 -197 124c0 38 21 62 56 62s59 -25 59 -53
c0 -13 -4 -25 -10 -35c18 -14 52 -26 95 -26c66 0 109 25 109 75c0 46 -60 67 -111 84c-98 34 -181 63 -181 160c0 88 74 149 188 149c104 0 182 -52 182 -118c0 -36 -23 -58 -53 -58c-39 0 -60 26 -60 53z" />
    <glyph glyph-name="Scedilla" unicode="&#x15e;" horiz-adv-x="552" 
d="M284 -200c-39 0 -84 12 -117 31l16 33c29 -13 64 -20 87 -20c25 0 41 10 41 28c0 13 -12 28 -55 28c-5 0 -14 -1 -16 -1l-19 19l25 71c-115 10 -197 77 -197 143c0 42 25 69 60 69c36 0 60 -27 60 -55c0 -18 -5 -31 -13 -43c23 -20 67 -35 120 -35c80 0 131 39 131 104
c0 62 -60 91 -130 117c-118 44 -203 84 -203 201c0 103 82 180 209 180c115 0 205 -62 205 -135c0 -41 -26 -65 -58 -65c-38 0 -61 28 -61 58c0 16 5 26 11 35c-18 16 -57 28 -98 28c-73 0 -117 -39 -117 -94c0 -63 59 -90 134 -119c113 -42 198 -83 198 -199
c0 -115 -87 -185 -208 -190l1 -35c62 -6 99 -36 99 -78c0 -39 -38 -76 -105 -76z" />
    <glyph glyph-name="scedilla" unicode="&#x15f;" horiz-adv-x="446" 
d="M228 -200c-39 0 -84 12 -117 31l16 33c29 -13 64 -20 87 -20c25 0 41 10 41 28c0 13 -12 28 -55 28c-5 0 -14 -1 -16 -1l-19 19l26 75c-52 6 -101 25 -124 49c-16 16 -24 34 -24 56c0 28 20 52 49 52c28 0 51 -19 51 -50c0 -8 -1 -15 -4 -22c16 -10 48 -20 88 -20
c52 0 94 20 94 58c0 31 -31 46 -95 62c-110 28 -169 55 -169 132c0 66 59 129 169 129c56 0 112 -18 140 -46c15 -15 22 -33 22 -52c0 -31 -19 -51 -46 -51c-30 0 -52 19 -52 48c0 7 1 15 4 22c-17 8 -42 13 -69 13c-55 0 -85 -27 -85 -55c0 -32 33 -45 102 -63
c93 -24 161 -49 161 -130c0 -84 -79 -132 -170 -134l1 -37c62 -6 99 -36 99 -78c0 -39 -38 -76 -105 -76z" />
    <glyph glyph-name="scedilla.sc" horiz-adv-x="493" 
d="M253 -200c-39 0 -84 12 -117 31l16 33c29 -13 64 -20 87 -20c25 0 41 10 41 28c0 13 -12 28 -55 28c-5 0 -14 -1 -16 -1l-19 19l26 73c-96 9 -167 62 -167 122c0 38 21 62 56 62s59 -25 59 -53c0 -13 -4 -25 -10 -35c18 -14 52 -26 95 -26c66 0 109 25 109 75
c0 46 -60 67 -111 84c-98 34 -181 63 -181 160c0 88 74 149 188 149c104 0 182 -52 182 -118c0 -36 -23 -58 -53 -58c-39 0 -60 26 -60 53c0 13 4 23 9 30c-15 11 -46 21 -84 21c-56 0 -95 -26 -95 -69c0 -47 59 -65 109 -84c92 -32 181 -63 181 -161
c0 -99 -77 -150 -185 -154l1 -35c62 -6 99 -36 99 -78c0 -39 -38 -76 -105 -76z" />
    <glyph glyph-name="Scommaaccent" unicode="&#x218;" horiz-adv-x="552" 
d="M210 -293l-20 27c55 43 77 83 79 106c-27 6 -46 28 -46 56c0 30 25 55 56 55c34 0 62 -25 62 -72c0 -48 -33 -118 -131 -172zM274 -12c-129 0 -225 73 -225 144c0 42 25 69 60 69c36 0 60 -27 60 -55c0 -18 -5 -31 -13 -43c23 -20 67 -35 120 -35c80 0 131 39 131 104
c0 62 -60 91 -130 117c-118 44 -203 84 -203 201c0 103 82 180 209 180c115 0 205 -62 205 -135c0 -41 -26 -65 -58 -65c-38 0 -61 28 -61 58c0 16 5 26 11 35c-18 16 -57 28 -98 28c-73 0 -117 -39 -117 -94c0 -63 59 -90 134 -119c113 -42 198 -83 198 -199
c0 -120 -94 -191 -223 -191z" />
    <glyph glyph-name="scommaaccent" unicode="&#x219;" horiz-adv-x="446" 
d="M388 341c0 -31 -19 -51 -46 -51c-30 0 -52 19 -52 48c0 7 1 15 4 22c-17 8 -42 13 -69 13c-55 0 -85 -27 -85 -55c0 -32 33 -45 102 -63c93 -24 161 -49 161 -130c0 -86 -82 -134 -176 -134c-65 0 -131 22 -160 51c-16 16 -24 34 -24 56c0 28 20 52 49 52
c28 0 51 -19 51 -50c0 -8 -1 -15 -4 -22c16 -10 48 -20 88 -20c52 0 94 20 94 58c0 31 -31 46 -95 62c-110 28 -169 55 -169 132c0 66 59 129 169 129c56 0 112 -18 140 -46c15 -15 22 -33 22 -52zM152 -293l-20 27c55 43 77 83 79 106c-27 6 -46 28 -46 56
c0 30 25 55 56 55c34 0 62 -25 62 -72c0 -48 -33 -118 -131 -172z" />
    <glyph glyph-name="scommaaccent.sc" horiz-adv-x="488" 
d="M181 -301l-20 27c55 43 77 83 79 106c-27 6 -46 28 -46 56c0 30 25 55 56 55c34 0 62 -25 62 -72c0 -48 -33 -118 -131 -172zM320 406c0 13 4 23 9 30c-15 11 -46 21 -84 21c-56 0 -95 -26 -95 -69c0 -47 59 -65 109 -84c92 -32 181 -63 181 -161
c0 -102 -83 -154 -197 -154c-110 0 -197 58 -197 124c0 38 21 62 56 62s59 -25 59 -53c0 -13 -4 -25 -10 -35c18 -14 52 -26 95 -26c66 0 109 25 109 75c0 46 -60 67 -111 84c-98 34 -181 63 -181 160c0 88 74 149 188 149c104 0 182 -52 182 -118c0 -36 -23 -58 -53 -58
c-39 0 -60 26 -60 53z" />
    <glyph glyph-name="Tcaron" unicode="&#x164;" horiz-adv-x="625" 
d="M437 917l38 -44l-164 -159l-164 159l38 44l126 -94zM181 0v81h86v499h-147v-105h-86v183h557v-183h-86v105h-147v-499h86v-81h-263z" />
    <glyph glyph-name="tcaron" unicode="&#x165;" horiz-adv-x="348" 
d="M242 477l-28 21c28 41 39 76 39 107c0 32 -13 46 -13 77c0 29 18 55 52 55c33 0 51 -24 51 -59c0 -71 -48 -146 -101 -201zM211 -8c-48 0 -85 17 -104 54c-8 17 -13 39 -13 63v248h-81v74h81v99l86 35v-134h131v-74h-131v-233c0 -14 2 -24 6 -33c8 -14 24 -21 49 -21
c26 0 57 12 82 24l-9 -77c-25 -13 -57 -25 -97 -25z" />
    <glyph glyph-name="tcaron.sc" horiz-adv-x="536" 
d="M141 0v73h85v371h-115v-100h-80v171h476v-171h-80v100h-115v-371h85v-73h-256zM392 779l38 -44l-164 -159l-164 159l38 44l126 -94z" />
    <glyph glyph-name="Tcommaaccent" unicode="&#x162;" horiz-adv-x="625" 
d="M241 -293l-20 27c55 43 77 83 79 106c-27 6 -46 28 -46 56c0 30 25 55 56 55c34 0 62 -25 62 -72c0 -48 -33 -118 -131 -172zM181 0v81h86v499h-147v-105h-86v183h557v-183h-86v105h-147v-499h86v-81h-263z" />
    <glyph glyph-name="tcommaaccent" unicode="&#x163;" horiz-adv-x="348" 
d="M118 -293l-20 27c55 43 77 83 79 106c-27 6 -46 28 -46 56c0 30 25 55 56 55c34 0 62 -25 62 -72c0 -48 -33 -118 -131 -172zM211 -8c-48 0 -85 17 -104 54c-8 17 -13 39 -13 63v248h-81v74h81v99l86 35v-134h131v-74h-131v-233c0 -14 2 -24 6 -33c8 -14 24 -21 49 -21
c26 0 57 12 82 24l-9 -77c-25 -13 -57 -25 -97 -25z" />
    <glyph glyph-name="tcommaaccent.sc" horiz-adv-x="536" 
d="M141 0v73h85v371h-115v-100h-80v171h476v-171h-80v100h-115v-371h85v-73h-256zM197 -301l-20 27c55 43 77 83 79 106c-27 6 -46 28 -46 56c0 30 25 55 56 55c34 0 62 -25 62 -72c0 -48 -33 -118 -131 -172z" />
    <glyph glyph-name="Thorn" unicode="&#xde;" horiz-adv-x="587" 
d="M43 0v81h80v496h-80v81h254v-78h-83v-67c15 1 55 1 103 1c130 0 230 -60 230 -177c0 -125 -98 -186 -232 -186c-44 0 -84 0 -101 1v-74h85v-78h-256zM321 227c75 0 133 35 133 106c0 75 -61 106 -133 106c-53 0 -93 -1 -107 -2v-208c17 -1 55 -2 107 -2z" />
    <glyph glyph-name="thorn" unicode="&#xfe;" horiz-adv-x="529" 
d="M-1 -196v72h67v782h-69v74h155v-354c32 33 72 60 134 60c113 0 201 -89 201 -220c0 -124 -87 -225 -209 -225c-49 0 -92 17 -126 44v-161h77v-72h-230zM268 67c73 0 130 59 130 150c0 90 -55 146 -128 146c-49 0 -86 -22 -118 -54v-200c30 -24 68 -42 116 -42z" />
    <glyph glyph-name="thorn.sc" horiz-adv-x="500" 
d="M212 399c28 1 47 1 74 1c104 0 183 -45 183 -139c0 -96 -81 -141 -185 -141c-22 0 -44 0 -72 1v-49h84v-72h-253v73h82v369h-82v73h253v-71h-84v-45zM212 189c21 -1 42 -1 77 -1c54 0 96 26 96 71c0 47 -42 71 -96 71c-29 0 -53 0 -77 -1v-140z" />
    <glyph glyph-name="Uacute" unicode="&#xda;" horiz-adv-x="702" 
d="M329 717l-25 28l116 136c14 16 31 26 48 26c24 0 44 -19 44 -46c0 -16 -11 -35 -32 -49zM351 -12c-149 0 -242 84 -242 244v345h-78v81h251v-81h-83v-339c0 -111 56 -167 152 -167c97 0 154 53 154 164v342h-83v81h250v-81h-79v-342c0 -163 -95 -247 -242 -247z" />
    <glyph glyph-name="uacute" unicode="&#xfa;" horiz-adv-x="558" 
d="M246 498l-25 28l116 136c14 16 31 26 48 26c24 0 44 -19 44 -46c0 -16 -11 -35 -32 -49zM223 -8c-55 0 -92 22 -114 57c-13 24 -20 53 -20 88v220h-67v74h152v-275c0 -22 4 -39 11 -52c12 -23 32 -33 63 -33c47 0 91 29 129 65v221h-69v74h155v-359h67v-72h-150v75
c-41 -44 -95 -83 -157 -83z" />
    <glyph glyph-name="uacute.sc" horiz-adv-x="618" 
d="M287 579l-25 28l116 136c14 16 31 26 48 26c24 0 44 -19 44 -46c0 -16 -11 -35 -32 -49zM191 442v-249c0 -83 45 -131 119 -131c73 0 119 45 119 129v251h-81v73h244v-73h-78v-246c0 -138 -82 -208 -205 -208c-126 0 -204 69 -204 205v249h-78v73h244v-73h-80z" />
    <glyph glyph-name="Ubreve" unicode="&#x16c;" horiz-adv-x="702" 
d="M351 -12c-149 0 -242 84 -242 244v345h-78v81h251v-81h-83v-339c0 -111 56 -167 152 -167c97 0 154 53 154 164v342h-83v81h250v-81h-79v-342c0 -163 -95 -247 -242 -247zM349 726c-75 0 -141 51 -169 152l57 23c25 -63 68 -94 112 -94c47 0 88 34 113 94l57 -23
c-28 -101 -94 -152 -170 -152z" />
    <glyph glyph-name="ubreve" unicode="&#x16d;" horiz-adv-x="558" 
d="M223 -8c-55 0 -92 22 -114 57c-13 24 -20 53 -20 88v220h-67v74h152v-275c0 -22 4 -39 11 -52c12 -23 32 -33 63 -33c47 0 91 29 129 65v221h-69v74h155v-359h67v-72h-150v75c-41 -44 -95 -83 -157 -83zM266 507c-75 0 -141 51 -169 152l57 23c25 -63 68 -94 112 -94
c47 0 88 34 113 94l57 -23c-28 -101 -94 -152 -170 -152z" />
    <glyph glyph-name="ubreve.sc" horiz-adv-x="618" 
d="M191 442v-249c0 -83 45 -131 119 -131c73 0 119 45 119 129v251h-81v73h244v-73h-78v-246c0 -138 -82 -208 -205 -208c-126 0 -204 69 -204 205v249h-78v73h244v-73h-80zM307 588c-75 0 -141 51 -169 152l57 23c25 -63 68 -94 112 -94c47 0 88 34 113 94l57 -23
c-28 -101 -94 -152 -170 -152z" />
    <glyph glyph-name="Ucircumflex" unicode="&#xdb;" horiz-adv-x="702" 
d="M225 717l-38 43l164 160l164 -160l-38 -43l-126 94zM351 -12c-149 0 -242 84 -242 244v345h-78v81h251v-81h-83v-339c0 -111 56 -167 152 -167c97 0 154 53 154 164v342h-83v81h250v-81h-79v-342c0 -163 -95 -247 -242 -247z" />
    <glyph glyph-name="ucircumflex" unicode="&#xfb;" horiz-adv-x="558" 
d="M142 498l-38 43l164 160l164 -160l-38 -43l-126 94zM223 -8c-55 0 -92 22 -114 57c-13 24 -20 53 -20 88v220h-67v74h152v-275c0 -22 4 -39 11 -52c12 -23 32 -33 63 -33c47 0 91 29 129 65v221h-69v74h155v-359h67v-72h-150v75c-41 -44 -95 -83 -157 -83z" />
    <glyph glyph-name="ucircumflex.sc" horiz-adv-x="618" 
d="M183 579l-38 43l164 160l164 -160l-38 -43l-126 94zM191 442v-249c0 -83 45 -131 119 -131c73 0 119 45 119 129v251h-81v73h244v-73h-78v-246c0 -138 -82 -208 -205 -208c-126 0 -204 69 -204 205v249h-78v73h244v-73h-80z" />
    <glyph glyph-name="Udieresis" unicode="&#xdc;" horiz-adv-x="702" 
d="M444 732c-35 0 -63 28 -63 64c0 35 29 63 64 63s63 -28 63 -63c0 -36 -30 -64 -64 -64zM256 732c-34 0 -63 28 -63 64c0 35 30 63 64 63c35 0 63 -28 63 -63c0 -36 -29 -64 -64 -64zM351 -12c-149 0 -242 84 -242 244v345h-78v81h251v-81h-83v-339
c0 -111 56 -167 152 -167c97 0 154 53 154 164v342h-83v81h250v-81h-79v-342c0 -163 -95 -247 -242 -247z" />
    <glyph glyph-name="udieresis" unicode="&#xfc;" horiz-adv-x="558" 
d="M361 513c-35 0 -63 28 -63 64c0 35 29 63 64 63s63 -28 63 -63c0 -36 -30 -64 -64 -64zM173 513c-34 0 -63 28 -63 64c0 35 30 63 64 63c35 0 63 -28 63 -63c0 -36 -29 -64 -64 -64zM223 -8c-55 0 -92 22 -114 57c-13 24 -20 53 -20 88v220h-67v74h152v-275
c0 -22 4 -39 11 -52c12 -23 32 -33 63 -33c47 0 91 29 129 65v221h-69v74h155v-359h67v-72h-150v75c-41 -44 -95 -83 -157 -83z" />
    <glyph glyph-name="udieresis.sc" horiz-adv-x="618" 
d="M402 594c-35 0 -63 28 -63 64c0 35 29 63 64 63s63 -28 63 -63c0 -36 -30 -64 -64 -64zM214 594c-34 0 -63 28 -63 64c0 35 30 63 64 63c35 0 63 -28 63 -63c0 -36 -29 -64 -64 -64zM191 442v-249c0 -83 45 -131 119 -131c73 0 119 45 119 129v251h-81v73h244v-73h-78
v-246c0 -138 -82 -208 -205 -208c-126 0 -204 69 -204 205v249h-78v73h244v-73h-80z" />
    <glyph glyph-name="Ugrave" unicode="&#xd9;" horiz-adv-x="702" 
d="M351 -12c-149 0 -242 84 -242 244v345h-78v81h251v-81h-83v-339c0 -111 56 -167 152 -167c97 0 154 53 154 164v342h-83v81h250v-81h-79v-342c0 -163 -95 -247 -242 -247zM372 717l-150 95c-21 14 -33 33 -33 49c0 27 21 46 44 46c17 0 34 -10 48 -26l116 -136z" />
    <glyph glyph-name="ugrave" unicode="&#xf9;" horiz-adv-x="558" 
d="M223 -8c-55 0 -92 22 -114 57c-13 24 -20 53 -20 88v220h-67v74h152v-275c0 -22 4 -39 11 -52c12 -23 32 -33 63 -33c47 0 91 29 129 65v221h-69v74h155v-359h67v-72h-150v75c-41 -44 -95 -83 -157 -83zM289 498l-150 95c-21 14 -33 33 -33 49c0 27 21 46 44 46
c17 0 34 -10 48 -26l116 -136z" />
    <glyph glyph-name="ugrave.sc" horiz-adv-x="618" 
d="M330 579l-150 95c-21 14 -33 33 -33 49c0 27 21 46 44 46c17 0 34 -10 48 -26l116 -136zM191 442v-249c0 -83 45 -131 119 -131c73 0 119 45 119 129v251h-81v73h244v-73h-78v-246c0 -138 -82 -208 -205 -208c-126 0 -204 69 -204 205v249h-78v73h244v-73h-80z" />
    <glyph glyph-name="Uhungarumlaut" unicode="&#x170;" horiz-adv-x="702" 
d="M351 -12c-149 0 -242 84 -242 244v345h-78v81h251v-81h-83v-339c0 -111 56 -167 152 -167c97 0 154 53 154 164v342h-83v81h250v-81h-79v-342c0 -163 -95 -247 -242 -247zM218 719l-20 29l138 132c17 16 33 24 48 24c25 0 45 -19 45 -45c0 -18 -13 -38 -41 -52zM420 721
l-17 30l152 129c17 15 32 21 46 21c26 0 43 -20 43 -45c0 -19 -13 -38 -42 -52z" />
    <glyph glyph-name="uhungarumlaut" unicode="&#x171;" horiz-adv-x="558" 
d="M223 -8c-55 0 -92 22 -114 57c-13 24 -20 53 -20 88v220h-67v74h152v-275c0 -22 4 -39 11 -52c12 -23 32 -33 63 -33c47 0 91 29 129 65v221h-69v74h155v-359h67v-72h-150v75c-41 -44 -95 -83 -157 -83zM135 500l-20 29l138 132c17 16 33 24 48 24c25 0 45 -19 45 -45
c0 -18 -13 -38 -41 -52zM337 502l-17 30l152 129c17 15 32 21 46 21c26 0 43 -20 43 -45c0 -19 -13 -38 -42 -52z" />
    <glyph glyph-name="uhungarumlaut.sc" horiz-adv-x="618" 
d="M176 581l-20 29l138 132c17 16 33 24 48 24c25 0 45 -19 45 -45c0 -18 -13 -38 -41 -52zM378 583l-17 30l152 129c17 15 32 21 46 21c26 0 43 -20 43 -45c0 -19 -13 -38 -42 -52zM191 442v-249c0 -83 45 -131 119 -131c73 0 119 45 119 129v251h-81v73h244v-73h-78v-246
c0 -138 -82 -208 -205 -208c-126 0 -204 69 -204 205v249h-78v73h244v-73h-80z" />
    <glyph glyph-name="Umacron" unicode="&#x16a;" horiz-adv-x="702" 
d="M351 -12c-149 0 -242 84 -242 244v345h-78v81h251v-81h-83v-339c0 -111 56 -167 152 -167c97 0 154 53 154 164v342h-83v81h250v-81h-79v-342c0 -163 -95 -247 -242 -247zM193 749v75h316v-75h-316z" />
    <glyph glyph-name="umacron" unicode="&#x16b;" horiz-adv-x="558" 
d="M223 -8c-55 0 -92 22 -114 57c-13 24 -20 53 -20 88v220h-67v74h152v-275c0 -22 4 -39 11 -52c12 -23 32 -33 63 -33c47 0 91 29 129 65v221h-69v74h155v-359h67v-72h-150v75c-41 -44 -95 -83 -157 -83zM110 530v75h316v-75h-316z" />
    <glyph glyph-name="umacron.sc" horiz-adv-x="618" 
d="M151 611v75h316v-75h-316zM191 442v-249c0 -83 45 -131 119 -131c73 0 119 45 119 129v251h-81v73h244v-73h-78v-246c0 -138 -82 -208 -205 -208c-126 0 -204 69 -204 205v249h-78v73h244v-73h-80z" />
    <glyph glyph-name="Uogonek" unicode="&#x172;" horiz-adv-x="702" 
d="M380 -201c-72 0 -110 40 -110 97c0 38 18 69 46 94c-129 12 -207 95 -207 242v345h-78v81h251v-81h-83v-339c0 -111 56 -167 152 -167c97 0 154 53 154 164v342h-83v81h250v-81h-79v-342c0 -148 -78 -230 -201 -244c-29 -21 -47 -46 -47 -74c0 -32 18 -50 54 -50
c28 0 53 8 74 19l-4 -65c-16 -10 -51 -22 -89 -22z" />
    <glyph glyph-name="uogonek" unicode="&#x173;" horiz-adv-x="558" 
d="M223 -8c-55 0 -92 22 -114 57c-13 24 -20 53 -20 88v220h-67v74h152v-275c0 -22 4 -39 11 -52c12 -23 32 -33 63 -33c47 0 91 29 129 65v221h-69v74h155v-359h67v-72h-77c-37 -21 -61 -51 -61 -83s18 -50 54 -50c28 0 53 8 75 19l-4 -65c-17 -10 -52 -22 -90 -22
c-72 0 -109 40 -109 97c0 45 25 81 62 107v72c-41 -44 -95 -83 -157 -83z" />
    <glyph glyph-name="uogonek.sc" horiz-adv-x="618" 
d="M191 442v-249c0 -83 45 -131 119 -131c73 0 119 45 119 129v251h-81v73h244v-73h-78v-246c0 -129 -72 -198 -181 -207c-28 -20 -45 -45 -45 -72c0 -32 18 -50 54 -50c28 0 53 8 75 19l-4 -65c-17 -10 -52 -22 -90 -22c-72 0 -109 40 -109 97c0 39 19 71 48 96
c-98 15 -157 83 -157 201v249h-78v73h244v-73h-80z" />
    <glyph glyph-name="Uring" unicode="&#x16e;" horiz-adv-x="702" 
d="M350 710c-67 0 -120 52 -120 119c0 66 53 118 120 118s120 -52 120 -118c0 -67 -53 -119 -120 -119zM350 769c32 0 54 27 54 60c0 32 -22 59 -54 59c-31 0 -54 -27 -54 -59c0 -33 23 -60 54 -60zM351 -12c-149 0 -242 84 -242 244v345h-78v81h251v-81h-83v-339
c0 -111 56 -167 152 -167c97 0 154 53 154 164v342h-83v81h250v-81h-79v-342c0 -163 -95 -247 -242 -247z" />
    <glyph glyph-name="uring" unicode="&#x16f;" horiz-adv-x="558" 
d="M267 491c-67 0 -120 52 -120 119c0 66 53 118 120 118s120 -52 120 -118c0 -67 -53 -119 -120 -119zM267 550c32 0 54 27 54 60c0 32 -22 59 -54 59c-31 0 -54 -27 -54 -59c0 -33 23 -60 54 -60zM223 -8c-55 0 -92 22 -114 57c-13 24 -20 53 -20 88v220h-67v74h152v-275
c0 -22 4 -39 11 -52c12 -23 32 -33 63 -33c47 0 91 29 129 65v221h-69v74h155v-359h67v-72h-150v75c-41 -44 -95 -83 -157 -83z" />
    <glyph glyph-name="uring.sc" horiz-adv-x="618" 
d="M308 572c-67 0 -120 52 -120 119c0 66 53 118 120 118s120 -52 120 -118c0 -67 -53 -119 -120 -119zM308 631c32 0 54 27 54 60c0 32 -22 59 -54 59c-31 0 -54 -27 -54 -59c0 -33 23 -60 54 -60zM191 442v-249c0 -83 45 -131 119 -131c73 0 119 45 119 129v251h-81v73
h244v-73h-78v-246c0 -138 -82 -208 -205 -208c-126 0 -204 69 -204 205v249h-78v73h244v-73h-80z" />
    <glyph glyph-name="Wacute" unicode="&#x1e82;" horiz-adv-x="1003" 
d="M480 717l-25 28l116 136c14 16 31 26 48 26c24 0 44 -19 44 -46c0 -16 -11 -35 -32 -49zM279 -9l-184 586h-73v81h255v-81h-84l125 -412l164 421h49l164 -421l120 412h-87v81h255v-81h-74l-181 -586h-51l-172 433l-174 -433h-52z" />
    <glyph glyph-name="wacute" unicode="&#x1e83;" horiz-adv-x="708" 
d="M332 498l-25 28l116 136c14 16 31 26 48 26c24 0 44 -19 44 -46c0 -16 -11 -35 -32 -49zM183 -17l-114 374h-63v74h209v-72h-65l70 -246l111 271h53l112 -271l70 246h-72v72h208v-74h-63l-113 -374h-54l-118 280l-117 -280h-54z" />
    <glyph glyph-name="wacute.sc" horiz-adv-x="798" 
d="M219 -9l-139 451h-68v73h238v-73h-78l89 -306l120 314h42l120 -314l90 306h-80v73h233v-73h-68l-139 -451h-60l-120 314l-121 -314h-59zM377 579l-25 28l116 136c14 16 31 26 48 26c24 0 44 -19 44 -46c0 -16 -11 -35 -32 -49z" />
    <glyph glyph-name="Wcircumflex" unicode="&#x174;" horiz-adv-x="1003" 
d="M376 717l-38 43l164 160l164 -160l-38 -43l-126 94zM279 -9l-184 586h-73v81h255v-81h-84l125 -412l164 421h49l164 -421l120 412h-87v81h255v-81h-74l-181 -586h-51l-172 433l-174 -433h-52z" />
    <glyph glyph-name="wcircumflex" unicode="&#x175;" horiz-adv-x="708" 
d="M228 498l-38 43l164 160l164 -160l-38 -43l-126 94zM183 -17l-114 374h-63v74h209v-72h-65l70 -246l111 271h53l112 -271l70 246h-72v72h208v-74h-63l-113 -374h-54l-118 280l-117 -280h-54z" />
    <glyph glyph-name="wcircumflex.sc" horiz-adv-x="798" 
d="M273 579l-38 43l164 160l164 -160l-38 -43l-126 94zM219 -9l-139 451h-68v73h238v-73h-78l89 -306l120 314h42l120 -314l90 306h-80v73h233v-73h-68l-139 -451h-60l-120 314l-121 -314h-59z" />
    <glyph glyph-name="Wdieresis" unicode="&#x1e84;" horiz-adv-x="1003" 
d="M595 732c-35 0 -63 28 -63 64c0 35 29 63 64 63s63 -28 63 -63c0 -36 -30 -64 -64 -64zM407 732c-34 0 -63 28 -63 64c0 35 30 63 64 63c35 0 63 -28 63 -63c0 -36 -29 -64 -64 -64zM279 -9l-184 586h-73v81h255v-81h-84l125 -412l164 421h49l164 -421l120 412h-87v81
h255v-81h-74l-181 -586h-51l-172 433l-174 -433h-52z" />
    <glyph glyph-name="wdieresis" unicode="&#x1e85;" horiz-adv-x="708" 
d="M447 513c-35 0 -63 28 -63 64c0 35 29 63 64 63s63 -28 63 -63c0 -36 -30 -64 -64 -64zM259 513c-34 0 -63 28 -63 64c0 35 30 63 64 63c35 0 63 -28 63 -63c0 -36 -29 -64 -64 -64zM183 -17l-114 374h-63v74h209v-72h-65l70 -246l111 271h53l112 -271l70 246h-72v72h208
v-74h-63l-113 -374h-54l-118 280l-117 -280h-54z" />
    <glyph glyph-name="wdieresis.sc" horiz-adv-x="798" 
d="M493 594c-35 0 -63 28 -63 64c0 35 29 63 64 63s63 -28 63 -63c0 -36 -30 -64 -64 -64zM305 594c-34 0 -63 28 -63 64c0 35 30 63 64 63c35 0 63 -28 63 -63c0 -36 -29 -64 -64 -64zM219 -9l-139 451h-68v73h238v-73h-78l89 -306l120 314h42l120 -314l90 306h-80v73h233
v-73h-68l-139 -451h-60l-120 314l-121 -314h-59z" />
    <glyph glyph-name="Wgrave" unicode="&#x1e80;" horiz-adv-x="1003" 
d="M279 -9l-184 586h-73v81h255v-81h-84l125 -412l164 421h49l164 -421l120 412h-87v81h255v-81h-74l-181 -586h-51l-172 433l-174 -433h-52zM523 717l-150 95c-21 14 -33 33 -33 49c0 27 21 46 44 46c17 0 34 -10 48 -26l116 -136z" />
    <glyph glyph-name="wgrave" unicode="&#x1e81;" horiz-adv-x="708" 
d="M183 -17l-114 374h-63v74h209v-72h-65l70 -246l111 271h53l112 -271l70 246h-72v72h208v-74h-63l-113 -374h-54l-118 280l-117 -280h-54zM375 498l-150 95c-21 14 -33 33 -33 49c0 27 21 46 44 46c17 0 34 -10 48 -26l116 -136z" />
    <glyph glyph-name="wgrave.sc" horiz-adv-x="798" 
d="M219 -9l-139 451h-68v73h238v-73h-78l89 -306l120 314h42l120 -314l90 306h-80v73h233v-73h-68l-139 -451h-60l-120 314l-121 -314h-59zM421 579l-150 95c-21 14 -33 33 -33 49c0 27 21 46 44 46c17 0 34 -10 48 -26l116 -136z" />
    <glyph glyph-name="Yacute" unicode="&#xdd;" horiz-adv-x="643" 
d="M187 0v81h89v177l-191 319h-69v81h233v-81h-63l137 -242l138 242h-67v81h233v-81h-69l-191 -318v-178h89v-81h-269zM299 717l-25 28l116 136c14 16 31 26 48 26c24 0 44 -19 44 -46c0 -16 -11 -35 -32 -49z" />
    <glyph glyph-name="yacute" unicode="&#xfd;" horiz-adv-x="521" 
d="M222 -134c-32 -42 -69 -65 -113 -65c-48 0 -82 27 -82 61c0 31 21 49 47 49c25 0 41 -18 47 -36c14 5 28 16 44 39c8 13 17 29 27 49l29 60l-159 334h-56v74h210v-71h-66s113 -256 112 -256l114 256h-69v71h208v-74h-56l-203 -433c-11 -22 -22 -41 -34 -58zM238 498
l-25 28l116 136c14 16 31 26 48 26c24 0 44 -19 44 -46c0 -16 -11 -35 -32 -49z" />
    <glyph glyph-name="yacute.sc" horiz-adv-x="535" 
d="M245 579l-25 28l116 136c14 16 31 26 48 26c24 0 44 -19 44 -46c0 -16 -11 -35 -32 -49zM529 515v-73h-61l-158 -251v-118h85v-73h-255v73h84v118l-157 251h-61v73h226v-71h-73l111 -185l111 185h-75v71h223z" />
    <glyph glyph-name="Ycircumflex" unicode="&#x176;" horiz-adv-x="643" 
d="M187 0v81h89v177l-191 319h-69v81h233v-81h-63l137 -242l138 242h-67v81h233v-81h-69l-191 -318v-178h89v-81h-269zM195 717l-38 43l164 160l164 -160l-38 -43l-126 94z" />
    <glyph glyph-name="ycircumflex" unicode="&#x177;" horiz-adv-x="521" 
d="M222 -134c-32 -42 -69 -65 -113 -65c-48 0 -82 27 -82 61c0 31 21 49 47 49c25 0 41 -18 47 -36c14 5 28 16 44 39c8 13 17 29 27 49l29 60l-159 334h-56v74h210v-71h-66s113 -256 112 -256l114 256h-69v71h208v-74h-56l-203 -433c-11 -22 -22 -41 -34 -58zM134 498
l-38 43l164 160l164 -160l-38 -43l-126 94z" />
    <glyph glyph-name="ycircumflex.sc" horiz-adv-x="535" 
d="M141 579l-38 43l164 160l164 -160l-38 -43l-126 94zM529 515v-73h-61l-158 -251v-118h85v-73h-255v73h84v118l-157 251h-61v73h226v-71h-73l111 -185l111 185h-75v71h223z" />
    <glyph glyph-name="Ydieresis" unicode="&#x178;" horiz-adv-x="643" 
d="M187 0v81h89v177l-191 319h-69v81h233v-81h-63l137 -242l138 242h-67v81h233v-81h-69l-191 -318v-178h89v-81h-269zM414 732c-35 0 -63 28 -63 64c0 35 29 63 64 63s63 -28 63 -63c0 -36 -30 -64 -64 -64zM226 732c-34 0 -63 28 -63 64c0 35 30 63 64 63
c35 0 63 -28 63 -63c0 -36 -29 -64 -64 -64z" />
    <glyph glyph-name="ydieresis" unicode="&#xff;" horiz-adv-x="521" 
d="M222 -134c-32 -42 -69 -65 -113 -65c-48 0 -82 27 -82 61c0 31 21 49 47 49c25 0 41 -18 47 -36c14 5 28 16 44 39c8 13 17 29 27 49l29 60l-159 334h-56v74h210v-71h-66s113 -256 112 -256l114 256h-69v71h208v-74h-56l-203 -433c-11 -22 -22 -41 -34 -58zM353 513
c-35 0 -63 28 -63 64c0 35 29 63 64 63s63 -28 63 -63c0 -36 -30 -64 -64 -64zM165 513c-34 0 -63 28 -63 64c0 35 30 63 64 63c35 0 63 -28 63 -63c0 -36 -29 -64 -64 -64z" />
    <glyph glyph-name="ydieresis.sc" horiz-adv-x="535" 
d="M361 594c-35 0 -63 28 -63 64c0 35 29 63 64 63s63 -28 63 -63c0 -36 -30 -64 -64 -64zM173 594c-34 0 -63 28 -63 64c0 35 30 63 64 63c35 0 63 -28 63 -63c0 -36 -29 -64 -64 -64zM529 515v-73h-61l-158 -251v-118h85v-73h-255v73h84v118l-157 251h-61v73h226v-71h-73
l111 -185l111 185h-75v71h223z" />
    <glyph glyph-name="Ygrave" unicode="&#x1ef2;" horiz-adv-x="643" 
d="M187 0v81h89v177l-191 319h-69v81h233v-81h-63l137 -242l138 242h-67v81h233v-81h-69l-191 -318v-178h89v-81h-269zM342 717l-150 95c-21 14 -33 33 -33 49c0 27 21 46 44 46c17 0 34 -10 48 -26l116 -136z" />
    <glyph glyph-name="ygrave" unicode="&#x1ef3;" horiz-adv-x="521" 
d="M222 -134c-32 -42 -69 -65 -113 -65c-48 0 -82 27 -82 61c0 31 21 49 47 49c25 0 41 -18 47 -36c14 5 28 16 44 39c8 13 17 29 27 49l29 60l-159 334h-56v74h210v-71h-66s113 -256 112 -256l114 256h-69v71h208v-74h-56l-203 -433c-11 -22 -22 -41 -34 -58zM281 498
l-150 95c-21 14 -33 33 -33 49c0 27 21 46 44 46c17 0 34 -10 48 -26l116 -136z" />
    <glyph glyph-name="ygrave.sc" horiz-adv-x="535" 
d="M529 515v-73h-61l-158 -251v-118h85v-73h-255v73h84v118l-157 251h-61v73h226v-71h-73l111 -185l111 185h-75v71h223zM289 579l-150 95c-21 14 -33 33 -33 49c0 27 21 46 44 46c17 0 34 -10 48 -26l116 -136z" />
    <glyph glyph-name="Zacute" unicode="&#x179;" horiz-adv-x="614" 
d="M284 717l-25 28l116 136c14 16 31 26 48 26c24 0 44 -19 44 -46c0 -16 -11 -35 -32 -49zM44 0v48l390 534h-289v-107h-80v183h498v-48l-390 -534h317v107h79v-183h-525z" />
    <glyph glyph-name="zacute" unicode="&#x17a;" horiz-adv-x="455" 
d="M205 498l-25 28l116 136c14 16 31 26 48 26c24 0 44 -19 44 -46c0 -16 -11 -35 -32 -49zM33 0v45l270 317h-178v-83h-75v152h368v-44l-269 -317h199v82h74v-152h-389z" />
    <glyph glyph-name="zacute.sc" horiz-adv-x="511" 
d="M234 579l-25 28l116 136c14 16 31 26 48 26c24 0 44 -19 44 -46c0 -16 -11 -35 -32 -49zM43 0v49l305 396h-217v-97h-75v167h412v-48l-304 -396h230v96h75v-167h-426z" />
    <glyph glyph-name="Zcaron" unicode="&#x17d;" horiz-adv-x="614" 
d="M431 917l38 -44l-164 -159l-164 159l38 44l126 -94zM44 0v48l390 534h-289v-107h-80v183h498v-48l-390 -534h317v107h79v-183h-525z" />
    <glyph glyph-name="zcaron" unicode="&#x17e;" horiz-adv-x="455" 
d="M352 698l38 -44l-164 -159l-164 159l38 44l126 -94zM33 0v45l270 317h-178v-83h-75v152h368v-44l-269 -317h199v82h74v-152h-389z" />
    <glyph glyph-name="zcaron.sc" horiz-adv-x="511" 
d="M381 779l38 -44l-164 -159l-164 159l38 44l126 -94zM43 0v49l305 396h-217v-97h-75v167h412v-48l-304 -396h230v96h75v-167h-426z" />
    <glyph glyph-name="Zdotaccent" unicode="&#x17b;" horiz-adv-x="614" 
d="M44 0v48l390 534h-289v-107h-80v183h498v-48l-390 -534h317v107h79v-183h-525zM305 725c-35 0 -63 29 -63 65c0 35 29 64 64 64s64 -29 64 -64c0 -36 -30 -65 -65 -65z" />
    <glyph glyph-name="zdotaccent" unicode="&#x17c;" horiz-adv-x="455" 
d="M33 0v45l270 317h-178v-83h-75v152h368v-44l-269 -317h199v82h74v-152h-389zM226 506c-35 0 -63 29 -63 65c0 35 29 64 64 64s64 -29 64 -64c0 -36 -30 -65 -65 -65z" />
    <glyph glyph-name="zdotaccent.sc" horiz-adv-x="511" 
d="M43 0v49l305 396h-217v-97h-75v167h412v-48l-304 -396h230v96h75v-167h-426zM255 587c-35 0 -63 29 -63 65c0 35 29 64 64 64s64 -29 64 -64c0 -36 -30 -65 -65 -65z" />
    <glyph glyph-name="schwa" unicode="&#x259;" horiz-adv-x="491" 
d="M239 -8c-133 0 -203 94 -203 205c0 16 2 33 4 45h324c-12 83 -73 123 -156 123c-55 0 -103 -18 -154 -47l8 80c44 27 100 41 158 41c139 0 233 -90 233 -223c0 -120 -82 -224 -214 -224zM241 63c57 0 111 38 123 116h-242c4 -69 46 -116 119 -116z" />
    <glyph glyph-name="germandbls" unicode="&#xdf;" horiz-adv-x="582" 
d="M394 -8c-96 0 -135 56 -135 95c0 29 22 52 50 52c24 0 50 -19 50 -47c0 -9 -3 -19 -7 -26c6 -4 24 -7 36 -7c47 0 82 26 82 77c0 45 -31 69 -82 98c-61 34 -111 67 -111 137c0 46 23 78 58 113c31 31 47 59 47 96c0 47 -39 87 -94 87c-36 0 -63 -19 -79 -50
c-10 -20 -15 -46 -15 -74v-543h-153v72h67v285h-75v74h75v100c0 50 10 95 32 130c29 49 81 79 154 79c102 0 174 -66 174 -157c0 -60 -30 -98 -66 -133c-32 -31 -46 -51 -46 -76c0 -26 25 -45 71 -71c68 -38 126 -81 126 -164c0 -97 -71 -147 -159 -147z" />
    <glyph glyph-name="zero" unicode="0" horiz-adv-x="566" 
d="M283 -8c-139 0 -239 114 -239 266s100 265 239 265s239 -114 239 -265c0 -153 -100 -266 -239 -266zM283 66c89 0 150 80 150 192c0 110 -61 192 -150 192s-150 -81 -150 -192c0 -112 61 -192 150 -192z" />
    <glyph glyph-name="one" unicode="1" horiz-adv-x="421" 
d="M60 0v72h120v353l-104 -26l-20 73l171 45h40v-445h118v-72h-325z" />
    <glyph glyph-name="two" unicode="2" horiz-adv-x="510" 
d="M244 449c-44 0 -83 -14 -99 -35c11 -9 19 -24 19 -38c0 -31 -25 -57 -56 -57c-32 0 -59 28 -59 69c0 18 8 38 21 56c32 43 98 79 178 79c125 0 194 -73 194 -149c0 -85 -70 -131 -155 -182c-68 -40 -115 -74 -144 -121h242v85h74v-156h-412l-13 43c39 93 119 154 205 207
c65 41 115 73 115 122c0 45 -44 77 -110 77z" />
    <glyph glyph-name="three" unicode="3" horiz-adv-x="497" 
d="M28 14c0 37 26 67 60 67c30 0 54 -25 54 -54c0 -16 -7 -32 -20 -42c25 -25 68 -38 117 -38c77 0 132 46 132 110c0 43 -23 79 -70 100c-28 12 -65 19 -109 19h-26v71h29c42 0 82 9 112 26c35 20 58 49 58 86c0 59 -52 90 -120 90c-50 0 -82 -13 -100 -32
c13 -9 22 -26 22 -41c0 -31 -26 -54 -56 -54c-31 0 -59 27 -59 68c0 17 6 37 19 56c28 41 88 77 178 77c120 0 203 -71 203 -161c0 -52 -33 -98 -81 -125c-19 -11 -41 -19 -64 -22c21 -4 42 -12 60 -22c52 -27 91 -74 91 -139c0 -109 -95 -180 -220 -180
c-86 0 -158 34 -191 81c-12 18 -19 38 -19 59z" />
    <glyph glyph-name="four" unicode="4" horiz-adv-x="535" 
d="M326 -120v173h-288l-18 40l328 437l63 -50l-266 -355h181v130l83 33v-163h106v-72h-106v-173h-83z" />
    <glyph glyph-name="five" unicode="5" horiz-adv-x="498" 
d="M39 -9c0 37 26 66 60 66c31 0 56 -24 56 -55c0 -12 -6 -26 -15 -35c21 -12 52 -18 90 -18c85 0 139 58 139 132c0 72 -49 125 -140 125c-45 0 -92 -11 -129 -29l-39 22l38 316h323v-81h-257l-20 -167c26 8 60 13 95 13c124 0 216 -75 216 -199c0 -121 -95 -207 -221 -207
c-76 0 -133 21 -165 51c-20 19 -31 43 -31 66z" />
    <glyph glyph-name="six" unicode="6" horiz-adv-x="546" 
d="M302 570c-78 0 -165 -88 -170 -256c26 45 89 82 158 82c124 0 214 -87 214 -196c0 -117 -94 -208 -225 -208c-65 0 -118 20 -160 63c-47 48 -70 123 -70 220c0 252 127 369 261 369c56 0 108 -19 139 -50c17 -16 27 -37 27 -61c0 -38 -29 -64 -59 -64
c-36 0 -59 26 -59 56c0 12 3 21 8 28c-15 11 -37 17 -64 17zM279 65c82 0 137 59 137 135c0 68 -51 122 -132 122c-83 0 -143 -59 -143 -130c0 -34 14 -66 39 -89c24 -23 58 -38 99 -38z" />
    <glyph glyph-name="seven" unicode="7" horiz-adv-x="495" 
d="M173 -122l-74 37l259 529h-248v-105h-78v176h411l20 -43z" />
    <glyph glyph-name="eight" unicode="8" horiz-adv-x="519" 
d="M259 -8c-131 0 -218 80 -218 180c0 69 48 127 116 153c-62 29 -102 86 -102 142c0 101 88 176 204 176c117 0 205 -75 205 -176c0 -58 -42 -113 -103 -142c68 -26 117 -83 117 -153c0 -100 -87 -180 -219 -180zM259 357c64 0 116 47 116 105c0 63 -48 107 -116 107
c-67 0 -115 -44 -115 -107c0 -58 51 -105 115 -105zM259 66c77 0 129 49 129 112s-52 113 -129 113c-76 0 -128 -50 -128 -113s52 -112 128 -112z" />
    <glyph glyph-name="nine" unicode="9" horiz-adv-x="546" 
d="M232 -125c-57 0 -110 19 -141 51c-15 17 -25 37 -25 59c0 39 29 65 59 65c36 0 59 -26 59 -57c0 -12 -4 -21 -9 -28c15 -10 37 -16 65 -16c83 0 167 86 173 249c-27 -44 -89 -79 -158 -79c-124 0 -214 86 -214 195c0 117 94 209 225 209c64 0 118 -20 157 -60
c49 -48 74 -125 74 -224c0 -253 -131 -364 -265 -364zM365 412c-24 23 -58 38 -99 38c-82 0 -137 -59 -137 -136c0 -68 52 -121 132 -121c83 0 143 59 143 129c0 34 -14 67 -39 90z" />
    <glyph glyph-name="zero.lin" horiz-adv-x="647" 
d="M322 -12c-148 0 -267 138 -267 340c0 206 120 342 270 342c147 0 267 -137 267 -340c0 -205 -120 -342 -270 -342zM323 72c107 0 176 106 176 256c0 151 -69 258 -176 258c-106 0 -175 -106 -175 -256c0 -151 69 -258 175 -258z" />
    <glyph glyph-name="one.lin" horiz-adv-x="428" 
d="M54 0v80h126v484l-117 -30l-21 79l184 48h45v-581h124v-80h-341z" />
    <glyph glyph-name="two.lin" horiz-adv-x="570" 
d="M61 507c0 24 7 47 20 68c33 54 105 95 203 95c117 0 217 -75 217 -187c0 -106 -75 -159 -162 -216c-75 -49 -151 -113 -186 -190h282v106h79v-183h-446c-3 0 -26 41 -26 41c50 144 155 225 241 284c73 51 124 89 124 159c0 60 -57 106 -129 106c-60 0 -108 -23 -124 -49
c19 -9 32 -29 32 -52c0 -33 -27 -59 -60 -59c-43 0 -65 33 -65 77z" />
    <glyph glyph-name="three.lin" horiz-adv-x="545" 
d="M260 69c84 0 146 48 146 110c0 46 -25 81 -73 101c-30 13 -68 20 -114 20h-34v80h37c44 0 82 9 111 26c36 20 57 52 57 91c0 61 -57 92 -128 92c-51 0 -87 -13 -107 -31c11 -9 20 -24 20 -41c0 -31 -26 -58 -59 -58c-31 0 -61 28 -61 71c0 18 7 38 21 58
c30 42 93 80 190 80c121 0 217 -68 217 -169c0 -55 -32 -103 -80 -131c-18 -11 -40 -20 -61 -24c21 -5 43 -13 62 -23c54 -28 94 -77 94 -145c0 -111 -105 -186 -239 -186c-88 0 -167 36 -204 86c-14 19 -22 40 -22 62c0 38 25 69 61 69c33 0 59 -26 59 -58
c0 -17 -8 -33 -20 -42c25 -24 76 -38 127 -38z" />
    <glyph glyph-name="four.lin" horiz-adv-x="566" 
d="M223 0v75h114v116h-302l-20 41l351 446l66 -51l-288 -363h193v125l91 37v-161h107v-75h-107v-113h84v-77h-289z" />
    <glyph glyph-name="five.lin" horiz-adv-x="530" 
d="M250 68c93 0 150 61 150 144c0 71 -53 129 -149 129c-45 0 -100 -13 -134 -30l-41 21l32 326h342v-85h-269l-16 -165c22 7 57 14 98 14c123 0 226 -78 226 -209c0 -137 -104 -225 -236 -225c-79 0 -138 23 -172 56c-22 21 -33 45 -33 69c0 35 24 64 61 64
c36 0 60 -28 60 -59c0 -10 -3 -23 -9 -31c21 -13 50 -19 90 -19z" />
    <glyph glyph-name="six.lin" horiz-adv-x="580" 
d="M505 552c0 -42 -28 -62 -59 -62c-38 0 -60 29 -60 57c0 12 3 21 7 28c-16 9 -40 15 -66 15c-102 0 -182 -109 -186 -261c8 11 18 21 30 30c38 31 90 50 139 50c132 0 227 -89 227 -207c0 -120 -100 -214 -234 -214c-73 0 -131 26 -173 68c-53 53 -77 132 -77 238
c0 254 132 376 275 376c55 0 102 -15 134 -40c27 -20 43 -47 43 -78zM304 67c80 0 141 58 141 132c0 78 -61 131 -147 131c-82 0 -147 -55 -147 -128c0 -36 17 -71 45 -95s66 -40 108 -40z" />
    <glyph glyph-name="seven.lin" horiz-adv-x="504" 
d="M105 0l268 581h-259v-115h-82v192h429l20 -44l-278 -614h-98z" />
    <glyph glyph-name="eight.lin" horiz-adv-x="568" 
d="M283 -10c-144 0 -238 81 -238 189c0 75 56 142 131 162c-71 24 -117 82 -117 146c0 109 98 181 224 181c127 0 225 -72 225 -181c0 -64 -46 -122 -118 -146c76 -20 133 -87 133 -162c0 -108 -95 -189 -240 -189zM283 375c71 0 130 47 130 107c0 64 -54 107 -130 107
c-75 0 -129 -43 -129 -107c0 -60 58 -107 129 -107zM283 70c86 0 146 50 146 115c0 63 -63 117 -146 117s-145 -54 -145 -117c0 -65 59 -115 145 -115z" />
    <glyph glyph-name="nine.lin" horiz-adv-x="580" 
d="M73 106c0 42 28 62 59 62c38 0 59 -29 59 -57c0 -12 -3 -22 -8 -30c15 -8 40 -14 72 -14c98 0 181 98 184 258c-37 -48 -102 -79 -168 -79c-133 0 -228 87 -228 208c0 123 100 216 234 216c73 0 131 -26 172 -67c53 -54 78 -133 78 -241c0 -254 -125 -374 -274 -374
c-52 0 -101 15 -136 40c-27 20 -44 48 -44 78zM282 325c82 0 147 54 147 127c0 38 -16 72 -44 98c-28 25 -66 41 -109 41c-79 0 -141 -58 -141 -134c0 -80 61 -132 147 -132z" />
    <glyph glyph-name="period" unicode="." horiz-adv-x="227" 
d="M114 -8c-39 0 -70 32 -70 71s31 71 70 71s70 -32 70 -71s-31 -71 -70 -71z" />
    <glyph glyph-name="comma" unicode="," horiz-adv-x="227" 
d="M27 -160l-24 33c66 51 94 99 95 127c-32 8 -56 34 -56 68c0 35 32 66 69 66c40 0 74 -30 74 -87c0 -58 -40 -142 -158 -207z" />
    <glyph glyph-name="colon" unicode=":" horiz-adv-x="246" 
d="M124 257c-39 0 -69 31 -69 70c0 38 30 69 69 69c38 0 68 -31 68 -69c0 -39 -30 -70 -68 -70zM124 -8c-39 0 -69 31 -69 70c0 38 30 69 69 69c38 0 68 -31 68 -69c0 -39 -30 -70 -68 -70z" />
    <glyph glyph-name="semicolon" unicode=";" horiz-adv-x="246" 
d="M124 257c-39 0 -69 31 -69 70c0 38 30 69 69 69c38 0 68 -31 68 -69c0 -39 -30 -70 -68 -70zM39 -157l-24 32c65 51 92 98 94 125c-31 8 -55 34 -55 66c0 35 31 65 67 65c39 0 73 -29 73 -85s-39 -139 -155 -203z" />
    <glyph glyph-name="ellipsis" unicode="&#x2026;" horiz-adv-x="647" 
d="M539 -8c-38 0 -67 30 -67 68s29 68 67 68s67 -30 67 -68s-29 -68 -67 -68zM324 -8c-38 0 -67 30 -67 68s29 68 67 68c37 0 67 -30 67 -68s-30 -68 -67 -68zM108 -8c-38 0 -67 30 -67 68s29 68 67 68s67 -30 67 -68s-29 -68 -67 -68z" />
    <glyph glyph-name="periodcentered" unicode="&#xb7;" horiz-adv-x="259" 
d="M130 186c-39 0 -70 32 -70 71c0 40 31 72 70 72s70 -32 70 -72c0 -39 -31 -71 -70 -71z" />
    <glyph glyph-name="bullet" unicode="&#x2022;" horiz-adv-x="312" 
d="M156 162c-62 0 -110 50 -110 113c0 62 48 113 110 113s110 -51 110 -113c0 -63 -48 -113 -110 -113z" />
    <glyph glyph-name="bullet.alt" horiz-adv-x="635" 
d="M317 -48c-165 0 -269 122 -269 268c0 145 106 268 269 268c166 0 271 -122 271 -268c0 -144 -106 -268 -271 -268z" />
    <glyph glyph-name="ampersand" unicode="&#x26;" horiz-adv-x="642" 
d="M616 269h-58c-16 -52 -35 -98 -60 -136c36 -33 96 -84 101 -88l-51 -57l-99 87c-55 -54 -126 -84 -206 -84c-141 0 -213 75 -213 168c0 80 53 138 134 182c-57 63 -66 101 -66 144c0 71 59 153 167 153c94 0 160 -56 160 -139c0 -72 -48 -122 -140 -171
c14 -14 29 -29 48 -46c0 0 74 -67 110 -101c18 27 32 58 43 90h-55v71h185v-73zM243 65c60 0 109 22 150 59c-37 35 -113 105 -113 105c-27 24 -50 46 -69 65c-58 -34 -92 -75 -92 -130c0 -48 43 -99 124 -99zM186 483c0 -26 7 -56 52 -110c69 39 99 73 99 126
c0 38 -28 69 -72 69c-48 0 -79 -41 -79 -85z" />
    <glyph glyph-name="exclam" unicode="!" horiz-adv-x="264" 
d="M109 189l-32 468h110l-31 -468h-47zM132 -8c-36 0 -64 29 -64 65s28 66 64 66s65 -30 65 -66s-29 -65 -65 -65z" />
    <glyph glyph-name="exclamdown" unicode="&#xa1;" horiz-adv-x="264" 
d="M132 534c-36 0 -64 30 -64 66s28 65 64 65s65 -29 65 -65s-29 -66 -65 -66zM77 0l32 468h47l31 -468h-110z" />
    <glyph glyph-name="question" unicode="?" horiz-adv-x="464" 
d="M22 523c0 26 9 50 26 72c33 44 97 75 172 75c130 0 213 -79 213 -181c0 -91 -63 -167 -185 -194l-10 -106h-55l-18 162c122 20 175 74 175 136c0 61 -46 106 -123 106c-47 0 -82 -14 -101 -40c-1 -1 -2 -2 -2 -3c16 -5 26 -24 26 -42c0 -31 -20 -55 -52 -55
c-34 0 -66 28 -66 70zM211 -8c-35 0 -64 29 -64 65s29 66 64 66c36 0 65 -30 65 -66s-29 -65 -65 -65z" />
    <glyph glyph-name="questiondown" unicode="&#xbf;" horiz-adv-x="464" 
d="M442 135c0 -26 -9 -50 -25 -72c-34 -44 -98 -75 -173 -75c-130 0 -213 79 -213 181c0 91 63 167 185 194l10 106h56l17 -162c-122 -20 -175 -74 -175 -136c0 -61 46 -106 123 -106c47 0 82 14 101 40c1 1 2 1 2 2c-16 6 -26 24 -26 43c0 31 20 55 53 55s65 -28 65 -70z
M253 666c36 0 64 -29 64 -65s-28 -66 -64 -66s-65 30 -65 66s29 65 65 65z" />
    <glyph glyph-name="quotedblleft" unicode="&#x201c;" horiz-adv-x="431" 
d="M314 390c-39 0 -73 29 -73 85s40 143 154 206l23 -32c-64 -49 -90 -101 -92 -129c31 -7 55 -33 55 -65c0 -35 -31 -65 -67 -65zM105 390c-39 0 -72 29 -72 85s39 143 153 206l24 -32c-65 -49 -91 -101 -92 -129c31 -7 54 -33 54 -65c0 -35 -30 -65 -67 -65z" />
    <glyph glyph-name="quotedblright" unicode="&#x201d;" horiz-adv-x="431" 
d="M245 383l-23 32c64 49 90 101 92 129c-31 7 -55 33 -55 65c0 35 31 65 67 65c39 0 73 -29 73 -85s-40 -143 -154 -206zM36 383l-23 32c65 49 91 101 92 129c-31 7 -55 33 -55 65c0 35 31 65 68 65c38 0 72 -29 72 -85s-39 -143 -154 -206z" />
    <glyph glyph-name="quoteleft" unicode="&#x2018;" horiz-adv-x="223" 
d="M105 390c-39 0 -72 29 -72 85s39 143 153 206l24 -32c-65 -49 -91 -101 -92 -129c31 -7 54 -33 54 -65c0 -35 -30 -65 -67 -65z" />
    <glyph glyph-name="quoteright" unicode="&#x2019;" horiz-adv-x="223" 
d="M36 383l-23 32c65 49 91 101 92 129c-31 7 -55 33 -55 65c0 35 31 65 68 65c38 0 72 -29 72 -85s-39 -143 -154 -206z" />
    <glyph glyph-name="quotedblbase" unicode="&#x201e;" horiz-adv-x="441" 
d="M240 -155l-23 31c64 50 90 96 92 123c-31 7 -54 33 -54 65c0 34 30 63 67 63s71 -28 71 -83c0 -57 -36 -130 -153 -199zM31 -155l-23 31c64 50 90 96 92 123c-31 7 -54 33 -54 65c0 34 30 63 67 63s71 -28 71 -83c0 -57 -36 -130 -153 -199z" />
    <glyph glyph-name="quotesinglbase" unicode="&#x201a;" horiz-adv-x="233" 
d="M30 -160l-24 33c66 51 94 99 95 127c-32 8 -56 34 -56 68c0 35 32 66 69 66c40 0 74 -30 74 -87c0 -58 -40 -142 -158 -207z" />
    <glyph glyph-name="guillemotleft" unicode="&#xab;" horiz-adv-x="520" 
d="M424 100l-184 178l184 178l52 -52l-123 -126l123 -126zM211 100l-183 178l183 178l52 -52l-123 -126l123 -126z" />
    <glyph glyph-name="guillemotright" unicode="&#xbb;" horiz-adv-x="520" 
d="M309 100l-52 52l123 126l-123 126l52 52l183 -178zM96 100l-52 52l123 126l-123 126l52 52l183 -178z" />
    <glyph glyph-name="guilsinglleft" unicode="&#x2039;" horiz-adv-x="307" 
d="M211 100l-183 178l183 178l52 -52l-123 -126l123 -126z" />
    <glyph glyph-name="guilsinglright" unicode="&#x203a;" horiz-adv-x="307" 
d="M96 100l-52 52l123 126l-123 126l52 52l183 -178z" />
    <glyph glyph-name="hyphen" unicode="-" horiz-adv-x="334" 
d="M38 236v88h258v-88h-258z" />
    <glyph glyph-name="endash" unicode="&#x2013;" horiz-adv-x="511" 
d="M22 239v82h467v-82h-467z" />
    <glyph glyph-name="emdash" unicode="&#x2014;" horiz-adv-x="797" 
d="M22 239v82h753v-82h-753z" />
    <glyph glyph-name="hyphen.lin" horiz-adv-x="334" 
d="M38 290v88h258v-88h-258z" />
    <glyph glyph-name="endash.lin" horiz-adv-x="511" 
d="M22 293v82h467v-82h-467z" />
    <glyph glyph-name="emdash.lin" horiz-adv-x="797" 
d="M22 293v82h753v-82h-753z" />
    <glyph glyph-name="underscore" unicode="_" horiz-adv-x="549" 
d="M-7 -156v82h563v-82h-563z" />
    <glyph glyph-name="slash" unicode="/" horiz-adv-x="484" 
d="M63 -211l-73 33l409 922l73 -32z" />
    <glyph glyph-name="backslash" unicode="\" horiz-adv-x="484" 
d="M421 -211l-409 923l73 32l409 -922z" />
    <glyph glyph-name="bar" unicode="|" horiz-adv-x="276" 
d="M100 -200v932h76v-932h-76z" />
    <glyph glyph-name="parenleft" unicode="(" horiz-adv-x="396" 
d="M365 -227c-140 77 -295 249 -295 488c0 238 155 410 295 487l42 -63c-131 -82 -247 -219 -247 -424c0 -206 116 -343 247 -425z" />
    <glyph glyph-name="parenright" unicode=")" horiz-adv-x="396" 
d="M31 -227l-42 63c131 82 247 219 247 425c0 205 -116 342 -247 424l42 63c140 -77 295 -249 295 -487c0 -239 -155 -411 -295 -488z" />
    <glyph glyph-name="parenleft.lin" horiz-adv-x="396" 
d="M365 -167c-140 77 -295 249 -295 488c0 238 155 410 295 487l42 -63c-131 -82 -243 -219 -243 -424c0 -206 112 -343 243 -425z" />
    <glyph glyph-name="parenright.lin" horiz-adv-x="396" 
d="M31 -167l-42 63c131 82 243 219 243 425c0 205 -112 342 -243 424l42 63c140 -77 295 -249 295 -487c0 -239 -155 -411 -295 -488z" />
    <glyph glyph-name="bracketleft" unicode="[" horiz-adv-x="365" 
d="M97 -200v932h242v-76h-157v-779h157v-77h-242z" />
    <glyph glyph-name="bracketright" unicode="]" horiz-adv-x="365" 
d="M26 -200v77h157v779h-157v76h242v-932h-242z" />
    <glyph glyph-name="bracketleft.lin" horiz-adv-x="365" 
d="M97 -140v932h242v-76h-161v-779h161v-77h-242z" />
    <glyph glyph-name="bracketright.lin" horiz-adv-x="365" 
d="M26 -140v77h161v779h-161v76h242v-932h-242z" />
    <glyph glyph-name="braceleft" unicode="{" horiz-adv-x="364" 
d="M315 -217c-171 4 -246 71 -246 159c0 60 34 96 80 139c26 25 45 45 45 74c0 42 -44 72 -116 72h-23v74h23c72 0 116 30 116 72c0 29 -19 49 -45 74c-46 43 -80 79 -80 139c0 88 75 155 246 159v-67c-124 -7 -163 -50 -163 -93c0 -27 24 -56 60 -93c39 -39 71 -77 71 -121
c0 -48 -39 -92 -119 -107c80 -15 119 -59 119 -107c0 -44 -32 -82 -71 -121c-36 -37 -60 -66 -60 -93c0 -43 39 -86 163 -93v-67z" />
    <glyph glyph-name="braceright" unicode="}" horiz-adv-x="364" 
d="M49 -217v67c124 7 163 50 163 93c0 27 -24 56 -60 93c-39 39 -71 77 -71 121c0 48 39 92 119 107c-80 15 -119 59 -119 107c0 44 32 82 71 121c36 37 60 66 60 93c0 43 -39 86 -163 93v67c171 -4 246 -71 246 -159c0 -60 -34 -96 -80 -139c-26 -25 -45 -45 -45 -74
c0 -42 44 -72 116 -72h23v-74h-23c-72 0 -116 -30 -116 -72c0 -29 19 -49 45 -74c46 -43 80 -79 80 -139c0 -88 -75 -155 -246 -159z" />
    <glyph glyph-name="braceleft.lin" horiz-adv-x="364" 
d="M315 -157c-171 4 -246 71 -246 159c0 60 34 96 80 139c26 25 45 45 45 74c0 42 -44 72 -116 72h-23v74h23c72 0 116 30 116 72c0 29 -19 49 -45 74c-46 43 -80 79 -80 139c0 88 75 155 246 159v-67c-124 -7 -163 -50 -163 -93c0 -27 24 -56 60 -93c39 -39 71 -77 71 -121
c0 -48 -39 -92 -119 -107c80 -15 119 -59 119 -107c0 -44 -32 -82 -71 -121c-36 -37 -60 -66 -60 -93c0 -43 39 -86 163 -93v-67z" />
    <glyph glyph-name="braceright.lin" horiz-adv-x="364" 
d="M49 -157v67c124 7 163 50 163 93c0 27 -24 56 -60 93c-39 39 -71 77 -71 121c0 48 39 92 119 107c-80 15 -119 59 -119 107c0 44 32 82 71 121c36 37 60 66 60 93c0 43 -39 86 -163 93v67c171 -4 246 -71 246 -159c0 -60 -34 -96 -80 -139c-26 -25 -45 -45 -45 -74
c0 -42 44 -72 116 -72h23v-74h-23c-72 0 -116 -30 -116 -72c0 -29 19 -49 45 -74c46 -43 80 -79 80 -139c0 -88 -75 -155 -246 -159z" />
    <glyph glyph-name="at" unicode="@" horiz-adv-x="809" 
d="M343 -177c-176 0 -300 130 -300 316c0 262 191 474 424 474c182 0 301 -121 301 -291c0 -159 -85 -289 -201 -289c-66 0 -102 38 -104 85c-30 -52 -77 -85 -130 -85c-66 0 -116 55 -116 138c0 119 82 224 181 224c50 0 86 -31 104 -79l23 73h80l-57 -226
c-13 -48 0 -74 37 -74c70 0 133 107 133 231c0 139 -95 247 -250 247c-209 0 -375 -193 -375 -430c0 -154 103 -269 252 -269c57 0 109 14 159 41l21 -40c-56 -30 -117 -46 -182 -46zM372 107c60 0 114 62 114 137c0 47 -25 74 -71 74c-60 0 -108 -64 -108 -136
c0 -42 22 -75 65 -75z" />
    <glyph glyph-name="copyright" unicode="&#xa9;" horiz-adv-x="611" 
d="M300 -8c-149 0 -263 117 -263 265s114 266 263 266s262 -118 262 -266c0 -146 -115 -265 -262 -265zM300 32c121 0 216 101 216 226c0 126 -94 225 -216 225c-123 0 -217 -99 -217 -225c0 -127 94 -226 217 -226zM307 357c-50 0 -89 -41 -89 -94s37 -95 92 -95
c29 0 53 11 75 32l24 -27c-23 -29 -60 -45 -100 -45c-79 0 -135 55 -135 133s62 134 133 134c61 0 100 -33 100 -63c0 -17 -12 -30 -28 -30c-14 0 -26 12 -26 26c0 6 1 10 4 13c-8 8 -23 16 -50 16z" />
    <glyph glyph-name="published" unicode="&#x2117;" horiz-adv-x="611" 
d="M300 -8c-149 0 -263 117 -263 265s114 266 263 266s262 -118 262 -266c0 -146 -115 -265 -262 -265zM300 32c121 0 216 101 216 226c0 126 -94 225 -216 225c-123 0 -217 -99 -217 -225c0 -127 94 -226 217 -226zM313 213c-13 0 -23 0 -29 1v-54h34v-36h-106v36h31v191
h-31v36h105c56 0 99 -32 99 -85c0 -58 -42 -89 -103 -89zM316 249c36 0 58 21 58 53c0 30 -25 49 -59 49h-31v-101c6 0 14 -1 32 -1z" />
    <glyph glyph-name="registered.alt" horiz-adv-x="611" 
d="M300 -8c-149 0 -263 117 -263 265s114 266 263 266s262 -118 262 -266c0 -146 -115 -265 -262 -265zM300 32c121 0 216 101 216 226c0 126 -94 225 -216 225c-123 0 -217 -99 -217 -225c0 -127 94 -226 217 -226zM302 131h-106v37h32v190h-32v36h102
c60 0 102 -27 102 -79c0 -34 -22 -60 -52 -72l45 -75h30v-37h-58l-56 102h-41v-65h34v-37zM296 358h-28v-90h28c37 0 61 17 61 46s-24 44 -61 44z" />
    <glyph glyph-name="registered" unicode="&#xae;" horiz-adv-x="398" 
d="M199 336c-100 0 -179 78 -179 178c0 101 79 179 179 179s179 -78 179 -179c0 -99 -80 -178 -179 -178zM199 659c-78 0 -142 -62 -142 -146c0 -81 64 -143 142 -143c77 0 142 63 142 143c0 84 -64 146 -142 146zM131 433v29h18v110h-18v29h68c38 0 68 -17 68 -51
c0 -21 -14 -38 -31 -46l22 -42h19v-29h-42l-31 62h-22v-33h19v-29h-70zM182 523h16c21 0 33 9 33 25s-12 24 -34 24h-15v-49z" />
    <glyph glyph-name="copyright.lin" horiz-adv-x="782" 
d="M391 -12c-188 0 -334 153 -334 341s146 341 334 341s334 -153 334 -341s-146 -341 -334 -341zM391 31c164 0 286 134 286 298s-122 298 -286 298s-286 -134 -286 -298s122 -298 286 -298zM399 452c-62 0 -113 -50 -113 -117c0 -64 47 -116 112 -116c43 0 71 14 98 42
l36 -38c-30 -37 -76 -58 -134 -58c-93 0 -171 69 -171 170c0 98 81 171 173 171c79 0 130 -44 130 -83c0 -23 -18 -41 -38 -41s-36 16 -36 36c0 7 3 14 6 15c-9 10 -34 19 -63 19z" />
    <glyph glyph-name="published.lin" horiz-adv-x="782" 
d="M391 -12c-188 0 -334 153 -334 341s146 341 334 341s334 -153 334 -341s-146 -341 -334 -341zM391 31c164 0 286 134 286 298s-122 298 -286 298s-286 -134 -286 -298s122 -298 286 -298zM402 274h-33v-60h41v-50h-134v50h37v229h-37v50h132c70 0 124 -42 124 -108
c0 -76 -53 -111 -130 -111zM406 320c43 0 68 26 68 65c0 35 -28 58 -69 58h-36v-122c4 0 15 -1 37 -1z" />
    <glyph glyph-name="registered.lin" horiz-adv-x="782" 
d="M391 -12c-188 0 -334 153 -334 341s146 341 334 341s334 -153 334 -341s-146 -341 -334 -341zM391 31c164 0 286 134 286 298s-122 298 -286 298s-286 -134 -286 -298s122 -298 286 -298zM356 297v-75h41v-50h-135v50h38v229h-38v50h128c75 0 129 -33 129 -99
c0 -45 -24 -76 -62 -90l51 -90h37v-50h-74l-66 125h-49zM356 343h36c41 0 69 19 69 54c0 36 -26 54 -70 54h-35v-108z" />
    <glyph glyph-name="servicemark" unicode="&#x2120;" horiz-adv-x="583" 
d="M236 407v42h33l8 167h-36v42h95l64 -143l61 143h95v-42h-37l8 -167h34v-42h-111v42h31l-5 140l-67 -144h-22l-67 144l-5 -140h31v-42h-110zM109 402c-54 0 -92 27 -92 59c0 17 13 29 28 29c18 0 28 -12 28 -22c0 -7 -1 -11 -4 -15c9 -7 22 -11 39 -11c28 0 45 11 45 32
c0 20 -19 30 -46 40c-46 16 -81 32 -81 79c0 40 35 70 86 70c52 0 86 -23 86 -54c0 -18 -13 -28 -27 -28c-18 0 -27 11 -27 22c0 6 2 9 3 12c-7 5 -19 8 -33 8c-25 0 -41 -11 -41 -29c0 -20 23 -29 48 -37c44 -15 80 -35 80 -81c0 -48 -39 -74 -92 -74z" />
    <glyph glyph-name="trademark" unicode="&#x2122;" horiz-adv-x="632" 
d="M285 407v42h33l8 167h-36v42h95l63 -143l62 143h95v-42h-37l8 -167h34v-42h-111v42h31l-5 140l-67 -144h-22l-68 144l-5 -140h32v-42h-110zM76 407v42h35v168h-52v-41h-42v82h237v-82h-43v41h-51v-168h35v-42h-119z" />
    <glyph glyph-name="asterisk" unicode="*" horiz-adv-x="428" 
d="M340 518l-107 -7l81 -68c28 -24 34 -57 7 -75c-27 -19 -55 -4 -68 30l-39 97l-39 -97c-13 -34 -41 -49 -68 -30c-27 18 -21 51 7 75l81 68l-107 7c-37 3 -59 27 -49 58c9 28 42 33 73 14l90 -55l-26 104c-9 34 5 64 38 64s47 -30 38 -64l-26 -104l90 55
c31 19 64 14 73 -14c10 -31 -12 -55 -49 -58z" />
    <glyph glyph-name="dagger" unicode="&#x2020;" horiz-adv-x="486" 
d="M222 -2l-19 382l-77 9c-2 -34 -27 -57 -54 -57c-31 0 -53 26 -53 54c0 37 29 64 74 64c10 0 23 -2 32 -4l96 -20l-27 148c-8 41 17 70 49 70s57 -29 49 -70l-27 -148l96 20c9 2 22 4 32 4c45 0 74 -27 74 -64c0 -28 -22 -54 -53 -54c-27 0 -52 23 -54 57l-77 -9l-19 -382
h-42z" />
    <glyph glyph-name="daggerdbl" unicode="&#x2021;" horiz-adv-x="504" 
d="M252 -126c-33 0 -56 30 -46 74l26 126l-87 -17c-10 -2 -20 -4 -29 -4c-42 0 -74 23 -74 60c0 28 21 51 51 51c26 0 52 -20 52 -55l66 6l19 144l-19 144l-66 6c0 -35 -26 -55 -52 -55c-30 0 -51 23 -51 51c0 37 32 60 74 60c9 0 19 -2 29 -4l87 -17l-26 126
c-10 45 13 74 46 74s56 -30 46 -74l-26 -126l87 17c10 2 20 4 29 4c42 0 74 -23 74 -60c0 -28 -21 -51 -51 -51c-26 0 -52 20 -52 55l-66 -6l-19 -144l19 -144l66 -6c0 35 26 55 52 55c30 0 51 -23 51 -51c0 -37 -32 -60 -74 -60c-9 0 -19 2 -29 4l-87 17l26 -126
c10 -44 -13 -74 -46 -74z" />
    <glyph glyph-name="asciicircum" unicode="^" horiz-adv-x="452" 
d="M102 342l-40 46l164 159l164 -159l-40 -46l-124 87z" />
    <glyph glyph-name="asciitilde" unicode="~" horiz-adv-x="444" 
d="M296 188c-39 0 -66 18 -88 38c-25 22 -40 30 -55 30c-23 0 -40 -19 -49 -61l-62 16c8 80 56 131 106 131c39 0 66 -19 88 -39c25 -21 40 -30 55 -30c23 0 40 19 49 61l62 -15c-8 -80 -56 -131 -106 -131z" />
    <glyph glyph-name="dollar" unicode="$" horiz-adv-x="493" 
d="M309 578l-5 -67c70 -10 139 -42 139 -102c0 -33 -21 -54 -50 -54c-32 0 -54 22 -54 51c0 8 1 19 5 27c-9 5 -30 10 -52 13l-12 -148c80 -22 169 -55 169 -148c0 -101 -89 -147 -193 -150l-9 -106l-65 5l8 105c-74 11 -152 45 -152 111c0 31 21 56 52 56s54 -21 54 -51
c0 -9 -2 -20 -6 -29c11 -9 36 -16 64 -21l13 161c-78 21 -155 53 -155 140c0 80 71 138 178 143l6 69zM365 143c0 38 -35 57 -94 74l-12 -150c57 2 106 26 106 76zM144 378c0 -34 29 -50 80 -65l12 135c-53 -4 -92 -29 -92 -70z" />
    <glyph glyph-name="dollar.lin" horiz-adv-x="585" 
d="M288 -103l-73 6l9 102c-107 17 -181 77 -181 135c0 41 28 69 63 69c33 0 57 -27 57 -55c0 -17 -6 -30 -14 -42c16 -14 49 -27 87 -33l20 225c-96 29 -183 72 -183 178c0 98 82 171 212 176l8 91l73 -6l-9 -90c95 -15 164 -66 164 -127c0 -40 -25 -64 -57 -64
c-38 0 -61 28 -61 58c0 16 5 26 11 35c-13 10 -40 19 -69 24l-19 -210c113 -32 205 -74 205 -183c0 -119 -100 -183 -235 -186zM442 181c0 56 -43 82 -124 105l-20 -211c85 3 144 42 144 106zM163 486c0 -53 41 -80 102 -100l16 196c-70 -5 -118 -45 -118 -96z" />
    <glyph glyph-name="sterling" unicode="&#xa3;" horiz-adv-x="508" 
d="M388 117h-165v-12c0 -47 -16 -86 -45 -118c35 -1 67 -8 90 -16c49 -16 73 -20 95 -20c41 0 59 16 83 60l57 -32c-28 -76 -69 -105 -138 -105c-37 0 -70 7 -119 26c-32 12 -58 21 -101 21h-7c-23 -33 -59 -47 -85 -47c-32 0 -55 21 -55 44c0 38 38 73 107 71
c25 31 40 75 40 114v14h-109v68h97c-2 8 -5 16 -8 25c-16 43 -29 81 -29 126c0 99 71 187 192 187c92 0 166 -53 166 -117c0 -44 -28 -64 -55 -64c-29 0 -51 22 -51 52c0 13 6 25 11 33c-10 12 -34 23 -72 23c-73 0 -109 -58 -109 -114c0 -43 8 -74 24 -117l11 -34h175v-68z
" />
    <glyph glyph-name="sterling.lin" horiz-adv-x="578" 
d="M28 38c0 34 27 71 119 64c30 35 38 77 38 122c0 6 0 12 -1 18h-121v74h107l-9 26c-14 39 -31 82 -31 133c0 109 91 194 205 194c101 0 179 -58 179 -125c0 -34 -24 -67 -61 -67c-36 0 -59 27 -59 55c0 14 5 27 12 37c-11 12 -36 25 -73 25c-62 0 -118 -49 -118 -119
c0 -48 13 -85 25 -121l13 -38h182v-74h-170c1 -6 1 -11 1 -16c0 -56 -12 -97 -39 -122c34 -1 62 -7 88 -14c52 -16 73 -21 98 -21c44 0 61 18 85 65l61 -31c-25 -81 -67 -114 -144 -114c-43 0 -70 8 -122 26c-36 12 -70 20 -116 21c-25 -31 -60 -48 -91 -48
c-38 0 -58 20 -58 50z" />
    <glyph glyph-name="Euro" unicode="&#x20ac;" horiz-adv-x="627" 
d="M46 289v67h82c38 101 135 167 247 167c120 0 199 -71 199 -136c0 -39 -30 -64 -62 -64c-31 0 -54 23 -54 54c0 18 9 34 16 38c-11 15 -46 35 -101 35c-72 0 -130 -39 -161 -97h166v-64h-186c-1 -10 -2 -21 -2 -31c0 -11 1 -22 2 -32h186v-64h-165c30 -58 88 -97 163 -97
c57 0 107 25 148 66l51 -55c-51 -53 -122 -84 -199 -84c-122 0 -214 67 -250 167h-80v67h65c-1 10 -1 20 -1 30c0 11 1 22 2 33h-66z" />
    <glyph glyph-name="Euro.lin" horiz-adv-x="715" 
d="M38 368v75h100c41 143 155 227 293 227c132 0 227 -92 227 -172c0 -40 -25 -73 -66 -73c-33 0 -59 27 -59 59c0 20 10 39 25 49c-16 25 -68 53 -129 53c-103 0 -173 -56 -203 -146h229v-71h-244c-2 -14 -2 -28 -2 -42c0 -16 1 -32 2 -47h244v-71h-228
c30 -84 95 -137 192 -137c72 0 127 25 184 81l54 -59c-58 -67 -143 -105 -239 -105c-137 0 -241 85 -279 217h-101v75h88c-2 14 -3 29 -3 45c0 14 1 28 2 42h-87z" />
    <glyph glyph-name="yen" unicode="&#xa5;" horiz-adv-x="518" 
d="M76 241v66h96l-90 141h-64v67h199v-66h-57l99 -161l98 161h-60v66h200v-67h-65l-91 -141h98v-66h-139l-6 -9v-43h145v-66h-145v-57h84v-66h-241v66h83v57h-144v66h144v43l-6 9h-138z" />
    <glyph glyph-name="yen.lin" horiz-adv-x="643" 
d="M187 1v69h89v69h-163v69h163v63h-163v69h118l-149 242h-66v76h233v-76h-66l141 -246l140 246h-70v76h233v-76h-66l-150 -242h119v-69h-163v-63h163v-69h-163v-69h89v-69h-269z" />
    <glyph glyph-name="cent" unicode="&#xa2;" horiz-adv-x="522" 
d="M472 349c0 -37 -28 -63 -59 -63c-27 0 -52 21 -52 52c0 10 5 26 18 39c-12 16 -37 28 -68 34l-27 -305h15c57 0 108 15 161 46l-7 -77c-45 -28 -102 -40 -161 -40h-12l-13 -141l-66 6l13 145c-105 28 -169 114 -169 215c0 109 89 209 210 220l10 104l65 -6l-9 -101
c87 -15 151 -73 151 -128zM131 259c0 -63 33 -116 93 -140l27 292c-64 -12 -120 -63 -120 -152z" />
    <glyph glyph-name="cent.lin" horiz-adv-x="513" 
d="M198 -16l14 146c-106 28 -170 115 -170 216c0 111 89 209 211 220l10 107l66 -6l-9 -104c86 -15 149 -73 149 -129c0 -36 -27 -64 -59 -64c-27 0 -52 21 -52 53c0 9 5 26 18 39c-11 15 -36 28 -66 34l-28 -304h17c52 0 103 15 158 47l-6 -78c-45 -27 -101 -41 -161 -41
h-12l-13 -142zM129 345c0 -62 33 -115 93 -139l26 290c-65 -11 -119 -61 -119 -151z" />
    <glyph glyph-name="numbersign" unicode="#" horiz-adv-x="544" 
d="M57 325v71h98l19 119h78l-19 -119h118l19 119h79l-19 -119h89v-71h-100l-20 -127h89v-71h-100l-19 -127h-78l19 127h-118l-20 -127h-78l19 127h-88v71h99l20 127h-87zM221 327l-21 -131h122l21 131h-122z" />
    <glyph glyph-name="numbersign.lin" horiz-adv-x="602" 
d="M59 401v77h120l28 180h86l-28 -180h118l27 180h86l-28 -180h114v-77h-126l-23 -155h110l-4 -77h-118l-25 -169h-86l25 169h-117l-26 -169h-86l26 169h-112v77h124l23 155h-108zM251 404l-25 -161h124l25 161h-124z" />
    <glyph glyph-name="paragraph" unicode="&#xb6;" horiz-adv-x="589" 
d="M191 0v73h80v120c-17 -1 -33 -1 -62 -1c-102 0 -177 60 -177 157c0 89 78 152 180 152h341v-75h-82v-351h82v-75h-362zM342 72h58v357h-58v-357z" />
    <glyph glyph-name="paragraph.lin" horiz-adv-x="716" 
d="M242 0v81h98v149c-8 -1 -26 -1 -55 -1c-150 0 -252 77 -252 218c0 130 107 211 246 211h396v-81h-80v-496h80v-81h-433zM429 76h77v506h-77v-506z" />
    <glyph glyph-name="section" unicode="&#xa7;" horiz-adv-x="459" 
d="M234 523c83 0 150 -34 150 -87c0 -25 -18 -46 -47 -46c-28 0 -47 18 -47 43c0 8 1 12 3 15c-11 8 -39 14 -63 14c-43 0 -67 -16 -67 -37c0 -29 50 -43 108 -60c76 -24 133 -45 133 -103c0 -44 -34 -71 -77 -87c30 -18 49 -41 49 -78c0 -58 -57 -106 -154 -106
c-76 0 -151 30 -151 87c0 24 19 45 47 45s49 -17 49 -43c0 -7 -2 -12 -4 -15c11 -8 39 -13 62 -13c45 0 67 16 67 37c0 29 -43 40 -109 59c-72 21 -133 46 -133 103c0 43 33 72 79 87c-33 19 -51 42 -51 79c0 54 60 106 156 106zM228 211l33 -9c35 9 61 25 61 47
c0 26 -39 40 -94 54c-13 3 -24 6 -35 10c-33 -10 -60 -28 -60 -49c0 -26 38 -39 95 -53z" />
    <glyph glyph-name="section.lin" horiz-adv-x="535" 
d="M124 148c34 0 58 -22 58 -54c0 -6 -1 -12 -4 -20c15 -10 55 -17 80 -17c70 0 102 25 102 56c0 34 -35 48 -129 74c-106 29 -185 62 -185 135c0 58 44 95 100 116c-43 22 -65 53 -65 101c0 62 69 131 195 131c48 0 92 -9 126 -26c38 -18 62 -46 62 -80
c0 -30 -21 -54 -53 -54c-34 0 -58 22 -58 54c0 7 0 15 2 21l-3 2c-18 9 -54 13 -75 13c-70 0 -102 -25 -102 -55c0 -35 35 -49 129 -74c106 -29 185 -62 185 -136c0 -59 -44 -94 -98 -115c39 -21 63 -51 63 -100c0 -65 -69 -133 -195 -133c-64 0 -125 17 -159 47
c-18 16 -29 37 -29 59c0 30 21 55 53 55zM267 397l-48 12c-42 -15 -80 -40 -80 -73c0 -34 34 -52 129 -76l46 -12c45 16 82 41 82 74s-35 52 -129 75z" />
    <glyph glyph-name="ordfeminine" unicode="&#xaa;" horiz-adv-x="349" 
d="M119 403c-46 0 -84 27 -84 74s42 77 101 77c27 0 56 -4 70 -9v27c0 20 -7 33 -18 42c-12 9 -27 12 -46 12c-15 0 -25 -2 -32 -6c2 -4 3 -10 3 -14c0 -18 -14 -31 -31 -31c-18 0 -31 13 -31 32c0 31 33 63 100 63c30 0 55 -7 72 -18c24 -16 36 -43 36 -75v-123h40v-46h-92
v31c-21 -19 -53 -36 -88 -36zM43 291v51h256v-51h-256zM136 445c26 0 50 12 70 28v42c-16 4 -38 7 -60 7c-35 0 -55 -16 -55 -41c0 -22 17 -36 45 -36z" />
    <glyph glyph-name="ordmasculine" unicode="&#xba;" horiz-adv-x="350" 
d="M52 291v51h246v-51h-246zM175 403c-83 0 -136 62 -136 134s53 134 136 134s135 -61 135 -134c0 -72 -52 -134 -135 -134zM175 449c47 0 79 37 79 88s-32 88 -79 88s-79 -37 -79 -88s32 -88 79 -88z" />
    <glyph glyph-name="ordfeminine.lin" horiz-adv-x="349" 
d="M119 462c-46 0 -84 27 -84 74s42 77 101 77c27 0 56 -4 70 -9v27c0 20 -7 33 -18 42c-12 9 -27 12 -46 12c-15 0 -25 -2 -32 -6c2 -4 3 -10 3 -14c0 -18 -14 -31 -31 -31c-18 0 -31 13 -31 32c0 31 33 63 100 63c30 0 55 -7 72 -18c24 -16 36 -43 36 -75v-123h40v-46h-92
v31c-21 -19 -53 -36 -88 -36zM43 350v51h256v-51h-256zM136 504c26 0 50 12 70 28v42c-16 4 -38 7 -60 7c-35 0 -55 -16 -55 -41c0 -22 17 -36 45 -36z" />
    <glyph glyph-name="ordmasculine.lin" horiz-adv-x="350" 
d="M52 350v51h246v-51h-246zM175 462c-83 0 -136 62 -136 134s53 134 136 134s135 -61 135 -134c0 -72 -52 -134 -135 -134zM175 508c47 0 79 37 79 88s-32 88 -79 88s-79 -37 -79 -88s32 -88 79 -88z" />
    <glyph glyph-name="degree" unicode="&#xb0;" horiz-adv-x="305" 
d="M152 406c-75 0 -132 59 -132 132s57 132 132 132s131 -59 131 -132s-56 -132 -131 -132zM152 460c43 0 74 34 74 78s-31 78 -74 78s-74 -34 -74 -78s31 -78 74 -78z" />
    <glyph glyph-name="degree.lin" horiz-adv-x="305" 
d="M152 465c-75 0 -132 59 -132 132s57 132 132 132s131 -59 131 -132s-56 -132 -131 -132zM152 519c43 0 74 34 74 78s-31 78 -74 78s-74 -34 -74 -78s31 -78 74 -78z" />
    <glyph glyph-name="percent" unicode="%" horiz-adv-x="669" 
d="M176 273c-70 0 -127 56 -127 126c0 69 57 125 127 125c69 0 126 -56 126 -125c0 -70 -57 -126 -126 -126zM176 331c35 0 60 29 60 66c0 38 -25 68 -60 68c-36 0 -61 -30 -61 -68c0 -37 25 -66 61 -66zM130 -19l-38 35c32 33 144 160 224 252c80 91 191 223 220 258
l39 -34c-32 -33 -146 -160 -227 -253c-79 -91 -190 -225 -218 -258zM494 242c70 0 126 -56 126 -125s-56 -125 -126 -125s-127 56 -127 125s57 125 127 125zM494 184c-36 0 -61 -30 -61 -68s25 -67 61 -67c35 0 61 29 61 67s-26 68 -61 68z" />
    <glyph glyph-name="perthousand" unicode="&#x2030;" horiz-adv-x="956" 
d="M176 273c-70 0 -127 56 -127 126c0 69 57 125 127 125c69 0 126 -56 126 -125c0 -70 -57 -126 -126 -126zM130 -19l-38 35c32 33 144 160 224 252c80 91 191 223 220 258l39 -34c-32 -33 -146 -160 -227 -253c-79 -91 -190 -225 -218 -258zM176 331c35 0 60 29 60 66
c0 38 -25 68 -60 68c-36 0 -61 -30 -61 -68c0 -37 25 -66 61 -66zM494 -8c-70 0 -127 56 -127 125s57 125 127 125s126 -56 126 -125s-56 -125 -126 -125zM494 49c35 0 61 29 61 67s-26 68 -61 68c-36 0 -61 -30 -61 -68s25 -67 61 -67zM781 -8c-70 0 -127 56 -127 125
s57 125 127 125c69 0 126 -56 126 -125s-57 -125 -126 -125zM781 49c35 0 60 29 60 67s-25 68 -60 68c-36 0 -61 -30 -61 -68s25 -67 61 -67z" />
    <glyph glyph-name="percent.lin" horiz-adv-x="654" 
d="M331 135c0 81 65 148 146 148s146 -67 146 -148s-65 -147 -146 -147s-146 66 -146 147zM31 523c0 81 64 147 146 147c81 0 145 -66 145 -147s-64 -148 -145 -148c-82 0 -146 67 -146 148zM115 -12l-40 28c14 19 146 204 232 326c86 121 217 307 231 328l41 -27l-234 -329
c-86 -121 -218 -308 -230 -326zM388 135c0 -53 39 -97 89 -97s88 44 88 97s-38 97 -88 97s-89 -44 -89 -97zM88 523c0 -53 39 -97 89 -97c49 0 88 44 88 97s-39 97 -88 97c-50 0 -89 -44 -89 -97z" />
    <glyph glyph-name="perthousand.lin" horiz-adv-x="998" 
d="M331 135c0 81 65 148 146 148s146 -67 146 -148s-65 -147 -146 -147s-146 66 -146 147zM675 135c0 81 65 148 146 148s146 -67 146 -148s-65 -147 -146 -147s-146 66 -146 147zM31 523c0 81 64 147 146 147c81 0 145 -66 145 -147s-64 -148 -145 -148
c-82 0 -146 67 -146 148zM115 -12l-40 28c14 19 146 204 232 326c86 121 217 307 231 328l41 -27l-234 -329c-86 -121 -218 -308 -230 -326zM733 135c0 -53 38 -97 88 -97s89 44 89 97s-39 97 -89 97s-88 -44 -88 -97zM388 135c0 -53 39 -97 89 -97s88 44 88 97
s-38 97 -88 97s-89 -44 -89 -97zM88 523c0 -53 39 -97 89 -97c49 0 88 44 88 97s-39 97 -88 97c-50 0 -89 -44 -89 -97z" />
    <glyph glyph-name="quotedbl" unicode="&#x22;" horiz-adv-x="374" 
d="M263 400l-38 189c-10 49 18 81 56 81s66 -31 56 -81l-39 -189h-35zM74 400l-38 189c-10 49 18 81 56 81s66 -31 56 -81l-39 -189h-35z" />
    <glyph glyph-name="quotesingle" unicode="'" horiz-adv-x="185" 
d="M74 400l-38 189c-10 49 18 81 56 81s66 -31 56 -81l-39 -189h-35z" />
    <glyph glyph-name="quotedbl.lin" horiz-adv-x="374" 
d="M263 459l-38 189c-10 49 18 81 56 81s66 -31 56 -81l-39 -189h-35zM74 459l-38 189c-10 49 18 81 56 81s66 -31 56 -81l-39 -189h-35z" />
    <glyph glyph-name="quotesingle.lin" horiz-adv-x="185" 
d="M74 459l-38 189c-10 49 18 81 56 81s66 -31 56 -81l-39 -189h-35z" />
    <glyph glyph-name="plus" unicode="+" horiz-adv-x="436" 
d="M180 104v135h-134v74h134v135h76v-135h134v-74h-134v-135h-76z" />
    <glyph glyph-name="plus.lin" horiz-adv-x="436" 
d="M180 163v135h-134v74h134v135h76v-135h134v-74h-134v-135h-76z" />
    <glyph glyph-name="minus" unicode="&#x2212;" horiz-adv-x="436" 
d="M46 239v74h344v-74h-344z" />
    <glyph glyph-name="minus.lin" horiz-adv-x="436" 
d="M46 298v74h344v-74h-344z" />
    <glyph glyph-name="divide" unicode="&#xf7;" horiz-adv-x="436" 
d="M390 239h-344v74h344v-74zM218 363c-30 0 -56 25 -56 56s27 56 57 56s56 -25 56 -56s-27 -56 -57 -56zM218 77c-30 0 -56 25 -56 56s27 56 57 56s56 -25 56 -56s-27 -56 -57 -56z" />
    <glyph glyph-name="divide.lin" horiz-adv-x="436" 
d="M390 298h-344v74h344v-74zM218 422c-30 0 -56 25 -56 56s27 56 57 56s56 -25 56 -56s-27 -56 -57 -56zM218 136c-30 0 -56 25 -56 56s27 56 57 56s56 -25 56 -56s-27 -56 -57 -56z" />
    <glyph glyph-name="equal" unicode="=" horiz-adv-x="436" 
d="M46 321v74h344v-74h-344zM46 149v74h344v-74h-344z" />
    <glyph glyph-name="equal.lin" horiz-adv-x="436" 
d="M46 380v74h344v-74h-344zM46 208v74h344v-74h-344z" />
    <glyph glyph-name="multiply" unicode="&#xd7;" horiz-adv-x="436" 
d="M321 113l-103 109l-103 -109l-54 54l103 108l-103 109l54 55l103 -110l103 109l53 -54l-103 -108l104 -109z" />
    <glyph glyph-name="multiply.lin" horiz-adv-x="436" 
d="M321 172l-103 109l-103 -109l-54 54l103 108l-103 109l54 55l103 -110l103 109l53 -54l-103 -108l104 -109z" />
    <glyph glyph-name="less" unicode="&#x3c;" horiz-adv-x="404" 
d="M299 74l-254 177v44l254 177l41 -56l-205 -143l205 -142z" />
    <glyph glyph-name="less.lin" horiz-adv-x="404" 
d="M299 133l-254 177v44l254 177l41 -56l-205 -143l205 -142z" />
    <glyph glyph-name="greater" unicode="&#x3e;" horiz-adv-x="404" 
d="M105 74l-41 57l205 142l-205 143l41 56l254 -177v-44z" />
    <glyph glyph-name="greater.lin" horiz-adv-x="404" 
d="M105 133l-41 57l205 142l-205 143l41 56l254 -177v-44z" />
    <glyph glyph-name="plusminus" unicode="&#xb1;" horiz-adv-x="436" 
d="M180 172v135h-134v74h134v135h76v-135h134v-74h-134v-135h-76zM46 17v75h344v-75h-344z" />
    <glyph glyph-name="plusminus.lin" horiz-adv-x="436" 
d="M180 231v135h-134v74h134v135h76v-135h134v-74h-134v-135h-76zM46 76v75h344v-75h-344z" />
    <glyph glyph-name="onehalf" unicode="&#xbd;" horiz-adv-x="795" 
d="M497 -2c-2 0 -17 28 -17 28c32 83 94 127 137 158c36 24 63 43 63 78c0 32 -28 54 -67 54c-32 0 -58 -14 -63 -23c10 -5 17 -18 17 -32c0 -20 -16 -36 -36 -36c-29 0 -40 22 -40 48c0 51 50 94 126 94c68 0 124 -42 124 -106c0 -58 -44 -88 -86 -114
c-35 -23 -79 -55 -102 -98h146v60h50v-111h-252zM46 281v54h93v245l-86 -21l-14 51l130 34h30v-309h92v-54h-245zM226 -14l-42 27c29 47 130 207 198 319c68 110 165 276 191 322l42 -27c-30 -47 -129 -205 -197 -317c-68 -111 -166 -279 -192 -324z" />
    <glyph glyph-name="onethird" unicode="&#x2153;" horiz-adv-x="795" 
d="M47 281v54h93v245l-86 -21l-14 51l130 34h30v-309h92v-54h-245zM224 -14l-42 27c29 47 130 207 198 319c68 110 165 276 191 322l42 -27c-30 -47 -129 -205 -197 -317c-68 -111 -166 -279 -192 -324zM614 -8c-74 0 -133 36 -133 85c0 23 17 42 39 42s37 -16 37 -36
c0 -9 -3 -18 -8 -24c7 -6 31 -19 65 -19c40 0 74 22 74 58c0 31 -25 62 -93 62h-22v48h24c51 0 84 24 84 61c0 32 -31 47 -67 47c-26 0 -43 -8 -50 -14c3 -6 7 -15 7 -23c0 -20 -16 -37 -36 -37c-21 0 -39 18 -39 44c0 31 40 79 121 79c71 0 126 -41 126 -94
c0 -42 -36 -76 -79 -86c41 -10 86 -41 86 -91c0 -63 -62 -102 -136 -102z" />
    <glyph glyph-name="twothirds" unicode="&#x2154;" horiz-adv-x="795" 
d="M54 280c-2 0 -17 28 -17 28c32 83 94 127 137 158c36 24 63 43 63 78c0 32 -28 54 -67 54c-32 0 -58 -14 -63 -23c10 -5 17 -18 17 -32c0 -20 -16 -36 -36 -36c-29 0 -40 22 -40 48c0 51 50 94 126 94c68 0 124 -42 124 -106c0 -58 -44 -88 -86 -114
c-35 -23 -79 -55 -102 -98h146v60h50v-111h-252zM617 -8c-74 0 -133 36 -133 85c0 23 17 42 39 42s37 -16 37 -36c0 -9 -3 -18 -8 -24c7 -6 31 -19 65 -19c40 0 74 22 74 58c0 31 -25 62 -93 62h-22v48h24c51 0 84 24 84 61c0 32 -31 47 -67 47c-26 0 -43 -8 -50 -14
c3 -6 7 -15 7 -23c0 -20 -16 -37 -36 -37c-21 0 -39 18 -39 44c0 31 40 79 121 79c71 0 126 -41 126 -94c0 -42 -36 -76 -79 -86c41 -10 86 -41 86 -91c0 -63 -62 -102 -136 -102zM242 -14l-42 27c29 47 130 207 198 319c68 110 165 276 191 322l42 -27
c-30 -47 -129 -205 -197 -317c-68 -111 -166 -279 -192 -324z" />
    <glyph glyph-name="onequarter" unicode="&#xbc;" horiz-adv-x="795" 
d="M564 0v46h67v58h-164l-18 33l193 238l44 -35l-163 -192h108v65l53 21v-82h57v-49h-57v-56h44v-47h-164zM51 281v54h93v245l-86 -21l-14 51l130 34h30v-309h92v-54h-245zM238 -14l-42 27c29 47 130 207 198 319c68 110 165 276 191 322l42 -27
c-30 -47 -129 -205 -197 -317c-68 -111 -166 -279 -192 -324z" />
    <glyph glyph-name="threequarters" unicode="&#xbe;" horiz-adv-x="795" 
d="M564 0v46h67v58h-164l-18 33l193 238l44 -35l-163 -192h108v65l53 21v-82h57v-49h-57v-56h44v-47h-164zM245 -14l-42 27c29 47 130 207 198 319c68 110 165 276 191 322l42 -27c-30 -47 -129 -205 -197 -317c-68 -111 -166 -279 -192 -324zM185 274
c-74 0 -133 36 -133 85c0 23 17 42 39 42s37 -16 37 -36c0 -9 -3 -18 -8 -24c7 -6 31 -19 65 -19c40 0 74 22 74 58c0 31 -25 62 -93 62h-22v48h24c51 0 84 24 84 61c0 32 -31 47 -67 47c-26 0 -43 -8 -50 -14c3 -6 7 -15 7 -23c0 -20 -16 -37 -36 -37c-21 0 -39 18 -39 44
c0 31 40 79 121 79c71 0 126 -41 126 -94c0 -42 -36 -76 -79 -86c41 -10 86 -41 86 -91c0 -63 -62 -102 -136 -102z" />
    <glyph glyph-name="onefifth" unicode="&#x2155;" horiz-adv-x="795" 
d="M229 -14l-42 27c29 47 130 207 198 319c68 110 165 276 191 322l42 -27c-30 -47 -129 -205 -197 -317c-68 -111 -166 -279 -192 -324zM48 281v54h93v245l-86 -21l-14 51l130 34h30v-309h92v-54h-245zM620 -9c-85 0 -126 39 -126 73c0 23 14 39 39 39s38 -17 38 -36
c0 -6 -1 -12 -4 -15c8 -3 26 -8 48 -8c53 0 84 29 84 73c0 37 -27 65 -79 65c-32 0 -59 -8 -81 -18l-29 16l18 180h207v-55h-158l-7 -77c12 3 31 6 53 6c77 0 135 -45 135 -117c0 -74 -59 -126 -138 -126z" />
    <glyph glyph-name="twofifths" unicode="&#x2156;" horiz-adv-x="795" 
d="M56 280c-2 0 -17 28 -17 28c32 83 94 127 137 158c36 24 63 43 63 78c0 32 -28 54 -67 54c-32 0 -58 -14 -63 -23c10 -5 17 -18 17 -32c0 -20 -16 -36 -36 -36c-29 0 -40 22 -40 48c0 51 50 94 126 94c68 0 124 -42 124 -106c0 -58 -44 -88 -86 -114
c-35 -23 -79 -55 -102 -98h146v60h50v-111h-252zM626 -9c-85 0 -126 39 -126 73c0 23 14 39 39 39s38 -17 38 -36c0 -6 -1 -12 -4 -15c8 -3 26 -8 48 -8c53 0 84 29 84 73c0 37 -27 65 -79 65c-32 0 -59 -8 -81 -18l-29 16l18 180h207v-55h-158l-7 -77c12 3 31 6 53 6
c77 0 135 -45 135 -117c0 -74 -59 -126 -138 -126zM249 -14l-42 27c29 47 130 207 198 319c68 110 165 276 191 322l42 -27c-30 -47 -129 -205 -197 -317c-68 -111 -166 -279 -192 -324z" />
    <glyph glyph-name="threefifths" unicode="&#x2157;" horiz-adv-x="795" 
d="M230 -14l-42 27c29 47 130 207 198 319c68 110 165 276 191 322l42 -27c-30 -47 -129 -205 -197 -317c-68 -111 -166 -279 -192 -324zM618 -9c-85 0 -126 39 -126 73c0 23 14 39 39 39s38 -17 38 -36c0 -6 -1 -12 -4 -15c8 -3 26 -8 48 -8c53 0 84 29 84 73
c0 37 -27 65 -79 65c-32 0 -59 -8 -81 -18l-29 16l18 180h207v-55h-158l-7 -77c12 3 31 6 53 6c77 0 135 -45 135 -117c0 -74 -59 -126 -138 -126zM176 274c-74 0 -133 36 -133 85c0 23 17 42 39 42s37 -16 37 -36c0 -9 -3 -18 -8 -24c7 -6 31 -19 65 -19c40 0 74 22 74 58
c0 31 -25 62 -93 62h-22v48h24c51 0 84 24 84 61c0 32 -31 47 -67 47c-26 0 -43 -8 -50 -14c3 -6 7 -15 7 -23c0 -20 -16 -37 -36 -37c-21 0 -39 18 -39 44c0 31 40 79 121 79c71 0 126 -41 126 -94c0 -42 -36 -76 -79 -86c41 -10 86 -41 86 -91c0 -63 -62 -102 -136 -102z
" />
    <glyph glyph-name="fourfifths" unicode="&#x2158;" horiz-adv-x="795" 
d="M145 282v46h67v58h-164l-18 33l193 238l44 -35l-163 -192h108v65l53 21v-82h57v-49h-57v-56h44v-47h-164zM252 -14l-42 27c29 47 130 207 198 319c68 110 165 276 191 322l42 -27c-30 -47 -129 -205 -197 -317c-68 -111 -166 -279 -192 -324zM624 -9
c-85 0 -126 39 -126 73c0 23 14 39 39 39s38 -17 38 -36c0 -6 -1 -12 -4 -15c8 -3 26 -8 48 -8c53 0 84 29 84 73c0 37 -27 65 -79 65c-32 0 -59 -8 -81 -18l-29 16l18 180h207v-55h-158l-7 -77c12 3 31 6 53 6c77 0 135 -45 135 -117c0 -74 -59 -126 -138 -126z" />
    <glyph glyph-name="onesixth" unicode="&#x2159;" horiz-adv-x="795" 
d="M732 299c0 -24 -15 -38 -37 -38c-26 0 -36 18 -36 35c0 5 1 10 2 14c-7 3 -17 6 -29 6c-52 0 -94 -55 -96 -126l1 1c22 22 53 35 87 35c74 0 126 -50 126 -115c0 -66 -55 -120 -133 -120c-42 0 -75 17 -98 40c-32 32 -42 74 -42 135c0 125 69 201 156 201
c38 0 64 -11 81 -27c12 -13 18 -25 18 -41zM48 281v54h93v245l-86 -21l-14 51l130 34h30v-309h92v-54h-245zM229 -14l-42 27c29 47 130 207 198 319c68 110 165 276 191 322l42 -27c-30 -47 -129 -205 -197 -317c-68 -111 -166 -279 -192 -324zM618 44c41 0 71 30 71 66
c0 38 -26 64 -73 64c-43 0 -75 -27 -75 -63c0 -19 7 -36 22 -49c13 -11 31 -18 55 -18z" />
    <glyph glyph-name="fivesixths" unicode="&#x215a;" horiz-adv-x="795" 
d="M731 299c0 -24 -15 -38 -37 -38c-26 0 -36 18 -36 35c0 5 1 10 2 14c-7 3 -17 6 -29 6c-52 0 -94 -55 -96 -126l1 1c22 22 53 35 87 35c74 0 126 -50 126 -115c0 -66 -55 -120 -133 -120c-42 0 -75 17 -98 40c-32 32 -42 74 -42 135c0 125 69 201 156 201
c38 0 64 -11 81 -27c12 -13 18 -25 18 -41zM171 273c-85 0 -126 39 -126 73c0 23 14 39 39 39s38 -17 38 -36c0 -6 -1 -12 -4 -15c8 -3 26 -8 48 -8c53 0 84 29 84 73c0 37 -27 65 -79 65c-32 0 -59 -8 -81 -18l-29 16l18 180h207v-55h-158l-7 -77c12 3 31 6 53 6
c77 0 135 -45 135 -117c0 -74 -59 -126 -138 -126zM228 -14l-42 27c29 47 130 207 198 319c68 110 165 276 191 322l42 -27c-30 -47 -129 -205 -197 -317c-68 -111 -166 -279 -192 -324zM617 44c41 0 71 30 71 66c0 38 -26 64 -73 64c-43 0 -75 -27 -75 -63
c0 -19 7 -36 22 -49c13 -11 31 -18 55 -18z" />
    <glyph glyph-name="oneeighth" unicode="&#x215b;" horiz-adv-x="795" 
d="M45 281v54h93v245l-86 -21l-14 51l130 34h30v-309h92v-54h-245zM221 -14l-42 27c29 47 130 207 198 319c68 110 165 276 191 322l42 -27c-30 -47 -129 -205 -197 -317c-68 -111 -166 -279 -192 -324zM615 -8c-86 0 -138 48 -138 99c0 39 28 77 84 94
c-53 15 -75 47 -75 84c0 52 53 96 129 96c75 0 130 -44 130 -96c0 -37 -23 -69 -76 -84c56 -17 85 -55 85 -94c0 -51 -53 -99 -139 -99zM615 206c35 0 66 23 66 55s-29 53 -66 53c-38 0 -65 -21 -65 -53s29 -55 65 -55zM615 45c45 0 74 26 74 57s-30 58 -74 58
s-74 -27 -74 -58s30 -57 74 -57z" />
    <glyph glyph-name="threeeighths" unicode="&#x215c;" horiz-adv-x="795" 
d="M224 -14l-42 27c29 47 130 207 198 319c68 110 165 276 191 322l42 -27c-30 -47 -129 -205 -197 -317c-68 -111 -166 -279 -192 -324zM613 -8c-86 0 -138 48 -138 99c0 39 28 77 84 94c-53 15 -75 47 -75 84c0 52 53 96 129 96c75 0 130 -44 130 -96
c0 -37 -23 -69 -76 -84c56 -17 85 -55 85 -94c0 -51 -53 -99 -139 -99zM613 206c35 0 66 23 66 55s-29 53 -66 53c-38 0 -65 -21 -65 -53s29 -55 65 -55zM613 45c45 0 74 26 74 57s-30 58 -74 58s-74 -27 -74 -58s30 -57 74 -57zM175 274c-74 0 -133 36 -133 85
c0 23 17 42 39 42s37 -16 37 -36c0 -9 -3 -18 -8 -24c7 -6 31 -19 65 -19c40 0 74 22 74 58c0 31 -25 62 -93 62h-22v48h24c51 0 84 24 84 61c0 32 -31 47 -67 47c-26 0 -43 -8 -50 -14c3 -6 7 -15 7 -23c0 -20 -16 -37 -36 -37c-21 0 -39 18 -39 44c0 31 40 79 121 79
c71 0 126 -41 126 -94c0 -42 -36 -76 -79 -86c41 -10 86 -41 86 -91c0 -63 -62 -102 -136 -102z" />
    <glyph glyph-name="fiveeighths" unicode="&#x215d;" horiz-adv-x="795" 
d="M167 273c-85 0 -126 39 -126 73c0 23 14 39 39 39s38 -17 38 -36c0 -6 -1 -12 -4 -15c8 -3 26 -8 48 -8c53 0 84 29 84 73c0 37 -27 65 -79 65c-32 0 -59 -8 -81 -18l-29 16l18 180h207v-55h-158l-7 -77c12 3 31 6 53 6c77 0 135 -45 135 -117c0 -74 -59 -126 -138 -126z
M218 -14l-42 27c29 47 130 207 198 319c68 110 165 276 191 322l42 -27c-30 -47 -129 -205 -197 -317c-68 -111 -166 -279 -192 -324zM610 -8c-86 0 -138 48 -138 99c0 39 28 77 84 94c-53 15 -75 47 -75 84c0 52 53 96 129 96c75 0 130 -44 130 -96c0 -37 -23 -69 -76 -84
c56 -17 85 -55 85 -94c0 -51 -53 -99 -139 -99zM610 206c35 0 66 23 66 55s-29 53 -66 53c-38 0 -65 -21 -65 -53s29 -55 65 -55zM610 45c45 0 74 26 74 57s-30 58 -74 58s-74 -27 -74 -58s30 -57 74 -57z" />
    <glyph glyph-name="seveneighths" unicode="&#x215e;" horiz-adv-x="795" 
d="M114 280l149 312h-143v-69h-53v119h250l15 -32l-152 -330h-66zM188 -14l-42 27c29 47 130 207 198 319c68 110 165 276 191 322l42 -27c-30 -47 -129 -205 -197 -317c-68 -111 -166 -279 -192 -324zM592 -8c-86 0 -138 48 -138 99c0 39 28 77 84 94c-53 15 -75 47 -75 84
c0 52 53 96 129 96c75 0 130 -44 130 -96c0 -37 -23 -69 -76 -84c56 -17 85 -55 85 -94c0 -51 -53 -99 -139 -99zM592 206c35 0 66 23 66 55s-29 53 -66 53c-38 0 -65 -21 -65 -53s29 -55 65 -55zM592 45c45 0 74 26 74 57s-30 58 -74 58s-74 -27 -74 -58s30 -57 74 -57z
" />
    <glyph glyph-name="zero.sup" unicode="&#x2070;" 
d="M176 423c-85 0 -143 76 -143 186c0 113 59 188 144 188c84 0 143 -75 143 -186c0 -114 -59 -188 -144 -188zM176 479c50 0 81 55 81 130c0 77 -31 132 -81 132c-49 0 -80 -55 -80 -130c0 -77 31 -132 80 -132z" />
    <glyph glyph-name="one.sup" unicode="&#xb9;" 
d="M61 431v54h93v245l-86 -21l-14 51l130 34h30v-309h92v-54h-245z" />
    <glyph glyph-name="two.sup" unicode="&#xb2;" 
d="M56 430c-2 0 -17 28 -17 28c32 83 94 127 137 158c36 24 63 43 63 78c0 32 -28 54 -67 54c-32 0 -58 -14 -63 -23c10 -5 17 -18 17 -32c0 -20 -16 -36 -36 -36c-29 0 -40 22 -40 48c0 51 50 94 126 94c68 0 124 -42 124 -106c0 -58 -44 -88 -86 -114
c-35 -23 -79 -55 -102 -98h146v60h50v-111h-252z" />
    <glyph glyph-name="three.sup" unicode="&#xb3;" 
d="M171 424c-74 0 -133 36 -133 85c0 23 17 42 39 42s37 -16 37 -36c0 -9 -3 -18 -8 -24c7 -6 31 -19 65 -19c40 0 74 22 74 58c0 31 -25 62 -93 62h-22v48h24c51 0 84 24 84 61c0 32 -31 47 -67 47c-26 0 -43 -8 -50 -14c3 -6 7 -15 7 -23c0 -20 -16 -37 -36 -37
c-21 0 -39 18 -39 44c0 31 40 79 121 79c71 0 126 -41 126 -94c0 -42 -36 -76 -79 -86c41 -10 86 -41 86 -91c0 -63 -62 -102 -136 -102z" />
    <glyph glyph-name="four.sup" unicode="&#x2074;" 
d="M141 432v46h67v58h-164l-18 33l193 238l44 -35l-163 -192h108v65l53 21v-82h57v-49h-57v-56h44v-47h-164z" />
    <glyph glyph-name="five.sup" unicode="&#x2075;" 
d="M169 423c-85 0 -126 39 -126 73c0 23 14 39 39 39s38 -17 38 -36c0 -6 -1 -12 -4 -15c8 -3 26 -8 48 -8c53 0 84 29 84 73c0 37 -27 65 -79 65c-32 0 -59 -8 -81 -18l-29 16l18 180h207v-55h-158l-7 -77c12 3 31 6 53 6c77 0 135 -45 135 -117c0 -74 -59 -126 -138 -126z
" />
    <glyph glyph-name="six.sup" unicode="&#x2076;" 
d="M295 731c0 -24 -15 -38 -37 -38c-26 0 -36 18 -36 35c0 5 1 10 2 14c-7 3 -17 6 -29 6c-52 0 -94 -55 -96 -126l1 1c22 22 53 35 87 35c74 0 126 -50 126 -115c0 -66 -55 -120 -133 -120c-42 0 -75 17 -98 40c-32 32 -42 74 -42 135c0 125 69 201 156 201
c38 0 64 -11 81 -27c12 -13 18 -25 18 -41zM181 476c41 0 71 30 71 66c0 38 -26 64 -73 64c-43 0 -75 -27 -75 -63c0 -19 7 -36 22 -49c13 -11 31 -18 55 -18z" />
    <glyph glyph-name="seven.sup" unicode="&#x2077;" 
d="M99 430l149 312h-143v-69h-53v119h250l15 -32l-152 -330h-66z" />
    <glyph glyph-name="eight.sup" unicode="&#x2078;" 
d="M176 424c-86 0 -138 48 -138 99c0 39 28 77 84 94c-53 15 -75 47 -75 84c0 52 53 96 129 96c75 0 130 -44 130 -96c0 -37 -23 -69 -76 -84c56 -17 85 -55 85 -94c0 -51 -53 -99 -139 -99zM176 638c35 0 66 23 66 55s-29 53 -66 53c-38 0 -65 -21 -65 -53s29 -55 65 -55z
M176 477c45 0 74 26 74 57s-30 58 -74 58s-74 -27 -74 -58s30 -57 74 -57z" />
    <glyph glyph-name="nine.sup" unicode="&#x2079;" 
d="M58 492c0 24 15 38 37 38c26 0 36 -18 36 -36c0 -5 -1 -10 -3 -13c7 -4 18 -6 30 -6c51 0 93 54 96 126l-1 -1c-22 -22 -53 -35 -87 -35c-74 0 -126 49 -126 114c0 67 55 120 133 120c42 0 75 -17 98 -39c32 -32 42 -74 42 -135c0 -125 -69 -202 -156 -202
c-38 0 -64 12 -81 28c-12 13 -18 25 -18 41zM172 747c-41 0 -71 -30 -71 -66c0 -38 26 -64 73 -64c43 0 75 27 75 63c0 19 -7 36 -22 49c-13 11 -31 18 -55 18z" />
    <glyph glyph-name="zero.inf" unicode="&#x2080;" 
d="M176 -147c-85 0 -143 76 -143 186c0 113 59 188 144 188c84 0 143 -75 143 -186c0 -114 -59 -188 -144 -188zM176 -91c50 0 81 55 81 130c0 77 -31 132 -81 132c-49 0 -80 -55 -80 -130c0 -77 31 -132 80 -132z" />
    <glyph glyph-name="one.inf" unicode="&#x2081;" 
d="M61 -139v54h93v245l-86 -21l-14 51l130 34h30v-309h92v-54h-245z" />
    <glyph glyph-name="two.inf" unicode="&#x2082;" 
d="M56 -140c-2 0 -17 28 -17 28c32 83 94 127 137 158c36 24 63 43 63 78c0 32 -28 54 -67 54c-32 0 -58 -14 -63 -23c10 -5 17 -18 17 -32c0 -20 -16 -36 -36 -36c-29 0 -40 22 -40 48c0 51 50 94 126 94c68 0 124 -42 124 -106c0 -58 -44 -88 -86 -114
c-35 -23 -79 -55 -102 -98h146v60h50v-111h-252z" />
    <glyph glyph-name="three.inf" unicode="&#x2083;" 
d="M171 -146c-74 0 -133 36 -133 85c0 23 17 42 39 42s37 -16 37 -36c0 -9 -3 -18 -8 -24c7 -6 31 -19 65 -19c40 0 74 22 74 58c0 31 -25 62 -93 62h-22v48h24c51 0 84 24 84 61c0 32 -31 47 -67 47c-26 0 -43 -8 -50 -14c3 -6 7 -15 7 -23c0 -20 -16 -37 -36 -37
c-21 0 -39 18 -39 44c0 31 40 79 121 79c71 0 126 -41 126 -94c0 -42 -36 -76 -79 -86c41 -10 86 -41 86 -91c0 -63 -62 -102 -136 -102z" />
    <glyph glyph-name="four.inf" unicode="&#x2084;" 
d="M141 -138v46h67v58h-164l-18 33l193 238l44 -35l-163 -192h108v65l53 21v-82h57v-49h-57v-56h44v-47h-164z" />
    <glyph glyph-name="five.inf" unicode="&#x2085;" 
d="M169 -147c-85 0 -126 39 -126 73c0 23 14 39 39 39s38 -17 38 -36c0 -6 -1 -12 -4 -15c8 -3 26 -8 48 -8c53 0 84 29 84 73c0 37 -27 65 -79 65c-32 0 -59 -8 -81 -18l-29 16l18 180h207v-55h-158l-7 -77c12 3 31 6 53 6c77 0 135 -45 135 -117c0 -74 -59 -126 -138 -126
z" />
    <glyph glyph-name="six.inf" unicode="&#x2086;" 
d="M295 161c0 -24 -15 -38 -37 -38c-26 0 -36 18 -36 35c0 5 1 10 2 14c-7 3 -17 6 -29 6c-52 0 -94 -55 -96 -126l1 1c22 22 53 35 87 35c74 0 126 -50 126 -115c0 -66 -55 -120 -133 -120c-42 0 -75 17 -98 40c-32 32 -42 74 -42 135c0 125 69 201 156 201
c38 0 64 -11 81 -27c12 -13 18 -25 18 -41zM181 -94c41 0 71 30 71 66c0 38 -26 64 -73 64c-43 0 -75 -27 -75 -63c0 -19 7 -36 22 -49c13 -11 31 -18 55 -18z" />
    <glyph glyph-name="seven.inf" unicode="&#x2087;" 
d="M99 -140l149 312h-143v-69h-53v119h250l15 -32l-152 -330h-66z" />
    <glyph glyph-name="eight.inf" unicode="&#x2088;" 
d="M176 -146c-86 0 -138 48 -138 99c0 39 28 77 84 94c-53 15 -75 47 -75 84c0 52 53 96 129 96c75 0 130 -44 130 -96c0 -37 -23 -69 -76 -84c56 -17 85 -55 85 -94c0 -51 -53 -99 -139 -99zM176 68c35 0 66 23 66 55s-29 53 -66 53c-38 0 -65 -21 -65 -53s29 -55 65 -55z
M176 -93c45 0 74 26 74 57s-30 58 -74 58s-74 -27 -74 -58s30 -57 74 -57z" />
    <glyph glyph-name="nine.inf" unicode="&#x2089;" 
d="M58 -78c0 24 15 38 37 38c26 0 36 -18 36 -36c0 -4 -1 -9 -3 -13c7 -3 18 -6 30 -6c51 0 93 55 96 126l-1 -1c-22 -22 -53 -35 -87 -35c-74 0 -126 49 -126 114c0 67 55 120 133 120c42 0 75 -17 98 -39c32 -32 42 -74 42 -135c0 -125 -69 -202 -156 -202
c-38 0 -64 12 -81 28c-12 13 -18 25 -18 41zM172 177c-41 0 -71 -30 -71 -66c0 -38 26 -64 73 -64c43 0 75 27 75 63c0 19 -7 36 -22 49c-13 11 -31 18 -55 18z" />
    <glyph glyph-name="zero.tab" horiz-adv-x="530" 
d="M266 -13c-136 0 -226 134 -226 341c0 210 89 343 226 343c136 0 225 -133 225 -343c0 -207 -90 -341 -225 -341zM266 587c-87 0 -133 -106 -133 -257c0 -152 46 -259 133 -259s132 107 132 259c0 151 -45 257 -132 257z" />
    <glyph glyph-name="one.tab" horiz-adv-x="530" 
d="M75 0v80h156v484l-147 -38l-21 79l212 56h47v-581h154v-80h-401z" />
    <glyph glyph-name="two.tab" horiz-adv-x="530" 
d="M470 483c0 -106 -72 -158 -151 -216c-79 -57 -143 -116 -170 -190h250v104h79v-181h-414l-26 43c42 137 138 220 221 282c66 50 117 89 117 159c0 61 -52 106 -118 106c-55 0 -98 -22 -113 -49c19 -9 32 -29 32 -52c0 -33 -26 -60 -59 -60c-44 0 -66 34 -66 78
c0 23 7 47 19 68c31 54 100 95 194 95c111 0 205 -74 205 -187z" />
    <glyph glyph-name="three.tab" horiz-adv-x="530" 
d="M252 -10c-85 0 -162 37 -198 87c-14 20 -22 43 -22 65c0 38 26 69 62 69c33 0 59 -26 59 -58c0 -17 -9 -33 -21 -43c23 -25 72 -42 120 -42c80 0 139 49 139 111c0 46 -25 81 -72 101c-30 13 -64 20 -109 20h-34v80h37c43 0 79 9 107 25c35 21 56 53 56 92
c0 61 -55 93 -123 93c-48 0 -84 -16 -101 -35c11 -9 19 -24 19 -42c0 -31 -26 -58 -58 -58s-62 28 -62 70c0 19 7 39 20 60c30 43 92 83 186 83c119 0 211 -68 211 -169c0 -55 -32 -102 -82 -131c-19 -10 -42 -20 -64 -24c22 -5 44 -13 64 -23c55 -28 96 -77 96 -145
c0 -112 -101 -186 -230 -186z" />
    <glyph glyph-name="four.tab" horiz-adv-x="530" 
d="M203 0v73h109v116h-282l-20 41l325 448l66 -51l-264 -365h175v127l91 37v-163h101v-75h-101v-113h78v-75h-278z" />
    <glyph glyph-name="five.tab" horiz-adv-x="530" 
d="M253 -12c-79 0 -138 23 -172 56c-23 21 -34 45 -34 69c0 35 24 64 62 64c36 0 59 -28 59 -59c0 -10 -3 -22 -9 -31c21 -12 51 -19 91 -19c94 0 151 61 151 144c0 71 -52 129 -150 129c-46 0 -100 -13 -135 -30l-41 21l32 326h344v-85h-270l-16 -165c22 7 56 14 98 14
c125 0 227 -78 227 -209c0 -137 -104 -225 -237 -225z" />
    <glyph glyph-name="six.tab" horiz-adv-x="530" 
d="M407 490c-39 0 -60 29 -60 57c0 13 3 23 8 30c-14 9 -35 15 -58 15c-89 0 -157 -102 -164 -251c5 6 10 11 16 16c36 33 90 51 135 51c126 0 210 -87 210 -206c0 -120 -93 -214 -218 -214c-67 0 -122 26 -161 68c-49 53 -70 132 -70 238c0 254 123 376 256 376
c51 0 95 -15 125 -40c25 -20 39 -47 39 -78c0 -42 -27 -62 -58 -62zM277 67c71 0 125 58 125 132c0 78 -54 131 -129 131c-73 0 -129 -55 -129 -128c0 -36 15 -71 39 -95c24 -25 57 -40 94 -40z" />
    <glyph glyph-name="seven.tab" horiz-adv-x="530" 
d="M123 0l270 581h-268v-115h-83v192h439l20 -44l-280 -614h-98z" />
    <glyph glyph-name="eight.tab" horiz-adv-x="530" 
d="M265 70c77 0 131 50 131 115c0 63 -56 117 -131 117s-131 -54 -131 -117c0 -65 54 -115 131 -115zM265 668c118 0 210 -72 210 -181c0 -64 -45 -122 -117 -146c76 -20 132 -87 132 -162c0 -108 -90 -189 -225 -189s-225 81 -225 189c0 75 56 142 132 162
c-72 24 -117 82 -117 146c0 109 92 181 210 181zM265 375c64 0 116 47 116 106c0 65 -50 108 -116 108s-116 -43 -116 -108c0 -59 52 -106 116 -106z" />
    <glyph glyph-name="nine.tab" horiz-adv-x="530" 
d="M485 364c0 -254 -122 -376 -254 -376c-49 0 -95 15 -127 40c-25 20 -41 47 -41 77c0 43 27 63 58 63c39 0 60 -29 60 -58c0 -12 -3 -23 -8 -31c14 -9 35 -14 63 -14c86 0 153 101 160 248c-5 -6 -10 -11 -16 -16c-35 -33 -89 -51 -134 -51c-126 0 -211 88 -211 208
c0 121 93 216 218 216c67 0 123 -26 161 -68c50 -53 71 -132 71 -238zM252 591c-71 0 -125 -59 -125 -134c0 -79 54 -133 130 -133c73 0 129 56 129 130c0 37 -15 72 -39 97c-24 24 -58 40 -95 40z" />
    <glyph glyph-name="period.tab" horiz-adv-x="265" 
d="M133 -9c-40 0 -71 32 -71 72c0 41 31 73 71 73s71 -32 71 -73c0 -40 -31 -72 -71 -72z" />
    <glyph glyph-name="comma.tab" horiz-adv-x="265" 
d="M46 -163l-25 33c68 52 95 101 97 130c-32 7 -57 34 -57 68c0 36 32 67 70 67c40 0 75 -30 75 -88c0 -59 -40 -144 -160 -210z" />
    <glyph glyph-name="colon.tab" horiz-adv-x="265" 
d="M133 -9c-39 0 -70 32 -70 71s31 71 70 71s70 -32 70 -71s-31 -71 -70 -71zM133 256c-39 0 -70 32 -70 71s31 71 70 71s70 -32 70 -71s-31 -71 -70 -71z" />
    <glyph glyph-name="semicolon.tab" horiz-adv-x="265" 
d="M47 -160l-24 32c67 52 94 99 96 128c-32 7 -56 33 -56 66c0 35 31 66 68 66c40 0 74 -30 74 -86c0 -57 -40 -141 -158 -206zM133 256c-39 0 -70 32 -70 71s31 71 70 71s70 -32 70 -71s-31 -71 -70 -71z" />
    <glyph glyph-name="twodotleader.tab" horiz-adv-x="530" 
d="M133 -9c-40 0 -71 32 -71 72c0 41 31 73 71 73s71 -32 71 -73c0 -40 -31 -72 -71 -72zM398 -9c-40 0 -71 32 -71 72c0 41 31 73 71 73s71 -32 71 -73c0 -40 -31 -72 -71 -72z" />
    <glyph glyph-name="periodcentered.tab" horiz-adv-x="265" 
d="M133 185c-40 0 -71 32 -71 72c0 41 31 73 71 73s71 -32 71 -73c0 -40 -31 -72 -71 -72z" />
    <glyph glyph-name="slash.tab" horiz-adv-x="530" 
d="M74 -213l-71 36l433 923l70 -35z" />
    <glyph glyph-name="bar.tab" horiz-adv-x="265" 
d="M95 -200v932h76v-932h-76z" />
    <glyph glyph-name="underscore.tab" horiz-adv-x="530" 
d="M-7 -156v82h544v-82h-544z" />
    <glyph glyph-name="dollar.tab" horiz-adv-x="530" 
d="M260 -103l-72 6l10 102c-96 19 -162 79 -162 137c0 41 28 69 63 69c33 0 57 -27 57 -55c0 -17 -6 -31 -14 -43c13 -14 38 -25 67 -32l21 222c-85 29 -163 77 -163 179c0 96 74 170 191 176l8 91l71 -6l-7 -90c92 -16 154 -68 153 -130c0 -41 -26 -64 -58 -64
c-37 0 -61 28 -61 57c0 16 6 27 12 36c-11 11 -32 20 -59 26l-19 -208c100 -33 185 -79 185 -185c0 -115 -91 -182 -214 -185zM397 177c0 55 -38 83 -106 107l-19 -209c72 3 125 41 125 102zM152 490c0 -51 34 -79 85 -99l17 191c-59 -5 -102 -43 -102 -92z" />
    <glyph glyph-name="sterling.tab" horiz-adv-x="530" 
d="M24 38c0 31 23 68 108 64c29 35 38 82 38 126c0 4 0 9 -1 14h-110v74h95l-9 28c-14 40 -29 86 -29 136c0 109 78 189 189 189c94 0 165 -58 165 -125c0 -34 -24 -67 -61 -67c-36 0 -59 27 -59 55c0 14 5 27 12 37c-9 12 -30 24 -62 24c-57 0 -99 -44 -99 -113
c0 -48 13 -88 24 -124c4 -13 8 -26 11 -40h163v-74h-151v-12c0 -57 -17 -100 -37 -126c29 0 57 -7 83 -15c45 -14 65 -20 86 -20c39 0 54 16 74 64l62 -29c-23 -81 -62 -115 -132 -115c-37 0 -61 8 -109 26c-33 12 -62 20 -102 21c-25 -31 -60 -48 -91 -48
c-38 0 -58 20 -58 50z" />
    <glyph glyph-name="Euro.tab" horiz-adv-x="530" 
d="M375 504c0 21 10 39 26 50c-14 17 -43 39 -85 39c-73 0 -122 -62 -141 -160h154v-70h-162c-1 -12 -1 -24 -1 -36c0 -15 0 -29 1 -42h162v-73h-151c20 -88 67 -143 139 -143c50 0 89 26 131 77l53 -53c-49 -68 -113 -106 -188 -106c-114 0 -194 89 -223 222h-65v75h54
c-1 14 -1 28 -1 43c0 11 0 23 1 34h-54v75h63c30 145 120 235 235 235c102 0 177 -78 177 -152c0 -40 -26 -74 -66 -74c-33 0 -59 27 -59 59z" />
    <glyph glyph-name="yen.tab" horiz-adv-x="530" 
d="M135 0v69h86v70h-142v67h142v59h-142v68h115l-137 249h-58v76h220v-74h-71l120 -228l118 228h-74v74h220v-76h-62l-134 -249h115v-68h-142v-59h142v-67h-142v-70h87v-69h-261z" />
    <glyph glyph-name="cent.tab" horiz-adv-x="530" 
d="M468 238l-7 -78c-45 -28 -102 -41 -162 -41h-12l-13 -141l-67 6l14 145c-107 28 -171 115 -171 217c0 112 89 211 212 222l10 105l66 -6l-9 -102c87 -16 151 -74 151 -131c0 -38 -27 -64 -59 -64c-27 0 -52 22 -52 52c0 13 5 27 18 40c-12 16 -37 29 -68 35l-28 -307h17
c52 0 104 15 160 48zM137 345c0 -63 34 -117 94 -141l26 293c-66 -11 -120 -60 -120 -152z" />
    <glyph glyph-name="numbersign.tab" horiz-adv-x="530" 
d="M53 404v74h107l26 180h80l-26 -180h93l26 180h80l-26 -180h103v-74h-113l-23 -161h97l-4 -73h-104l-24 -170h-80l24 170h-93l-24 -170h-80l24 170h-102v73h113l23 161h-97zM226 407l-24 -167h101l24 167h-101z" />
    <glyph glyph-name="paragraph.tab" horiz-adv-x="530" 
d="M21 447c0 130 95 211 231 211h253v-81h-68v-496h68v-81h-342v81h82v148h-12c-115 0 -212 77 -212 218zM316 76h47v506h-47v-506z" />
    <glyph glyph-name="section.tab" horiz-adv-x="530" 
d="M123 148c34 0 58 -22 58 -54c0 -6 -1 -12 -4 -20c15 -10 54 -17 79 -17c70 0 101 25 101 56c0 34 -34 48 -128 74c-106 29 -184 62 -184 135c0 58 45 94 100 115c-43 23 -65 53 -65 102c0 62 68 131 194 131c48 0 91 -9 125 -26c38 -18 62 -46 62 -80
c0 -30 -22 -54 -53 -54c-34 0 -58 22 -58 54c0 7 0 15 2 21l-3 2c-18 9 -53 13 -74 13c-70 0 -101 -25 -101 -55c0 -35 34 -49 128 -74c106 -29 184 -62 184 -136c0 -58 -44 -94 -98 -115c39 -21 63 -51 63 -100c0 -65 -68 -133 -194 -133c-64 0 -123 17 -157 47
c-19 16 -30 37 -30 59c0 30 22 55 53 55zM265 397l-47 12c-42 -15 -80 -40 -80 -73c0 -34 33 -52 128 -76l46 -12c45 16 81 41 81 74s-34 52 -128 75z" />
    <glyph glyph-name="degree.tab" horiz-adv-x="530" 
d="M263 381c-107 0 -177 82 -177 180s70 180 177 180s177 -82 177 -180s-70 -180 -177 -180zM263 685c-71 0 -118 -55 -118 -124s47 -124 118 -124s118 55 118 124s-47 124 -118 124z" />
    <glyph glyph-name="percent.tab" horiz-adv-x="530" 
d="M24 523c0 84 49 147 118 147s118 -63 118 -147s-49 -148 -118 -148s-118 64 -118 148zM270 136c0 84 49 147 118 147c68 0 118 -63 118 -147s-50 -148 -118 -148c-69 0 -118 64 -118 148zM87 -11l-40 25c3 5 168 272 200 325l198 330l40 -25c-4 -6 -170 -274 -202 -328
c-31 -54 -193 -323 -196 -327zM79 523c0 -56 25 -99 63 -99s64 43 64 99s-26 99 -64 99s-63 -43 -63 -99zM326 136c0 -56 25 -98 62 -98s62 42 62 98c0 55 -25 97 -62 97s-62 -42 -62 -97z" />
    <glyph glyph-name="quotedbl.tab" horiz-adv-x="530" 
d="M139 408l-39 236c-9 52 17 85 57 85c39 0 66 -32 57 -85l-39 -236h-36zM354 408l-38 236c-9 52 17 85 56 85c40 0 66 -32 57 -85l-39 -236h-36z" />
    <glyph glyph-name="quotesingle.tab" horiz-adv-x="265" 
d="M114 408l-39 236c-9 52 17 85 57 85c39 0 66 -32 57 -85l-39 -236h-36z" />
    <glyph glyph-name="plus.tab" horiz-adv-x="530" 
d="M227 143v155h-154v74h154v155h76v-155h154v-74h-154v-155h-76z" />
    <glyph glyph-name="minus.tab" horiz-adv-x="530" 
d="M73 298v74h384v-74h-384z" />
    <glyph glyph-name="divide.tab" horiz-adv-x="530" 
d="M457 298h-384v74h384v-74zM265 441c-31 0 -57 26 -57 57s28 57 58 57s56 -26 56 -57s-27 -57 -57 -57zM265 115c-31 0 -57 26 -57 57s28 57 58 57s56 -26 56 -57s-27 -57 -57 -57z" />
    <glyph glyph-name="equal.tab" horiz-adv-x="530" 
d="M73 391v74h384v-74h-384zM73 197v74h384v-74h-384z" />
    <glyph glyph-name="multiply.tab" horiz-adv-x="530" 
d="M388 152l-123 129l-123 -129l-54 54l123 129l-123 129l54 54l123 -130l123 129l53 -53l-123 -129l124 -129z" />
    <glyph glyph-name="less.tab" horiz-adv-x="530" 
d="M382 114l-294 202v33l294 202l41 -57l-237 -162l237 -162z" />
    <glyph glyph-name="greater.tab" horiz-adv-x="530" 
d="M148 551l294 -202v-33l-294 -202l-41 56l237 162l-237 162z" />
    <glyph glyph-name="plusminus.tab" horiz-adv-x="530" 
d="M227 222v155h-154v74h154v155h76v-155h154v-74h-154v-155h-76zM73 65v74h384v-74h-384z" />
    <glyph glyph-name="zero.idx_P2D" horiz-adv-x="1100" 
d="M550 798c280 0 492 -226 492 -498s-212 -498 -492 -498s-492 226 -492 498s212 498 492 498zM550 741c-245 0 -428 -200 -428 -441s183 -441 428 -441s428 200 428 441s-183 441 -428 441zM549 64c-107 0 -197 99 -197 242c0 145 91 243 199 243c106 0 196 -99 196 -242
c0 -145 -90 -243 -198 -243zM549 135c73 0 119 73 119 171c0 99 -46 172 -119 172c-71 0 -117 -72 -117 -171s46 -172 117 -172z" />
    <glyph glyph-name="one.idx_P2D" horiz-adv-x="1100" 
d="M550 798c280 0 492 -226 492 -498s-212 -498 -492 -498s-492 226 -492 498s212 498 492 498zM550 741c-245 0 -428 -200 -428 -441s183 -441 428 -441s428 200 428 441s-183 441 -428 441zM694 74h-281v68h103v320l-97 -20l-15 66l151 34h38v-400h101v-68z" />
    <glyph glyph-name="two.idx_P2D" horiz-adv-x="1100" 
d="M550 798c280 0 492 -226 492 -498s-212 -498 -492 -498s-492 226 -492 498s212 498 492 498zM550 741c-245 0 -428 -200 -428 -441s183 -441 428 -441s428 200 428 441s-183 441 -428 441zM385 428c0 18 5 35 15 52c25 41 79 69 151 69c87 0 161 -55 161 -137
c0 -75 -58 -113 -113 -148c-47 -30 -105 -72 -134 -127h193v78h64v-142h-328c-3 0 -23 35 -23 35c42 107 121 164 179 203c47 32 83 57 83 102c0 39 -37 69 -88 69c-39 0 -70 -14 -83 -28c14 -8 22 -25 22 -40c0 -27 -21 -47 -47 -47c-36 0 -52 28 -52 61z" />
    <glyph glyph-name="three.idx_P2D" horiz-adv-x="1100" 
d="M550 798c280 0 492 -226 492 -498s-212 -498 -492 -498s-492 226 -492 498s212 498 492 498zM550 741c-245 0 -428 -200 -428 -441s183 -441 428 -441s428 200 428 441s-183 441 -428 441zM378 176c0 29 21 54 49 54c27 0 48 -21 48 -47c0 -11 -5 -23 -11 -30
c15 -13 49 -22 85 -22c51 0 97 27 97 71c0 29 -14 53 -48 67c-20 9 -46 13 -80 13h-23v63h26c32 0 59 7 79 19c22 13 35 34 35 60c0 40 -41 58 -86 58c-33 0 -55 -6 -67 -17c5 -7 10 -19 10 -28c0 -26 -22 -46 -48 -46c-25 0 -48 21 -48 55c0 13 5 30 18 45
c23 30 69 56 138 56c92 0 162 -51 162 -121c0 -37 -20 -70 -51 -90c-13 -9 -28 -16 -45 -20c15 -4 29 -9 43 -17c35 -20 63 -53 63 -101c0 -82 -79 -132 -176 -132c-62 0 -117 23 -147 55c-14 17 -23 35 -23 55z" />
    <glyph glyph-name="four.idx_P2D" horiz-adv-x="1100" 
d="M550 798c280 0 492 -226 492 -498s-212 -498 -492 -498s-492 226 -492 498s212 498 492 498zM550 741c-245 0 -428 -200 -428 -441s183 -441 428 -441s428 200 428 441s-183 441 -428 441zM487 73v61h83v75h-217l-18 34l253 313l56 -43l-203 -246h129v79l72 30v-108h74
v-62h-74v-71h57v-62h-212z" />
    <glyph glyph-name="five.idx_P2D" horiz-adv-x="1100" 
d="M550 798c280 0 492 -226 492 -498s-212 -498 -492 -498s-492 226 -492 498s212 498 492 498zM550 741c-245 0 -428 -200 -428 -441s183 -441 428 -441s428 200 428 441s-183 441 -428 441zM545 64c-102 0 -160 49 -160 93c0 28 20 50 49 50c30 0 48 -23 48 -47
c0 -6 -2 -15 -4 -19c8 -4 33 -11 61 -11c64 0 99 41 99 95c0 47 -33 85 -99 85c-28 0 -73 -8 -100 -22l-34 20l22 232h257v-70h-195l-9 -100c14 3 47 7 70 7c90 0 163 -58 163 -152c0 -95 -72 -161 -168 -161z" />
    <glyph glyph-name="six.idx_P2D" horiz-adv-x="1100" 
d="M550 798c280 0 492 -226 492 -498s-212 -498 -492 -498s-492 226 -492 498s212 498 492 498zM550 741c-245 0 -428 -200 -428 -441s183 -441 428 -441s428 200 428 441s-183 441 -428 441zM700 463c0 -35 -23 -49 -47 -49c-32 0 -47 23 -47 45c0 7 0 12 2 18
c-11 3 -28 6 -41 6c-68 0 -123 -67 -126 -164c26 27 70 47 114 47c96 0 166 -64 166 -148c0 -86 -73 -154 -172 -154c-53 0 -96 19 -127 50c-39 39 -55 96 -55 175c0 166 91 260 200 260c35 0 68 -8 91 -23c26 -15 42 -37 42 -63zM447 220c0 -25 11 -48 30 -64
s45 -26 73 -26c53 0 94 39 94 87c0 50 -41 83 -100 83c-54 0 -97 -33 -97 -80z" />
    <glyph glyph-name="seven.idx_P2D" horiz-adv-x="1100" 
d="M550 798c280 0 492 -226 492 -498s-212 -498 -492 -498s-492 226 -492 498s212 498 492 498zM550 741c-245 0 -428 -200 -428 -441s183 -441 428 -441s428 200 428 441s-183 441 -428 441zM531 73h-83l197 403h-179v-88h-68v152h316l18 -41z" />
    <glyph glyph-name="eight.idx_P2D" horiz-adv-x="1100" 
d="M550 798c280 0 492 -226 492 -498s-212 -498 -492 -498s-492 226 -492 498s212 498 492 498zM550 741c-245 0 -428 -200 -428 -441s183 -441 428 -441s428 200 428 441s-183 441 -428 441zM549 66c-110 0 -176 60 -176 134c0 50 38 100 97 114c-57 16 -86 58 -86 102
c0 75 69 131 165 131c97 0 167 -56 167 -131c0 -44 -31 -86 -88 -102c61 -14 98 -64 98 -114c0 -74 -67 -134 -177 -134zM549 340c47 0 87 31 87 72c0 42 -38 71 -87 71s-86 -29 -86 -71c0 -41 40 -72 86 -72zM549 131c58 0 98 35 98 75c0 41 -41 78 -98 78s-97 -37 -97 -78
c0 -40 39 -75 97 -75z" />
    <glyph glyph-name="nine.idx_P2D" horiz-adv-x="1100" 
d="M550 798c280 0 492 -226 492 -498s-212 -498 -492 -498s-492 226 -492 498s212 498 492 498zM550 741c-245 0 -428 -200 -428 -441s183 -441 428 -441s428 200 428 441s-183 441 -428 441zM401 151c0 34 23 48 47 48c31 0 47 -23 47 -45c0 -7 -1 -12 -3 -17
c11 -4 27 -6 43 -6c67 0 122 65 124 162c-25 -26 -69 -46 -114 -46c-94 0 -165 63 -165 148c0 86 74 154 173 154c52 0 95 -20 125 -50c40 -40 56 -96 56 -174c0 -168 -90 -261 -200 -261c-47 0 -89 15 -113 40c-13 13 -20 29 -20 47zM654 393c0 25 -11 48 -30 64
c-18 17 -44 27 -73 27c-53 0 -94 -40 -94 -87c0 -51 41 -85 100 -85c54 0 97 34 97 81z" />
    <glyph glyph-name="space" unicode=" " horiz-adv-x="224" 
 />
    <glyph glyph-name="uni00A0" unicode="&#xa0;" horiz-adv-x="224" 
 />
    <glyph glyph-name="emspace" unicode="&#x2003;" horiz-adv-x="1000" 
 />
    <glyph glyph-name="enspace" unicode="&#x2002;" horiz-adv-x="500" 
 />
    <glyph glyph-name="threeperemspace" unicode="&#x2004;" horiz-adv-x="333" 
 />
    <glyph glyph-name="fourperemspace" unicode="&#x2005;" horiz-adv-x="250" 
 />
    <glyph glyph-name="thinspace" unicode="&#x2009;" horiz-adv-x="133" 
 />
    <glyph glyph-name="hairspace" unicode="&#x200a;" horiz-adv-x="75" 
 />
    <glyph glyph-name="space.tab" horiz-adv-x="265" 
 />
    <glyph glyph-name="figurespace" unicode="&#x2007;" horiz-adv-x="530" 
 />
    <glyph glyph-name="NUL" horiz-adv-x="0" 
 />
    <glyph glyph-name="hcoslug" horiz-adv-x="694" 
d="M273 18h-26c0 -9 3 -12 10 -12c5 0 8 2 9 7h7c-2 -8 -7 -14 -18 -14c-13 0 -21 8 -21 20s9 21 20 21c14 0 20 -9 19 -22zM254 35c-4 0 -7 -3 -7 -12h14c0 8 -2 12 -7 12zM195 78c5 0 8 4 8 16c0 11 -3 15 -8 15s-8 -4 -8 -15c0 -12 3 -16 8 -16zM210 4c5 0 8 4 8 16
c0 11 -3 15 -8 15s-8 -4 -8 -15c0 -12 3 -16 8 -16zM210 -1c-12 0 -21 8 -21 21c0 12 9 20 21 20s21 -8 21 -20s-9 -21 -21 -21zM546 4c5 0 8 4 8 16c0 11 -3 15 -8 15s-8 -4 -8 -15c0 -12 3 -16 8 -16zM546 -1c-12 0 -21 8 -21 21c0 12 9 20 21 20s21 -8 21 -20
s-9 -21 -21 -21zM125 74v7h7v41h-7v7h51v-20h-8c-2 11 -4 13 -11 13h-12v-18h4c5 0 5 1 6 8h7v-23h-7c-1 7 -1 8 -6 8h-4v-16h10v-7h-30zM195 73c-12 0 -21 8 -21 21c0 12 9 20 21 20s21 -8 21 -20s-9 -21 -21 -21zM644 -100v800h-594v-800h594zM498 -1c-18 0 -29 11 -29 28
c0 18 13 30 27 30c7 0 12 -3 16 -7l1 6h8v-22h-8c-4 12 -7 16 -15 16s-14 -6 -14 -22c0 -15 6 -22 16 -22c8 0 13 7 14 16h8c-1 -14 -9 -23 -24 -23zM372 80c5 0 7 5 7 13s-2 13 -7 13c-6 0 -8 -6 -8 -13c0 -8 2 -13 8 -13zM276 0v7h6v25h-7v7h7v1c0 13 9 19 19 19
c3 0 7 -1 9 -2l10 2v-52h6v-7h-23v7h5v25h-14v-25h5v-7h-23zM368 0v7h6v25h-6v7h18v-10c3 8 7 11 12 11s8 -3 8 -8c0 -4 -3 -7 -7 -7c-3 0 -6 2 -6 6v1c-2 0 -5 -4 -7 -9v-16h8v-7h-26zM352 73v52h-6v7h18v-27c2 6 7 9 13 9c9 0 15 -8 15 -20c0 -9 -4 -21 -16 -21
c-7 0 -11 3 -14 8l-4 -8h-6zM400 75c7 0 8 -7 5 -10c4 0 7 3 8 8c-4 10 -16 33 -16 33h-5v7h25v-7h-6l9 -20l8 20h-5v7h17v-7h-5l-13 -31c-4 -10 -9 -16 -18 -16c-7 0 -11 4 -11 9c0 4 3 7 7 7zM247 428c0 17 11 29 27 29c17 0 29 -15 29 -38c0 -17 -7 -33 -18 -50
c-23 22 -38 36 -38 59zM302 74v14h7c4 -6 7 -9 12 -9c3 0 5 2 5 4c0 8 -24 3 -24 19c0 6 5 12 14 12c5 0 9 -2 11 -5l2 5h6v-13h-7c-3 4 -6 7 -10 7c-3 0 -5 -2 -5 -4c0 -8 24 -2 24 -18c0 -7 -5 -13 -14 -13c-7 0 -10 3 -13 5l-1 -4h-7zM261 219c-30 0 -52 23 -52 54
c0 15 5 29 16 40c18 -17 46 -47 74 -82c-11 -9 -23 -12 -38 -12zM274 122l12 2v-11h13v-7h-13v-20c0 -3 1 -5 4 -5c2 0 4 2 5 7l5 -2c-2 -9 -6 -13 -14 -13s-12 5 -12 13v20h-7v7h7v9zM428 306c-15 -9 -31 -22 -46 -42c25 -29 42 -41 62 -41c21 0 33 12 43 29l7 -2
c-2 -58 -37 -94 -80 -94c-30 0 -52 11 -85 45c-28 -31 -62 -45 -104 -45c-60 0 -109 40 -109 93c0 42 29 73 82 91c-21 22 -31 40 -31 69c0 43 42 85 109 85c62 0 95 -39 95 -74c0 -13 -3 -24 -9 -34c27 1 47 -10 49 -37c16 24 35 38 60 38c28 0 50 -21 50 -52
s-22 -54 -50 -54c-18 0 -34 10 -43 25zM219 74v7h6v25h-6v7h17v-10c3 7 7 11 14 11c9 0 12 -6 12 -14v-19h6v-7h-22v7h4v18c0 4 -2 7 -6 7s-7 -4 -7 -10v-15h4v-7h-22zM446 33h18v-7h-5c-3 -6 -6 -10 -9 -14c2 -3 4 -5 6 -5s3 1 4 5l5 -1c-2 -7 -5 -12 -13 -12
c-5 0 -8 1 -12 6c-4 -4 -9 -6 -15 -6c-12 0 -18 6 -18 14s6 13 13 15c-4 4 -6 7 -6 12c0 7 7 14 17 14c9 0 14 -6 14 -12s-4 -9 -11 -12c5 -5 8 -9 12 -13c2 2 5 6 6 9h-6v7zM429 6c2 0 5 1 8 3c-5 6 -9 11 -14 16c-2 -2 -4 -5 -4 -9c0 -6 4 -10 10 -10zM294 42v-3h14v5
c-3 0 -6 2 -6 6c0 2 1 3 1 3s-1 1 -3 1c-3 0 -6 -2 -6 -12zM425 43c0 -3 2 -6 6 -10c3 2 5 5 5 9c0 3 -2 6 -6 6c-3 0 -5 -2 -5 -5zM312 342c19 13 33 24 42 34c23 -23 18 -47 -1 -80c-13 15 -25 30 -41 46zM366 18h-26c0 -9 3 -12 10 -12c5 0 8 2 9 7h7
c-2 -8 -7 -14 -18 -14c-13 0 -21 8 -21 20s9 21 20 21c14 0 20 -9 19 -22zM347 35c-4 0 -7 -3 -7 -12h14c0 8 -2 12 -7 12zM124 0v7h8v41h-8v7h29v-7h-8v-16h22v16h-8v7h29v-7h-8v-41h8v-7h-29v7h8v18h-22v-18h8v-7h-29zM576 13c4 0 7 -3 7 -7s-3 -7 -7 -7s-7 3 -7 7
s3 7 7 7z" />
    <glyph glyph-name="A.sc" horiz-adv-x="589" 
d="M138 515h313v-73h-72l136 -369h59v-73h-222v72h76l-34 95h-201l-34 -95h76v-72h-220v73h60l135 369h-72v73zM293 448l-75 -211h151z" />
    <glyph glyph-name="B.sc" horiz-adv-x="536" 
d="M210 72h90c64 0 102 30 102 79c0 51 -39 78 -109 78h-83v-157zM210 293h78c66 0 100 30 100 78c0 45 -35 73 -100 73h-78v-151zM298 0h-256v73h82v369h-82v73h247c131 0 186 -59 186 -133c0 -62 -39 -101 -93 -117c67 -18 108 -56 108 -122c0 -85 -65 -143 -192 -143z
" />
    <glyph glyph-name="C.sc" horiz-adv-x="563" 
d="M466 137l53 -58c-52 -57 -129 -90 -210 -90c-162 0 -268 118 -268 269c0 156 116 270 274 270c116 0 199 -68 199 -133c0 -39 -24 -66 -59 -66s-59 22 -59 56c0 13 6 27 14 33c-16 15 -50 33 -99 33c-105 0 -181 -79 -181 -193s78 -191 179 -191c63 0 115 27 157 70z" />
    <glyph glyph-name="D.sc" horiz-adv-x="605" 
d="M210 73h63c136 0 204 76 204 189c0 114 -80 180 -210 180h-57v-369zM261 0h-219v73h82v369h-82v73h225c184 0 297 -97 297 -252c0 -157 -106 -263 -303 -263z" />
    <glyph glyph-name="E.sc" horiz-adv-x="517" 
d="M464 0h-422v73h82v369h-82v73h422v-164h-80v93h-174v-151h159v-70h-159v-151h174v90h80v-162z" />
    <glyph glyph-name="F.sc" horiz-adv-x="496" 
d="M297 0h-255v73h82v369h-82v73h420v-164h-81v93h-171v-157h156v-70h-156v-144h87v-73z" />
    <glyph glyph-name="G.sc" horiz-adv-x="591" 
d="M312 451c-107 0 -182 -81 -182 -194s81 -192 178 -192c51 0 94 13 130 38v91h-133v70h217v-264h-82v38c-36 -27 -84 -48 -148 -48c-130 0 -251 99 -251 266c0 163 121 272 276 272c122 0 203 -68 203 -131c0 -38 -24 -65 -59 -65s-59 22 -59 55c0 13 6 27 12 33
c-18 15 -53 31 -102 31z" />
    <glyph glyph-name="H.sc" horiz-adv-x="669" 
d="M42 0v73h82v369h-82v73h252v-73h-84v-148h249v148h-84v73h252v-73h-82v-369h82v-73h-252v73h84v148h-249v-148h84v-73h-252z" />
    <glyph glyph-name="I.sc" horiz-adv-x="340" 
d="M298 0h-256v73h85v369h-85v73h256v-73h-85v-369h85v-73z" />
    <glyph glyph-name="J.sc" horiz-adv-x="461" 
d="M188 68c23 0 45 6 60 22c18 20 26 50 26 92v260h-86v73h248v-73h-77v-262c0 -63 -17 -114 -49 -145c-30 -31 -72 -45 -121 -45c-91 0 -164 59 -164 135c0 42 26 70 62 70c29 0 55 -24 55 -54c0 -18 -10 -35 -24 -42c8 -13 31 -31 70 -31z" />
    <glyph glyph-name="K.sc" horiz-adv-x="596" 
d="M508 442l-160 -157l145 -212h81v-73h-136l-153 229l-74 -70v-86h81v-73h-250v73h83v369h-83v73h241v-71h-72v-194l199 194h-70v71h228v-73h-60z" />
    <glyph glyph-name="L.sc" horiz-adv-x="489" 
d="M381 73v97h81v-170h-420v73h82v369h-82v73h254v-73h-86v-369h171z" />
    <glyph glyph-name="M.sc" horiz-adv-x="747" 
d="M530 515h165v-73h-82l17 -369h82v-73h-250v73h81l-11 298l-150 -287h-19l-152 287l-11 -298h84v-73h-250v73h83l16 369h-82v73h167l158 -299z" />
    <glyph glyph-name="N.sc" horiz-adv-x="657" 
d="M198 515l267 -348v275h-81v73h246v-73h-83v-445h-57l-283 372v-296h79v-73h-244v73h82v369h-82v73h156z" />
    <glyph glyph-name="O.sc" horiz-adv-x="617" 
d="M309 529c160 0 267 -120 267 -269c0 -152 -106 -271 -268 -271c-161 0 -267 119 -267 271c0 149 107 269 268 269zM308 67c104 0 180 76 180 192c0 113 -76 191 -179 191c-104 0 -179 -77 -179 -191c0 -116 76 -192 178 -192z" />
    <glyph glyph-name="P.sc" horiz-adv-x="506" 
d="M42 515h232c112 0 200 -64 200 -167c0 -114 -85 -174 -207 -174c-22 0 -42 0 -57 1v-102h85v-73h-253v73h82v369h-82v73zM275 246c69 0 111 40 111 102c0 58 -48 94 -113 94h-63v-194c14 -1 38 -2 65 -2z" />
    <glyph glyph-name="Q.sc" horiz-adv-x="617" 
d="M503 -114c-80 0 -126 45 -171 74c-24 17 -41 24 -71 30c-57 13 -105 34 -145 76c-48 48 -75 117 -75 194c0 149 107 269 268 269c160 0 267 -120 267 -269c0 -121 -68 -220 -177 -254c6 -2 17 -9 25 -14c25 -16 45 -28 72 -28c22 0 44 8 71 29l42 -65
c-33 -32 -67 -42 -106 -42zM308 67c102 0 180 79 180 192s-76 191 -179 191c-104 0 -179 -77 -179 -191c0 -57 19 -106 51 -139s76 -53 127 -53z" />
    <glyph glyph-name="Q.sc_alt" horiz-adv-x="617" 
d="M462 -86l-58 90c-29 -9 -61 -15 -96 -15c-161 0 -267 119 -267 271c0 149 107 269 268 269c160 0 267 -120 267 -269c0 -91 -38 -171 -104 -220l55 -85zM308 67c18 0 36 2 52 7l-50 80l64 41l54 -85c37 34 60 85 60 149c0 113 -76 191 -179 191
c-104 0 -179 -77 -179 -191c0 -116 76 -192 178 -192z" />
    <glyph glyph-name="R.sc" horiz-adv-x="554" 
d="M276 442h-66v-171c15 -1 42 -3 68 -3c72 0 119 34 119 90c0 54 -46 84 -121 84zM210 197v-124h79v-73h-247v73h82v369h-82v73h239c120 0 203 -53 203 -156c0 -66 -41 -116 -99 -140l81 -146h74v-73h-137l-102 198c-18 -2 -29 -2 -37 -2c-15 0 -38 0 -54 1z" />
    <glyph glyph-name="S.sc" horiz-adv-x="485" 
d="M318 405c0 13 4 23 9 29c-14 11 -46 21 -84 21c-56 0 -95 -26 -95 -68c0 -47 59 -65 109 -84c92 -32 181 -62 181 -160c0 -102 -83 -154 -197 -154c-110 0 -197 58 -197 124c0 38 21 62 56 62s59 -25 59 -53c0 -13 -4 -25 -10 -35c18 -14 52 -26 95 -26
c66 0 109 25 109 75c0 46 -60 66 -111 83c-98 34 -181 63 -181 160c0 87 74 148 188 148c104 0 182 -51 182 -117c0 -36 -23 -59 -53 -59c-39 0 -60 27 -60 54z" />
    <glyph glyph-name="T.sc" horiz-adv-x="542" 
d="M143 0v73h85v371h-115v-100h-80v171h476v-171h-80v100h-115v-371h85v-73h-256z" />
    <glyph glyph-name="U.sc" horiz-adv-x="618" 
d="M309 -8c-126 0 -204 69 -204 205v245h-78v73h244v-73h-80v-245c0 -83 45 -131 119 -131c73 0 119 45 119 129v247h-81v73h244v-73h-78v-242c0 -138 -82 -208 -205 -208z" />
    <glyph glyph-name="V.sc" horiz-adv-x="571" 
d="M256 -7l-185 449h-61v73h226v-73h-74l126 -324l126 324h-74v73h221v-73h-60l-186 -449h-59z" />
    <glyph glyph-name="W.sc" horiz-adv-x="798" 
d="M219 -9l-139 451h-68v73h238v-73h-78l89 -306l120 314h42l120 -314l90 306h-80v73h233v-73h-68l-139 -451h-60l-120 314l-121 -314h-59z" />
    <glyph glyph-name="X.sc" horiz-adv-x="587" 
d="M565 74v-74h-232v72h70l-114 145l-111 -145h75v-72h-231v74h66l152 190l-143 178h-67v73h229v-71h-65l102 -134l101 134h-65v71h225v-73h-71l-141 -178l155 -190h65z" />
    <glyph glyph-name="Y.sc" horiz-adv-x="535" 
d="M529 515v-73h-61l-158 -251v-118h85v-73h-255v73h84v118l-157 251h-61v73h226v-71h-73l111 -185l111 185h-75v71h223z" />
    </font>
</defs>
</svg>
