<?xml version="1.0" standalone="no"?>
<!DOCTYPE svg PUBLIC "-//W3C//DTD SVG 1.1//EN" "http://www.w3.org/Graphics/SVG/1.1/DTD/svg11.dtd" >
<svg xmlns="http://www.w3.org/2000/svg" xmlns:xlink="http://www.w3.org/1999/xlink" version="1.1">
<metadata>
Created by FontForge 20150913 at Tue Apr 12 17:50:50 2016
 By Jimmy Wärting
Copyright (C) 2000, 2007 Hoefler &#38; Co. http://www.typography.com
</metadata>
<defs>
<font id="Archer-Book" horiz-adv-x="610" >
  <font-face 
    font-family="Archer Book"
    font-weight="325"
    font-stretch="normal"
    units-per-em="1000"
    panose-1="2 0 0 0 0 0 0 0 0 0"
    ascent="800"
    descent="-200"
    x-height="420"
    cap-height="658"
    bbox="-53 -262 1411 1022"
    underline-thickness="50"
    underline-position="-100"
    stemh="46"
    stemv="51"
    unicode-range="U+0020-FB04"
  />
<missing-glyph horiz-adv-x="500" 
d="M0 -200v1000h500v-1000h-500zM71 750l179 -390l179 390h-358zM50 -76l172 376l-172 376v-752zM450 676l-172 -376l172 -376v752zM250 240l-179 -390h358z" />
    <glyph glyph-name="f_b" unicode="fb" horiz-adv-x="857" 
d="M399 0v374h-230v-328h82v-46h-203v46h70v328h-76v46h76v135c0 62 18 108 49 139s74 46 122 46c45 0 85 -15 113 -44l19 40h29v-375c38 38 80 67 153 67c109 0 204 -87 204 -219c0 -120 -87 -217 -216 -217c-54 0 -107 21 -143 53l-20 -45h-29zM593 38
c91 0 160 70 160 171c0 102 -65 173 -156 173c-61 0 -110 -30 -147 -71v-221c34 -28 81 -52 143 -52zM363 617c0 11 4 22 12 31c-3 5 -7 10 -11 14c-20 20 -49 32 -80 32s-60 -12 -80 -32c-23 -23 -35 -60 -35 -103v-139h230v139c0 5 0 10 -1 15c-20 3 -35 22 -35 43z" />
    <glyph glyph-name="f_f" unicode="ff" horiz-adv-x="594" 
d="M169 420h236v147c0 64 11 108 40 137c22 22 48 36 87 36c41 0 70 -18 70 -50c0 -23 -16 -39 -37 -39c-25 0 -40 17 -46 41c-15 -2 -28 -8 -38 -20c-16 -18 -25 -47 -25 -89v-163h109v-46h-109v-328h82v-46h-203v46h70v328h-236v-328h82v-46h-203v46h70v328h-76v46h76v127
c0 64 11 108 40 137c22 22 48 36 87 36c41 0 70 -18 70 -50c0 -23 -16 -39 -37 -39c-23 0 -39 15 -46 42c-13 -2 -26 -8 -37 -20c-16 -17 -26 -46 -26 -90v-143z" />
    <glyph glyph-name="f_h" unicode="fh" horiz-adv-x="848" 
d="M399 46v328h-230v-328h82v-46h-203v46h70v328h-76v46h76v135c0 62 18 108 49 139s74 46 122 46c45 0 85 -15 113 -44l19 40h29v-397c41 51 101 89 161 89c52 0 87 -17 109 -45c19 -25 28 -59 28 -98v-239h70v-46h-191v46h70v232c0 33 -7 56 -21 73c-16 20 -42 29 -74 29
c-60 0 -113 -38 -152 -86v-248h70v-46h-191v46h70zM363 617c0 11 4 22 12 31c-3 5 -7 10 -11 14c-20 20 -49 32 -80 32s-60 -12 -80 -32c-23 -23 -35 -60 -35 -103v-139h230v139c0 5 0 10 -1 15c-20 3 -35 22 -35 43z" />
    <glyph glyph-name="fi" unicode="fi" horiz-adv-x="551" 
d="M441 420v-374h75v-46h-198v46h72v328h-221v-328h80v-46h-201v46h70v328h-76v46h76v132c0 72 18 122 52 152c25 23 56 36 95 36c56 0 92 -32 92 -66c0 -23 -16 -41 -40 -41c-26 0 -43 26 -39 54c-6 3 -14 5 -22 5c-19 0 -40 -10 -57 -30c-18 -21 -30 -52 -30 -94v-148h272
z" />
    <glyph glyph-name="f_j" unicode="fj" horiz-adv-x="522" 
d="M390 374h-221v-328h80v-46h-201v46h70v328h-76v46h76v132c0 72 18 122 52 152c25 23 56 36 95 36c56 0 92 -32 92 -66c0 -23 -16 -41 -40 -41c-26 0 -43 26 -39 54c-6 3 -14 5 -22 5c-19 0 -40 -10 -57 -30c-18 -21 -30 -52 -30 -94v-148h272v-409c0 -51 -6 -90 -16 -121
c-21 -63 -62 -90 -115 -90c-51 0 -83 26 -83 59c0 20 14 41 38 41c21 0 35 -15 35 -36c0 -6 -1 -13 -4 -20c6 -2 11 -2 17 -2c31 0 54 22 66 65c7 24 11 56 11 96v371z" />
    <glyph glyph-name="f_k" unicode="fk" horiz-adv-x="807" 
d="M450 736v-534l200 174h-93v44h233v-46h-73l-149 -128l141 -200h81v-46h-109l-150 219l-81 -69v-104h75v-46h-196v46h70v328h-230v-328h82v-46h-203v46h70v328h-76v46h76v135c0 62 18 108 49 139s74 46 122 46c45 0 85 -15 113 -44l19 40h29zM169 559v-139h230v139
c0 5 0 10 -1 15c-20 3 -35 22 -35 43c0 11 4 22 12 31c-3 5 -7 10 -11 14c-20 20 -49 32 -80 32s-60 -12 -80 -32c-23 -23 -35 -60 -35 -103z" />
    <glyph glyph-name="fl" unicode="fl" horiz-adv-x="560" 
d="M325 46h74v328h-230v-328h82v-46h-203v46h70v328h-76v46h76v135c0 62 18 108 49 139s74 46 122 46c45 0 85 -15 113 -44l19 40h29v-690h75v-46h-200v46zM284 694c-31 0 -60 -12 -80 -32c-23 -23 -35 -60 -35 -103v-139h230v139c0 5 0 10 -1 15c-20 3 -35 22 -35 43
c0 11 4 22 12 31c-3 5 -7 10 -11 14c-20 20 -49 32 -80 32z" />
    <glyph glyph-name="f_f_b" unicode="ffb" horiz-adv-x="1138" 
d="M680 0v374h-230v-328h82v-46h-203v46h70v328h-230v-328h82v-46h-203v46h70v328h-76v46h76v129c0 52 10 96 43 130c25 25 58 41 104 41c22 0 44 -4 61 -11c29 -12 49 -33 49 -61c0 -23 -12 -38 -36 -38c-28 0 -46 27 -42 58c-11 4 -22 7 -34 7c-32 0 -56 -13 -71 -33
c-19 -27 -23 -56 -23 -93v-129h230v135c0 62 18 108 49 139s74 46 122 46c46 0 85 -16 113 -44l19 40h29v-375c38 38 80 67 153 67c109 0 204 -87 204 -219c0 -120 -87 -217 -216 -217c-54 0 -107 21 -143 53l-20 -45h-29zM874 38c91 0 160 70 160 171
c0 102 -65 173 -156 173c-61 0 -110 -30 -147 -71v-221c34 -28 81 -52 143 -52zM644 617c0 11 4 22 12 31c-3 5 -7 10 -11 14c-20 20 -49 32 -80 32s-60 -12 -80 -32c-23 -23 -35 -60 -35 -103v-139h230v139c0 5 0 10 -1 15c-20 3 -35 22 -35 43z" />
    <glyph glyph-name="f_f_h" unicode="ffh" horiz-adv-x="1129" 
d="M731 736v-397c41 51 101 89 161 89c52 0 87 -17 109 -45c19 -25 28 -59 28 -98v-239h70v-46h-191v46h70v232c0 33 -7 56 -21 73c-16 20 -42 29 -74 29c-60 0 -113 -38 -152 -86v-248h70v-46h-191v46h70v328h-230v-328h82v-46h-203v46h70v328h-230v-328h82v-46h-203v46h70
v328h-76v46h76v129c0 52 10 96 43 130c25 25 58 41 104 41c22 0 44 -4 61 -11c29 -12 49 -33 49 -61c0 -23 -12 -38 -36 -38c-28 0 -46 27 -42 58c-11 4 -22 7 -34 7c-32 0 -56 -13 -71 -33c-19 -27 -23 -56 -23 -93v-129h230v135c0 62 18 108 49 139s74 46 122 46
c46 0 85 -16 113 -44l19 40h29zM450 559v-139h230v139c0 5 0 10 -1 15c-20 3 -35 22 -35 43c0 11 4 22 12 31c-3 5 -7 10 -11 14c-20 20 -49 32 -80 32s-60 -12 -80 -32c-23 -23 -35 -60 -35 -103z" />
    <glyph glyph-name="f_f_i" unicode="ffi" horiz-adv-x="832" 
d="M638 674c0 -23 -16 -41 -40 -41c-26 0 -43 26 -39 54c-6 3 -13 5 -21 5c-18 0 -37 -8 -54 -25c-18 -19 -34 -53 -34 -99v-148h272v-374h75v-46h-198v46h72v328h-221v-328h80v-46h-201v46h70v328h-230v-328h82v-46h-203v46h70v328h-76v46h76v129c0 52 10 96 43 130
c25 25 58 41 104 41c22 0 44 -4 61 -11c29 -12 49 -33 49 -61c0 -23 -12 -38 -36 -38c-28 0 -46 27 -42 58c-11 4 -22 7 -34 7c-32 0 -56 -13 -71 -33c-19 -27 -23 -56 -23 -93v-129h230v132c0 72 18 122 52 152c25 23 56 36 95 36c56 0 92 -32 92 -66z" />
    <glyph glyph-name="f_f_j" unicode="ffj" horiz-adv-x="803" 
d="M722 420v-409c0 -51 -6 -90 -16 -121c-21 -63 -62 -90 -115 -90c-51 0 -83 26 -83 59c0 20 14 41 38 41c21 0 35 -15 35 -36c0 -6 -1 -13 -4 -20c6 -2 11 -2 17 -2c31 0 54 22 66 65c7 24 11 56 11 96v371h-221v-328h80v-46h-201v46h70v328h-230v-328h82v-46h-203v46h70
v328h-76v46h76v129c0 52 10 96 43 130c25 25 58 41 104 41c22 0 44 -4 61 -11c29 -12 49 -33 49 -61c0 -23 -12 -38 -36 -38c-28 0 -46 27 -42 58c-11 4 -22 7 -34 7c-32 0 -56 -13 -71 -33c-19 -27 -23 -56 -23 -93v-129h230v132c0 72 18 122 52 152c25 23 56 36 95 36
c56 0 92 -32 92 -66c0 -23 -16 -41 -40 -41c-26 0 -43 26 -39 54c-6 3 -13 5 -21 5c-18 0 -37 -8 -54 -25c-18 -19 -34 -53 -34 -99v-148h272z" />
    <glyph glyph-name="f_f_k" unicode="ffk" horiz-adv-x="1088" 
d="M731 736v-534l200 174h-93v44h233v-46h-73l-149 -128l141 -200h81v-46h-109l-150 219l-81 -69v-104h75v-46h-196v46h70v328h-230v-328h82v-46h-203v46h70v328h-230v-328h82v-46h-203v46h70v328h-76v46h76v129c0 52 10 96 43 130c25 25 58 41 104 41c22 0 44 -4 61 -11
c29 -12 49 -33 49 -61c0 -23 -12 -38 -36 -38c-28 0 -46 27 -42 58c-11 4 -22 7 -34 7c-32 0 -56 -13 -71 -33c-19 -27 -23 -56 -23 -93v-129h230v135c0 62 18 108 49 139s74 46 122 46c46 0 85 -16 113 -44l19 40h29zM450 559v-139h230v139c0 5 0 10 -1 15
c-20 3 -35 22 -35 43c0 11 4 22 12 31c-3 5 -7 10 -11 14c-20 20 -49 32 -80 32s-60 -12 -80 -32c-23 -23 -35 -60 -35 -103z" />
    <glyph glyph-name="f_f_l" unicode="ffl" horiz-adv-x="841" 
d="M169 549v-129h230v135c0 62 18 108 49 139s74 46 122 46c46 0 85 -16 113 -44l19 40h29v-690h75v-46h-200v46h74v328h-230v-328h82v-46h-203v46h70v328h-230v-328h82v-46h-203v46h70v328h-76v46h76v129c0 52 10 96 43 130c25 25 58 41 104 41c22 0 44 -4 61 -11
c29 -12 49 -33 49 -61c0 -23 -12 -38 -36 -38c-28 0 -46 27 -42 58c-11 4 -22 7 -34 7c-32 0 -56 -13 -71 -33c-19 -27 -23 -56 -23 -93zM450 559v-139h230v139c0 5 0 10 -1 15c-20 3 -35 22 -35 43c0 11 4 22 12 31c-3 5 -7 10 -11 14c-20 20 -49 32 -80 32
s-60 -12 -80 -32c-23 -23 -35 -60 -35 -103z" />
    <glyph glyph-name=".notdef" horiz-adv-x="500" 
d="M0 -200v1000h500v-1000h-500zM71 750l179 -390l179 390h-358zM50 -76l172 376l-172 376v-752zM450 676l-172 -376l172 -376v752zM250 240l-179 -390h358z" />
    <glyph glyph-name="A" unicode="A" horiz-adv-x="710" 
d="M20 0v50h66l211 558h-76v50h268v-50h-76l211 -558h66v-50h-205v50h77l-69 186h-279l-69 -186h80v-50h-205zM232 285h243l-121 328z" />
    <glyph glyph-name="B" unicode="B" horiz-adv-x="609" 
d="M52 0v50h88v558h-88v50h264c154 0 213 -81 213 -164c0 -80 -51 -135 -124 -157c90 -23 143 -73 143 -159c0 -101 -82 -178 -220 -178h-276zM197 50h133c106 0 162 57 162 129c0 88 -72 133 -190 133h-105v-262zM197 360h105c116 0 171 53 171 130c0 73 -55 118 -159 118
h-117v-248z" />
    <glyph glyph-name="C" unicode="C" horiz-adv-x="702" 
d="M393 -12c-203 0 -333 167 -333 336c0 206 158 346 329 346c132 0 242 -85 242 -164c0 -32 -22 -57 -52 -57c-25 0 -45 20 -45 45c0 22 16 39 33 43c-18 34 -83 82 -178 82c-160 0 -271 -141 -271 -294c0 -145 113 -286 275 -286c80 0 147 28 210 84l31 -41
c-67 -64 -157 -94 -241 -94z" />
    <glyph glyph-name="D" unicode="D" horiz-adv-x="735" 
d="M52 0v50h88v558h-88v50h245c226 0 378 -128 378 -322c0 -197 -142 -336 -376 -336h-247zM197 50h107c209 0 313 119 313 288c0 164 -125 270 -321 270h-99v-558z" />
    <glyph glyph-name="E" unicode="E" horiz-adv-x="593" 
d="M52 0v50h88v558h-88v50h472v-149h-55v99h-272v-247h223v-50h-223v-261h272v99h55v-149h-472z" />
    <glyph glyph-name="F" unicode="F" horiz-adv-x="571" 
d="M52 0v50h88v558h-88v50h464v-149h-55v99h-264v-259h219v-50h-219v-249h93v-50h-238z" />
    <glyph glyph-name="G" unicode="G" horiz-adv-x="742" 
d="M382 -12c-167 0 -322 125 -322 334c0 211 161 348 339 348c146 0 243 -83 243 -149c0 -32 -20 -53 -48 -53c-25 0 -45 20 -45 45c0 18 9 31 22 39c-28 33 -93 67 -174 67c-168 0 -279 -134 -279 -297c0 -170 121 -284 268 -284c78 0 147 26 211 72v152h-190v49h246v-311
h-54v60c-62 -45 -129 -72 -217 -72z" />
    <glyph glyph-name="H" unicode="H" horiz-adv-x="786" 
d="M52 0v50h88v558h-88v50h233v-50h-88v-244h392v244h-88v50h233v-50h-88v-558h88v-50h-233v50h88v263h-392v-263h88v-50h-233z" />
    <glyph glyph-name="I" unicode="I" horiz-adv-x="349" 
d="M53 0v50h93v558h-93v50h243v-50h-93v-558h93v-50h-243z" />
    <glyph glyph-name="J" unicode="J" horiz-adv-x="524" 
d="M208 -12c-96 0 -177 69 -177 159c0 42 24 73 57 73c21 0 44 -17 44 -44c0 -22 -15 -42 -42 -45c-2 -34 41 -89 118 -89c38 0 71 13 96 38c29 29 42 79 42 146v382h-103v50h242v-50h-82v-383c0 -77 -17 -144 -57 -184c-34 -34 -79 -53 -138 -53z" />
    <glyph glyph-name="K" unicode="K" horiz-adv-x="672" 
d="M52 0v50h88v558h-88v50h233v-50h-88v-315l314 315h-94v50h238v-50h-75l-227 -228l228 -330h81v-50h-119l-231 343l-115 -115v-178h88v-50h-233z" />
    <glyph glyph-name="L" unicode="L" horiz-adv-x="557" 
d="M52 0v50h88v558h-88v50h238v-50h-93v-558h249v104h55v-154h-449z" />
    <glyph glyph-name="M" unicode="M" horiz-adv-x="891" 
d="M47 0v50h89l25 558h-91v50h152l221 -483l222 483h150v-50h-91l25 -558h89v-50h-230v50h86l-18 514l-223 -479h-22l-223 479l-18 -514h86v-50h-229z" />
    <glyph glyph-name="N" unicode="N" horiz-adv-x="773" 
d="M617 -3l-423 564v-511h88v-50h-230v50h88v558h-88v50h138l405 -541v491h-88v50h227v-50h-85v-611h-32z" />
    <glyph glyph-name="O" unicode="O" horiz-adv-x="782" 
d="M389 -12c-188 0 -329 150 -329 340c0 193 142 342 333 342c188 0 329 -150 329 -340c0 -193 -142 -342 -333 -342zM391 40c161 0 273 127 273 288c0 162 -112 290 -273 290s-273 -127 -273 -288c0 -162 112 -290 273 -290z" />
    <glyph glyph-name="P" unicode="P" horiz-adv-x="581" 
d="M52 0v50h88v558h-88v50h247c137 0 241 -80 241 -204c0 -127 -94 -208 -237 -208c-38 0 -84 1 -106 2v-198h93v-50h-238zM305 296c109 0 178 60 178 157c0 99 -80 155 -180 155h-106v-310c24 -1 68 -2 108 -2z" />
    <glyph glyph-name="Q" unicode="Q" horiz-adv-x="782" 
d="M666 -139c-92 0 -155 62 -212 97c-32 20 -67 30 -105 36c-68 11 -130 36 -176 76c-70 60 -113 156 -113 258c0 193 142 342 333 342c188 0 329 -150 329 -340c0 -159 -96 -295 -254 -326c23 -8 44 -21 65 -35c52 -34 86 -55 133 -55c32 0 50 7 76 23l22 -47
c-32 -20 -61 -29 -98 -29zM391 40c161 0 273 127 273 288c0 162 -112 290 -273 290s-273 -127 -273 -288c0 -89 34 -168 91 -221c47 -43 109 -69 182 -69z" />
    <glyph glyph-name="Q.alt" horiz-adv-x="782" 
d="M588 -109l-76 119c-38 -14 -79 -22 -123 -22c-188 0 -329 150 -329 340c0 193 142 342 333 342c188 0 329 -150 329 -340c0 -129 -64 -238 -163 -297l73 -116zM391 40c33 0 65 5 93 15l-77 123l45 27l80 -128c82 48 132 141 132 251c0 162 -112 290 -273 290
s-273 -127 -273 -288c0 -162 112 -290 273 -290z" />
    <glyph glyph-name="R" unicode="R" horiz-adv-x="617" 
d="M52 0v50h88v558h-88v50h247c143 0 231 -76 231 -187c0 -92 -61 -155 -149 -181l154 -240h81v-50h-120l-175 278c-12 -1 -25 -2 -38 -2c-28 0 -64 1 -86 2v-228h88v-50h-233zM285 326c107 0 188 49 188 144c0 89 -70 138 -177 138h-99v-280c24 -1 58 -2 88 -2z" />
    <glyph glyph-name="S" unicode="S" horiz-adv-x="547" 
d="M273 -11c-128 0 -211 72 -211 129c0 34 21 56 46 56s43 -18 43 -41c0 -19 -9 -34 -20 -46c22 -25 76 -47 144 -47c94 0 151 51 151 128c0 74 -66 107 -144 138c-110 43 -195 85 -195 195c0 99 77 169 196 169c102 0 186 -61 186 -125c0 -32 -21 -50 -45 -50
c-26 0 -45 19 -45 44c0 16 9 31 18 41c-18 23 -75 39 -116 39c-85 0 -138 -48 -138 -114c0 -76 65 -108 155 -144c104 -41 184 -82 184 -189c0 -112 -90 -183 -209 -183z" />
    <glyph glyph-name="T" unicode="T" horiz-adv-x="637" 
d="M197 0v50h93v560h-185v-106h-55v154h537v-154h-55v106h-185v-560h93v-50h-243z" />
    <glyph glyph-name="U" unicode="U" horiz-adv-x="718" 
d="M357 -12c-151 0 -233 87 -233 233v387h-88v50h233v-50h-90v-382c0 -125 65 -186 179 -186s181 60 181 184v384h-90v50h233v-50h-88v-383c0 -149 -87 -237 -237 -237z" />
    <glyph glyph-name="V" unicode="V" horiz-adv-x="700" 
d="M333 -11l-246 619h-67v50h205v-50h-77l204 -527l204 527h-81v50h205v-50h-67l-246 -619h-34z" />
    <glyph glyph-name="W" unicode="W" horiz-adv-x="975" 
d="M289 -12l-190 620h-79v50h219v-50h-81l152 -513l166 478h32l167 -477l150 512h-84v50h218v-50h-79l-187 -620h-34l-167 475l-169 -475h-34z" />
    <glyph glyph-name="X" unicode="X" horiz-adv-x="727" 
d="M47 0v50h68l214 286l-200 272h-70v50h208v-48h-73l170 -239l173 239h-77v48h208v-50h-69l-202 -272l215 -286h68v-50h-208v48h75l-184 255l-186 -255h78v-48h-208z" />
    <glyph glyph-name="Y" unicode="Y" horiz-adv-x="641" 
d="M194 0v50h97v219l-198 339h-72v50h209v-50h-72l163 -290l165 290h-75v50h209v-50h-73l-198 -338v-220h97v-50h-252z" />
    <glyph glyph-name="Z" unicode="Z" horiz-adv-x="597" 
d="M45 0v24l417 587h-340v-102h-55v149h478v-24l-417 -587h369v102h55v-149h-507z" />
    <glyph glyph-name="a" unicode="a" horiz-adv-x="485" 
d="M190 -8c-85 0 -141 52 -141 122c0 76 68 127 159 127c46 0 108 -15 128 -24v70c0 24 -7 45 -20 60c-19 21 -51 35 -96 35c-40 0 -60 -11 -76 -22c4 -8 7 -16 7 -27c0 -21 -15 -38 -38 -38c-24 0 -39 18 -39 40c0 47 57 93 152 93c57 0 101 -17 128 -46
c21 -22 31 -51 31 -83v-253h70v-46h-117v57c-35 -36 -91 -65 -148 -65zM200 37c57 0 104 32 136 69v71c-34 11 -81 21 -126 21c-74 0 -110 -36 -110 -81s34 -80 100 -80z" />
    <glyph glyph-name="b" unicode="b" horiz-adv-x="543" 
d="M277 -8c-54 0 -107 21 -143 53l-20 -45h-29v686h-70v46h121v-371c38 38 80 67 153 67c109 0 204 -87 204 -219c0 -120 -87 -217 -216 -217zM279 38c91 0 160 70 160 171c0 102 -65 173 -156 173c-61 0 -110 -30 -147 -71v-221c34 -28 81 -52 143 -52z" />
    <glyph glyph-name="c" unicode="c" horiz-adv-x="461" 
d="M265 -8c-126 0 -219 96 -219 215c0 120 94 221 208 221c87 0 163 -57 163 -119c0 -26 -19 -50 -47 -50c-16 0 -36 10 -36 38c0 14 8 26 24 34c-13 33 -62 51 -104 51c-69 0 -154 -60 -154 -176c0 -96 67 -167 172 -167c46 0 89 15 136 47l-5 -52
c-41 -30 -100 -42 -138 -42z" />
    <glyph glyph-name="d" unicode="d" horiz-adv-x="545" 
d="M250 -8c-111 0 -202 85 -202 215c0 118 80 221 212 221c51 0 100 -19 137 -54v312h-87v46h138v-686h70v-46h-119v65c-37 -44 -83 -73 -149 -73zM253 38c61 0 107 30 144 71v219c-34 30 -77 54 -139 54c-94 0 -155 -77 -156 -174c-1 -100 63 -170 151 -170z" />
    <glyph glyph-name="e" unicode="e" horiz-adv-x="478" 
d="M431 198h-333c8 -106 72 -159 173 -159c58 0 95 18 145 47l-5 -52c-43 -28 -97 -42 -147 -42c-133 0 -220 90 -220 217c0 115 76 219 203 219c121 0 187 -95 187 -197c0 -15 -1 -24 -3 -33zM242 382c-73 0 -133 -54 -143 -139h283c-6 82 -52 139 -140 139z" />
    <glyph glyph-name="f" unicode="f" horiz-adv-x="307" 
d="M278 651c-25 0 -40 17 -46 41c-15 -2 -28 -8 -38 -20c-16 -18 -25 -47 -25 -89v-163h109v-46h-109v-328h82v-46h-203v46h70v328h-76v46h76v147c0 64 11 108 40 137c22 22 48 36 87 36c41 0 70 -18 70 -50c0 -23 -16 -39 -37 -39z" />
    <glyph glyph-name="g" unicode="g" horiz-adv-x="555" 
d="M452 374v-394c0 -53 -14 -92 -38 -120c-37 -44 -98 -60 -162 -60c-63 0 -109 19 -132 42c-14 14 -21 30 -21 46c0 28 19 47 45 47c21 0 34 -17 34 -37c0 -11 -4 -22 -12 -33c10 -8 42 -19 92 -19c44 0 88 11 116 44c16 20 27 47 27 85v92c-36 -38 -82 -67 -149 -67
c-112 0 -204 89 -204 211c0 110 81 217 214 217c57 0 105 -22 141 -57v49h119v-46h-70zM260 382c-95 0 -158 -79 -158 -170c0 -94 64 -166 153 -166c62 0 109 30 146 71v211c-34 30 -78 54 -141 54z" />
    <glyph glyph-name="h" unicode="h" horiz-adv-x="552" 
d="M103 686h-70v46h121v-393c41 51 101 89 161 89c52 0 87 -17 109 -45c19 -25 28 -59 28 -98v-239h70v-46h-191v46h70v232c0 33 -7 56 -21 73c-16 20 -42 29 -74 29c-60 0 -113 -38 -152 -86v-248h70v-46h-191v46h70v640z" />
    <glyph glyph-name="i" unicode="i" horiz-adv-x="283" 
d="M139 548c-26 0 -47 22 -47 48s21 48 47 48c25 0 46 -22 46 -48s-21 -48 -46 -48zM48 0v46h74v328h-74v46h125v-374h75v-46h-200z" />
    <glyph glyph-name="j" unicode="j" horiz-adv-x="242" 
d="M-53 -141c0 20 14 41 38 41c21 0 35 -15 35 -36c0 -6 -1 -13 -4 -20c6 -2 11 -2 17 -2c31 0 54 22 66 65c7 24 11 56 11 96v371h-81v46h132v-409c0 -51 -6 -90 -16 -121c-21 -63 -62 -90 -115 -90c-51 0 -83 26 -83 59zM127 548c-26 0 -47 22 -47 48s21 48 47 48
c25 0 46 -22 46 -48s-21 -48 -46 -48z" />
    <glyph glyph-name="k" unicode="k" horiz-adv-x="511" 
d="M33 0v46h70v640h-70v46h121v-530l200 174h-93v44h233v-46h-73l-149 -128l141 -200h81v-46h-109l-150 219l-81 -69v-104h75v-46h-196z" />
    <glyph glyph-name="l" unicode="l" horiz-adv-x="271" 
d="M36 0v46h74v640h-74v46h125v-686h75v-46h-200z" />
    <glyph glyph-name="m" unicode="m" horiz-adv-x="829" 
d="M45 0v46h70v328h-70v46h119v-83c38 50 98 91 158 91c55 0 89 -19 107 -52c6 -11 10 -24 13 -37c48 51 106 89 161 89c62 0 95 -23 112 -61c10 -23 14 -51 14 -82v-239h70v-46h-191v46h70v232c0 25 -3 45 -9 60c-12 29 -35 42 -74 42c-57 0 -102 -35 -147 -84v-250h69v-46
h-191v46h71v232c0 25 -3 45 -9 60c-12 29 -35 42 -74 42c-60 0 -107 -39 -148 -86v-248h70v-46h-191z" />
    <glyph glyph-name="n" unicode="n" horiz-adv-x="559" 
d="M164 420v-83c39 50 103 91 162 91c57 0 93 -20 113 -54c14 -24 20 -54 20 -89v-239h70v-46h-191v46h70v232c0 25 -3 45 -11 61c-14 28 -40 41 -79 41c-60 0 -113 -38 -152 -86v-248h70v-46h-191v46h70v328h-70v46h119z" />
    <glyph glyph-name="o" unicode="o" horiz-adv-x="522" 
d="M261 -8c-127 0 -213 97 -213 218s86 218 213 218s213 -97 213 -218s-86 -218 -213 -218zM261 38c94 0 159 71 159 172c0 100 -65 172 -159 172s-159 -72 -159 -172c0 -101 65 -172 159 -172z" />
    <glyph glyph-name="p" unicode="p" horiz-adv-x="553" 
d="M33 -196v46h70v524h-70v46h119v-65c37 44 83 73 149 73c111 0 202 -85 202 -215c0 -118 -80 -221 -212 -221c-51 0 -101 20 -137 52v-194h87v-46h-208zM293 38c94 0 155 77 156 174c1 100 -63 170 -151 170c-61 0 -107 -30 -144 -71v-221c34 -30 77 -52 139 -52z" />
    <glyph glyph-name="q" unicode="q" horiz-adv-x="531" 
d="M318 -196v46h87v209c-38 -38 -80 -67 -153 -67c-109 0 -204 87 -204 219c0 120 87 217 216 217c54 0 107 -21 143 -53l20 45h29v-570h70v-46h-208zM258 38c61 0 110 30 147 71v221c-34 28 -81 52 -143 52c-91 0 -160 -70 -160 -171c0 -102 65 -173 156 -173z" />
    <glyph glyph-name="r" unicode="r" horiz-adv-x="355" 
d="M289 428c37 0 57 -23 57 -48c0 -23 -18 -43 -41 -43c-22 0 -39 16 -45 34c-33 -9 -72 -49 -94 -93v-232h82v-46h-203v46h70v328h-70v46h119v-95c30 58 84 103 125 103z" />
    <glyph glyph-name="s" unicode="s" horiz-adv-x="428" 
d="M362 341c0 -24 -15 -40 -36 -40c-22 0 -40 16 -40 39c0 7 1 17 7 26c-16 11 -45 18 -81 18c-64 0 -102 -35 -102 -70c0 -42 44 -55 116 -73c77 -19 155 -42 155 -127c0 -76 -76 -122 -164 -122c-60 0 -118 18 -147 47c-14 14 -23 31 -23 51c0 22 15 41 37 41
c25 0 39 -17 39 -37c0 -10 -3 -19 -9 -29c12 -13 50 -29 102 -29c65 0 115 29 115 75s-49 62 -107 76c-95 23 -165 45 -165 125c0 63 62 116 154 116c59 0 104 -17 128 -41c14 -14 21 -29 21 -46z" />
    <glyph glyph-name="t" unicode="t" horiz-adv-x="317" 
d="M188 -8c-41 0 -69 16 -83 46c-7 14 -10 34 -10 54v282h-76v46h76v109l51 18v-127h130v-46h-130v-277c0 -14 2 -25 6 -34c8 -15 24 -22 52 -22c24 0 54 13 77 27l-8 -53c-19 -10 -46 -23 -85 -23z" />
    <glyph glyph-name="u" unicode="u" horiz-adv-x="547" 
d="M233 -8c-58 0 -94 21 -114 56c-13 24 -19 53 -19 87v239h-70v46h121v-278c0 -26 5 -47 13 -63c14 -27 39 -39 77 -39c60 0 110 40 152 86v248h-70v46h121v-374h70v-46h-119v83c-39 -50 -103 -91 -162 -91z" />
    <glyph glyph-name="v" unicode="v" horiz-adv-x="515" 
d="M248 -17l-182 391h-58v46h186v-46h-70l135 -305l135 305h-73v46h186v-46h-58l-182 -391h-19z" />
    <glyph glyph-name="w" unicode="w" horiz-adv-x="682" 
d="M191 -18l-121 392h-62v46h184v-44h-70l85 -294l125 289h20l125 -288l85 293h-72v44h184v-46h-63l-120 -392h-20l-130 300l-130 -300h-20z" />
    <glyph glyph-name="x" unicode="x" horiz-adv-x="489" 
d="M24 0v46h57l136 168l-126 160h-62v46h171v-43h-54l99 -134l100 134h-56v43h171v-46h-62l-126 -158l135 -170h58v-46h-176v43h63l-108 144l-110 -144h66v-43h-176z" />
    <glyph glyph-name="y" unicode="y" horiz-adv-x="504" 
d="M202 -122c-32 -50 -65 -78 -107 -78c-33 0 -65 18 -65 50c0 23 16 39 37 39c23 0 39 -20 44 -40c18 7 37 24 58 58c11 18 24 43 38 72l22 46l-162 349h-60v46h186v-46h-68s130 -293 129 -293l131 293h-71v46h183v-46h-60l-200 -431c-12 -25 -23 -46 -35 -65z" />
    <glyph glyph-name="z" unicode="z" horiz-adv-x="444" 
d="M40 0v16l277 360h-212v-84h-47v128h343v-16l-277 -360h234v84h47v-128h-365z" />
    <glyph glyph-name="a.sc" horiz-adv-x="575" 
d="M160 501h255v-46h-77l157 -409h65v-46h-199v46h81l-47 124h-218l-46 -124h81v-46h-197v46h65l156 409h-76v46zM286 458l-91 -241h182z" />
    <glyph glyph-name="b.sc" horiz-adv-x="524" 
d="M187 46h106c81 0 122 39 122 93c0 64 -49 94 -136 94h-92v-187zM187 277h91c83 0 123 37 123 93c0 53 -41 85 -121 85h-93v-178zM290 0h-245v46h90v409h-90v46h236c125 0 173 -59 173 -126c0 -63 -41 -103 -98 -118c69 -17 112 -53 112 -120c0 -80 -61 -137 -178 -137z
" />
    <glyph glyph-name="c.sc" horiz-adv-x="549" 
d="M464 105l30 -36c-50 -50 -120 -78 -190 -78c-151 0 -254 114 -254 260c0 143 106 261 256 261c103 0 185 -65 185 -124c0 -29 -18 -50 -44 -50c-24 0 -41 17 -41 40c0 17 10 28 21 33c-14 22 -56 53 -121 53c-117 0 -202 -92 -202 -213c0 -124 85 -212 200 -212
c63 0 115 24 160 66z" />
    <glyph glyph-name="d.sc" horiz-adv-x="603" 
d="M187 46h84c152 0 229 86 229 211c0 123 -92 198 -235 198h-78v-409zM265 0h-220v46h90v409h-90v46h220c176 0 288 -95 288 -245c0 -152 -105 -256 -288 -256z" />
    <glyph glyph-name="e.sc" horiz-adv-x="507" 
d="M447 0h-402v46h90v409h-90v46h402v-137h-50v91h-210v-178h172v-47h-172v-184h210v91h50v-137z" />
    <glyph glyph-name="f.sc" horiz-adv-x="486" 
d="M281 0h-236v46h90v409h-90v46h401v-137h-50v91h-209v-184h169v-47h-169v-178h94v-46z" />
    <glyph glyph-name="g.sc" horiz-adv-x="587" 
d="M310 465c-124 0 -206 -96 -206 -217c0 -126 91 -209 197 -209c63 0 114 18 160 49v112h-142v46h193v-246h-50v42c-44 -32 -95 -51 -165 -51c-127 0 -247 97 -247 256s121 265 262 265c116 0 192 -64 192 -117c0 -29 -18 -48 -43 -48c-23 0 -40 16 -40 38c0 16 9 27 18 32
c-20 22 -67 48 -129 48z" />
    <glyph glyph-name="h.sc" horiz-adv-x="667" 
d="M45 0v46h90v409h-90v46h233v-46h-91v-178h293v178h-91v46h233v-46h-90v-409h90v-46h-233v46h91v183h-293v-183h91v-46h-233z" />
    <glyph glyph-name="i.sc" horiz-adv-x="326" 
d="M281 0h-236v46h92v409h-92v46h236v-46h-92v-409h92v-46z" />
    <glyph glyph-name="j.sc" horiz-adv-x="432" 
d="M171 40c27 0 52 9 70 28c21 23 32 59 32 110v277h-93v46h227v-46h-82v-279c0 -60 -15 -111 -46 -142c-27 -28 -64 -43 -109 -43c-80 0 -145 56 -145 127c0 34 19 57 47 57c21 0 40 -15 40 -39c0 -18 -12 -35 -32 -38c2 -22 34 -58 91 -58z" />
    <glyph glyph-name="k.sc" horiz-adv-x="576" 
d="M483 454l-172 -173l166 -235h84v-46h-116l-170 245l-86 -85v-114h88l1 -46h-233v46h92v409h-92v46h227v-46h-83v-234l234 234h-80v46h209v-47h-69z" />
    <glyph glyph-name="l.sc" horiz-adv-x="477" 
d="M389 46v96h50v-142h-394v46h90v409h-90v46h235v-46h-93v-409h202z" />
    <glyph glyph-name="m.sc" horiz-adv-x="736" 
d="M538 501h143v-46h-90l20 -409h90v-46h-234v46h92l-13 368l-169 -344h-19l-170 344l-13 -368h93v-46h-233v46h91l18 409h-90v46h144l170 -349z" />
    <glyph glyph-name="n.sc" horiz-adv-x="654" 
d="M182 501l302 -396v350h-91v46h230v-46h-90v-458h-31l-318 419v-370h91v-46h-230v46h90v409h-90v46h137z" />
    <glyph glyph-name="o.sc" 
d="M305 512c151 0 255 -115 255 -260c0 -146 -104 -261 -256 -261c-150 0 -254 115 -254 261c0 145 104 260 255 260zM304 39c119 0 202 88 202 213c0 122 -83 212 -201 212s-201 -89 -201 -212c0 -125 83 -213 200 -213z" />
    <glyph glyph-name="p.sc" horiz-adv-x="489" 
d="M45 501h220c106 0 187 -60 187 -156c0 -103 -74 -163 -187 -163c-27 0 -64 0 -78 1v-137h92v-46h-234v46h90v409h-90v46zM268 228c81 0 131 44 131 116c0 70 -57 111 -133 111h-79v-226c15 -1 51 -1 81 -1z" />
    <glyph glyph-name="q.sc" 
d="M508 -106c-69 0 -118 47 -161 73c-25 16 -49 22 -77 27c-53 10 -101 29 -137 61c-51 44 -83 117 -83 197c0 145 104 260 255 260s255 -115 255 -260c0 -124 -77 -222 -190 -246c14 -6 25 -11 45 -24c36 -24 58 -37 92 -37c23 0 38 5 61 19l23 -44
c-26 -20 -53 -26 -83 -26zM304 39c116 0 202 94 202 213c0 122 -83 212 -201 212s-201 -89 -201 -212c0 -66 25 -123 65 -161c34 -32 81 -52 135 -52z" />
    <glyph glyph-name="q.sc_alt" 
d="M560 252c0 -96 -45 -178 -118 -223l55 -88l-41 -25l-58 91c-28 -10 -60 -16 -94 -16c-150 0 -254 115 -254 261c0 145 104 260 255 260s255 -115 255 -260zM506 252c0 122 -83 212 -201 212s-201 -89 -201 -212c0 -125 83 -213 200 -213c24 0 47 3 68 10l-57 92l41 26
l60 -96c55 36 90 101 90 181z" />
    <glyph glyph-name="r.sc" horiz-adv-x="534" 
d="M265 455h-78v-203c24 -1 51 -1 74 -1c82 0 140 37 140 105c0 64 -53 99 -136 99zM187 206v-160h92v-46h-234v46h90v409h-90v46h222c114 0 186 -55 186 -144c0 -69 -46 -119 -111 -139l108 -172h78v-46h-114l-125 206c-16 -1 -27 -1 -35 -1c-18 0 -48 0 -67 1z" />
    <glyph glyph-name="s.sc" horiz-adv-x="455" 
d="M314 408c0 12 6 26 12 33c-12 14 -53 26 -92 26c-69 0 -113 -34 -113 -83c0 -55 60 -78 123 -103c82 -31 161 -61 161 -147c0 -89 -78 -143 -179 -143c-106 0 -176 55 -176 104c0 29 16 48 40 48c23 0 40 -15 40 -37c0 -14 -6 -27 -13 -36c16 -16 55 -33 110 -33
c79 0 125 37 125 94c0 53 -63 77 -120 99c-87 33 -165 62 -165 149c0 79 67 133 169 133c89 0 158 -45 158 -100c0 -26 -18 -43 -38 -43c-26 0 -42 17 -42 39z" />
    <glyph glyph-name="t.sc" horiz-adv-x="523" 
d="M143 0v46h92v409h-144v-91h-50v137h441v-137h-51v91h-144v-409h92v-46h-236z" />
    <glyph glyph-name="u.sc" 
d="M165 455v-274c0 -91 54 -143 140 -143s140 51 140 142v275h-90v46h226v-46h-84v-274c0 -122 -73 -190 -193 -190s-191 66 -191 188v276h-84v46h226v-46h-90z" />
    <glyph glyph-name="v.sc" horiz-adv-x="553" 
d="M261 -8l-188 463h-63v46h199v-46h-80l149 -377l149 377h-80v46h196v-46h-62l-189 -463h-31z" />
    <glyph glyph-name="w.sc" horiz-adv-x="772" 
d="M225 -12l-141 467h-73v46h210v-46h-81l107 -365l129 343h24l130 -343l106 365h-81v46h206v-46h-73l-141 -467h-30l-131 351l-131 -351h-30z" />
    <glyph glyph-name="x.sc" horiz-adv-x="560" 
d="M535 48v-48h-200v46h71l-128 179l-130 -179h81v-46h-204v48h65l157 207l-146 200h-67v46h204v-46h-75l117 -168l120 168h-75v46h201v-46h-70l-146 -198l156 -209h69z" />
    <glyph glyph-name="y.sc" horiz-adv-x="523" 
d="M517 501v-46h-71l-159 -265v-144h91v-46h-234v46h91v144l-158 265h-71v46h207v-46h-79l129 -222l129 222h-79v46h204z" />
    <glyph glyph-name="z.sc" horiz-adv-x="483" 
d="M45 0v28l320 428h-257v-89h-50v134h382v-27l-319 -428h271v88h51v-134h-398z" />
    <glyph glyph-name="Aacute" unicode="&#xc1;" horiz-adv-x="710" 
d="M20 0v50h66l211 558h-76v50h268v-50h-76l211 -558h66v-50h-205v50h77l-69 186h-279l-69 -186h80v-50h-205zM232 285h243l-121 328zM318 719l-12 19l125 115c13 12 25 20 38 20c18 0 36 -14 36 -39c0 -12 -14 -28 -35 -39z" />
    <glyph glyph-name="aacute" unicode="&#xe1;" horiz-adv-x="485" 
d="M190 -8c-85 0 -141 52 -141 122c0 76 68 127 159 127c46 0 108 -15 128 -24v70c0 24 -7 45 -20 60c-19 21 -51 35 -96 35c-40 0 -60 -11 -76 -22c4 -8 7 -16 7 -27c0 -21 -15 -38 -38 -38c-24 0 -39 18 -39 40c0 47 57 93 152 93c57 0 101 -17 128 -46
c21 -22 31 -51 31 -83v-253h70v-46h-117v57c-35 -36 -91 -65 -148 -65zM200 37c57 0 104 32 136 69v71c-34 11 -81 21 -126 21c-74 0 -110 -36 -110 -81s34 -80 100 -80zM198 509l-12 19l125 115c13 12 25 20 38 20c18 0 36 -14 36 -39c0 -12 -14 -28 -35 -39z" />
    <glyph glyph-name="aacute.sc" horiz-adv-x="575" 
d="M160 501h255v-46h-77l157 -409h65v-46h-199v46h81l-47 124h-218l-46 -124h81v-46h-197v46h65l156 409h-76v46zM286 458l-91 -241h182zM251 569l-12 19l125 115c13 12 25 20 38 20c18 0 36 -14 36 -39c0 -12 -14 -28 -35 -39z" />
    <glyph glyph-name="Abreve" unicode="&#x102;" horiz-adv-x="710" 
d="M20 0v50h66l211 558h-76v50h268v-50h-76l211 -558h66v-50h-205v50h77l-69 186h-279l-69 -186h80v-50h-205zM232 285h243l-121 328zM355 719c-71 0 -125 53 -148 119l40 19c19 -51 63 -81 108 -81c50 0 90 35 108 81l40 -19c-23 -66 -77 -119 -148 -119z" />
    <glyph glyph-name="abreve" unicode="&#x103;" horiz-adv-x="485" 
d="M190 -8c-85 0 -141 52 -141 122c0 76 68 127 159 127c46 0 108 -15 128 -24v70c0 24 -7 45 -20 60c-19 21 -51 35 -96 35c-40 0 -60 -11 -76 -22c4 -8 7 -16 7 -27c0 -21 -15 -38 -38 -38c-24 0 -39 18 -39 40c0 47 57 93 152 93c57 0 101 -17 128 -46
c21 -22 31 -51 31 -83v-253h70v-46h-117v57c-35 -36 -91 -65 -148 -65zM200 37c57 0 104 32 136 69v71c-34 11 -81 21 -126 21c-74 0 -110 -36 -110 -81s34 -80 100 -80zM235 509c-71 0 -125 53 -148 119l40 19c19 -51 63 -81 108 -81c50 0 90 35 108 81l40 -19
c-23 -66 -77 -119 -148 -119z" />
    <glyph glyph-name="abreve.sc" horiz-adv-x="575" 
d="M160 501h255v-46h-77l157 -409h65v-46h-199v46h81l-47 124h-218l-46 -124h81v-46h-197v46h65l156 409h-76v46zM286 458l-91 -241h182zM288 569c-71 0 -125 53 -148 119l40 19c19 -51 63 -81 108 -81c50 0 90 35 108 81l40 -19c-23 -66 -77 -119 -148 -119z" />
    <glyph glyph-name="Acircumflex" unicode="&#xc2;" horiz-adv-x="710" 
d="M20 0v50h66l211 558h-76v50h268v-50h-76l211 -558h66v-50h-205v50h77l-69 186h-279l-69 -186h80v-50h-205zM232 285h243l-121 328zM236 713l-25 30l144 134l144 -134l-25 -30l-119 91z" />
    <glyph glyph-name="acircumflex" unicode="&#xe2;" horiz-adv-x="485" 
d="M190 -8c-85 0 -141 52 -141 122c0 76 68 127 159 127c46 0 108 -15 128 -24v70c0 24 -7 45 -20 60c-19 21 -51 35 -96 35c-40 0 -60 -11 -76 -22c4 -8 7 -16 7 -27c0 -21 -15 -38 -38 -38c-24 0 -39 18 -39 40c0 47 57 93 152 93c57 0 101 -17 128 -46
c21 -22 31 -51 31 -83v-253h70v-46h-117v57c-35 -36 -91 -65 -148 -65zM200 37c57 0 104 32 136 69v71c-34 11 -81 21 -126 21c-74 0 -110 -36 -110 -81s34 -80 100 -80zM116 503l-25 30l144 134l144 -134l-25 -30l-119 91z" />
    <glyph glyph-name="acircumflex.sc" horiz-adv-x="575" 
d="M160 501h255v-46h-77l157 -409h65v-46h-199v46h81l-47 124h-218l-46 -124h81v-46h-197v46h65l156 409h-76v46zM286 458l-91 -241h182zM169 563l-25 30l144 134l144 -134l-25 -30l-119 91z" />
    <glyph glyph-name="Adieresis" unicode="&#xc4;" horiz-adv-x="710" 
d="M20 0v50h66l211 558h-76v50h268v-50h-76l211 -558h66v-50h-205v50h77l-69 186h-279l-69 -186h80v-50h-205zM232 285h243l-121 328zM435 735c-28 0 -49 23 -49 51s21 51 49 51s49 -23 49 -51s-21 -51 -49 -51zM275 735c-28 0 -49 23 -49 51s21 51 49 51s49 -23 49 -51
s-21 -51 -49 -51z" />
    <glyph glyph-name="adieresis" unicode="&#xe4;" horiz-adv-x="485" 
d="M190 -8c-85 0 -141 52 -141 122c0 76 68 127 159 127c46 0 108 -15 128 -24v70c0 24 -7 45 -20 60c-19 21 -51 35 -96 35c-40 0 -60 -11 -76 -22c4 -8 7 -16 7 -27c0 -21 -15 -38 -38 -38c-24 0 -39 18 -39 40c0 47 57 93 152 93c57 0 101 -17 128 -46
c21 -22 31 -51 31 -83v-253h70v-46h-117v57c-35 -36 -91 -65 -148 -65zM200 37c57 0 104 32 136 69v71c-34 11 -81 21 -126 21c-74 0 -110 -36 -110 -81s34 -80 100 -80zM315 525c-28 0 -49 23 -49 51s21 51 49 51s49 -23 49 -51s-21 -51 -49 -51zM155 525
c-28 0 -49 23 -49 51s21 51 49 51s49 -23 49 -51s-21 -51 -49 -51z" />
    <glyph glyph-name="adieresis.sc" horiz-adv-x="575" 
d="M160 501h255v-46h-77l157 -409h65v-46h-199v46h81l-47 124h-218l-46 -124h81v-46h-197v46h65l156 409h-76v46zM286 458l-91 -241h182zM368 585c-28 0 -49 23 -49 51s21 51 49 51s49 -23 49 -51s-21 -51 -49 -51zM208 585c-28 0 -49 23 -49 51s21 51 49 51s49 -23 49 -51
s-21 -51 -49 -51z" />
    <glyph glyph-name="AE" unicode="&#xc6;" horiz-adv-x="875" 
d="M-8 0v50h77l279 558h-68v50h526v-149h-55v99h-272v-247h223v-50h-223v-261h272v99h55v-149h-462v50h78v186h-204l-93 -186h72v-50h-205zM242 285h180v323h-18z" />
    <glyph glyph-name="ae" unicode="&#xe6;" horiz-adv-x="756" 
d="M220 381c-40 0 -60 -10 -76 -21c4 -8 7 -16 7 -27c0 -21 -15 -38 -38 -38c-24 0 -39 18 -39 40c0 47 57 93 152 93c56 0 100 -19 126 -51c7 -10 14 -21 18 -32c34 50 89 83 157 83c121 0 187 -95 187 -197c0 -15 -1 -24 -3 -33h-333c7 -108 70 -159 173 -159
c58 0 95 18 145 47l-5 -52c-43 -28 -97 -42 -147 -42c-80 0 -139 30 -174 82c-57 -57 -120 -82 -180 -82c-85 0 -141 52 -141 122c0 76 68 127 159 127c46 0 108 -15 128 -24v65c0 24 -8 46 -21 61c-19 23 -52 38 -95 38zM200 37c53 0 99 20 154 68c-9 21 -15 45 -18 71
c-41 14 -84 22 -126 22c-74 0 -110 -36 -110 -81s34 -80 100 -80zM522 382c-73 0 -133 -54 -143 -139h283c-6 82 -52 139 -140 139z" />
    <glyph glyph-name="ae.sc" horiz-adv-x="689" 
d="M227 0v46h90v129h-154l-67 -129h77v-46h-188v46h57l217 409h-69v46h439v-137h-50v91h-210v-178h172v-47h-172v-184h210v91h50v-137h-402zM310 455l-122 -233h129v233h-7z" />
    <glyph glyph-name="AEacute" unicode="&#x1fc;" horiz-adv-x="875" 
d="M-8 0v50h77l279 558h-68v50h526v-149h-55v99h-272v-247h223v-50h-223v-261h272v99h55v-149h-462v50h78v186h-204l-93 -186h72v-50h-205zM242 285h180v323h-18zM449 719l-12 19l125 115c13 12 25 20 38 20c18 0 36 -14 36 -39c0 -12 -14 -28 -35 -39z" />
    <glyph glyph-name="aeacute" unicode="&#x1fd;" horiz-adv-x="756" 
d="M220 381c-40 0 -60 -10 -76 -21c4 -8 7 -16 7 -27c0 -21 -15 -38 -38 -38c-24 0 -39 18 -39 40c0 47 57 93 152 93c56 0 100 -19 126 -51c7 -10 14 -21 18 -32c34 50 89 83 157 83c121 0 187 -95 187 -197c0 -15 -1 -24 -3 -33h-333c7 -108 70 -159 173 -159
c58 0 95 18 145 47l-5 -52c-43 -28 -97 -42 -147 -42c-80 0 -139 30 -174 82c-57 -57 -120 -82 -180 -82c-85 0 -141 52 -141 122c0 76 68 127 159 127c46 0 108 -15 128 -24v65c0 24 -8 46 -21 61c-19 23 -52 38 -95 38zM200 37c53 0 99 20 154 68c-9 21 -15 45 -18 71
c-41 14 -84 22 -126 22c-74 0 -110 -36 -110 -81s34 -80 100 -80zM522 382c-73 0 -133 -54 -143 -139h283c-6 82 -52 139 -140 139zM344 509l-12 19l125 115c13 12 25 20 38 20c18 0 36 -14 36 -39c0 -12 -14 -28 -35 -39z" />
    <glyph glyph-name="aeacute.sc" horiz-adv-x="689" 
d="M227 0v46h90v129h-154l-67 -129h77v-46h-188v46h57l217 409h-69v46h439v-137h-50v91h-210v-178h172v-47h-172v-184h210v91h50v-137h-402zM310 455l-122 -233h129v233h-7zM339 569l-12 19l125 115c13 12 25 20 38 20c18 0 36 -14 36 -39c0 -12 -14 -28 -35 -39z" />
    <glyph glyph-name="Agrave" unicode="&#xc0;" horiz-adv-x="710" 
d="M20 0v50h66l211 558h-76v50h268v-50h-76l211 -558h66v-50h-205v50h77l-69 186h-279l-69 -186h80v-50h-205zM232 285h243l-121 328zM392 719l-152 76c-21 11 -35 27 -35 39c0 25 18 39 36 39c13 0 25 -8 38 -20l125 -115z" />
    <glyph glyph-name="agrave" unicode="&#xe0;" horiz-adv-x="485" 
d="M190 -8c-85 0 -141 52 -141 122c0 76 68 127 159 127c46 0 108 -15 128 -24v70c0 24 -7 45 -20 60c-19 21 -51 35 -96 35c-40 0 -60 -11 -76 -22c4 -8 7 -16 7 -27c0 -21 -15 -38 -38 -38c-24 0 -39 18 -39 40c0 47 57 93 152 93c57 0 101 -17 128 -46
c21 -22 31 -51 31 -83v-253h70v-46h-117v57c-35 -36 -91 -65 -148 -65zM200 37c57 0 104 32 136 69v71c-34 11 -81 21 -126 21c-74 0 -110 -36 -110 -81s34 -80 100 -80zM272 509l-152 76c-21 11 -35 27 -35 39c0 25 18 39 36 39c13 0 25 -8 38 -20l125 -115z" />
    <glyph glyph-name="agrave.sc" horiz-adv-x="575" 
d="M160 501h255v-46h-77l157 -409h65v-46h-199v46h81l-47 124h-218l-46 -124h81v-46h-197v46h65l156 409h-76v46zM286 458l-91 -241h182zM325 569l-152 76c-21 11 -35 27 -35 39c0 25 18 39 36 39c13 0 25 -8 38 -20l125 -115z" />
    <glyph glyph-name="Amacron" unicode="&#x100;" horiz-adv-x="710" 
d="M20 0v50h66l211 558h-76v50h268v-50h-76l211 -558h66v-50h-205v50h77l-69 186h-279l-69 -186h80v-50h-205zM232 285h243l-121 328zM210 750v52h290v-52h-290z" />
    <glyph glyph-name="amacron" unicode="&#x101;" horiz-adv-x="485" 
d="M190 -8c-85 0 -141 52 -141 122c0 76 68 127 159 127c46 0 108 -15 128 -24v70c0 24 -7 45 -20 60c-19 21 -51 35 -96 35c-40 0 -60 -11 -76 -22c4 -8 7 -16 7 -27c0 -21 -15 -38 -38 -38c-24 0 -39 18 -39 40c0 47 57 93 152 93c57 0 101 -17 128 -46
c21 -22 31 -51 31 -83v-253h70v-46h-117v57c-35 -36 -91 -65 -148 -65zM200 37c57 0 104 32 136 69v71c-34 11 -81 21 -126 21c-74 0 -110 -36 -110 -81s34 -80 100 -80zM90 540v52h290v-52h-290z" />
    <glyph glyph-name="amacron.sc" horiz-adv-x="575" 
d="M160 501h255v-46h-77l157 -409h65v-46h-199v46h81l-47 124h-218l-46 -124h81v-46h-197v46h65l156 409h-76v46zM286 458l-91 -241h182zM143 600v52h290v-52h-290z" />
    <glyph glyph-name="Aogonek" unicode="&#x104;" horiz-adv-x="710" 
d="M593 -201c-68 0 -102 36 -102 89c0 45 29 85 70 112h-76v50h77l-69 186h-279l-69 -186h80v-50h-205v50h66l211 558h-76v50h268v-50h-76l211 -558h66v-50h-63c-51 -23 -86 -60 -86 -102c0 -32 18 -54 57 -54c32 0 59 9 81 20l-3 -42c-14 -10 -47 -23 -83 -23zM232 285h243
l-121 328z" />
    <glyph glyph-name="aogonek" unicode="&#x105;" horiz-adv-x="485" 
d="M368 -201c-68 0 -102 36 -102 89c0 46 30 87 72 113v56c-35 -36 -91 -65 -148 -65c-85 0 -141 52 -141 122c0 76 68 127 159 127c46 0 108 -15 128 -24v70c0 24 -7 45 -20 60c-19 21 -51 35 -96 35c-40 0 -60 -11 -76 -22c4 -8 7 -16 7 -27c0 -21 -15 -38 -38 -38
c-24 0 -39 18 -39 40c0 47 57 93 152 93c57 0 101 -17 128 -46c21 -22 31 -51 31 -83v-253h70v-46h-53c-51 -23 -86 -60 -86 -102c0 -32 18 -54 57 -54c32 0 59 9 81 20l-3 -42c-14 -10 -47 -23 -83 -23zM200 37c57 0 104 32 136 69v71c-34 11 -81 21 -126 21
c-74 0 -110 -36 -110 -81s34 -80 100 -80z" />
    <glyph glyph-name="aogonek.sc" horiz-adv-x="575" 
d="M469 -201c-68 0 -102 36 -102 89c0 45 29 85 70 112h-76v46h81l-47 124h-218l-46 -124h81v-46h-197v46h65l156 409h-76v46h255v-46h-77l157 -409h65v-46h-57c-51 -23 -86 -60 -86 -102c0 -32 18 -54 57 -54c32 0 59 9 81 20l-3 -42c-14 -10 -47 -23 -83 -23zM286 458
l-91 -241h182z" />
    <glyph glyph-name="Aring" unicode="&#xc5;" horiz-adv-x="710" 
d="M453 730c0 -27 -11 -53 -33 -72h69v-50h-76l211 -558h66v-50h-205v50h77l-69 186h-279l-69 -186h80v-50h-205v50h66l211 558h-76v50h66c-20 19 -32 44 -32 72c0 51 44 97 99 97s99 -46 99 -97zM232 285h243l-121 328zM354 664c33 0 57 27 57 61s-24 61 -57 61
s-57 -27 -57 -61s24 -61 57 -61z" />
    <glyph glyph-name="aring" unicode="&#xe5;" horiz-adv-x="485" 
d="M190 -8c-85 0 -141 52 -141 122c0 76 68 127 159 127c46 0 108 -15 128 -24v70c0 24 -7 45 -20 60c-19 21 -51 35 -96 35c-40 0 -60 -11 -76 -22c4 -8 7 -16 7 -27c0 -21 -15 -38 -38 -38c-24 0 -39 18 -39 40c0 47 57 93 152 93c57 0 101 -17 128 -46
c21 -22 31 -51 31 -83v-253h70v-46h-117v57c-35 -36 -91 -65 -148 -65zM200 37c57 0 104 32 136 69v71c-34 11 -81 21 -126 21c-74 0 -110 -36 -110 -81s34 -80 100 -80zM235 498c-55 0 -99 46 -99 102s44 102 99 102s99 -46 99 -102s-44 -102 -99 -102zM235 539
c33 0 57 27 57 61s-24 61 -57 61s-57 -27 -57 -61s24 -61 57 -61z" />
    <glyph glyph-name="aring.sc" horiz-adv-x="575" 
d="M212 0h-197v46h65l156 409h-76v46h51c-15 17 -24 39 -24 63c0 56 44 102 99 102s99 -46 99 -102c0 -24 -10 -46 -24 -63h54v-46h-77l157 -409h65v-46h-199v46h81l-47 124h-218l-46 -124h81v-46zM286 458l-91 -241h182zM286 503c33 0 57 27 57 61s-24 61 -57 61
s-57 -27 -57 -61s24 -61 57 -61z" />
    <glyph glyph-name="Aringacute" unicode="&#x1fa;" horiz-adv-x="710" 
d="M453 730c0 -27 -11 -53 -33 -72h69v-50h-76l211 -558h66v-50h-205v50h77l-69 186h-279l-69 -186h80v-50h-205v50h66l211 558h-76v50h66c-20 19 -32 44 -32 72c0 51 44 97 99 97s99 -46 99 -97zM232 285h243l-121 328zM354 664c33 0 57 27 57 61s-24 61 -57 61
s-57 -27 -57 -61s24 -61 57 -61zM317 868l-12 19l125 115c13 12 25 20 38 20c18 0 36 -14 36 -39c0 -12 -14 -28 -35 -39z" />
    <glyph glyph-name="aringacute" unicode="&#x1fb;" horiz-adv-x="485" 
d="M190 -8c-85 0 -141 52 -141 122c0 76 68 127 159 127c46 0 108 -15 128 -24v70c0 24 -7 45 -20 60c-19 21 -51 35 -96 35c-40 0 -60 -11 -76 -22c4 -8 7 -16 7 -27c0 -21 -15 -38 -38 -38c-24 0 -39 18 -39 40c0 47 57 93 152 93c57 0 101 -17 128 -46
c21 -22 31 -51 31 -83v-253h70v-46h-117v57c-35 -36 -91 -65 -148 -65zM200 37c57 0 104 32 136 69v71c-34 11 -81 21 -126 21c-74 0 -110 -36 -110 -81s34 -80 100 -80zM243 498c-55 0 -99 46 -99 102s44 102 99 102s99 -46 99 -102s-44 -102 -99 -102zM243 539
c33 0 57 27 57 61s-24 61 -57 61s-57 -27 -57 -61s24 -61 57 -61zM206 753l-12 19l125 115c13 12 25 20 38 20c18 0 36 -14 36 -39c0 -12 -14 -28 -35 -39z" />
    <glyph glyph-name="aringacute.sc" horiz-adv-x="575" 
d="M212 0h-197v46h65l156 409h-76v46h51c-15 17 -24 39 -24 63c0 56 44 102 99 102s99 -46 99 -102c0 -24 -10 -46 -24 -63h54v-46h-77l157 -409h65v-46h-199v46h81l-47 124h-218l-46 -124h81v-46zM286 458l-91 -241h182zM248 714l-12 19l125 115c13 12 25 20 38 20
c18 0 36 -14 36 -39c0 -12 -14 -28 -35 -39zM286 503c33 0 57 27 57 61s-24 61 -57 61s-57 -27 -57 -61s24 -61 57 -61z" />
    <glyph glyph-name="Atilde" unicode="&#xc3;" horiz-adv-x="710" 
d="M20 0v50h66l211 558h-76v50h268v-50h-76l211 -558h66v-50h-205v50h77l-69 186h-279l-69 -186h80v-50h-205zM232 285h243l-121 328zM426 720c-39 0 -64 19 -88 39c-22 18 -33 25 -47 25c-24 0 -39 -25 -43 -58l-45 9c2 57 42 103 85 103c39 0 64 -19 88 -39
c22 -18 33 -25 47 -25c24 0 39 25 43 58l45 -9c-2 -57 -42 -103 -85 -103z" />
    <glyph glyph-name="atilde" unicode="&#xe3;" horiz-adv-x="485" 
d="M190 -8c-85 0 -141 52 -141 122c0 76 68 127 159 127c46 0 108 -15 128 -24v70c0 24 -7 45 -20 60c-19 21 -51 35 -96 35c-40 0 -60 -11 -76 -22c4 -8 7 -16 7 -27c0 -21 -15 -38 -38 -38c-24 0 -39 18 -39 40c0 47 57 93 152 93c57 0 101 -17 128 -46
c21 -22 31 -51 31 -83v-253h70v-46h-117v57c-35 -36 -91 -65 -148 -65zM200 37c57 0 104 32 136 69v71c-34 11 -81 21 -126 21c-74 0 -110 -36 -110 -81s34 -80 100 -80zM306 510c-39 0 -64 19 -88 39c-22 18 -33 25 -47 25c-24 0 -39 -25 -43 -58l-45 9c2 57 42 103 85 103
c39 0 64 -19 88 -39c22 -18 33 -25 47 -25c24 0 39 25 43 58l45 -9c-2 -57 -42 -103 -85 -103z" />
    <glyph glyph-name="atilde.sc" horiz-adv-x="575" 
d="M160 501h255v-46h-77l157 -409h65v-46h-199v46h81l-47 124h-218l-46 -124h81v-46h-197v46h65l156 409h-76v46zM286 458l-91 -241h182zM359 570c-39 0 -64 19 -88 39c-22 18 -33 25 -47 25c-24 0 -39 -25 -43 -58l-45 9c2 57 42 103 85 103c39 0 64 -19 88 -39
c22 -18 33 -25 47 -25c24 0 39 25 43 58l45 -9c-2 -57 -42 -103 -85 -103z" />
    <glyph glyph-name="Cacute" unicode="&#x106;" horiz-adv-x="702" 
d="M393 -12c-203 0 -333 167 -333 336c0 206 158 346 329 346c132 0 242 -85 242 -164c0 -32 -22 -57 -52 -57c-25 0 -45 20 -45 45c0 22 16 39 33 43c-18 34 -83 82 -178 82c-160 0 -271 -141 -271 -294c0 -145 113 -286 275 -286c80 0 147 28 210 84l31 -41
c-67 -64 -157 -94 -241 -94zM358 719l-12 19l125 115c13 12 25 20 38 20c18 0 36 -14 36 -39c0 -12 -14 -28 -35 -39z" />
    <glyph glyph-name="cacute" unicode="&#x107;" horiz-adv-x="461" 
d="M265 -8c-126 0 -219 96 -219 215c0 120 94 221 208 221c87 0 163 -57 163 -119c0 -26 -19 -50 -47 -50c-16 0 -36 10 -36 38c0 14 8 26 24 34c-13 33 -62 51 -104 51c-69 0 -154 -60 -154 -176c0 -96 67 -167 172 -167c46 0 89 15 136 47l-5 -52
c-41 -30 -100 -42 -138 -42zM212 509l-12 19l125 115c13 12 25 20 38 20c18 0 36 -14 36 -39c0 -12 -14 -28 -35 -39z" />
    <glyph glyph-name="cacute.sc" horiz-adv-x="549" 
d="M464 105l30 -36c-50 -50 -120 -78 -190 -78c-151 0 -254 114 -254 260c0 143 106 261 256 261c103 0 185 -65 185 -124c0 -29 -18 -50 -44 -50c-24 0 -41 17 -41 40c0 17 10 28 21 33c-14 22 -56 53 -121 53c-117 0 -202 -92 -202 -213c0 -124 85 -212 200 -212
c63 0 115 24 160 66zM259 569l-12 19l125 115c13 12 25 20 38 20c18 0 36 -14 36 -39c0 -12 -14 -28 -35 -39z" />
    <glyph glyph-name="Ccaron" unicode="&#x10c;" horiz-adv-x="702" 
d="M393 -12c-203 0 -333 167 -333 336c0 206 158 346 329 346c132 0 242 -85 242 -164c0 -32 -22 -57 -52 -57c-25 0 -45 20 -45 45c0 22 16 39 33 43c-18 34 -83 82 -178 82c-160 0 -271 -141 -271 -294c0 -145 113 -286 275 -286c80 0 147 28 210 84l31 -41
c-67 -64 -157 -94 -241 -94zM514 881l25 -30l-144 -134l-144 134l25 30l119 -91z" />
    <glyph glyph-name="ccaron" unicode="&#x10d;" horiz-adv-x="461" 
d="M265 -8c-126 0 -219 96 -219 215c0 120 94 221 208 221c87 0 163 -57 163 -119c0 -26 -19 -50 -47 -50c-16 0 -36 10 -36 38c0 14 8 26 24 34c-13 33 -62 51 -104 51c-69 0 -154 -60 -154 -176c0 -96 67 -167 172 -167c46 0 89 15 136 47l-5 -52
c-41 -30 -100 -42 -138 -42zM368 671l25 -30l-144 -134l-144 134l25 30l119 -91z" />
    <glyph glyph-name="ccaron.sc" horiz-adv-x="549" 
d="M464 105l30 -36c-50 -50 -120 -78 -190 -78c-151 0 -254 114 -254 260c0 143 106 261 256 261c103 0 185 -65 185 -124c0 -29 -18 -50 -44 -50c-24 0 -41 17 -41 40c0 17 10 28 21 33c-14 22 -56 53 -121 53c-117 0 -202 -92 -202 -213c0 -124 85 -212 200 -212
c63 0 115 24 160 66zM415 731l25 -30l-144 -134l-144 134l25 30l119 -91z" />
    <glyph glyph-name="Ccedilla" unicode="&#xc7;" horiz-adv-x="702" 
d="M390 -199c-36 0 -75 10 -106 26l14 32c22 -10 61 -19 87 -19c27 0 44 12 44 31c0 21 -20 33 -50 33c-6 0 -19 -2 -22 -3l-17 12l21 76c-185 16 -301 175 -301 335c0 206 158 346 329 346c132 0 242 -85 242 -164c0 -32 -22 -57 -52 -57c-25 0 -45 20 -45 45
c0 22 16 39 33 43c-18 34 -83 82 -178 82c-160 0 -271 -141 -271 -294c0 -145 113 -286 275 -286c80 0 147 28 210 84l31 -41c-66 -63 -155 -93 -238 -94l-4 -38c61 -1 88 -35 88 -74c0 -41 -30 -75 -90 -75z" />
    <glyph glyph-name="ccedilla" unicode="&#xe7;" horiz-adv-x="500" 
d="M260 -199c-36 0 -75 10 -106 26l14 32c22 -10 61 -19 87 -19c27 0 44 12 44 31c0 21 -20 33 -50 33c-6 0 -19 -2 -22 -3l-17 12l22 82c-109 14 -186 103 -186 212c0 120 94 221 208 221c87 0 163 -57 163 -119c0 -26 -19 -50 -47 -50c-16 0 -36 10 -36 38
c0 14 8 26 24 34c-13 33 -62 51 -104 51c-69 0 -154 -60 -154 -176c0 -96 67 -167 172 -167c46 0 89 15 136 47l-5 -52c-41 -30 -98 -41 -136 -42l-5 -42c61 -1 88 -35 88 -74c0 -41 -30 -75 -90 -75z" />
    <glyph glyph-name="ccedilla.sc" horiz-adv-x="549" 
d="M299 -199c-36 0 -75 10 -106 26l14 32c22 -10 61 -19 87 -19c27 0 44 12 44 31c0 21 -20 33 -50 33c-6 0 -19 -2 -22 -3l-17 12l22 80c-133 15 -221 123 -221 258c0 143 106 261 256 261c103 0 185 -65 185 -124c0 -29 -18 -50 -44 -50c-24 0 -41 17 -41 40
c0 17 10 28 21 33c-14 22 -56 53 -121 53c-117 0 -202 -92 -202 -213c0 -124 85 -212 200 -212c63 0 115 24 160 66l30 -36c-50 -50 -119 -77 -188 -78l-5 -41c61 -1 88 -35 88 -74c0 -41 -30 -75 -90 -75z" />
    <glyph glyph-name="Cdotaccent" unicode="&#x10a;" horiz-adv-x="702" 
d="M393 -12c-203 0 -333 167 -333 336c0 206 158 346 329 346c132 0 242 -85 242 -164c0 -32 -22 -57 -52 -57c-25 0 -45 20 -45 45c0 22 16 39 33 43c-18 34 -83 82 -178 82c-160 0 -271 -141 -271 -294c0 -145 113 -286 275 -286c80 0 147 28 210 84l31 -41
c-67 -64 -157 -94 -241 -94zM395 733c-29 0 -51 24 -51 53s22 53 51 53s51 -24 51 -53s-22 -53 -51 -53z" />
    <glyph glyph-name="cdotaccent" unicode="&#x10b;" horiz-adv-x="461" 
d="M265 -8c-126 0 -219 96 -219 215c0 120 94 221 208 221c87 0 163 -57 163 -119c0 -26 -19 -50 -47 -50c-16 0 -36 10 -36 38c0 14 8 26 24 34c-13 33 -62 51 -104 51c-69 0 -154 -60 -154 -176c0 -96 67 -167 172 -167c46 0 89 15 136 47l-5 -52
c-41 -30 -100 -42 -138 -42zM249 523c-29 0 -51 24 -51 53s22 53 51 53s51 -24 51 -53s-22 -53 -51 -53z" />
    <glyph glyph-name="cdotaccent.sc" horiz-adv-x="549" 
d="M464 105l30 -36c-50 -50 -120 -78 -190 -78c-151 0 -254 114 -254 260c0 143 106 261 256 261c103 0 185 -65 185 -124c0 -29 -18 -50 -44 -50c-24 0 -41 17 -41 40c0 17 10 28 21 33c-14 22 -56 53 -121 53c-117 0 -202 -92 -202 -213c0 -124 85 -212 200 -212
c63 0 115 24 160 66zM296 583c-29 0 -51 24 -51 53s22 53 51 53s51 -24 51 -53s-22 -53 -51 -53z" />
    <glyph glyph-name="Dcaron" unicode="&#x10e;" horiz-adv-x="735" 
d="M52 0v50h88v558h-88v50h245c226 0 378 -128 378 -322c0 -197 -142 -336 -376 -336h-247zM197 50h107c209 0 313 119 313 288c0 164 -125 270 -321 270h-99v-558zM464 881l25 -30l-144 -134l-144 134l25 30l119 -91z" />
    <glyph glyph-name="dcaron" unicode="&#x10f;" horiz-adv-x="545" 
d="M250 -8c-111 0 -202 85 -202 215c0 118 80 221 212 221c51 0 100 -19 137 -54v312h-87v46h138v-686h70v-46h-119v65c-37 -44 -83 -73 -149 -73zM253 38c61 0 107 30 144 71v219c-34 30 -77 54 -139 54c-94 0 -155 -77 -156 -174c-1 -100 63 -170 151 -170zM504 525
l-18 14c23 33 34 62 34 99c0 25 -5 38 -5 58c0 21 12 38 36 38s36 -16 36 -41c0 -57 -36 -119 -83 -168z" />
    <glyph glyph-name="dcaron.sc" horiz-adv-x="606" 
d="M190 46h84c152 0 229 86 229 211c0 123 -92 198 -235 198h-78v-409zM268 0h-220v46h90v409h-90v46h220c176 0 288 -95 288 -245c0 -152 -105 -256 -288 -256zM406 731l25 -30l-144 -134l-144 134l25 30l119 -91z" />
    <glyph glyph-name="Dcroat" unicode="&#x110;" horiz-adv-x="740" 
d="M145 312h-68v50h68v246h-88v50h245c226 0 378 -128 378 -322c0 -197 -142 -336 -376 -336h-247v50h88v262zM202 50h107c209 0 313 119 313 288c0 164 -125 270 -321 270h-99v-246h155v-50h-155v-262z" />
    <glyph glyph-name="dcroat" unicode="&#x111;" horiz-adv-x="545" 
d="M238 531v47h159v108h-87v46h138v-154h70v-47h-70v-485h70v-46h-119v65c-37 -44 -83 -73 -149 -73c-111 0 -202 85 -202 215c0 118 80 221 212 221c51 0 100 -19 137 -54v157h-159zM253 38c61 0 107 30 144 71v219c-34 30 -77 54 -139 54c-94 0 -155 -77 -156 -174
c-1 -100 63 -170 151 -170z" />
    <glyph glyph-name="dcroat.sc" horiz-adv-x="606" 
d="M268 0h-220v46h90v188h-70v46h70v175h-90v46h220c176 0 288 -95 288 -245c0 -152 -105 -256 -288 -256zM190 46h84c152 0 229 86 229 211c0 123 -92 198 -235 198h-78v-175h118v-46h-118v-188z" />
    <glyph glyph-name="Eacute" unicode="&#xc9;" horiz-adv-x="593" 
d="M52 0v50h88v558h-88v50h472v-149h-55v99h-272v-247h223v-50h-223v-261h272v99h55v-149h-472zM251 719l-12 19l125 115c13 12 25 20 38 20c18 0 36 -14 36 -39c0 -12 -14 -28 -35 -39z" />
    <glyph glyph-name="eacute" unicode="&#xe9;" horiz-adv-x="478" 
d="M431 198h-333c8 -106 72 -159 173 -159c58 0 95 18 145 47l-5 -52c-43 -28 -97 -42 -147 -42c-133 0 -220 90 -220 217c0 115 76 219 203 219c121 0 187 -95 187 -197c0 -15 -1 -24 -3 -33zM242 382c-73 0 -133 -54 -143 -139h283c-6 82 -52 139 -140 139zM202 509
l-12 19l125 115c13 12 25 20 38 20c18 0 36 -14 36 -39c0 -12 -14 -28 -35 -39z" />
    <glyph glyph-name="eacute.sc" horiz-adv-x="510" 
d="M450 0h-402v46h90v409h-90v46h402v-137h-50v91h-210v-178h172v-47h-172v-184h210v91h50v-137zM212 569l-12 19l125 115c13 12 25 20 38 20c18 0 36 -14 36 -39c0 -12 -14 -28 -35 -39z" />
    <glyph glyph-name="Ebreve" unicode="&#x114;" horiz-adv-x="593" 
d="M52 0v50h88v558h-88v50h472v-149h-55v99h-272v-247h223v-50h-223v-261h272v99h55v-149h-472zM288 719c-71 0 -125 53 -148 119l40 19c19 -51 63 -81 108 -81c50 0 90 35 108 81l40 -19c-23 -66 -77 -119 -148 -119z" />
    <glyph glyph-name="ebreve" unicode="&#x115;" horiz-adv-x="478" 
d="M431 198h-333c8 -106 72 -159 173 -159c58 0 95 18 145 47l-5 -52c-43 -28 -97 -42 -147 -42c-133 0 -220 90 -220 217c0 115 76 219 203 219c121 0 187 -95 187 -197c0 -15 -1 -24 -3 -33zM242 382c-73 0 -133 -54 -143 -139h283c-6 82 -52 139 -140 139zM239 509
c-71 0 -125 53 -148 119l40 19c19 -51 63 -81 108 -81c50 0 90 35 108 81l40 -19c-23 -66 -77 -119 -148 -119z" />
    <glyph glyph-name="ebreve.sc" horiz-adv-x="510" 
d="M450 0h-402v46h90v409h-90v46h402v-137h-50v91h-210v-178h172v-47h-172v-184h210v91h50v-137zM249 569c-71 0 -125 53 -148 119l40 19c19 -51 63 -81 108 -81c50 0 90 35 108 81l40 -19c-23 -66 -77 -119 -148 -119z" />
    <glyph glyph-name="Ecaron" unicode="&#x11a;" horiz-adv-x="593" 
d="M52 0v50h88v558h-88v50h472v-149h-55v99h-272v-247h223v-50h-223v-261h272v99h55v-149h-472zM407 881l25 -30l-144 -134l-144 134l25 30l119 -91z" />
    <glyph glyph-name="ecaron" unicode="&#x11b;" horiz-adv-x="478" 
d="M431 198h-333c8 -106 72 -159 173 -159c58 0 95 18 145 47l-5 -52c-43 -28 -97 -42 -147 -42c-133 0 -220 90 -220 217c0 115 76 219 203 219c121 0 187 -95 187 -197c0 -15 -1 -24 -3 -33zM242 382c-73 0 -133 -54 -143 -139h283c-6 82 -52 139 -140 139zM358 671
l25 -30l-144 -134l-144 134l25 30l119 -91z" />
    <glyph glyph-name="ecaron.sc" horiz-adv-x="510" 
d="M450 0h-402v46h90v409h-90v46h402v-137h-50v91h-210v-178h172v-47h-172v-184h210v91h50v-137zM368 731l25 -30l-144 -134l-144 134l25 30l119 -91z" />
    <glyph glyph-name="Ecircumflex" unicode="&#xca;" horiz-adv-x="593" 
d="M52 0v50h88v558h-88v50h472v-149h-55v99h-272v-247h223v-50h-223v-261h272v99h55v-149h-472zM169 713l-25 30l144 134l144 -134l-25 -30l-119 91z" />
    <glyph glyph-name="ecircumflex" unicode="&#xea;" horiz-adv-x="478" 
d="M431 198h-333c8 -106 72 -159 173 -159c58 0 95 18 145 47l-5 -52c-43 -28 -97 -42 -147 -42c-133 0 -220 90 -220 217c0 115 76 219 203 219c121 0 187 -95 187 -197c0 -15 -1 -24 -3 -33zM242 382c-73 0 -133 -54 -143 -139h283c-6 82 -52 139 -140 139zM120 503
l-25 30l144 134l144 -134l-25 -30l-119 91z" />
    <glyph glyph-name="ecircumflex.sc" horiz-adv-x="510" 
d="M450 0h-402v46h90v409h-90v46h402v-137h-50v91h-210v-178h172v-47h-172v-184h210v91h50v-137zM130 563l-25 30l144 134l144 -134l-25 -30l-119 91z" />
    <glyph glyph-name="Edieresis" unicode="&#xcb;" horiz-adv-x="593" 
d="M52 0v50h88v558h-88v50h472v-149h-55v99h-272v-247h223v-50h-223v-261h272v99h55v-149h-472zM368 735c-28 0 -49 23 -49 51s21 51 49 51s49 -23 49 -51s-21 -51 -49 -51zM208 735c-28 0 -49 23 -49 51s21 51 49 51s49 -23 49 -51s-21 -51 -49 -51z" />
    <glyph glyph-name="edieresis" unicode="&#xeb;" horiz-adv-x="478" 
d="M431 198h-333c8 -106 72 -159 173 -159c58 0 95 18 145 47l-5 -52c-43 -28 -97 -42 -147 -42c-133 0 -220 90 -220 217c0 115 76 219 203 219c121 0 187 -95 187 -197c0 -15 -1 -24 -3 -33zM242 382c-73 0 -133 -54 -143 -139h283c-6 82 -52 139 -140 139zM319 525
c-28 0 -49 23 -49 51s21 51 49 51s49 -23 49 -51s-21 -51 -49 -51zM159 525c-28 0 -49 23 -49 51s21 51 49 51s49 -23 49 -51s-21 -51 -49 -51z" />
    <glyph glyph-name="edieresis.sc" horiz-adv-x="510" 
d="M450 0h-402v46h90v409h-90v46h402v-137h-50v91h-210v-178h172v-47h-172v-184h210v91h50v-137zM329 585c-28 0 -49 23 -49 51s21 51 49 51s49 -23 49 -51s-21 -51 -49 -51zM169 585c-28 0 -49 23 -49 51s21 51 49 51s49 -23 49 -51s-21 -51 -49 -51z" />
    <glyph glyph-name="Edotaccent" unicode="&#x116;" horiz-adv-x="593" 
d="M52 0v50h88v558h-88v50h472v-149h-55v99h-272v-247h223v-50h-223v-261h272v99h55v-149h-472zM288 733c-29 0 -51 24 -51 53s22 53 51 53s51 -24 51 -53s-22 -53 -51 -53z" />
    <glyph glyph-name="edotaccent" unicode="&#x117;" horiz-adv-x="478" 
d="M431 198h-333c8 -106 72 -159 173 -159c58 0 95 18 145 47l-5 -52c-43 -28 -97 -42 -147 -42c-133 0 -220 90 -220 217c0 115 76 219 203 219c121 0 187 -95 187 -197c0 -15 -1 -24 -3 -33zM242 382c-73 0 -133 -54 -143 -139h283c-6 82 -52 139 -140 139zM239 523
c-29 0 -51 24 -51 53s22 53 51 53s51 -24 51 -53s-22 -53 -51 -53z" />
    <glyph glyph-name="edotaccent.sc" horiz-adv-x="510" 
d="M450 0h-402v46h90v409h-90v46h402v-137h-50v91h-210v-178h172v-47h-172v-184h210v91h50v-137zM249 583c-29 0 -51 24 -51 53s22 53 51 53s51 -24 51 -53s-22 -53 -51 -53z" />
    <glyph glyph-name="Egrave" unicode="&#xc8;" horiz-adv-x="593" 
d="M52 0v50h88v558h-88v50h472v-149h-55v99h-272v-247h223v-50h-223v-261h272v99h55v-149h-472zM325 719l-152 76c-21 11 -35 27 -35 39c0 25 18 39 36 39c13 0 25 -8 38 -20l125 -115z" />
    <glyph glyph-name="egrave" unicode="&#xe8;" horiz-adv-x="478" 
d="M431 198h-333c8 -106 72 -159 173 -159c58 0 95 18 145 47l-5 -52c-43 -28 -97 -42 -147 -42c-133 0 -220 90 -220 217c0 115 76 219 203 219c121 0 187 -95 187 -197c0 -15 -1 -24 -3 -33zM242 382c-73 0 -133 -54 -143 -139h283c-6 82 -52 139 -140 139zM276 509
l-152 76c-21 11 -35 27 -35 39c0 25 18 39 36 39c13 0 25 -8 38 -20l125 -115z" />
    <glyph glyph-name="egrave.sc" horiz-adv-x="510" 
d="M450 0h-402v46h90v409h-90v46h402v-137h-50v91h-210v-178h172v-47h-172v-184h210v91h50v-137zM286 569l-152 76c-21 11 -35 27 -35 39c0 25 18 39 36 39c13 0 25 -8 38 -20l125 -115z" />
    <glyph glyph-name="Emacron" unicode="&#x112;" horiz-adv-x="593" 
d="M52 0v50h88v558h-88v50h472v-149h-55v99h-272v-247h223v-50h-223v-261h272v99h55v-149h-472zM143 750v52h290v-52h-290z" />
    <glyph glyph-name="emacron" unicode="&#x113;" horiz-adv-x="478" 
d="M431 198h-333c8 -106 72 -159 173 -159c58 0 95 18 145 47l-5 -52c-43 -28 -97 -42 -147 -42c-133 0 -220 90 -220 217c0 115 76 219 203 219c121 0 187 -95 187 -197c0 -15 -1 -24 -3 -33zM242 382c-73 0 -133 -54 -143 -139h283c-6 82 -52 139 -140 139zM94 540v52h290
v-52h-290z" />
    <glyph glyph-name="emacron.sc" horiz-adv-x="510" 
d="M450 0h-402v46h90v409h-90v46h402v-137h-50v91h-210v-178h172v-47h-172v-184h210v91h50v-137zM104 600v52h290v-52h-290z" />
    <glyph glyph-name="Eogonek" unicode="&#x118;" horiz-adv-x="593" 
d="M52 0v50h88v558h-88v50h472v-149h-55v99h-272v-247h223v-50h-223v-261h272v99h55v-149h-53c-51 -23 -86 -60 -86 -102c0 -32 18 -54 57 -54c32 0 59 9 81 20l-3 -42c-14 -10 -47 -23 -83 -23c-68 0 -102 36 -102 89c0 45 29 85 70 112h-353z" />
    <glyph glyph-name="eogonek" unicode="&#x119;" horiz-adv-x="478" 
d="M431 198h-333c8 -106 72 -159 173 -159c58 0 95 18 145 47l-5 -51c-61 -36 -146 -73 -146 -137c0 -32 18 -54 57 -54c32 0 59 9 81 20l-3 -42c-14 -10 -47 -23 -83 -23c-68 0 -102 36 -102 89c0 44 23 79 57 104h-8c-133 0 -220 90 -220 217c0 115 76 219 203 219
c121 0 187 -95 187 -197c0 -15 -1 -24 -3 -33zM242 382c-73 0 -133 -54 -143 -139h283c-6 82 -52 139 -140 139z" />
    <glyph glyph-name="eogonek.sc" horiz-adv-x="510" 
d="M364 -201c-68 0 -102 36 -102 89c0 45 29 85 70 112h-284v46h90v409h-90v46h402v-137h-50v91h-210v-178h172v-47h-172v-184h210v91h50v-137h-52c-51 -23 -86 -60 -86 -102c0 -32 18 -54 57 -54c32 0 59 9 81 20l-3 -42c-14 -10 -47 -23 -83 -23z" />
    <glyph glyph-name="Eth" unicode="&#xd0;" horiz-adv-x="740" 
d="M145 312h-68v50h68v246h-88v50h245c226 0 378 -128 378 -322c0 -197 -142 -336 -376 -336h-247v50h88v262zM202 50h107c209 0 313 119 313 288c0 164 -125 270 -321 270h-99v-246h155v-50h-155v-262z" />
    <glyph glyph-name="eth" unicode="&#xf0;" horiz-adv-x="521" 
d="M177 462l-30 36l124 112c-46 44 -93 72 -126 78c0 -20 -16 -40 -40 -40c-22 0 -42 18 -42 45c0 24 22 46 57 46c22 0 49 -7 78 -21c34 -17 72 -42 107 -76l99 89l30 -35l-97 -88c75 -86 136 -210 136 -361c0 -87 -24 -156 -68 -200c-36 -36 -85 -55 -144 -55
c-127 0 -213 93 -213 207c0 115 86 208 213 208c66 0 133 -37 162 -91c-8 100 -60 193 -120 261zM420 209c0 85 -65 152 -159 152s-159 -67 -159 -162s65 -161 159 -161c47 0 83 18 110 46c32 34 49 81 49 125z" />
    <glyph glyph-name="eth.sc" horiz-adv-x="606" 
d="M268 0h-220v46h90v188h-70v46h70v175h-90v46h220c176 0 288 -95 288 -245c0 -152 -105 -256 -288 -256zM190 46h84c152 0 229 86 229 211c0 123 -92 198 -235 198h-78v-175h118v-46h-118v-188z" />
    <glyph glyph-name="Gbreve" unicode="&#x11e;" horiz-adv-x="742" 
d="M382 -12c-167 0 -322 125 -322 334c0 211 161 348 339 348c146 0 243 -83 243 -149c0 -32 -20 -53 -48 -53c-25 0 -45 20 -45 45c0 18 9 31 22 39c-28 33 -93 67 -174 67c-168 0 -279 -134 -279 -297c0 -170 121 -284 268 -284c78 0 147 26 211 72v152h-190v49h246v-311
h-54v60c-62 -45 -129 -72 -217 -72zM382 719c-71 0 -125 53 -148 119l40 19c19 -51 63 -81 108 -81c50 0 90 35 108 81l40 -19c-23 -66 -77 -119 -148 -119z" />
    <glyph glyph-name="gbreve" unicode="&#x11f;" horiz-adv-x="555" 
d="M452 374v-394c0 -53 -14 -92 -38 -120c-37 -44 -98 -60 -162 -60c-63 0 -109 19 -132 42c-14 14 -21 30 -21 46c0 28 19 47 45 47c21 0 34 -17 34 -37c0 -11 -4 -22 -12 -33c10 -8 42 -19 92 -19c44 0 88 11 116 44c16 20 27 47 27 85v92c-36 -38 -82 -67 -149 -67
c-112 0 -204 89 -204 211c0 110 81 217 214 217c57 0 105 -22 141 -57v49h119v-46h-70zM260 382c-95 0 -158 -79 -158 -170c0 -94 64 -166 153 -166c62 0 109 30 146 71v211c-34 30 -78 54 -141 54zM285 509c-71 0 -125 53 -148 119l40 19c19 -51 63 -81 108 -81
c50 0 90 35 108 81l40 -19c-23 -66 -77 -119 -148 -119z" />
    <glyph glyph-name="gbreve.sc" horiz-adv-x="587" 
d="M310 465c-124 0 -206 -96 -206 -217c0 -126 91 -209 197 -209c63 0 114 18 160 49v112h-142v46h193v-246h-50v42c-44 -32 -95 -51 -165 -51c-127 0 -247 97 -247 256s121 265 262 265c116 0 192 -64 192 -117c0 -29 -18 -48 -43 -48c-23 0 -40 16 -40 38c0 16 9 27 18 32
c-20 22 -67 48 -129 48zM301 569c-71 0 -125 53 -148 119l40 19c19 -51 63 -81 108 -81c50 0 90 35 108 81l40 -19c-23 -66 -77 -119 -148 -119z" />
    <glyph glyph-name="Gcommaaccent" unicode="&#x122;" horiz-adv-x="742" 
d="M382 -12c-167 0 -322 125 -322 334c0 211 161 348 339 348c146 0 243 -83 243 -149c0 -32 -20 -53 -48 -53c-25 0 -45 20 -45 45c0 18 9 31 22 39c-28 33 -93 67 -174 67c-168 0 -279 -134 -279 -297c0 -170 121 -284 268 -284c78 0 147 26 211 72v152h-190v49h246v-311
h-54v60c-62 -45 -129 -72 -217 -72zM317 -262l-11 18c56 42 72 79 73 101c-22 3 -40 21 -40 43c0 26 20 44 42 44c27 0 48 -21 48 -59c0 -44 -29 -104 -112 -147z" />
    <glyph glyph-name="gcommaaccent" unicode="&#x123;" horiz-adv-x="555" 
d="M452 374v-394c0 -53 -14 -92 -38 -120c-37 -44 -98 -60 -162 -60c-63 0 -109 19 -132 42c-14 14 -21 30 -21 46c0 28 19 47 45 47c21 0 34 -17 34 -37c0 -11 -4 -22 -12 -33c10 -8 42 -19 92 -19c44 0 88 11 116 44c16 20 27 47 27 85v92c-36 -38 -82 -67 -149 -67
c-112 0 -204 89 -204 211c0 110 81 217 214 217c57 0 105 -22 141 -57v49h119v-46h-70zM260 382c-95 0 -158 -79 -158 -170c0 -94 64 -166 153 -166c62 0 109 30 146 71v211c-34 30 -78 54 -141 54zM338 740l11 -18c-56 -42 -72 -79 -73 -101c22 -3 40 -21 40 -43
c0 -26 -20 -44 -42 -44c-27 0 -48 21 -48 59c0 44 29 104 112 147z" />
    <glyph glyph-name="gcommaaccent.sc" horiz-adv-x="587" 
d="M310 465c-124 0 -206 -96 -206 -217c0 -126 91 -209 197 -209c63 0 114 18 160 49v112h-142v46h193v-246h-50v42c-44 -32 -95 -51 -165 -51c-127 0 -247 97 -247 256s121 265 262 265c116 0 192 -64 192 -117c0 -29 -18 -48 -43 -48c-23 0 -40 16 -40 38c0 16 9 27 18 32
c-20 22 -67 48 -129 48zM236 -262l-11 18c56 42 72 79 73 101c-22 3 -40 21 -40 43c0 26 20 44 42 44c27 0 48 -21 48 -59c0 -44 -29 -104 -112 -147z" />
    <glyph glyph-name="Gdotaccent" unicode="&#x120;" horiz-adv-x="742" 
d="M382 -12c-167 0 -322 125 -322 334c0 211 161 348 339 348c146 0 243 -83 243 -149c0 -32 -20 -53 -48 -53c-25 0 -45 20 -45 45c0 18 9 31 22 39c-28 33 -93 67 -174 67c-168 0 -279 -134 -279 -297c0 -170 121 -284 268 -284c78 0 147 26 211 72v152h-190v49h246v-311
h-54v60c-62 -45 -129 -72 -217 -72zM382 733c-29 0 -51 24 -51 53s22 53 51 53s51 -24 51 -53s-22 -53 -51 -53z" />
    <glyph glyph-name="gdotaccent" unicode="&#x121;" horiz-adv-x="555" 
d="M452 374v-394c0 -53 -14 -92 -38 -120c-37 -44 -98 -60 -162 -60c-63 0 -109 19 -132 42c-14 14 -21 30 -21 46c0 28 19 47 45 47c21 0 34 -17 34 -37c0 -11 -4 -22 -12 -33c10 -8 42 -19 92 -19c44 0 88 11 116 44c16 20 27 47 27 85v92c-36 -38 -82 -67 -149 -67
c-112 0 -204 89 -204 211c0 110 81 217 214 217c57 0 105 -22 141 -57v49h119v-46h-70zM260 382c-95 0 -158 -79 -158 -170c0 -94 64 -166 153 -166c62 0 109 30 146 71v211c-34 30 -78 54 -141 54zM285 523c-29 0 -51 24 -51 53s22 53 51 53s51 -24 51 -53s-22 -53 -51 -53
z" />
    <glyph glyph-name="gdotaccent.sc" horiz-adv-x="587" 
d="M310 465c-124 0 -206 -96 -206 -217c0 -126 91 -209 197 -209c63 0 114 18 160 49v112h-142v46h193v-246h-50v42c-44 -32 -95 -51 -165 -51c-127 0 -247 97 -247 256s121 265 262 265c116 0 192 -64 192 -117c0 -29 -18 -48 -43 -48c-23 0 -40 16 -40 38c0 16 9 27 18 32
c-20 22 -67 48 -129 48zM301 583c-29 0 -51 24 -51 53s22 53 51 53s51 -24 51 -53s-22 -53 -51 -53z" />
    <glyph glyph-name="Hbar" unicode="&#x126;" horiz-adv-x="786" 
d="M72 468v48h68v92h-88v50h233v-50h-88v-92h392v92h-88v50h233v-50h-88v-92h68v-48h-68v-418h88v-50h-233v50h88v263h-392v-263h88v-50h-233v50h88v418h-68zM197 364h392v104h-392v-104z" />
    <glyph glyph-name="hbar" unicode="&#x127;" horiz-adv-x="552" 
d="M103 686h-70v46h121v-154h159v-47h-159v-192c41 51 101 89 161 89c52 0 87 -17 109 -45c19 -25 28 -59 28 -98v-239h70v-46h-191v46h70v232c0 33 -7 56 -21 73c-16 20 -42 29 -74 29c-60 0 -113 -38 -152 -86v-248h70v-46h-191v46h70v485h-70v47h70v108z" />
    <glyph glyph-name="hbar.sc" horiz-adv-x="673" 
d="M605 389v-46h-70v-297h90v-46h-233v46h91v183h-293v-183h91v-46h-233v46h90v297h-70v46h70v66h-90v46h233v-46h-91v-66h293v66h-91v46h233v-46h-90v-66h70zM190 277h293v66h-293v-66z" />
    <glyph glyph-name="Iacute" unicode="&#xcd;" horiz-adv-x="349" 
d="M53 0v50h93v558h-93v50h243v-50h-93v-558h93v-50h-243zM137 719l-12 19l125 115c13 12 25 20 38 20c18 0 36 -14 36 -39c0 -12 -14 -28 -35 -39z" />
    <glyph glyph-name="iacute" unicode="&#xed;" horiz-adv-x="283" 
d="M48 0v46h74v328h-74v46h125v-374h75v-46h-200zM107 509l-12 19l125 115c13 12 25 20 38 20c18 0 36 -14 36 -39c0 -12 -14 -28 -35 -39z" />
    <glyph glyph-name="iacute.sc" horiz-adv-x="332" 
d="M284 0h-236v46h92v409h-92v46h236v-46h-92v-409h92v-46zM129 569l-12 19l125 115c13 12 25 20 38 20c18 0 36 -14 36 -39c0 -12 -14 -28 -35 -39z" />
    <glyph glyph-name="Ibreve" unicode="&#x12c;" horiz-adv-x="349" 
d="M53 0v50h93v558h-93v50h243v-50h-93v-558h93v-50h-243zM174 719c-71 0 -125 53 -148 119l40 19c19 -51 63 -81 108 -81c50 0 90 35 108 81l40 -19c-23 -66 -77 -119 -148 -119z" />
    <glyph glyph-name="ibreve" unicode="&#x12d;" horiz-adv-x="283" 
d="M48 0v46h74v328h-74v46h125v-374h75v-46h-200zM144 509c-71 0 -125 53 -148 119l40 19c19 -51 63 -81 108 -81c50 0 90 35 108 81l40 -19c-23 -66 -77 -119 -148 -119z" />
    <glyph glyph-name="ibreve.sc" horiz-adv-x="332" 
d="M284 0h-236v46h92v409h-92v46h236v-46h-92v-409h92v-46zM166 569c-71 0 -125 53 -148 119l40 19c19 -51 63 -81 108 -81c50 0 90 35 108 81l40 -19c-23 -66 -77 -119 -148 -119z" />
    <glyph glyph-name="Icircumflex" unicode="&#xce;" horiz-adv-x="349" 
d="M53 0v50h93v558h-93v50h243v-50h-93v-558h93v-50h-243zM55 713l-25 30l144 134l144 -134l-25 -30l-119 91z" />
    <glyph glyph-name="icircumflex" unicode="&#xee;" horiz-adv-x="283" 
d="M48 0v46h74v328h-74v46h125v-374h75v-46h-200zM25 503l-25 30l144 134l144 -134l-25 -30l-119 91z" />
    <glyph glyph-name="icircumflex.sc" horiz-adv-x="332" 
d="M284 0h-236v46h92v409h-92v46h236v-46h-92v-409h92v-46zM47 563l-25 30l144 134l144 -134l-25 -30l-119 91z" />
    <glyph glyph-name="Idieresis" unicode="&#xcf;" horiz-adv-x="349" 
d="M53 0v50h93v558h-93v50h243v-50h-93v-558h93v-50h-243zM254 735c-28 0 -49 23 -49 51s21 51 49 51s49 -23 49 -51s-21 -51 -49 -51zM94 735c-28 0 -49 23 -49 51s21 51 49 51s49 -23 49 -51s-21 -51 -49 -51z" />
    <glyph glyph-name="idieresis" unicode="&#xef;" horiz-adv-x="283" 
d="M48 0v46h74v328h-74v46h125v-374h75v-46h-200zM224 525c-28 0 -49 23 -49 51s21 51 49 51s49 -23 49 -51s-21 -51 -49 -51zM64 525c-28 0 -49 23 -49 51s21 51 49 51s49 -23 49 -51s-21 -51 -49 -51z" />
    <glyph glyph-name="idieresis.sc" horiz-adv-x="332" 
d="M284 0h-236v46h92v409h-92v46h236v-46h-92v-409h92v-46zM246 585c-28 0 -49 23 -49 51s21 51 49 51s49 -23 49 -51s-21 -51 -49 -51zM86 585c-28 0 -49 23 -49 51s21 51 49 51s49 -23 49 -51s-21 -51 -49 -51z" />
    <glyph glyph-name="Idotaccent" unicode="&#x130;" horiz-adv-x="349" 
d="M53 0v50h93v558h-93v50h243v-50h-93v-558h93v-50h-243zM174 733c-29 0 -51 24 -51 53s22 53 51 53s51 -24 51 -53s-22 -53 -51 -53z" />
    <glyph glyph-name="idotaccent.sc" horiz-adv-x="332" 
d="M284 0h-236v46h92v409h-92v46h236v-46h-92v-409h92v-46zM166 583c-29 0 -51 24 -51 53s22 53 51 53s51 -24 51 -53s-22 -53 -51 -53z" />
    <glyph glyph-name="dotlessi" unicode="&#x131;" horiz-adv-x="283" 
d="M48 0v46h74v328h-74v46h125v-374h75v-46h-200z" />
    <glyph glyph-name="dotlessi.sc" horiz-adv-x="332" 
d="M284 0h-236v46h92v409h-92v46h236v-46h-92v-409h92v-46z" />
    <glyph glyph-name="Igrave" unicode="&#xcc;" horiz-adv-x="349" 
d="M53 0v50h93v558h-93v50h243v-50h-93v-558h93v-50h-243zM211 719l-152 76c-21 11 -35 27 -35 39c0 25 18 39 36 39c13 0 25 -8 38 -20l125 -115z" />
    <glyph glyph-name="igrave" unicode="&#xec;" horiz-adv-x="283" 
d="M48 0v46h74v328h-74v46h125v-374h75v-46h-200zM181 509l-152 76c-21 11 -35 27 -35 39c0 25 18 39 36 39c13 0 25 -8 38 -20l125 -115z" />
    <glyph glyph-name="igrave.sc" horiz-adv-x="332" 
d="M284 0h-236v46h92v409h-92v46h236v-46h-92v-409h92v-46zM203 569l-152 76c-21 11 -35 27 -35 39c0 25 18 39 36 39c13 0 25 -8 38 -20l125 -115z" />
    <glyph glyph-name="Imacron" unicode="&#x12a;" horiz-adv-x="349" 
d="M53 0v50h93v558h-93v50h243v-50h-93v-558h93v-50h-243zM29 750v52h290v-52h-290z" />
    <glyph glyph-name="imacron" unicode="&#x12b;" horiz-adv-x="283" 
d="M48 0v46h74v328h-74v46h125v-374h75v-46h-200zM-1 540v52h290v-52h-290z" />
    <glyph glyph-name="imacron.sc" horiz-adv-x="332" 
d="M284 0h-236v46h92v409h-92v46h236v-46h-92v-409h92v-46zM21 600v52h290v-52h-290z" />
    <glyph glyph-name="Iogonek" unicode="&#x12e;" horiz-adv-x="349" 
d="M53 0v50h93v558h-93v50h243v-50h-93v-558h93v-50h-75c-51 -23 -86 -60 -86 -102c0 -32 18 -54 57 -54c32 0 59 9 81 20l-3 -42c-14 -10 -47 -23 -83 -23c-68 0 -102 36 -102 89c0 45 29 85 70 112h-102z" />
    <glyph glyph-name="iogonek" unicode="&#x12f;" horiz-adv-x="283" 
d="M48 0v46h74v328h-74v46h125v-374h75v-46h-65c-51 -23 -86 -60 -86 -102c0 -32 18 -54 57 -54c32 0 59 9 81 20l-3 -42c-14 -10 -47 -23 -83 -23c-68 0 -102 36 -102 89c0 45 29 85 70 112h-69zM139 548c-26 0 -47 22 -47 48s21 48 47 48c25 0 46 -22 46 -48
s-21 -48 -46 -48z" />
    <glyph glyph-name="iogonek.sc" horiz-adv-x="332" 
d="M163 -201c-68 0 -102 36 -102 89c0 45 29 85 70 112h-83v46h92v409h-92v46h236v-46h-92v-409h92v-46h-87c-51 -23 -86 -60 -86 -102c0 -32 18 -54 57 -54c32 0 59 9 81 20l-3 -42c-14 -10 -47 -23 -83 -23z" />
    <glyph glyph-name="Kcommaaccent" unicode="&#x136;" horiz-adv-x="672" 
d="M52 0v50h88v558h-88v50h233v-50h-88v-315l314 315h-94v50h238v-50h-75l-227 -228l228 -330h81v-50h-119l-231 343l-115 -115v-178h88v-50h-233zM292 -262l-11 18c56 42 72 79 73 101c-22 3 -40 21 -40 43c0 26 20 44 42 44c27 0 48 -21 48 -59c0 -44 -29 -104 -112 -147z
" />
    <glyph glyph-name="kcommaaccent" unicode="&#x137;" horiz-adv-x="511" 
d="M33 0v46h70v640h-70v46h121v-530l200 174h-93v44h233v-46h-73l-149 -128l141 -200h81v-46h-109l-150 219l-81 -69v-104h75v-46h-196zM198 -262l-11 18c56 42 72 79 73 101c-22 3 -40 21 -40 43c0 26 20 44 42 44c27 0 48 -21 48 -59c0 -44 -29 -104 -112 -147z" />
    <glyph glyph-name="kcommaaccent.sc" horiz-adv-x="579" 
d="M486 454l-172 -173l166 -235h84v-46h-116l-170 245l-86 -85v-114h88l1 -46h-233v46h92v409h-92v46h227v-46h-83v-234l234 234h-80v46h209v-47h-69zM241 -262l-11 18c56 42 72 79 73 101c-22 3 -40 21 -40 43c0 26 20 44 42 44c27 0 48 -21 48 -59
c0 -44 -29 -104 -112 -147z" />
    <glyph glyph-name="Lacute" unicode="&#x139;" horiz-adv-x="557" 
d="M52 0v50h88v558h-88v50h238v-50h-93v-558h249v104h55v-154h-449zM149 734l-12 19l125 115c13 12 25 20 38 20c18 0 36 -14 36 -39c0 -12 -14 -28 -35 -39z" />
    <glyph glyph-name="lacute" unicode="&#x13a;" horiz-adv-x="271" 
d="M36 0v46h74v640h-74v46h125v-686h75v-46h-200zM119 764l-12 19l125 115c13 12 25 20 38 20c18 0 36 -14 36 -39c0 -12 -14 -28 -35 -39z" />
    <glyph glyph-name="lacute.sc" horiz-adv-x="480" 
d="M392 46v96h50v-142h-394v46h90v409h-90v46h235v-46h-93v-409h202zM143 569l-12 19l125 115c13 12 25 20 38 20c18 0 36 -14 36 -39c0 -12 -14 -28 -35 -39z" />
    <glyph glyph-name="Lcaron" unicode="&#x13d;" horiz-adv-x="557" 
d="M52 0v50h88v558h-88v50h238v-50h-93v-558h249v104h55v-154h-449zM339 451l-18 14c23 33 34 62 34 99c0 25 -5 38 -5 58c0 21 12 38 36 38s36 -16 36 -41c0 -57 -36 -119 -83 -168z" />
    <glyph glyph-name="lcaron" unicode="&#x13e;" horiz-adv-x="271" 
d="M36 0v46h74v640h-74v46h125v-686h75v-46h-200zM216 525l-18 14c23 33 34 62 34 99c0 25 -5 38 -5 58c0 21 12 38 36 38s36 -16 36 -41c0 -57 -36 -119 -83 -168z" />
    <glyph glyph-name="lcaron.sc" horiz-adv-x="480" 
d="M392 46v96h50v-142h-394v46h90v409h-90v46h235v-46h-93v-409h202zM322 292l-18 14c23 33 34 62 34 99c0 25 -5 38 -5 58c0 21 12 38 36 38s36 -16 36 -41c0 -57 -36 -119 -83 -168z" />
    <glyph glyph-name="Lcommaaccent" unicode="&#x13b;" horiz-adv-x="557" 
d="M52 0v50h88v558h-88v50h238v-50h-93v-558h249v104h55v-154h-449zM211 -262l-11 18c56 42 72 79 73 101c-22 3 -40 21 -40 43c0 26 20 44 42 44c27 0 48 -21 48 -59c0 -44 -29 -104 -112 -147z" />
    <glyph glyph-name="lcommaaccent" unicode="&#x13c;" horiz-adv-x="271" 
d="M36 0v46h74v640h-74v46h125v-686h75v-46h-200zM71 -262l-11 18c56 42 72 79 73 101c-22 3 -40 21 -40 43c0 26 20 44 42 44c27 0 48 -21 48 -59c0 -44 -29 -104 -112 -147z" />
    <glyph glyph-name="lcommaaccent.sc" horiz-adv-x="480" 
d="M392 46v96h50v-142h-394v46h90v409h-90v46h235v-46h-93v-409h202zM180 -262l-11 18c56 42 72 79 73 101c-22 3 -40 21 -40 43c0 26 20 44 42 44c27 0 48 -21 48 -59c0 -44 -29 -104 -112 -147z" />
    <glyph glyph-name="Ldot" unicode="&#x13f;" horiz-adv-x="557" 
d="M52 0v50h88v558h-88v50h238v-50h-93v-558h249v104h55v-154h-449zM447 294c-29 0 -51 24 -51 53s22 53 51 53s51 -24 51 -53s-22 -53 -51 -53z" />
    <glyph glyph-name="ldot" unicode="&#x140;" horiz-adv-x="291" 
d="M36 0v46h74v640h-74v46h125v-686h75v-46h-200zM281 284c-29 0 -51 24 -51 53s22 53 51 53s51 -24 51 -53s-22 -53 -51 -53z" />
    <glyph glyph-name="ldot.sc" horiz-adv-x="480" 
d="M392 46v96h50v-142h-394v46h90v409h-90v46h235v-46h-93v-409h202zM404 226c-29 0 -51 24 -51 53s22 53 51 53s51 -24 51 -53s-22 -53 -51 -53z" />
    <glyph glyph-name="Lslash" unicode="&#x141;" horiz-adv-x="566" 
d="M61 0v50h88v219l-82 -49l-25 42l107 63v283h-88v50h238v-50h-93v-249l155 93l25 -41l-180 -108v-253h249v104h55v-154h-449z" />
    <glyph glyph-name="lslash" unicode="&#x142;" horiz-adv-x="291" 
d="M46 0v46h74v321l-92 -55l-23 39l115 69v266h-74v46h125v-282l80 47l23 -38l-103 -62v-351h75v-46h-200z" />
    <glyph glyph-name="lslash.sc" horiz-adv-x="489" 
d="M401 46v96h50v-142h-394v46h90v156l-85 -46l-22 40l107 58v201h-90v46h235v-46h-93v-173l133 73l22 -40l-155 -84v-185h202z" />
    <glyph glyph-name="Nacute" unicode="&#x143;" horiz-adv-x="773" 
d="M617 -3l-423 564v-511h88v-50h-230v50h88v558h-88v50h138l405 -541v491h-88v50h227v-50h-85v-611h-32zM348 719l-12 19l125 115c13 12 25 20 38 20c18 0 36 -14 36 -39c0 -12 -14 -28 -35 -39z" />
    <glyph glyph-name="nacute" unicode="&#x144;" horiz-adv-x="559" 
d="M164 420v-83c39 50 103 91 162 91c57 0 93 -20 113 -54c14 -24 20 -54 20 -89v-239h70v-46h-191v46h70v232c0 25 -3 45 -11 61c-14 28 -40 41 -79 41c-60 0 -113 -38 -152 -86v-248h70v-46h-191v46h70v328h-70v46h119zM250 509l-12 19l125 115c13 12 25 20 38 20
c18 0 36 -14 36 -39c0 -12 -14 -28 -35 -39z" />
    <glyph glyph-name="nacute.sc" horiz-adv-x="657" 
d="M183 501l302 -396v350h-91v46h230v-46h-90v-458h-31l-318 419v-370h91v-46h-230v46h90v409h-90v46h137zM291 569l-12 19l125 115c13 12 25 20 38 20c18 0 36 -14 36 -39c0 -12 -14 -28 -35 -39z" />
    <glyph glyph-name="Ncaron" unicode="&#x147;" horiz-adv-x="773" 
d="M617 -3l-423 564v-511h88v-50h-230v50h88v558h-88v50h138l405 -541v491h-88v50h227v-50h-85v-611h-32zM504 881l25 -30l-144 -134l-144 134l25 30l119 -91z" />
    <glyph glyph-name="ncaron" unicode="&#x148;" horiz-adv-x="559" 
d="M164 420v-83c39 50 103 91 162 91c57 0 93 -20 113 -54c14 -24 20 -54 20 -89v-239h70v-46h-191v46h70v232c0 25 -3 45 -11 61c-14 28 -40 41 -79 41c-60 0 -113 -38 -152 -86v-248h70v-46h-191v46h70v328h-70v46h119zM406 671l25 -30l-144 -134l-144 134l25 30l119 -91z
" />
    <glyph glyph-name="ncaron.sc" horiz-adv-x="657" 
d="M183 501l302 -396v350h-91v46h230v-46h-90v-458h-31l-318 419v-370h91v-46h-230v46h90v409h-90v46h137zM447 731l25 -30l-144 -134l-144 134l25 30l119 -91z" />
    <glyph glyph-name="Ncommaaccent" unicode="&#x145;" horiz-adv-x="773" 
d="M617 -3l-423 564v-511h88v-50h-230v50h88v558h-88v50h138l405 -541v491h-88v50h227v-50h-85v-611h-32zM320 -262l-11 18c56 42 72 79 73 101c-22 3 -40 21 -40 43c0 26 20 44 42 44c27 0 48 -21 48 -59c0 -44 -29 -104 -112 -147z" />
    <glyph glyph-name="ncommaaccent" unicode="&#x146;" horiz-adv-x="559" 
d="M164 420v-83c39 50 103 91 162 91c57 0 93 -20 113 -54c14 -24 20 -54 20 -89v-239h70v-46h-191v46h70v232c0 25 -3 45 -11 61c-14 28 -40 41 -79 41c-60 0 -113 -38 -152 -86v-248h70v-46h-191v46h70v328h-70v46h119zM222 -262l-11 18c56 42 72 79 73 101
c-22 3 -40 21 -40 43c0 26 20 44 42 44c27 0 48 -21 48 -59c0 -44 -29 -104 -112 -147z" />
    <glyph glyph-name="ncommaaccent.sc" horiz-adv-x="657" 
d="M183 501l302 -396v350h-91v46h230v-46h-90v-458h-31l-318 419v-370h91v-46h-230v46h90v409h-90v46h137zM263 -262l-11 18c56 42 72 79 73 101c-22 3 -40 21 -40 43c0 26 20 44 42 44c27 0 48 -21 48 -59c0 -44 -29 -104 -112 -147z" />
    <glyph glyph-name="Ntilde" unicode="&#xd1;" horiz-adv-x="773" 
d="M617 -3l-423 564v-511h88v-50h-230v50h88v558h-88v50h138l405 -541v491h-88v50h227v-50h-85v-611h-32zM456 720c-39 0 -64 19 -88 39c-22 18 -33 25 -47 25c-24 0 -39 -25 -43 -58l-45 9c2 57 42 103 85 103c39 0 64 -19 88 -39c22 -18 33 -25 47 -25c24 0 39 25 43 58
l45 -9c-2 -57 -42 -103 -85 -103z" />
    <glyph glyph-name="ntilde" unicode="&#xf1;" horiz-adv-x="559" 
d="M164 420v-83c39 50 103 91 162 91c57 0 93 -20 113 -54c14 -24 20 -54 20 -89v-239h70v-46h-191v46h70v232c0 25 -3 45 -11 61c-14 28 -40 41 -79 41c-60 0 -113 -38 -152 -86v-248h70v-46h-191v46h70v328h-70v46h119zM358 510c-39 0 -64 19 -88 39c-22 18 -33 25 -47 25
c-24 0 -39 -25 -43 -58l-45 9c2 57 42 103 85 103c39 0 64 -19 88 -39c22 -18 33 -25 47 -25c24 0 39 25 43 58l45 -9c-2 -57 -42 -103 -85 -103z" />
    <glyph glyph-name="ntilde.sc" horiz-adv-x="657" 
d="M183 501l302 -396v350h-91v46h230v-46h-90v-458h-31l-318 419v-370h91v-46h-230v46h90v409h-90v46h137zM399 570c-39 0 -64 19 -88 39c-22 18 -33 25 -47 25c-24 0 -39 -25 -43 -58l-45 9c2 57 42 103 85 103c39 0 64 -19 88 -39c22 -18 33 -25 47 -25c24 0 39 25 43 58
l45 -9c-2 -57 -42 -103 -85 -103z" />
    <glyph glyph-name="Oacute" unicode="&#xd3;" horiz-adv-x="782" 
d="M389 -12c-188 0 -329 150 -329 340c0 193 142 342 333 342c188 0 329 -150 329 -340c0 -193 -142 -342 -333 -342zM391 40c161 0 273 127 273 288c0 162 -112 290 -273 290s-273 -127 -273 -288c0 -162 112 -290 273 -290zM354 719l-12 19l125 115c13 12 25 20 38 20
c18 0 36 -14 36 -39c0 -12 -14 -28 -35 -39z" />
    <glyph glyph-name="oacute" unicode="&#xf3;" horiz-adv-x="522" 
d="M261 -8c-127 0 -213 97 -213 218s86 218 213 218s213 -97 213 -218s-86 -218 -213 -218zM261 38c94 0 159 71 159 172c0 100 -65 172 -159 172s-159 -72 -159 -172c0 -101 65 -172 159 -172zM224 509l-12 19l125 115c13 12 25 20 38 20c18 0 36 -14 36 -39
c0 -12 -14 -28 -35 -39z" />
    <glyph glyph-name="oacute.sc" 
d="M305 512c151 0 255 -115 255 -260c0 -146 -104 -261 -256 -261c-150 0 -254 115 -254 261c0 145 104 260 255 260zM304 39c119 0 202 88 202 213c0 122 -83 212 -201 212s-201 -89 -201 -212c0 -125 83 -213 200 -213zM268 569l-12 19l125 115c13 12 25 20 38 20
c18 0 36 -14 36 -39c0 -12 -14 -28 -35 -39z" />
    <glyph glyph-name="Obreve" unicode="&#x14e;" horiz-adv-x="782" 
d="M389 -12c-188 0 -329 150 -329 340c0 193 142 342 333 342c188 0 329 -150 329 -340c0 -193 -142 -342 -333 -342zM391 40c161 0 273 127 273 288c0 162 -112 290 -273 290s-273 -127 -273 -288c0 -162 112 -290 273 -290zM391 719c-71 0 -125 53 -148 119l40 19
c19 -51 63 -81 108 -81c50 0 90 35 108 81l40 -19c-23 -66 -77 -119 -148 -119z" />
    <glyph glyph-name="obreve" unicode="&#x14f;" horiz-adv-x="522" 
d="M261 -8c-127 0 -213 97 -213 218s86 218 213 218s213 -97 213 -218s-86 -218 -213 -218zM261 38c94 0 159 71 159 172c0 100 -65 172 -159 172s-159 -72 -159 -172c0 -101 65 -172 159 -172zM261 509c-71 0 -125 53 -148 119l40 19c19 -51 63 -81 108 -81
c50 0 90 35 108 81l40 -19c-23 -66 -77 -119 -148 -119z" />
    <glyph glyph-name="obreve.sc" 
d="M305 512c151 0 255 -115 255 -260c0 -146 -104 -261 -256 -261c-150 0 -254 115 -254 261c0 145 104 260 255 260zM304 39c119 0 202 88 202 213c0 122 -83 212 -201 212s-201 -89 -201 -212c0 -125 83 -213 200 -213zM305 569c-71 0 -125 53 -148 119l40 19
c19 -51 63 -81 108 -81c50 0 90 35 108 81l40 -19c-23 -66 -77 -119 -148 -119z" />
    <glyph glyph-name="Ocircumflex" unicode="&#xd4;" horiz-adv-x="782" 
d="M389 -12c-188 0 -329 150 -329 340c0 193 142 342 333 342c188 0 329 -150 329 -340c0 -193 -142 -342 -333 -342zM391 40c161 0 273 127 273 288c0 162 -112 290 -273 290s-273 -127 -273 -288c0 -162 112 -290 273 -290zM272 713l-25 30l144 134l144 -134l-25 -30
l-119 91z" />
    <glyph glyph-name="ocircumflex" unicode="&#xf4;" horiz-adv-x="522" 
d="M261 -8c-127 0 -213 97 -213 218s86 218 213 218s213 -97 213 -218s-86 -218 -213 -218zM261 38c94 0 159 71 159 172c0 100 -65 172 -159 172s-159 -72 -159 -172c0 -101 65 -172 159 -172zM142 503l-25 30l144 134l144 -134l-25 -30l-119 91z" />
    <glyph glyph-name="ocircumflex.sc" 
d="M305 512c151 0 255 -115 255 -260c0 -146 -104 -261 -256 -261c-150 0 -254 115 -254 261c0 145 104 260 255 260zM304 39c119 0 202 88 202 213c0 122 -83 212 -201 212s-201 -89 -201 -212c0 -125 83 -213 200 -213zM186 563l-25 30l144 134l144 -134l-25 -30l-119 91z
" />
    <glyph glyph-name="Odieresis" unicode="&#xd6;" horiz-adv-x="782" 
d="M389 -12c-188 0 -329 150 -329 340c0 193 142 342 333 342c188 0 329 -150 329 -340c0 -193 -142 -342 -333 -342zM391 40c161 0 273 127 273 288c0 162 -112 290 -273 290s-273 -127 -273 -288c0 -162 112 -290 273 -290zM471 735c-28 0 -49 23 -49 51s21 51 49 51
s49 -23 49 -51s-21 -51 -49 -51zM311 735c-28 0 -49 23 -49 51s21 51 49 51s49 -23 49 -51s-21 -51 -49 -51z" />
    <glyph glyph-name="odieresis" unicode="&#xf6;" horiz-adv-x="522" 
d="M261 -8c-127 0 -213 97 -213 218s86 218 213 218s213 -97 213 -218s-86 -218 -213 -218zM261 38c94 0 159 71 159 172c0 100 -65 172 -159 172s-159 -72 -159 -172c0 -101 65 -172 159 -172zM341 525c-28 0 -49 23 -49 51s21 51 49 51s49 -23 49 -51s-21 -51 -49 -51z
M181 525c-28 0 -49 23 -49 51s21 51 49 51s49 -23 49 -51s-21 -51 -49 -51z" />
    <glyph glyph-name="odieresis.sc" 
d="M305 512c151 0 255 -115 255 -260c0 -146 -104 -261 -256 -261c-150 0 -254 115 -254 261c0 145 104 260 255 260zM304 39c119 0 202 88 202 213c0 122 -83 212 -201 212s-201 -89 -201 -212c0 -125 83 -213 200 -213zM385 585c-28 0 -49 23 -49 51s21 51 49 51
s49 -23 49 -51s-21 -51 -49 -51zM225 585c-28 0 -49 23 -49 51s21 51 49 51s49 -23 49 -51s-21 -51 -49 -51z" />
    <glyph glyph-name="OE" unicode="&#x152;" horiz-adv-x="931" 
d="M418 0c-206 0 -358 128 -358 322c0 197 142 336 356 336h446v-149h-55v99h-272v-247h223v-50h-223v-261h272v99h55v-149h-444zM419 50h59v558h-67c-189 0 -293 -119 -293 -288c0 -164 125 -270 301 -270z" />
    <glyph glyph-name="oe" unicode="&#x153;" horiz-adv-x="842" 
d="M639 39c58 0 95 18 145 47l-5 -52c-43 -28 -97 -42 -147 -42c-93 0 -158 44 -190 113c-31 -67 -94 -113 -181 -113c-127 0 -213 97 -213 218s86 218 213 218c87 0 151 -46 181 -114c29 66 87 114 173 114c121 0 187 -95 187 -197c0 -15 -1 -24 -3 -33h-333
c8 -106 72 -159 173 -159zM261 38c94 0 159 71 159 172c0 100 -65 172 -159 172s-159 -72 -159 -172c0 -101 65 -172 159 -172zM610 382c-73 0 -133 -54 -143 -139h283c-6 82 -52 139 -140 139z" />
    <glyph glyph-name="oe.sc" horiz-adv-x="755" 
d="M383 46v409h-52c-133 0 -225 -77 -225 -198c0 -123 77 -211 219 -211h58zM331 501h364v-137h-50v91h-210v-178h172v-47h-172v-184h210v91h50v-137h-364c-173 0 -278 104 -278 256c0 150 112 245 278 245z" />
    <glyph glyph-name="Ograve" unicode="&#xd2;" horiz-adv-x="782" 
d="M389 -12c-188 0 -329 150 -329 340c0 193 142 342 333 342c188 0 329 -150 329 -340c0 -193 -142 -342 -333 -342zM391 40c161 0 273 127 273 288c0 162 -112 290 -273 290s-273 -127 -273 -288c0 -162 112 -290 273 -290zM428 719l-152 76c-21 11 -35 27 -35 39
c0 25 18 39 36 39c13 0 25 -8 38 -20l125 -115z" />
    <glyph glyph-name="ograve" unicode="&#xf2;" horiz-adv-x="522" 
d="M261 -8c-127 0 -213 97 -213 218s86 218 213 218s213 -97 213 -218s-86 -218 -213 -218zM261 38c94 0 159 71 159 172c0 100 -65 172 -159 172s-159 -72 -159 -172c0 -101 65 -172 159 -172zM298 509l-152 76c-21 11 -35 27 -35 39c0 25 18 39 36 39c13 0 25 -8 38 -20
l125 -115z" />
    <glyph glyph-name="ograve.sc" 
d="M305 512c151 0 255 -115 255 -260c0 -146 -104 -261 -256 -261c-150 0 -254 115 -254 261c0 145 104 260 255 260zM304 39c119 0 202 88 202 213c0 122 -83 212 -201 212s-201 -89 -201 -212c0 -125 83 -213 200 -213zM342 569l-152 76c-21 11 -35 27 -35 39
c0 25 18 39 36 39c13 0 25 -8 38 -20l125 -115z" />
    <glyph glyph-name="Ohungarumlaut" unicode="&#x150;" horiz-adv-x="782" 
d="M389 -12c-188 0 -329 150 -329 340c0 193 142 342 333 342c188 0 329 -150 329 -340c0 -193 -142 -342 -333 -342zM391 40c161 0 273 127 273 288c0 162 -112 290 -273 290s-273 -127 -273 -288c0 -162 112 -290 273 -290zM271 721l-12 19l126 115c13 12 25 20 38 20
c18 0 34 -12 34 -36c0 -12 -14 -28 -35 -39zM450 726l-10 20l134 106c14 11 26 17 37 17c21 0 33 -15 33 -35c0 -15 -13 -30 -38 -40z" />
    <glyph glyph-name="ohungarumlaut" unicode="&#x151;" horiz-adv-x="522" 
d="M261 -8c-127 0 -213 97 -213 218s86 218 213 218s213 -97 213 -218s-86 -218 -213 -218zM261 38c94 0 159 71 159 172c0 100 -65 172 -159 172s-159 -72 -159 -172c0 -101 65 -172 159 -172zM141 511l-12 19l126 115c13 12 25 20 38 20c18 0 34 -12 34 -36
c0 -12 -14 -28 -35 -39zM320 516l-10 20l134 106c14 11 26 17 37 17c21 0 33 -15 33 -35c0 -15 -13 -30 -38 -40z" />
    <glyph glyph-name="ohungarumlaut.sc" 
d="M305 512c151 0 255 -115 255 -260c0 -146 -104 -261 -256 -261c-150 0 -254 115 -254 261c0 145 104 260 255 260zM304 39c119 0 202 88 202 213c0 122 -83 212 -201 212s-201 -89 -201 -212c0 -125 83 -213 200 -213zM185 571l-12 19l126 115c13 12 25 20 38 20
c18 0 34 -12 34 -36c0 -12 -14 -28 -35 -39zM364 576l-10 20l134 106c14 11 26 17 37 17c21 0 33 -15 33 -35c0 -15 -13 -30 -38 -40z" />
    <glyph glyph-name="Omacron" unicode="&#x14c;" horiz-adv-x="782" 
d="M389 -12c-188 0 -329 150 -329 340c0 193 142 342 333 342c188 0 329 -150 329 -340c0 -193 -142 -342 -333 -342zM391 40c161 0 273 127 273 288c0 162 -112 290 -273 290s-273 -127 -273 -288c0 -162 112 -290 273 -290zM246 750v52h290v-52h-290z" />
    <glyph glyph-name="omacron" unicode="&#x14d;" horiz-adv-x="522" 
d="M261 -8c-127 0 -213 97 -213 218s86 218 213 218s213 -97 213 -218s-86 -218 -213 -218zM261 38c94 0 159 71 159 172c0 100 -65 172 -159 172s-159 -72 -159 -172c0 -101 65 -172 159 -172zM116 540v52h290v-52h-290z" />
    <glyph glyph-name="omacron.sc" 
d="M305 512c151 0 255 -115 255 -260c0 -146 -104 -261 -256 -261c-150 0 -254 115 -254 261c0 145 104 260 255 260zM304 39c119 0 202 88 202 213c0 122 -83 212 -201 212s-201 -89 -201 -212c0 -125 83 -213 200 -213zM160 600v52h290v-52h-290z" />
    <glyph glyph-name="Oslash" unicode="&#xd8;" horiz-adv-x="782" 
d="M389 -12c-79 0 -150 26 -205 71l-83 -97l-36 31l85 98c-56 61 -90 144 -90 237c0 193 142 342 333 342c75 0 143 -24 197 -65l79 92l36 -31l-80 -92c60 -61 97 -148 97 -244c0 -193 -142 -342 -333 -342zM391 40c161 0 273 127 273 288c0 84 -27 156 -75 208l-372 -437
c45 -37 104 -59 174 -59zM118 330c0 -80 25 -150 69 -202l370 437c-45 33 -101 53 -166 53c-161 0 -273 -127 -273 -288z" />
    <glyph glyph-name="oslash" unicode="&#xf8;" horiz-adv-x="522" 
d="M261 -8c-47 0 -89 15 -123 40l-50 -59l-36 30l51 60c-35 39 -55 91 -55 147c0 121 86 218 213 218c47 0 90 -15 125 -41l49 58l36 -30l-51 -60c34 -39 54 -90 54 -145c0 -121 -86 -218 -213 -218zM102 210c0 -46 13 -85 36 -115l218 256c-26 20 -58 31 -95 31
c-94 0 -159 -72 -159 -172zM261 38c94 0 159 71 159 172c0 44 -13 82 -35 112l-218 -255c26 -18 58 -29 94 -29z" />
    <glyph glyph-name="oslash.sc" horiz-adv-x="616" 
d="M307 -9c-61 0 -114 19 -156 51l-64 -74l-34 30l65 74c-41 47 -65 110 -65 180c0 145 104 260 255 260c59 0 111 -18 152 -48l64 73l35 -31l-65 -72c44 -47 69 -111 69 -182c0 -146 -104 -261 -256 -261zM307 39c119 0 202 88 202 213c0 57 -19 108 -51 145l-275 -317
c33 -26 75 -41 124 -41zM107 252c0 -57 17 -107 47 -144l274 317c-33 24 -73 39 -120 39c-118 0 -201 -89 -201 -212z" />
    <glyph glyph-name="Oslashacute" unicode="&#x1fe;" horiz-adv-x="782" 
d="M389 -12c-79 0 -150 26 -205 71l-83 -97l-36 31l85 98c-56 61 -90 144 -90 237c0 193 142 342 333 342c75 0 143 -24 197 -65l79 92l36 -31l-80 -92c60 -61 97 -148 97 -244c0 -193 -142 -342 -333 -342zM391 40c161 0 273 127 273 288c0 84 -27 156 -75 208l-372 -437
c45 -37 104 -59 174 -59zM118 330c0 -80 25 -150 69 -202l370 437c-45 33 -101 53 -166 53c-161 0 -273 -127 -273 -288zM354 719l-12 19l125 115c13 12 25 20 38 20c18 0 36 -14 36 -39c0 -12 -14 -28 -35 -39z" />
    <glyph glyph-name="oslashacute" unicode="&#x1ff;" horiz-adv-x="522" 
d="M261 -8c-47 0 -89 15 -123 40l-50 -59l-36 30l51 60c-35 39 -55 91 -55 147c0 121 86 218 213 218c47 0 90 -15 125 -41l49 58l36 -30l-51 -60c34 -39 54 -90 54 -145c0 -121 -86 -218 -213 -218zM102 210c0 -46 13 -85 36 -115l218 256c-26 20 -58 31 -95 31
c-94 0 -159 -72 -159 -172zM261 38c94 0 159 71 159 172c0 44 -13 82 -35 112l-218 -255c26 -18 58 -29 94 -29zM224 509l-12 19l125 115c13 12 25 20 38 20c18 0 36 -14 36 -39c0 -12 -14 -28 -35 -39z" />
    <glyph glyph-name="oslashacute.sc" horiz-adv-x="616" 
d="M307 -9c-61 0 -114 19 -156 51l-64 -74l-34 30l65 74c-41 47 -65 110 -65 180c0 145 104 260 255 260c59 0 111 -18 152 -48l64 73l35 -31l-65 -72c44 -47 69 -111 69 -182c0 -146 -104 -261 -256 -261zM307 39c119 0 202 88 202 213c0 57 -19 108 -51 145l-275 -317
c33 -26 75 -41 124 -41zM107 252c0 -57 17 -107 47 -144l274 317c-33 24 -73 39 -120 39c-118 0 -201 -89 -201 -212zM271 569l-12 19l125 115c13 12 25 20 38 20c18 0 36 -14 36 -39c0 -12 -14 -28 -35 -39z" />
    <glyph glyph-name="Otilde" unicode="&#xd5;" horiz-adv-x="782" 
d="M389 -12c-188 0 -329 150 -329 340c0 193 142 342 333 342c188 0 329 -150 329 -340c0 -193 -142 -342 -333 -342zM391 40c161 0 273 127 273 288c0 162 -112 290 -273 290s-273 -127 -273 -288c0 -162 112 -290 273 -290zM462 720c-39 0 -64 19 -88 39
c-22 18 -33 25 -47 25c-24 0 -39 -25 -43 -58l-45 9c2 57 42 103 85 103c39 0 64 -19 88 -39c22 -18 33 -25 47 -25c24 0 39 25 43 58l45 -9c-2 -57 -42 -103 -85 -103z" />
    <glyph glyph-name="otilde" unicode="&#xf5;" horiz-adv-x="522" 
d="M261 -8c-127 0 -213 97 -213 218s86 218 213 218s213 -97 213 -218s-86 -218 -213 -218zM261 38c94 0 159 71 159 172c0 100 -65 172 -159 172s-159 -72 -159 -172c0 -101 65 -172 159 -172zM332 510c-39 0 -64 19 -88 39c-22 18 -33 25 -47 25c-24 0 -39 -25 -43 -58
l-45 9c2 57 42 103 85 103c39 0 64 -19 88 -39c22 -18 33 -25 47 -25c24 0 39 25 43 58l45 -9c-2 -57 -42 -103 -85 -103z" />
    <glyph glyph-name="otilde.sc" 
d="M305 512c151 0 255 -115 255 -260c0 -146 -104 -261 -256 -261c-150 0 -254 115 -254 261c0 145 104 260 255 260zM304 39c119 0 202 88 202 213c0 122 -83 212 -201 212s-201 -89 -201 -212c0 -125 83 -213 200 -213zM376 570c-39 0 -64 19 -88 39c-22 18 -33 25 -47 25
c-24 0 -39 -25 -43 -58l-45 9c2 57 42 103 85 103c39 0 64 -19 88 -39c22 -18 33 -25 47 -25c24 0 39 25 43 58l45 -9c-2 -57 -42 -103 -85 -103z" />
    <glyph glyph-name="Racute" unicode="&#x154;" horiz-adv-x="617" 
d="M52 0v50h88v558h-88v50h247c143 0 231 -76 231 -187c0 -92 -61 -155 -149 -181l154 -240h81v-50h-120l-175 278c-12 -1 -25 -2 -38 -2c-28 0 -64 1 -86 2v-228h88v-50h-233zM285 326c107 0 188 49 188 144c0 89 -70 138 -177 138h-99v-280c24 -1 58 -2 88 -2zM274 719
l-12 19l125 115c13 12 25 20 38 20c18 0 36 -14 36 -39c0 -12 -14 -28 -35 -39z" />
    <glyph glyph-name="racute" unicode="&#x155;" horiz-adv-x="355" 
d="M289 428c37 0 57 -23 57 -48c0 -23 -18 -43 -41 -43c-22 0 -39 16 -45 34c-33 -9 -72 -49 -94 -93v-232h82v-46h-203v46h70v328h-70v46h119v-95c30 58 84 103 125 103zM158 509l-12 19l125 115c13 12 25 20 38 20c18 0 36 -14 36 -39c0 -12 -14 -28 -35 -39z" />
    <glyph glyph-name="racute.sc" horiz-adv-x="537" 
d="M268 455h-78v-203c24 -1 51 -1 74 -1c82 0 140 37 140 105c0 64 -53 99 -136 99zM190 206v-160h92v-46h-234v46h90v409h-90v46h222c114 0 186 -55 186 -144c0 -69 -46 -119 -111 -139l108 -172h78v-46h-114l-125 206c-16 -1 -27 -1 -35 -1c-18 0 -48 0 -67 1zM233 569
l-12 19l125 115c13 12 25 20 38 20c18 0 36 -14 36 -39c0 -12 -14 -28 -35 -39z" />
    <glyph glyph-name="Rcaron" unicode="&#x158;" horiz-adv-x="617" 
d="M52 0v50h88v558h-88v50h247c143 0 231 -76 231 -187c0 -92 -61 -155 -149 -181l154 -240h81v-50h-120l-175 278c-12 -1 -25 -2 -38 -2c-28 0 -64 1 -86 2v-228h88v-50h-233zM285 326c107 0 188 49 188 144c0 89 -70 138 -177 138h-99v-280c24 -1 58 -2 88 -2zM430 881
l25 -30l-144 -134l-144 134l25 30l119 -91z" />
    <glyph glyph-name="rcaron" unicode="&#x159;" horiz-adv-x="355" 
d="M289 428c37 0 57 -23 57 -48c0 -23 -18 -43 -41 -43c-22 0 -39 16 -45 34c-33 -9 -72 -49 -94 -93v-232h82v-46h-203v46h70v328h-70v46h119v-95c30 58 84 103 125 103zM314 671l25 -30l-144 -134l-144 134l25 30l119 -91z" />
    <glyph glyph-name="rcaron.sc" horiz-adv-x="537" 
d="M268 455h-78v-203c24 -1 51 -1 74 -1c82 0 140 37 140 105c0 64 -53 99 -136 99zM190 206v-160h92v-46h-234v46h90v409h-90v46h222c114 0 186 -55 186 -144c0 -69 -46 -119 -111 -139l108 -172h78v-46h-114l-125 206c-16 -1 -27 -1 -35 -1c-18 0 -48 0 -67 1zM389 731
l25 -30l-144 -134l-144 134l25 30l119 -91z" />
    <glyph glyph-name="Rcommaaccent" unicode="&#x156;" horiz-adv-x="617" 
d="M52 0v50h88v558h-88v50h247c143 0 231 -76 231 -187c0 -92 -61 -155 -149 -181l154 -240h81v-50h-120l-175 278c-12 -1 -25 -2 -38 -2c-28 0 -64 1 -86 2v-228h88v-50h-233zM285 326c107 0 188 49 188 144c0 89 -70 138 -177 138h-99v-280c24 -1 58 -2 88 -2zM246 -262
l-11 18c56 42 72 79 73 101c-22 3 -40 21 -40 43c0 26 20 44 42 44c27 0 48 -21 48 -59c0 -44 -29 -104 -112 -147z" />
    <glyph glyph-name="rcommaaccent" unicode="&#x157;" horiz-adv-x="355" 
d="M289 428c37 0 57 -23 57 -48c0 -23 -18 -43 -41 -43c-22 0 -39 16 -45 34c-33 -9 -72 -49 -94 -93v-232h82v-46h-203v46h70v328h-70v46h119v-95c30 58 84 103 125 103zM72 -262l-11 18c56 42 72 79 73 101c-22 3 -40 21 -40 43c0 26 20 44 42 44c27 0 48 -21 48 -59
c0 -44 -29 -104 -112 -147z" />
    <glyph glyph-name="rcommaaccent.sc" horiz-adv-x="537" 
d="M268 455h-78v-203c24 -1 51 -1 74 -1c82 0 140 37 140 105c0 64 -53 99 -136 99zM190 206v-160h92v-46h-234v46h90v409h-90v46h222c114 0 186 -55 186 -144c0 -69 -46 -119 -111 -139l108 -172h78v-46h-114l-125 206c-16 -1 -27 -1 -35 -1c-18 0 -48 0 -67 1zM220 -262
l-11 18c56 42 72 79 73 101c-22 3 -40 21 -40 43c0 26 20 44 42 44c27 0 48 -21 48 -59c0 -44 -29 -104 -112 -147z" />
    <glyph glyph-name="Sacute" unicode="&#x15a;" horiz-adv-x="547" 
d="M273 -11c-128 0 -211 72 -211 129c0 34 21 56 46 56s43 -18 43 -41c0 -19 -9 -34 -20 -46c22 -25 76 -47 144 -47c94 0 151 51 151 128c0 74 -66 107 -144 138c-110 43 -195 85 -195 195c0 99 77 169 196 169c102 0 186 -61 186 -125c0 -32 -21 -50 -45 -50
c-26 0 -45 19 -45 44c0 16 9 31 18 41c-18 23 -75 39 -116 39c-85 0 -138 -48 -138 -114c0 -76 65 -108 155 -144c104 -41 184 -82 184 -189c0 -112 -90 -183 -209 -183zM246 719l-12 19l125 115c13 12 25 20 38 20c18 0 36 -14 36 -39c0 -12 -14 -28 -35 -39z" />
    <glyph glyph-name="sacute" unicode="&#x15b;" horiz-adv-x="428" 
d="M362 341c0 -24 -15 -40 -36 -40c-22 0 -40 16 -40 39c0 7 1 17 7 26c-16 11 -45 18 -81 18c-64 0 -102 -35 -102 -70c0 -42 44 -55 116 -73c77 -19 155 -42 155 -127c0 -76 -76 -122 -164 -122c-60 0 -118 18 -147 47c-14 14 -23 31 -23 51c0 22 15 41 37 41
c25 0 39 -17 39 -37c0 -10 -3 -19 -9 -29c12 -13 50 -29 102 -29c65 0 115 29 115 75s-49 62 -107 76c-95 23 -165 45 -165 125c0 63 62 116 154 116c59 0 104 -17 128 -41c14 -14 21 -29 21 -46zM177 509l-12 19l125 115c13 12 25 20 38 20c18 0 36 -14 36 -39
c0 -12 -14 -28 -35 -39z" />
    <glyph glyph-name="sacute.sc" horiz-adv-x="455" 
d="M314 408c0 12 6 26 12 33c-12 14 -53 26 -92 26c-69 0 -113 -34 -113 -83c0 -55 60 -78 123 -103c82 -31 161 -61 161 -147c0 -89 -78 -143 -179 -143c-106 0 -176 55 -176 104c0 29 16 48 40 48c23 0 40 -15 40 -37c0 -14 -6 -27 -13 -36c16 -16 55 -33 110 -33
c79 0 125 37 125 94c0 53 -63 77 -120 99c-87 33 -165 62 -165 149c0 79 67 133 169 133c89 0 158 -45 158 -100c0 -26 -18 -43 -38 -43c-26 0 -42 17 -42 39zM200 569l-12 19l125 115c13 12 25 20 38 20c18 0 36 -14 36 -39c0 -12 -14 -28 -35 -39z" />
    <glyph glyph-name="Scaron" unicode="&#x160;" horiz-adv-x="547" 
d="M273 -11c-128 0 -211 72 -211 129c0 34 21 56 46 56s43 -18 43 -41c0 -19 -9 -34 -20 -46c22 -25 76 -47 144 -47c94 0 151 51 151 128c0 74 -66 107 -144 138c-110 43 -195 85 -195 195c0 99 77 169 196 169c102 0 186 -61 186 -125c0 -32 -21 -50 -45 -50
c-26 0 -45 19 -45 44c0 16 9 31 18 41c-18 23 -75 39 -116 39c-85 0 -138 -48 -138 -114c0 -76 65 -108 155 -144c104 -41 184 -82 184 -189c0 -112 -90 -183 -209 -183zM402 881l25 -30l-144 -134l-144 134l25 30l119 -91z" />
    <glyph glyph-name="scaron" unicode="&#x161;" horiz-adv-x="428" 
d="M362 341c0 -24 -15 -40 -36 -40c-22 0 -40 16 -40 39c0 7 1 17 7 26c-16 11 -45 18 -81 18c-64 0 -102 -35 -102 -70c0 -42 44 -55 116 -73c77 -19 155 -42 155 -127c0 -76 -76 -122 -164 -122c-60 0 -118 18 -147 47c-14 14 -23 31 -23 51c0 22 15 41 37 41
c25 0 39 -17 39 -37c0 -10 -3 -19 -9 -29c12 -13 50 -29 102 -29c65 0 115 29 115 75s-49 62 -107 76c-95 23 -165 45 -165 125c0 63 62 116 154 116c59 0 104 -17 128 -41c14 -14 21 -29 21 -46zM333 671l25 -30l-144 -134l-144 134l25 30l119 -91z" />
    <glyph glyph-name="scaron.sc" horiz-adv-x="455" 
d="M314 408c0 12 6 26 12 33c-12 14 -53 26 -92 26c-69 0 -113 -34 -113 -83c0 -55 60 -78 123 -103c82 -31 161 -61 161 -147c0 -89 -78 -143 -179 -143c-106 0 -176 55 -176 104c0 29 16 48 40 48c23 0 40 -15 40 -37c0 -14 -6 -27 -13 -36c16 -16 55 -33 110 -33
c79 0 125 37 125 94c0 53 -63 77 -120 99c-87 33 -165 62 -165 149c0 79 67 133 169 133c89 0 158 -45 158 -100c0 -26 -18 -43 -38 -43c-26 0 -42 17 -42 39zM356 731l25 -30l-144 -134l-144 134l25 30l119 -91z" />
    <glyph glyph-name="Scedilla" unicode="&#x15e;" horiz-adv-x="547" 
d="M274 -199c-36 0 -75 10 -106 26l14 32c22 -10 61 -19 87 -19c27 0 44 12 44 31c0 21 -20 33 -50 33c-6 0 -19 -2 -22 -3l-17 12l21 77c-112 10 -183 75 -183 128c0 34 21 56 46 56s43 -18 43 -41c0 -19 -9 -34 -20 -46c22 -25 76 -47 144 -47c94 0 151 51 151 128
c0 74 -66 107 -144 138c-110 43 -195 85 -195 195c0 99 77 169 196 169c102 0 186 -61 186 -125c0 -32 -21 -50 -45 -50c-26 0 -45 19 -45 44c0 16 9 31 18 41c-18 23 -75 39 -116 39c-85 0 -138 -48 -138 -114c0 -76 65 -108 155 -144c104 -41 184 -82 184 -189
c0 -110 -86 -180 -202 -183l-4 -39c61 -1 88 -35 88 -74c0 -41 -30 -75 -90 -75z" />
    <glyph glyph-name="scedilla" unicode="&#x15f;" horiz-adv-x="428" 
d="M222 -199c-36 0 -75 10 -106 26l14 32c22 -10 61 -19 87 -19c27 0 44 12 44 31c0 21 -20 33 -50 33c-6 0 -19 -2 -22 -3l-17 12l22 80c-52 4 -99 20 -124 46c-14 14 -23 31 -23 51c0 22 15 41 37 41c25 0 39 -17 39 -37c0 -10 -3 -19 -9 -29c12 -13 50 -29 102 -29
c65 0 115 29 115 75s-49 62 -107 76c-95 23 -165 45 -165 125c0 63 62 116 154 116c59 0 104 -17 128 -41c14 -14 21 -29 21 -46c0 -24 -15 -40 -36 -40c-22 0 -40 16 -40 39c0 7 1 17 7 26c-16 11 -45 18 -81 18c-64 0 -102 -35 -102 -70c0 -42 44 -55 116 -73
c77 -19 155 -42 155 -127c0 -73 -70 -117 -152 -121l-5 -43c61 -1 88 -35 88 -74c0 -41 -30 -75 -90 -75z" />
    <glyph glyph-name="scedilla.sc" horiz-adv-x="467" 
d="M232 -199c-36 0 -75 10 -106 26l14 32c22 -10 61 -19 87 -19c27 0 44 12 44 31c0 21 -20 33 -50 33c-6 0 -19 -2 -22 -3l-17 12l22 80c-90 8 -148 57 -148 102c0 29 16 48 40 48c23 0 40 -15 40 -37c0 -14 -6 -27 -13 -36c16 -16 55 -33 110 -33c79 0 125 37 125 94
c0 53 -63 77 -120 99c-87 33 -165 62 -165 149c0 79 67 133 169 133c89 0 158 -45 158 -100c0 -26 -18 -43 -38 -43c-26 0 -42 17 -42 39c0 12 6 26 12 33c-12 14 -53 26 -92 26c-69 0 -113 -34 -113 -83c0 -55 60 -78 123 -103c82 -31 161 -61 161 -147
c0 -87 -75 -140 -172 -143l-5 -41c61 -1 88 -35 88 -74c0 -41 -30 -75 -90 -75z" />
    <glyph glyph-name="Scommaaccent" unicode="&#x218;" horiz-adv-x="547" 
d="M273 -11c-128 0 -211 72 -211 129c0 34 21 56 46 56s43 -18 43 -41c0 -19 -9 -34 -20 -46c22 -25 76 -47 144 -47c94 0 151 51 151 128c0 74 -66 107 -144 138c-110 43 -195 85 -195 195c0 99 77 169 196 169c102 0 186 -61 186 -125c0 -32 -21 -50 -45 -50
c-26 0 -45 19 -45 44c0 16 9 31 18 41c-18 23 -75 39 -116 39c-85 0 -138 -48 -138 -114c0 -76 65 -108 155 -144c104 -41 184 -82 184 -189c0 -112 -90 -183 -209 -183zM218 -262l-11 18c56 42 72 79 73 101c-22 3 -40 21 -40 43c0 26 20 44 42 44c27 0 48 -21 48 -59
c0 -44 -29 -104 -112 -147z" />
    <glyph glyph-name="scommaaccent" unicode="&#x219;" horiz-adv-x="428" 
d="M362 341c0 -24 -15 -40 -36 -40c-22 0 -40 16 -40 39c0 7 1 17 7 26c-16 11 -45 18 -81 18c-64 0 -102 -35 -102 -70c0 -42 44 -55 116 -73c77 -19 155 -42 155 -127c0 -76 -76 -122 -164 -122c-60 0 -118 18 -147 47c-14 14 -23 31 -23 51c0 22 15 41 37 41
c25 0 39 -17 39 -37c0 -10 -3 -19 -9 -29c12 -13 50 -29 102 -29c65 0 115 29 115 75s-49 62 -107 76c-95 23 -165 45 -165 125c0 63 62 116 154 116c59 0 104 -17 128 -41c14 -14 21 -29 21 -46zM149 -262l-11 18c56 42 72 79 73 101c-22 3 -40 21 -40 43c0 26 20 44 42 44
c27 0 48 -21 48 -59c0 -44 -29 -104 -112 -147z" />
    <glyph glyph-name="scommaaccent.sc" horiz-adv-x="455" 
d="M314 408c0 12 6 26 12 33c-12 14 -53 26 -92 26c-69 0 -113 -34 -113 -83c0 -55 60 -78 123 -103c82 -31 161 -61 161 -147c0 -89 -78 -143 -179 -143c-106 0 -176 55 -176 104c0 29 16 48 40 48c23 0 40 -15 40 -37c0 -14 -6 -27 -13 -36c16 -16 55 -33 110 -33
c79 0 125 37 125 94c0 53 -63 77 -120 99c-87 33 -165 62 -165 149c0 79 67 133 169 133c89 0 158 -45 158 -100c0 -26 -18 -43 -38 -43c-26 0 -42 17 -42 39zM172 -262l-11 18c56 42 72 79 73 101c-22 3 -40 21 -40 43c0 26 20 44 42 44c27 0 48 -21 48 -59
c0 -44 -29 -104 -112 -147z" />
    <glyph glyph-name="Tcaron" unicode="&#x164;" horiz-adv-x="637" 
d="M197 0v50h93v560h-185v-106h-55v154h537v-154h-55v106h-185v-560h93v-50h-243zM437 881l25 -30l-144 -134l-144 134l25 30l119 -91z" />
    <glyph glyph-name="tcaron" unicode="&#x165;" horiz-adv-x="317" 
d="M188 -8c-41 0 -69 16 -83 46c-7 14 -10 34 -10 54v282h-76v46h76v109l51 18v-127h130v-46h-130v-277c0 -14 2 -25 6 -34c8 -15 24 -22 52 -22c24 0 54 13 77 27l-8 -53c-19 -10 -46 -23 -85 -23zM211 474l-18 14c23 33 34 62 34 99c0 25 -5 38 -5 58c0 21 12 38 36 38
s36 -16 36 -41c0 -57 -36 -119 -83 -168z" />
    <glyph glyph-name="tcaron.sc" horiz-adv-x="523" 
d="M143 0v46h92v409h-144v-91h-50v137h441v-137h-51v91h-144v-409h92v-46h-236zM380 731l25 -30l-144 -134l-144 134l25 30l119 -91z" />
    <glyph glyph-name="Tcommaaccent" unicode="&#x162;" horiz-adv-x="637" 
d="M197 0v50h93v560h-185v-106h-55v154h537v-154h-55v106h-185v-560h93v-50h-243zM253 -262l-11 18c56 42 72 79 73 101c-22 3 -40 21 -40 43c0 26 20 44 42 44c27 0 48 -21 48 -59c0 -44 -29 -104 -112 -147z" />
    <glyph glyph-name="tcommaaccent" unicode="&#x163;" horiz-adv-x="317" 
d="M188 -8c-41 0 -69 16 -83 46c-7 14 -10 34 -10 54v282h-76v46h76v109l51 18v-127h130v-46h-130v-277c0 -14 2 -25 6 -34c8 -15 24 -22 52 -22c24 0 54 13 77 27l-8 -53c-19 -10 -46 -23 -85 -23zM114 -262l-11 18c56 42 72 79 73 101c-22 3 -40 21 -40 43
c0 26 20 44 42 44c27 0 48 -21 48 -59c0 -44 -29 -104 -112 -147z" />
    <glyph glyph-name="tcommaaccent.sc" horiz-adv-x="523" 
d="M143 0v46h92v409h-144v-91h-50v137h441v-137h-51v91h-144v-409h92v-46h-236zM196 -262l-11 18c56 42 72 79 73 101c-22 3 -40 21 -40 43c0 26 20 44 42 44c27 0 48 -21 48 -59c0 -44 -29 -104 -112 -147z" />
    <glyph glyph-name="Thorn" unicode="&#xde;" horiz-adv-x="595" 
d="M52 0v50h88v558h-88v50h233v-48h-88v-83c16 1 69 2 109 2c136 0 234 -76 234 -194c0 -121 -89 -198 -232 -198c-38 0 -89 1 -111 2v-91h93v-48h-238zM310 187c109 0 173 55 173 147c0 94 -73 145 -173 145c-41 0 -95 -1 -113 -2v-288c24 -1 73 -2 113 -2z" />
    <glyph glyph-name="thorn" unicode="&#xfe;" horiz-adv-x="523" 
d="M3 -196v46h70v836h-70v46h121v-372c37 39 81 68 147 68c111 0 202 -85 202 -215c0 -118 -80 -221 -212 -221c-51 0 -100 19 -137 49v-191h87v-46h-208zM263 38c94 0 155 77 156 174c1 100 -63 170 -151 170c-61 0 -107 -30 -144 -71v-219c34 -30 77 -54 139 -54z" />
    <glyph glyph-name="thorn.sc" horiz-adv-x="495" 
d="M190 403c24 1 51 1 78 1c112 0 187 -57 187 -150s-75 -150 -187 -150c-27 0 -54 0 -78 1v-59h92v-46h-234v46h90v409h-90v46h234v-46h-92v-52zM190 151c25 -1 51 -1 81 -1c80 0 131 42 131 104s-51 104 -131 104c-30 0 -56 0 -81 -1v-206z" />
    <glyph glyph-name="Uacute" unicode="&#xda;" horiz-adv-x="718" 
d="M357 -12c-151 0 -233 87 -233 233v387h-88v50h233v-50h-90v-382c0 -125 65 -186 179 -186s181 60 181 184v384h-90v50h233v-50h-88v-383c0 -149 -87 -237 -237 -237zM322 719l-12 19l125 115c13 12 25 20 38 20c18 0 36 -14 36 -39c0 -12 -14 -28 -35 -39z" />
    <glyph glyph-name="uacute" unicode="&#xfa;" horiz-adv-x="547" 
d="M233 -8c-58 0 -94 21 -114 56c-13 24 -19 53 -19 87v239h-70v46h121v-278c0 -26 5 -47 13 -63c14 -27 39 -39 77 -39c60 0 110 40 152 86v248h-70v46h121v-374h70v-46h-119v83c-39 -50 -103 -91 -162 -91zM232 509l-12 19l125 115c13 12 25 20 38 20c18 0 36 -14 36 -39
c0 -12 -14 -28 -35 -39z" />
    <glyph glyph-name="uacute.sc" 
d="M165 455v-274c0 -91 54 -143 140 -143s140 51 140 142v275h-90v46h226v-46h-84v-274c0 -122 -73 -190 -193 -190s-191 66 -191 188v276h-84v46h226v-46h-90zM268 569l-12 19l125 115c13 12 25 20 38 20c18 0 36 -14 36 -39c0 -12 -14 -28 -35 -39z" />
    <glyph glyph-name="Ubreve" unicode="&#x16c;" horiz-adv-x="718" 
d="M357 -12c-151 0 -233 87 -233 233v387h-88v50h233v-50h-90v-382c0 -125 65 -186 179 -186s181 60 181 184v384h-90v50h233v-50h-88v-383c0 -149 -87 -237 -237 -237zM359 719c-71 0 -125 53 -148 119l40 19c19 -51 63 -81 108 -81c50 0 90 35 108 81l40 -19
c-23 -66 -77 -119 -148 -119z" />
    <glyph glyph-name="ubreve" unicode="&#x16d;" horiz-adv-x="547" 
d="M233 -8c-58 0 -94 21 -114 56c-13 24 -19 53 -19 87v239h-70v46h121v-278c0 -26 5 -47 13 -63c14 -27 39 -39 77 -39c60 0 110 40 152 86v248h-70v46h121v-374h70v-46h-119v83c-39 -50 -103 -91 -162 -91zM269 509c-71 0 -125 53 -148 119l40 19c19 -51 63 -81 108 -81
c50 0 90 35 108 81l40 -19c-23 -66 -77 -119 -148 -119z" />
    <glyph glyph-name="ubreve.sc" 
d="M165 455v-274c0 -91 54 -143 140 -143s140 51 140 142v275h-90v46h226v-46h-84v-274c0 -122 -73 -190 -193 -190s-191 66 -191 188v276h-84v46h226v-46h-90zM305 569c-71 0 -125 53 -148 119l40 19c19 -51 63 -81 108 -81c50 0 90 35 108 81l40 -19
c-23 -66 -77 -119 -148 -119z" />
    <glyph glyph-name="Ucircumflex" unicode="&#xdb;" horiz-adv-x="718" 
d="M357 -12c-151 0 -233 87 -233 233v387h-88v50h233v-50h-90v-382c0 -125 65 -186 179 -186s181 60 181 184v384h-90v50h233v-50h-88v-383c0 -149 -87 -237 -237 -237zM240 713l-25 30l144 134l144 -134l-25 -30l-119 91z" />
    <glyph glyph-name="ucircumflex" unicode="&#xfb;" horiz-adv-x="547" 
d="M233 -8c-58 0 -94 21 -114 56c-13 24 -19 53 -19 87v239h-70v46h121v-278c0 -26 5 -47 13 -63c14 -27 39 -39 77 -39c60 0 110 40 152 86v248h-70v46h121v-374h70v-46h-119v83c-39 -50 -103 -91 -162 -91zM150 503l-25 30l144 134l144 -134l-25 -30l-119 91z" />
    <glyph glyph-name="ucircumflex.sc" 
d="M165 455v-274c0 -91 54 -143 140 -143s140 51 140 142v275h-90v46h226v-46h-84v-274c0 -122 -73 -190 -193 -190s-191 66 -191 188v276h-84v46h226v-46h-90zM186 563l-25 30l144 134l144 -134l-25 -30l-119 91z" />
    <glyph glyph-name="Udieresis" unicode="&#xdc;" horiz-adv-x="718" 
d="M357 -12c-151 0 -233 87 -233 233v387h-88v50h233v-50h-90v-382c0 -125 65 -186 179 -186s181 60 181 184v384h-90v50h233v-50h-88v-383c0 -149 -87 -237 -237 -237zM439 735c-28 0 -49 23 -49 51s21 51 49 51s49 -23 49 -51s-21 -51 -49 -51zM279 735
c-28 0 -49 23 -49 51s21 51 49 51s49 -23 49 -51s-21 -51 -49 -51z" />
    <glyph glyph-name="udieresis" unicode="&#xfc;" horiz-adv-x="547" 
d="M233 -8c-58 0 -94 21 -114 56c-13 24 -19 53 -19 87v239h-70v46h121v-278c0 -26 5 -47 13 -63c14 -27 39 -39 77 -39c60 0 110 40 152 86v248h-70v46h121v-374h70v-46h-119v83c-39 -50 -103 -91 -162 -91zM349 525c-28 0 -49 23 -49 51s21 51 49 51s49 -23 49 -51
s-21 -51 -49 -51zM189 525c-28 0 -49 23 -49 51s21 51 49 51s49 -23 49 -51s-21 -51 -49 -51z" />
    <glyph glyph-name="udieresis.sc" 
d="M165 455v-274c0 -91 54 -143 140 -143s140 51 140 142v275h-90v46h226v-46h-84v-274c0 -122 -73 -190 -193 -190s-191 66 -191 188v276h-84v46h226v-46h-90zM385 585c-28 0 -49 23 -49 51s21 51 49 51s49 -23 49 -51s-21 -51 -49 -51zM225 585c-28 0 -49 23 -49 51
s21 51 49 51s49 -23 49 -51s-21 -51 -49 -51z" />
    <glyph glyph-name="Ugrave" unicode="&#xd9;" horiz-adv-x="718" 
d="M357 -12c-151 0 -233 87 -233 233v387h-88v50h233v-50h-90v-382c0 -125 65 -186 179 -186s181 60 181 184v384h-90v50h233v-50h-88v-383c0 -149 -87 -237 -237 -237zM396 719l-152 76c-21 11 -35 27 -35 39c0 25 18 39 36 39c13 0 25 -8 38 -20l125 -115z" />
    <glyph glyph-name="ugrave" unicode="&#xf9;" horiz-adv-x="547" 
d="M233 -8c-58 0 -94 21 -114 56c-13 24 -19 53 -19 87v239h-70v46h121v-278c0 -26 5 -47 13 -63c14 -27 39 -39 77 -39c60 0 110 40 152 86v248h-70v46h121v-374h70v-46h-119v83c-39 -50 -103 -91 -162 -91zM306 509l-152 76c-21 11 -35 27 -35 39c0 25 18 39 36 39
c13 0 25 -8 38 -20l125 -115z" />
    <glyph glyph-name="ugrave.sc" 
d="M165 455v-274c0 -91 54 -143 140 -143s140 51 140 142v275h-90v46h226v-46h-84v-274c0 -122 -73 -190 -193 -190s-191 66 -191 188v276h-84v46h226v-46h-90zM342 569l-152 76c-21 11 -35 27 -35 39c0 25 18 39 36 39c13 0 25 -8 38 -20l125 -115z" />
    <glyph glyph-name="Uhungarumlaut" unicode="&#x170;" horiz-adv-x="718" 
d="M357 -12c-151 0 -233 87 -233 233v387h-88v50h233v-50h-90v-382c0 -125 65 -186 179 -186s181 60 181 184v384h-90v50h233v-50h-88v-383c0 -149 -87 -237 -237 -237zM239 721l-12 19l126 115c13 12 25 20 38 20c18 0 34 -12 34 -36c0 -12 -14 -28 -35 -39zM418 726
l-10 20l134 106c14 11 26 17 37 17c21 0 33 -15 33 -35c0 -15 -13 -30 -38 -40z" />
    <glyph glyph-name="uhungarumlaut" unicode="&#x171;" horiz-adv-x="547" 
d="M233 -8c-58 0 -94 21 -114 56c-13 24 -19 53 -19 87v239h-70v46h121v-278c0 -26 5 -47 13 -63c14 -27 39 -39 77 -39c60 0 110 40 152 86v248h-70v46h121v-374h70v-46h-119v83c-39 -50 -103 -91 -162 -91zM149 511l-12 19l126 115c13 12 25 20 38 20c18 0 34 -12 34 -36
c0 -12 -14 -28 -35 -39zM328 516l-10 20l134 106c14 11 26 17 37 17c21 0 33 -15 33 -35c0 -15 -13 -30 -38 -40z" />
    <glyph glyph-name="uhungarumlaut.sc" 
d="M165 455v-274c0 -91 54 -143 140 -143s140 51 140 142v275h-90v46h226v-46h-84v-274c0 -122 -73 -190 -193 -190s-191 66 -191 188v276h-84v46h226v-46h-90zM185 571l-12 19l126 115c13 12 25 20 38 20c18 0 34 -12 34 -36c0 -12 -14 -28 -35 -39zM364 576l-10 20
l134 106c14 11 26 17 37 17c21 0 33 -15 33 -35c0 -15 -13 -30 -38 -40z" />
    <glyph glyph-name="Umacron" unicode="&#x16a;" horiz-adv-x="718" 
d="M357 -12c-151 0 -233 87 -233 233v387h-88v50h233v-50h-90v-382c0 -125 65 -186 179 -186s181 60 181 184v384h-90v50h233v-50h-88v-383c0 -149 -87 -237 -237 -237zM214 750v52h290v-52h-290z" />
    <glyph glyph-name="umacron" unicode="&#x16b;" horiz-adv-x="547" 
d="M233 -8c-58 0 -94 21 -114 56c-13 24 -19 53 -19 87v239h-70v46h121v-278c0 -26 5 -47 13 -63c14 -27 39 -39 77 -39c60 0 110 40 152 86v248h-70v46h121v-374h70v-46h-119v83c-39 -50 -103 -91 -162 -91zM124 540v52h290v-52h-290z" />
    <glyph glyph-name="umacron.sc" 
d="M165 455v-274c0 -91 54 -143 140 -143s140 51 140 142v275h-90v46h226v-46h-84v-274c0 -122 -73 -190 -193 -190s-191 66 -191 188v276h-84v46h226v-46h-90zM160 600v52h290v-52h-290z" />
    <glyph glyph-name="Uogonek" unicode="&#x172;" horiz-adv-x="718" 
d="M385 -201c-68 0 -102 36 -102 89c0 39 21 74 54 101c-138 7 -213 92 -213 232v387h-88v50h233v-50h-90v-382c0 -125 65 -186 179 -186s181 60 181 184v384h-90v50h233v-50h-88v-383c0 -134 -70 -219 -193 -234c-41 -23 -68 -56 -68 -93c0 -32 18 -54 57 -54
c32 0 59 9 81 20l-3 -42c-14 -10 -47 -23 -83 -23z" />
    <glyph glyph-name="uogonek" unicode="&#x173;" horiz-adv-x="547" 
d="M425 -201c-68 0 -102 36 -102 89c0 46 30 87 72 113v82c-39 -50 -103 -91 -162 -91c-58 0 -94 21 -114 56c-13 24 -19 53 -19 87v239h-70v46h121v-278c0 -26 5 -47 13 -63c14 -27 39 -39 77 -39c60 0 110 40 152 86v248h-70v46h121v-374h70v-46h-55
c-51 -23 -86 -60 -86 -102c0 -32 18 -54 57 -54c32 0 59 9 81 20l-3 -42c-14 -10 -47 -23 -83 -23z" />
    <glyph glyph-name="uogonek.sc" 
d="M165 455v-274c0 -91 54 -143 140 -143s140 51 140 142v275h-90v46h226v-46h-84v-274c0 -112 -62 -178 -164 -188c-43 -23 -71 -57 -71 -95c0 -32 18 -54 57 -54c32 0 59 9 81 20l-3 -42c-14 -10 -47 -23 -83 -23c-68 0 -102 36 -102 89c0 42 24 78 60 105
c-101 10 -159 75 -159 186v276h-84v46h226v-46h-90z" />
    <glyph glyph-name="Uring" unicode="&#x16e;" horiz-adv-x="718" 
d="M357 -12c-151 0 -233 87 -233 233v387h-88v50h233v-50h-90v-382c0 -125 65 -186 179 -186s181 60 181 184v384h-90v50h233v-50h-88v-383c0 -149 -87 -237 -237 -237zM359 708c-55 0 -99 46 -99 102s44 102 99 102s99 -46 99 -102s-44 -102 -99 -102zM359 749
c33 0 57 27 57 61s-24 61 -57 61s-57 -27 -57 -61s24 -61 57 -61z" />
    <glyph glyph-name="uring" unicode="&#x16f;" horiz-adv-x="547" 
d="M233 -8c-58 0 -94 21 -114 56c-13 24 -19 53 -19 87v239h-70v46h121v-278c0 -26 5 -47 13 -63c14 -27 39 -39 77 -39c60 0 110 40 152 86v248h-70v46h121v-374h70v-46h-119v83c-39 -50 -103 -91 -162 -91zM269 498c-55 0 -99 46 -99 102s44 102 99 102s99 -46 99 -102
s-44 -102 -99 -102zM269 539c33 0 57 27 57 61s-24 61 -57 61s-57 -27 -57 -61s24 -61 57 -61z" />
    <glyph glyph-name="uring.sc" 
d="M165 455v-274c0 -91 54 -143 140 -143s140 51 140 142v275h-90v46h226v-46h-84v-274c0 -122 -73 -190 -193 -190s-191 66 -191 188v276h-84v46h226v-46h-90zM305 558c-55 0 -99 46 -99 102s44 102 99 102s99 -46 99 -102s-44 -102 -99 -102zM305 599c33 0 57 27 57 61
s-24 61 -57 61s-57 -27 -57 -61s24 -61 57 -61z" />
    <glyph glyph-name="Wacute" unicode="&#x1e82;" horiz-adv-x="975" 
d="M289 -12l-190 620h-79v50h219v-50h-81l152 -513l166 478h32l167 -477l150 512h-84v50h218v-50h-79l-187 -620h-34l-167 475l-169 -475h-34zM452 719l-12 19l125 115c13 12 25 20 38 20c18 0 36 -14 36 -39c0 -12 -14 -28 -35 -39z" />
    <glyph glyph-name="wacute" unicode="&#x1e83;" horiz-adv-x="682" 
d="M191 -18l-121 392h-62v46h184v-44h-70l85 -294l125 289h20l125 -288l85 293h-72v44h184v-46h-63l-120 -392h-20l-130 300l-130 -300h-20zM304 509l-12 19l125 115c13 12 25 20 38 20c18 0 36 -14 36 -39c0 -12 -14 -28 -35 -39z" />
    <glyph glyph-name="wacute.sc" horiz-adv-x="772" 
d="M225 -12l-141 467h-73v46h210v-46h-81l107 -365l129 343h24l130 -343l106 365h-81v46h206v-46h-73l-141 -467h-30l-131 351l-131 -351h-30zM350 569l-12 19l125 115c13 12 25 20 38 20c18 0 36 -14 36 -39c0 -12 -14 -28 -35 -39z" />
    <glyph glyph-name="Wcircumflex" unicode="&#x174;" horiz-adv-x="975" 
d="M289 -12l-190 620h-79v50h219v-50h-81l152 -513l166 478h32l167 -477l150 512h-84v50h218v-50h-79l-187 -620h-34l-167 475l-169 -475h-34zM370 713l-25 30l144 134l144 -134l-25 -30l-119 91z" />
    <glyph glyph-name="wcircumflex" unicode="&#x175;" horiz-adv-x="682" 
d="M191 -18l-121 392h-62v46h184v-44h-70l85 -294l125 289h20l125 -288l85 293h-72v44h184v-46h-63l-120 -392h-20l-130 300l-130 -300h-20zM222 503l-25 30l144 134l144 -134l-25 -30l-119 91z" />
    <glyph glyph-name="wcircumflex.sc" horiz-adv-x="772" 
d="M225 -12l-141 467h-73v46h210v-46h-81l107 -365l129 343h24l130 -343l106 365h-81v46h206v-46h-73l-141 -467h-30l-131 351l-131 -351h-30zM268 563l-25 30l144 134l144 -134l-25 -30l-119 91z" />
    <glyph glyph-name="Wdieresis" unicode="&#x1e84;" horiz-adv-x="975" 
d="M289 -12l-190 620h-79v50h219v-50h-81l152 -513l166 478h32l167 -477l150 512h-84v50h218v-50h-79l-187 -620h-34l-167 475l-169 -475h-34zM569 735c-28 0 -49 23 -49 51s21 51 49 51s49 -23 49 -51s-21 -51 -49 -51zM409 735c-28 0 -49 23 -49 51s21 51 49 51
s49 -23 49 -51s-21 -51 -49 -51z" />
    <glyph glyph-name="wdieresis" unicode="&#x1e85;" horiz-adv-x="682" 
d="M191 -18l-121 392h-62v46h184v-44h-70l85 -294l125 289h20l125 -288l85 293h-72v44h184v-46h-63l-120 -392h-20l-130 300l-130 -300h-20zM421 525c-28 0 -49 23 -49 51s21 51 49 51s49 -23 49 -51s-21 -51 -49 -51zM261 525c-28 0 -49 23 -49 51s21 51 49 51
s49 -23 49 -51s-21 -51 -49 -51z" />
    <glyph glyph-name="wdieresis.sc" horiz-adv-x="772" 
d="M225 -12l-141 467h-73v46h210v-46h-81l107 -365l129 343h24l130 -343l106 365h-81v46h206v-46h-73l-141 -467h-30l-131 351l-131 -351h-30zM467 585c-28 0 -49 23 -49 51s21 51 49 51s49 -23 49 -51s-21 -51 -49 -51zM307 585c-28 0 -49 23 -49 51s21 51 49 51
s49 -23 49 -51s-21 -51 -49 -51z" />
    <glyph glyph-name="Wgrave" unicode="&#x1e80;" horiz-adv-x="975" 
d="M289 -12l-190 620h-79v50h219v-50h-81l152 -513l166 478h32l167 -477l150 512h-84v50h218v-50h-79l-187 -620h-34l-167 475l-169 -475h-34zM526 719l-152 76c-21 11 -35 27 -35 39c0 25 18 39 36 39c13 0 25 -8 38 -20l125 -115z" />
    <glyph glyph-name="wgrave" unicode="&#x1e81;" horiz-adv-x="682" 
d="M191 -18l-121 392h-62v46h184v-44h-70l85 -294l125 289h20l125 -288l85 293h-72v44h184v-46h-63l-120 -392h-20l-130 300l-130 -300h-20zM378 509l-152 76c-21 11 -35 27 -35 39c0 25 18 39 36 39c13 0 25 -8 38 -20l125 -115z" />
    <glyph glyph-name="wgrave.sc" horiz-adv-x="772" 
d="M225 -12l-141 467h-73v46h210v-46h-81l107 -365l129 343h24l130 -343l106 365h-81v46h206v-46h-73l-141 -467h-30l-131 351l-131 -351h-30zM424 569l-152 76c-21 11 -35 27 -35 39c0 25 18 39 36 39c13 0 25 -8 38 -20l125 -115z" />
    <glyph glyph-name="Yacute" unicode="&#xdd;" horiz-adv-x="641" 
d="M194 0v50h97v219l-198 339h-72v50h209v-50h-72l163 -290l165 290h-75v50h209v-50h-73l-198 -338v-220h97v-50h-252zM283 719l-12 19l125 115c13 12 25 20 38 20c18 0 36 -14 36 -39c0 -12 -14 -28 -35 -39z" />
    <glyph glyph-name="yacute" unicode="&#xfd;" horiz-adv-x="504" 
d="M202 -122c-32 -50 -65 -78 -107 -78c-33 0 -65 18 -65 50c0 23 16 39 37 39c23 0 39 -20 44 -40c18 7 37 24 58 58c11 18 24 43 38 72l22 46l-162 349h-60v46h186v-46h-68s130 -293 129 -293l131 293h-71v46h183v-46h-60l-200 -431c-12 -25 -23 -46 -35 -65zM215 509
l-12 19l125 115c13 12 25 20 38 20c18 0 36 -14 36 -39c0 -12 -14 -28 -35 -39z" />
    <glyph glyph-name="yacute.sc" horiz-adv-x="523" 
d="M517 501v-46h-71l-159 -265v-144h91v-46h-234v46h91v144l-158 265h-71v46h207v-46h-79l129 -222l129 222h-79v46h204zM226 569l-12 19l125 115c13 12 25 20 38 20c18 0 36 -14 36 -39c0 -12 -14 -28 -35 -39z" />
    <glyph glyph-name="Ycircumflex" unicode="&#x176;" horiz-adv-x="641" 
d="M194 0v50h97v219l-198 339h-72v50h209v-50h-72l163 -290l165 290h-75v50h209v-50h-73l-198 -338v-220h97v-50h-252zM201 713l-25 30l144 134l144 -134l-25 -30l-119 91z" />
    <glyph glyph-name="ycircumflex" unicode="&#x177;" horiz-adv-x="504" 
d="M202 -122c-32 -50 -65 -78 -107 -78c-33 0 -65 18 -65 50c0 23 16 39 37 39c23 0 39 -20 44 -40c18 7 37 24 58 58c11 18 24 43 38 72l22 46l-162 349h-60v46h186v-46h-68s130 -293 129 -293l131 293h-71v46h183v-46h-60l-200 -431c-12 -25 -23 -46 -35 -65zM133 503
l-25 30l144 134l144 -134l-25 -30l-119 91z" />
    <glyph glyph-name="ycircumflex.sc" horiz-adv-x="523" 
d="M517 501v-46h-71l-159 -265v-144h91v-46h-234v46h91v144l-158 265h-71v46h207v-46h-79l129 -222l129 222h-79v46h204zM144 563l-25 30l144 134l144 -134l-25 -30l-119 91z" />
    <glyph glyph-name="Ydieresis" unicode="&#x178;" horiz-adv-x="641" 
d="M194 0v50h97v219l-198 339h-72v50h209v-50h-72l163 -290l165 290h-75v50h209v-50h-73l-198 -338v-220h97v-50h-252zM400 735c-28 0 -49 23 -49 51s21 51 49 51s49 -23 49 -51s-21 -51 -49 -51zM240 735c-28 0 -49 23 -49 51s21 51 49 51s49 -23 49 -51s-21 -51 -49 -51z
" />
    <glyph glyph-name="ydieresis" unicode="&#xff;" horiz-adv-x="504" 
d="M202 -122c-32 -50 -65 -78 -107 -78c-33 0 -65 18 -65 50c0 23 16 39 37 39c23 0 39 -20 44 -40c18 7 37 24 58 58c11 18 24 43 38 72l22 46l-162 349h-60v46h186v-46h-68s130 -293 129 -293l131 293h-71v46h183v-46h-60l-200 -431c-12 -25 -23 -46 -35 -65zM172 525
c-28 0 -49 23 -49 51s21 51 49 51s49 -23 49 -51s-21 -51 -49 -51zM332 525c-28 0 -49 23 -49 51s21 51 49 51s49 -23 49 -51s-21 -51 -49 -51z" />
    <glyph glyph-name="ydieresis.sc" horiz-adv-x="523" 
d="M517 501v-46h-71l-159 -265v-144h91v-46h-234v46h91v144l-158 265h-71v46h207v-46h-79l129 -222l129 222h-79v46h204zM343 585c-28 0 -49 23 -49 51s21 51 49 51s49 -23 49 -51s-21 -51 -49 -51zM183 585c-28 0 -49 23 -49 51s21 51 49 51s49 -23 49 -51s-21 -51 -49 -51
z" />
    <glyph glyph-name="Ygrave" unicode="&#x1ef2;" horiz-adv-x="641" 
d="M194 0v50h97v219l-198 339h-72v50h209v-50h-72l163 -290l165 290h-75v50h209v-50h-73l-198 -338v-220h97v-50h-252zM357 719l-152 76c-21 11 -35 27 -35 39c0 25 18 39 36 39c13 0 25 -8 38 -20l125 -115z" />
    <glyph glyph-name="ygrave" unicode="&#x1ef3;" horiz-adv-x="504" 
d="M202 -122c-32 -50 -65 -78 -107 -78c-33 0 -65 18 -65 50c0 23 16 39 37 39c23 0 39 -20 44 -40c18 7 37 24 58 58c11 18 24 43 38 72l22 46l-162 349h-60v46h186v-46h-68s130 -293 129 -293l131 293h-71v46h183v-46h-60l-200 -431c-12 -25 -23 -46 -35 -65zM289 509
l-152 76c-21 11 -35 27 -35 39c0 25 18 39 36 39c13 0 25 -8 38 -20l125 -115z" />
    <glyph glyph-name="ygrave.sc" horiz-adv-x="523" 
d="M517 501v-46h-71l-159 -265v-144h91v-46h-234v46h91v144l-158 265h-71v46h207v-46h-79l129 -222l129 222h-79v46h204zM300 569l-152 76c-21 11 -35 27 -35 39c0 25 18 39 36 39c13 0 25 -8 38 -20l125 -115z" />
    <glyph glyph-name="Zacute" unicode="&#x179;" horiz-adv-x="597" 
d="M45 0v24l417 587h-340v-102h-55v149h478v-24l-417 -587h369v102h55v-149h-507zM261 719l-12 19l125 115c13 12 25 20 38 20c18 0 36 -14 36 -39c0 -12 -14 -28 -35 -39z" />
    <glyph glyph-name="zacute" unicode="&#x17a;" horiz-adv-x="444" 
d="M40 0v16l277 360h-212v-84h-47v128h343v-16l-277 -360h234v84h47v-128h-365zM185 509l-12 19l125 115c13 12 25 20 38 20c18 0 36 -14 36 -39c0 -12 -14 -28 -35 -39z" />
    <glyph glyph-name="zacute.sc" horiz-adv-x="483" 
d="M45 0v28l320 428h-257v-89h-50v134h382v-27l-319 -428h271v88h51v-134h-398zM207 569l-12 19l125 115c13 12 25 20 38 20c18 0 36 -14 36 -39c0 -12 -14 -28 -35 -39z" />
    <glyph glyph-name="Zcaron" unicode="&#x17d;" horiz-adv-x="597" 
d="M45 0v24l417 587h-340v-102h-55v149h478v-24l-417 -587h369v102h55v-149h-507zM417 881l25 -30l-144 -134l-144 134l25 30l119 -91z" />
    <glyph glyph-name="zcaron" unicode="&#x17e;" horiz-adv-x="444" 
d="M40 0v16l277 360h-212v-84h-47v128h343v-16l-277 -360h234v84h47v-128h-365zM341 671l25 -30l-144 -134l-144 134l25 30l119 -91z" />
    <glyph glyph-name="zcaron.sc" horiz-adv-x="483" 
d="M45 0v28l320 428h-257v-89h-50v134h382v-27l-319 -428h271v88h51v-134h-398zM363 731l25 -30l-144 -134l-144 134l25 30l119 -91z" />
    <glyph glyph-name="Zdotaccent" unicode="&#x17b;" horiz-adv-x="597" 
d="M45 0v24l417 587h-340v-102h-55v149h478v-24l-417 -587h369v102h55v-149h-507zM298 733c-29 0 -51 24 -51 53s22 53 51 53s51 -24 51 -53s-22 -53 -51 -53z" />
    <glyph glyph-name="zdotaccent" unicode="&#x17c;" horiz-adv-x="444" 
d="M40 0v16l277 360h-212v-84h-47v128h343v-16l-277 -360h234v84h47v-128h-365zM222 523c-29 0 -51 24 -51 53s22 53 51 53s51 -24 51 -53s-22 -53 -51 -53z" />
    <glyph glyph-name="zdotaccent.sc" horiz-adv-x="483" 
d="M45 0v28l320 428h-257v-89h-50v134h382v-27l-319 -428h271v88h51v-134h-398zM244 583c-29 0 -51 24 -51 53s22 53 51 53s51 -24 51 -53s-22 -53 -51 -53z" />
    <glyph glyph-name="schwa" unicode="&#x259;" horiz-adv-x="478" 
d="M231 -8c-121 0 -187 95 -187 197c0 15 1 24 3 33h332c-7 105 -72 159 -172 159c-58 0 -95 -18 -145 -47l5 52c43 28 97 42 147 42c133 0 220 -90 220 -217c0 -115 -76 -219 -203 -219zM236 38c72 0 133 54 142 139h-282c6 -82 52 -139 140 -139z" />
    <glyph glyph-name="germandbls" unicode="&#xdf;" horiz-adv-x="532" 
d="M341 -8c-60 0 -100 32 -100 69c0 25 18 41 38 41s36 -16 36 -36c0 -9 -5 -20 -7 -22c6 -4 25 -8 33 -8c60 0 106 38 106 102c0 52 -32 84 -84 112c-67 36 -101 63 -101 124c0 35 10 65 54 108c42 41 52 76 52 116c0 54 -48 95 -101 95c-37 0 -65 -17 -82 -47
c-10 -18 -16 -42 -16 -68v-578h-121v46h70v328h-76v46h76v152c0 43 10 77 27 104c28 43 74 64 128 64c82 0 146 -60 146 -142c0 -58 -19 -102 -64 -146c-36 -35 -43 -52 -43 -78c0 -30 20 -49 78 -82c62 -35 107 -80 107 -154c0 -88 -68 -146 -156 -146z" />
    <glyph glyph-name="zero" unicode="0" horiz-adv-x="542" 
d="M271 -8c-130 0 -222 112 -222 259c0 148 91 258 222 258c129 0 222 -111 222 -258c0 -148 -92 -259 -222 -259zM271 40c100 0 167 87 167 211c0 122 -67 210 -167 210c-99 0 -167 -87 -167 -210c0 -124 68 -211 167 -211z" />
    <glyph glyph-name="one" unicode="1" horiz-adv-x="397" 
d="M65 0v46h120v398l-109 -29l-12 46l153 43h21v-458h118v-46h-291z" />
    <glyph glyph-name="two" unicode="2" horiz-adv-x="480" 
d="M225 461c-46 0 -86 -20 -106 -44c-3 -4 -6 -8 -8 -12c16 -4 30 -20 30 -37c0 -23 -17 -42 -40 -42c-26 0 -45 22 -45 54c0 18 7 36 18 53c28 42 87 76 155 76c116 0 174 -69 174 -144c0 -82 -71 -129 -147 -179c-57 -37 -116 -78 -151 -140h266v88h49v-134h-375l-4 26
c38 95 116 149 194 200c64 43 116 78 116 139c0 56 -45 96 -126 96z" />
    <glyph glyph-name="three" unicode="3" horiz-adv-x="487" 
d="M43 1c0 29 22 53 47 53c23 0 38 -18 38 -37c0 -16 -9 -34 -30 -40c3 -7 8 -12 12 -16c24 -23 69 -37 121 -37c91 0 153 54 153 123c0 51 -30 89 -77 111c-32 15 -73 23 -117 23h-19v47h22c42 0 85 12 118 32c38 23 64 56 64 95c0 67 -54 104 -136 104
c-56 0 -94 -18 -113 -40c-3 -4 -7 -8 -9 -14c17 -4 31 -22 31 -37c0 -24 -20 -38 -40 -38c-24 0 -45 22 -45 52c0 18 6 35 18 53c28 42 86 74 162 74c110 0 183 -71 183 -154c0 -50 -35 -99 -84 -126c-20 -11 -42 -19 -65 -22c22 -3 43 -11 62 -19c58 -27 96 -77 96 -138
c0 -106 -91 -175 -205 -175c-74 0 -140 29 -170 73c-11 16 -17 34 -17 53z" />
    <glyph glyph-name="four" unicode="4" horiz-adv-x="491" 
d="M307 -120v183h-286l-8 19l316 426l40 -29l-274 -370h212v154l50 21v-175h118v-46h-118v-183h-50z" />
    <glyph glyph-name="five" unicode="5" horiz-adv-x="471" 
d="M44 -22c0 25 18 50 45 50c22 0 40 -15 40 -38c0 -13 -8 -27 -20 -35c4 -4 8 -8 14 -12c21 -14 52 -22 97 -22c88 0 154 62 154 148c0 85 -60 145 -149 145c-57 0 -103 -13 -139 -28l-22 13l35 302h295v-50h-253l-24 -208c31 10 68 17 110 17c117 0 201 -78 201 -191
s-92 -194 -206 -194c-65 0 -119 17 -150 45c-18 16 -28 36 -28 58z" />
    <glyph glyph-name="six" unicode="6" horiz-adv-x="517" 
d="M293 589c-99 0 -180 -106 -186 -297c27 51 91 92 164 92c116 0 198 -86 198 -187c0 -114 -84 -205 -203 -205c-58 0 -110 21 -145 57c-46 48 -65 121 -65 212c0 277 130 376 242 376c43 0 91 -16 119 -45c15 -15 24 -33 24 -54c0 -35 -24 -52 -46 -52
c-25 0 -40 18 -40 41c0 16 7 26 18 32c-16 19 -44 30 -80 30zM266 40c92 0 149 65 149 157c0 79 -55 139 -144 139c-95 0 -157 -74 -157 -152c0 -38 14 -74 42 -102c26 -26 63 -42 110 -42z" />
    <glyph glyph-name="seven" unicode="7" horiz-adv-x="442" 
d="M138 -122l-48 20l252 558h-263v-95h-50v140h375l8 -16z" />
    <glyph glyph-name="eight" unicode="8" horiz-adv-x="487" 
d="M243 -8c-112 0 -197 75 -197 175c0 73 56 135 122 157c-69 27 -109 94 -109 143c0 102 83 170 184 170c102 0 184 -68 184 -170c0 -56 -43 -116 -109 -143c65 -22 123 -83 123 -157c0 -100 -85 -175 -198 -175zM243 346c72 0 131 54 131 120c0 69 -57 123 -131 123
c-73 0 -130 -54 -130 -123c0 -66 59 -120 130 -120zM243 40c79 0 141 54 141 128c0 77 -64 131 -141 131c-76 0 -140 -54 -140 -131c0 -74 63 -128 140 -128z" />
    <glyph glyph-name="nine" unicode="9" horiz-adv-x="517" 
d="M210 -125c-44 0 -93 17 -121 47c-14 15 -22 32 -22 52c0 35 24 52 46 52c25 0 40 -18 40 -41c0 -16 -7 -26 -18 -32c16 -19 43 -30 80 -30c107 0 187 101 193 284c-27 -50 -91 -87 -163 -87c-116 0 -198 83 -198 184c0 114 84 205 203 205c58 0 109 -21 145 -57
c47 -47 65 -121 65 -212c0 -280 -138 -365 -250 -365zM360 419c-26 26 -63 42 -110 42c-92 0 -149 -65 -149 -157c0 -79 55 -136 144 -136c95 0 157 71 157 149c0 38 -14 74 -42 102z" />
    <glyph glyph-name="zero.lin" horiz-adv-x="623" 
d="M310 -12c-141 0 -250 136 -250 340c0 207 110 342 253 342c140 0 250 -136 250 -340c0 -207 -110 -342 -253 -342zM311 40c117 0 194 116 194 288c0 173 -77 290 -194 290c-116 0 -193 -116 -193 -288c0 -173 77 -290 193 -290z" />
    <glyph glyph-name="one.lin" horiz-adv-x="415" 
d="M49 0v50h139v546l-132 -34l-12 53l175 46h26v-611h136v-50h-332z" />
    <glyph glyph-name="two.lin" horiz-adv-x="548" 
d="M67 523c0 19 7 40 20 60c31 46 95 87 183 87c105 0 198 -71 198 -176c0 -107 -63 -157 -170 -232c-90 -63 -159 -136 -179 -212h304v99h55v-149h-414l-14 25c32 130 125 213 219 280c85 61 140 107 140 189c0 73 -69 124 -141 124c-67 0 -115 -28 -132 -53
c-4 -5 -6 -10 -7 -14c20 -5 34 -25 34 -44c0 -25 -20 -45 -45 -45c-29 0 -51 19 -51 61z" />
    <glyph glyph-name="three.lin" horiz-adv-x="511" 
d="M241 41c105 0 163 66 163 133c0 56 -31 96 -81 119c-34 16 -76 24 -123 24h-20v50h24c45 0 87 12 119 33c38 24 63 61 63 104c0 73 -55 112 -143 112c-59 0 -99 -18 -118 -35c-4 -4 -8 -7 -10 -10c15 -6 30 -19 30 -42c0 -24 -19 -43 -43 -43s-48 21 -48 55
c0 18 6 35 18 53c29 42 89 76 175 76c108 0 195 -61 195 -166c0 -58 -34 -105 -84 -134c-20 -11 -42 -20 -66 -25c24 -4 48 -10 68 -20c60 -28 99 -81 99 -148c0 -107 -89 -189 -219 -189c-75 0 -149 31 -183 78c-12 17 -19 36 -19 56c0 31 21 57 48 57c24 0 43 -20 43 -44
c0 -20 -13 -35 -29 -40c3 -5 7 -9 12 -13c22 -20 68 -41 129 -41z" />
    <glyph glyph-name="four.lin" horiz-adv-x="536" 
d="M204 0v50h120v146h-303l-9 22l337 454l43 -31l-295 -396h227v153l57 26v-179h116v-49h-116v-146h96v-50h-273z" />
    <glyph glyph-name="five.lin" horiz-adv-x="514" 
d="M240 41c98 0 166 70 166 167c0 81 -58 149 -161 149c-56 0 -110 -19 -141 -33l-25 11l34 323h312v-57h-266l-22 -210c24 10 55 20 112 20c117 0 215 -72 215 -202c0 -142 -106 -221 -228 -221c-64 0 -122 21 -155 52c-20 18 -31 39 -31 62c0 25 17 50 48 50
c22 0 43 -20 43 -44c0 -13 -6 -27 -16 -35c4 -4 7 -7 13 -10c22 -13 55 -22 102 -22z" />
    <glyph glyph-name="six.lin" horiz-adv-x="573" 
d="M477 560c0 -30 -20 -50 -45 -50s-45 20 -45 45c0 15 6 26 14 33c-13 16 -47 29 -84 29c-116 0 -197 -135 -202 -324c10 20 24 38 41 53c37 33 88 55 141 55c129 0 216 -87 216 -205c0 -117 -92 -208 -216 -208c-68 0 -123 23 -163 63c-49 49 -74 126 -74 226
c0 288 140 393 261 393c49 0 90 -15 118 -38c24 -20 38 -45 38 -72zM297 40c91 0 159 64 159 154s-68 155 -159 155c-96 0 -169 -70 -169 -155c0 -41 20 -80 51 -108s72 -46 118 -46z" />
    <glyph glyph-name="seven.lin" horiz-adv-x="490" 
d="M110 0l270 608h-297v-99h-55v149h421l8 -16l-286 -642h-61z" />
    <glyph glyph-name="eight.lin" horiz-adv-x="552" 
d="M276 -12c-124 0 -220 74 -220 189c0 86 79 154 138 166c-69 22 -124 84 -124 152c0 117 98 175 206 175s206 -58 206 -175c0 -68 -55 -130 -124 -152c59 -12 138 -80 138 -166c0 -115 -96 -189 -220 -189zM276 368c83 0 150 56 150 125c0 72 -62 125 -150 125
s-150 -53 -150 -125c0 -69 67 -125 150 -125zM276 40c95 0 164 56 164 137c0 76 -76 139 -164 139s-164 -63 -164 -139c0 -81 69 -137 164 -137z" />
    <glyph glyph-name="nine.lin" horiz-adv-x="573" 
d="M89 98c0 30 20 50 45 50s45 -20 45 -45c0 -13 -5 -25 -14 -33c4 -5 9 -10 16 -14c16 -10 42 -17 78 -17c105 0 197 106 199 315l-6 -11c-36 -57 -102 -94 -176 -94c-129 0 -216 83 -216 209c0 123 92 212 216 212c67 0 122 -23 160 -61c50 -50 77 -129 77 -233
c0 -288 -124 -388 -258 -388c-44 0 -89 15 -122 39c-26 19 -44 45 -44 71zM276 301c96 0 169 68 169 154c0 45 -18 85 -49 115s-73 48 -120 48c-89 0 -159 -63 -159 -158c0 -96 68 -159 159 -159z" />
    <glyph glyph-name="period" unicode="." horiz-adv-x="184" 
d="M92 -8c-30 0 -52 24 -52 54s22 54 52 54s52 -24 52 -54s-22 -54 -52 -54z" />
    <glyph glyph-name="comma" unicode="," horiz-adv-x="184" 
d="M12 -141l-13 21c66 48 85 92 86 118c-24 3 -47 26 -47 51c0 28 24 50 50 50c30 0 56 -24 56 -68c0 -52 -34 -122 -132 -172z" />
    <glyph glyph-name="colon" unicode=":" horiz-adv-x="202" 
d="M102 259c-30 0 -52 24 -52 54s22 54 52 54s52 -24 52 -54s-22 -54 -52 -54zM102 -8c-30 0 -52 24 -52 54s22 54 52 54s52 -24 52 -54s-22 -54 -52 -54z" />
    <glyph glyph-name="semicolon" unicode=";" horiz-adv-x="202" 
d="M102 259c-30 0 -52 24 -52 54s22 54 52 54s52 -24 52 -54s-22 -54 -52 -54zM22 -141l-13 21c66 48 85 92 86 118c-24 3 -47 26 -47 51c0 28 24 50 50 50c30 0 56 -24 56 -68c0 -52 -34 -122 -132 -172z" />
    <glyph glyph-name="ellipsis" unicode="&#x2026;" horiz-adv-x="592" 
d="M490 -8c-30 0 -52 24 -52 54s22 54 52 54s52 -24 52 -54s-22 -54 -52 -54zM296 -8c-30 0 -52 24 -52 54s22 54 52 54s52 -24 52 -54s-22 -54 -52 -54zM102 -8c-30 0 -52 24 -52 54s22 54 52 54s52 -24 52 -54s-22 -54 -52 -54z" />
    <glyph glyph-name="periodcentered" unicode="&#xb7;" horiz-adv-x="264" 
d="M132 196c-30 0 -52 24 -52 54s22 54 52 54s52 -24 52 -54s-22 -54 -52 -54z" />
    <glyph glyph-name="bullet" unicode="&#x2022;" horiz-adv-x="264" 
d="M132 182c-48 0 -83 38 -83 86s35 87 83 87s83 -39 83 -87s-35 -86 -83 -86z" />
    <glyph glyph-name="bullet.alt" horiz-adv-x="626" 
d="M313 -47c-152 0 -255 117 -255 262s103 262 255 262c153 0 256 -117 256 -262s-103 -262 -256 -262z" />
    <glyph glyph-name="ampersand" unicode="&#x26;" horiz-adv-x="596" 
d="M573 264h-60c-19 -56 -40 -101 -65 -139c50 -48 98 -92 112 -103l-34 -35c-14 12 -59 53 -107 99c-56 -64 -127 -94 -209 -94c-122 0 -181 78 -181 155c0 79 46 129 138 188c-55 64 -65 96 -65 142c0 66 51 145 148 145c70 0 129 -50 129 -121c0 -51 -27 -100 -140 -173
c19 -21 43 -44 73 -72c0 0 48 -47 103 -99c22 33 39 70 52 107h-58v46h164v-46zM210 40c75 0 132 32 175 79c-57 54 -107 103 -107 103c-33 31 -59 57 -81 79c-85 -55 -113 -96 -113 -155c0 -52 40 -106 126 -106zM155 475c0 -31 8 -59 54 -114c104 67 117 102 117 140
c0 44 -33 75 -76 75c-56 0 -95 -42 -95 -101z" />
    <glyph glyph-name="exclam" unicode="!" horiz-adv-x="244" 
d="M108 174l-20 483h68l-20 -483h-28zM122 -8c-28 0 -50 23 -50 51s22 52 50 52s50 -24 50 -52s-22 -51 -50 -51z" />
    <glyph glyph-name="exclamdown" unicode="&#xa1;" horiz-adv-x="244" 
d="M122 562c-28 0 -50 24 -50 52s22 51 50 51s50 -23 50 -51s-22 -52 -50 -52zM88 0l20 483h28l20 -483h-68z" />
    <glyph glyph-name="question" unicode="?" horiz-adv-x="427" 
d="M20 533c0 24 9 47 24 67c31 41 90 70 158 70c123 0 198 -75 198 -173c0 -87 -71 -166 -183 -195l-11 -128h-27l-14 161c116 25 181 83 181 160c0 78 -54 126 -143 126c-53 0 -96 -18 -117 -47c-4 -5 -7 -11 -9 -16c23 -5 37 -22 37 -42c0 -23 -19 -42 -42 -42
c-26 0 -52 24 -52 59zM194 -8c-28 0 -50 23 -50 51s22 52 50 52s50 -24 50 -52s-22 -51 -50 -51z" />
    <glyph glyph-name="questiondown" unicode="&#xbf;" horiz-adv-x="427" 
d="M407 125c0 -24 -9 -47 -24 -67c-31 -41 -90 -70 -158 -70c-123 0 -198 75 -198 173c0 87 71 166 183 195l11 128h27l14 -161c-116 -25 -181 -83 -181 -160c0 -78 54 -126 143 -126c53 0 96 18 117 47c4 5 7 11 9 16c-23 5 -37 22 -37 42c0 23 19 42 42 42
c26 0 52 -24 52 -59zM233 666c28 0 50 -23 50 -51s-22 -52 -50 -52s-50 24 -50 52s22 51 50 51z" />
    <glyph glyph-name="quotedblleft" unicode="&#x201c;" horiz-adv-x="366" 
d="M265 433c-32 0 -59 25 -59 72c0 54 37 139 135 188l13 -21c-67 -47 -85 -105 -86 -133c25 -3 50 -27 50 -53c0 -30 -26 -53 -53 -53zM90 433c-32 0 -59 25 -59 72c0 54 37 139 135 188l13 -21c-67 -47 -85 -105 -86 -133c25 -3 50 -27 50 -53c0 -30 -26 -53 -53 -53z" />
    <glyph glyph-name="quotedblright" unicode="&#x201d;" horiz-adv-x="366" 
d="M200 419l-13 21c67 47 85 105 86 133c-25 3 -50 27 -50 53c0 30 26 53 53 53c32 0 59 -25 59 -72c0 -54 -37 -139 -135 -188zM25 419l-13 21c67 47 85 105 86 133c-25 3 -50 27 -50 53c0 30 26 53 53 53c32 0 59 -25 59 -72c0 -54 -37 -139 -135 -188z" />
    <glyph glyph-name="quoteleft" unicode="&#x2018;" horiz-adv-x="191" 
d="M90 433c-32 0 -59 25 -59 72c0 54 37 139 135 188l13 -21c-67 -47 -85 -105 -86 -133c25 -3 50 -27 50 -53c0 -30 -26 -53 -53 -53z" />
    <glyph glyph-name="quoteright" unicode="&#x2019;" horiz-adv-x="191" 
d="M25 419l-13 21c67 47 85 105 86 133c-25 3 -50 27 -50 53c0 30 26 53 53 53c32 0 59 -25 59 -72c0 -54 -37 -139 -135 -188z" />
    <glyph glyph-name="quotedblbase" unicode="&#x201e;" horiz-adv-x="360" 
d="M188 -141l-13 21c66 48 85 92 86 118c-24 3 -47 26 -47 51c0 28 24 50 50 50c30 0 56 -24 56 -68c0 -52 -34 -122 -132 -172zM12 -141l-13 21c66 48 85 92 86 118c-24 3 -47 26 -47 51c0 28 24 50 50 50c30 0 56 -24 56 -68c0 -52 -34 -122 -132 -172z" />
    <glyph glyph-name="quotesinglbase" unicode="&#x201a;" horiz-adv-x="184" 
d="M12 -141l-13 21c66 48 85 92 86 118c-24 3 -47 26 -47 51c0 28 24 50 50 50c30 0 56 -24 56 -68c0 -52 -34 -122 -132 -172z" />
    <glyph glyph-name="guillemotleft" unicode="&#xab;" horiz-adv-x="449" 
d="M362 114l-160 158l160 158l33 -31l-125 -127l125 -127zM193 114l-160 158l160 158l33 -31l-125 -127l125 -127z" />
    <glyph glyph-name="guillemotright" unicode="&#xbb;" horiz-adv-x="449" 
d="M256 114l-33 31l125 127l-125 127l33 31l160 -158zM87 114l-33 31l125 127l-125 127l33 31l160 -158z" />
    <glyph glyph-name="guilsinglleft" unicode="&#x2039;" horiz-adv-x="280" 
d="M193 114l-160 158l160 158l33 -31l-125 -127l125 -127z" />
    <glyph glyph-name="guilsinglright" unicode="&#x203a;" horiz-adv-x="280" 
d="M87 114l-33 31l125 127l-125 127l33 31l160 -158z" />
    <glyph glyph-name="hyphen" unicode="-" horiz-adv-x="274" 
d="M32 250v52h210v-52h-210z" />
    <glyph glyph-name="endash" unicode="&#x2013;" horiz-adv-x="424" 
d="M22 250v52h380v-52h-380z" />
    <glyph glyph-name="emdash" unicode="&#x2014;" horiz-adv-x="709" 
d="M22 250v52h665v-52h-665z" />
    <glyph glyph-name="hyphen.lin" horiz-adv-x="274" 
d="M32 312v52h210v-52h-210z" />
    <glyph glyph-name="endash.lin" horiz-adv-x="424" 
d="M22 312v52h380v-52h-380z" />
    <glyph glyph-name="emdash.lin" horiz-adv-x="709" 
d="M22 312v52h665v-52h-665z" />
    <glyph glyph-name="underscore" unicode="_" horiz-adv-x="515" 
d="M-5 -140v52h525v-52h-525z" />
    <glyph glyph-name="slash" unicode="/" horiz-adv-x="445" 
d="M14 -207l-48 21l410 926l48 -21z" />
    <glyph glyph-name="backslash" unicode="\" horiz-adv-x="445" 
d="M431 -207l-410 926l48 21l410 -926z" />
    <glyph glyph-name="bar" unicode="|" horiz-adv-x="264" 
d="M108 -200v932h48v-932h-48z" />
    <glyph glyph-name="parenleft" unicode="(" horiz-adv-x="330" 
d="M334 -226c-179 107 -266 298 -266 486s87 379 266 486l29 -41c-158 -96 -240 -273 -240 -445c0 -171 82 -349 240 -445z" />
    <glyph glyph-name="parenright" unicode=")" horiz-adv-x="330" 
d="M-4 -226l-29 41c158 96 240 273 240 445c0 171 -82 349 -240 445l29 41c179 -107 266 -298 266 -486s-87 -379 -266 -486z" />
    <glyph glyph-name="parenleft.lin" horiz-adv-x="330" 
d="M334 -166c-179 107 -266 298 -266 486s87 379 266 486l29 -41c-158 -96 -240 -273 -240 -445c0 -171 82 -349 240 -445z" />
    <glyph glyph-name="parenright.lin" horiz-adv-x="330" 
d="M-4 -166l-29 41c158 96 240 273 240 445c0 171 -82 349 -240 445l29 41c179 -107 266 -298 266 -486s-87 -379 -266 -486z" />
    <glyph glyph-name="bracketleft" unicode="[" horiz-adv-x="341" 
d="M106 -200v932h215v-50h-160v-832h160v-50h-215z" />
    <glyph glyph-name="bracketright" unicode="]" horiz-adv-x="341" 
d="M20 -200v50h160v832h-160v50h215v-932h-215z" />
    <glyph glyph-name="bracketleft.lin" horiz-adv-x="341" 
d="M106 -140v932h215v-50h-160v-832h160v-50h-215z" />
    <glyph glyph-name="bracketright.lin" horiz-adv-x="341" 
d="M20 -140v50h160v832h-160v50h215v-932h-215z" />
    <glyph glyph-name="braceleft" unicode="{" horiz-adv-x="328" 
d="M273 -217c-131 3 -210 66 -210 153c0 52 27 81 76 132c26 27 49 53 49 83c0 56 -61 89 -125 89h-14v48h14c64 0 125 33 125 89c0 30 -23 56 -49 83c-49 51 -76 80 -76 132c0 87 79 150 210 153v-43c-114 -5 -157 -61 -157 -110c0 -32 28 -65 62 -102
c32 -35 63 -71 63 -112c0 -36 -23 -93 -115 -114c92 -21 115 -78 115 -114c0 -41 -31 -77 -63 -112c-34 -37 -62 -70 -62 -102c0 -49 43 -105 157 -110v-43z" />
    <glyph glyph-name="braceright" unicode="}" horiz-adv-x="328" 
d="M55 -217v43c114 5 157 61 157 110c0 32 -28 65 -62 102c-32 35 -63 71 -63 112c0 36 23 93 115 114c-92 21 -115 78 -115 114c0 41 31 77 63 112c34 37 62 70 62 102c0 49 -43 105 -157 110v43c131 -3 210 -66 210 -153c0 -52 -27 -81 -76 -132c-26 -27 -49 -53 -49 -83
c0 -56 61 -89 125 -89h14v-48h-14c-64 0 -125 -33 -125 -89c0 -30 23 -56 49 -83c49 -51 76 -80 76 -132c0 -87 -79 -150 -210 -153z" />
    <glyph glyph-name="braceleft.lin" horiz-adv-x="328" 
d="M273 -157c-131 3 -210 66 -210 153c0 52 27 81 76 132c26 27 49 53 49 83c0 56 -61 89 -125 89h-14v48h14c64 0 125 33 125 89c0 30 -23 56 -49 83c-49 51 -76 80 -76 132c0 87 79 150 210 153v-43c-114 -5 -157 -61 -157 -110c0 -32 28 -65 62 -102
c32 -35 63 -71 63 -112c0 -36 -23 -93 -115 -114c92 -21 115 -78 115 -114c0 -41 -31 -77 -63 -112c-34 -37 -62 -70 -62 -102c0 -49 43 -105 157 -110v-43z" />
    <glyph glyph-name="braceright.lin" horiz-adv-x="328" 
d="M55 -157v43c114 5 157 61 157 110c0 32 -28 65 -62 102c-32 35 -63 71 -63 112c0 36 23 93 115 114c-92 21 -115 78 -115 114c0 41 31 77 63 112c34 37 62 70 62 102c0 49 -43 105 -157 110v43c131 -3 210 -66 210 -153c0 -52 -27 -81 -76 -132c-26 -27 -49 -53 -49 -83
c0 -56 61 -89 125 -89h14v-48h-14c-64 0 -125 -33 -125 -89c0 -30 23 -56 49 -83c49 -51 76 -80 76 -132c0 -87 -79 -150 -210 -153z" />
    <glyph glyph-name="at" unicode="@" horiz-adv-x="802" 
d="M330 -174c-173 0 -282 130 -282 292c0 273 200 484 429 484c173 0 281 -112 281 -282c0 -157 -85 -282 -187 -282c-62 0 -86 44 -80 84c-27 -51 -78 -84 -134 -84c-73 0 -130 53 -130 141c0 113 88 208 186 208c70 0 105 -44 112 -85l20 82h47l-55 -221
c-14 -54 -1 -85 36 -85c81 0 144 120 144 243c0 140 -92 244 -241 244c-209 0 -387 -196 -387 -448c0 -135 93 -254 242 -254c58 0 113 14 161 40l17 -33c-53 -29 -115 -44 -179 -44zM367 83c84 0 142 88 142 164c0 60 -37 95 -95 95c-78 0 -134 -77 -134 -162
c0 -60 30 -97 87 -97z" />
    <glyph glyph-name="copyright" unicode="&#xa9;" horiz-adv-x="598" 
d="M299 -8c-146 0 -251 115 -251 258s105 259 251 259s251 -116 251 -259s-105 -258 -251 -258zM299 24c124 0 214 102 214 227s-90 227 -214 227s-214 -102 -214 -227s90 -227 214 -227zM307 356c-52 0 -92 -46 -92 -100s39 -101 97 -101c30 0 55 12 77 33l21 -25
c-25 -28 -62 -41 -99 -41c-79 0 -134 57 -134 132c0 80 64 134 130 134c62 0 99 -36 99 -62c0 -15 -10 -28 -24 -28c-13 0 -23 10 -23 23c0 6 2 12 5 15c-7 10 -25 20 -57 20z" />
    <glyph glyph-name="published" unicode="&#x2117;" horiz-adv-x="598" 
d="M299 -8c-146 0 -251 115 -251 258s105 259 251 259s251 -116 251 -259s-105 -258 -251 -258zM299 24c124 0 214 102 214 227s-90 227 -214 227s-214 -102 -214 -227s90 -227 214 -227zM315 208c-14 0 -27 0 -34 1v-63h35v-31h-102v31h33v202h-33v31h103
c56 0 98 -33 98 -84c0 -56 -40 -87 -100 -87zM317 238c39 0 63 22 63 57c0 33 -27 53 -64 53h-35v-109c7 0 19 -1 36 -1z" />
    <glyph glyph-name="registered.alt" horiz-adv-x="598" 
d="M299 -8c-146 0 -251 115 -251 258s105 259 251 259s251 -116 251 -259s-105 -258 -251 -258zM299 24c124 0 214 102 214 227s-90 227 -214 227s-214 -102 -214 -227s90 -227 214 -227zM298 124h-101v31h33v202h-33v30h100c60 0 99 -28 99 -77c0 -35 -23 -61 -55 -72
l51 -83h31v-31h-54l-61 105h-44v-74h34v-31zM296 357h-32v-99h30c40 0 67 19 67 51s-26 48 -65 48z" />
    <glyph glyph-name="registered" unicode="&#xae;" horiz-adv-x="386" 
d="M193 336c-100 0 -178 79 -178 178c0 100 78 179 178 179c99 0 178 -79 178 -179c0 -98 -80 -178 -178 -178zM193 663c-81 0 -144 -65 -144 -149c0 -83 63 -148 144 -148c79 0 144 66 144 148c0 84 -63 149 -144 149zM124 431v26h20v121h-20v26h68c39 0 68 -18 68 -52
c0 -22 -14 -39 -33 -47l27 -48h20v-26h-40l-36 66h-25v-40h23v-26h-72zM173 522h18c24 0 39 10 39 29c0 18 -15 27 -39 27h-18v-56z" />
    <glyph glyph-name="copyright.lin" horiz-adv-x="782" 
d="M391 -12c-188 0 -334 153 -334 341s146 341 334 341s334 -153 334 -341s-146 -341 -334 -341zM391 21c165 0 296 139 296 308s-131 308 -296 308s-296 -139 -296 -308s131 -308 296 -308zM402 465c-72 0 -124 -59 -124 -131c0 -70 51 -131 127 -131c39 0 71 16 99 43
l27 -30c-33 -34 -79 -52 -126 -52c-102 0 -171 75 -171 169c0 101 78 172 169 172c71 0 124 -42 124 -81c0 -20 -13 -35 -31 -35c-17 0 -30 12 -30 29c0 9 5 16 10 19c-9 13 -35 28 -74 28z" />
    <glyph glyph-name="published.lin" horiz-adv-x="782" 
d="M391 -12c-188 0 -334 153 -334 341s146 341 334 341s334 -153 334 -341s-146 -341 -334 -341zM391 21c165 0 296 139 296 308s-131 308 -296 308s-296 -139 -296 -308s131 -308 296 -308zM404 281h-42v-78h44v-38h-128v38h41v253h-41v38h129c69 0 122 -41 122 -105
c0 -70 -50 -108 -125 -108zM407 318c49 0 78 27 78 71c0 42 -34 67 -79 67h-44v-137c9 0 24 -1 45 -1z" />
    <glyph glyph-name="registered.lin" horiz-adv-x="782" 
d="M391 -12c-188 0 -334 153 -334 341s146 341 334 341s334 -153 334 -341s-146 -341 -334 -341zM391 21c165 0 296 139 296 308s-131 308 -296 308s-296 -139 -296 -308s131 -308 296 -308zM349 302v-93h43v-38h-126v38h41v253h-41v38h125c74 0 123 -35 123 -96
c0 -45 -28 -77 -68 -90l63 -105h39v-38h-65l-75 131h-59zM349 339h38c48 0 83 23 83 63s-31 60 -81 60h-40v-123z" />
    <glyph glyph-name="servicemark" unicode="&#x2120;" horiz-adv-x="553" 
d="M224 413v33h36l9 179h-37v33h80l72 -159l73 159h80v-33h-38l8 -179h38v-33h-101v33h30l-6 163l-76 -166h-17l-77 166l-5 -163h31v-33h-100zM98 409c-51 0 -90 28 -90 56c0 15 9 26 23 26c15 0 23 -11 23 -21c0 -7 -2 -11 -4 -15c9 -8 27 -14 48 -14c32 0 52 14 52 38
c0 22 -24 32 -53 42c-46 15 -79 30 -79 73c0 38 33 68 83 68c46 0 83 -23 83 -52c0 -15 -10 -24 -23 -24c-16 0 -25 9 -25 21c0 6 3 9 6 12c-8 6 -25 11 -41 11c-30 0 -48 -13 -48 -34c0 -23 27 -33 56 -43c45 -15 78 -29 78 -72c0 -44 -38 -72 -89 -72z" />
    <glyph glyph-name="trademark" unicode="&#x2122;" horiz-adv-x="594" 
d="M265 413v33h36l9 179h-37v33h80l72 -159l73 159h80v-33h-38l8 -179h38v-33h-101v33h30l-6 163l-76 -166h-17l-77 166l-5 -163h31v-33h-100zM69 413v33h38v181h-65v-37h-34v68h233v-68h-35v37h-64v-181h37v-33h-110z" />
    <glyph glyph-name="asterisk" unicode="*" horiz-adv-x="380" 
d="M307 549l-101 -10l73 -68c22 -20 20 -44 4 -56c-18 -13 -41 -5 -52 20l-41 94l-41 -94c-11 -25 -34 -33 -52 -20c-16 12 -18 36 4 56l73 68l-101 10c-28 3 -40 25 -34 44s31 26 54 13l88 -48l-21 98c-6 27 10 47 30 47s36 -20 30 -47l-21 -98l88 48c23 13 48 6 54 -13
s-6 -41 -34 -44z" />
    <glyph glyph-name="dagger" unicode="&#x2020;" horiz-adv-x="444" 
d="M207 -2l-10 396l-90 12c3 -34 -20 -58 -45 -58c-28 0 -43 23 -43 45c0 29 21 52 57 52c9 0 20 -2 30 -4l103 -22l-23 156c-6 38 8 62 36 62s42 -24 36 -62l-23 -156l103 22c10 2 21 4 30 4c36 0 57 -23 57 -52c0 -22 -15 -45 -43 -45c-25 0 -48 24 -45 58l-90 -12
l-10 -396h-30z" />
    <glyph glyph-name="daggerdbl" unicode="&#x2021;" horiz-adv-x="444" 
d="M222 -122c-28 0 -42 24 -36 62l20 125l-85 -19c-10 -2 -21 -4 -30 -4c-34 0 -59 23 -59 50c0 22 17 44 45 44c25 0 48 -21 45 -55l73 10l15 166l-15 167l-73 10c3 -34 -20 -55 -45 -55c-28 0 -45 22 -45 44c0 27 25 50 59 50c9 0 20 -2 30 -4l85 -19l-20 125
c-6 38 8 62 36 62s42 -25 36 -62l-20 -125l85 19c10 2 21 4 30 4c34 0 59 -23 59 -50c0 -22 -17 -44 -45 -44c-25 0 -48 21 -45 55l-73 -10l-15 -167l15 -166l73 -10c-3 34 20 55 45 55c28 0 45 -22 45 -44c0 -27 -25 -50 -59 -50c-9 0 -20 2 -30 4l-85 19l20 -125
c6 -37 -8 -62 -36 -62z" />
    <glyph glyph-name="asciicircum" unicode="^" horiz-adv-x="440" 
d="M101 373l-25 30l144 134l144 -134l-25 -30l-119 91z" />
    <glyph glyph-name="asciitilde" unicode="~" horiz-adv-x="420" 
d="M278 194c-39 0 -64 20 -87 40c-22 19 -33 26 -47 26c-24 0 -39 -24 -44 -57l-45 10c3 57 44 101 87 101c39 0 64 -20 87 -40c22 -19 33 -26 47 -26c24 0 39 24 44 57l45 -10c-3 -57 -44 -101 -87 -101z" />
    <glyph glyph-name="dollar" unicode="$" horiz-adv-x="435" 
d="M269 569l-5 -70c73 -9 124 -45 124 -85c0 -24 -15 -40 -36 -40c-22 0 -40 16 -40 39c0 8 2 17 7 26c-8 6 -34 13 -61 17l-13 -177c78 -28 145 -62 145 -145c0 -92 -78 -132 -164 -134l-8 -105l-44 3l7 104c-77 8 -143 42 -143 96c0 22 16 41 38 41c25 0 39 -17 39 -37
c0 -10 -3 -19 -9 -29c10 -12 40 -25 82 -29l14 199c-72 24 -139 53 -139 132c0 75 70 123 157 126l5 71zM340 135c0 49 -43 74 -99 94l-13 -187c62 2 112 32 112 93zM113 375c0 -43 43 -64 93 -82l12 166c-59 -3 -105 -29 -105 -84z" />
    <glyph glyph-name="dollar.lin" horiz-adv-x="560" 
d="M264 -100l-50 4l9 99c-109 16 -176 80 -176 126c0 33 21 55 46 55c24 0 42 -18 42 -40c0 -19 -9 -34 -20 -46c17 -19 61 -40 114 -48l23 269c-98 33 -169 76 -169 170c0 95 76 166 197 169l8 88l50 -4l-8 -88c86 -13 153 -65 153 -120c0 -31 -21 -49 -44 -49
c-25 0 -44 19 -44 43c0 16 9 31 18 41c-15 17 -53 32 -89 38l-22 -250c111 -36 196 -77 196 -178c0 -113 -99 -179 -226 -179zM444 175c0 68 -55 101 -147 130l-22 -258c103 1 169 48 169 128zM137 493c0 -62 45 -93 120 -121l21 239c-86 -3 -141 -53 -141 -118z" />
    <glyph glyph-name="sterling" unicode="&#xa3;" horiz-adv-x="448" 
d="M337 126h-165c0 -7 1 -15 1 -22c0 -65 -25 -105 -55 -135c33 -3 76 -14 103 -23c48 -17 74 -20 100 -20c43 0 63 15 83 53l40 -23c-27 -52 -64 -78 -121 -78c-32 0 -72 7 -120 26c-30 12 -59 20 -90 20c-8 0 -16 0 -23 -1c-23 -30 -54 -45 -77 -45c-22 0 -38 13 -38 29
c0 29 30 55 93 62c38 38 58 81 58 135c0 8 0 15 -1 22h-98v44h88l-10 34c-10 33 -21 70 -21 122c0 96 67 183 175 183c83 0 152 -48 152 -99c0 -35 -21 -52 -41 -52c-22 0 -37 16 -37 38c0 16 9 30 16 35c-14 18 -38 33 -91 33c-77 0 -125 -65 -125 -138
c0 -50 10 -84 20 -116l12 -40h172v-44z" />
    <glyph glyph-name="sterling.lin" horiz-adv-x="548" 
d="M35 24c0 26 30 57 101 57c34 45 47 90 47 145c0 10 -1 20 -2 31h-102v46h92l-12 38c-14 41 -28 85 -28 144c0 101 82 185 184 185c98 0 163 -57 163 -116c0 -30 -22 -49 -45 -49c-26 0 -45 19 -45 43c0 16 10 31 17 38c-15 20 -43 34 -92 34c-70 0 -130 -60 -130 -134
c0 -52 13 -92 25 -131c6 -18 11 -36 15 -52h171v-46h-163c1 -11 2 -21 2 -32c0 -68 -21 -118 -45 -143c26 -2 59 -10 91 -20c53 -17 73 -22 104 -22c51 0 68 19 86 64l45 -19c-18 -62 -56 -97 -129 -97c-44 0 -71 9 -122 27c-37 12 -64 21 -106 22c-22 -32 -58 -50 -81 -50
c-26 0 -41 15 -41 37z" />
    <glyph glyph-name="Euro" unicode="&#x20ac;" horiz-adv-x="562" 
d="M37 287v43h65c33 108 130 178 236 178c102 0 182 -63 182 -123c0 -27 -19 -48 -44 -48c-21 0 -37 16 -37 37c0 17 11 31 21 34c-13 23 -57 53 -122 53c-86 0 -153 -56 -181 -131h200v-43h-211c-2 -13 -3 -26 -3 -39c0 -14 1 -28 3 -41h211v-43h-197
c29 -72 95 -126 181 -126c58 0 107 22 152 65l31 -38c-50 -49 -118 -74 -183 -74c-120 0 -207 75 -238 173h-66v43h56c-2 13 -3 26 -3 40c0 13 1 27 3 40h-56z" />
    <glyph glyph-name="Euro.lin" horiz-adv-x="713" 
d="M33 376v48h97c35 157 154 245 297 245c122 0 221 -81 221 -164c0 -28 -16 -54 -49 -54c-25 0 -41 21 -41 42s11 38 27 45c-11 31 -82 80 -160 80c-118 0 -207 -69 -236 -194h264v-48h-273c-1 -16 -2 -33 -2 -50c0 -19 1 -38 3 -56h272v-48h-262
c28 -106 101 -182 223 -182c80 0 136 28 191 81l36 -38c-50 -57 -132 -95 -228 -95c-154 0 -250 100 -282 234h-98v48h90c-2 18 -3 36 -3 55c0 17 1 34 3 51h-90z" />
    <glyph glyph-name="yen" unicode="&#xa5;" horiz-adv-x="481" 
d="M80 229v43h112l-116 183h-57v46h164v-46h-54l112 -181l110 181h-55v46h164v-46h-58l-117 -183h114v-43h-137v-67h137v-43h-137v-75h77v-44h-198v44h77v75h-138v43h138v67h-138z" />
    <glyph glyph-name="yen.lin" horiz-adv-x="641" 
d="M194 0v50h98v97h-169v48h169v71h-169v48h141l-171 294h-72v50h209v-50h-72l164 -291l162 291h-73v50h209v-50h-73l-172 -294h142v-48h-169v-71h169v-48h-169v-97h98v-50h-252z" />
    <glyph glyph-name="cent" unicode="&#xa2;" horiz-adv-x="481" 
d="M437 348c0 -22 -19 -50 -47 -50c-16 0 -36 10 -36 38c0 6 8 26 24 34c-11 25 -49 43 -86 49l-30 -340c8 -1 16 -1 25 -1c51 0 94 15 141 47l-5 -52c-41 -30 -100 -41 -138 -41c-9 0 -18 0 -27 1l-12 -138l-44 4l12 142c-99 28 -168 112 -168 208c0 112 93 210 205 217
l10 107l44 -4l-9 -104c77 -12 141 -64 141 -117zM100 248c0 -78 44 -138 118 -161l29 334c-69 -9 -147 -68 -147 -173z" />
    <glyph glyph-name="cent.lin" horiz-adv-x="489" 
d="M194 -14l13 144c-101 28 -167 110 -167 209c0 119 91 211 205 217l11 115l47 -4l-10 -113c75 -12 138 -64 138 -116c0 -23 -18 -54 -48 -54c-16 0 -37 10 -37 38c0 6 8 28 24 36c-10 24 -44 42 -81 49l-31 -337c9 -1 18 -1 28 -1c39 0 84 15 136 49l-5 -55
c-40 -28 -97 -42 -136 -42c-10 0 -19 0 -28 1l-12 -140zM97 338c0 -76 43 -135 114 -158l30 329c-73 -8 -144 -63 -144 -171z" />
    <glyph glyph-name="numbersign" unicode="#" horiz-adv-x="491" 
d="M44 328v46h105l20 127h46l-20 -127h138l20 127h46l-20 -127h99v-46h-106l-24 -152h99v-46h-106l-20 -130h-46l20 130h-138l-20 -130h-46l20 130h-98v46h105l24 152h-98zM188 328l-24 -152h138l24 152h-138z" />
    <glyph glyph-name="numbersign.lin" horiz-adv-x="569" 
d="M58 423v42h135l30 192h47l-30 -192h129l30 192h47l-30 -192h136v-42h-142l-30 -196h131v-42h-138l-28 -185h-47l28 185h-129l-28 -185h-47l28 185h-133v42h140l30 196h-129zM234 423l-30 -196h129l30 196h-129z" />
    <glyph glyph-name="paragraph" unicode="&#xb6;" horiz-adv-x="562" 
d="M211 0v44h80v149c-17 -1 -51 -1 -80 -1c-102 0 -177 60 -177 157c0 89 78 152 180 152h305v-46h-76v-409h76v-46h-308zM338 44h58v413h-58v-413z" />
    <glyph glyph-name="paragraph.lin" horiz-adv-x="666" 
d="M254 0v50h93v197c-22 -1 -38 -1 -76 -1c-143 0 -237 81 -237 208c0 124 104 204 241 204h339v-50h-88v-558h88v-50h-360zM404 47h65v564h-65v-564z" />
    <glyph glyph-name="section" unicode="&#xa7;" horiz-adv-x="451" 
d="M234 508c73 0 139 -33 139 -79c0 -22 -13 -40 -35 -40c-23 0 -37 16 -37 39c0 6 1 12 3 18c-11 9 -44 19 -70 19c-58 0 -87 -23 -87 -50c0 -28 26 -43 104 -64c82 -21 137 -48 137 -103c0 -43 -35 -70 -79 -86c33 -17 53 -40 53 -76c0 -49 -53 -97 -144 -97
c-74 0 -140 33 -140 79c0 21 13 39 35 39c23 0 38 -15 38 -38c0 -6 -1 -12 -4 -18c12 -11 44 -19 70 -19c58 0 87 23 87 49c0 29 -25 43 -104 64c-82 22 -137 48 -137 101c0 42 35 73 79 88c-36 18 -53 41 -53 77c0 47 53 97 145 97zM227 189l34 -9c39 13 69 34 69 61
c0 32 -26 47 -106 67l-35 9c-37 -13 -68 -35 -68 -61c0 -32 25 -48 106 -67z" />
    <glyph glyph-name="section.lin" horiz-adv-x="535" 
d="M119 134c25 0 44 -16 44 -41c0 -9 -1 -19 -7 -29c14 -14 64 -28 97 -28c80 0 129 31 129 72c0 37 -19 55 -143 87c-109 28 -179 62 -179 132c0 56 53 98 108 120c-50 23 -73 52 -73 100c0 64 74 123 186 123c45 0 85 -11 116 -27c36 -19 59 -47 59 -74
c0 -26 -17 -45 -40 -45c-25 0 -44 16 -44 41c0 9 1 19 7 29c-4 4 -11 8 -20 12c-22 9 -54 16 -77 16c-80 0 -129 -31 -129 -72c0 -37 19 -55 143 -87c109 -28 179 -62 179 -132c0 -56 -51 -96 -106 -120c46 -20 70 -48 70 -97c0 -69 -73 -126 -185 -126
c-60 0 -113 19 -144 46c-20 17 -31 36 -31 55c0 26 17 45 40 45zM263 418l-47 12c-53 -20 -95 -53 -95 -96c0 -37 23 -64 151 -94l47 -12c55 20 95 54 95 96c0 37 -23 64 -151 94z" />
    <glyph glyph-name="ordfeminine" unicode="&#xaa;" horiz-adv-x="339" 
d="M124 410c-49 0 -83 29 -83 72c0 46 40 76 96 76c27 0 60 -7 73 -12v36c0 19 -7 33 -19 42c-11 8 -27 12 -47 12c-21 0 -32 -4 -40 -10c2 -4 3 -9 3 -15c0 -14 -10 -25 -25 -25c-16 0 -26 11 -26 26c0 29 33 58 93 58c27 0 49 -6 65 -16c22 -14 34 -38 34 -66v-140h40v-33
h-77v32c-21 -20 -53 -37 -87 -37zM50 305v37h238v-37h-238zM134 442c30 0 57 16 76 36v42c-18 5 -44 10 -69 10c-40 0 -61 -19 -61 -45c0 -25 19 -43 54 -43z" />
    <glyph glyph-name="ordmasculine" unicode="&#xba;" horiz-adv-x="352" 
d="M62 305v37h228v-37h-228zM177 409c-78 0 -130 60 -130 131s52 131 130 131c77 0 128 -59 128 -131c0 -71 -51 -131 -128 -131zM177 443c52 0 87 41 87 97s-35 97 -87 97c-53 0 -89 -41 -89 -97s36 -97 89 -97z" />
    <glyph glyph-name="ordfeminine.lin" horiz-adv-x="339" 
d="M124 483c-49 0 -83 29 -83 72c0 46 40 76 96 76c27 0 60 -7 73 -12v36c0 19 -7 33 -19 42c-11 8 -27 12 -47 12c-21 0 -32 -4 -40 -10c2 -4 3 -9 3 -15c0 -14 -10 -25 -25 -25c-16 0 -26 11 -26 26c0 29 33 58 93 58c27 0 49 -6 65 -16c22 -14 34 -38 34 -66v-140h40v-33
h-77v32c-21 -20 -53 -37 -87 -37zM50 378v37h238v-37h-238zM134 515c30 0 57 16 76 36v42c-18 5 -44 10 -69 10c-40 0 -61 -19 -61 -45c0 -25 19 -43 54 -43z" />
    <glyph glyph-name="ordmasculine.lin" horiz-adv-x="352" 
d="M62 378v37h228v-37h-228zM177 482c-78 0 -130 60 -130 131s52 131 130 131c77 0 128 -59 128 -131c0 -71 -51 -131 -128 -131zM177 516c52 0 87 41 87 97s-35 97 -87 97c-53 0 -89 -41 -89 -97s36 -97 89 -97z" />
    <glyph glyph-name="degree" unicode="&#xb0;" horiz-adv-x="300" 
d="M150 417c-75 0 -126 58 -126 127s51 127 126 127c73 0 123 -57 123 -127c0 -69 -50 -127 -123 -127zM150 452c49 0 83 40 83 92s-34 92 -83 92c-51 0 -85 -40 -85 -92s34 -92 85 -92z" />
    <glyph glyph-name="degree.lin" horiz-adv-x="300" 
d="M150 490c-75 0 -126 58 -126 127s51 127 126 127c73 0 123 -57 123 -127c0 -69 -50 -127 -123 -127zM150 525c49 0 83 40 83 92s-34 92 -83 92c-51 0 -85 -40 -85 -92s34 -92 85 -92z" />
    <glyph glyph-name="percent" unicode="%" horiz-adv-x="622" 
d="M166 274c-65 0 -115 53 -115 118s50 118 115 118s115 -53 115 -118s-50 -118 -115 -118zM456 228c65 0 115 -53 115 -118s-50 -118 -115 -118s-115 53 -115 118s50 118 115 118zM130 -25l-33 26l193 252c76 99 183 239 193 253l34 -25l-195 -255zM166 315
c41 0 71 35 71 77s-30 77 -71 77s-71 -35 -71 -77s30 -77 71 -77zM456 187c-41 0 -71 -35 -71 -77s30 -77 71 -77s71 35 71 77s-30 77 -71 77z" />
    <glyph glyph-name="perthousand" unicode="&#x2030;" horiz-adv-x="889" 
d="M166 274c-65 0 -115 53 -115 118s50 118 115 118s115 -53 115 -118s-50 -118 -115 -118zM456 -8c-65 0 -115 53 -115 118s50 118 115 118s115 -53 115 -118s-50 -118 -115 -118zM723 -8c-65 0 -115 53 -115 118s50 118 115 118s115 -53 115 -118s-50 -118 -115 -118z
M130 -25l-33 26l193 252c76 99 183 239 193 253l34 -25l-195 -255zM723 33c41 0 71 35 71 77s-30 77 -71 77s-71 -35 -71 -77s30 -77 71 -77zM166 315c41 0 71 35 71 77s-30 77 -71 77s-71 -35 -71 -77s30 -77 71 -77zM456 33c41 0 71 35 71 77s-30 77 -71 77
s-71 -35 -71 -77s30 -77 71 -77z" />
    <glyph glyph-name="percent.lin" horiz-adv-x="637" 
d="M34 526c0 79 62 144 141 144s141 -65 141 -144s-62 -144 -141 -144s-141 65 -141 144zM321 132c0 79 62 144 141 144s141 -65 141 -144s-62 -144 -141 -144s-141 65 -141 144zM107 -10l-39 26l230 325l232 327l39 -26l-233 -329zM82 526c0 -55 41 -101 93 -101
s93 46 93 101s-41 101 -93 101s-93 -46 -93 -101zM369 132c0 -55 41 -101 93 -101s93 46 93 101s-41 101 -93 101s-93 -46 -93 -101z" />
    <glyph glyph-name="perthousand.lin" horiz-adv-x="972" 
d="M34 526c0 79 62 144 141 144s141 -65 141 -144s-62 -144 -141 -144s-141 65 -141 144zM321 132c0 79 62 144 141 144s141 -65 141 -144s-62 -144 -141 -144s-141 65 -141 144zM656 132c0 79 62 144 141 144s141 -65 141 -144s-62 -144 -141 -144s-141 65 -141 144z
M107 -10l-39 26l230 325l232 327l39 -26l-233 -329zM82 526c0 -55 41 -101 93 -101s93 46 93 101s-41 101 -93 101s-93 -46 -93 -101zM369 132c0 -55 41 -101 93 -101s93 46 93 101s-41 101 -93 101s-93 -46 -93 -101zM704 132c0 -55 41 -101 93 -101s93 46 93 101
s-41 101 -93 101s-93 -46 -93 -101z" />
    <glyph glyph-name="quotedbl" unicode="&#x22;" horiz-adv-x="299" 
d="M214 440l-29 169c-7 36 11 61 39 61s46 -23 39 -61l-30 -169h-19zM64 440l-29 169c-7 36 11 61 39 61s46 -23 39 -61l-30 -169h-19z" />
    <glyph glyph-name="quotesingle" unicode="'" horiz-adv-x="149" 
d="M64 440l-29 169c-7 36 11 61 39 61s46 -23 39 -61l-30 -169h-19z" />
    <glyph glyph-name="quotedbl.lin" horiz-adv-x="299" 
d="M214 513l-29 169c-7 36 11 61 39 61s46 -23 39 -61l-30 -169h-19zM64 513l-29 169c-7 36 11 61 39 61s46 -23 39 -61l-30 -169h-19z" />
    <glyph glyph-name="quotesingle.lin" horiz-adv-x="149" 
d="M64 513l-29 169c-7 36 11 61 39 61s46 -23 39 -61l-30 -169h-19z" />
    <glyph glyph-name="plus" unicode="+" horiz-adv-x="394" 
d="M172 105v136h-135v48h135v136h50v-136h135v-48h-135v-136h-50z" />
    <glyph glyph-name="plus.lin" horiz-adv-x="394" 
d="M172 178v136h-135v48h135v136h50v-136h135v-48h-135v-136h-50z" />
    <glyph glyph-name="minus" unicode="&#x2212;" horiz-adv-x="394" 
d="M37 241v48h320v-48h-320z" />
    <glyph glyph-name="minus.lin" horiz-adv-x="394" 
d="M37 314v48h320v-48h-320z" />
    <glyph glyph-name="divide" unicode="&#xf7;" horiz-adv-x="394" 
d="M357 241h-320v48h320v-48zM197 353c-23 0 -42 20 -42 43s19 43 42 43c22 0 41 -20 41 -43s-19 -43 -41 -43zM197 91c-23 0 -42 20 -42 43s19 43 42 43c22 0 41 -20 41 -43s-19 -43 -41 -43z" />
    <glyph glyph-name="divide.lin" horiz-adv-x="394" 
d="M357 314h-320v48h320v-48zM197 426c-23 0 -42 20 -42 43s19 43 42 43c22 0 41 -20 41 -43s-19 -43 -41 -43zM197 164c-23 0 -42 20 -42 43s19 43 42 43c22 0 41 -20 41 -43s-19 -43 -41 -43z" />
    <glyph glyph-name="equal" unicode="=" horiz-adv-x="394" 
d="M37 306v48h320v-48h-320zM37 157v48h320v-48h-320z" />
    <glyph glyph-name="equal.lin" horiz-adv-x="394" 
d="M37 379v48h320v-48h-320zM37 230v48h320v-48h-320z" />
    <glyph glyph-name="multiply" unicode="&#xd7;" horiz-adv-x="394" 
d="M302 124l-106 107l-105 -106l-34 34l106 105l-107 106l35 35l106 -107l105 106l34 -34l-106 -105l107 -106z" />
    <glyph glyph-name="multiply.lin" horiz-adv-x="394" 
d="M302 197l-106 107l-105 -106l-34 34l106 105l-107 106l35 35l106 -107l105 106l34 -34l-106 -105l107 -106z" />
    <glyph glyph-name="less" unicode="&#x3c;" horiz-adv-x="374" 
d="M284 84l-248 163v20l248 163l26 -39l-204 -134l204 -134z" />
    <glyph glyph-name="less.lin" horiz-adv-x="374" 
d="M284 157l-248 163v20l248 163l26 -39l-204 -134l204 -134z" />
    <glyph glyph-name="greater" unicode="&#x3e;" horiz-adv-x="374" 
d="M90 84l-26 39l204 134l-204 134l26 39l248 -163v-20z" />
    <glyph glyph-name="greater.lin" horiz-adv-x="374" 
d="M90 157l-26 39l204 134l-204 134l26 39l248 -163v-20z" />
    <glyph glyph-name="plusminus" unicode="&#xb1;" horiz-adv-x="394" 
d="M172 143v136h-135v48h135v136h50v-136h135v-48h-135v-136h-50zM37 18v48h320v-48h-320z" />
    <glyph glyph-name="plusminus.lin" horiz-adv-x="394" 
d="M172 216v136h-135v48h135v136h50v-136h135v-48h-135v-136h-50zM37 91v48h320v-48h-320z" />
    <glyph glyph-name="onehalf" unicode="&#xbd;" horiz-adv-x="795" 
d="M502 -1c-1 0 -12 20 -12 20c24 76 80 121 128 155c42 30 71 53 71 93c0 36 -34 63 -73 63c-42 0 -67 -21 -70 -32c10 -4 17 -15 17 -27c0 -16 -13 -30 -30 -30c-21 0 -33 16 -33 40c0 41 45 87 118 87c63 0 117 -41 117 -101c0 -58 -40 -87 -91 -122
c-44 -30 -85 -66 -101 -109h159v57h39v-94h-239zM230 -12l-33 20l196 323l193 317l33 -20l-193 -317zM53 281v39h97v277l-93 -22l-9 39l124 31h21v-325h96v-39h-236z" />
    <glyph glyph-name="onethird" unicode="&#x2153;" horiz-adv-x="795" 
d="M617 -7c-65 0 -125 35 -125 79c0 20 15 36 33 36s29 -13 29 -30c0 -9 -5 -18 -12 -22c6 -7 34 -26 75 -26c51 0 86 31 86 67c0 42 -38 70 -103 70h-22v39h24c53 0 93 27 93 66c0 37 -34 57 -77 57c-35 0 -57 -12 -65 -22c6 -4 12 -12 12 -22c0 -16 -12 -29 -28 -29
c-17 0 -33 14 -33 36c0 32 40 74 116 74c70 0 119 -41 119 -92c0 -42 -40 -77 -85 -86c49 -9 94 -47 94 -92c0 -60 -56 -103 -131 -103zM226 -12l-33 20l196 323l193 317l33 -20l-193 -317zM53 281v39h97v277l-93 -22l-9 39l124 31h21v-325h96v-39h-236z" />
    <glyph glyph-name="twothirds" unicode="&#x2154;" horiz-adv-x="795" 
d="M58 281c-1 0 -12 20 -12 20c24 76 80 121 128 155c42 30 71 53 71 93c0 36 -34 63 -73 63c-42 0 -67 -21 -70 -32c10 -4 17 -15 17 -27c0 -16 -13 -30 -30 -30c-21 0 -33 16 -33 40c0 41 45 87 118 87c63 0 117 -41 117 -101c0 -58 -40 -87 -91 -122
c-44 -30 -85 -66 -101 -109h159v57h39v-94h-239zM618 -7c-65 0 -125 35 -125 79c0 20 15 36 33 36s29 -13 29 -30c0 -9 -5 -18 -12 -22c6 -7 34 -26 75 -26c51 0 86 31 86 67c0 42 -38 70 -103 70h-22v39h24c53 0 93 27 93 66c0 37 -34 57 -77 57c-35 0 -57 -12 -65 -22
c6 -4 12 -12 12 -22c0 -16 -12 -29 -28 -29c-17 0 -33 14 -33 36c0 32 40 74 116 74c70 0 119 -41 119 -92c0 -42 -40 -77 -85 -86c49 -9 94 -47 94 -92c0 -60 -56 -103 -131 -103zM238 -12l-33 20l196 323l193 317l33 -20l-193 -317z" />
    <glyph glyph-name="onequarter" unicode="&#xbc;" horiz-adv-x="795" 
d="M572 -1v37h67v69h-169l-9 19l190 247l32 -25l-160 -205h116v75l41 17v-92h60v-36h-60v-69h48v-37h-156zM240 -12l-33 20l196 323l193 317l33 -20l-193 -317zM54 281v39h97v277l-93 -22l-9 39l124 31h21v-325h96v-39h-236z" />
    <glyph glyph-name="threequarters" unicode="&#xbe;" horiz-adv-x="795" 
d="M186 275c-65 0 -125 35 -125 79c0 20 15 36 33 36s29 -13 29 -30c0 -9 -5 -18 -12 -22c6 -7 34 -26 75 -26c51 0 86 31 86 67c0 42 -38 70 -103 70h-22v39h24c53 0 93 27 93 66c0 37 -34 57 -77 57c-35 0 -57 -12 -65 -22c6 -4 12 -12 12 -22c0 -16 -12 -29 -28 -29
c-17 0 -33 14 -33 36c0 32 40 74 116 74c70 0 119 -41 119 -92c0 -42 -40 -77 -85 -86c49 -9 94 -47 94 -92c0 -60 -56 -103 -131 -103zM569 -1v37h67v69h-169l-9 19l190 247l32 -25l-160 -205h116v75l41 17v-92h60v-36h-60v-69h48v-37h-156zM242 -12l-33 20l196 323
l193 317l33 -20l-193 -317z" />
    <glyph glyph-name="onefifth" unicode="&#x2155;" horiz-adv-x="795" 
d="M623 -8c-70 0 -116 33 -116 67c0 18 13 33 32 33s30 -13 30 -29c0 -7 -2 -13 -6 -17c8 -7 30 -15 59 -15c58 0 92 36 92 85c0 40 -30 74 -89 74c-29 0 -61 -9 -81 -19l-20 10l18 180h193v-42h-156l-10 -99c13 4 32 9 59 9c76 0 130 -43 130 -113
c0 -76 -61 -124 -135 -124zM230 -12l-33 20l196 323l193 317l33 -20l-193 -317zM53 281v39h97v277l-93 -22l-9 39l124 31h21v-325h96v-39h-236z" />
    <glyph glyph-name="twofifths" unicode="&#x2156;" horiz-adv-x="795" 
d="M62 281c-1 0 -12 20 -12 20c24 76 80 121 128 155c42 30 71 53 71 93c0 36 -34 63 -73 63c-42 0 -67 -21 -70 -32c10 -4 17 -15 17 -27c0 -16 -13 -30 -30 -30c-21 0 -33 16 -33 40c0 41 45 87 118 87c63 0 117 -41 117 -101c0 -58 -40 -87 -91 -122
c-44 -30 -85 -66 -101 -109h159v57h39v-94h-239zM627 -8c-70 0 -116 33 -116 67c0 18 13 33 32 33s30 -13 30 -29c0 -7 -2 -13 -6 -17c8 -7 30 -15 59 -15c58 0 92 36 92 85c0 40 -30 74 -89 74c-29 0 -61 -9 -81 -19l-20 10l18 180h193v-42h-156l-10 -99c13 4 32 9 59 9
c76 0 130 -43 130 -113c0 -76 -61 -124 -135 -124zM246 -12l-33 20l196 323l193 317l33 -20l-193 -317z" />
    <glyph glyph-name="threefifths" unicode="&#x2157;" horiz-adv-x="795" 
d="M622 -8c-70 0 -116 33 -116 67c0 18 13 33 32 33s30 -13 30 -29c0 -7 -2 -13 -6 -17c8 -7 30 -15 59 -15c58 0 92 36 92 85c0 40 -30 74 -89 74c-29 0 -61 -9 -81 -19l-20 10l18 180h193v-42h-156l-10 -99c13 4 32 9 59 9c76 0 130 -43 130 -113
c0 -76 -61 -124 -135 -124zM177 275c-65 0 -125 35 -125 79c0 20 15 36 33 36s29 -13 29 -30c0 -9 -5 -18 -12 -22c6 -7 34 -26 75 -26c51 0 86 31 86 67c0 42 -38 70 -103 70h-22v39h24c53 0 93 27 93 66c0 37 -34 57 -77 57c-35 0 -57 -12 -65 -22c6 -4 12 -12 12 -22
c0 -16 -12 -29 -28 -29c-17 0 -33 14 -33 36c0 32 40 74 116 74c70 0 119 -41 119 -92c0 -42 -40 -77 -85 -86c49 -9 94 -47 94 -92c0 -60 -56 -103 -131 -103zM225 -12l-33 20l196 323l193 317l33 -20l-193 -317z" />
    <glyph glyph-name="fourfifths" unicode="&#x2158;" horiz-adv-x="795" 
d="M622 -8c-70 0 -116 33 -116 67c0 18 13 33 32 33s30 -13 30 -29c0 -7 -2 -13 -6 -17c8 -7 30 -15 59 -15c58 0 92 36 92 85c0 40 -30 74 -89 74c-29 0 -61 -9 -81 -19l-20 10l18 180h193v-42h-156l-10 -99c13 4 32 9 59 9c76 0 130 -43 130 -113
c0 -76 -61 -124 -135 -124zM148 281v37h67v69h-169l-9 19l190 247l32 -25l-160 -205h116v75l41 17v-92h60v-36h-60v-69h48v-37h-156zM244 -12l-33 20l196 323l193 317l33 -20l-193 -317z" />
    <glyph glyph-name="onesixth" unicode="&#x2159;" horiz-adv-x="795" 
d="M726 304c0 -20 -13 -32 -30 -32c-20 0 -30 12 -30 28c0 7 2 13 5 17c-6 7 -22 13 -38 13c-61 0 -106 -65 -107 -161c4 7 10 14 16 20c22 22 50 33 84 33c72 0 120 -48 120 -113s-50 -117 -126 -117c-41 0 -72 14 -97 39c-29 29 -39 69 -39 125c0 147 72 212 150 212
c35 0 59 -11 75 -26c13 -13 17 -25 17 -38zM224 -12l-33 20l196 323l193 317l33 -20l-193 -317zM47 281v39h97v277l-93 -22l-9 39l124 31h21v-325h96v-39h-236zM620 31c49 0 82 33 82 77s-31 76 -82 76c-50 0 -86 -33 -86 -75c0 -21 8 -40 22 -54c15 -15 39 -24 64 -24z" />
    <glyph glyph-name="fivesixths" unicode="&#x215a;" horiz-adv-x="795" 
d="M728 304c0 -20 -13 -32 -30 -32c-20 0 -30 12 -30 28c0 7 2 13 5 17c-6 7 -22 13 -38 13c-61 0 -106 -65 -107 -161c4 7 10 14 16 20c22 22 50 33 84 33c72 0 120 -48 120 -113s-50 -117 -126 -117c-41 0 -72 14 -97 39c-29 29 -39 69 -39 125c0 147 72 212 150 212
c35 0 59 -11 75 -26c13 -13 17 -25 17 -38zM170 274c-70 0 -116 33 -116 67c0 18 13 33 32 33s30 -13 30 -29c0 -7 -2 -13 -6 -17c8 -7 30 -15 59 -15c58 0 92 36 92 85c0 40 -30 74 -89 74c-29 0 -61 -9 -81 -19l-20 10l18 180h193v-42h-156l-10 -99c13 4 32 9 59 9
c76 0 130 -43 130 -113c0 -76 -61 -124 -135 -124zM226 -12l-33 20l196 323l193 317l33 -20l-193 -317zM622 31c49 0 82 33 82 77s-31 76 -82 76c-50 0 -86 -33 -86 -75c0 -21 8 -40 22 -54c15 -15 39 -24 64 -24z" />
    <glyph glyph-name="oneeighth" unicode="&#x215b;" horiz-adv-x="795" 
d="M622 -7c-76 0 -129 44 -129 99c0 43 36 83 84 95c-49 15 -75 50 -75 86c0 56 53 93 120 93c66 0 120 -37 120 -93c0 -36 -27 -71 -76 -86c48 -12 84 -52 84 -95c0 -55 -53 -99 -128 -99zM217 -12l-33 20l196 323l193 317l33 -20l-193 -317zM48 281v39h97v277l-93 -22
l-9 39l124 31h21v-325h96v-39h-236zM622 32c49 0 83 29 83 67c0 37 -37 69 -83 69c-47 0 -83 -32 -83 -69c0 -38 34 -67 83 -67zM622 204c41 0 75 27 75 62c0 36 -32 62 -75 62c-44 0 -76 -26 -76 -62c0 -35 34 -62 76 -62z" />
    <glyph glyph-name="threeeighths" unicode="&#x215c;" horiz-adv-x="795" 
d="M622 -7c-76 0 -129 44 -129 99c0 43 36 83 84 95c-49 15 -75 50 -75 86c0 56 53 93 120 93c66 0 120 -37 120 -93c0 -36 -27 -71 -76 -86c48 -12 84 -52 84 -95c0 -55 -53 -99 -128 -99zM177 275c-65 0 -125 35 -125 79c0 20 15 36 33 36s29 -13 29 -30
c0 -9 -5 -18 -12 -22c6 -7 34 -26 75 -26c51 0 86 31 86 67c0 42 -38 70 -103 70h-22v39h24c53 0 93 27 93 66c0 37 -34 57 -77 57c-35 0 -57 -12 -65 -22c6 -4 12 -12 12 -22c0 -16 -12 -29 -28 -29c-17 0 -33 14 -33 36c0 32 40 74 116 74c70 0 119 -41 119 -92
c0 -42 -40 -77 -85 -86c49 -9 94 -47 94 -92c0 -60 -56 -103 -131 -103zM219 -12l-33 20l196 323l193 317l33 -20l-193 -317zM622 32c49 0 83 29 83 67c0 37 -37 69 -83 69c-47 0 -83 -32 -83 -69c0 -38 34 -67 83 -67zM622 204c41 0 75 27 75 62c0 36 -32 62 -75 62
c-44 0 -76 -26 -76 -62c0 -35 34 -62 76 -62z" />
    <glyph glyph-name="fiveeighths" unicode="&#x215d;" horiz-adv-x="795" 
d="M614 -7c-76 0 -129 44 -129 99c0 43 36 83 84 95c-49 15 -75 50 -75 86c0 56 53 93 120 93c66 0 120 -37 120 -93c0 -36 -27 -71 -76 -86c48 -12 84 -52 84 -95c0 -55 -53 -99 -128 -99zM159 274c-70 0 -116 33 -116 67c0 18 13 33 32 33s30 -13 30 -29
c0 -7 -2 -13 -6 -17c8 -7 30 -15 59 -15c58 0 92 36 92 85c0 40 -30 74 -89 74c-29 0 -61 -9 -81 -19l-20 10l18 180h193v-42h-156l-10 -99c13 4 32 9 59 9c76 0 130 -43 130 -113c0 -76 -61 -124 -135 -124zM208 -12l-33 20l196 323l193 317l33 -20l-193 -317zM614 32
c49 0 83 29 83 67c0 37 -37 69 -83 69c-47 0 -83 -32 -83 -69c0 -38 34 -67 83 -67zM614 204c41 0 75 27 75 62c0 36 -32 62 -75 62c-44 0 -76 -26 -76 -62c0 -35 34 -62 76 -62z" />
    <glyph glyph-name="seveneighths" unicode="&#x215e;" horiz-adv-x="795" 
d="M597 -7c-76 0 -129 44 -129 99c0 43 36 83 84 95c-49 15 -75 50 -75 86c0 56 53 93 120 93c66 0 120 -37 120 -93c0 -36 -27 -71 -76 -86c48 -12 84 -52 84 -95c0 -55 -53 -99 -128 -99zM179 -12l-33 20l196 323l193 317l33 -20l-193 -317zM120 281l149 325h-156v-61h-40
v98h239l9 -19l-155 -343h-46zM597 32c49 0 83 29 83 67c0 37 -37 69 -83 69c-47 0 -83 -32 -83 -69c0 -38 34 -67 83 -67zM597 204c41 0 75 27 75 62c0 36 -32 62 -75 62c-44 0 -76 -26 -76 -62c0 -35 34 -62 76 -62z" />
    <glyph glyph-name="zero.sup" unicode="&#x2070;" horiz-adv-x="353" 
d="M176 424c-80 0 -136 75 -136 186c0 114 57 188 137 188c79 0 136 -74 136 -186c0 -114 -57 -188 -137 -188zM176 464c55 0 92 60 92 146c0 88 -37 148 -92 148c-54 0 -91 -60 -91 -146c0 -88 37 -148 91 -148z" />
    <glyph glyph-name="one.sup" unicode="&#xb9;" horiz-adv-x="353" 
d="M66 431v39h97v277l-93 -22l-9 39l124 31h21v-325h96v-39h-236z" />
    <glyph glyph-name="two.sup" unicode="&#xb2;" horiz-adv-x="353" 
d="M61 431c-1 0 -12 20 -12 20c24 76 80 121 128 155c42 30 71 53 71 93c0 36 -34 63 -73 63c-42 0 -67 -21 -70 -32c10 -4 17 -15 17 -27c0 -16 -13 -30 -30 -30c-21 0 -33 16 -33 40c0 41 45 87 118 87c63 0 117 -41 117 -101c0 -58 -40 -87 -91 -122
c-44 -30 -85 -66 -101 -109h159v57h39v-94h-239z" />
    <glyph glyph-name="three.sup" unicode="&#xb3;" horiz-adv-x="353" 
d="M171 425c-65 0 -125 35 -125 79c0 20 15 36 33 36s29 -13 29 -30c0 -9 -5 -18 -12 -22c6 -7 34 -26 75 -26c51 0 86 31 86 67c0 42 -38 70 -103 70h-22v39h24c53 0 93 27 93 66c0 37 -34 57 -77 57c-35 0 -57 -12 -65 -22c6 -4 12 -12 12 -22c0 -16 -12 -29 -28 -29
c-17 0 -33 14 -33 36c0 32 40 74 116 74c70 0 119 -41 119 -92c0 -42 -40 -77 -85 -86c49 -9 94 -47 94 -92c0 -60 -56 -103 -131 -103z" />
    <glyph glyph-name="four.sup" unicode="&#x2074;" horiz-adv-x="353" 
d="M145 431v37h67v69h-169l-9 19l190 247l32 -25l-160 -205h116v75l41 17v-92h60v-36h-60v-69h48v-37h-156z" />
    <glyph glyph-name="five.sup" unicode="&#x2075;" horiz-adv-x="353" 
d="M165 424c-70 0 -116 33 -116 67c0 18 13 33 32 33s30 -13 30 -29c0 -7 -2 -13 -6 -17c8 -7 30 -15 59 -15c58 0 92 36 92 85c0 40 -30 74 -89 74c-29 0 -61 -9 -81 -19l-20 10l18 180h193v-42h-156l-10 -99c13 4 32 9 59 9c76 0 130 -43 130 -113
c0 -76 -61 -124 -135 -124z" />
    <glyph glyph-name="six.sup" unicode="&#x2076;" horiz-adv-x="353" 
d="M289 736c0 -20 -13 -32 -30 -32c-20 0 -30 12 -30 28c0 7 2 13 5 17c-6 7 -22 13 -38 13c-61 0 -106 -65 -107 -161c4 7 10 14 16 20c22 22 50 33 84 33c72 0 120 -48 120 -113s-50 -117 -126 -117c-41 0 -72 14 -97 39c-29 29 -39 69 -39 125c0 147 72 212 150 212
c35 0 59 -11 75 -26c13 -13 17 -25 17 -38zM183 463c49 0 82 33 82 77s-31 76 -82 76c-50 0 -86 -33 -86 -75c0 -21 8 -40 22 -54c15 -15 39 -24 64 -24z" />
    <glyph glyph-name="seven.sup" unicode="&#x2077;" horiz-adv-x="353" 
d="M107 431l149 325h-156v-61h-40v98h239l9 -19l-155 -343h-46z" />
    <glyph glyph-name="eight.sup" unicode="&#x2078;" horiz-adv-x="353" 
d="M177 425c-76 0 -129 44 -129 99c0 43 36 83 84 95c-49 15 -75 50 -75 86c0 56 53 93 120 93c66 0 120 -37 120 -93c0 -36 -27 -71 -76 -86c48 -12 84 -52 84 -95c0 -55 -53 -99 -128 -99zM177 636c41 0 75 27 75 62c0 36 -32 62 -75 62c-44 0 -76 -26 -76 -62
c0 -35 34 -62 76 -62zM177 464c49 0 83 29 83 67c0 37 -37 69 -83 69c-47 0 -83 -32 -83 -69c0 -38 34 -67 83 -67z" />
    <glyph glyph-name="nine.sup" unicode="&#x2079;" horiz-adv-x="353" 
d="M64 488c0 20 13 32 30 32c20 0 30 -12 30 -28c0 -7 -3 -14 -6 -18c6 -7 23 -12 39 -12c61 0 105 64 107 161c-5 -7 -10 -14 -16 -20c-22 -22 -50 -33 -84 -33c-72 0 -120 48 -120 113s50 117 126 117c41 0 72 -14 97 -39c29 -29 39 -69 39 -125
c0 -147 -72 -212 -150 -212c-35 0 -59 11 -75 26c-13 13 -17 25 -17 38zM170 761c-49 0 -82 -33 -82 -77s31 -76 82 -76c50 0 86 33 86 75c0 21 -8 40 -22 54c-15 15 -39 24 -64 24z" />
    <glyph glyph-name="zero.inf" unicode="&#x2080;" horiz-adv-x="353" 
d="M176 -146c-80 0 -136 75 -136 186c0 114 57 188 137 188c79 0 136 -74 136 -186c0 -114 -57 -188 -137 -188zM176 -106c55 0 92 60 92 146c0 88 -37 148 -92 148c-54 0 -91 -60 -91 -146c0 -88 37 -148 91 -148z" />
    <glyph glyph-name="one.inf" unicode="&#x2081;" horiz-adv-x="353" 
d="M66 -139v39h97v277l-93 -22l-9 39l124 31h21v-325h96v-39h-236z" />
    <glyph glyph-name="two.inf" unicode="&#x2082;" horiz-adv-x="353" 
d="M61 -139c-1 0 -12 20 -12 20c24 76 80 121 128 155c42 30 71 53 71 93c0 36 -34 63 -73 63c-42 0 -67 -21 -70 -32c10 -4 17 -15 17 -27c0 -16 -13 -30 -30 -30c-21 0 -33 16 -33 40c0 41 45 87 118 87c63 0 117 -41 117 -101c0 -58 -40 -87 -91 -122
c-44 -30 -85 -66 -101 -109h159v57h39v-94h-239z" />
    <glyph glyph-name="three.inf" unicode="&#x2083;" horiz-adv-x="353" 
d="M171 -145c-65 0 -125 35 -125 79c0 20 15 36 33 36s29 -13 29 -30c0 -9 -5 -18 -12 -22c6 -7 34 -26 75 -26c51 0 86 31 86 67c0 42 -38 70 -103 70h-22v39h24c53 0 93 27 93 66c0 37 -34 57 -77 57c-35 0 -57 -12 -65 -22c6 -4 12 -12 12 -22c0 -16 -12 -29 -28 -29
c-17 0 -33 14 -33 36c0 32 40 74 116 74c70 0 119 -41 119 -92c0 -42 -40 -77 -85 -86c49 -9 94 -47 94 -92c0 -60 -56 -103 -131 -103z" />
    <glyph glyph-name="four.inf" unicode="&#x2084;" horiz-adv-x="353" 
d="M145 -139v37h67v69h-169l-9 19l190 247l32 -25l-160 -205h116v75l41 17v-92h60v-36h-60v-69h48v-37h-156z" />
    <glyph glyph-name="five.inf" unicode="&#x2085;" horiz-adv-x="353" 
d="M165 -146c-70 0 -116 33 -116 67c0 18 13 33 32 33s30 -13 30 -29c0 -7 -2 -13 -6 -17c8 -7 30 -15 59 -15c58 0 92 36 92 85c0 40 -30 74 -89 74c-29 0 -61 -9 -81 -19l-20 10l18 180h193v-42h-156l-10 -99c13 4 32 9 59 9c76 0 130 -43 130 -113
c0 -76 -61 -124 -135 -124z" />
    <glyph glyph-name="six.inf" unicode="&#x2086;" horiz-adv-x="353" 
d="M289 166c0 -20 -13 -32 -30 -32c-20 0 -30 12 -30 28c0 7 2 13 5 17c-6 7 -22 13 -38 13c-61 0 -106 -65 -107 -161c4 7 10 14 16 20c22 22 50 33 84 33c72 0 120 -48 120 -113s-50 -117 -126 -117c-41 0 -72 14 -97 39c-29 29 -39 69 -39 125c0 147 72 212 150 212
c35 0 59 -11 75 -26c13 -13 17 -25 17 -38zM183 -107c49 0 82 33 82 77s-31 76 -82 76c-50 0 -86 -33 -86 -75c0 -21 8 -40 22 -54c15 -15 39 -24 64 -24z" />
    <glyph glyph-name="seven.inf" unicode="&#x2087;" horiz-adv-x="353" 
d="M107 -139l149 325h-156v-61h-40v98h239l9 -19l-155 -343h-46z" />
    <glyph glyph-name="eight.inf" unicode="&#x2088;" horiz-adv-x="353" 
d="M177 -145c-76 0 -129 44 -129 99c0 43 36 83 84 95c-49 15 -75 50 -75 86c0 56 53 93 120 93c66 0 120 -37 120 -93c0 -36 -27 -71 -76 -86c48 -12 84 -52 84 -95c0 -55 -53 -99 -128 -99zM177 66c41 0 75 27 75 62c0 36 -32 62 -75 62c-44 0 -76 -26 -76 -62
c0 -35 34 -62 76 -62zM177 -106c49 0 83 29 83 67c0 37 -37 69 -83 69c-47 0 -83 -32 -83 -69c0 -38 34 -67 83 -67z" />
    <glyph glyph-name="nine.inf" unicode="&#x2089;" horiz-adv-x="353" 
d="M64 -82c0 20 13 32 30 32c20 0 30 -12 30 -28c0 -7 -3 -13 -6 -18c6 -7 23 -12 39 -12c61 0 105 65 107 161c-5 -7 -10 -14 -16 -20c-22 -22 -50 -33 -84 -33c-72 0 -120 48 -120 113s50 117 126 117c41 0 72 -14 97 -39c29 -29 39 -69 39 -125
c0 -147 -72 -212 -150 -212c-35 0 -59 11 -75 26c-13 13 -17 25 -17 38zM170 191c-49 0 -82 -33 -82 -77s31 -76 82 -76c50 0 86 33 86 75c0 21 -8 40 -22 54c-15 15 -39 24 -64 24z" />
    <glyph glyph-name="zero.tab" horiz-adv-x="530" 
d="M265 -12c-124 0 -218 134 -218 340c0 209 92 342 218 342s218 -133 218 -342c0 -206 -94 -340 -218 -340zM265 617c-96 0 -160 -113 -160 -287c0 -175 64 -289 160 -289s160 114 160 289c0 174 -64 287 -160 287z" />
    <glyph glyph-name="one.tab" horiz-adv-x="530" 
d="M76 0v50h169v548l-162 -45l-12 53l199 55h32v-611h166v-50h-392z" />
    <glyph glyph-name="two.tab" horiz-adv-x="530" 
d="M457 494c0 -107 -65 -156 -167 -231c-87 -64 -156 -135 -175 -213h296v99h55v-149h-406l-14 25c30 130 125 213 214 280c81 61 138 107 138 189c0 74 -69 124 -141 124c-66 0 -112 -26 -129 -54c-4 -5 -6 -10 -7 -14c20 -5 34 -25 34 -44c0 -25 -20 -45 -45 -45
c-29 0 -51 19 -51 61c0 19 7 41 20 61c30 46 93 87 182 87c104 0 196 -68 196 -176z" />
    <glyph glyph-name="three.tab" horiz-adv-x="530" 
d="M250 -12c-76 0 -152 36 -187 85c-13 18 -20 38 -20 59c0 31 21 57 48 57c24 0 43 -20 43 -44c0 -20 -13 -36 -30 -41c3 -5 7 -11 13 -16c23 -22 71 -49 133 -49c105 0 166 68 166 135c0 56 -33 96 -86 119c-36 16 -74 24 -124 24h-21v50h26c48 0 87 12 121 33
c40 24 66 61 66 104c0 73 -58 114 -146 114c-58 0 -100 -25 -120 -43c-5 -4 -9 -9 -12 -14c16 -6 31 -19 31 -42c0 -24 -19 -43 -43 -43s-48 21 -48 53c0 19 6 38 19 57c30 43 92 84 177 84c110 0 198 -60 198 -166c0 -58 -36 -104 -89 -133c-21 -11 -47 -21 -72 -26
c26 -4 51 -10 72 -20c64 -28 106 -81 106 -148c0 -108 -91 -189 -221 -189z" />
    <glyph glyph-name="four.tab" horiz-adv-x="530" 
d="M198 0v50h120v146h-297l-9 22l334 454l43 -31l-292 -396h221v153l57 26v-179h116v-49h-116v-146h96v-50h-273z" />
    <glyph glyph-name="five.tab" horiz-adv-x="530" 
d="M243 -12c-65 0 -124 21 -158 52c-21 18 -32 39 -32 62c0 25 17 50 48 50c22 0 43 -20 43 -44c0 -12 -6 -27 -16 -34c4 -4 8 -8 14 -11c23 -14 57 -22 106 -22c101 0 171 70 171 167c0 81 -60 149 -166 149c-58 0 -114 -19 -146 -33l-25 11l34 323h322v-57h-276l-22 -210
c26 10 58 20 117 20c120 0 220 -72 220 -202c0 -142 -109 -221 -234 -221z" />
    <glyph glyph-name="six.tab" horiz-adv-x="530" 
d="M409 510c-25 0 -45 20 -45 45c0 14 5 25 13 32c-12 17 -45 30 -81 30c-112 0 -189 -133 -193 -324c9 20 23 38 39 53c35 33 84 55 134 55c122 0 205 -87 205 -205c0 -117 -88 -208 -207 -208c-64 0 -117 23 -155 63c-47 49 -71 126 -71 226c0 288 136 393 254 393
c48 0 87 -15 115 -38c23 -20 37 -45 37 -72c0 -30 -20 -50 -45 -50zM275 40c84 0 149 64 149 154s-65 155 -149 155c-90 0 -157 -70 -157 -155c0 -41 18 -81 47 -109c28 -28 67 -45 110 -45z" />
    <glyph glyph-name="seven.tab" horiz-adv-x="530" 
d="M139 0l272 608h-311v-99h-55v149h436l8 -16l-288 -642h-62z" />
    <glyph glyph-name="eight.tab" horiz-adv-x="530" 
d="M265 40c90 0 158 56 158 137c0 76 -72 139 -158 139s-158 -63 -158 -139c0 -81 68 -137 158 -137zM265 670c104 0 200 -58 200 -175c0 -68 -52 -130 -120 -152c59 -12 134 -80 134 -166c0 -115 -95 -189 -214 -189s-214 74 -214 189c0 86 75 154 134 166
c-68 22 -120 84 -120 152c0 117 96 175 200 175zM265 368c81 0 144 56 144 125c0 72 -61 125 -144 125s-144 -53 -144 -125c0 -69 63 -125 144 -125z" />
    <glyph glyph-name="nine.tab" horiz-adv-x="530" 
d="M481 381c0 -288 -133 -393 -248 -393c-43 0 -87 14 -119 38c-25 19 -43 45 -43 71c0 30 20 50 45 50s45 -20 45 -45c0 -13 -6 -25 -15 -33c5 -6 10 -10 16 -14c16 -10 43 -16 78 -16c106 0 179 131 185 318c-9 -20 -23 -39 -38 -54c-35 -33 -84 -56 -134 -56
c-122 0 -205 89 -205 210c0 120 88 213 207 213c64 0 117 -23 155 -63c47 -49 71 -126 71 -226zM254 618c-84 0 -149 -66 -149 -159s65 -160 149 -160c90 0 157 72 157 160c0 42 -17 83 -46 112c-28 28 -68 47 -111 47z" />
    <glyph glyph-name="period.tab" horiz-adv-x="265" 
d="M133 -10c-32 0 -55 25 -55 57s23 57 55 57s55 -25 55 -57s-23 -57 -55 -57z" />
    <glyph glyph-name="comma.tab" horiz-adv-x="265" 
d="M51 -149l-14 22c69 50 89 96 90 123c-25 3 -49 27 -49 53c0 29 25 52 52 52c31 0 58 -25 58 -71c0 -54 -35 -127 -137 -179z" />
    <glyph glyph-name="colon.tab" horiz-adv-x="265" 
d="M133 -10c-32 0 -55 25 -55 57s23 57 55 57s55 -25 55 -57s-23 -57 -55 -57zM133 256c-32 0 -55 25 -55 57s23 57 55 57s55 -25 55 -57s-23 -57 -55 -57z" />
    <glyph glyph-name="semicolon.tab" horiz-adv-x="265" 
d="M51 -149l-14 22c69 50 89 96 90 123c-25 3 -49 27 -49 53c0 29 25 52 52 52c31 0 58 -25 58 -71c0 -54 -35 -127 -137 -179zM133 256c-32 0 -55 25 -55 57s23 57 55 57s55 -25 55 -57s-23 -57 -55 -57z" />
    <glyph glyph-name="twodotleader.tab" horiz-adv-x="530" 
d="M133 -10c-32 0 -55 25 -55 57s23 57 55 57s55 -25 55 -57s-23 -57 -55 -57zM398 -10c-32 0 -55 25 -55 57s23 57 55 57s55 -25 55 -57s-23 -57 -55 -57z" />
    <glyph glyph-name="periodcentered.tab" horiz-adv-x="265" 
d="M133 193c-32 0 -55 25 -55 57s23 57 55 57s55 -25 55 -57s-23 -57 -55 -57z" />
    <glyph glyph-name="slash.tab" horiz-adv-x="530" 
d="M34 -209l-45 23l453 928l45 -23z" />
    <glyph glyph-name="bar.tab" horiz-adv-x="265" 
d="M109 -200v932h48v-932h-48z" />
    <glyph glyph-name="underscore.tab" horiz-adv-x="530" 
d="M-5 -140v52h540v-52h-540z" />
    <glyph glyph-name="dollar.tab" horiz-adv-x="530" 
d="M113 103c17 -21 55 -43 102 -52l24 268c-90 35 -158 82 -158 175c0 91 74 163 188 164l8 88l47 -4l-8 -88c86 -14 149 -67 149 -125c0 -31 -21 -49 -44 -49c-25 0 -44 19 -44 43c0 16 9 31 18 41c-15 18 -48 35 -83 42l-23 -249c98 -37 179 -82 179 -183
c0 -108 -92 -174 -210 -174l-9 -100l-47 4l9 99c-102 16 -166 83 -166 131c0 33 21 55 46 55c24 0 42 -18 42 -40c0 -19 -9 -34 -20 -46zM414 170c0 68 -50 104 -130 133l-22 -256c92 1 152 49 152 123zM135 498c0 -62 42 -95 109 -124l21 237c-78 -2 -130 -52 -130 -113z
" />
    <glyph glyph-name="sterling.tab" horiz-adv-x="530" 
d="M31 24c0 26 30 57 101 57c34 45 47 90 47 145c0 10 -1 20 -2 31h-102v46h92l-12 38c-14 41 -28 87 -28 146c0 103 80 183 179 183c95 0 158 -57 158 -116c0 -30 -22 -49 -45 -49c-26 0 -45 19 -45 43c0 16 10 31 17 38c-15 20 -40 34 -87 34c-67 0 -125 -56 -125 -132
c0 -52 13 -94 25 -133c6 -18 11 -36 15 -52h166v-46h-158c1 -11 2 -21 2 -32c0 -68 -21 -118 -45 -143c24 -2 56 -10 88 -20c53 -17 70 -22 97 -22c51 0 68 19 86 64l45 -19c-18 -62 -56 -97 -129 -97c-40 0 -64 9 -115 27c-37 12 -65 21 -103 22c-22 -32 -58 -50 -81 -50
c-26 0 -41 15 -41 37z" />
    <glyph glyph-name="Euro.tab" horiz-adv-x="530" 
d="M407 509c0 21 12 37 29 44c-12 25 -50 65 -114 65c-85 0 -148 -70 -168 -199h198v-48h-204c-1 -15 -1 -30 -1 -45c0 -18 0 -35 2 -51h203v-48h-197c20 -109 74 -187 163 -187c58 0 98 27 141 77l35 -35c-43 -56 -104 -94 -178 -94c-122 0 -196 101 -219 239h-65v48h59
c-2 16 -2 33 -2 51c0 15 1 30 2 45h-59v48h64c26 159 119 250 230 250c97 0 171 -75 171 -148c0 -28 -16 -54 -49 -54c-25 0 -41 21 -41 42z" />
    <glyph glyph-name="yen.tab" horiz-adv-x="530" 
d="M144 0v50h93v97h-149v48h149v71h-149v48h135l-152 294h-64v50h201v-50h-77l136 -269l134 269h-77v50h200v-50h-65l-152 -294h135v-48h-149v-71h149v-48h-149v-97h93v-50h-242z" />
    <glyph glyph-name="cent.tab" horiz-adv-x="530" 
d="M446 215l-5 -55c-41 -29 -99 -43 -139 -43c-10 0 -19 0 -28 1l-12 -136l-47 4l13 140c-103 28 -171 112 -171 213c0 121 93 215 209 222l11 110l47 -4l-10 -109c77 -12 142 -65 142 -120c0 -26 -18 -54 -48 -54c-16 0 -37 12 -37 36c0 16 9 30 24 38
c-11 27 -47 47 -85 53l-31 -345c9 -1 18 -1 28 -1c40 0 86 15 139 50zM114 338c0 -78 44 -138 118 -162l30 337c-75 -8 -148 -64 -148 -175z" />
    <glyph glyph-name="numbersign.tab" horiz-adv-x="530" 
d="M54 423v42h125l30 192h47l-30 -192h119l30 192h47l-30 -192h126v-42h-132l-30 -196h121v-42h-128l-28 -185h-47l28 185h-119l-28 -185h-47l28 185h-123v42h130l30 196h-119zM220 423l-30 -196h119l30 196h-119z" />
    <glyph glyph-name="paragraph.tab" horiz-adv-x="530" 
d="M320 47h49v564h-49v-564zM24 454c0 124 95 204 226 204h244v-50h-74v-558h74v-50h-308v50h83v197c-15 -1 -12 -1 -28 -1c-127 0 -217 81 -217 208z" />
    <glyph glyph-name="section.tab" horiz-adv-x="530" 
d="M117 134c25 0 44 -16 44 -41c0 -9 -1 -19 -7 -29c14 -14 64 -28 97 -28c80 0 129 31 129 72c0 37 -19 55 -143 87c-109 28 -179 62 -179 132c0 56 53 98 108 120c-50 23 -73 52 -73 100c0 64 74 123 186 123c45 0 85 -11 116 -27c36 -19 59 -47 59 -74
c0 -26 -17 -45 -40 -45c-25 0 -44 16 -44 41c0 9 1 19 7 29c-4 4 -11 8 -20 12c-22 9 -54 16 -77 16c-80 0 -129 -31 -129 -72c0 -37 19 -55 143 -87c109 -28 179 -62 179 -132c0 -56 -51 -96 -106 -120c46 -20 70 -48 70 -97c0 -69 -73 -126 -185 -126
c-60 0 -113 19 -144 46c-20 17 -31 36 -31 55c0 26 17 45 40 45zM261 418l-47 12c-53 -20 -95 -53 -95 -96c0 -37 23 -64 151 -94l47 -12c55 20 95 54 95 96c0 37 -23 64 -151 94z" />
    <glyph glyph-name="degree.tab" horiz-adv-x="530" 
d="M263 387c-107 0 -177 82 -177 180s70 180 177 180s177 -82 177 -180s-70 -180 -177 -180zM263 708c-79 0 -132 -63 -132 -141s53 -141 132 -141s132 63 132 141s-53 141 -132 141z" />
    <glyph glyph-name="percent.tab" horiz-adv-x="530" 
d="M27 526c0 81 47 144 117 144c69 0 117 -63 117 -144s-48 -144 -117 -144c-70 0 -117 63 -117 144zM268 132c0 81 49 144 117 144c67 0 117 -63 117 -144s-50 -144 -117 -144c-68 0 -117 63 -117 144zM92 -9l-37 22l192 324c79 134 185 314 194 328l36 -22l-193 -328
c-78 -133 -186 -314 -192 -324zM72 526c0 -57 29 -104 72 -104s72 47 72 104s-29 104 -72 104s-72 -47 -72 -104zM316 132c0 -57 28 -101 69 -101s69 44 69 101s-28 101 -69 101s-69 -44 -69 -101z" />
    <glyph glyph-name="quotedbl.tab" horiz-adv-x="530" 
d="M162 475l-30 205c-6 38 10 63 40 63c29 0 46 -23 40 -63l-30 -205h-20zM348 475l-30 205c-6 38 10 63 40 63c29 0 46 -23 40 -63l-30 -205h-20z" />
    <glyph glyph-name="quotesingle.tab" horiz-adv-x="265" 
d="M122 475l-30 205c-6 38 10 63 40 63c29 0 46 -23 40 -63l-30 -205h-20z" />
    <glyph glyph-name="plus.tab" horiz-adv-x="530" 
d="M240 158v156h-155v48h155v156h50v-156h155v-48h-155v-156h-50z" />
    <glyph glyph-name="minus.tab" horiz-adv-x="530" 
d="M85 314v48h360v-48h-360z" />
    <glyph glyph-name="divide.tab" horiz-adv-x="530" 
d="M445 314h-360v48h360v-48zM265 444c-24 0 -44 21 -44 45s20 45 44 45c23 0 43 -21 43 -45s-20 -45 -43 -45zM265 142c-24 0 -44 21 -44 45s20 45 44 45c23 0 43 -21 43 -45s-20 -45 -43 -45z" />
    <glyph glyph-name="equal.tab" horiz-adv-x="530" 
d="M85 391v48h360v-48h-360zM85 218v48h360v-48h-360z" />
    <glyph glyph-name="multiply.tab" horiz-adv-x="530" 
d="M390 177l-126 127l-125 -126l-34 34l126 125l-127 126l35 35l126 -127l125 126l34 -34l-126 -125l127 -126z" />
    <glyph glyph-name="less.tab" horiz-adv-x="530" 
d="M381 138l-287 185v14l287 185l26 -39l-238 -153l238 -153z" />
    <glyph glyph-name="greater.tab" horiz-adv-x="530" 
d="M149 522l287 -185v-14l-287 -185l-26 39l238 153l-238 153z" />
    <glyph glyph-name="plusminus.tab" horiz-adv-x="530" 
d="M240 208v156h-155v48h155v156h50v-156h155v-48h-155v-156h-50zM85 76v48h360v-48h-360z" />
    <glyph glyph-name="zero.idx_P2D" horiz-adv-x="1100" 
d="M550 792c272 0 492 -220 492 -492s-220 -492 -492 -492s-492 220 -492 492s220 492 492 492zM550 758c-253 0 -453 -205 -453 -458s200 -458 453 -458s453 205 453 458s-200 458 -453 458zM549 64c-102 0 -184 98 -184 242c0 146 83 243 186 243c102 0 184 -98 184 -242
c0 -146 -82 -243 -186 -243zM550 113c80 0 131 79 131 193c0 115 -51 194 -131 194c-79 0 -131 -78 -131 -193s52 -194 131 -194z" />
    <glyph glyph-name="one.idx_P2D" horiz-adv-x="1100" 
d="M550 792c272 0 492 -220 492 -492s-220 -492 -492 -492s-492 220 -492 492s220 492 492 492zM550 758c-253 0 -453 -205 -453 -458s200 -458 453 -458s453 205 453 458s-200 458 -453 458zM686 73h-269v47h110v365l-104 -23l-11 47l142 33h25v-422h107v-47z" />
    <glyph glyph-name="two.idx_P2D" horiz-adv-x="1100" 
d="M550 792c272 0 492 -220 492 -492s-220 -492 -492 -492s-492 220 -492 492s220 492 492 492zM550 758c-253 0 -453 -205 -453 -458s200 -458 453 -458s453 205 453 458s-200 458 -453 458zM403 439c0 15 5 31 15 46c23 35 71 64 137 64c78 0 147 -52 147 -129
c0 -76 -49 -112 -118 -160c-58 -40 -110 -88 -129 -142h208v73h47v-118h-305c-1 0 -14 23 -14 23c29 98 99 156 163 201c56 39 94 69 94 123c0 48 -45 82 -96 82c-36 0 -66 -11 -82 -26c-6 -5 -9 -10 -11 -15c15 -7 23 -21 23 -34c0 -21 -17 -37 -37 -37
c-26 0 -42 18 -42 49z" />
    <glyph glyph-name="three.idx_P2D" horiz-adv-x="1100" 
d="M550 792c272 0 492 -220 492 -492s-220 -492 -492 -492s-492 220 -492 492s220 492 492 492zM550 758c-253 0 -453 -205 -453 -458s200 -458 453 -458s453 205 453 458s-200 458 -453 458zM393 166c0 24 17 45 39 45c20 0 36 -17 36 -36c0 -13 -7 -23 -17 -29
c13 -18 53 -33 95 -33c67 0 110 40 110 86c0 35 -19 61 -53 77c-23 11 -52 16 -87 16h-18v47h21c35 0 67 9 90 26c21 16 34 37 34 63c0 48 -39 72 -96 72c-39 0 -69 -11 -83 -27c10 -6 18 -16 18 -29c0 -20 -17 -36 -37 -36c-19 0 -39 17 -39 45c0 13 5 28 16 42
c22 28 66 52 128 52c81 0 146 -46 146 -118c0 -38 -21 -71 -53 -91c-15 -10 -31 -17 -50 -21c18 -3 35 -9 50 -17c37 -20 64 -55 64 -101c0 -78 -68 -133 -161 -133c-54 0 -105 20 -132 50c-13 15 -21 32 -21 50z" />
    <glyph glyph-name="four.idx_P2D" horiz-adv-x="1100" 
d="M550 792c272 0 492 -220 492 -492s-220 -492 -492 -492s-492 220 -492 492s220 492 492 492zM550 758c-253 0 -453 -205 -453 -458s200 -458 453 -458s453 205 453 458s-200 458 -453 458zM494 73v45h84v93h-215l-11 22l244 319l40 -29l-208 -269h150v99l52 22v-121h79
v-44h-79v-92h64v-45h-200z" />
    <glyph glyph-name="five.idx_P2D" horiz-adv-x="1100" 
d="M550 792c272 0 492 -220 492 -492s-220 -492 -492 -492s-492 220 -492 492s220 492 492 492zM550 758c-253 0 -453 -205 -453 -458s200 -458 453 -458s453 205 453 458s-200 458 -453 458zM547 64c-82 0 -155 42 -155 85c0 21 14 40 39 40c20 0 36 -17 36 -36
c0 -9 -4 -18 -9 -22c10 -10 51 -20 89 -20c67 0 106 47 106 111c0 54 -33 99 -104 99c-36 0 -90 -12 -114 -23l-23 12l23 230h242v-50h-199l-14 -133c17 6 56 12 91 12c85 0 151 -54 151 -146c0 -100 -70 -159 -159 -159z" />
    <glyph glyph-name="six.idx_P2D" horiz-adv-x="1100" 
d="M550 792c272 0 492 -220 492 -492s-220 -492 -492 -492s-492 220 -492 492s220 492 492 492zM550 758c-253 0 -453 -205 -453 -458s200 -458 453 -458s453 205 453 458s-200 458 -453 458zM693 468c0 -26 -17 -40 -37 -40c-23 0 -37 17 -37 36c0 9 3 16 7 22
c-8 8 -30 16 -53 16c-76 0 -135 -83 -138 -209c22 38 71 68 124 68c93 0 158 -63 158 -147s-68 -150 -160 -150c-50 0 -90 18 -119 47c-36 36 -54 91 -54 165c0 192 97 273 191 273c32 0 61 -9 81 -22c23 -15 37 -36 37 -59zM443 214c0 -27 13 -53 34 -72s49 -31 81 -31
c60 0 106 43 106 102s-46 101 -108 101c-64 0 -113 -44 -113 -100z" />
    <glyph glyph-name="seven.idx_P2D" horiz-adv-x="1100" 
d="M550 792c272 0 492 -220 492 -492s-220 -492 -492 -492s-492 220 -492 492s220 492 492 492zM550 758c-253 0 -453 -205 -453 -458s200 -458 453 -458s453 205 453 458s-200 458 -453 458zM521 73h-55l195 422h-204v-76h-49v121h308l10 -21z" />
    <glyph glyph-name="eight.idx_P2D" horiz-adv-x="1100" 
d="M550 792c272 0 492 -220 492 -492s-220 -492 -492 -492s-492 220 -492 492s220 492 492 492zM550 758c-253 0 -453 -205 -453 -458s200 -458 453 -458s453 205 453 458s-200 458 -453 458zM550 66c-96 0 -163 55 -163 133c0 58 48 105 95 117c-49 16 -85 59 -85 105
c0 80 69 126 153 126c83 0 152 -46 152 -126c0 -46 -36 -89 -85 -105c47 -12 95 -59 95 -117c0 -78 -67 -133 -162 -133zM550 336c54 0 99 37 99 83c0 47 -42 82 -99 82c-58 0 -100 -35 -100 -82c0 -46 45 -83 100 -83zM550 113c64 0 109 37 109 89c0 49 -49 90 -109 90
c-61 0 -110 -41 -110 -90c0 -52 45 -89 110 -89z" />
    <glyph glyph-name="nine.idx_P2D" horiz-adv-x="1100" 
d="M550 792c272 0 492 -220 492 -492s-220 -492 -492 -492s-492 220 -492 492s220 492 492 492zM550 758c-253 0 -453 -205 -453 -458s200 -458 453 -458s453 205 453 458s-200 458 -453 458zM406 145c0 26 17 40 36 40c22 0 37 -17 37 -36c0 -10 -3 -17 -7 -21
c10 -11 30 -17 58 -17c74 0 135 73 136 204c-22 -38 -72 -66 -124 -66c-92 0 -157 60 -157 148c0 87 68 152 160 152c49 0 89 -18 117 -46c37 -37 55 -93 55 -168c0 -192 -89 -271 -189 -271c-39 0 -79 15 -102 38c-13 13 -20 27 -20 43zM658 395c0 30 -13 57 -33 76
c-21 20 -49 32 -81 32c-60 0 -107 -44 -107 -104c0 -63 46 -104 109 -104s112 44 112 100z" />
    <glyph glyph-name="space" unicode=" " horiz-adv-x="230" 
 />
    <glyph glyph-name="uni00A0" unicode="&#xa0;" horiz-adv-x="230" 
 />
    <glyph glyph-name="emspace" unicode="&#x2003;" horiz-adv-x="1000" 
 />
    <glyph glyph-name="enspace" unicode="&#x2002;" horiz-adv-x="500" 
 />
    <glyph glyph-name="threeperemspace" unicode="&#x2004;" horiz-adv-x="333" 
 />
    <glyph glyph-name="fourperemspace" unicode="&#x2005;" horiz-adv-x="250" 
 />
    <glyph glyph-name="thinspace" unicode="&#x2009;" horiz-adv-x="133" 
 />
    <glyph glyph-name="hairspace" unicode="&#x200a;" horiz-adv-x="75" 
 />
    <glyph glyph-name="space.tab" horiz-adv-x="265" 
 />
    <glyph glyph-name="figurespace" unicode="&#x2007;" horiz-adv-x="530" 
 />
    <glyph glyph-name="NUL" horiz-adv-x="0" 
 />
    <glyph glyph-name="hcoslug" horiz-adv-x="694" 
d="M273 18h-26c0 -9 3 -12 10 -12c5 0 8 2 9 7h7c-2 -8 -7 -14 -18 -14c-13 0 -21 8 -21 20s9 21 20 21c14 0 20 -9 19 -22zM254 35c-4 0 -7 -3 -7 -12h14c0 8 -2 12 -7 12zM195 78c5 0 8 4 8 16c0 11 -3 15 -8 15s-8 -4 -8 -15c0 -12 3 -16 8 -16zM210 4c5 0 8 4 8 16
c0 11 -3 15 -8 15s-8 -4 -8 -15c0 -12 3 -16 8 -16zM210 -1c-12 0 -21 8 -21 21c0 12 9 20 21 20s21 -8 21 -20s-9 -21 -21 -21zM546 4c5 0 8 4 8 16c0 11 -3 15 -8 15s-8 -4 -8 -15c0 -12 3 -16 8 -16zM546 -1c-12 0 -21 8 -21 21c0 12 9 20 21 20s21 -8 21 -20
s-9 -21 -21 -21zM125 74v7h7v41h-7v7h51v-20h-8c-2 11 -4 13 -11 13h-12v-18h4c5 0 5 1 6 8h7v-23h-7c-1 7 -1 8 -6 8h-4v-16h10v-7h-30zM195 73c-12 0 -21 8 -21 21c0 12 9 20 21 20s21 -8 21 -20s-9 -21 -21 -21zM644 -100v800h-594v-800h594zM498 -1c-18 0 -29 11 -29 28
c0 18 13 30 27 30c7 0 12 -3 16 -7l1 6h8v-22h-8c-4 12 -7 16 -15 16s-14 -6 -14 -22c0 -15 6 -22 16 -22c8 0 13 7 14 16h8c-1 -14 -9 -23 -24 -23zM372 80c5 0 7 5 7 13s-2 13 -7 13c-6 0 -8 -6 -8 -13c0 -8 2 -13 8 -13zM276 0v7h6v25h-7v7h7v1c0 13 9 19 19 19
c3 0 7 -1 9 -2l10 2v-52h6v-7h-23v7h5v25h-14v-25h5v-7h-23zM368 0v7h6v25h-6v7h18v-10c3 8 7 11 12 11s8 -3 8 -8c0 -4 -3 -7 -7 -7c-3 0 -6 2 -6 6v1c-2 0 -5 -4 -7 -9v-16h8v-7h-26zM352 73v52h-6v7h18v-27c2 6 7 9 13 9c9 0 15 -8 15 -20c0 -9 -4 -21 -16 -21
c-7 0 -11 3 -14 8l-4 -8h-6zM400 75c7 0 8 -7 5 -10c4 0 7 3 8 8c-4 10 -16 33 -16 33h-5v7h25v-7h-6l9 -20l8 20h-5v7h17v-7h-5l-13 -31c-4 -10 -9 -16 -18 -16c-7 0 -11 4 -11 9c0 4 3 7 7 7zM247 428c0 17 11 29 27 29c17 0 29 -15 29 -38c0 -17 -7 -33 -18 -50
c-23 22 -38 36 -38 59zM302 74v14h7c4 -6 7 -9 12 -9c3 0 5 2 5 4c0 8 -24 3 -24 19c0 6 5 12 14 12c5 0 9 -2 11 -5l2 5h6v-13h-7c-3 4 -6 7 -10 7c-3 0 -5 -2 -5 -4c0 -8 24 -2 24 -18c0 -7 -5 -13 -14 -13c-7 0 -10 3 -13 5l-1 -4h-7zM261 219c-30 0 -52 23 -52 54
c0 15 5 29 16 40c18 -17 46 -47 74 -82c-11 -9 -23 -12 -38 -12zM274 122l12 2v-11h13v-7h-13v-20c0 -3 1 -5 4 -5c2 0 4 2 5 7l5 -2c-2 -9 -6 -13 -14 -13s-12 5 -12 13v20h-7v7h7v9zM428 306c-15 -9 -31 -22 -46 -42c25 -29 42 -41 62 -41c21 0 33 12 43 29l7 -2
c-2 -58 -37 -94 -80 -94c-30 0 -52 11 -85 45c-28 -31 -62 -45 -104 -45c-60 0 -109 40 -109 93c0 42 29 73 82 91c-21 22 -31 40 -31 69c0 43 42 85 109 85c62 0 95 -39 95 -74c0 -13 -3 -24 -9 -34c27 1 47 -10 49 -37c16 24 35 38 60 38c28 0 50 -21 50 -52
s-22 -54 -50 -54c-18 0 -34 10 -43 25zM219 74v7h6v25h-6v7h17v-10c3 7 7 11 14 11c9 0 12 -6 12 -14v-19h6v-7h-22v7h4v18c0 4 -2 7 -6 7s-7 -4 -7 -10v-15h4v-7h-22zM446 33h18v-7h-5c-3 -6 -6 -10 -9 -14c2 -3 4 -5 6 -5s3 1 4 5l5 -1c-2 -7 -5 -12 -13 -12
c-5 0 -8 1 -12 6c-4 -4 -9 -6 -15 -6c-12 0 -18 6 -18 14s6 13 13 15c-4 4 -6 7 -6 12c0 7 7 14 17 14c9 0 14 -6 14 -12s-4 -9 -11 -12c5 -5 8 -9 12 -13c2 2 5 6 6 9h-6v7zM429 6c2 0 5 1 8 3c-5 6 -9 11 -14 16c-2 -2 -4 -5 -4 -9c0 -6 4 -10 10 -10zM294 42v-3h14v5
c-3 0 -6 2 -6 6c0 2 1 3 1 3s-1 1 -3 1c-3 0 -6 -2 -6 -12zM425 43c0 -3 2 -6 6 -10c3 2 5 5 5 9c0 3 -2 6 -6 6c-3 0 -5 -2 -5 -5zM312 342c19 13 33 24 42 34c23 -23 18 -47 -1 -80c-13 15 -25 30 -41 46zM366 18h-26c0 -9 3 -12 10 -12c5 0 8 2 9 7h7
c-2 -8 -7 -14 -18 -14c-13 0 -21 8 -21 20s9 21 20 21c14 0 20 -9 19 -22zM347 35c-4 0 -7 -3 -7 -12h14c0 8 -2 12 -7 12zM124 0v7h8v41h-8v7h29v-7h-8v-16h22v16h-8v7h29v-7h-8v-41h8v-7h-29v7h8v18h-22v-18h8v-7h-29zM576 13c4 0 7 -3 7 -7s-3 -7 -7 -7s-7 3 -7 7
s3 7 7 7z" />
    <glyph glyph-name="A.sc" horiz-adv-x="575" 
d="M160 501h255v-46h-77l157 -409h65v-46h-199v46h81l-47 124h-218l-46 -124h81v-46h-197v46h65l156 409h-76v46zM286 458l-91 -241h182z" />
    <glyph glyph-name="B.sc" horiz-adv-x="524" 
d="M187 46h106c81 0 122 39 122 93c0 64 -49 94 -136 94h-92v-187zM187 277h91c83 0 123 37 123 93c0 53 -41 85 -121 85h-93v-178zM290 0h-245v46h90v409h-90v46h236c125 0 173 -59 173 -126c0 -63 -41 -103 -98 -118c69 -17 112 -53 112 -120c0 -80 -61 -137 -178 -137z
" />
    <glyph glyph-name="C.sc" horiz-adv-x="549" 
d="M464 105l30 -36c-50 -50 -120 -78 -190 -78c-151 0 -254 114 -254 260c0 143 106 260 256 260c103 0 185 -65 185 -124c0 -29 -18 -50 -44 -50c-24 0 -41 17 -41 40c0 17 10 28 21 33c-14 22 -56 53 -121 53c-117 0 -202 -91 -202 -212c0 -124 85 -212 200 -212
c63 0 115 24 160 66z" />
    <glyph glyph-name="D.sc" horiz-adv-x="603" 
d="M187 46h84c152 0 229 86 229 211c0 123 -92 198 -235 198h-78v-409zM265 0h-220v46h90v409h-90v46h220c176 0 288 -95 288 -245c0 -152 -105 -256 -288 -256z" />
    <glyph glyph-name="E.sc" horiz-adv-x="507" 
d="M447 0h-402v46h90v409h-90v46h402v-137h-50v91h-210v-178h172v-47h-172v-184h210v91h50v-137z" />
    <glyph glyph-name="F.sc" horiz-adv-x="486" 
d="M281 0h-236v46h90v409h-90v46h401v-137h-50v91h-209v-184h169v-47h-169v-178h94v-46z" />
    <glyph glyph-name="G.sc" horiz-adv-x="587" 
d="M310 463c-124 0 -206 -95 -206 -216c0 -126 91 -207 197 -207c63 0 114 18 160 49v111h-142v46h193v-246h-50v43c-44 -32 -95 -51 -165 -51c-127 0 -247 95 -247 254s121 264 262 264c116 0 192 -64 192 -117c0 -29 -18 -48 -43 -48c-23 0 -40 16 -40 38c0 16 9 27 18 32
c-20 22 -67 48 -129 48z" />
    <glyph glyph-name="H.sc" horiz-adv-x="667" 
d="M45 0v46h90v409h-90v46h233v-46h-91v-178h293v178h-91v46h233v-46h-90v-409h90v-46h-233v46h91v183h-293v-183h91v-46h-233z" />
    <glyph glyph-name="I.sc" horiz-adv-x="326" 
d="M281 0h-236v46h92v409h-92v46h236v-46h-92v-409h92v-46z" />
    <glyph glyph-name="J.sc" horiz-adv-x="432" 
d="M171 40c27 0 52 9 70 28c21 23 32 59 32 110v277h-93v46h227v-46h-82v-279c0 -60 -15 -111 -46 -142c-27 -28 -64 -43 -109 -43c-80 0 -145 56 -145 127c0 34 19 57 47 57c21 0 40 -15 40 -39c0 -18 -12 -35 -32 -38c2 -22 34 -58 91 -58z" />
    <glyph glyph-name="K.sc" horiz-adv-x="576" 
d="M483 454l-172 -173l166 -235h84v-46h-116l-170 245l-86 -85v-114h88l1 -46h-233v46h92v409h-92v46h227v-46h-83v-234l234 234h-80v46h209v-47h-69z" />
    <glyph glyph-name="L.sc" horiz-adv-x="477" 
d="M389 46v96h50v-142h-394v46h90v409h-90v46h235v-46h-93v-409h202z" />
    <glyph glyph-name="M.sc" horiz-adv-x="736" 
d="M538 501h143v-46h-90l20 -409h90v-46h-234v46h92l-13 368l-169 -344h-19l-170 344l-13 -368h93v-46h-233v46h91l18 409h-90v46h144l170 -349z" />
    <glyph glyph-name="N.sc" horiz-adv-x="654" 
d="M182 501l302 -396v350h-91v46h230v-46h-90v-458h-31l-318 419v-370h91v-46h-230v46h90v409h-90v46h137z" />
    <glyph glyph-name="O.sc" 
d="M305 512c151 0 255 -115 255 -260c0 -146 -104 -261 -256 -261c-150 0 -254 115 -254 261c0 145 104 260 255 260zM304 39c119 0 202 88 202 213c0 122 -83 212 -201 212s-201 -89 -201 -212c0 -125 83 -213 200 -213z" />
    <glyph glyph-name="P.sc" horiz-adv-x="489" 
d="M45 501h220c106 0 187 -60 187 -156c0 -103 -74 -163 -187 -163c-27 0 -64 0 -78 1v-137h92v-46h-234v46h90v409h-90v46zM268 228c81 0 131 44 131 116c0 70 -57 111 -133 111h-79v-226c15 -1 51 -1 81 -1z" />
    <glyph glyph-name="Q.sc" 
d="M508 -106c-69 0 -118 47 -161 73c-25 16 -49 22 -77 27c-53 10 -101 29 -137 61c-51 44 -83 117 -83 197c0 145 104 260 255 260s255 -115 255 -260c0 -124 -77 -222 -190 -246c14 -6 25 -11 45 -24c36 -24 58 -37 92 -37c23 0 38 5 61 19l23 -44
c-26 -20 -53 -26 -83 -26zM304 39c116 0 202 94 202 213c0 122 -83 212 -201 212s-201 -89 -201 -212c0 -66 25 -123 65 -161c34 -32 81 -52 135 -52z" />
    <glyph glyph-name="Q.sc_alt" 
d="M456 -84l-58 91c-28 -10 -60 -16 -94 -16c-150 0 -254 115 -254 261c0 145 104 260 255 260s255 -115 255 -260c0 -96 -45 -178 -118 -223l55 -88zM304 39c24 0 47 3 68 10l-57 92l41 26l60 -96c55 36 90 101 90 181c0 122 -83 212 -201 212s-201 -89 -201 -212
c0 -125 83 -213 200 -213z" />
    <glyph glyph-name="R.sc" horiz-adv-x="534" 
d="M265 455h-78v-203c24 -1 51 -1 74 -1c82 0 140 37 140 105c0 64 -53 99 -136 99zM187 206v-160h92v-46h-234v46h90v409h-90v46h222c114 0 186 -55 186 -144c0 -69 -46 -119 -111 -139l108 -172h78v-46h-114l-125 206c-16 -1 -27 -1 -35 -1c-18 0 -48 0 -67 1z" />
    <glyph glyph-name="S.sc" horiz-adv-x="455" 
d="M314 406c0 12 6 26 12 33c-12 14 -53 26 -92 26c-69 0 -113 -34 -113 -83c0 -55 60 -77 123 -102c82 -31 161 -60 161 -146c0 -89 -78 -143 -179 -143c-106 0 -176 55 -176 104c0 29 16 48 40 48c23 0 40 -15 40 -37c0 -14 -6 -27 -13 -36c16 -16 55 -33 110 -33
c79 0 125 37 125 94c0 53 -63 76 -120 98c-87 33 -165 61 -165 148c0 79 67 133 169 133c89 0 158 -45 158 -100c0 -26 -18 -43 -38 -43c-26 0 -42 17 -42 39z" />
    <glyph glyph-name="T.sc" horiz-adv-x="523" 
d="M143 0v46h92v409h-144v-91h-50v137h441v-137h-51v91h-144v-409h92v-46h-236z" />
    <glyph glyph-name="U.sc" 
d="M304 -7c-120 0 -191 66 -191 188v274h-84v46h226v-46h-90v-272c0 -91 54 -143 140 -143s140 51 140 142v273h-90v46h226v-46h-84v-272c0 -122 -73 -190 -193 -190z" />
    <glyph glyph-name="V.sc" horiz-adv-x="553" 
d="M261 -8l-188 463h-63v46h199v-46h-80l149 -377l149 377h-80v46h196v-46h-62l-189 -463h-31z" />
    <glyph glyph-name="W.sc" horiz-adv-x="772" 
d="M225 -12l-141 467h-73v46h210v-46h-81l107 -365l129 343h24l130 -343l106 365h-81v46h206v-46h-73l-141 -467h-30l-131 351l-131 -351h-30z" />
    <glyph glyph-name="X.sc" horiz-adv-x="560" 
d="M535 48v-48h-200v46h71l-128 179l-130 -179h81v-46h-204v48h65l157 207l-146 200h-67v46h204v-46h-75l117 -168l120 168h-75v46h201v-46h-70l-146 -198l156 -209h69z" />
    <glyph glyph-name="Y.sc" horiz-adv-x="523" 
d="M517 501v-46h-71l-159 -265v-144h91v-46h-234v46h91v144l-158 265h-71v46h207v-46h-79l129 -222l129 222h-79v46h204z" />
    <glyph glyph-name="Z.sc" horiz-adv-x="483" 
d="M45 0v28l320 428h-257v-89h-50v134h382v-27l-319 -428h271v88h51v-134h-398z" />
    <glyph glyph-name="Aacute.sc" horiz-adv-x="575" 
d="M160 501h255v-46h-77l157 -409h65v-46h-199v46h81l-47 124h-218l-46 -124h81v-46h-197v46h65l156 409h-76v46zM286 458l-91 -241h182zM251 569l-12 19l125 115c13 12 25 20 38 20c18 0 36 -14 36 -39c0 -12 -14 -28 -35 -39z" />
    <glyph glyph-name="Abreve.sc" horiz-adv-x="575" 
d="M160 501h255v-46h-77l157 -409h65v-46h-199v46h81l-47 124h-218l-46 -124h81v-46h-197v46h65l156 409h-76v46zM286 458l-91 -241h182zM288 569c-71 0 -125 53 -148 119l40 19c19 -51 63 -81 108 -81c50 0 90 35 108 81l40 -19c-23 -66 -77 -119 -148 -119z" />
    <glyph glyph-name="Acircumflex.sc" horiz-adv-x="575" 
d="M160 501h255v-46h-77l157 -409h65v-46h-199v46h81l-47 124h-218l-46 -124h81v-46h-197v46h65l156 409h-76v46zM286 458l-91 -241h182zM169 563l-25 30l144 134l144 -134l-25 -30l-119 91z" />
    <glyph glyph-name="Adieresis.sc" horiz-adv-x="575" 
d="M160 501h255v-46h-77l157 -409h65v-46h-199v46h81l-47 124h-218l-46 -124h81v-46h-197v46h65l156 409h-76v46zM286 458l-91 -241h182zM368 585c-28 0 -49 23 -49 51s21 51 49 51s49 -23 49 -51s-21 -51 -49 -51zM208 585c-28 0 -49 23 -49 51s21 51 49 51s49 -23 49 -51
s-21 -51 -49 -51z" />
    <glyph glyph-name="AE.sc" horiz-adv-x="689" 
d="M227 0v46h90v129h-154l-67 -129h77v-46h-188v46h57l217 409h-69v46h439v-137h-50v91h-210v-178h172v-47h-172v-184h210v91h50v-137h-402zM310 455l-122 -233h129v233h-7z" />
    </font>
</defs>
</svg>
