<?xml version="1.0" standalone="no"?>
<!DOCTYPE svg PUBLIC "-//W3C//DTD SVG 1.1//EN" "http://www.w3.org/Graphics/SVG/1.1/DTD/svg11.dtd" >
<svg xmlns="http://www.w3.org/2000/svg" xmlns:xlink="http://www.w3.org/1999/xlink" version="1.1">
<metadata>
Created by FontForge 20201107 at Fri Jan  1 02:30:17 1904
 By 
Copyright 1990-1992 Bitstream Inc.  All rights reserved.
</metadata>
<defs>
<font id="AmericanaBT-Bold" horiz-adv-x="1024" >
  <font-face 
    font-family="Americana BT"
    font-weight="700"
    font-stretch="normal"
    units-per-em="2048"
    panose-1="0 0 0 0 0 0 0 0 0 0"
    ascent="1638"
    descent="-410"
    x-height="1067"
    cap-height="1335"
    bbox="-342 -483 2406 1929"
    underline-thickness="104"
    underline-position="-255"
    unicode-range="U+0020-F002"
  />
<missing-glyph horiz-adv-x="1229" 
d="M102 -362v1806h1024v-1806h-1024zM217 -248h795v1577h-795v-1577z" />
    <glyph glyph-name=".notdef" horiz-adv-x="1229" 
d="M102 -362v1806h1024v-1806h-1024zM217 -248h795v1577h-795v-1577z" />
    <glyph glyph-name=".null" horiz-adv-x="0" 
 />
    <glyph glyph-name="nonmarkingreturn" horiz-adv-x="668" 
 />
    <glyph glyph-name="space" unicode=" " horiz-adv-x="668" 
 />
    <glyph glyph-name="exclam" unicode="!" horiz-adv-x="668" 
d="M317 295q-10 211 -54 494.5t-44 363.5q0 107 28.5 160t86.5 53q56 0 86.5 -54t30.5 -155q0 -74 -44.5 -359t-56.5 -503h-33zM207 90q0 53 36.5 89t90.5 36q53 0 90 -36t37 -89q0 -52 -36.5 -87.5t-90.5 -35.5q-56 0 -91.5 34.5t-35.5 88.5z" />
    <glyph glyph-name="quotedbl" unicode="&#x22;" horiz-adv-x="686" 
d="M526 860h-34l-70 459q-1 7 -1.5 14.5t-0.5 22.5q0 51 22.5 78.5t65.5 27.5q42 0 66 -27t24 -75q0 -16 -0.5 -24.5t-1.5 -16.5zM195 860h-35l-70 459l-3 25.5t-1 15.5q0 48 24 75t66 27q44 0 67 -27.5t23 -78.5q0 -16 -0.5 -23.5t-1.5 -14.5z" />
    <glyph glyph-name="numbersign" unicode="#" horiz-adv-x="1575" 
d="M702 864l-98 -276h283l96 276h-281zM760 1458h155l-161 -454h276l162 454h156l-162 -454h301l-49 -140h-301l-97 -276h320l-49 -139h-320l-162 -453h-155l162 453h-279l-162 -453h-153l159 453h-313l51 139h312l98 276h-336l51 140h334z" />
    <glyph glyph-name="dollar" unicode="$" horiz-adv-x="1337" 
d="M150 162l79 241h13q30 -150 135 -235.5t260 -85.5q130 0 213.5 73t83.5 187q0 152 -276 208q-64 13 -99 21q-174 41 -252 113t-78 190q0 144 109 239t301 116v178h72v-178q108 -6 202 -27t174 -57l-69 -213l-12 2q-22 122 -102.5 188t-207.5 66q-125 0 -202.5 -63
t-77.5 -162q0 -63 32 -106t101 -73q47 -20 155.5 -37t155.5 -28q139 -32 211 -107t72 -188q0 -146 -116.5 -251.5t-311.5 -133.5v-193h-80l-1 193q-125 2 -243.5 32t-240.5 91z" />
    <glyph glyph-name="percent" unicode="%" horiz-adv-x="1450" 
d="M934 301q0 -159 32.5 -228t106.5 -69q76 0 108.5 68t32.5 229q0 158 -33 227.5t-108 69.5q-74 0 -106.5 -69t-32.5 -228zM768 301q0 153 83 243.5t222 90.5t223 -91t84 -243q0 -151 -84 -242.5t-223 -91.5q-141 0 -223 90t-82 244zM238 956q0 -158 32.5 -227.5
t106.5 -69.5q76 0 108.5 68t32.5 229q0 158 -33 226.5t-108 68.5q-74 0 -106.5 -68t-32.5 -227zM72 954q0 153 83 243.5t222 90.5t223 -90.5t84 -243.5q0 -151 -84 -242t-223 -91q-141 0 -223 89.5t-82 243.5zM213 -33v15l938 1308h88v-16l-936 -1307h-90z" />
    <glyph glyph-name="ampersand" unicode="&#x26;" horiz-adv-x="1446" 
d="M1112 0l-125 106q-105 -72 -209 -106.5t-217 -34.5q-198 0 -328.5 95t-130.5 233q0 117 82 210.5t246 162.5q-54 82 -79 149.5t-25 130.5q0 142 97.5 234t250.5 92q120 0 201 -69.5t81 -170.5q0 -99 -83 -183.5t-234 -139.5q74 -85 171 -179.5t239 -220.5q24 48 33.5 81
t9.5 65q0 78 -50.5 131t-136.5 65v15l365 -1q-9 -118 -46.5 -223t-101.5 -188q83 -72 166 -132t168 -110v-16q-96 2 -148.5 3t-99.5 1h-96zM606 741q86 39 129 104t43 156q0 97 -47.5 159.5t-120.5 62.5q-68 0 -112.5 -49t-44.5 -123q0 -66 38 -143t115 -167zM936 143
q-157 142 -275.5 262t-205.5 226q-61 -41 -91 -98.5t-30 -133.5q0 -149 106 -250.5t267 -101.5q65 0 120.5 23.5t108.5 72.5z" />
    <glyph glyph-name="quotesingle" unicode="'" horiz-adv-x="352" 
d="M195 860h-35l-70 459q0 2 -1 8q-3 19 -3 29q0 50 23.5 78t66.5 28q42 0 66 -27t24 -75q0 -7 -0.5 -15t-3.5 -27z" />
    <glyph glyph-name="parenleft" unicode="(" horiz-adv-x="653" 
d="M537 -356q-198 221 -282.5 420.5t-84.5 441.5q0 239 85.5 440.5t281.5 419.5h32q-97 -143 -144.5 -354.5t-47.5 -505.5q0 -292 46.5 -499.5t145.5 -362.5h-32z" />
    <glyph glyph-name="parenright" unicode=")" horiz-adv-x="653" 
d="M117 -356h-31q99 155 146 362.5t47 499.5q0 294 -47.5 505.5t-145.5 354.5h31q201 -228 283.5 -428t82.5 -432q0 -242 -84.5 -441.5t-281.5 -420.5z" />
    <glyph glyph-name="asterisk" unicode="*" 
d="M512 948l-137 -264l-137 102l211 209l-291 49l51 162l264 -135l-41 295h160l-41 -295l264 135l51 -162l-291 -49l211 -209l-139 -102z" />
    <glyph glyph-name="plus" unicode="+" horiz-adv-x="1706" 
d="M782 1221h142v-541h528v-139h-528v-541h-142v541h-528v139h528v541z" />
    <glyph glyph-name="comma" unicode="," horiz-adv-x="668" 
d="M358 -16q-6 -1 -13 -1.5t-19 -0.5q-55 0 -87 31.5t-32 84.5q0 54 35.5 88.5t91.5 34.5q61 0 96 -40.5t35 -112.5q0 -89 -51.5 -188t-134.5 -169l-27 19q55 82 80.5 143.5t25.5 110.5z" />
    <glyph glyph-name="hyphen" unicode="-" horiz-adv-x="575" 
d="M94 471l35 125h352l-32 -125h-355z" />
    <glyph glyph-name="period" unicode="." horiz-adv-x="668" 
d="M207 94q0 53 36.5 89t90.5 36q53 0 90 -36t37 -89q0 -52 -36.5 -87.5t-90.5 -35.5q-56 0 -91.5 35t-35.5 88z" />
    <glyph glyph-name="slash" unicode="/" horiz-adv-x="1171" 
d="M0 -190v20l1075 1536h96v-20l-1077 -1536h-94z" />
    <glyph glyph-name="zero" unicode="0" horiz-adv-x="1337" 
d="M313 629q0 -315 87.5 -467t269.5 -152q180 0 268 153t88 466q0 314 -88 466t-268 152q-179 0 -268 -153.5t-89 -464.5zM61 629q0 287 171.5 473t435.5 186q263 0 435.5 -187t172.5 -470q0 -282 -175 -473t-431 -191q-261 0 -435 189t-174 473z" />
    <glyph glyph-name="one" unicode="1" horiz-adv-x="1337" 
d="M381 -6v16q100 26 136 95.5t36 324.5v76v483q0 135 -29 169t-114 40v16q79 6 169 24.5t201 51.5q-4 -57 -6 -152.5t-2 -242.5v-412q0 -297 35.5 -372.5t134.5 -100.5v-16q-63 3 -133 4.5t-147 1.5q-57 0 -128 -1.5t-153 -4.5z" />
    <glyph glyph-name="two" unicode="2" horiz-adv-x="1337" 
d="M90 0q36 152 127 260.5t275 212.5l22 13q358 201 358 442q0 145 -80.5 231t-218.5 86q-137 0 -232.5 -79t-135.5 -226h-17l-67 238q109 56 223.5 84t233.5 28q246 0 399 -112t153 -289q0 -85 -39 -156t-116 -125q-77 -52 -303 -128q-62 -20 -94 -31
q-130 -45 -200.5 -104.5t-109.5 -154.5h488q164 0 241.5 37t149.5 129l16 -4l-104 -358q-27 1 -101.5 3.5t-113.5 2.5h-94h-660z" />
    <glyph glyph-name="three" unicode="3" horiz-adv-x="1337" 
d="M63 100l89 260h12q40 -168 151 -259t277 -91q162 0 258 92.5t96 245.5t-99.5 232t-291.5 79q-24 0 -58 -3t-79 -9v70q31 -5 63.5 -7.5t65.5 -2.5q173 0 257.5 69t84.5 211q0 120 -75.5 190t-205.5 70q-149 0 -248.5 -79.5t-130.5 -223.5h-14l-59 240q105 53 222.5 79.5
t250.5 26.5q232 0 370 -81t138 -216q0 -123 -115 -204.5t-317 -100.5q250 -24 376.5 -107.5t126.5 -224.5q0 -178 -166 -284.5t-450 -106.5q-145 0 -275 33.5t-254 101.5z" />
    <glyph glyph-name="four" unicode="4" horiz-adv-x="1337" 
d="M692 436v617l-526 -617h526zM1171 328q-52 7 -108 10.5t-119 3.5h-45q0 -181 36 -245.5t134 -86.5v-16q-65 3 -131.5 4.5t-136.5 1.5q-88 0 -153.5 -1.5t-132.5 -4.5l-1 16q102 20 140 80.5t38 216.5v21h-655l26 86l826 923h12q-1 -54 -1.5 -120.5t-0.5 -206.5v-574h10
q127 0 206 39.5t142 134.5l13 -2z" />
    <glyph glyph-name="five" unicode="5" horiz-adv-x="1337" 
d="M57 96l84 266h13q39 -161 159.5 -255.5t286.5 -94.5t265.5 91t99.5 243q0 159 -103.5 250.5t-283.5 91.5q-88 0 -186 -21t-222 -67l51 655h725q84 0 127 12t70 40l12 -2l-74 -220h-671q-154 0 -175 -270q-7 -88 -11 -141q116 32 213 47.5t177 15.5q280 0 443.5 -99
t163.5 -267q0 -186 -161 -295t-437 -109q-168 0 -312.5 33t-253.5 96z" />
    <glyph glyph-name="six" unicode="6" horiz-adv-x="1337" 
d="M1210 1163l-77 -233l-15 2q-32 152 -126 233.5t-236 81.5q-209 0 -313.5 -165t-104.5 -494v-19q55 135 160 202t262 67q217 0 357 -117t140 -299q0 -198 -153.5 -326.5t-392.5 -128.5q-282 0 -447.5 172t-165.5 465q0 314 180 500t484 186q113 0 231 -33.5t217 -93.5z
M367 401q0 -178 86.5 -283.5t230.5 -105.5q157 0 242.5 106.5t85.5 301.5q0 166 -88 265t-234 99q-142 0 -232.5 -106t-90.5 -277z" />
    <glyph glyph-name="seven" unicode="7" horiz-adv-x="1337" 
d="M117 952l-15 2l105 307q104 -3 163.5 -4.5t80.5 -1.5h802q-14 -72 -61.5 -148t-181.5 -226q-164 -183 -241 -363t-77 -381q0 -12 1.5 -62t2.5 -81q-46 3 -81 4.5t-58 1.5q-25 0 -64.5 -1.5t-94.5 -4.5q7 213 92 379t337 399q144 133 191 193.5t61 115.5h-633
q-136 0 -211 -29.5t-118 -99.5z" />
    <glyph glyph-name="eight" unicode="8" horiz-adv-x="1337" 
d="M741 743q110 41 162.5 103.5t52.5 152.5q0 117 -77.5 182.5t-214.5 65.5q-134 0 -216.5 -62t-82.5 -161q0 -103 88.5 -169t287.5 -112zM571 606q-137 -42 -204.5 -113.5t-67.5 -177.5q0 -136 100 -219.5t265 -83.5q156 0 254 77t98 198q0 115 -94 185.5t-351 133.5z
M494 627q-156 39 -243 124.5t-87 200.5q0 150 137 244t363 94q223 0 356 -77.5t133 -204.5q0 -112 -89.5 -185t-260.5 -100q232 -53 334 -138.5t102 -224.5q0 -177 -161.5 -285t-432.5 -108q-253 0 -410 96t-157 244q0 129 106 210.5t310 109.5z" />
    <glyph glyph-name="nine" unicode="9" horiz-adv-x="1337" 
d="M119 94l84 258h14q37 -168 129 -254t236 -86q208 0 312.5 165t104.5 493v18q-55 -135 -160 -201.5t-261 -66.5q-212 0 -355 115.5t-143 285.5q0 208 153.5 338.5t397.5 130.5q279 0 443.5 -171.5t164.5 -465.5q0 -313 -180 -499.5t-484 -186.5q-107 0 -227 33.5
t-229 93.5zM971 856q0 178 -87 283.5t-231 105.5q-157 0 -242 -105.5t-85 -299.5q0 -166 88 -266.5t233 -100.5q142 0 233 106.5t91 276.5z" />
    <glyph glyph-name="colon" unicode=":" horiz-adv-x="668" 
d="M207 852q0 52 36.5 88.5t90.5 36.5q53 0 90 -36.5t37 -88.5t-36.5 -87.5t-90.5 -35.5q-56 0 -91.5 34.5t-35.5 88.5zM207 94q0 53 36.5 89t90.5 36q53 0 90 -36t37 -89q0 -52 -36.5 -87.5t-90.5 -35.5q-56 0 -91.5 35t-35.5 88z" />
    <glyph glyph-name="semicolon" unicode=";" horiz-adv-x="668" 
d="M205 852q0 52 36.5 88.5t90.5 36.5q53 0 90 -36.5t37 -88.5t-36.5 -87.5t-90.5 -35.5q-56 0 -91.5 34.5t-35.5 88.5zM356 -16q-6 -1 -13 -1.5t-19 -0.5q-55 0 -87 31.5t-32 84.5q0 54 35.5 88.5t91.5 34.5q61 0 96 -40.5t35 -112.5q0 -89 -51.5 -188t-135.5 -169l-26 19
q55 82 80.5 143.5t25.5 110.5z" />
    <glyph glyph-name="less" unicode="&#x3c;" horiz-adv-x="1706" 
d="M1442 1159v-153l-969 -396l969 -393v-154l-1178 484v129z" />
    <glyph glyph-name="equal" unicode="=" horiz-adv-x="1706" 
d="M254 481h1198v-139h-1198v139zM254 879h1198v-140h-1198v140z" />
    <glyph glyph-name="greater" unicode="&#x3e;" horiz-adv-x="1706" 
d="M264 1159l1178 -483v-129l-1178 -484v154l971 393l-971 396v153z" />
    <glyph glyph-name="question" unicode="?" horiz-adv-x="1044" 
d="M448 312q-1 8 -1.5 17t-0.5 25q0 57 17.5 108.5t68.5 133.5q11 16 33 47q150 218 150 371q0 140 -72.5 222.5t-193.5 82.5q-122 0 -211.5 -81t-126.5 -226h-15l-67 243q112 54 220 80.5t212 26.5q215 0 355 -106t140 -265q0 -56 -18.5 -107.5t-54.5 -95.5
q-35 -41 -132 -117t-139 -112q-62 -54 -92.5 -115t-32.5 -133zM348 90q0 53 37 89t90 36q54 0 90.5 -36t36.5 -89q0 -52 -36.5 -87.5t-90.5 -35.5q-55 0 -91 34.5t-36 88.5z" />
    <glyph glyph-name="at" unicode="@" horiz-adv-x="2019" 
d="M1186 332q-62 -105 -138 -156t-169 -51q-129 0 -206 92t-77 246q0 109 49.5 216t140.5 195q68 65 146 99.5t155 34.5q90 0 146 -48.5t76 -142.5l51 174h158l-172 -612l-4 -12q-15 -56 -15 -86q0 -51 23.5 -79t66.5 -28q33 0 80.5 20t89.5 52q119 90 179.5 228.5
t60.5 318.5q0 133 -52.5 245t-156.5 201q-90 77 -214 118.5t-267 41.5q-180 0 -335.5 -61.5t-275.5 -180.5q-126 -124 -190 -287t-64 -358q0 -182 57 -313t179 -234q109 -92 254 -141t307 -49q170 0 327 51.5t300 155.5l33 -41q-147 -110 -312.5 -166t-345.5 -56
q-189 0 -345.5 45.5t-274.5 135.5q-151 113 -230.5 276.5t-79.5 360.5q0 203 86.5 380.5t251.5 313.5q134 111 294.5 167t342.5 56q346 0 555 -188.5t209 -499.5q0 -159 -58.5 -298t-166.5 -237q-59 -52 -126 -80t-134 -28q-96 0 -149 53t-60 156zM1104 961
q-54 0 -98.5 -30.5t-90.5 -99.5q-71 -107 -113 -233.5t-42 -228.5q0 -86 39.5 -138.5t101.5 -52.5q65 0 122.5 43.5t111.5 132.5q55 93 88.5 204t33.5 198q0 92 -42 148.5t-111 56.5z" />
    <glyph glyph-name="A" unicode="A" horiz-adv-x="1565" 
d="M469 659q27 -2 57.5 -3t89.5 -1h123q69 0 100 1t56 3l-213 431zM-13 -6l-1 12q71 44 155.5 161t173.5 296l453 903h16l471 -893q12 -21 34 -63q182 -346 290 -404v-12q-58 3 -109 4.5t-98 1.5q-111 0 -185 -1.5t-146 -4.5l-1 12q52 17 72.5 41t20.5 70q0 31 -16.5 77.5
t-65.5 147.5l-125 262q-31 2 -60.5 3t-66.5 1h-226q-50 0 -77.5 -1t-51.5 -3l-71 -158q-48 -104 -72.5 -177t-24.5 -115q0 -56 30 -91t97 -57v-12q-33 3 -73 4.5t-121 1.5q-70 0 -121 -1.5t-101 -4.5z" />
    <glyph glyph-name="B" unicode="B" horiz-adv-x="1526" 
d="M39 -2v16q82 15 111.5 90.5t29.5 356.5v682q0 82 -27 121t-90 49l1 16q72 -1 140 -1.5t150 -0.5q49 0 167.5 2t187.5 2q321 0 471.5 -73t150.5 -230q0 -127 -105 -203t-317 -102q268 -22 402.5 -109.5t134.5 -240.5q0 -189 -171.5 -284t-510.5 -95q-24 0 -175.5 3
t-279.5 3q-111 0 -167 -0.5t-103 -1.5zM412 735q24 -1 45.5 -1.5t40.5 -0.5h43h94q223 0 336.5 72.5t113.5 214.5q0 136 -111 201t-343 65q-47 0 -103 -2t-116 -6v-543zM414 684v-225q0 -142 3.5 -222.5t10.5 -107.5q12 -50 65.5 -69t217.5 -19q230 0 351.5 83.5
t121.5 242.5q0 167 -128 244t-411 77h-104q-34 0 -114 -3q-9 -1 -13 -1z" />
    <glyph glyph-name="C" unicode="C" horiz-adv-x="1511" 
d="M1452 145q-131 -94 -277 -139t-321 -45q-339 0 -552.5 197t-213.5 514q0 310 213.5 502t556.5 192q155 0 296 -38.5t259 -113.5l-70 -247l-20 4q-51 177 -157.5 263.5t-274.5 86.5q-244 0 -387.5 -176t-143.5 -475q0 -303 144 -484.5t381 -181.5q180 0 306 107.5
t161 291.5l20 3z" />
    <glyph glyph-name="D" unicode="D" horiz-adv-x="1608" 
d="M412 1276v-815q0 -313 42.5 -368.5t231.5 -55.5q269 0 415 164.5t146 470.5q0 318 -145 465t-461 147q-82 0 -132 -2t-97 -6zM41 -6v16q81 21 110 91t29 360v682q0 81 -27 120.5t-90 49.5l1 16q68 -1 132.5 -1.5t149.5 -0.5q57 0 160 2t149 2q222 0 358.5 -31.5
t241.5 -103.5q129 -88 196 -216.5t67 -287.5q0 -154 -56.5 -288t-161.5 -230q-101 -93 -240 -133.5t-370 -40.5h-373q-97 0 -157.5 -1.5t-118.5 -4.5z" />
    <glyph glyph-name="E" unicode="E" horiz-adv-x="1411" 
d="M64 1327q49 -2 113 -3t206 -1l823 4l107 -289l-15 -6q-111 136 -249.5 192t-483.5 56h-16q-47 0 -77.5 -0.5t-59.5 -1.5v-545q24 -1 69 -2.5t58 -1.5h180q164 0 247 41.5t124 138.5h12v-409h-12q-37 96 -123 139t-248 43h-199q-4 0 -39.5 -1.5t-68.5 -2.5v-287
q0 -133 5 -195.5t17 -84.5q20 -36 62 -50t188 -14q274 0 430.5 62.5t261.5 205.5l15 -2l-107 -313h-1022h-69q-33 0 -71.5 -0.5t-82.5 -1.5v16q82 15 111.5 90.5t29.5 356.5v682q0 81 -28 121.5t-89 48.5z" />
    <glyph glyph-name="F" unicode="F" horiz-adv-x="1311" 
d="M50 -6l-1 16q82 21 110.5 93t28.5 358v682q0 81 -28 121.5t-88 48.5v16q52 -1 116 -1.5t205 -0.5h824l104 -289l-12 -6q-113 135 -267 191.5t-467 56.5q-63 0 -94.5 -0.5t-58.5 -1.5v-545q16 0 35.5 -1t23.5 -1q3 0 26 -1t42 -1h180q164 0 246 41.5t123 138.5h14v-409
h-14q-36 97 -121.5 139.5t-247.5 42.5h-199q-4 0 -39.5 -1.5t-68.5 -2.5v-217q0 -276 29 -352.5t112 -98.5v-16q-85 3 -151 4.5t-115 1.5q-58 0 -119.5 -1.5t-127.5 -4.5z" />
    <glyph glyph-name="G" unicode="G" horiz-adv-x="1597" 
d="M1456 146q-112 -95 -255.5 -141t-323.5 -46q-351 0 -570 191.5t-219 498.5q0 328 215.5 521.5t577.5 193.5q160 0 310.5 -42t278.5 -122l-84 -233l-14 2q-35 167 -159.5 260.5t-311.5 93.5q-258 0 -399.5 -172t-141.5 -487q0 -307 142 -483.5t387 -176.5q98 0 175.5 38.5
t115.5 104.5q18 34 26 92.5t8 170.5q0 140 -47.5 186.5t-185.5 58.5v19q124 -5 186 -6.5t115 -1.5q55 0 132 2t169 6v-19q-77 -18 -105 -51t-28 -104v-226q0 -32 1.5 -64t4.5 -64z" />
    <glyph glyph-name="H" unicode="H" horiz-adv-x="1593" 
d="M1179 735l1 420q0 72 -29 112t-88 52v16q60 -4 118.5 -6t114.5 -2q58 0 117 2t119 6v-16q-62 -11 -90.5 -50.5t-28.5 -113.5v-694q0 -273 29 -352t112 -99v-16q-85 3 -151 4.5t-115 1.5q-58 0 -120.5 -1.5t-128.5 -4.5l-1 16q83 18 112.5 96t29.5 355v217q-44 2 -88.5 3
t-116.5 1h-359q-71 0 -116 -1t-88 -3v-217q0 -272 29 -350.5t114 -100.5v-16q-86 3 -151.5 4.5t-114.5 1.5q-59 0 -121.5 -1.5t-128.5 -4.5v16q83 20 112 95.5t29 355.5v694q0 72 -27.5 109.5t-91.5 54.5v16q60 -4 119.5 -6t116.5 -2t115 2t118 6v-16q-63 -14 -90.5 -52
t-27.5 -112v-420q50 -3 101.5 -4.5t102.5 -1.5h359q20 0 70 1.5t134 4.5z" />
    <glyph glyph-name="I" unicode="I" horiz-adv-x="616" 
d="M428 461v-12q0 -260 30 -338.5t117 -100.5v-16q-62 3 -123.5 4.5t-150.5 1.5q-95 0 -151 -1.5t-106 -4.5l-1 16q86 20 116.5 98.5t30.5 352.5v694q0 71 -28.5 109t-93.5 55v16q63 -4 123 -6t118 -2t118.5 2t123.5 6v-16q-64 -12 -93.5 -51.5t-29.5 -112.5v-694z" />
    <glyph glyph-name="J" unicode="J" horiz-adv-x="909" 
d="M-20 -2l75 254h13q23 -106 84.5 -169t140.5 -63q113 0 157 116.5t44 467.5v551q0 73 -30.5 110t-103.5 54v16q14 0 40 -1q149 -7 212 -7q76 0 226 8h6v-16q-63 -14 -91 -52t-28 -112v-438q0 -20 1 -69t1 -77q0 -177 -30 -271.5t-103 -172.5q-78 -83 -176.5 -124.5
t-216.5 -41.5q-48 0 -103.5 9.5t-117.5 27.5z" />
    <glyph glyph-name="K" unicode="K" horiz-adv-x="1399" 
d="M418 698l350 310q118 102 165.5 159t47.5 95q0 25 -13.5 36.5t-49.5 18.5v16q62 -3 115 -4.5t95 -1.5q45 0 97 1.5t112 4.5v-16q-81 -31 -192.5 -104t-263.5 -195l-354 -283q179 -4 284 -53.5t195 -173.5q38 -53 107 -159q175 -269 290 -339l-1 -16q-60 3 -112 4.5
t-98 1.5q-22 0 -63 -1.5t-99 -4.5q-66 105 -172 283q-237 397 -346 397q-48 0 -71 -31t-23 -96v-86q0 -276 28.5 -352.5t112.5 -98.5v-16q-85 3 -151 4.5t-115 1.5q-59 0 -121.5 -1.5t-127.5 -4.5l-1 16q83 20 112 95.5t29 355.5v694q0 72 -26.5 109.5t-89.5 54.5v16
q60 -4 118 -6t115 -2t116.5 2t119.5 6v-16q-64 -14 -91.5 -52t-27.5 -112v-457z" />
    <glyph glyph-name="L" unicode="L" horiz-adv-x="1358" 
d="M190 1155q0 70 -29 109.5t-91 54.5v16q59 -4 118.5 -6t116.5 -2t116.5 2t119.5 6v-16q-64 -13 -91.5 -50.5t-27.5 -113.5v-694q0 -108 3.5 -198.5t6.5 -114.5q9 -58 53.5 -79.5t206.5 -21.5q236 0 391.5 65t255.5 203l15 -2l-107 -313h-975h-71q-32 0 -70 -0.5t-82 -1.5
v16q83 15 112 90.5t29 356.5v694z" />
    <glyph glyph-name="M" unicode="M" horiz-adv-x="1749" 
d="M5 -6l-1 16q100 42 140 148t40 364v82v451q0 135 -30.5 184t-108.5 76v16q52 -2 99.5 -3t88.5 -1q68 0 108 0.5t79 1.5q84 -200 199 -437t282 -554l436 993q10 0 32 -1q88 -3 122 -3q55 0 175 4h17v-16q-66 -11 -91 -61t-25 -193v-615q0 -260 28.5 -337.5t112.5 -98.5
v-16q-60 3 -118.5 4.5t-143.5 1.5q-55 0 -116.5 -1.5t-128.5 -4.5l-1 16q82 20 110.5 96t28.5 355v739l-542 -1239h-15q-138 341 -276 644t-268 552v-594q0 -306 38 -407t138 -146l-1 -16q-62 3 -110.5 4.5t-81.5 1.5q-53 0 -107 -1.5t-109 -4.5z" />
    <glyph glyph-name="N" unicode="N" horiz-adv-x="1524" 
d="M236 604v-43q0 -305 37.5 -406t138.5 -147l-1 -14q-63 3 -110.5 4.5t-81.5 1.5q-53 0 -107 -1.5t-109 -4.5l-1 14q102 44 141 153.5t39 442.5v453q0 129 -29.5 178.5t-107.5 79.5v16q24 0 68 -2q88 -2 116 -2q61 0 101.5 0.5t80.5 1.5q244 -302 871 -906q12 -12 18 -17
v329q0 342 -37.5 441t-138.5 143l1 14q21 -1 60 -3q98 -5 132 -5q70 0 211 8h6v-14q-102 -43 -141 -150.5t-39 -433.5v-774h-19q-186 227 -464 527.5t-635 662.5v-547z" />
    <glyph glyph-name="O" unicode="O" horiz-adv-x="1677" 
d="M356 666q0 -312 128.5 -487t357.5 -175q220 0 350.5 177t130.5 483q0 313 -128.5 486t-358.5 173q-229 0 -354.5 -171.5t-125.5 -485.5zM86 668q0 303 211 500.5t539 197.5q329 0 542 -198.5t213 -499.5q0 -299 -215 -503t-534 -204q-327 0 -541.5 202t-214.5 505z" />
    <glyph glyph-name="P" unicode="P" horiz-adv-x="1374" 
d="M50 -6l-1 16q82 21 110.5 93t28.5 358v682q0 81 -28 121.5t-88 48.5v16q64 -1 133 -1.5t188 -0.5h207q415 0 594.5 -81.5t179.5 -264.5q0 -166 -187 -264.5t-511 -98.5q-64 0 -127 3t-127 8v-168q0 -276 29 -352.5t112 -98.5v-16q-85 3 -151 4.5t-115 1.5
q-58 0 -119.5 -1.5t-127.5 -4.5zM422 684q74 -9 128 -13.5t89 -4.5q212 0 339.5 87.5t127.5 231.5q0 154 -127 225.5t-401 71.5q-34 0 -73 -1.5t-83 -4.5v-592z" />
    <glyph glyph-name="Q" unicode="Q" horiz-adv-x="1677" 
d="M471 -219l-22 55q57 38 133.5 69t177.5 58q-306 36 -490 230t-184 475q0 303 211 500.5t539 197.5q329 0 542 -198.5t213 -499.5q0 -287 -196 -483t-512 -222q169 -42 366.5 -133.5t235.5 -91.5q18 0 39.5 5.5t50.5 16.5l8 -14q-82 -62 -169 -98.5t-173 -44.5
q-145 50 -331 163t-251 113q-43 0 -88.5 -23.5t-99.5 -74.5zM356 666q0 -312 128.5 -487t357.5 -175q220 0 350.5 177t130.5 483q0 313 -128.5 486t-358.5 173q-229 0 -354.5 -171.5t-125.5 -485.5z" />
    <glyph glyph-name="R" unicode="R" horiz-adv-x="1522" 
d="M44 -6l-1 16q82 21 110.5 93t28.5 358v682q0 81 -28 121.5t-88 48.5v16q36 -1 106 -1.5t283 -0.5h268q341 0 495 -75.5t154 -239.5q0 -147 -135 -231.5t-381 -90.5q169 -20 270 -84.5t158 -187.5q25 -56 64 -156q85 -223 174 -244v-22q-16 0 -47 1q-107 3 -148 3
q-37 0 -76.5 -0.5t-83.5 -1.5q-39 91 -96 265.5t-98 240.5q-62 98 -151 138t-273 40h-37q-5 0 -36.5 -1.5t-59.5 -2.5v-217q0 -276 28.5 -352.5t112.5 -98.5v-16q-85 3 -151 4.5t-115 1.5q-58 0 -119.5 -1.5t-127.5 -4.5zM416 733q28 -1 58 -2.5t34 -1.5q147 0 232.5 5
t138.5 16q101 20 164 91t63 167q0 139 -112.5 205.5t-352.5 66.5q-54 0 -108 -1t-117 -3v-543z" />
    <glyph glyph-name="S" unicode="S" horiz-adv-x="1374" 
d="M41 92l86 297l14 -2q25 -164 165.5 -272.5t328.5 -108.5q190 0 307 87.5t117 228.5q0 60 -26 107t-72 71q-77 39 -274 66q-79 11 -120 18q-236 40 -343 126t-107 234q0 187 163 304.5t431 117.5q134 0 267.5 -29t242.5 -82l-78 -243l-19 2q-26 144 -136.5 224.5
t-280.5 80.5q-167 0 -274 -77.5t-107 -194.5q0 -57 31.5 -106t84.5 -75q89 -42 333 -76q85 -13 130 -20q190 -31 280.5 -112.5t90.5 -221.5q0 -212 -172 -344.5t-453 -132.5q-176 0 -333.5 34.5t-276.5 98.5z" />
    <glyph glyph-name="T" unicode="T" horiz-adv-x="1446" 
d="M0 1036l94 291h1258l94 -291l-21 -4q-96 121 -211 185.5t-231 64.5q-85 0 -114 -35.5t-29 -183.5v-537q0 -311 29.5 -398.5t115.5 -113.5v-20q-56 3 -115 4.5t-155 1.5q-104 0 -156.5 -1.5t-97.5 -4.5v20q84 23 113.5 109t29.5 403v537q0 150 -26.5 184.5t-104.5 34.5
q-122 0 -238 -64t-217 -188z" />
    <glyph glyph-name="U" unicode="U" horiz-adv-x="1520" 
d="M1305 735v23q0 323 -38.5 420.5t-138.5 140.5l1 14q21 -1 60 -3q98 -5 132 -5q70 0 211 8h6v-14q-102 -43 -141 -150.5t-39 -433.5v-198q0 -295 -144 -435.5t-446 -140.5q-324 0 -466 127t-142 424q0 83 2 194t2 140v309q0 72 -27 109.5t-90 54.5v16q60 -4 118.5 -6
t115.5 -2t116 2t119 6v-16q-63 -14 -91 -52t-28 -112v-450q0 -167 9 -267t28 -159q39 -119 145.5 -185.5t258.5 -66.5q228 0 347.5 127.5t119.5 371.5v209z" />
    <glyph glyph-name="V" unicode="V" horiz-adv-x="1524" 
d="M-14 1319l1 16q79 -4 136.5 -6t109.5 -2q49 0 101 2t126 6l1 -16q-52 -11 -73 -31.5t-21 -58.5q0 -18 10 -45t39 -80l444 -836l285 604q52 110 80 193.5t28 126.5q0 59 -32 91.5t-93 35.5l1 14q60 -3 111.5 -4.5t96.5 -1.5q47 0 97 1.5t104 4.5v-14q-67 -19 -154 -142.5
t-206 -369.5l-412 -846h-10l-529 1043v1q-149 291 -241 314z" />
    <glyph glyph-name="W" unicode="W" horiz-adv-x="2048" 
d="M-8 1319l1 16q20 -1 59 -3q103 -7 151 -7q46 0 148 6q51 3 79 4v-16q-50 -10 -70 -29t-20 -57q0 -30 15.5 -87t41.5 -120l285 -688l408 1028h16l442 -1026l209 604q24 68 37.5 136.5t13.5 111.5q0 60 -25.5 91t-78.5 36v14q48 -3 93.5 -4.5t90.5 -1.5t89 1.5t87 4.5v-14
q-54 -9 -121.5 -127.5t-166.5 -384.5l-314 -846h-8l-442 1077l-424 -1077h-8l-445 1143q-41 105 -72.5 151.5t-70.5 63.5z" />
    <glyph glyph-name="X" unicode="X" horiz-adv-x="1446" 
d="M7 -6l-1 14q114 48 520 525l88 104l-337 466q-4 6 -10 14q-125 173 -204 204l1 14q96 -5 147.5 -6.5t95.5 -1.5q70 0 237 7q21 1 31 1v-14q-47 -6 -72.5 -24.5t-25.5 -47.5q0 -22 13 -49.5t51 -81.5l227 -323q167 198 219.5 285t52.5 147q0 35 -22.5 60t-63.5 34l1 14
q94 -5 149 -6.5t104 -1.5q41 0 84.5 1.5t122.5 6.5v-14q-84 -12 -205 -119t-413 -448l247 -334q128 -173 233 -282.5t163 -129.5l-1 -14q-76 3 -146.5 4.5t-133.5 1.5q-74 0 -145.5 -1.5t-142.5 -4.5l-1 14q46 10 66 28t20 48q0 26 -22.5 74.5t-63.5 105.5l-229 326
q-157 -192 -225 -301.5t-68 -171.5q0 -45 23 -68.5t86 -40.5l-1 -14q-82 3 -144.5 4.5t-104.5 1.5q-46 0 -95 -1.5t-105 -4.5z" />
    <glyph glyph-name="Y" unicode="Y" horiz-adv-x="1434" 
d="M467 -6v16q83 20 112 95.5t29 355.5v108l-321 428q-124 165 -185 227.5t-116 94.5v16q6 0 19 -1q151 -7 218 -7q83 0 261 8h18v-16q-50 -11 -73 -32.5t-23 -57.5q0 -49 96 -172l2 -2l317 -396l69 98q279 392 279 460q0 36 -22 60t-74 42l1 16q73 -5 110.5 -6.5t70.5 -1.5
q62 0 187 8h6v-16q-90 -48 -230.5 -215t-377.5 -510v-133q0 -272 29 -350.5t114 -100.5v-16q-84 3 -150 4.5t-116 1.5q-59 0 -121.5 -1.5t-128.5 -4.5z" />
    <glyph glyph-name="Z" unicode="Z" horiz-adv-x="1276" 
d="M51 0v14q110 147 220.5 304t242.5 354l307 454q26 42 33.5 59.5t7.5 31.5q0 36 -34.5 49.5t-161.5 13.5q-194 0 -333 -58t-253 -186l-12 4l92 287h1046v-14q-321 -452 -535 -798t-214 -398q0 -41 34.5 -55.5t149.5 -14.5q204 0 353 68t251 207l12 -5l-96 -317h-1110z" />
    <glyph glyph-name="bracketleft" unicode="[" horiz-adv-x="653" 
d="M539 -356h-9q-176 0 -250.5 68t-74.5 231v1124q0 163 74.5 231t250.5 68h9l-1 -35q-90 -5 -122.5 -51t-32.5 -213v-1124q0 -167 32.5 -213t122.5 -52z" />
    <glyph glyph-name="backslash" unicode="\" horiz-adv-x="1171" 
d="M1171 -170v-20h-96l-1075 1536v20h96z" />
    <glyph glyph-name="bracketright" unicode="]" horiz-adv-x="653" 
d="M115 -356v34q91 6 124 53t33 212v1124q0 165 -33 212t-124 52v35h8q176 0 251 -68t75 -231v-1124q0 -163 -75 -231t-251 -68h-8z" />
    <glyph glyph-name="asciicircum" unicode="^" horiz-adv-x="2048" 
d="M926 1462h194l512 -565h-98l-512 420l-514 -420h-96z" />
    <glyph glyph-name="underscore" unicode="_" 
d="M0 -340h1024v-143h-1024v143z" />
    <glyph glyph-name="grave" unicode="`" 
d="M688 1206h-74l-301 183q-48 29 -66 50.5t-18 49.5q0 32 22.5 56t53.5 24q24 0 52 -16t55 -46z" />
    <glyph glyph-name="a" unicode="a" horiz-adv-x="1233" 
d="M1212 -4q-72 2 -112.5 3t-73.5 1h-70q-23 42 -41.5 90.5t-31.5 106.5q-61 -107 -164.5 -165.5t-233.5 -58.5q-184 0 -299.5 94t-115.5 242q0 171 202.5 259.5t595.5 88.5l13 1q-2 207 -78.5 303t-241.5 96q-145 0 -244.5 -76t-119.5 -201h-11l-65 209q103 53 221 80
t250 27q111 0 199 -23.5t155 -71.5q72 -51 102.5 -131t30.5 -231v-270q0 -175 31.5 -259.5t101.5 -99.5v-14zM881 614q-15 1 -32 1.5t-48 0.5q-242 0 -371 -83t-129 -238q0 -121 66.5 -190.5t181.5 -69.5q174 0 253 120t79 392v67z" />
    <glyph glyph-name="b" unicode="b" horiz-adv-x="1350" 
d="M10 -4v14q75 18 103 105t28 354v705q0 152 -23 187.5t-89 39.5v16q60 7 132 24t183 52q-4 -79 -6 -161.5t-2 -213.5v-301q38 129 141 204t242 75q240 0 394.5 -152t154.5 -389q0 -249 -153.5 -414.5t-385.5 -165.5q-123 0 -223.5 55.5t-169.5 162.5q-10 -51 -28 -98.5
t-44 -94.5h-121q-15 0 -70 -2q-38 -1 -63 -2zM336 535q0 -240 93 -374t257 -134q160 0 255 136.5t95 371.5q0 238 -93.5 375t-254.5 137q-166 0 -259 -135t-93 -377z" />
    <glyph glyph-name="c" unicode="c" horiz-adv-x="1186" 
d="M1098 311l30 -39q-69 -147 -188 -224t-281 -77q-255 0 -418 157t-163 402q0 252 164 408t430 156q126 0 238 -31t210 -92l-67 -219h-13q-30 139 -126 221t-228 82q-168 0 -270.5 -134t-102.5 -358q0 -247 106.5 -388.5t289.5 -141.5q127 0 226 70.5t163 207.5z" />
    <glyph glyph-name="d" unicode="d" horiz-adv-x="1350" 
d="M1012 827v330q0 161 -24 200.5t-91 43.5v16q60 7 132 24t183 52q-3 -60 -4.5 -120.5t-1.5 -149.5v-103v-659q0 -258 28.5 -346t102.5 -105v-14h-6q-121 4 -180 4h-68q-25 47 -43 94.5t-28 98.5q-70 -107 -170 -162.5t-224 -55.5q-231 0 -384.5 165.5t-153.5 414.5
q0 237 155 389t396 152q135 0 236.5 -71.5t144.5 -197.5zM311 539q0 -237 95 -374.5t256 -137.5q164 0 257 134t93 374q0 241 -93.5 376.5t-259.5 135.5q-159 0 -253.5 -136.5t-94.5 -371.5z" />
    <glyph glyph-name="e" unicode="e" horiz-adv-x="1251" 
d="M1176 672l-863 -1q-3 -44 -4.5 -75.5t-1.5 -50.5q0 -241 109 -376.5t301 -135.5q158 0 275 106t173 301l31 -41q-61 -211 -199.5 -319.5t-347.5 -108.5q-248 0 -410.5 157t-162.5 394q0 258 157.5 415t413.5 157q222 0 363.5 -113t165.5 -309zM317 715h611
q-6 158 -82.5 250t-200.5 92q-126 0 -211.5 -89.5t-116.5 -252.5z" />
    <glyph glyph-name="f" unicode="f" horiz-adv-x="674" 
d="M209 956h-178v13l26 55h152v25q0 209 113.5 325.5t316.5 116.5q22 0 47.5 -1.5t52.5 -5.5l-67 -190h-15q-31 76 -63.5 108t-77.5 32q-59 0 -86 -54t-27 -176v-180h218v-14l-25 -54h-193v-512q0 -257 29.5 -332.5t110.5 -101.5l-1 -16q-47 3 -98.5 4.5t-140.5 1.5
q-76 0 -128.5 -1.5t-104.5 -4.5v16q79 24 109 101.5t30 322.5v72v450z" />
    <glyph glyph-name="g" unicode="g" horiz-adv-x="1290" 
d="M604 80q-175 0 -271.5 -57.5t-96.5 -159.5q0 -105 102 -166.5t278 -61.5q197 0 311.5 64.5t114.5 173.5q0 102 -110.5 154.5t-327.5 52.5zM635 1059q-133 0 -216 -95.5t-83 -250.5q0 -151 81.5 -241.5t217.5 -90.5q139 0 214 92t75 264q0 148 -78 235t-211 87zM426 111
q-109 8 -158 35.5t-49 80.5t62 88.5t188 55.5q-169 33 -261.5 123.5t-92.5 222.5q0 161 147 270t367 109q37 0 80.5 -5.5t111.5 -19.5q79 84 165.5 128t170.5 44q17 0 38.5 -1.5t47.5 -4.5l-69 -217h-13q-21 43 -68 71.5t-96 28.5q-36 0 -69 -15.5t-66 -47.5
q145 -56 215 -139t70 -199q0 -152 -121.5 -255.5t-316.5 -115.5q-35 -2 -95 -4q-176 -7 -176 -55q0 -46 224 -65q64 -6 100 -9q248 -22 363.5 -90t115.5 -191q0 -154 -173.5 -245.5t-475.5 -91.5q-241 0 -397 78t-156 198q0 98 95 156t292 82z" />
    <glyph glyph-name="h" unicode="h" horiz-adv-x="1319" 
d="M15 -6l-1 16q77 22 105 90.5t28 300.5v68v727q0 129 -23.5 166t-90.5 41v16q69 6 147.5 24.5t169.5 51.5q-5 -76 -7.5 -169t-2.5 -222v-303q43 142 149.5 217.5t262.5 75.5q216 0 317.5 -121.5t101.5 -380.5v-180v-23q0 -233 28 -295t104 -84l-1 -16q-57 3 -112.5 4.5
t-112.5 1.5q-85 0 -137 -1.5t-100 -4.5v16q76 22 104.5 91t28.5 300v68v106q0 233 -70 345t-215 112q-156 0 -249 -124t-93 -335v-165q0 -244 27.5 -311t103.5 -87v-16q-58 3 -113.5 4.5t-111.5 1.5q-85 0 -137 -1.5t-100 -4.5z" />
    <glyph glyph-name="i" unicode="i" horiz-adv-x="537" 
d="M37 -6v16q80 25 109.5 104t29.5 341v51v231q0 161 -24.5 200.5t-94.5 43.5v16q74 9 153.5 27.5t168.5 48.5q0 -11 -4 -148t-4 -245v-236q0 -257 29 -332.5t110 -101.5l-1 -16q-47 3 -98.5 4.5t-140.5 1.5q-76 0 -128.5 -1.5t-104.5 -4.5zM147 1325q0 51 34.5 85t86.5 34
q51 0 86 -35t35 -84q0 -50 -34.5 -83.5t-86.5 -33.5q-54 0 -87.5 32.5t-33.5 84.5z" />
    <glyph glyph-name="j" unicode="j" horiz-adv-x="526" 
d="M145 1325q0 51 34.5 85t86.5 34q50 0 84.5 -34.5t34.5 -84.5t-34 -83.5t-85 -33.5q-54 0 -87.5 32.5t-33.5 84.5zM379 1073v-315v-613q0 -265 -122.5 -410t-342.5 -145q-22 0 -47 2.5t-55 9.5l67 210h12q25 -73 62.5 -110.5t85.5 -37.5q81 0 110 116t29 621v340
q0 164 -23.5 200t-91.5 40v16q72 9 152 28.5t164 47.5z" />
    <glyph glyph-name="k" unicode="k" horiz-adv-x="1190" 
d="M19 -6l-1 16q77 24 105.5 94.5t28.5 309.5v92v657q0 162 -24 198t-91 40v16q72 9 151.5 28t167.5 48q-4 -68 -6 -162t-2 -231v-482l254 216q88 74 120 113t32 67q0 18 -13 28.5t-45 18.5v12q37 -2 79.5 -3t127.5 -1q102 0 151 1t88 3l1 -14q-187 -35 -424 -211
q-15 -11 -23 -17l-245 -182q139 -1 227 -49t186 -190q21 -30 60 -89q162 -244 290 -311v-16q-38 2 -78.5 3t-111.5 1q-47 0 -86.5 -1t-79.5 -3q-33 56 -92 157q-253 437 -342 437q-41 0 -58.5 -31t-17.5 -108q0 -257 28.5 -336t108.5 -103v-16q-45 3 -96 4.5t-141 1.5
q-69 0 -121.5 -1.5t-107.5 -4.5z" />
    <glyph glyph-name="l" unicode="l" horiz-adv-x="516" 
d="M23 -6v16q79 25 109 99.5t30 298.5v98v680q0 134 -25 172.5t-94 42.5v16q72 9 152 27.5t174 48.5q-7 -102 -10 -198t-3 -195v-656q0 -257 29.5 -332.5t110.5 -101.5l-1 -16q-47 3 -98.5 4.5t-140.5 1.5q-76 0 -128.5 -1.5t-104.5 -4.5z" />
    <glyph glyph-name="m" unicode="m" horiz-adv-x="2064" 
d="M31 -6v16q72 20 98.5 94t26.5 365v299q0 139 -23 171.5t-86 37.5v16q90 10 276 71l9 3v-301q41 158 144 243t255 85q164 0 262.5 -73.5t130.5 -219.5q48 140 153 216.5t251 76.5q200 0 294.5 -121t94.5 -381v-195q0 -234 26 -300t97 -87l-1 -16q-42 3 -90.5 4.5
t-131.5 1.5q-72 0 -120 -1.5t-95 -4.5v16q68 22 94 88.5t26 280.5v90v106q0 229 -65.5 344t-196.5 115q-142 0 -228.5 -119.5t-86.5 -322.5v-211q0 -218 27.5 -283.5t101.5 -87.5l-1 -16q-61 3 -115 4.5t-101 1.5q-83 0 -134 -1.5t-99 -4.5l-1 16q74 22 101.5 89.5
t27.5 301.5v68v106q0 227 -69.5 343t-204.5 116q-148 0 -237 -124.5t-89 -336.5v-145v-25q0 -243 26 -307t99 -86v-16q-56 3 -111 4.5t-110 1.5q-52 0 -107.5 -1.5t-117.5 -4.5z" />
    <glyph glyph-name="n" unicode="n" horiz-adv-x="1327" 
d="M25 -6v16q75 23 103 88t28 285v86v299q0 132 -23.5 168.5t-89.5 40.5v16q68 9 140.5 27.5t152.5 46.5v-303q49 165 155.5 247.5t270.5 82.5q215 0 316.5 -121.5t101.5 -380.5v-180q0 -252 27.5 -315.5t105.5 -86.5l-1 -16q-57 3 -112.5 4.5t-112.5 1.5q-85 0 -137 -1.5
t-100 -4.5v16q75 22 103 88t28 285v86v106q0 233 -70 345t-215 112q-155 0 -247.5 -124t-92.5 -335v-165q0 -244 28 -311t103 -87v-16q-57 3 -112.5 4.5t-112.5 1.5q-85 0 -137 -1.5t-100 -4.5z" />
    <glyph glyph-name="o" unicode="o" horiz-adv-x="1341" 
d="M309 539q0 -253 95 -389t270 -136q172 0 266 135.5t94 387.5q0 250 -95 385t-271 135q-168 0 -263.5 -137t-95.5 -381zM76 545q0 241 166.5 395t431.5 154q264 0 428 -155t164 -404q0 -250 -165 -405t-435 -155q-263 0 -426.5 158t-163.5 412z" />
    <glyph glyph-name="p" unicode="p" horiz-adv-x="1343" 
d="M2 -406v15q79 22 107 95t28 357v713q0 126 -23.5 161.5t-93.5 41.5v16q73 9 147 27t150 45v-283q37 146 142.5 230t253.5 84q241 0 396 -152t155 -389q0 -249 -154 -414.5t-387 -165.5q-129 0 -233 61t-156 167v-205q0 -232 32 -299.5t126 -89.5v-15q-45 3 -98.5 4
t-164.5 1q-83 0 -132 -1t-95 -4zM334 535q0 -240 92 -374t256 -134q160 0 255 136.5t95 371.5q0 238 -93.5 375t-254.5 137q-165 0 -257.5 -134.5t-92.5 -377.5z" />
    <glyph glyph-name="q" unicode="q" horiz-adv-x="1343" 
d="M311 535q0 -235 95 -371.5t256 -136.5q162 0 254 133.5t92 374.5q0 242 -92 377t-257 135q-160 0 -254 -137t-94 -375zM852 -391q91 21 123.5 88t32.5 321v43v144q-48 -105 -153.5 -167.5t-236.5 -62.5q-232 0 -385 165t-153 415q0 237 154 389t395 152q115 0 206.5 -54
t165.5 -165q20 53 42 100.5t47 89.5h96q5 0 51 1.5t88 2.5v-14q-67 -15 -92 -80.5t-25 -314.5v-693q0 -209 28 -273t103 -87v-15q-45 3 -94 4t-131 1q-111 0 -164 -1t-98 -4v15z" />
    <glyph glyph-name="r" unicode="r" horiz-adv-x="772" 
d="M29 -6v16q77 24 105 92t28 318v49v307q0 130 -24 167.5t-91 41.5v16q66 9 138 27t155 45v-332q64 161 160.5 246.5t214.5 85.5q17 0 26.5 -0.5t15.5 -1.5l-73 -231h-16q-19 23 -43.5 35t-55.5 12q-102 0 -155.5 -91.5t-53.5 -267.5v-120q0 -244 27.5 -309.5t104.5 -88.5
l-1 -16q-57 3 -112.5 4.5t-112.5 1.5q-85 0 -137 -1.5t-100 -4.5z" />
    <glyph glyph-name="s" unicode="s" horiz-adv-x="1161" 
d="M45 68l70 231h12q15 -128 131 -206.5t291 -78.5q147 0 239.5 70t92.5 178q0 89 -57.5 131t-280.5 72q-232 32 -329 103t-97 204q0 144 134.5 234t354.5 90q119 0 222 -17.5t184 -50.5l-60 -197h-12q-33 115 -112.5 171.5t-206.5 56.5q-138 0 -227 -66t-89 -164
q0 -82 66 -123t245 -59q265 -27 363 -91.5t98 -195.5q0 -182 -146 -285.5t-407 -103.5q-131 0 -250.5 24t-228.5 73z" />
    <glyph glyph-name="t" unicode="t" horiz-adv-x="653" 
d="M45 956l8 35q108 33 188.5 111t155.5 225h15q-5 -59 -8 -134t-5 -168l224 -1v-14l-21 -54h-203v-446q0 -284 34 -383t124 -117v-12q-66 1 -130.5 1.5t-152.5 0.5q-41 28 -58 78t-17 172v78v78v40l12 510h-166z" />
    <glyph glyph-name="u" unicode="u" horiz-adv-x="1323" 
d="M1292 10v-10h-256q-24 42 -42 90.5t-31 106.5q-59 -112 -155 -169t-224 -57q-131 0 -231 42t-152 118q-37 54 -52.5 134.5t-15.5 260.5v62v200q0 118 -24.5 152.5t-92.5 40.5v16q61 7 133.5 24t184.5 52q-4 -87 -6 -174t-2 -174v-133q0 -335 69 -450t242 -115
q157 0 242.5 134.5t85.5 385.5v190q0 161 -23 200.5t-90 43.5v16q63 8 136 25.5t179 50.5q-4 -86 -6 -177t-2 -194v-241q0 -260 29 -347t104 -104z" />
    <glyph glyph-name="v" unicode="v" horiz-adv-x="1253" 
d="M600 -29l-391 772q-86 171 -136 236.5t-98 79.5l2 14q37 -3 79.5 -4.5t121.5 -1.5q59 0 112.5 1.5t104.5 4.5v-14q-39 -8 -59.5 -24.5t-20.5 -41.5q0 -22 14.5 -57.5t49.5 -97.5l326 -590l227 467q38 80 60 141.5t22 89.5q0 46 -29.5 74t-89.5 39v14q45 -3 89 -4.5
t89 -1.5q48 0 93.5 1.5t90.5 4.5v-14q-53 -23 -118 -108.5t-142 -233.5l-385 -746h-12z" />
    <glyph glyph-name="w" unicode="w" horiz-adv-x="1968" 
d="M1386 -29h-12l-409 871l-406 -871h-12l-354 772q-79 173 -124 238t-87 78l1 14q47 -3 91 -4.5t86 -1.5q56 0 110.5 1.5t109.5 4.5l1 -14q-37 -3 -57.5 -22t-20.5 -52q0 -25 12 -61t37 -86l291 -576l387 834h12l426 -842l209 467q37 84 55.5 140.5t18.5 84.5q0 46 -27 74
t-82 39l1 14q42 -3 81.5 -4.5t79.5 -1.5q43 0 84.5 1.5t83.5 4.5v-14q-50 -25 -106.5 -107t-128.5 -235z" />
    <glyph glyph-name="x" unicode="x" horiz-adv-x="1194" 
d="M1 -6l-1 12q74 28 176.5 125.5t343.5 386.5l-207 295q-101 144 -148 188t-97 58v14q57 -3 112.5 -4.5t112.5 -1.5q80 0 121 1.5t77 4.5l1 -14q-29 -6 -44.5 -20.5t-15.5 -34.5q0 -17 25 -64t63 -98l144 -193q22 27 63 74q174 204 174 256q0 33 -19.5 51.5t-66.5 28.5
l1 14q49 -3 92 -4.5t83 -1.5q62 0 99.5 1.5t72.5 4.5v-14q-76 -29 -184 -129.5t-289 -315.5l211 -282q107 -145 181.5 -224t125.5 -102v-12q-59 3 -114 4.5t-109 1.5q-60 0 -122.5 -1.5t-126.5 -4.5l-1 12q38 8 55 23t17 41q0 19 -22.5 62t-63.5 104l-172 243
q-151 -174 -205.5 -255.5t-54.5 -125.5q0 -32 22.5 -56t65.5 -36l-1 -12q-49 3 -98 4.5t-100 1.5q-38 0 -82.5 -1.5t-94.5 -4.5z" />
    <glyph glyph-name="y" unicode="y" horiz-adv-x="1253" 
d="M129 -395l86 229h12q16 -40 45 -59t76 -19q81 0 139 66t58 158q0 39 -15.5 91t-44.5 111l-276 561q-79 161 -132 231.5t-102 84.5l2 14q37 -3 79.5 -4.5t121.5 -1.5q59 0 112.5 1.5t104.5 4.5v-14q-39 -8 -59.5 -24.5t-20.5 -41.5q0 -19 12.5 -50.5t51.5 -104.5l326 -602
l233 493q37 78 55.5 131.5t18.5 85.5q0 48 -28 75t-89 38v14q45 -3 89 -4.5t89 -1.5q48 0 93.5 1.5t90.5 4.5v-14q-52 -21 -118.5 -108.5t-141.5 -233.5l-376 -750q-98 -194 -199.5 -282t-222.5 -88q-21 0 -65 7q-3 0 -5 1z" />
    <glyph glyph-name="z" unicode="z" horiz-adv-x="1190" 
d="M63 0v12q139 160 324 404q27 35 39 51l289 379l5 8q81 108 81 135q0 19 -34 28t-108 9q-204 0 -316.5 -49t-209.5 -168l-12 4l98 254h893v-14q-294 -363 -487 -641.5t-193 -329.5q0 -21 27.5 -31t85.5 -10q230 0 363.5 57t242.5 193l14 -4l-96 -291q-10 0 -31 1
q-101 3 -141 3h-137h-697z" />
    <glyph glyph-name="braceleft" unicode="{" 
d="M848 1516l-1 -54q-135 -1 -185 -54t-50 -210v-141q0 -227 -59 -308.5t-217 -113.5q159 -32 217.5 -113.5t58.5 -308.5v-141q0 -157 49.5 -209t185.5 -53l1 -54h-10q-219 0 -301 74t-82 272v207q0 161 -59 221.5t-218 73.5v64q161 13 219 73.5t58 221.5v206q0 199 82 273
t301 74h10z" />
    <glyph glyph-name="bar" unicode="|" 
d="M438 1565h150v-2048h-150v2048z" />
    <glyph glyph-name="braceright" unicode="}" 
d="M176 1516h10q220 0 302.5 -74t82.5 -273v-206q0 -161 58 -221.5t219 -73.5v-64q-161 -13 -219 -73.5t-58 -221.5v-207q0 -198 -82.5 -272t-302.5 -74h-10l1 54q136 1 185.5 53.5t49.5 208.5v141q0 227 58.5 308.5t217.5 113.5q-158 32 -217 113.5t-59 308.5v141
q0 157 -50 210t-185 54z" />
    <glyph glyph-name="asciitilde" unicode="~" horiz-adv-x="1706" 
d="M1530 770v-156q-104 -72 -199 -106.5t-190 -34.5q-93 0 -256 58q-22 8 -34 12q-5 2 -15 5q-176 60 -273 60q-84 0 -175 -37t-210 -120v155q106 72 202 108t185 36q62 0 127.5 -13.5t163.5 -48.5q16 -5 47 -17q159 -57 240 -57q88 0 179.5 37t207.5 119z" />
    <glyph glyph-name="nonbreakingspace" unicode="&#xa0;" horiz-adv-x="1337" 
 />
    <glyph glyph-name="exclamdown" unicode="&#xa1;" horiz-adv-x="668" 
d="M207 1241q0 54 36 89.5t91 35.5q53 0 90 -36t37 -89q0 -52 -37 -88.5t-90 -36.5q-54 0 -90.5 36.5t-36.5 88.5zM317 1034h33q12 -218 56.5 -503t44.5 -359q0 -102 -30.5 -156.5t-86.5 -54.5q-58 0 -86.5 53t-28.5 160q0 81 44 365t54 495z" />
    <glyph glyph-name="cent" unicode="&#xa2;" horiz-adv-x="1337" 
d="M684 18v181q-188 21 -294.5 136.5t-106.5 297.5q0 183 108 299.5t297 134.5v162h72v-162q85 -5 156.5 -27.5t136.5 -64.5l-52 -172l-8 2q-34 118 -94.5 172.5t-157.5 54.5q-126 0 -195 -96.5t-69 -273.5q0 -190 74 -301t199 -111q90 0 156 49.5t130 165.5l29 -33
q-48 -105 -125 -164t-180 -69v-181h-76z" />
    <glyph glyph-name="sterling" unicode="&#xa3;" horiz-adv-x="1337" 
d="M477 262q-45 22 -79.5 31.5t-65.5 9.5q-80 0 -133.5 -42t-53.5 -103q0 -48 34.5 -77.5t90.5 -29.5q77 0 130 54t77 157zM477 342q1 9 1.5 20.5t0.5 32.5q0 55 -10.5 114t-32.5 124h-209v14l25 53h166q-20 71 -28.5 121.5t-8.5 89.5q0 163 118.5 270t301.5 107
q83 0 161 -25.5t158 -78.5l-76 -234l-12 2q-19 131 -96.5 209t-185.5 78q-92 0 -152.5 -58t-60.5 -145q0 -58 20.5 -125t89.5 -211h350v-16l-22 -51h-307q13 -48 19.5 -89.5t6.5 -80.5q0 -31 -8.5 -67.5t-26.5 -84.5q65 -23 173 -71q163 -72 229 -72q78 0 134 46t103 148
l17 -2q-36 -181 -130 -287t-216 -106q-70 0 -151.5 47.5t-229.5 182.5q-112 -114 -223 -172t-218 -58q-90 0 -138 32t-48 91q0 93 128 175.5t290 82.5q16 0 40.5 -1.5t57.5 -4.5z" />
    <glyph glyph-name="currency" unicode="&#xa4;" horiz-adv-x="1241" 
d="M623 1190q-126 0 -215 -89t-89 -214q0 -126 89 -215.5t215 -89.5q125 0 214 89.5t89 215.5q0 125 -89 214t-214 89zM162 1423l205 -204q57 43 120 64.5t134 21.5t134.5 -21.5t121.5 -64.5l204 204l82 -80l-205 -206q41 -55 61.5 -118t20.5 -134q0 -73 -20 -135.5
t-62 -116.5l205 -205l-82 -82l-204 205q-59 -44 -122 -65t-132 -21q-72 0 -135.5 21.5t-120.5 64.5l-205 -205l-82 82l207 205q-41 51 -62.5 116t-21.5 136q0 70 21 133t63 119l-207 206z" />
    <glyph glyph-name="yen" unicode="&#xa5;" horiz-adv-x="1430" 
d="M474 -6l-1 14q83 19 112 92t29 332v105h-577v69h528l-112 142h-416v69h358l-94 121q-90 116 -177.5 200.5t-131.5 102.5v14h6q145 -8 215 -8q73 0 245 7q26 1 38 1l-1 -14q-47 -9 -71.5 -30.5t-24.5 -55.5q0 -25 18.5 -57.5t76.5 -104.5l307 -372q30 40 86 114
q262 348 262 410q0 33 -22.5 55.5t-73.5 40.5v14q70 -4 109 -6t73 -2q54 0 174 7q12 1 18 1v-14q-70 -36 -157.5 -124t-255.5 -300h377v-69h-433l-106 -142h539v-69h-572v-105q0 -256 28.5 -329.5t113.5 -94.5l-1 -14q-85 3 -151 4.5t-111 1.5q-50 0 -105.5 -1.5
t-118.5 -4.5z" />
    <glyph glyph-name="brokenbar" unicode="&#xa6;" 
d="M438 408h150v-758h-150v758zM438 1432h150v-758h-150v758z" />
    <glyph glyph-name="section" unicode="&#xa7;" horiz-adv-x="1139" 
d="M135 -231l53 221l15 -2q38 -114 135.5 -179t230.5 -65q129 0 211 65.5t82 165.5q0 146 -336 241q-26 7 -41 11q-201 57 -287.5 136.5t-86.5 205.5q0 86 40 157t121 128q-39 49 -57 94.5t-18 95.5q0 148 116 234t318 86q92 0 177.5 -17.5t168.5 -54.5l-74 -190h-16
q-28 101 -110.5 160t-194.5 59t-186 -59t-74 -146q0 -76 55.5 -123.5t216.5 -95.5q276 -83 352 -156.5t76 -199.5q0 -77 -30.5 -142.5t-94.5 -128.5q54 -44 78 -91.5t24 -108.5q0 -164 -132 -268.5t-347 -104.5q-102 0 -197.5 18t-187.5 54zM860 305q28 39 41.5 75.5
t13.5 72.5q0 77 -58.5 126.5t-221.5 100.5q-10 3 -33 10q-188 57 -299 131q-42 -41 -62 -79.5t-20 -79.5q0 -68 44 -114.5t151 -86.5q51 -20 206.5 -64.5t237.5 -91.5z" />
    <glyph glyph-name="dieresis" unicode="&#xa8;" 
d="M582 1370q0 45 33.5 79t78.5 34q46 0 79.5 -33.5t33.5 -79.5q0 -49 -32.5 -82t-80.5 -33q-47 0 -79.5 33.5t-32.5 81.5zM217 1370q0 45 34.5 79t80.5 34t78 -33.5t32 -79.5q0 -49 -31.5 -82t-78.5 -33q-48 0 -81.5 33.5t-33.5 81.5z" />
    <glyph glyph-name="copyright" unicode="&#xa9;" horiz-adv-x="1683" 
d="M1122 1098h37l2 -316h-43q-32 135 -103 204t-177 69q-119 0 -179.5 -93.5t-60.5 -277.5q0 -187 66.5 -284t193.5 -97q84 0 153.5 44t127.5 132l39 -26q-61 -105 -148 -158t-199 -53q-173 0 -292 124t-119 304q0 183 118.5 307.5t290.5 124.5q75 0 149.5 -33t80.5 -33
q27 0 42 14.5t21 47.5zM844 1305q-123 0 -238 -49t-203 -138q-88 -90 -134 -202.5t-46 -237.5q0 -127 46.5 -239t136.5 -201q91 -90 201.5 -136.5t234.5 -46.5q126 0 237 46.5t199 136.5q89 90 136.5 204t47.5 236q0 123 -48 241t-134 203q-86 86 -201 134.5t-235 48.5z
M844 1391q138 0 269 -54.5t230 -152.5q100 -99 154.5 -232t54.5 -274q0 -140 -53.5 -269.5t-155.5 -232.5q-99 -101 -228 -155t-273 -54q-142 0 -270 53.5t-232 155.5q-103 102 -156 229t-53 273q0 141 53.5 270t155.5 232q100 101 230.5 156t273.5 55z" />
    <glyph glyph-name="ordfeminine" unicode="&#xaa;" horiz-adv-x="926" 
d="M909 582q-22 0 -69 1t-70 1h-53q-19 33 -32.5 66.5t-23.5 69.5q-44 -74 -121.5 -114.5t-174.5 -40.5q-139 0 -225.5 65.5t-86.5 170.5q0 120 152 181.5t446 61.5l10 1q-1 144 -58.5 211t-180.5 67q-109 0 -184 -52.5t-91 -140.5h-8l-49 146q77 38 166 57t188 19
q83 0 149.5 -17t117.5 -51q53 -36 75.5 -91.5t22.5 -162.5v-188q0 -121 24 -180.5t76 -69.5v-10zM661 1014q-12 1 -24.5 1.5t-36.5 0.5q-181 0 -278 -58.5t-97 -166.5q0 -85 50.5 -134t136.5 -49q131 0 190.5 84t59.5 275z" />
    <glyph glyph-name="guillemotleft" unicode="&#xab;" horiz-adv-x="1071" 
d="M424 143l-262 392l262 389l123 -82l-244 -307l244 -310zM786 143l-262 392l262 389l123 -82l-243 -307l243 -310z" />
    <glyph glyph-name="logicalnot" unicode="&#xac;" horiz-adv-x="1706" 
d="M254 860h1198v-502h-137v363h-1061v139z" />
    <glyph glyph-name="sfthyphen" unicode="&#xad;" horiz-adv-x="575" 
d="M94 471l35 125h352l-32 -125h-355z" />
    <glyph glyph-name="registered" unicode="&#xae;" horiz-adv-x="1683" 
d="M737 721q14 -1 29 -1.5t35 -0.5q105 0 163 45t58 127q0 72 -50 116t-134 44q-51 0 -76 -17.5t-25 -52.5v-260zM467 1094h397q144 0 231 -54t87 -141q0 -83 -66 -131.5t-219 -75.5q95 -28 145 -76.5t70 -130.5q6 -23 11 -65q11 -88 57 -88q31 0 47 33.5t16 97.5h45v-19
q0 -84 -41 -129t-119 -45q-49 0 -84 16t-51 46q-20 37 -22 110t-8 97q-19 71 -66.5 105t-130.5 34h-29v-246q0 -51 25.5 -72t93.5 -26v-45h-389v45q69 3 95 24.5t26 73.5v516q0 53 -26 74.5t-95 26.5v45zM844 1305q-123 0 -238 -49t-203 -138q-88 -90 -134 -202.5
t-46 -237.5q0 -127 46.5 -239t136.5 -201q89 -90 199.5 -136.5t236.5 -46.5q125 0 237 47t199 136q88 90 135 203t47 237q0 125 -47.5 242t-132.5 202q-86 86 -201 134.5t-235 48.5zM844 1391q140 0 273 -56t233 -157q97 -99 149.5 -230.5t52.5 -275.5q0 -139 -56 -270
t-161 -234q-100 -99 -228 -150t-276 -51q-134 0 -261.5 54.5t-229.5 154.5q-102 101 -155.5 229t-53.5 273q0 142 53 270.5t154 231.5q100 101 231.5 156t274.5 55z" />
    <glyph glyph-name="macron" unicode="&#xaf;" 
d="M242 1298v142h540v-142h-540z" />
    <glyph glyph-name="degree" unicode="&#xb0;" horiz-adv-x="674" 
d="M338 1362q-81 0 -138 -56t-57 -137t57 -138.5t138 -57.5t136.5 57.5t55.5 138.5t-55.5 137t-136.5 56zM338 1456q118 0 202.5 -84.5t84.5 -204.5q0 -119 -84 -202.5t-205 -83.5t-204 83t-83 203t85 204.5t204 84.5z" />
    <glyph glyph-name="plusminus" unicode="&#xb1;" horiz-adv-x="1706" 
d="M254 170h1198v-141h-1198v141zM782 1192h142v-340h528v-139h-528v-340h-142v340h-528v139h528v340z" />
    <glyph glyph-name="twosuperior" unicode="&#xb2;" horiz-adv-x="883" 
d="M59 502q24 91 84 156.5t181 127.5l8 5q243 121 243 268q0 87 -53 138.5t-143 51.5q-91 0 -154.5 -47.5t-89.5 -136.5h-10l-45 143q70 34 146 51t155 17q163 0 263.5 -67.5t100.5 -174.5q0 -50 -25.5 -92.5t-76.5 -75.5q-52 -31 -203 -78q-39 -12 -59 -18
q-85 -27 -132 -62.5t-73 -91.5h324q108 0 159.5 22t98.5 77l10 -2l-70 -215h-7q-95 4 -134 4h-61h-437z" />
    <glyph glyph-name="threesuperior" unicode="&#xb3;" horiz-adv-x="883" 
d="M41 561l59 158h9q26 -102 99 -156.5t183 -54.5q106 0 170 55.5t64 147.5t-65.5 139t-192.5 47q-17 0 -38.5 -1.5t-51.5 -4.5v41q23 -3 44.5 -4.5t38.5 -1.5q115 0 170.5 41t55.5 127q0 72 -49.5 113.5t-135.5 41.5q-98 0 -164 -47t-85 -133h-11l-39 143q71 32 148.5 48
t165.5 16q152 0 243 -49t91 -129q0 -74 -76.5 -123t-208.5 -60q165 -15 248.5 -65t83.5 -135q0 -107 -109 -170.5t-297 -63.5q-97 0 -183 19.5t-167 60.5z" />
    <glyph glyph-name="acute" unicode="&#xb4;" 
d="M336 1206l276 301q27 30 55 46t52 16q31 0 53.5 -24t22.5 -56q0 -28 -18 -49.5t-66 -50.5l-301 -183h-74z" />
    <glyph glyph-name="mu" unicode="&#xb5;" horiz-adv-x="1169" 
d="M166 195q-33 -143 -64 -355q-37 -260 -116 -260q-43 0 -65.5 24.5t-22.5 69.5q0 44 70 277t110 422l108 512h168l-100 -475q-9 -40 -13.5 -74.5t-4.5 -59.5q0 -70 41.5 -108.5t119.5 -38.5q97 0 154 54.5t82 172.5l112 529h173l-115 -532q-9 -43 -14 -75t-5 -53
q0 -48 26.5 -74t76.5 -26q44 0 81 25t58 69q13 27 27 73q17 56 39 56q9 0 15.5 -8t6.5 -21q0 -34 -13.5 -88t-35.5 -100q-39 -78 -92.5 -117t-122.5 -39q-81 0 -125.5 55t-44.5 154v13q-52 -115 -123 -168.5t-172 -53.5q-95 0 -151 56t-68 164z" />
    <glyph glyph-name="paragraph" unicode="&#xb6;" 
d="M958 1479v-86h-120v-1393h-111v1393h-176v-1393h-113v782q-170 8 -271 102.5t-101 245.5q0 157 107.5 253t285.5 96h499z" />
    <glyph glyph-name="glyph121" unicode="&#xb7;" horiz-adv-x="668" 
d="M207 627q0 52 36.5 88.5t90.5 36.5q53 0 90 -36.5t37 -88.5t-36.5 -87.5t-90.5 -35.5q-56 0 -91.5 34.5t-35.5 88.5z" />
    <glyph glyph-name="cedilla" unicode="&#xb8;" 
d="M238 -379l36 90q59 -37 119.5 -57.5t112.5 -20.5q57 0 84.5 22.5t27.5 68.5q0 42 -28 64t-84 22q-4 0 -16.5 -1.5t-42.5 -5.5l-1 197h66v-115q16 2 31.5 3t38.5 1q80 0 129 -45.5t49 -119.5q0 -84 -59.5 -131.5t-165.5 -47.5q-57 0 -126 17.5t-171 58.5z" />
    <glyph glyph-name="onesuperior" unicode="&#xb9;" horiz-adv-x="883" 
d="M252 498v10q67 16 91 58.5t24 193.5v45v291q0 80 -19.5 100.5t-77.5 24.5l1 10q47 2 103 12t142 32q-3 -38 -4.5 -97t-1.5 -140v-245q0 -178 23.5 -224t89.5 -61l-1 -10q-62 2 -103.5 3t-80.5 1q-42 0 -153 -3q-22 -1 -33 -1z" />
    <glyph glyph-name="ordmasculine" unicode="&#xba;" horiz-adv-x="1006" 
d="M231 961q0 -177 71.5 -272t203.5 -95q129 0 199.5 95t70.5 269q0 176 -71.5 270.5t-202.5 94.5q-127 0 -199 -95.5t-72 -266.5zM57 965q0 169 125 277t324 108q198 0 321 -109t123 -283q0 -175 -123.5 -283t-326.5 -108q-198 0 -320.5 110t-122.5 288z" />
    <glyph glyph-name="guillemotright" unicode="&#xbb;" horiz-adv-x="1071" 
d="M647 143l-123 82l244 310l-244 307l123 82l262 -389zM285 143l-121 82l242 310l-242 307l121 82l262 -389z" />
    <glyph glyph-name="onequarter" unicode="&#xbc;" horiz-adv-x="2028" 
d="M1620 244v346l-332 -346h332zM1921 185q-51 4 -83.5 6t-59.5 2h-27q0 -102 22.5 -138t84.5 -49l-1 -10q-67 2 -102.5 3t-66.5 1q-55 0 -96.5 -1t-84.5 -3v10q65 12 89 46t24 120v12h-414l19 47l518 519h8v-185v-321h6q79 0 128.5 22t90.5 76l9 -2zM500 -33v15l938 1308
h86v-16l-934 -1307h-90zM242 549v10q62 15 84 53.5t22 182.5v41v270q0 78 -18.5 96.5t-71.5 22.5l1 8q50 3 107 13.5t126 29.5q-2 -45 -3.5 -102t-1.5 -119v-232q0 -165 22.5 -207.5t84.5 -56.5l-1 -10q-58 2 -98.5 3t-76.5 1q-40 0 -144 -3q-22 -1 -32 -1z" />
    <glyph glyph-name="onehalf" unicode="&#xbd;" horiz-adv-x="2028" 
d="M1241 0q22 86 79 146.5t173 117.5l14 7q226 113 226 249q0 81 -51 128.5t-138 47.5t-147 -44t-84 -126h-10l-43 133q69 32 142 48t146 16q155 0 251.5 -63.5t96.5 -161.5q0 -47 -24.5 -87t-73.5 -71q-51 -31 -201 -74q-32 -9 -49 -14q-80 -25 -125 -58.5t-69 -87.5h305
q104 0 153 20.5t95 72.5l10 -2l-66 -201h-7q-91 4 -128 4h-59h-416zM500 -33v15l938 1308h86v-16l-934 -1307h-90zM242 549v10q62 15 84 53.5t22 182.5v41v270q0 78 -18.5 96.5t-71.5 22.5l1 8q50 3 107 13.5t126 29.5q-2 -45 -3.5 -102t-1.5 -119v-232q0 -165 22.5 -207.5
t84.5 -56.5l-1 -10q-58 2 -98.5 3t-76.5 1q-40 0 -144 -3q-22 -1 -32 -1z" />
    <glyph glyph-name="threequarters" unicode="&#xbe;" horiz-adv-x="2028" 
d="M1620 244v346l-332 -346h332zM1921 185q-51 4 -83.5 6t-59.5 2h-27q0 -102 22.5 -138t84.5 -49l-1 -10q-67 2 -102.5 3t-66.5 1q-55 0 -96.5 -1t-84.5 -3v10q65 12 89 46t24 120v12h-414l19 47l518 519h8v-185v-321h6q79 0 128.5 22t90.5 76l9 -2zM500 -33v15l938 1308
h86v-16l-934 -1307h-90zM41 608l55 148h6q26 -95 96 -146t175 -51q101 0 162 51.5t61 137.5q0 85 -62.5 129.5t-183.5 44.5q-15 0 -37 -2t-48 -4v38q22 -3 42.5 -4.5t36.5 -1.5q109 0 162 39t53 119q0 67 -47 106t-129 39q-95 0 -157 -44.5t-81 -125.5h-10l-37 136
q68 29 142 44t155 15q146 0 234 -45.5t88 -120.5q0 -70 -72.5 -116t-200.5 -56q158 -14 238 -61t80 -125q0 -99 -105.5 -159.5t-283.5 -60.5q-91 0 -172 19t-160 57z" />
    <glyph glyph-name="questiondown" unicode="&#xbf;" horiz-adv-x="1044" 
d="M680 1241q0 -52 -37 -88.5t-90 -36.5q-54 0 -90.5 36.5t-36.5 88.5q0 53 36.5 89t90.5 36q55 0 91 -35.5t36 -89.5zM578 1017q1 -8 1.5 -17t0.5 -27q0 -60 -18 -114t-66 -128q-13 -18 -37 -53q-148 -213 -148 -363q0 -140 72.5 -223.5t194.5 -83.5t212 81.5t128 225.5h14
l65 -241q-115 -55 -221.5 -82t-208.5 -27q-215 0 -356 107t-141 266q0 55 19 106.5t56 96.5q35 42 132 117.5t139 111.5q61 53 91 114t32 134z" />
    <glyph glyph-name="Agrave" unicode="&#xc0;" horiz-adv-x="1565" 
d="M469 659q27 -2 57.5 -3t89.5 -1h123q69 0 100 1t56 3l-213 431zM-13 -6l-1 12q71 44 155.5 161t173.5 296l453 903h16l471 -893q12 -21 34 -63q182 -346 290 -404v-12q-58 3 -109 4.5t-98 1.5q-111 0 -185 -1.5t-146 -4.5l-1 12q52 17 72.5 41t20.5 70q0 31 -16.5 77.5
t-65.5 147.5l-125 262q-31 2 -60.5 3t-66.5 1h-226q-50 0 -77.5 -1t-51.5 -3l-71 -158q-48 -104 -72.5 -177t-24.5 -115q0 -56 30 -91t97 -57v-12q-33 3 -73 4.5t-121 1.5q-70 0 -121 -1.5t-101 -4.5zM958 1474h-74l-301 183q-48 29 -66 50.5t-18 49.5q0 32 22.5 56t53.5 24
q24 0 52 -16t55 -46z" />
    <glyph glyph-name="Aacute" unicode="&#xc1;" horiz-adv-x="1565" 
d="M469 659q27 -2 57.5 -3t89.5 -1h123q69 0 100 1t56 3l-213 431zM-13 -6l-1 12q71 44 155.5 161t173.5 296l453 903h16l471 -893q12 -21 34 -63q182 -346 290 -404v-12q-58 3 -109 4.5t-98 1.5q-111 0 -185 -1.5t-146 -4.5l-1 12q52 17 72.5 41t20.5 70q0 31 -16.5 77.5
t-65.5 147.5l-125 262q-31 2 -60.5 3t-66.5 1h-226q-50 0 -77.5 -1t-51.5 -3l-71 -158q-48 -104 -72.5 -177t-24.5 -115q0 -56 30 -91t97 -57v-12q-33 3 -73 4.5t-121 1.5q-70 0 -121 -1.5t-101 -4.5zM606 1474l276 301q27 30 55 46t52 16q31 0 53.5 -24t22.5 -56
q0 -28 -18 -49.5t-66 -50.5l-301 -183h-74z" />
    <glyph glyph-name="Acircumflex" unicode="&#xc2;" horiz-adv-x="1565" 
d="M469 659q27 -2 57.5 -3t89.5 -1h123q69 0 100 1t56 3l-213 431zM-13 -6l-1 12q71 44 155.5 161t173.5 296l453 903h16l471 -893q12 -21 34 -63q182 -346 290 -404v-12q-58 3 -109 4.5t-98 1.5q-111 0 -185 -1.5t-146 -4.5l-1 12q52 17 72.5 41t20.5 70q0 31 -16.5 77.5
t-65.5 147.5l-125 262q-31 2 -60.5 3t-66.5 1h-226q-50 0 -77.5 -1t-51.5 -3l-71 -158q-48 -104 -72.5 -177t-24.5 -115q0 -56 30 -91t97 -57v-12q-33 3 -73 4.5t-121 1.5q-70 0 -121 -1.5t-101 -4.5zM487 1474l227 348h134l229 -348h-74l-221 195l-221 -195h-74z" />
    <glyph glyph-name="Atilde" unicode="&#xc3;" horiz-adv-x="1565" 
d="M469 659q27 -2 57.5 -3t89.5 -1h123q69 0 100 1t56 3l-213 431zM-13 -6l-1 12q71 44 155.5 161t173.5 296l453 903h16l471 -893q12 -21 34 -63q182 -346 290 -404v-12q-58 3 -109 4.5t-98 1.5q-111 0 -185 -1.5t-146 -4.5l-1 12q52 17 72.5 41t20.5 70q0 31 -16.5 77.5
t-65.5 147.5l-125 262q-31 2 -60.5 3t-66.5 1h-226q-50 0 -77.5 -1t-51.5 -3l-71 -158q-48 -104 -72.5 -177t-24.5 -115q0 -56 30 -91t97 -57v-12q-33 3 -73 4.5t-121 1.5q-70 0 -121 -1.5t-101 -4.5zM1065 1792q-22 -113 -71.5 -171.5t-123.5 -58.5q-12 0 -24 1.5t-28 5.5
l-106 26q-27 6 -37.5 8t-15.5 2q-42 0 -64.5 -19t-37.5 -71h-58q22 115 71.5 173.5t125.5 58.5q10 0 25 -2.5t39 -8.5l108 -26q12 -3 24.5 -4.5t26.5 -1.5q34 0 56 21.5t32 66.5h58z" />
    <glyph glyph-name="Adieresis" unicode="&#xc4;" horiz-adv-x="1565" 
d="M469 659q27 -2 57.5 -3t89.5 -1h123q69 0 100 1t56 3l-213 431zM-13 -6l-1 12q71 44 155.5 161t173.5 296l453 903h16l471 -893q12 -21 34 -63q182 -346 290 -404v-12q-58 3 -109 4.5t-98 1.5q-111 0 -185 -1.5t-146 -4.5l-1 12q52 17 72.5 41t20.5 70q0 31 -16.5 77.5
t-65.5 147.5l-125 262q-31 2 -60.5 3t-66.5 1h-226q-50 0 -77.5 -1t-51.5 -3l-71 -158q-48 -104 -72.5 -177t-24.5 -115q0 -56 30 -91t97 -57v-12q-33 3 -73 4.5t-121 1.5q-70 0 -121 -1.5t-101 -4.5zM852 1638q0 45 33.5 79t78.5 34q46 0 79.5 -33.5t33.5 -79.5
q0 -49 -32.5 -82t-80.5 -33q-47 0 -79.5 33.5t-32.5 81.5zM487 1638q0 45 34.5 79t80.5 34t78 -33.5t32 -79.5q0 -49 -31.5 -82t-78.5 -33q-48 0 -81.5 33.5t-33.5 81.5z" />
    <glyph glyph-name="Aring" unicode="&#xc5;" horiz-adv-x="1565" 
d="M526 1681q0 104 72 176t176 72t176 -72t72 -176t-71.5 -175.5t-176.5 -71.5q-104 0 -176 71.5t-72 175.5zM-13 -6l-1 12q71 44 155.5 161t173.5 296l453 903h16l471 -893q12 -21 34 -63q182 -346 290 -404v-12q-58 3 -109 4.5t-98 1.5q-111 0 -185 -1.5t-146 -4.5l-1 12
q52 17 72.5 41t20.5 70q0 31 -16.5 77.5t-65.5 147.5l-125 262q-31 2 -60.5 3t-66.5 1h-226q-50 0 -77.5 -1t-51.5 -3l-71 -158q-48 -104 -72.5 -177t-24.5 -115q0 -56 30 -91t97 -57v-12q-33 3 -73 4.5t-121 1.5q-70 0 -121 -1.5t-101 -4.5zM610 1681q0 -66 48.5 -114.5
t115.5 -48.5t115.5 48.5t48.5 114.5q0 69 -48 116.5t-116 47.5t-116 -47.5t-48 -116.5zM469 659q27 -2 57.5 -3t89.5 -1h123q69 0 100 1t56 3l-213 431z" />
    <glyph glyph-name="AE" unicode="&#xc6;" horiz-adv-x="2267" 
d="M1042 604q-65 3 -111.5 4.5t-76.5 1.5h-276q-32 0 -62 -1.5t-59 -4.5l-117 -160q-75 -103 -114.5 -180.5t-39.5 -122.5q0 -51 25 -81t86 -52l-1 -14q-36 3 -78.5 4.5t-123.5 1.5q-72 0 -121.5 -1.5t-97.5 -4.5l-2 14q115 77 376 416l30 39l542 706q22 29 30.5 49.5
t8.5 41.5q0 27 -18.5 39.5t-63.5 15.5l1 16q82 -1 162.5 -1.5t195.5 -0.5h901l104 -291l-14 -4q-108 135 -240.5 190.5t-455.5 55.5h-31q-46 0 -75.5 -0.5t-57.5 -1.5v-545q13 0 53.5 -1t69.5 -1h176q161 0 240 41t118 137h12v-407h-12q-35 97 -117.5 139.5t-240.5 42.5
h-193q-3 0 -38.5 -1.5t-67.5 -2.5v-219q0 -31 1 -73.5t1 -53.5q0 -204 37.5 -245.5t222.5 -41.5q266 0 417.5 62.5t256.5 207.5l14 -4l-104 -313h-992h-67q-32 0 -69 -0.5t-79 -1.5v16q79 15 107 88.5t28 358.5v143zM1042 659v484q0 97 -8 117t-33 20q-17 0 -37 -16.5
t-61 -69.5l-407 -535q26 -2 51.5 -3t62.5 -1h242q31 0 122 3q44 1 68 1z" />
    <glyph glyph-name="Ccedilla" unicode="&#xc7;" horiz-adv-x="1511" 
d="M1452 145q-131 -94 -277 -139t-321 -45q-339 0 -552.5 197t-213.5 514q0 310 213.5 502t556.5 192q155 0 296 -38.5t259 -113.5l-70 -247l-20 4q-51 177 -157.5 263.5t-274.5 86.5q-244 0 -387.5 -176t-143.5 -475q0 -303 144 -484.5t381 -181.5q180 0 306 107.5
t161 291.5l20 3zM572 -379l36 90q59 -37 119.5 -57.5t112.5 -20.5q57 0 84.5 22.5t27.5 68.5q0 42 -28 64t-84 22q-4 0 -16.5 -1.5t-42.5 -5.5l-1 197h66v-115q16 2 31.5 3t38.5 1q80 0 129 -45.5t49 -119.5q0 -84 -59.5 -131.5t-165.5 -47.5q-57 0 -126 17.5t-171 58.5z
" />
    <glyph glyph-name="Egrave" unicode="&#xc8;" horiz-adv-x="1411" 
d="M64 1327q49 -2 113 -3t206 -1l823 4l107 -289l-15 -6q-111 136 -249.5 192t-483.5 56h-16q-47 0 -77.5 -0.5t-59.5 -1.5v-545q24 -1 69 -2.5t58 -1.5h180q164 0 247 41.5t124 138.5h12v-409h-12q-37 96 -123 139t-248 43h-199q-4 0 -39.5 -1.5t-68.5 -2.5v-287
q0 -133 5 -195.5t17 -84.5q20 -36 62 -50t188 -14q274 0 430.5 62.5t261.5 205.5l15 -2l-107 -313h-1022h-69q-33 0 -71.5 -0.5t-82.5 -1.5v16q82 15 111.5 90.5t29.5 356.5v682q0 81 -28 121.5t-89 48.5zM872 1474h-74l-301 183q-48 29 -66 50.5t-18 49.5q0 32 22.5 56
t53.5 24q24 0 52 -16t55 -46z" />
    <glyph glyph-name="Eacute" unicode="&#xc9;" horiz-adv-x="1411" 
d="M64 1327q49 -2 113 -3t206 -1l823 4l107 -289l-15 -6q-111 136 -249.5 192t-483.5 56h-16q-47 0 -77.5 -0.5t-59.5 -1.5v-545q24 -1 69 -2.5t58 -1.5h180q164 0 247 41.5t124 138.5h12v-409h-12q-37 96 -123 139t-248 43h-199q-4 0 -39.5 -1.5t-68.5 -2.5v-287
q0 -133 5 -195.5t17 -84.5q20 -36 62 -50t188 -14q274 0 430.5 62.5t261.5 205.5l15 -2l-107 -313h-1022h-69q-33 0 -71.5 -0.5t-82.5 -1.5v16q82 15 111.5 90.5t29.5 356.5v682q0 81 -28 121.5t-89 48.5zM520 1474l276 301q27 30 55 46t52 16q31 0 53.5 -24t22.5 -56
q0 -28 -18 -49.5t-66 -50.5l-301 -183h-74z" />
    <glyph glyph-name="Ecircumflex" unicode="&#xca;" horiz-adv-x="1411" 
d="M64 1327q49 -2 113 -3t206 -1l823 4l107 -289l-15 -6q-111 136 -249.5 192t-483.5 56h-16q-47 0 -77.5 -0.5t-59.5 -1.5v-545q24 -1 69 -2.5t58 -1.5h180q164 0 247 41.5t124 138.5h12v-409h-12q-37 96 -123 139t-248 43h-199q-4 0 -39.5 -1.5t-68.5 -2.5v-287
q0 -133 5 -195.5t17 -84.5q20 -36 62 -50t188 -14q274 0 430.5 62.5t261.5 205.5l15 -2l-107 -313h-1022h-69q-33 0 -71.5 -0.5t-82.5 -1.5v16q82 15 111.5 90.5t29.5 356.5v682q0 81 -28 121.5t-89 48.5zM401 1474l227 348h134l229 -348h-74l-221 195l-221 -195h-74z" />
    <glyph glyph-name="Edieresis" unicode="&#xcb;" horiz-adv-x="1411" 
d="M64 1327q49 -2 113 -3t206 -1l823 4l107 -289l-15 -6q-111 136 -249.5 192t-483.5 56h-16q-47 0 -77.5 -0.5t-59.5 -1.5v-545q24 -1 69 -2.5t58 -1.5h180q164 0 247 41.5t124 138.5h12v-409h-12q-37 96 -123 139t-248 43h-199q-4 0 -39.5 -1.5t-68.5 -2.5v-287
q0 -133 5 -195.5t17 -84.5q20 -36 62 -50t188 -14q274 0 430.5 62.5t261.5 205.5l15 -2l-107 -313h-1022h-69q-33 0 -71.5 -0.5t-82.5 -1.5v16q82 15 111.5 90.5t29.5 356.5v682q0 81 -28 121.5t-89 48.5zM766 1638q0 45 33.5 79t78.5 34q46 0 79.5 -33.5t33.5 -79.5
q0 -49 -32.5 -82t-80.5 -33q-47 0 -79.5 33.5t-32.5 81.5zM401 1638q0 45 34.5 79t80.5 34t78 -33.5t32 -79.5q0 -49 -31.5 -82t-78.5 -33q-48 0 -81.5 33.5t-33.5 81.5z" />
    <glyph glyph-name="Igrave" unicode="&#xcc;" horiz-adv-x="616" 
d="M428 461v-12q0 -260 30 -338.5t117 -100.5v-16q-62 3 -123.5 4.5t-150.5 1.5q-95 0 -151 -1.5t-106 -4.5l-1 16q86 20 116.5 98.5t30.5 352.5v694q0 71 -28.5 109t-93.5 55v16q63 -4 123 -6t118 -2t118.5 2t123.5 6v-16q-64 -12 -93.5 -51.5t-29.5 -112.5v-694zM485 1474
h-74l-301 183q-48 29 -66 50.5t-18 49.5q0 32 22.5 56t53.5 24q24 0 52 -16t55 -46z" />
    <glyph glyph-name="Iacute" unicode="&#xcd;" horiz-adv-x="616" 
d="M428 461v-12q0 -260 30 -338.5t117 -100.5v-16q-62 3 -123.5 4.5t-150.5 1.5q-95 0 -151 -1.5t-106 -4.5l-1 16q86 20 116.5 98.5t30.5 352.5v694q0 71 -28.5 109t-93.5 55v16q63 -4 123 -6t118 -2t118.5 2t123.5 6v-16q-64 -12 -93.5 -51.5t-29.5 -112.5v-694zM133 1474
l276 301q27 30 55 46t52 16q31 0 53.5 -24t22.5 -56q0 -28 -18 -49.5t-66 -50.5l-301 -183h-74z" />
    <glyph glyph-name="Icircumflex" unicode="&#xce;" horiz-adv-x="616" 
d="M428 461v-12q0 -260 30 -338.5t117 -100.5v-16q-62 3 -123.5 4.5t-150.5 1.5q-95 0 -151 -1.5t-106 -4.5l-1 16q86 20 116.5 98.5t30.5 352.5v694q0 71 -28.5 109t-93.5 55v16q63 -4 123 -6t118 -2t118.5 2t123.5 6v-16q-64 -12 -93.5 -51.5t-29.5 -112.5v-694zM14 1474
l227 348h134l229 -348h-74l-221 195l-221 -195h-74z" />
    <glyph glyph-name="Idieresis" unicode="&#xcf;" horiz-adv-x="616" 
d="M428 461v-12q0 -260 30 -338.5t117 -100.5v-16q-62 3 -123.5 4.5t-150.5 1.5q-95 0 -151 -1.5t-106 -4.5l-1 16q86 20 116.5 98.5t30.5 352.5v694q0 71 -28.5 109t-93.5 55v16q63 -4 123 -6t118 -2t118.5 2t123.5 6v-16q-64 -12 -93.5 -51.5t-29.5 -112.5v-694zM379 1638
q0 45 33.5 79t78.5 34q46 0 79.5 -33.5t33.5 -79.5q0 -49 -32.5 -82t-80.5 -33q-47 0 -79.5 33.5t-32.5 81.5zM14 1638q0 45 34.5 79t80.5 34t78 -33.5t32 -79.5q0 -49 -31.5 -82t-78.5 -33q-48 0 -81.5 33.5t-33.5 81.5z" />
    <glyph glyph-name="Eth" unicode="&#xd0;" horiz-adv-x="1616" 
d="M422 1276v-533h416v-77h-416v-205q0 -313 43 -368.5t231 -55.5q269 0 414 164.5t145 470.5q0 319 -144.5 465.5t-459.5 146.5q-82 0 -131.5 -2t-97.5 -6zM52 -6l-1 16q81 21 110 91t29 360v205h-180v77h180v400q0 81 -27 120.5t-89 49.5v16q68 -1 133 -1.5t149 -0.5
q57 0 160 2t150 2q221 0 358 -31.5t242 -103.5q128 -88 195 -216.5t67 -287.5q0 -153 -57 -287.5t-162 -230.5q-101 -93 -240.5 -133.5t-370.5 -40.5h-370q-98 0 -158.5 -1.5t-117.5 -4.5z" />
    <glyph glyph-name="Ntilde" unicode="&#xd1;" horiz-adv-x="1524" 
d="M236 604v-43q0 -305 37.5 -406t138.5 -147l-1 -14q-63 3 -110.5 4.5t-81.5 1.5q-53 0 -107 -1.5t-109 -4.5l-1 14q102 44 141 153.5t39 442.5v453q0 129 -29.5 178.5t-107.5 79.5v16q24 0 68 -2q88 -2 116 -2q61 0 101.5 0.5t80.5 1.5q244 -302 871 -906q12 -12 18 -17
v329q0 342 -37.5 441t-138.5 143l1 14q21 -1 60 -3q98 -5 132 -5q70 0 211 8h6v-14q-102 -43 -141 -150.5t-39 -433.5v-774h-19q-186 227 -464 527.5t-635 662.5v-547zM1045 1792q-22 -113 -71.5 -171.5t-123.5 -58.5q-12 0 -24 1.5t-28 5.5l-106 26q-27 6 -37.5 8t-15.5 2
q-42 0 -64.5 -19t-37.5 -71h-58q22 115 71.5 173.5t125.5 58.5q10 0 25 -2.5t39 -8.5l108 -26q12 -3 24.5 -4.5t26.5 -1.5q34 0 56 21.5t32 66.5h58z" />
    <glyph glyph-name="Ograve" unicode="&#xd2;" horiz-adv-x="1677" 
d="M356 666q0 -312 128.5 -487t357.5 -175q220 0 350.5 177t130.5 483q0 313 -128.5 486t-358.5 173q-229 0 -354.5 -171.5t-125.5 -485.5zM86 668q0 303 211 500.5t539 197.5q329 0 542 -198.5t213 -499.5q0 -299 -215 -503t-534 -204q-327 0 -541.5 202t-214.5 505z
M1016 1474h-74l-301 183q-48 29 -66 50.5t-18 49.5q0 32 22.5 56t53.5 24q24 0 52 -16t55 -46z" />
    <glyph glyph-name="Oacute" unicode="&#xd3;" horiz-adv-x="1677" 
d="M356 666q0 -312 128.5 -487t357.5 -175q220 0 350.5 177t130.5 483q0 313 -128.5 486t-358.5 173q-229 0 -354.5 -171.5t-125.5 -485.5zM86 668q0 303 211 500.5t539 197.5q329 0 542 -198.5t213 -499.5q0 -299 -215 -503t-534 -204q-327 0 -541.5 202t-214.5 505z
M664 1474l276 301q27 30 55 46t52 16q31 0 53.5 -24t22.5 -56q0 -28 -18 -49.5t-66 -50.5l-301 -183h-74z" />
    <glyph glyph-name="Ocircumflex" unicode="&#xd4;" horiz-adv-x="1677" 
d="M356 666q0 -312 128.5 -487t357.5 -175q220 0 350.5 177t130.5 483q0 313 -128.5 486t-358.5 173q-229 0 -354.5 -171.5t-125.5 -485.5zM86 668q0 303 211 500.5t539 197.5q329 0 542 -198.5t213 -499.5q0 -299 -215 -503t-534 -204q-327 0 -541.5 202t-214.5 505z
M545 1474l227 348h134l229 -348h-74l-221 195l-221 -195h-74z" />
    <glyph glyph-name="Otilde" unicode="&#xd5;" horiz-adv-x="1677" 
d="M356 666q0 -312 128.5 -487t357.5 -175q220 0 350.5 177t130.5 483q0 313 -128.5 486t-358.5 173q-229 0 -354.5 -171.5t-125.5 -485.5zM86 668q0 303 211 500.5t539 197.5q329 0 542 -198.5t213 -499.5q0 -299 -215 -503t-534 -204q-327 0 -541.5 202t-214.5 505z
M1123 1792q-22 -113 -71.5 -171.5t-123.5 -58.5q-12 0 -24 1.5t-28 5.5l-106 26q-27 6 -37.5 8t-15.5 2q-42 0 -64.5 -19t-37.5 -71h-58q22 115 71.5 173.5t125.5 58.5q10 0 25 -2.5t39 -8.5l108 -26q12 -3 24.5 -4.5t26.5 -1.5q34 0 56 21.5t32 66.5h58z" />
    <glyph glyph-name="Odieresis" unicode="&#xd6;" horiz-adv-x="1677" 
d="M356 666q0 -312 128.5 -487t357.5 -175q220 0 350.5 177t130.5 483q0 313 -128.5 486t-358.5 173q-229 0 -354.5 -171.5t-125.5 -485.5zM86 668q0 303 211 500.5t539 197.5q329 0 542 -198.5t213 -499.5q0 -299 -215 -503t-534 -204q-327 0 -541.5 202t-214.5 505z
M910 1638q0 45 33.5 79t78.5 34q46 0 79.5 -33.5t33.5 -79.5q0 -49 -32.5 -82t-80.5 -33q-47 0 -79.5 33.5t-32.5 81.5zM545 1638q0 45 34.5 79t80.5 34t78 -33.5t32 -79.5q0 -49 -31.5 -82t-78.5 -33q-48 0 -81.5 33.5t-33.5 81.5z" />
    <glyph glyph-name="multiply" unicode="&#xd7;" horiz-adv-x="1706" 
d="M391 1178l469 -469l469 469l98 -99l-469 -469l469 -469l-98 -96l-469 467l-469 -467l-98 96l469 469l-469 469z" />
    <glyph glyph-name="Oslash" unicode="&#xd8;" horiz-adv-x="1677" 
d="M428 270l764 877q-62 89 -146.5 132.5t-197.5 43.5q-240 0 -367 -171.5t-127 -498.5q0 -108 18 -201t56 -182zM63 -162v12l254 297q-118 118 -174.5 244.5t-56.5 276.5q0 302 212.5 501t535.5 199q116 0 226 -31t218 -94l197 223h96v-12l-225 -260q128 -118 186.5 -243.5
t58.5 -282.5q0 -298 -215.5 -502.5t-533.5 -204.5q-125 0 -236.5 33t-222.5 102l-225 -258h-95zM471 199q70 -98 162.5 -146.5t208.5 -48.5q224 0 352.5 180.5t128.5 501.5q0 115 -20 208.5t-62 180.5z" />
    <glyph glyph-name="Ugrave" unicode="&#xd9;" horiz-adv-x="1520" 
d="M1305 735v23q0 323 -38.5 420.5t-138.5 140.5l1 14q21 -1 60 -3q98 -5 132 -5q70 0 211 8h6v-14q-102 -43 -141 -150.5t-39 -433.5v-198q0 -295 -144 -435.5t-446 -140.5q-324 0 -466 127t-142 424q0 83 2 194t2 140v309q0 72 -27 109.5t-90 54.5v16q60 -4 118.5 -6
t115.5 -2t116 2t119 6v-16q-63 -14 -91 -52t-28 -112v-450q0 -167 9 -267t28 -159q39 -119 145.5 -185.5t258.5 -66.5q228 0 347.5 127.5t119.5 371.5v209zM993 1474h-74l-301 183q-48 29 -66 50.5t-18 49.5q0 32 22.5 56t53.5 24q24 0 52 -16t55 -46z" />
    <glyph glyph-name="Uacute" unicode="&#xda;" horiz-adv-x="1520" 
d="M1305 735v23q0 323 -38.5 420.5t-138.5 140.5l1 14q21 -1 60 -3q98 -5 132 -5q70 0 211 8h6v-14q-102 -43 -141 -150.5t-39 -433.5v-198q0 -295 -144 -435.5t-446 -140.5q-324 0 -466 127t-142 424q0 83 2 194t2 140v309q0 72 -27 109.5t-90 54.5v16q60 -4 118.5 -6
t115.5 -2t116 2t119 6v-16q-63 -14 -91 -52t-28 -112v-450q0 -167 9 -267t28 -159q39 -119 145.5 -185.5t258.5 -66.5q228 0 347.5 127.5t119.5 371.5v209zM641 1474l276 301q27 30 55 46t52 16q31 0 53.5 -24t22.5 -56q0 -28 -18 -49.5t-66 -50.5l-301 -183h-74z" />
    <glyph glyph-name="Ucircumflex" unicode="&#xdb;" horiz-adv-x="1520" 
d="M1305 735v23q0 323 -38.5 420.5t-138.5 140.5l1 14q21 -1 60 -3q98 -5 132 -5q70 0 211 8h6v-14q-102 -43 -141 -150.5t-39 -433.5v-198q0 -295 -144 -435.5t-446 -140.5q-324 0 -466 127t-142 424q0 83 2 194t2 140v309q0 72 -27 109.5t-90 54.5v16q60 -4 118.5 -6
t115.5 -2t116 2t119 6v-16q-63 -14 -91 -52t-28 -112v-450q0 -167 9 -267t28 -159q39 -119 145.5 -185.5t258.5 -66.5q228 0 347.5 127.5t119.5 371.5v209zM522 1474l227 348h134l229 -348h-74l-221 195l-221 -195h-74z" />
    <glyph glyph-name="Udieresis" unicode="&#xdc;" horiz-adv-x="1520" 
d="M1305 735v23q0 323 -38.5 420.5t-138.5 140.5l1 14q21 -1 60 -3q98 -5 132 -5q70 0 211 8h6v-14q-102 -43 -141 -150.5t-39 -433.5v-198q0 -295 -144 -435.5t-446 -140.5q-324 0 -466 127t-142 424q0 83 2 194t2 140v309q0 72 -27 109.5t-90 54.5v16q60 -4 118.5 -6
t115.5 -2t116 2t119 6v-16q-63 -14 -91 -52t-28 -112v-450q0 -167 9 -267t28 -159q39 -119 145.5 -185.5t258.5 -66.5q228 0 347.5 127.5t119.5 371.5v209zM887 1638q0 45 33.5 79t78.5 34q46 0 79.5 -33.5t33.5 -79.5q0 -49 -32.5 -82t-80.5 -33q-47 0 -79.5 33.5
t-32.5 81.5zM522 1638q0 45 34.5 79t80.5 34t78 -33.5t32 -79.5q0 -49 -31.5 -82t-78.5 -33q-48 0 -81.5 33.5t-33.5 81.5z" />
    <glyph glyph-name="Yacute" unicode="&#xdd;" horiz-adv-x="1434" 
d="M467 -6v16q83 20 112 95.5t29 355.5v108l-321 428q-124 165 -185 227.5t-116 94.5v16q6 0 19 -1q151 -7 218 -7q83 0 261 8h18v-16q-50 -11 -73 -32.5t-23 -57.5q0 -49 96 -172l2 -2l317 -396l69 98q279 392 279 460q0 36 -22 60t-74 42l1 16q73 -5 110.5 -6.5t70.5 -1.5
q62 0 187 8h6v-16q-90 -48 -230.5 -215t-377.5 -510v-133q0 -272 29 -350.5t114 -100.5v-16q-84 3 -150 4.5t-116 1.5q-59 0 -121.5 -1.5t-128.5 -4.5zM541 1474l276 301q27 30 55 46t52 16q31 0 53.5 -24t22.5 -56q0 -28 -18 -49.5t-66 -50.5l-301 -183h-74z" />
    <glyph glyph-name="Thorn" unicode="&#xde;" horiz-adv-x="1384" 
d="M422 965v-594q60 -8 114.5 -12.5t102.5 -4.5q213 0 340 87t127 231q0 153 -127 225t-401 72q-29 0 -61 -1t-95 -3zM49 10q82 21 110.5 93t28.5 358v682q0 80 -28 121t-88 49v16q36 -1 71.5 -1.5t87.5 -0.5h111h64q29 0 62 0.5t71 1.5v-16q-61 -8 -89 -48.5t-28 -121.5
v-129q27 1 54.5 1.5t74.5 0.5q250 0 366 -12t203 -39q122 -38 188 -115.5t66 -179.5q0 -168 -187 -266.5t-511 -98.5q-49 0 -112 3t-142 9q10 -183 38.5 -233.5t102.5 -73.5v-16q-56 3 -115 4.5t-151 1.5q-63 0 -124.5 -1.5t-122.5 -4.5z" />
    <glyph glyph-name="germandbls" unicode="&#xdf;" horiz-adv-x="1280" 
d="M150 969q0 145 16.5 217t56.5 127q64 88 168 134t240 46q208 0 329 -95t121 -257q0 -127 -73.5 -209t-219.5 -117q195 -27 299.5 -135t104.5 -281q0 -194 -119 -311t-319 -117q-36 0 -80.5 6.5t-110.5 20.5l-18 219h14q44 -113 92 -159t119 -46q92 0 140 93t48 272
q0 213 -69 309t-223 96h-4q-12 -2 -23 -2q-15 0 -32 -0.5t-36 -1.5l-20 47q35 -2 53 -3t33 -1q115 0 170 71.5t55 219.5q0 170 -61 255t-183 85q-145 0 -205.5 -86t-60.5 -385v-537q0 -265 28 -337t105 -97v-16q-46 3 -96.5 4.5t-138.5 1.5q-79 0 -131.5 -1.5t-103.5 -4.5
l-1 16q78 24 107 98t29 326v72v463z" />
    <glyph glyph-name="agrave" unicode="&#xe0;" horiz-adv-x="1233" 
d="M1212 -4q-72 2 -112.5 3t-73.5 1h-70q-23 42 -41.5 90.5t-31.5 106.5q-61 -107 -164.5 -165.5t-233.5 -58.5q-184 0 -299.5 94t-115.5 242q0 171 202.5 259.5t595.5 88.5l13 1q-2 207 -78.5 303t-241.5 96q-145 0 -244.5 -76t-119.5 -201h-11l-65 209q103 53 221 80
t250 27q111 0 199 -23.5t155 -71.5q72 -51 102.5 -131t30.5 -231v-270q0 -175 31.5 -259.5t101.5 -99.5v-14zM881 614q-15 1 -32 1.5t-48 0.5q-242 0 -371 -83t-129 -238q0 -121 66.5 -190.5t181.5 -69.5q174 0 253 120t79 392v67zM782 1206h-74l-301 183q-48 29 -66 50.5
t-18 49.5q0 32 22.5 56t53.5 24q24 0 52 -16t55 -46z" />
    <glyph glyph-name="aacute" unicode="&#xe1;" horiz-adv-x="1233" 
d="M1212 -4q-72 2 -112.5 3t-73.5 1h-70q-23 42 -41.5 90.5t-31.5 106.5q-61 -107 -164.5 -165.5t-233.5 -58.5q-184 0 -299.5 94t-115.5 242q0 171 202.5 259.5t595.5 88.5l13 1q-2 207 -78.5 303t-241.5 96q-145 0 -244.5 -76t-119.5 -201h-11l-65 209q103 53 221 80
t250 27q111 0 199 -23.5t155 -71.5q72 -51 102.5 -131t30.5 -231v-270q0 -175 31.5 -259.5t101.5 -99.5v-14zM881 614q-15 1 -32 1.5t-48 0.5q-242 0 -371 -83t-129 -238q0 -121 66.5 -190.5t181.5 -69.5q174 0 253 120t79 392v67zM430 1206l276 301q27 30 55 46t52 16
q31 0 53.5 -24t22.5 -56q0 -28 -18 -49.5t-66 -50.5l-301 -183h-74z" />
    <glyph glyph-name="acircumflex" unicode="&#xe2;" horiz-adv-x="1233" 
d="M1212 -4q-72 2 -112.5 3t-73.5 1h-70q-23 42 -41.5 90.5t-31.5 106.5q-61 -107 -164.5 -165.5t-233.5 -58.5q-184 0 -299.5 94t-115.5 242q0 171 202.5 259.5t595.5 88.5l13 1q-2 207 -78.5 303t-241.5 96q-145 0 -244.5 -76t-119.5 -201h-11l-65 209q103 53 221 80
t250 27q111 0 199 -23.5t155 -71.5q72 -51 102.5 -131t30.5 -231v-270q0 -175 31.5 -259.5t101.5 -99.5v-14zM881 614q-15 1 -32 1.5t-48 0.5q-242 0 -371 -83t-129 -238q0 -121 66.5 -190.5t181.5 -69.5q174 0 253 120t79 392v67zM311 1206l227 348h134l229 -348h-74
l-221 195l-221 -195h-74z" />
    <glyph glyph-name="atilde" unicode="&#xe3;" horiz-adv-x="1233" 
d="M1212 -4q-72 2 -112.5 3t-73.5 1h-70q-23 42 -41.5 90.5t-31.5 106.5q-61 -107 -164.5 -165.5t-233.5 -58.5q-184 0 -299.5 94t-115.5 242q0 171 202.5 259.5t595.5 88.5l13 1q-2 207 -78.5 303t-241.5 96q-145 0 -244.5 -76t-119.5 -201h-11l-65 209q103 53 221 80
t250 27q111 0 199 -23.5t155 -71.5q72 -51 102.5 -131t30.5 -231v-270q0 -175 31.5 -259.5t101.5 -99.5v-14zM881 614q-15 1 -32 1.5t-48 0.5q-242 0 -371 -83t-129 -238q0 -121 66.5 -190.5t181.5 -69.5q174 0 253 120t79 392v67zM889 1524q-22 -113 -71.5 -171.5
t-123.5 -58.5q-12 0 -24 1.5t-28 5.5l-106 26q-27 6 -37.5 8t-15.5 2q-42 0 -64.5 -19t-37.5 -71h-58q22 115 71.5 173.5t125.5 58.5q10 0 25 -2.5t39 -8.5l108 -26q12 -3 24.5 -4.5t26.5 -1.5q34 0 56 21.5t32 66.5h58z" />
    <glyph glyph-name="adieresis" unicode="&#xe4;" horiz-adv-x="1233" 
d="M1212 -4q-72 2 -112.5 3t-73.5 1h-70q-23 42 -41.5 90.5t-31.5 106.5q-61 -107 -164.5 -165.5t-233.5 -58.5q-184 0 -299.5 94t-115.5 242q0 171 202.5 259.5t595.5 88.5l13 1q-2 207 -78.5 303t-241.5 96q-145 0 -244.5 -76t-119.5 -201h-11l-65 209q103 53 221 80
t250 27q111 0 199 -23.5t155 -71.5q72 -51 102.5 -131t30.5 -231v-270q0 -175 31.5 -259.5t101.5 -99.5v-14zM881 614q-15 1 -32 1.5t-48 0.5q-242 0 -371 -83t-129 -238q0 -121 66.5 -190.5t181.5 -69.5q174 0 253 120t79 392v67zM676 1370q0 45 33.5 79t78.5 34
q46 0 79.5 -33.5t33.5 -79.5q0 -49 -32.5 -82t-80.5 -33q-47 0 -79.5 33.5t-32.5 81.5zM311 1370q0 45 34.5 79t80.5 34t78 -33.5t32 -79.5q0 -49 -31.5 -82t-78.5 -33q-48 0 -81.5 33.5t-33.5 81.5z" />
    <glyph glyph-name="aring" unicode="&#xe5;" horiz-adv-x="1233" 
d="M346 1409q0 104 72 176t176 72t176 -72t72 -176t-72 -176t-176 -72q-105 0 -176.5 72t-71.5 176zM430 1407q0 -66 48.5 -114t115.5 -48t115.5 48t48.5 114q0 69 -48 117.5t-116 48.5t-116 -48.5t-48 -117.5zM881 614q-15 1 -32 1.5t-48 0.5q-242 0 -371 -83t-129 -238
q0 -121 66.5 -190.5t181.5 -69.5q174 0 253 120t79 392v67zM1212 -4q-72 2 -112.5 3t-73.5 1h-70q-23 42 -41.5 90.5t-31.5 106.5q-61 -107 -164.5 -165.5t-233.5 -58.5q-184 0 -299.5 94t-115.5 242q0 171 202.5 259.5t595.5 88.5l13 1q-2 207 -78.5 303t-241.5 96
q-145 0 -244.5 -76t-119.5 -201h-11l-65 209q103 53 221 80t250 27q111 0 199 -23.5t155 -71.5q72 -51 102.5 -131t30.5 -231v-270q0 -175 31.5 -259.5t101.5 -99.5v-14z" />
    <glyph glyph-name="ae" unicode="&#xe6;" horiz-adv-x="2023" 
d="M1944 672l-863 -1q-3 -44 -4.5 -75.5t-1.5 -50.5q0 -241 109 -376.5t301 -135.5q158 0 275 106t173 301l31 -41q-60 -209 -197 -317.5t-344 -108.5q-175 0 -306 70.5t-199 202.5q-54 -134 -164 -203.5t-267 -69.5q-190 0 -305.5 93t-115.5 243q0 171 202.5 259.5
t595.5 88.5l13 1q-2 207 -78.5 303t-241.5 96q-144 0 -243.5 -75.5t-120.5 -201.5h-11l-63 209q100 53 216.5 79t250.5 26q154 0 253 -35.5t165 -112.5q85 75 187 111.5t224 36.5q222 0 363.5 -113t165.5 -309zM1085 715h611q-6 158 -82.5 250t-200.5 92q-125 0 -211 -89.5
t-117 -252.5zM877 614q-15 1 -32 1.5t-48 0.5q-242 0 -371 -83t-129 -238q0 -122 66.5 -192t181.5 -70q161 0 246.5 102t85.5 295v184z" />
    <glyph glyph-name="ccedilla" unicode="&#xe7;" horiz-adv-x="1186" 
d="M1098 311l30 -39q-69 -147 -188 -224t-281 -77q-255 0 -418 157t-163 402q0 252 164 408t430 156q126 0 238 -31t210 -92l-67 -219h-13q-30 139 -126 221t-228 82q-168 0 -270.5 -134t-102.5 -358q0 -247 106.5 -388.5t289.5 -141.5q127 0 226 70.5t163 207.5zM367 -379
l36 90q59 -37 119.5 -57.5t112.5 -20.5q57 0 84.5 22.5t27.5 68.5q0 42 -28 64t-84 22q-4 0 -16.5 -1.5t-42.5 -5.5l-1 197h66v-115q16 2 31.5 3t38.5 1q80 0 129 -45.5t49 -119.5q0 -84 -59.5 -131.5t-165.5 -47.5q-57 0 -126 17.5t-171 58.5z" />
    <glyph glyph-name="egrave" unicode="&#xe8;" horiz-adv-x="1251" 
d="M1176 672l-863 -1q-3 -44 -4.5 -75.5t-1.5 -50.5q0 -241 109 -376.5t301 -135.5q158 0 275 106t173 301l31 -41q-61 -211 -199.5 -319.5t-347.5 -108.5q-248 0 -410.5 157t-162.5 394q0 258 157.5 415t413.5 157q222 0 363.5 -113t165.5 -309zM317 715h611
q-6 158 -82.5 250t-200.5 92q-126 0 -211.5 -89.5t-116.5 -252.5zM823 1206h-74l-301 183q-48 29 -66 50.5t-18 49.5q0 32 22.5 56t53.5 24q24 0 52 -16t55 -46z" />
    <glyph glyph-name="eacute" unicode="&#xe9;" horiz-adv-x="1251" 
d="M1176 672l-863 -1q-3 -44 -4.5 -75.5t-1.5 -50.5q0 -241 109 -376.5t301 -135.5q158 0 275 106t173 301l31 -41q-61 -211 -199.5 -319.5t-347.5 -108.5q-248 0 -410.5 157t-162.5 394q0 258 157.5 415t413.5 157q222 0 363.5 -113t165.5 -309zM317 715h611
q-6 158 -82.5 250t-200.5 92q-126 0 -211.5 -89.5t-116.5 -252.5zM471 1206l276 301q27 30 55 46t52 16q31 0 53.5 -24t22.5 -56q0 -28 -18 -49.5t-66 -50.5l-301 -183h-74z" />
    <glyph glyph-name="ecircumflex" unicode="&#xea;" horiz-adv-x="1251" 
d="M1176 672l-863 -1q-3 -44 -4.5 -75.5t-1.5 -50.5q0 -241 109 -376.5t301 -135.5q158 0 275 106t173 301l31 -41q-61 -211 -199.5 -319.5t-347.5 -108.5q-248 0 -410.5 157t-162.5 394q0 258 157.5 415t413.5 157q222 0 363.5 -113t165.5 -309zM317 715h611
q-6 158 -82.5 250t-200.5 92q-126 0 -211.5 -89.5t-116.5 -252.5zM352 1206l227 348h134l229 -348h-74l-221 195l-221 -195h-74z" />
    <glyph glyph-name="edieresis" unicode="&#xeb;" horiz-adv-x="1251" 
d="M1176 672l-863 -1q-3 -44 -4.5 -75.5t-1.5 -50.5q0 -241 109 -376.5t301 -135.5q158 0 275 106t173 301l31 -41q-61 -211 -199.5 -319.5t-347.5 -108.5q-248 0 -410.5 157t-162.5 394q0 258 157.5 415t413.5 157q222 0 363.5 -113t165.5 -309zM317 715h611
q-6 158 -82.5 250t-200.5 92q-126 0 -211.5 -89.5t-116.5 -252.5zM717 1370q0 45 33.5 79t78.5 34q46 0 79.5 -33.5t33.5 -79.5q0 -49 -32.5 -82t-80.5 -33q-47 0 -79.5 33.5t-32.5 81.5zM352 1370q0 45 34.5 79t80.5 34t78 -33.5t32 -79.5q0 -49 -31.5 -82t-78.5 -33
q-48 0 -81.5 33.5t-33.5 81.5z" />
    <glyph glyph-name="igrave" unicode="&#xec;" horiz-adv-x="537" 
d="M37 -6v16q78 25 106.5 100t28.5 345v51v231q0 166 -23.5 203t-91.5 41v16q73 9 152.5 27.5t173.5 48.5q-4 -68 -6 -162t-2 -231v-236q0 -264 28 -336.5t107 -97.5l-1 -16q-47 3 -98.5 4.5t-140.5 1.5q-76 0 -128.5 -1.5t-104.5 -4.5zM444 1206h-74l-301 183
q-48 29 -66 50.5t-18 49.5q0 32 22.5 56t53.5 24q24 0 52 -16t55 -46z" />
    <glyph glyph-name="iacute" unicode="&#xed;" horiz-adv-x="537" 
d="M37 -6v16q78 25 106.5 100t28.5 345v51v231q0 166 -23.5 203t-91.5 41v16q73 9 152.5 27.5t173.5 48.5q-4 -68 -6 -162t-2 -231v-236q0 -264 28 -336.5t107 -97.5l-1 -16q-47 3 -98.5 4.5t-140.5 1.5q-76 0 -128.5 -1.5t-104.5 -4.5zM92 1206l276 301q27 30 55 46t52 16
q31 0 53.5 -24t22.5 -56q0 -28 -18 -49.5t-66 -50.5l-301 -183h-74z" />
    <glyph glyph-name="icircumflex" unicode="&#xee;" horiz-adv-x="537" 
d="M37 -6v16q78 25 106.5 100t28.5 345v51v231q0 166 -23.5 203t-91.5 41v16q73 9 152.5 27.5t173.5 48.5q-4 -68 -6 -162t-2 -231v-236q0 -264 28 -336.5t107 -97.5l-1 -16q-47 3 -98.5 4.5t-140.5 1.5q-76 0 -128.5 -1.5t-104.5 -4.5zM-27 1206l227 348h134l229 -348h-74
l-221 195l-221 -195h-74z" />
    <glyph glyph-name="idieresis" unicode="&#xef;" horiz-adv-x="537" 
d="M37 -6v16q78 25 106.5 100t28.5 345v51v231q0 166 -23.5 203t-91.5 41v16q73 9 152.5 27.5t173.5 48.5q-4 -68 -6 -162t-2 -231v-236q0 -264 28 -336.5t107 -97.5l-1 -16q-47 3 -98.5 4.5t-140.5 1.5q-76 0 -128.5 -1.5t-104.5 -4.5zM338 1370q0 45 33.5 79t78.5 34
q46 0 79.5 -33.5t33.5 -79.5q0 -49 -32.5 -82t-80.5 -33q-47 0 -79.5 33.5t-32.5 81.5zM-27 1370q0 45 34.5 79t80.5 34t78 -33.5t32 -79.5q0 -49 -31.5 -82t-78.5 -33q-48 0 -81.5 33.5t-33.5 81.5z" />
    <glyph glyph-name="eth" unicode="&#xf0;" horiz-adv-x="1360" 
d="M862 1053q-22 35 -60 87t-85 109l-350 -86l-13 54l328 81q-26 35 -69 91t-56 73l57 29q45 -38 105 -93t76 -69l309 76l14 -57l-274 -68q238 -213 330 -380t92 -374q0 -246 -165.5 -398.5t-434.5 -152.5q-258 0 -423 155t-165 394q0 246 165 398.5t431 152.5q23 0 66 -5
t122 -17zM668 1038q-165 0 -262 -131.5t-97 -359.5q0 -259 94 -396t271 -137q171 0 265.5 134.5t94.5 379.5t-95 377.5t-271 132.5z" />
    <glyph glyph-name="ntilde" unicode="&#xf1;" horiz-adv-x="1327" 
d="M25 -6v16q75 23 103 88t28 285v86v299q0 132 -23.5 168.5t-89.5 40.5v16q68 9 140.5 27.5t152.5 46.5v-303q49 165 155.5 247.5t270.5 82.5q215 0 316.5 -121.5t101.5 -380.5v-180q0 -252 27.5 -315.5t105.5 -86.5l-1 -16q-57 3 -112.5 4.5t-112.5 1.5q-85 0 -137 -1.5
t-100 -4.5v16q75 22 103 88t28 285v86v106q0 233 -70 345t-215 112q-155 0 -247.5 -124t-92.5 -335v-165q0 -244 28 -311t103 -87v-16q-57 3 -112.5 4.5t-112.5 1.5q-85 0 -137 -1.5t-100 -4.5zM947 1524q-22 -113 -71.5 -171.5t-123.5 -58.5q-12 0 -24 1.5t-28 5.5l-106 26
q-27 6 -37.5 8t-15.5 2q-42 0 -64.5 -19t-37.5 -71h-58q22 115 71.5 173.5t125.5 58.5q10 0 25 -2.5t39 -8.5l108 -26q12 -3 24.5 -4.5t26.5 -1.5q34 0 56 21.5t32 66.5h58z" />
    <glyph glyph-name="ograve" unicode="&#xf2;" horiz-adv-x="1341" 
d="M309 539q0 -253 95 -389t270 -136q172 0 266 135.5t94 387.5q0 250 -95 385t-271 135q-168 0 -263.5 -137t-95.5 -381zM76 545q0 241 166.5 395t431.5 154q264 0 428 -155t164 -404q0 -250 -165 -405t-435 -155q-263 0 -426.5 158t-163.5 412zM848 1206h-74l-301 183
q-48 29 -66 50.5t-18 49.5q0 32 22.5 56t53.5 24q24 0 52 -16t55 -46z" />
    <glyph glyph-name="oacute" unicode="&#xf3;" horiz-adv-x="1341" 
d="M309 539q0 -253 95 -389t270 -136q172 0 266 135.5t94 387.5q0 250 -95 385t-271 135q-168 0 -263.5 -137t-95.5 -381zM76 545q0 241 166.5 395t431.5 154q264 0 428 -155t164 -404q0 -250 -165 -405t-435 -155q-263 0 -426.5 158t-163.5 412zM496 1206l276 301
q27 30 55 46t52 16q31 0 53.5 -24t22.5 -56q0 -28 -18 -49.5t-66 -50.5l-301 -183h-74z" />
    <glyph glyph-name="ocircumflex" unicode="&#xf4;" horiz-adv-x="1341" 
d="M309 539q0 -253 95 -389t270 -136q172 0 266 135.5t94 387.5q0 250 -95 385t-271 135q-168 0 -263.5 -137t-95.5 -381zM76 545q0 241 166.5 395t431.5 154q264 0 428 -155t164 -404q0 -250 -165 -405t-435 -155q-263 0 -426.5 158t-163.5 412zM377 1206l227 348h134
l229 -348h-74l-221 195l-221 -195h-74z" />
    <glyph glyph-name="otilde" unicode="&#xf5;" horiz-adv-x="1341" 
d="M309 539q0 -253 95 -389t270 -136q172 0 266 135.5t94 387.5q0 250 -95 385t-271 135q-168 0 -263.5 -137t-95.5 -381zM76 545q0 241 166.5 395t431.5 154q264 0 428 -155t164 -404q0 -250 -165 -405t-435 -155q-263 0 -426.5 158t-163.5 412zM955 1524
q-22 -113 -71.5 -171.5t-123.5 -58.5q-12 0 -24 1.5t-28 5.5l-106 26q-27 6 -37.5 8t-15.5 2q-42 0 -64.5 -19t-37.5 -71h-58q22 115 71.5 173.5t125.5 58.5q10 0 25 -2.5t39 -8.5l108 -26q12 -3 24.5 -4.5t26.5 -1.5q34 0 56 21.5t32 66.5h58z" />
    <glyph glyph-name="odieresis" unicode="&#xf6;" horiz-adv-x="1341" 
d="M309 539q0 -253 95 -389t270 -136q172 0 266 135.5t94 387.5q0 250 -95 385t-271 135q-168 0 -263.5 -137t-95.5 -381zM76 545q0 241 166.5 395t431.5 154q264 0 428 -155t164 -404q0 -250 -165 -405t-435 -155q-263 0 -426.5 158t-163.5 412zM742 1370q0 45 33.5 79
t78.5 34q46 0 79.5 -33.5t33.5 -79.5q0 -49 -32.5 -82t-80.5 -33q-47 0 -79.5 33.5t-32.5 81.5zM377 1370q0 45 34.5 79t80.5 34t78 -33.5t32 -79.5q0 -49 -31.5 -82t-78.5 -33q-48 0 -81.5 33.5t-33.5 81.5z" />
    <glyph glyph-name="divide" unicode="&#xf7;" horiz-adv-x="1706" 
d="M854 367q51 0 88 -37t37 -88q0 -52 -36.5 -88.5t-88.5 -36.5q-53 0 -89 36t-36 89q0 51 37 88t88 37zM254 680h1198v-139h-1198v139zM854 1106q51 0 88 -37.5t37 -89.5q0 -51 -36.5 -88t-88.5 -37t-88.5 36.5t-36.5 88.5t37 89.5t88 37.5z" />
    <glyph glyph-name="oslash" unicode="&#xf8;" horiz-adv-x="1341" 
d="M317 74l-188 -203h-88v14l213 236q-95 99 -136.5 198t-41.5 226q0 241 166 395t428 154q102 0 190 -26.5t174 -82.5l176 195h88v-15l-200 -225q87 -83 130.5 -182t43.5 -217q0 -249 -169.5 -409.5t-436.5 -160.5q-94 0 -177 24.5t-172 78.5zM358 236l596 661
q-50 81 -120.5 120.5t-165.5 39.5q-168 0 -263.5 -137t-95.5 -381q0 -86 12 -160t37 -143zM395 162q50 -74 119 -111t160 -37q172 0 266 136t94 387q0 81 -10.5 151.5t-32.5 132.5z" />
    <glyph glyph-name="ugrave" unicode="&#xf9;" horiz-adv-x="1323" 
d="M1292 10v-10h-256q-24 42 -42 90.5t-31 106.5q-59 -112 -155 -169t-224 -57q-131 0 -231 42t-152 118q-37 54 -52.5 134.5t-15.5 260.5v62v200q0 118 -24.5 152.5t-92.5 40.5v16q61 7 133.5 24t184.5 52q-4 -87 -6 -174t-2 -174v-133q0 -335 69 -450t242 -115
q157 0 242.5 134.5t85.5 385.5v190q0 161 -23 200.5t-90 43.5v16q63 8 136 25.5t179 50.5q-4 -86 -6 -177t-2 -194v-241q0 -260 29 -347t104 -104zM838 1206h-74l-301 183q-48 29 -66 50.5t-18 49.5q0 32 22.5 56t53.5 24q24 0 52 -16t55 -46z" />
    <glyph glyph-name="uacute" unicode="&#xfa;" horiz-adv-x="1323" 
d="M1292 10v-10h-256q-24 42 -42 90.5t-31 106.5q-59 -112 -155 -169t-224 -57q-131 0 -231 42t-152 118q-37 54 -52.5 134.5t-15.5 260.5v62v200q0 118 -24.5 152.5t-92.5 40.5v16q61 7 133.5 24t184.5 52q-4 -87 -6 -174t-2 -174v-133q0 -335 69 -450t242 -115
q157 0 242.5 134.5t85.5 385.5v190q0 161 -23 200.5t-90 43.5v16q63 8 136 25.5t179 50.5q-4 -86 -6 -177t-2 -194v-241q0 -260 29 -347t104 -104zM486 1206l276 301q27 30 55 46t52 16q31 0 53.5 -24t22.5 -56q0 -28 -18 -49.5t-66 -50.5l-301 -183h-74z" />
    <glyph glyph-name="ucircumflex" unicode="&#xfb;" horiz-adv-x="1323" 
d="M1292 10v-10h-256q-24 42 -42 90.5t-31 106.5q-59 -112 -155 -169t-224 -57q-131 0 -231 42t-152 118q-37 54 -52.5 134.5t-15.5 260.5v62v200q0 118 -24.5 152.5t-92.5 40.5v16q61 7 133.5 24t184.5 52q-4 -87 -6 -174t-2 -174v-133q0 -335 69 -450t242 -115
q157 0 242.5 134.5t85.5 385.5v190q0 161 -23 200.5t-90 43.5v16q63 8 136 25.5t179 50.5q-4 -86 -6 -177t-2 -194v-241q0 -260 29 -347t104 -104zM367 1206l227 348h134l229 -348h-74l-221 195l-221 -195h-74z" />
    <glyph glyph-name="udieresis" unicode="&#xfc;" horiz-adv-x="1323" 
d="M1292 10v-10h-256q-24 42 -42 90.5t-31 106.5q-59 -112 -155 -169t-224 -57q-131 0 -231 42t-152 118q-37 54 -52.5 134.5t-15.5 260.5v62v200q0 118 -24.5 152.5t-92.5 40.5v16q61 7 133.5 24t184.5 52q-4 -87 -6 -174t-2 -174v-133q0 -335 69 -450t242 -115
q157 0 242.5 134.5t85.5 385.5v190q0 161 -23 200.5t-90 43.5v16q63 8 136 25.5t179 50.5q-4 -86 -6 -177t-2 -194v-241q0 -260 29 -347t104 -104zM732 1370q0 45 33.5 79t78.5 34q46 0 79.5 -33.5t33.5 -79.5q0 -49 -32.5 -82t-80.5 -33q-47 0 -79.5 33.5t-32.5 81.5z
M367 1370q0 45 34.5 79t80.5 34t78 -33.5t32 -79.5q0 -49 -31.5 -82t-78.5 -33q-48 0 -81.5 33.5t-33.5 81.5z" />
    <glyph glyph-name="yacute" unicode="&#xfd;" horiz-adv-x="1253" 
d="M129 -395l86 229h12q16 -40 45 -59t76 -19q81 0 139 66t58 158q0 39 -15.5 91t-44.5 111l-276 561q-79 161 -132 231.5t-102 84.5l2 14q37 -3 79.5 -4.5t121.5 -1.5q59 0 112.5 1.5t104.5 4.5v-14q-39 -8 -59.5 -24.5t-20.5 -41.5q0 -19 12.5 -50.5t51.5 -104.5l326 -602
l233 493q37 78 55.5 131.5t18.5 85.5q0 48 -28 75t-89 38v14q45 -3 89 -4.5t89 -1.5q48 0 93.5 1.5t90.5 4.5v-14q-52 -21 -118.5 -108.5t-141.5 -233.5l-376 -750q-98 -194 -199.5 -282t-222.5 -88q-21 0 -65 7q-3 0 -5 1zM451 1206l276 301q27 30 55 46t52 16
q31 0 53.5 -24t22.5 -56q0 -28 -18 -49.5t-66 -50.5l-301 -183h-74z" />
    <glyph glyph-name="thorn" unicode="&#xfe;" horiz-adv-x="1343" 
d="M2 -391q79 22 107 97.5t28 354.5v1108q0 155 -23.5 191.5t-90.5 40.5v16q71 9 152 27.5t175 48.5q-4 -64 -6 -158t-2 -235v-244q55 117 149.5 178.5t221.5 61.5q244 0 397.5 -153t153.5 -400q0 -240 -155 -404t-384 -164q-130 0 -234.5 61t-156.5 167v-205
q0 -232 32 -299.5t126 -89.5v-15q-51 3 -106.5 4t-156.5 1q-75 0 -125.5 -1t-101.5 -4v15zM676 1047q-159 0 -250.5 -136t-91.5 -376q0 -241 92 -374.5t256 -133.5q160 0 255 136.5t95 371.5q0 241 -94.5 376.5t-261.5 135.5z" />
    <glyph glyph-name="ydieresis" unicode="&#xff;" horiz-adv-x="1253" 
d="M129 -395l86 229h12q16 -40 45 -59t76 -19q81 0 139 66t58 158q0 39 -15.5 91t-44.5 111l-276 561q-79 161 -132 231.5t-102 84.5l2 14q37 -3 79.5 -4.5t121.5 -1.5q59 0 112.5 1.5t104.5 4.5v-14q-39 -8 -59.5 -24.5t-20.5 -41.5q0 -19 12.5 -50.5t51.5 -104.5l326 -602
l233 493q37 78 55.5 131.5t18.5 85.5q0 48 -28 75t-89 38v14q45 -3 89 -4.5t89 -1.5q48 0 93.5 1.5t90.5 4.5v-14q-52 -21 -118.5 -108.5t-141.5 -233.5l-376 -750q-98 -194 -199.5 -282t-222.5 -88q-21 0 -65 7q-3 0 -5 1zM697 1370q0 45 33.5 79t78.5 34q46 0 79.5 -33.5
t33.5 -79.5q0 -49 -32.5 -82t-80.5 -33q-47 0 -79.5 33.5t-32.5 81.5zM332 1370q0 45 34.5 79t80.5 34t78 -33.5t32 -79.5q0 -49 -31.5 -82t-78.5 -33q-48 0 -81.5 33.5t-33.5 81.5z" />
    <glyph glyph-name="Cacute" unicode="&#x106;" horiz-adv-x="1511" 
d="M1452 145q-131 -94 -277 -139t-321 -45q-339 0 -552.5 197t-213.5 514q0 310 213.5 502t556.5 192q155 0 296 -38.5t259 -113.5l-70 -247l-20 4q-51 177 -157.5 263.5t-274.5 86.5q-244 0 -387.5 -176t-143.5 -475q0 -303 144 -484.5t381 -181.5q180 0 306 107.5
t161 291.5l20 3zM688 1474l276 301q27 30 55 46t52 16q31 0 53.5 -24t22.5 -56q0 -28 -18 -49.5t-66 -50.5l-301 -183h-74z" />
    <glyph glyph-name="cacute" unicode="&#x107;" horiz-adv-x="1186" 
d="M1098 311l30 -39q-69 -147 -188 -224t-281 -77q-255 0 -418 157t-163 402q0 252 164 408t430 156q126 0 238 -31t210 -92l-67 -219h-13q-30 139 -126 221t-228 82q-168 0 -270.5 -134t-102.5 -358q0 -247 106.5 -388.5t289.5 -141.5q127 0 226 70.5t163 207.5zM492 1206
l276 301q27 30 55 46t52 16q31 0 53.5 -24t22.5 -56q0 -28 -18 -49.5t-66 -50.5l-301 -183h-74z" />
    <glyph glyph-name="Ccaron" unicode="&#x10c;" horiz-adv-x="1511" 
d="M1452 145q-131 -94 -277 -139t-321 -45q-339 0 -552.5 197t-213.5 514q0 310 213.5 502t556.5 192q155 0 296 -38.5t259 -113.5l-70 -247l-20 4q-51 177 -157.5 263.5t-274.5 86.5q-244 0 -387.5 -176t-143.5 -475q0 -303 144 -484.5t381 -181.5q180 0 306 107.5
t161 291.5l20 3zM569 1822h74l221 -194l221 194h74l-229 -348h-134z" />
    <glyph glyph-name="ccaron" unicode="&#x10d;" horiz-adv-x="1186" 
d="M1098 311l30 -39q-69 -147 -188 -224t-281 -77q-255 0 -418 157t-163 402q0 252 164 408t430 156q126 0 238 -31t210 -92l-67 -219h-13q-30 139 -126 221t-228 82q-168 0 -270.5 -134t-102.5 -358q0 -247 106.5 -388.5t289.5 -141.5q127 0 226 70.5t163 207.5zM373 1554
h74l221 -194l221 194h74l-229 -348h-134z" />
    <glyph glyph-name="dcroat" unicode="&#x111;" horiz-adv-x="1358" 
d="M1012 827v361h-412v63l412 1q-2 81 -27 113t-88 36v16q60 7 132 24t183 52q-3 -45 -4.5 -95t-1.5 -147h144v-63h-144v-727q0 -258 28.5 -346t102.5 -105v-14h-6q-121 4 -180 4h-68q-24 44 -42.5 91.5t-32.5 101.5q-66 -107 -165.5 -162.5t-224.5 -55.5
q-231 0 -384.5 165.5t-153.5 414.5q0 237 155 389t396 152q135 0 236.5 -71.5t144.5 -197.5zM311 539q0 -237 95 -374.5t256 -137.5q163 0 255.5 133.5t92.5 374.5q0 242 -93 377t-258 135q-159 0 -253.5 -136.5t-94.5 -371.5z" />
    <glyph glyph-name="Gbreve" unicode="&#x11e;" horiz-adv-x="1597" 
d="M1456 146q-112 -95 -255.5 -141t-323.5 -46q-351 0 -570 191.5t-219 498.5q0 328 215.5 521.5t577.5 193.5q160 0 310.5 -42t278.5 -122l-84 -233l-14 2q-35 167 -159.5 260.5t-311.5 93.5q-258 0 -399.5 -172t-141.5 -487q0 -307 142 -483.5t387 -176.5q98 0 175.5 38.5
t115.5 104.5q18 34 26 92.5t8 170.5q0 140 -47.5 186.5t-185.5 58.5v19q124 -5 186 -6.5t115 -1.5q55 0 132 2t169 6v-19q-77 -18 -105 -51t-28 -104v-226q0 -32 1.5 -64t4.5 -64zM498 1788h65q18 -71 72.5 -102.5t163.5 -31.5t163 31.5t70 102.5h66q-20 -137 -96 -208
t-203 -71t-203.5 70.5t-97.5 208.5z" />
    <glyph glyph-name="gbreve" unicode="&#x11f;" horiz-adv-x="1290" 
d="M604 80q-175 0 -271.5 -57.5t-96.5 -159.5q0 -105 102 -166.5t278 -61.5q197 0 311.5 64.5t114.5 173.5q0 102 -110.5 154.5t-327.5 52.5zM635 1059q-133 0 -216 -95.5t-83 -250.5q0 -151 81.5 -241.5t217.5 -90.5q139 0 214 92t75 264q0 148 -78 235t-211 87zM426 111
q-109 8 -158 35.5t-49 80.5t62 88.5t188 55.5q-169 33 -261.5 123.5t-92.5 222.5q0 161 147 270t367 109q37 0 80.5 -5.5t111.5 -19.5q79 84 165.5 128t170.5 44q17 0 38.5 -1.5t47.5 -4.5l-69 -217h-13q-21 43 -68 71.5t-96 28.5q-36 0 -69 -15.5t-66 -47.5
q145 -56 215 -139t70 -199q0 -152 -121.5 -255.5t-316.5 -115.5q-35 -2 -95 -4q-176 -7 -176 -55q0 -46 224 -65q64 -6 100 -9q248 -22 363.5 -90t115.5 -191q0 -154 -173.5 -245.5t-475.5 -91.5q-241 0 -397 78t-156 198q0 98 95 156t292 82zM344 1520h65
q18 -71 72.5 -102.5t163.5 -31.5t163 31.5t70 102.5h66q-20 -137 -96 -208t-203 -71t-203.5 70.5t-97.5 208.5z" />
    <glyph glyph-name="Idotaccent" unicode="&#x130;" horiz-adv-x="616" 
d="M428 461v-12q0 -260 30 -338.5t117 -100.5v-16q-62 3 -123.5 4.5t-150.5 1.5q-95 0 -151 -1.5t-106 -4.5l-1 16q86 20 116.5 98.5t30.5 352.5v694q0 71 -28.5 109t-93.5 55v16q63 -4 123 -6t118 -2t118.5 2t123.5 6v-16q-64 -12 -93.5 -51.5t-29.5 -112.5v-694zM192 1638
q0 48 35 83.5t82 35.5q48 0 83.5 -35.5t35.5 -83.5q0 -51 -34 -85t-85 -34q-50 0 -83.5 34t-33.5 85z" />
    <glyph glyph-name="dotlessi" unicode="&#x131;" horiz-adv-x="537" 
d="M37 -6v16q78 25 106.5 100t28.5 345v51v231q0 166 -23.5 203t-91.5 41v16q73 9 152.5 27.5t173.5 48.5q-4 -68 -6 -162t-2 -231v-236q0 -264 28 -336.5t107 -97.5l-1 -16q-47 3 -98.5 4.5t-140.5 1.5q-76 0 -128.5 -1.5t-104.5 -4.5z" />
    <glyph glyph-name="Lslash" unicode="&#x141;" horiz-adv-x="1368" 
d="M199 565l-189 -129v96l189 130v489q0 74 -27.5 112.5t-91.5 55.5v16q60 -4 119 -6t116 -2q58 0 117 2t119 6v-16q-64 -13 -91.5 -50.5t-27.5 -113.5v-362l420 284v-94l-420 -285v-237q0 -108 3.5 -198.5t6.5 -114.5q9 -58 54 -79.5t206 -21.5q236 0 391.5 65t256.5 203
l14 -2l-109 -313h-974h-70q-32 0 -70 -0.5t-82 -1.5v16q82 15 111 88.5t29 358.5v104z" />
    <glyph glyph-name="lslash" unicode="&#x142;" horiz-adv-x="537" 
d="M33 -6v16q79 24 108 98t29 306v92v160l-160 -115v76l160 114v428q0 150 -24.5 189t-94.5 43v16q73 9 152.5 27.5t173.5 48.5q-6 -101 -9 -196t-3 -191v-254l161 115v-78l-161 -115v-330q0 -257 29 -332.5t110 -101.5l-1 -16q-47 3 -98.5 4.5t-140.5 1.5q-75 0 -127 -1.5
t-104 -4.5z" />
    <glyph glyph-name="OE" unicode="&#x152;" horiz-adv-x="2425" 
d="M1231 461v612q0 138 -61.5 180.5t-237.5 42.5q-292 0 -436 -156.5t-144 -473.5q0 -321 135.5 -481t407.5 -160q214 0 275 60t61 376zM2302 0h-799q-120 0 -329.5 -11.5t-296.5 -11.5q-364 0 -577.5 188.5t-213.5 502.5q0 306 219 492t580 186q82 0 262.5 -9.5t279.5 -9.5
h799l103 -289l-13 -6q-107 136 -241 192t-469 56h-17q-46 0 -75 -0.5t-57 -1.5l-1 -545q27 -1 69.5 -2.5t53.5 -1.5h174q159 0 238.5 41t119.5 139h13v-409h-13q-36 97 -118.5 139.5t-239.5 42.5h-192q-4 0 -38 -1.5t-66 -2.5l-1 -234q0 -118 4 -200.5t10 -111.5
q11 -48 56 -66.5t192 -18.5q270 0 421 62.5t253 205.5l14 -2z" />
    <glyph glyph-name="oe" unicode="&#x153;" horiz-adv-x="2179" 
d="M2101 672h-862q-2 -30 -3 -59.5t-1 -67.5q0 -241 108.5 -376.5t301.5 -135.5q158 0 274.5 106t173.5 301l31 -41q-60 -210 -197.5 -318t-345.5 -108q-146 0 -259 50.5t-183 146.5q-94 -103 -207 -150t-266 -47q-259 0 -424.5 158t-165.5 401q0 252 165 407t433 155
q157 0 267.5 -46t191.5 -145q89 96 198.5 143.5t243.5 47.5q222 0 362.5 -113t163.5 -309zM1245 715h610q-6 158 -82 250t-200 92q-126 0 -211.5 -89.5t-116.5 -252.5zM309 539q0 -253 95 -389t270 -136q172 0 266 135.5t94 387.5q0 250 -95 385t-271 135
q-168 0 -263.5 -137t-95.5 -381z" />
    <glyph glyph-name="Scedilla" unicode="&#x15e;" horiz-adv-x="1374" 
d="M41 92l86 297l14 -2q25 -164 165.5 -272.5t328.5 -108.5q190 0 307 87.5t117 228.5q0 60 -26 107t-72 71q-77 39 -274 66q-79 11 -120 18q-236 40 -343 126t-107 234q0 187 163 304.5t431 117.5q134 0 267.5 -29t242.5 -82l-78 -243l-19 2q-26 144 -136.5 224.5
t-280.5 80.5q-167 0 -274 -77.5t-107 -194.5q0 -57 31.5 -106t84.5 -75q89 -42 333 -76q85 -13 130 -20q190 -31 280.5 -112.5t90.5 -221.5q0 -212 -172 -344.5t-453 -132.5q-176 0 -333.5 34.5t-276.5 98.5zM414 -379l36 90q59 -37 119.5 -57.5t112.5 -20.5q57 0 84.5 22.5
t27.5 68.5q0 42 -28 64t-84 22q-4 0 -16.5 -1.5t-42.5 -5.5l-1 197h66v-115q16 2 31.5 3t38.5 1q80 0 129 -45.5t49 -119.5q0 -84 -59.5 -131.5t-165.5 -47.5q-57 0 -126 17.5t-171 58.5z" />
    <glyph glyph-name="scedilla" unicode="&#x15f;" horiz-adv-x="1161" 
d="M45 68l70 231h12q15 -128 131 -206.5t291 -78.5q147 0 239.5 70t92.5 178q0 89 -57.5 131t-280.5 72q-232 32 -329 103t-97 204q0 144 134.5 234t354.5 90q119 0 222 -17.5t184 -50.5l-60 -197h-12q-33 115 -112.5 171.5t-206.5 56.5q-138 0 -227 -66t-89 -164
q0 -82 66 -123t245 -59q265 -27 363 -91.5t98 -195.5q0 -182 -146 -285.5t-407 -103.5q-131 0 -250.5 24t-228.5 73zM308 -379l36 90q59 -37 119.5 -57.5t112.5 -20.5q57 0 84.5 22.5t27.5 68.5q0 42 -28 64t-84 22q-4 0 -16.5 -1.5t-42.5 -5.5l-1 197h66v-115q16 2 31.5 3
t38.5 1q80 0 129 -45.5t49 -119.5q0 -84 -59.5 -131.5t-165.5 -47.5q-57 0 -126 17.5t-171 58.5z" />
    <glyph glyph-name="Scaron" unicode="&#x160;" horiz-adv-x="1374" 
d="M41 92l86 297l14 -2q25 -164 165.5 -272.5t328.5 -108.5q190 0 307 87.5t117 228.5q0 60 -26 107t-72 71q-77 39 -274 66q-79 11 -120 18q-236 40 -343 126t-107 234q0 187 163 304.5t431 117.5q134 0 267.5 -29t242.5 -82l-78 -243l-19 2q-26 144 -136.5 224.5
t-280.5 80.5q-167 0 -274 -77.5t-107 -194.5q0 -57 31.5 -106t84.5 -75q89 -42 333 -76q85 -13 130 -20q190 -31 280.5 -112.5t90.5 -221.5q0 -212 -172 -344.5t-453 -132.5q-176 0 -333.5 34.5t-276.5 98.5zM393 1822h74l221 -194l221 194h74l-229 -348h-134z" />
    <glyph glyph-name="scaron" unicode="&#x161;" horiz-adv-x="1161" 
d="M45 68l70 231h12q15 -128 131 -206.5t291 -78.5q147 0 239.5 70t92.5 178q0 89 -57.5 131t-280.5 72q-232 32 -329 103t-97 204q0 144 134.5 234t354.5 90q119 0 222 -17.5t184 -50.5l-60 -197h-12q-33 115 -112.5 171.5t-206.5 56.5q-138 0 -227 -66t-89 -164
q0 -82 66 -123t245 -59q265 -27 363 -91.5t98 -195.5q0 -182 -146 -285.5t-407 -103.5q-131 0 -250.5 24t-228.5 73zM287 1554h74l221 -194l221 194h74l-229 -348h-134z" />
    <glyph glyph-name="Ydieresis" unicode="&#x178;" horiz-adv-x="1434" 
d="M467 -6v16q83 20 112 95.5t29 355.5v108l-321 428q-124 165 -185 227.5t-116 94.5v16q6 0 19 -1q151 -7 218 -7q83 0 261 8h18v-16q-50 -11 -73 -32.5t-23 -57.5q0 -49 96 -172l2 -2l317 -396l69 98q279 392 279 460q0 36 -22 60t-74 42l1 16q73 -5 110.5 -6.5t70.5 -1.5
q62 0 187 8h6v-16q-90 -48 -230.5 -215t-377.5 -510v-133q0 -272 29 -350.5t114 -100.5v-16q-84 3 -150 4.5t-116 1.5q-59 0 -121.5 -1.5t-128.5 -4.5zM787 1638q0 45 33.5 79t78.5 34q46 0 79.5 -33.5t33.5 -79.5q0 -49 -32.5 -82t-80.5 -33q-47 0 -79.5 33.5t-32.5 81.5z
M422 1638q0 45 34.5 79t80.5 34t78 -33.5t32 -79.5q0 -49 -31.5 -82t-78.5 -33q-48 0 -81.5 33.5t-33.5 81.5z" />
    <glyph glyph-name="Zcaron" unicode="&#x17d;" horiz-adv-x="1276" 
d="M51 0v14q110 147 220.5 304t242.5 354l307 454q26 42 33.5 59.5t7.5 31.5q0 36 -34.5 49.5t-161.5 13.5q-194 0 -333 -58t-253 -186l-12 4l92 287h1046v-14q-321 -452 -535 -798t-214 -398q0 -41 34.5 -55.5t149.5 -14.5q204 0 353 68t251 207l12 -5l-96 -317h-1110z
M344 1822h74l221 -194l221 194h74l-229 -348h-134z" />
    <glyph glyph-name="zcaron" unicode="&#x17e;" horiz-adv-x="1190" 
d="M63 0v12q139 160 324 404q27 35 39 51l289 379l5 8q81 108 81 135q0 19 -34 28t-108 9q-204 0 -316.5 -49t-209.5 -168l-12 4l98 254h893v-14q-294 -363 -487 -641.5t-193 -329.5q0 -21 27.5 -31t85.5 -10q230 0 363.5 57t242.5 193l14 -4l-96 -291q-10 0 -31 1
q-101 3 -141 3h-137h-697zM301 1554h74l221 -194l221 194h74l-229 -348h-134z" />
    <glyph glyph-name="florin" unicode="&#x192;" horiz-adv-x="1337" 
d="M23 -391l100 244h14q17 -90 52.5 -138.5t84.5 -48.5q72 0 116.5 124t103.5 523l86 594h-177v17l27 49h160q25 240 172 379t373 139q19 0 35 -1t32 -3l-84 -219h-12q-23 73 -57 110t-78 37q-67 0 -104 -88.5t-68 -353.5h205v-19l-25 -47h-184l-70 -588
q-45 -379 -185.5 -550.5t-404.5 -171.5q-26 0 -55 3t-57 9z" />
    <glyph glyph-name="circumflex" unicode="&#x2c6;" 
d="M217 1206l227 348h134l229 -348h-74l-221 195l-221 -195h-74z" />
    <glyph glyph-name="caron" unicode="&#x2c7;" 
d="M217 1554h74l221 -194l221 194h74l-229 -348h-134z" />
    <glyph glyph-name="breve" unicode="&#x2d8;" 
d="M211 1520h65q18 -71 72.5 -102.5t163.5 -31.5t163 31.5t70 102.5h66q-20 -137 -96 -208t-203 -71t-203.5 70.5t-97.5 208.5z" />
    <glyph glyph-name="dotaccent" unicode="&#x2d9;" 
d="M395 1370q0 48 35 83.5t82 35.5q48 0 83.5 -35.5t35.5 -83.5q0 -51 -34 -85t-85 -34q-50 0 -83.5 34t-33.5 85z" />
    <glyph glyph-name="ring" unicode="&#x2da;" 
d="M350 1434q0 -67 48.5 -114.5t115.5 -47.5t115.5 47.5t48.5 114.5q0 68 -48 116.5t-116 48.5t-116 -48.5t-48 -116.5zM264 1436q0 103 72 175t176 72t176 -72t72 -175q0 -105 -72 -176.5t-176 -71.5t-176 71.5t-72 176.5z" />
    <glyph glyph-name="ogonek" unicode="&#x2db;" 
d="M678 35q-83 -63 -128.5 -130.5t-45.5 -125.5q0 -59 24 -92t68 -33q36 0 65.5 17t57.5 55l29 -17q-37 -75 -94 -116.5t-126 -41.5q-71 0 -114 42.5t-43 111.5q0 84 64 165t196 165h47z" />
    <glyph glyph-name="tilde" unicode="&#x2dc;" 
d="M795 1524q-22 -113 -71.5 -171.5t-123.5 -58.5q-12 0 -24 1.5t-28 5.5l-106 26q-27 6 -37.5 8t-15.5 2q-42 0 -64.5 -19t-37.5 -71h-58q22 115 71.5 173.5t125.5 58.5q10 0 25 -2.5t39 -8.5l108 -26q12 -3 24.5 -4.5t26.5 -1.5q34 0 56 21.5t32 66.5h58z" />
    <glyph glyph-name="hungarumlaut" unicode="&#x2dd;" 
d="M567 1206l174 285q24 38 48 56t51 18q31 0 51 -20.5t20 -53.5q0 -22 -15 -45t-48 -51l-221 -189h-60zM322 1206l133 275q20 44 43.5 65t52.5 21q28 0 50 -21.5t22 -50.5q0 -20 -12.5 -41t-45.5 -53l-182 -195h-61z" />
    <glyph glyph-name="Omega" unicode="&#x3a9;" horiz-adv-x="1569" 
d="M1112 231v-26h311l60 184h61l-117 -389h-505q120 216 181.5 435t61.5 427q0 277 -95.5 418t-283.5 141q-189 0 -284.5 -140t-95.5 -419q0 -209 61 -426t182 -436h-506l-116 389h61l59 -184h312v26q-165 183 -237 335t-72 311q0 267 183 443.5t453 176.5t452.5 -177
t182.5 -443q0 -158 -71.5 -309t-237.5 -337z" />
    <glyph glyph-name="pi" unicode="&#x3c0;" horiz-adv-x="1389" 
d="M1370 885l-43 -199h-340q-33 -137 -37 -401q-1 -58 -2 -87q-3 -125 -32.5 -183t-90.5 -58q-42 0 -64 28t-22 83q0 58 77 259t114 359h-387q-35 -142 -40 -414q-1 -49 -1 -73q-4 -127 -33 -184.5t-90 -57.5q-42 0 -63 28t-21 83q0 59 76 260t112 358h-188
q-91 0 -135.5 -41.5t-67.5 -152.5h-57q40 218 124 305.5t251 87.5h960z" />
    <glyph glyph-name="endash" unicode="&#x2013;" 
d="M0 481v105h1024v-105h-1024z" />
    <glyph glyph-name="emdash" unicode="&#x2014;" horiz-adv-x="2048" 
d="M0 586h2048v-105h-2048v105z" />
    <glyph glyph-name="quoteleft" unicode="&#x2018;" horiz-adv-x="573" 
d="M265 1092q6 1 12.5 1.5t19.5 0.5q54 0 86.5 -32t32.5 -85q0 -54 -36 -88.5t-91 -34.5q-61 0 -96 40.5t-35 113.5q0 89 51 188t135 168l27 -18q-55 -83 -81 -144.5t-25 -109.5z" />
    <glyph glyph-name="quoteright" unicode="&#x2019;" horiz-adv-x="573" 
d="M309 1126q-7 -1 -13.5 -1.5t-19.5 -0.5q-54 0 -86 32t-32 85q0 54 35.5 88.5t91.5 34.5q61 0 96 -40.5t35 -113.5q0 -89 -51.5 -188t-135.5 -168l-26 18q55 83 80.5 144.5t25.5 109.5z" />
    <glyph glyph-name="quotesinglbase" unicode="&#x201a;" horiz-adv-x="573" 
d="M309 -16q-6 -1 -13 -1.5t-20 -0.5q-54 0 -86 31.5t-32 84.5q0 54 35.5 88.5t91.5 34.5q61 0 96 -40.5t35 -112.5q0 -89 -51.5 -188t-135.5 -169l-26 19q55 82 80.5 143.5t25.5 110.5z" />
    <glyph glyph-name="quotedblleft" unicode="&#x201c;" horiz-adv-x="901" 
d="M248 1092q7 1 13.5 1.5t19.5 0.5q54 0 86 -32t32 -85t-36.5 -88t-92.5 -35q-61 0 -96 40.5t-35 113.5q0 89 51.5 188t135.5 168l26 -18q-53 -81 -78.5 -143t-25.5 -111zM609 1092q6 1 12.5 1.5t19.5 0.5q55 0 88 -32t33 -85t-36.5 -88t-92.5 -35q-61 0 -96 40.5
t-35 113.5q0 89 51 188t135 168l27 -18q-55 -83 -81 -144.5t-25 -109.5z" />
    <glyph glyph-name="quotedblright" unicode="&#x201d;" horiz-adv-x="901" 
d="M653 1126q-7 -1 -13.5 -1.5t-18.5 -0.5q-55 0 -87 32t-32 85q0 54 36.5 89.5t92.5 35.5q61 0 96 -40.5t35 -113.5q0 -88 -52 -188t-137 -170l-26 18q55 83 80.5 144.5t25.5 109.5zM290 1126q-6 -1 -12.5 -1.5t-19.5 -0.5q-54 0 -86.5 32t-32.5 85q0 54 37 89.5t92 35.5
q62 0 96.5 -40.5t34.5 -113.5q0 -88 -52 -188t-136 -170l-27 18q55 83 81 144.5t25 109.5z" />
    <glyph glyph-name="quotedblbase" unicode="&#x201e;" horiz-adv-x="901" 
d="M653 -16q-6 -1 -13 -1.5t-19 -0.5q-55 0 -87 31.5t-32 84.5q0 54 36.5 88.5t92.5 34.5q61 0 96 -40.5t35 -112.5q0 -88 -52 -187.5t-137 -169.5l-26 19q55 82 80.5 143.5t25.5 110.5zM291 -16q-6 -1 -13 -1.5t-20 -0.5q-54 0 -86.5 31.5t-32.5 84.5q0 54 36.5 88.5
t92.5 34.5q62 0 96.5 -40.5t34.5 -112.5q0 -88 -52 -187.5t-136 -169.5l-27 19q55 82 81 143.5t26 110.5z" />
    <glyph glyph-name="dagger" unicode="&#x2020;" horiz-adv-x="1139" 
d="M668 -301h-199l27 1079l-392 -35v164l392 -33l-25 490h195l-23 -490l391 33v-164l-391 35z" />
    <glyph glyph-name="daggerdbl" unicode="&#x2021;" horiz-adv-x="1139" 
d="M647 279l373 28v-155l-373 28l19 -481h-195l21 481l-373 -28v155l373 -28v518l-373 -29v154l373 -29l-21 471h195l-19 -471l373 29v-154l-373 29v-518z" />
    <glyph glyph-name="bullet" unicode="&#x2022;" horiz-adv-x="1208" 
d="M307 762q0 123 87 209t210 86q122 0 208.5 -86.5t86.5 -208.5t-87.5 -209.5t-209.5 -87.5q-123 0 -209 87t-86 210z" />
    <glyph glyph-name="ellipsis" unicode="&#x2026;" horiz-adv-x="2048" 
d="M215 94q0 53 36.5 89t90.5 36q53 0 90 -36t37 -89q0 -52 -36.5 -87.5t-90.5 -35.5q-56 0 -91.5 35t-35.5 88zM897 94q0 53 36.5 89t90.5 36q53 0 90 -36t37 -89q0 -52 -36.5 -87.5t-90.5 -35.5q-56 0 -91.5 35t-35.5 88zM1581 94q0 53 36.5 89t90.5 36q53 0 90 -36
t37 -89q0 -52 -36.5 -87.5t-90.5 -35.5q-56 0 -91.5 35t-35.5 88z" />
    <glyph glyph-name="perthousand" unicode="&#x2030;" horiz-adv-x="2173" 
d="M1657 301q0 -159 32.5 -228t106.5 -69q76 0 108.5 68t32.5 229q0 158 -33 227.5t-108 69.5q-74 0 -106.5 -69t-32.5 -228zM1491 301q0 153 83 243.5t222 90.5t223 -91t84 -243q0 -151 -84 -242.5t-223 -91.5q-141 0 -223 90t-82 244zM934 301q0 -159 32.5 -228t106.5 -69
q76 0 108.5 68t32.5 229q0 158 -33 227.5t-108 69.5q-74 0 -106.5 -69t-32.5 -228zM768 301q0 153 83 243.5t222 90.5t223 -91t84 -243q0 -151 -84 -242.5t-223 -91.5q-141 0 -223 90t-82 244zM238 956q0 -158 32.5 -227.5t106.5 -69.5q76 0 108.5 68t32.5 229
q0 158 -33 226.5t-108 68.5q-74 0 -106.5 -68t-32.5 -227zM72 954q0 153 83 243.5t222 90.5t223 -90.5t84 -243.5q0 -151 -84 -242t-223 -91q-141 0 -223 89.5t-82 243.5zM213 -33v15l938 1308h88v-16l-936 -1307h-90z" />
    <glyph glyph-name="guilsinglleft" unicode="&#x2039;" horiz-adv-x="702" 
d="M422 143l-262 392l262 389l121 -82l-244 -307l244 -310z" />
    <glyph glyph-name="guilsinglright" unicode="&#x203a;" horiz-adv-x="702" 
d="M281 143l-123 82l243 310l-243 307l123 82l262 -389z" />
    <glyph glyph-name="franc" unicode="&#x20a3;" horiz-adv-x="2083" 
d="M50 -6l-1 16q82 21 110.5 93t28.5 358v682q0 81 -28 121.5t-88 48.5v16q52 -1 116 -1.5t205 -0.5h824l104 -289l-12 -6q-113 135 -267 191.5t-467 56.5q-63 0 -94.5 -0.5t-58.5 -1.5v-545q16 0 35.5 -1t23.5 -1q3 0 26 -1t42 -1h180q164 0 246 41.5t123 138.5h14v-409
h-14q-36 97 -121.5 139.5t-247.5 42.5h-199q-4 0 -39.5 -1.5t-68.5 -2.5v-217q0 -276 29 -352.5t112 -98.5v-16q-85 3 -151 4.5t-115 1.5q-58 0 -119.5 -1.5t-127.5 -4.5zM1340 -6v16q77 24 105 92t28 318v49v307q0 130 -24 167.5t-91 41.5v16q66 9 138 27t155 45v-332
q64 161 160.5 246.5t214.5 85.5q17 0 26.5 -0.5t15.5 -1.5l-73 -231h-16q-19 23 -43.5 35t-55.5 12q-102 0 -155.5 -91.5t-53.5 -267.5v-120q0 -244 27.5 -309.5t104.5 -88.5l-1 -16q-57 3 -112.5 4.5t-112.5 1.5q-85 0 -137 -1.5t-100 -4.5z" />
    <glyph glyph-name="trademark" unicode="&#x2122;" horiz-adv-x="1683" 
d="M780 1442h191l137 -391l143 391h181v-25l-30 -2q-21 -2 -31.5 -15t-10.5 -38v-375q0 -25 10.5 -38t31.5 -15l30 -2v-29h-240v29l31 2q21 2 32 15.5t11 37.5v387l-172 -473h-21l-172 475v-389q0 -24 11 -37.5t32 -15.5l33 -2v-29h-197v29l34 2q20 2 31 15.5t11 37.5v371
q0 24 -11 37.5t-31 15.5l-34 4v27zM250 1442h444l11 -182h-27q-8 78 -40.5 114.5t-94.5 36.5h-17v-424q0 -24 10.5 -37.5t30.5 -15.5l33 -2v-29h-254v29l31 2q21 2 32 15.5t11 37.5v424h-17q-64 0 -96.5 -36t-40.5 -115h-26z" />
    <glyph glyph-name="partialdiff" unicode="&#x2202;" horiz-adv-x="1059" 
d="M756 621q15 87 22.5 168.5t7.5 156.5q0 129 -36.5 194.5t-108.5 65.5q-55 0 -127 -58t-108 -58t-60 22t-24 53q0 62 72 111t173 49q180 0 287 -155t107 -418q0 -335 -144.5 -556t-357.5 -221q-152 0 -253.5 108t-101.5 271q0 198 110.5 326.5t272.5 128.5
q101 0 166 -45.5t103 -142.5zM707 494q0 116 -43.5 178.5t-122.5 62.5q-109 0 -179.5 -129t-70.5 -336q0 -116 43 -177.5t123 -61.5q109 0 179.5 130t70.5 333z" />
    <glyph glyph-name="Delta" unicode="&#x2206;" horiz-adv-x="1350" 
d="M602 1174l-389 -957h768zM666 1497h30l600 -1497h-1243z" />
    <glyph glyph-name="product" unicode="&#x220f;" horiz-adv-x="1630" 
d="M53 1473h1522v-74h-191v-1718h191v-74h-596v74h192v1718h-714v-1718h192v-74h-596v74h191v1718h-191v74z" />
    <glyph glyph-name="summation" unicode="&#x2211;" horiz-adv-x="1462" 
d="M16 1473h1162l110 -365h-78l-73 227q-11 34 -41.5 49t-98.5 15h-690l809 -832v-37l-825 -735h887q61 0 79 13t29 51l72 229h78l-148 -481h-1272v41l920 815l-920 956v54z" />
    <glyph glyph-name="minus" unicode="&#x2212;" horiz-adv-x="1706" 
d="M254 682h1198v-141h-1198v141z" />
    <glyph glyph-name="fraction" unicode="&#x2215;" horiz-adv-x="342" 
d="M-342 -33v15l938 1308h86v-16l-934 -1307h-90z" />
    <glyph glyph-name="periodcentered" unicode="&#x2219;" horiz-adv-x="668" 
d="M207 627q0 52 36.5 88.5t90.5 36.5q53 0 90 -36.5t37 -88.5t-36.5 -87.5t-90.5 -35.5q-56 0 -91.5 34.5t-35.5 88.5z" />
    <glyph glyph-name="radical" unicode="&#x221a;" horiz-adv-x="1305" 
d="M1116 1661h189v-96h-115l-594 -1606h-66l-319 883l-125 -45l-25 80l283 98l256 -709z" />
    <glyph glyph-name="infinity" unicode="&#x221e;" horiz-adv-x="1706" 
d="M915 559q50 -89 116.5 -133.5t150.5 -44.5q101 0 165 67.5t64 172.5q0 101 -59 168t-148 67q-81 0 -146.5 -66.5t-142.5 -230.5zM793 666q-49 88 -115.5 132t-151.5 44q-101 0 -165 -66.5t-64 -171.5q0 -101 59 -168t148 -67q81 0 146.5 66t142.5 231zM864 483
q-71 -136 -148.5 -199t-172.5 -63q-135 0 -228.5 112t-93.5 277q0 175 83.5 283t217.5 108q95 0 170 -61.5t150 -202.5q68 138 147 203.5t176 65.5q133 0 227.5 -113t94.5 -279q0 -174 -83.5 -281.5t-217.5 -107.5q-95 0 -168.5 58.5t-153.5 199.5z" />
    <glyph glyph-name="integral" unicode="&#x222b;" horiz-adv-x="1067" 
d="M311 -262q106 0 120 688q2 108 3 165q12 515 107 737t297 222q80 0 130 -42t50 -107q0 -54 -32 -85.5t-87 -31.5q-42 0 -70 19t-40 54q-6 15 -10.5 51t-20.5 36q-107 0 -121 -619q-4 -193 -8 -303q-17 -479 -111.5 -686t-290.5 -207q-79 0 -129.5 41.5t-50.5 106.5
q0 56 34 87.5t95 31.5q33 0 57 -14.5t39 -42.5q10 -17 15 -59t24 -42z" />
    <glyph glyph-name="approxequal" unicode="&#x2248;" horiz-adv-x="1706" 
d="M1530 586v-156q-105 -73 -199.5 -107t-189.5 -34t-285 67.5t-293 67.5q-82 0 -171.5 -36t-213.5 -122v156q108 73 204 109t183 36q115 0 305 -68.5t273 -68.5q88 0 177 35.5t210 120.5zM1530 954v-155q-105 -73 -199.5 -107.5t-189.5 -34.5t-285 68t-293 68
q-83 0 -171.5 -36t-213.5 -122v156q106 72 202 107.5t185 35.5q116 0 305.5 -67.5t272.5 -67.5q87 0 175 34.5t212 120.5z" />
    <glyph glyph-name="notequal" unicode="&#x2260;" horiz-adv-x="1706" 
d="M1208 1194l105 -82l-187 -235h326v-136h-416l-205 -262h621v-135h-709l-249 -317l-105 84l184 233h-319v135h408l204 262h-612v136h702z" />
    <glyph glyph-name="lessequal" unicode="&#x2264;" horiz-adv-x="1706" 
d="M262 162h1184v-139h-1184v139zM1444 1206v-147l-936 -309l936 -306v-149l-1182 395v121z" />
    <glyph glyph-name="greaterequal" unicode="&#x2265;" horiz-adv-x="1706" 
d="M262 162h1184v-139h-1184v139zM262 1206l1184 -395v-121l-1184 -395v149l938 306l-938 309v147z" />
    <glyph glyph-name="lozenge" unicode="&#x25ca;" horiz-adv-x="1012" 
d="M506 1409l-385 -817l385 -825l385 825zM506 1653l500 -1061l-500 -1069l-500 1069z" />
    <glyph glyph-name="apple" unicode="&#xf000;" horiz-adv-x="1618" 
d="M836 1216q-1 6 -1.5 14t-0.5 23q0 124 95 229.5t236 131.5q1 -10 1.5 -23t0.5 -39q0 -131 -103.5 -234.5t-203.5 -103.5h-8q-3 0 -7.5 1t-8.5 1zM1505 403q-114 -247 -205 -342.5t-204 -95.5q-50 0 -131.5 33t-122.5 33q-45 0 -131 -33t-127 -33q-64 0 -128.5 44
t-129.5 132q-102 140 -157.5 295.5t-55.5 300.5q0 219 125 356.5t323 137.5q68 0 155 -34t124 -34q34 0 121.5 35t152.5 35q110 0 198 -40t161 -124q-102 -65 -151.5 -145.5t-49.5 -182.5q0 -113 60 -200t173 -138z" />
    <glyph glyph-name="fi" unicode="&#xf001;" horiz-adv-x="1229" 
d="M836 1325q0 51 34 85t86 34q51 0 85 -34.5t34 -84.5t-33.5 -83.5t-85.5 -33.5q-53 0 -86.5 32.5t-33.5 84.5zM723 -6v16q78 25 106.5 100t28.5 345v51v231q0 166 -23.5 203t-91.5 41v16q73 9 152.5 27.5t173.5 48.5q-3 -53 -4.5 -128t-1.5 -265v-236q0 -268 27.5 -339
t105.5 -95v-16q-47 3 -99 4.5t-141 1.5q-76 0 -128 -1.5t-105 -4.5zM205 956h-174v13l26 55h148v25q0 208 114.5 325t319.5 117q22 0 47.5 -1.5t52.5 -5.5l-67 -190h-15q-31 76 -63.5 108t-77.5 32q-58 0 -83 -52.5t-25 -177.5v-180h213v-14l-25 -54h-188v-512
q0 -264 28 -336.5t107 -97.5l-1 -16q-47 3 -98.5 4.5t-140.5 1.5q-76 0 -128.5 -1.5t-104.5 -4.5v16q77 24 106 98t29 326v72v450z" />
    <glyph glyph-name="fl" unicode="&#xf002;" horiz-adv-x="1229" 
d="M205 956h-174v13l26 55h148v25q0 208 114.5 325t319.5 117q22 0 47.5 -1.5t52.5 -5.5l-67 -190h-15q-31 76 -63.5 108t-77.5 32q-58 0 -83 -52.5t-25 -177.5v-180h213v-14l-25 -54h-188v-512q0 -264 28 -336.5t107 -97.5l-1 -16q-47 3 -98.5 4.5t-140.5 1.5
q-76 0 -128.5 -1.5t-104.5 -4.5v16q77 24 106 98t29 326v72v450zM730 -6l-1 16q78 24 106.5 98t28.5 326v72v663q0 155 -23.5 191.5t-90.5 40.5v16q69 8 147.5 26t177.5 48q-4 -66 -6 -160t-2 -231v-656q0 -264 28 -336.5t107 -97.5v-16q-47 3 -99 4.5t-140 1.5
q-77 0 -129 -1.5t-104 -4.5z" />
  </font>
</defs>
</svg>
